  0
SECTION
  2
HEADER
  9
$ACADVER
  1
AC1015
  9
$ACADMAINTVER
 70
    20
  9
$DWGCODEPAGE
  3
ANSI_932
  9
$INSBASE
 10
922.019522
 20
-675.4306699999999
 30
0.0
  9
$EXTMIN
 10
-208.7556102929002
 20
0.0
 30
0.0
  9
$EXTMAX
 10
327.5593547912996
 20
197.8577576421108
 30
0.0
  9
$LIMMIN
 10
0.0
 20
0.0
  9
$LIMMAX
 10
420.0
 20
297.0
  9
$ORTHOMODE
 70
     0
  9
$REGENMODE
 70
     1
  9
$FILLMODE
 70
     1
  9
$QTEXTMODE
 70
     0
  9
$MIRRTEXT
 70
     1
  9
$LTSCALE
 40
1.0
  9
$ATTMODE
 70
     1
  9
$TEXTSIZE
 40
30.0
  9
$TRACEWID
 40
0.05
  9
$TEXTSTYLE
  7
SUNPOU
  9
$CLAYER
  8
0
  9
$CELTYPE
  6
BYLAYER
  9
$CECOLOR
 62
   256
  9
$CELTSCALE
 40
1.0
  9
$DISPSILH
 70
     0
  9
$DIMSCALE
 40
1.0
  9
$DIMASZ
 40
2.0
  9
$DIMEXO
 40
10.0
  9
$DIMDLI
 40
0.38
  9
$DIMRND
 40
0.0
  9
$DIMDLE
 40
0.0
  9
$DIMEXE
 40
0.0
  9
$DIMTP
 40
0.0
  9
$DIMTM
 40
0.0
  9
$DIMTXT
 40
10.0
  9
$DIMCEN
 40
0.0
  9
$DIMTSZ
 40
0.0
  9
$DIMTOL
 70
     0
  9
$DIMLIM
 70
     0
  9
$DIMTIH
 70
     0
  9
$DIMTOH
 70
     0
  9
$DIMSE1
 70
     0
  9
$DIMSE2
 70
     0
  9
$DIMTAD
 70
     1
  9
$DIMZIN
 70
     0
  9
$DIMBLK
  1
Dot
  9
$DIMASO
 70
     1
  9
$DIMSHO
 70
     1
  9
$DIMPOST
  1

  9
$DIMAPOST
  1

  9
$DIMALT
 70
     0
  9
$DIMALTD
 70
     2
  9
$DIMALTF
 40
25.4
  9
$DIMLFAC
 40
1.0
  9
$DIMTOFL
 70
     0
  9
$DIMTVP
 40
0.0
  9
$DIMTIX
 70
     0
  9
$DIMSOXD
 70
     0
  9
$DIMSAH
 70
     0
  9
$DIMBLK1
  1

  9
$DIMBLK2
  1

  9
$DIMSTYLE
  2
STANDARD
  9
$DIMCLRD
 70
    60
  9
$DIMCLRE
 70
    70
  9
$DIMCLRT
 70
    60
  9
$DIMTFAC
 40
0.064286
  9
$DIMGAP
 40
3.0
  9
$DIMJUST
 70
     0
  9
$DIMSD1
 70
     0
  9
$DIMSD2
 70
     0
  9
$DIMTOLJ
 70
     1
  9
$DIMTZIN
 70
     0
  9
$DIMALTZ
 70
     0
  9
$DIMALTTZ
 70
     0
  9
$DIMUPT
 70
     0
  9
$DIMDEC
 70
     0
  9
$DIMTDEC
 70
     0
  9
$DIMALTU
 70
     2
  9
$DIMALTTD
 70
     2
  9
$DIMTXSTY
  7
SUNPOU
  9
$DIMAUNIT
 70
     0
  9
$DIMADEC
 70
     0
  9
$DIMALTRND
 40
0.0
  9
$DIMAZIN
 70
     0
  9
$DIMDSEP
 70
    46
  9
$DIMATFIT
 70
     3
  9
$DIMFRAC
 70
     0
  9
$DIMLDRBLK
  1

  9
$DIMLUNIT
 70
     2
  9
$DIMLWD
 70
    -2
  9
$DIMLWE
 70
    -2
  9
$DIMTMOVE
 70
     0
  9
$LUNITS
 70
     2
  9
$LUPREC
 70
     5
  9
$SKETCHINC
 40
0.1
  9
$FILLETRAD
 40
0.0
  9
$AUNITS
 70
     0
  9
$AUPREC
 70
     0
  9
$MENU
  1
acad
  9
$ELEVATION
 40
0.0
  9
$PELEVATION
 40
0.0
  9
$THICKNESS
 40
0.0
  9
$LIMCHECK
 70
     0
  9
$CHAMFERA
 40
0.0
  9
$CHAMFERB
 40
0.0
  9
$CHAMFERC
 40
0.0
  9
$CHAMFERD
 40
0.0
  9
$SKPOLY
 70
     0
  9
$TDCREATE
 40
2450623.654673033
  9
$TDUCREATE
 40
2450623.279673032
  9
$TDUPDATE
 40
2415386.066167720
  9
$TDUUPDATE
 40
2415385.691167720
  9
$TDINDWG
 40
1.6445673611
  9
$TDUSRTIMER
 40
1.6445671875
  9
$USRTIMER
 70
     1
  9
$ANGBASE
 50
0.0
  9
$ANGDIR
 70
     0
  9
$PDMODE
 70
     0
  9
$PDSIZE
 40
0.0
  9
$PLINEWID
 40
0.0
  9
$SPLFRAME
 70
     0
  9
$SPLINETYPE
 70
     6
  9
$SPLINESEGS
 70
     8
  9
$HANDSEED
  5
4B42
  9
$SURFTAB1
 70
     6
  9
$SURFTAB2
 70
     6
  9
$SURFTYPE
 70
     6
  9
$SURFU
 70
     6
  9
$SURFV
 70
     6
  9
$UCSBASE
  2

  9
$UCSNAME
  2

  9
$UCSORG
 10
0.0
 20
0.0
 30
0.0
  9
$UCSXDIR
 10
1.0
 20
0.0
 30
0.0
  9
$UCSYDIR
 10
0.0
 20
1.0
 30
0.0
  9
$UCSORTHOREF
  2

  9
$UCSORTHOVIEW
 70
     0
  9
$UCSORGTOP
 10
0.0
 20
0.0
 30
0.0
  9
$UCSORGBOTTOM
 10
0.0
 20
0.0
 30
0.0
  9
$UCSORGLEFT
 10
0.0
 20
0.0
 30
0.0
  9
$UCSORGRIGHT
 10
0.0
 20
0.0
 30
0.0
  9
$UCSORGFRONT
 10
0.0
 20
0.0
 30
0.0
  9
$UCSORGBACK
 10
0.0
 20
0.0
 30
0.0
  9
$PUCSBASE
  2

  9
$PUCSNAME
  2

  9
$PUCSORG
 10
0.0
 20
0.0
 30
0.0
  9
$PUCSXDIR
 10
1.0
 20
0.0
 30
0.0
  9
$PUCSYDIR
 10
0.0
 20
1.0
 30
0.0
  9
$PUCSORTHOREF
  2

  9
$PUCSORTHOVIEW
 70
     0
  9
$PUCSORGTOP
 10
0.0
 20
0.0
 30
0.0
  9
$PUCSORGBOTTOM
 10
0.0
 20
0.0
 30
0.0
  9
$PUCSORGLEFT
 10
0.0
 20
0.0
 30
0.0
  9
$PUCSORGRIGHT
 10
0.0
 20
0.0
 30
0.0
  9
$PUCSORGFRONT
 10
0.0
 20
0.0
 30
0.0
  9
$PUCSORGBACK
 10
0.0
 20
0.0
 30
0.0
  9
$USERI1
 70
     0
  9
$USERI2
 70
     0
  9
$USERI3
 70
     0
  9
$USERI4
 70
     0
  9
$USERI5
 70
     0
  9
$USERR1
 40
0.0
  9
$USERR2
 40
0.0
  9
$USERR3
 40
0.0
  9
$USERR4
 40
0.0
  9
$USERR5
 40
0.0
  9
$WORLDVIEW
 70
     1
  9
$SHADEDGE
 70
     3
  9
$SHADEDIF
 70
    70
  9
$TILEMODE
 70
     1
  9
$MAXACTVP
 70
    16
  9
$PINSBASE
 10
0.0
 20
0.0
 30
0.0
  9
$PLIMCHECK
 70
     0
  9
$PEXTMIN
 10
1.000000000000000E+20
 20
1.000000000000000E+20
 30
1.000000000000000E+20
  9
$PEXTMAX
 10
-1.000000000000000E+20
 20
-1.000000000000000E+20
 30
-1.000000000000000E+20
  9
$PLIMMIN
 10
0.0
 20
0.0
  9
$PLIMMAX
 10
12.0
 20
9.0
  9
$UNITMODE
 70
     0
  9
$VISRETAIN
 70
     0
  9
$PLINEGEN
 70
     0
  9
$PSLTSCALE
 70
     1
  9
$TREEDEPTH
 70
  3020
  9
$CMLSTYLE
  2
STANDARD
  9
$CMLJUST
 70
     0
  9
$CMLSCALE
 40
1.0
  9
$PROXYGRAPHICS
 70
     1
  9
$MEASUREMENT
 70
     0
  9
$CELWEIGHT
370
    -1
  9
$ENDCAPS
280
     0
  9
$JOINSTYLE
280
     0
  9
$LWDISPLAY
290
     0
  9
$INSUNITS
 70
     0
  9
$HYPERLINKBASE
  1

  9
$STYLESHEET
  1
monochrome.ctb
  9
$XEDIT
290
     1
  9
$CEPSNTYPE
380
     0
  9
$PSTYLEMODE
290
     1
  9
$FINGERPRINTGUID
  2
{FB88A696-E29C-4009-92AF-A3599A8169D5}
  9
$VERSIONGUID
  2
{D1A20F37-3A36-4023-B0A8-F94013BEFF2F}
  9
$EXTNAMES
290
     1
  9
$PSVPSCALE
 40
0.0
  9
$OLESTARTUP
290
     0
  0
ENDSEC
  0
SECTION
  2
CLASSES
  0
CLASS
  1
DICTIONARYVAR
  2
AcDbDictionaryVar
  3
ObjectDBX Classes
 90
        0
280
     0
281
     0
  0
CLASS
  1
ACDBDICTIONARYWDFLT
  2
AcDbDictionaryWithDefault
  3
ObjectDBX Classes
 90
        0
280
     0
281
     0
  0
CLASS
  1
ACDBPLACEHOLDER
  2
AcDbPlaceHolder
  3
ObjectDBX Classes
 90
        0
280
     0
281
     0
  0
CLASS
  1
LAYOUT
  2
AcDbLayout
  3
ObjectDBX Classes
 90
        0
280
     0
281
     0
  0
CLASS
  1
TABLESTYLE
  2
AcDbTableStyle
  3
ObjectDBX Classes
 90
     2047
280
     0
281
     0
  0
CLASS
  1
SORTENTSTABLE
  2
AcDbSortentsTable
  3
ObjectDBX Classes
 90
        0
280
     0
281
     0
  0
ENDSEC
  0
SECTION
  2
TABLES
  0
TABLE
  2
VPORT
  5
12
330
0
100
AcDbSymbolTable
 70
     2
  0
VPORT
  5
4B3C
330
12
100
AcDbSymbolTableRecord
100
AcDbViewportTableRecord
  2
*Active
 70
     0
 10
0.0
 20
0.0
 11
1.0
 21
1.0
 12
59.3973238442768
 22
99.19168296754314
 13
0.0
 23
0.0
 14
1.0
 24
1.0
 15
0.0
 25
0.0
 16
0.0
 26
0.0
 36
1.0
 17
0.0
 27
0.0
 37
0.0
 40
338.3204682620331
 41
1.593464052287581
 42
50.0
 43
0.0
 44
0.0
 50
0.0
 51
0.0
 71
     0
 72
 20000
 73
     1
 74
     1
 75
     0
 76
     0
 77
     0
 78
     0
281
     0
 65
     1
110
0.0
120
0.0
130
0.0
111
1.0
121
0.0
131
0.0
112
0.0
122
1.0
132
0.0
 79
     0
146
0.0
  0
ENDTAB
  0
TABLE
  2
LTYPE
  5
D
330
0
100
AcDbSymbolTable
 70
     1
  0
LTYPE
  5
E
330
D
100
AcDbSymbolTableRecord
100
AcDbLinetypeTableRecord
  2
BYBLOCK
 70
     0
  3

 72
    65
 73
     0
 40
0.0
  0
LTYPE
  5
F
330
D
100
AcDbSymbolTableRecord
100
AcDbLinetypeTableRecord
  2
BYLAYER
 70
     0
  3

 72
    65
 73
     0
 40
0.0
  0
LTYPE
  5
5
330
D
100
AcDbSymbolTableRecord
100
AcDbLinetypeTableRecord
  2
CONTINUOUS
 70
     0
  3
Solid line
 72
    65
 73
     0
 40
0.0
  0
ENDTAB
  0
TABLE
  2
LAYER
  5
A
102
{ACAD_XDICTIONARY
360
1B4
102
}
330
0
100
AcDbSymbolTable
 70
     6
  0
LAYER
  5
4
330
A
100
AcDbSymbolTableRecord
100
AcDbLayerTableRecord
  2
0
 70
     0
 62
     7
  6
CONTINUOUS
370
    -3
390
57
  0
LAYER
  5
25
330
A
100
AcDbSymbolTableRecord
100
AcDbLayerTableRecord
  2
KIJUN
 70
     0
 62
     7
  6
CONTINUOUS
370
    50
390
57
  0
LAYER
  5
22
330
A
100
AcDbSymbolTableRecord
100
AcDbLayerTableRecord
  2
HOJO
 70
     0
 62
     3
  6
CONTINUOUS
370
    20
390
57
  0
LAYER
  5
1B
330
A
100
AcDbSymbolTableRecord
100
AcDbLayerTableRecord
  2
WAKU
 70
     0
 62
     1
  6
CONTINUOUS
370
    -3
390
57
  0
LAYER
  5
31
330
A
100
AcDbSymbolTableRecord
100
AcDbLayerTableRecord
  2
DEFPOINTS
 70
     0
 62
     7
  6
CONTINUOUS
290
     0
370
    -3
390
57
  0
LAYER
  5
28
330
A
100
AcDbSymbolTableRecord
100
AcDbLayerTableRecord
  2
SUNPOU
 70
     0
 62
    70
  6
CONTINUOUS
370
    20
390
57
  0
ENDTAB
  0
TABLE
  2
STYLE
  5
B
330
0
100
AcDbSymbolTable
 70
     2
  0
STYLE
  5
C
330
B
100
AcDbSymbolTableRecord
100
AcDbTextStyleTableRecord
  2
STANDARD
 70
     0
 40
0.0
 41
1.0
 50
0.0
 71
     0
 42
0.2
  3
txt
  4

  0
STYLE
  5
1C
330
B
100
AcDbSymbolTableRecord
100
AcDbTextStyleTableRecord
  2
SUNPOU
 70
     0
 40
0.0
 41
1.0
 50
0.0
 71
     0
 42
30.0
  3
txt
  4
bigfont
  0
ENDTAB
  0
TABLE
  2
VIEW
  5
10
330
0
100
AcDbSymbolTable
 70
     0
  0
ENDTAB
  0
TABLE
  2
UCS
  5
11
330
0
100
AcDbSymbolTable
 70
     0
  0
ENDTAB
  0
TABLE
  2
APPID
  5
14
330
0
100
AcDbSymbolTable
 70
    11
  0
APPID
  5
15
330
14
100
AcDbSymbolTableRecord
100
AcDbRegAppTableRecord
  2
ACAD
 70
     0
  0
APPID
  5
1D3
330
14
100
AcDbSymbolTableRecord
100
AcDbRegAppTableRecord
  2
ACAD_DSTYLE_DIMTEXT_FILL
 70
     0
  0
APPID
  5
1D4
330
14
100
AcDbSymbolTableRecord
100
AcDbRegAppTableRecord
  2
ACAD_DSTYLE_DIMEXT_LENGTH
 70
     0
  0
APPID
  5
1D5
330
14
100
AcDbSymbolTableRecord
100
AcDbRegAppTableRecord
  2
ACAD_DSTYLE_DIMEXT_ENABLED
 70
     0
  0
APPID
  5
1D6
330
14
100
AcDbSymbolTableRecord
100
AcDbRegAppTableRecord
  2
ACAD_DSTYLE_DIM_LINETYPE
 70
     0
  0
APPID
  5
1D7
330
14
100
AcDbSymbolTableRecord
100
AcDbRegAppTableRecord
  2
ACAD_DSTYLE_DIM_EXT1_LINETYPE
 70
     0
  0
APPID
  5
1D8
330
14
100
AcDbSymbolTableRecord
100
AcDbRegAppTableRecord
  2
ACAD_DSTYLE_DIM_EXT2_LINETYPE
 70
     0
  0
APPID
  5
294
330
14
100
AcDbSymbolTableRecord
100
AcDbRegAppTableRecord
  2
ACAD_DSTYLE_DIMJOGGED_JOGANGLE_SYMBOL
 70
     0
  0
APPID
  5
478
330
14
100
AcDbSymbolTableRecord
100
AcDbRegAppTableRecord
  2
ACAD_DSTYLE_DIMARC_LENGTH_SYMBOL
 70
     0
  0
APPID
  5
157B
330
14
100
AcDbSymbolTableRecord
100
AcDbRegAppTableRecord
  2
ACAD_EXEMPT_FROM_CAD_STANDARDS
 70
     0
  0
APPID
  5
2F1F
330
14
100
AcDbSymbolTableRecord
100
AcDbRegAppTableRecord
  2
ACAD_PSEXT
 70
     0
  0
ENDTAB
  0
TABLE
  2
DIMSTYLE
  5
16
330
0
100
AcDbSymbolTable
 70
     1
100
AcDbDimStyleTable
 71
     1
340
1E
  0
DIMSTYLE
105
1E
102
{ACAD_REACTORS
330
3F6F
330
3F70
102
}
330
16
100
AcDbSymbolTableRecord
100
AcDbDimStyleTableRecord
  2
STANDARD
 70
     0
340
C
  0
ENDTAB
  0
TABLE
  2
BLOCK_RECORD
  5
1
330
0
100
AcDbSymbolTable
 70
     3
  0
BLOCK_RECORD
  5
2
102
{ACAD_XDICTIONARY
360
1578
102
}
330
1
100
AcDbSymbolTableRecord
100
AcDbBlockTableRecord
  2
*MODEL_SPACE
340
5A
  0
BLOCK_RECORD
  5
7
330
1
100
AcDbSymbolTableRecord
100
AcDbBlockTableRecord
  2
*PAPER_SPACE
340
5B
  0
BLOCK_RECORD
  5
109
330
1
100
AcDbSymbolTableRecord
100
AcDbBlockTableRecord
  2
_Dot
340
0
102
{BLKREFS
331
4B1D
331
4B1E
331
4B26
331
4B27
102
}
  0
BLOCK_RECORD
  5
3F71
330
1
100
AcDbSymbolTableRecord
100
AcDbBlockTableRecord
  2
*D1
340
0
  0
BLOCK_RECORD
  5
3F7D
330
1
100
AcDbSymbolTableRecord
100
AcDbBlockTableRecord
  2
*D2
340
0
  0
ENDTAB
  0
ENDSEC
  0
SECTION
  2
BLOCKS
  0
BLOCK
  5
3
330
2
100
AcDbEntity
  8
0
100
AcDbBlockBegin
  2
*MODEL_SPACE
 70
     0
 10
0.0
 20
0.0
 30
0.0
  3
*MODEL_SPACE
  1

  0
ENDBLK
  5
6
330
2
100
AcDbEntity
  8
0
100
AcDbBlockEnd
  0
BLOCK
  5
8
330
7
100
AcDbEntity
 67
     1
  8
0
100
AcDbBlockBegin
  2
*PAPER_SPACE
 70
     0
 10
0.0
 20
0.0
 30
0.0
  3
*PAPER_SPACE
  1

  0
ENDBLK
  5
9
330
7
100
AcDbEntity
 67
     1
  8
0
100
AcDbBlockEnd
  0
BLOCK
  5
10C
330
109
100
AcDbEntity
  8
0
100
AcDbBlockBegin
  2
_Dot
 70
     0
 10
0.0
 20
0.0
 30
0.0
  3
_Dot
  1

  0
LWPOLYLINE
  5
10A
330
109
100
AcDbEntity
  8
0
  6
ByBlock
 62
     0
100
AcDbPolyline
 90
        2
 70
     1
 43
0.5
 10
-0.25
 20
0.0
 42
1.0
 10
0.25
 20
0.0
 42
1.0
  0
LINE
  5
10B
330
109
100
AcDbEntity
  8
0
  6
ByBlock
 62
     0
370
    -2
100
AcDbLine
 10
-0.5
 20
0.0
 30
0.0
 11
-1.0
 21
0.0
 31
0.0
  0
ENDBLK
  5
10D
330
109
100
AcDbEntity
  8
0
100
AcDbBlockEnd
  0
BLOCK
  5
3F7B
330
3F71
100
AcDbEntity
  8
0
100
AcDbBlockBegin
  2
*D1
 70
     1
 10
0.0
 20
0.0
 30
0.0
  3
*D1
  1

  0
LINE
  5
4B1A
330
3F71
100
AcDbEntity
  8
SUNPOU
 62
    70
370
    -2
100
AcDbLine
 10
-169.4406452087006
 20
69.61932697749347
 30
0.0
 11
-169.4406452087006
 21
188.8577576421107
 31
0.0
  0
LINE
  5
4B1B
330
3F71
100
AcDbEntity
  8
SUNPOU
 62
    70
370
    -2
100
AcDbLine
 10
326.5593547912996
 20
69.61932697749347
 30
0.0
 11
326.5593547912996
 21
188.8577576421107
 31
0.0
  0
LINE
  5
4B1C
330
3F71
100
AcDbEntity
  8
SUNPOU
 62
    60
370
    -2
100
AcDbLine
 10
-167.4406452087006
 20
188.8577576421107
 30
0.0
 11
324.5593547912996
 21
188.8577576421107
 31
0.0
  0
INSERT
  5
4B1D
330
3F71
100
AcDbEntity
  8
SUNPOU
 62
    60
370
    -2
100
AcDbBlockReference
  2
_Dot
 10
-169.4406452087006
 20
188.8577576421107
 30
0.0
 41
2.0
 42
2.0
 43
2.0
 50
180.0
  0
INSERT
  5
4B1E
330
3F71
100
AcDbEntity
  8
SUNPOU
 62
    60
370
    -2
100
AcDbBlockReference
  2
_Dot
 10
326.5593547912996
 20
188.8577576421107
 30
0.0
 41
2.0
 42
2.0
 43
2.0
  0
MTEXT
  5
4B1F
330
3F71
100
AcDbEntity
  8
SUNPOU
 62
    60
100
AcDbMText
 10
78.55935479129948
 20
194.3577576421107
 30
0.0
 40
7.0
 41
0.0
 71
     5
 72
     1
  1
\A1;496
  7
SUNPOU
 73
     1
 44
1.0
1001
ACAD
1000
MTEXTBEGIN
1070
    73
1070
     1
1070
    44
1040
1.0
1070
    74
1070
     0
1000
MTEXTEND
  0
POINT
  5
4B20
330
3F71
100
AcDbEntity
  8
DEFPOINTS
 62
     0
100
AcDbPoint
 10
-169.4406452087006
 20
64.61932697749347
 30
0.0
  0
POINT
  5
4B21
330
3F71
100
AcDbEntity
  8
DEFPOINTS
 62
     0
100
AcDbPoint
 10
326.5593547912996
 20
64.61932697749347
 30
0.0
  0
POINT
  5
4B22
330
3F71
100
AcDbEntity
  8
DEFPOINTS
 62
     0
100
AcDbPoint
 10
326.5593547912996
 20
188.8577576421107
 30
0.0
  0
ENDBLK
  5
3F7C
330
3F71
100
AcDbEntity
  8
0
100
AcDbBlockEnd
  0
BLOCK
  5
3F87
330
3F7D
100
AcDbEntity
  8
0
100
AcDbBlockBegin
  2
*D2
 70
     1
 10
0.0
 20
0.0
 30
0.0
  3
*D2
  1

  0
LINE
  5
4B23
330
3F7D
100
AcDbEntity
  8
SUNPOU
 62
    70
370
    -2
100
AcDbLine
 10
73.55935479129982
 20
157.0222607033484
 30
0.0
 11
-199.7556102929002
 21
157.0222607033485
 31
0.0
  0
LINE
  5
4B24
330
3F7D
100
AcDbEntity
  8
SUNPOU
 62
    70
370
    -2
100
AcDbLine
 10
73.55935479129925
 20
35.02226070334841
 30
0.0
 11
-199.7556102929002
 21
35.02226070334848
 31
0.0
  0
LINE
  5
4B25
330
3F7D
100
AcDbEntity
  8
SUNPOU
 62
    60
370
    -2
100
AcDbLine
 10
-199.7556102929002
 20
155.0222607033485
 30
0.0
 11
-199.7556102929002
 21
37.02226070334848
 31
0.0
  0
INSERT
  5
4B26
330
3F7D
100
AcDbEntity
  8
SUNPOU
 62
    60
370
    -2
100
AcDbBlockReference
  2
_Dot
 10
-199.7556102929002
 20
157.0222607033485
 30
0.0
 41
2.0
 42
2.0
 43
2.0
 50
90.0
  0
INSERT
  5
4B27
330
3F7D
100
AcDbEntity
  8
SUNPOU
 62
    60
370
    -2
100
AcDbBlockReference
  2
_Dot
 10
-199.7556102929002
 20
35.02226070334848
 30
0.0
 41
2.0
 42
2.0
 43
2.0
 50
270.0
  0
MTEXT
  5
4B28
330
3F7D
100
AcDbEntity
  8
SUNPOU
 62
    60
100
AcDbMText
 10
-205.2556102929002
 20
96.02226070334847
 30
0.0
 40
7.0
 41
0.0
 71
     5
 72
     1
  1
\A1;122
  7
SUNPOU
 11
0.0000000000000001
 21
1.0
 31
0.0
 73
     1
 44
1.0
1001
ACAD
1000
MTEXTBEGIN
1070
    73
1070
     1
1070
    44
1040
1.0
1070
    74
1070
     0
1000
MTEXTEND
  0
POINT
  5
4B29
330
3F7D
100
AcDbEntity
  8
DEFPOINTS
 62
     0
100
AcDbPoint
 10
78.55935479129982
 20
157.0222607033484
 30
0.0
  0
POINT
  5
4B2A
330
3F7D
100
AcDbEntity
  8
DEFPOINTS
 62
     0
100
AcDbPoint
 10
78.55935479129925
 20
35.02226070334841
 30
0.0
  0
POINT
  5
4B2B
330
3F7D
100
AcDbEntity
  8
DEFPOINTS
 62
     0
100
AcDbPoint
 10
-199.7556102929002
 20
35.02226070334848
 30
0.0
  0
ENDBLK
  5
3F88
330
3F7D
100
AcDbEntity
  8
0
100
AcDbBlockEnd
  0
ENDSEC
  0
SECTION
  2
ENTITIES
  0
LINE
  5
1F
330
2
100
AcDbEntity
  8
WAKU
100
AcDbLine
 10
0.0
 20
14.0
 30
0.0
 11
147.8933597240585
 21
13.99999999999999
 31
0.0
  0
LINE
  5
20
330
2
100
AcDbEntity
  8
WAKU
100
AcDbLine
 10
0.0
 20
0.0
 30
0.0
 11
147.8933597240585
 21
0.0
 31
0.0
  0
TEXT
  5
21
330
2
100
AcDbEntity
  8
HOJO
100
AcDbText
 10
9.653966000000025
 20
2.366626000000024
 30
0.0
 40
9.0
  1
TC466
  7
SUNPOU
100
AcDbText
  0
TEXT
  5
23
330
2
100
AcDbEntity
  8
HOJO
100
AcDbText
 10
85.84696046283864
 20
5.044386000000031
 30
0.0
 40
6.0
  1
496×122×15
  7
SUNPOU
100
AcDbText
  0
DIMENSION
  5
3F6F
330
2
100
AcDbEntity
  8
SUNPOU
100
AcDbDimension
  2
*D1
 10
326.5593547912996
 20
188.8577576421107
 30
0.0
 11
78.55935479129948
 21
194.3577576421107
 31
0.0
 70
    32
 71
     5
 42
496.0000000000002
  3
STANDARD
100
AcDbAlignedDimension
 13
-169.4406452087006
 23
64.61932697749347
 33
0.0
 14
326.5593547912996
 24
64.61932697749347
 34
0.0
100
AcDbRotatedDimension
1001
ACAD
1000
DSTYLE
1002
{
1070
    41
1040
2.0
1070
    42
1040
5.0
1070
    44
1040
0.0
1070
    73
1070
     0
1070
    74
1070
     0
1070
    77
1070
     1
1070
    78
1070
     8
1070
   140
1040
7.0
1070
   141
1040
0.0
1070
   146
1040
0.064286
1070
   147
1040
2.0
1070
   176
1070
    60
1070
   177
1070
    70
1070
   178
1070
    60
1070
   271
1070
     6
1070
   272
1070
     0
1070
   340
1005
1C
1070
   342
1005
109
1002
}
  0
DIMENSION
  5
3F70
330
2
100
AcDbEntity
  8
SUNPOU
100
AcDbDimension
  2
*D2
 10
-199.7556102929002
 20
35.02226070334848
 30
0.0
 11
-205.2556102929002
 21
96.02226070334847
 31
0.0
 70
    32
 71
     5
 42
122.0
  3
STANDARD
100
AcDbAlignedDimension
 13
78.55935479129982
 23
157.0222607033484
 33
0.0
 14
78.55935479129925
 24
35.02226070334841
 34
0.0
 50
90.0
100
AcDbRotatedDimension
1001
ACAD
1000
DSTYLE
1002
{
1070
    41
1040
2.0
1070
    42
1040
5.0
1070
    44
1040
0.0
1070
    73
1070
     0
1070
    74
1070
     0
1070
    77
1070
     1
1070
    78
1070
     8
1070
   140
1040
7.0
1070
   141
1040
0.0
1070
   146
1040
0.064286
1070
   147
1040
2.0
1070
   176
1070
    60
1070
   177
1070
    70
1070
   178
1070
    60
1070
   271
1070
     6
1070
   272
1070
     0
1070
   340
1005
1C
1070
   342
1005
109
1002
}
  0
ARC
  5
470B
330
2
100
AcDbEntity
  8
KIJUN
100
AcDbCircle
 10
78.55935479129925
 20
42.46315882598423
 30
0.0
 40
7.440898122635831
100
AcDbArc
 50
198.2434619466975
 51
341.7565380533055
  0
ARC
  5
470C
330
2
100
AcDbEntity
  8
KIJUN
100
AcDbCircle
 10
78.55935479129982
 20
148.5698404170101
 30
0.0
 40
8.452420286338348
100
AcDbArc
 50
11.72388152301394
 51
168.276118476986
  0
ARC
  5
470E
330
2
100
AcDbEntity
  8
KIJUN
100
AcDbCircle
 10
312.1944297123481
 20
66.32569982375369
 30
0.0
 40
14.09610858749723
100
AcDbArc
 50
34.76963584508652
 51
211.2049748166913
  0
ARC
  5
470F
330
2
100
AcDbEntity
  8
KIJUN
100
AcDbCircle
 10
308.1208868500322
 20
64.61932697749347
 30
0.0
 40
18.43846794126736
100
AcDbArc
 50
282.9557329973658
 51
31.90543415650282
  0
ARC
  5
4710
330
2
100
AcDbEntity
  8
KIJUN
100
AcDbCircle
 10
299.3970013794024
 20
103.0786248740644
 30
0.0
 40
57.87473463979616
100
AcDbArc
 50
265.5502408701333
 51
282.8362420849348
  0
ARC
  5
4723
330
2
100
AcDbEntity
  8
KIJUN
100
AcDbCircle
 10
282.7048623409302
 20
43.5975897505343
 30
0.0
 40
12.33119015097589
100
AcDbArc
 50
341.9089566940333
 51
8.30312591308164
  0
ARC
  5
4724
330
2
100
AcDbEntity
  8
KIJUN
100
AcDbCircle
 10
292.5264233823909
 20
51.43122822444832
 30
0.0
 40
11.81657267726584
100
AcDbArc
 50
256.4831114591934
 51
279.2529560149136
  0
ARC
  5
4725
330
2
100
AcDbEntity
  8
KIJUN
100
AcDbCircle
 10
286.6519201834988
 20
26.44169600564899
 30
0.0
 40
13.85443658671666
100
AcDbArc
 50
77.01688225252474
 51
98.02912425081698
  0
ARC
  5
4726
330
2
100
AcDbEntity
  8
KIJUN
100
AcDbCircle
 10
286.5119331513017
 20
59.51542769114905
 30
0.0
 40
19.43817768423373
100
AcDbArc
 50
232.5782956542644
 51
264.7010787201742
  0
ARC
  5
472E
330
2
100
AcDbEntity
  8
KIJUN
100
AcDbCircle
 10
272.0838222291941
 20
45.75736031252697
 30
0.0
 40
3.108674338432307
100
AcDbArc
 50
241.7932853298649
 51
327.2999895358609
  0
ARC
  5
472F
330
2
100
AcDbEntity
  8
KIJUN
100
AcDbCircle
 10
313.0610612399132
 20
124.3753839573984
 30
0.0
 40
91.76469810309546
100
AcDbArc
 50
229.3131702294458
 51
242.4476556552971
  0
ARC
  5
4730
330
2
100
AcDbEntity
  8
KIJUN
100
AcDbCircle
 10
258.6022446325691
 20
53.62943929187693
 30
0.0
 40
5.48925108060417
100
AcDbArc
 50
167.7764177278939
 51
224.2289187854547
  0
ARC
  5
4731
330
2
100
AcDbEntity
  8
KIJUN
100
AcDbCircle
 10
250.7425962905037
 20
47.37172597272177
 30
0.0
 40
4.61679469793222
100
AcDbArc
 50
248.6199685890047
 51
31.74112129016446
  0
ARC
  5
4732
330
2
100
AcDbEntity
  8
KIJUN
100
AcDbCircle
 10
257.8418057400817
 20
67.71839079111396
 30
0.0
 40
26.16373571141292
100
AcDbArc
 50
216.6406365857784
 51
250.3869673006997
  0
ARC
  5
4733
330
2
100
AcDbEntity
  8
KIJUN
100
AcDbCircle
 10
234.3478911505981
 20
54.57507308664691
 30
0.0
 40
3.515318591600776
100
AcDbArc
 50
218.7655560121194
 51
315.3369205309332
  0
ARC
  5
4734
330
2
100
AcDbEntity
  8
KIJUN
100
AcDbCircle
 10
369.9447220556145
 20
155.0567691014036
 30
0.0
 40
172.2820059240166
100
AcDbArc
 50
206.8225720194231
 51
216.5850648206771
  0
ARC
  5
4735
330
2
100
AcDbEntity
  8
KIJUN
100
AcDbCircle
 10
114.5895290145756
 20
30.35092411670391
 30
0.0
 40
111.9391463776094
100
AcDbArc
 50
24.80793620181545
 51
40.69462111869919
  0
ARC
  5
4736
330
2
100
AcDbEntity
  8
KIJUN
100
AcDbCircle
 10
195.0592805684089
 20
111.4200317876562
 30
0.0
 40
9.202834654030908
100
AcDbArc
 50
252.3999002649179
 51
298.5765255494945
  0
ARC
  5
4737
330
2
100
AcDbEntity
  8
KIJUN
100
AcDbCircle
 10
140.0036298183673
 20
62.7139204930312
 30
0.0
 40
65.78140394208119
100
AcDbArc
 50
8.303694264390802
 51
37.378101975678
  0
ARC
  5
4738
330
2
100
AcDbEntity
  8
KIJUN
100
AcDbCircle
 10
201.7931788056448
 20
71.34175539634748
 30
0.0
 40
3.415506632785581
100
AcDbArc
 50
270.1547737473685
 51
14.79720537807967
  0
ARC
  5
473A
330
2
100
AcDbEntity
  8
KIJUN
100
AcDbCircle
 10
-260.6488939560899
 20
40.89201112782004
 30
0.0
 40
463.2408171950993
100
AcDbArc
 50
1.939208142580327
 51
3.345622734436722
  0
ARC
  5
473B
330
2
100
AcDbEntity
  8
KIJUN
100
AcDbCircle
 10
204.6998106476152
 20
56.647809025519
 30
0.0
 40
2.374541284729827
100
AcDbArc
 50
181.934153699655
 51
295.4959785148163
  0
ARC
  5
473D
330
2
100
AcDbEntity
  8
KIJUN
100
AcDbCircle
 10
208.819778336352
 20
48.42387163137175
 30
0.0
 40
6.824284851301767
100
AcDbArc
 50
13.89907121558457
 51
116.9970907871003
  0
ARC
  5
473E
330
2
100
AcDbEntity
  8
KIJUN
100
AcDbCircle
 10
205.16420270044
 20
47.51859150776676
 30
0.0
 40
10.59028605306817
100
AcDbArc
 50
280.874006935024
 51
13.90263982641401
  0
ARC
  5
473F
330
2
100
AcDbEntity
  8
KIJUN
100
AcDbCircle
 10
204.0400241527088
 20
55.37201933689917
 30
0.0
 40
18.51862625120344
100
AcDbArc
 50
221.493003033564
 51
279.705786692574
  0
ARC
  5
4740
330
2
100
AcDbEntity
  8
KIJUN
100
AcDbCircle
 10
212.343628293143
 20
63.39553069714146
 30
0.0
 40
30.0584374997678
100
AcDbArc
 50
185.5126128223428
 51
222.4623797233189
  0
ARC
  5
4741
330
2
100
AcDbEntity
  8
KIJUN
100
AcDbCircle
 10
171.0618934593679
 20
56.02735912049826
 30
0.0
 40
2.644479502141071
100
AcDbArc
 50
200.274383085991
 51
305.4547950825137
  0
ARC
  5
4742
330
2
100
AcDbEntity
  8
KIJUN
100
AcDbCircle
 10
1181.060842465088
 20
-1429.418427900863
 30
0.0
 40
1793.643163918143
100
AcDbArc
 50
123.8323274484083
 51
124.2111233072412
  0
ARC
  5
4743
330
2
100
AcDbEntity
  8
KIJUN
100
AcDbCircle
 10
146.4787319105367
 20
48.78417481523971
 30
0.0
 40
22.99022211621438
100
AcDbArc
 50
15.97372572237052
 51
38.74723423014265
  0
ARC
  5
4744
330
2
100
AcDbEntity
  8
KIJUN
100
AcDbCircle
 10
132.7130329796451
 20
85.88687930946457
 30
0.0
 40
38.99415702480247
100
AcDbArc
 50
248.2150495489625
 51
324.3745958405409
  0
ARC
  5
4745
330
2
100
AcDbEntity
  8
KIJUN
100
AcDbCircle
 10
113.4350432570558
 20
43.93386824162354
 30
0.0
 40
4.757762380390983
100
AcDbArc
 50
85.9502871529783
 51
143.3639063342469
  0
ARC
  5
4746
330
2
100
AcDbEntity
  8
KIJUN
100
AcDbCircle
 10
116.3880990998758
 20
50.54335300753772
 30
0.0
 40
2.045534419634929
100
AcDbArc
 50
266.7664905030145
 51
334.9592574322006
  0
ARC
  5
4747
330
2
100
AcDbEntity
  8
KIJUN
100
AcDbCircle
 10
89.58215186811981
 20
-307.5956819854629
 30
0.0
 40
357.0956270928284
100
AcDbArc
 50
85.71351688197605
 51
86.11593228217547
  0
ARC
  5
4749
330
2
100
AcDbEntity
  8
KIJUN
100
AcDbCircle
 10
94.54613904588132
 20
54.56705565933967
 30
0.0
 40
16.96717820618644
100
AcDbArc
 50
238.2835954866998
 51
332.6540210929348
  0
ARC
  5
474A
330
2
100
AcDbEntity
  8
KIJUN
100
AcDbCircle
 10
293.6217133156767
 20
105.0715785213185
 30
0.0
 40
46.50782252484407
100
AcDbArc
 50
249.208587683735
 51
278.0540024396144
  0
ARC
  5
474B
330
2
100
AcDbEntity
  8
KIJUN
100
AcDbCircle
 10
261.9485230669511
 20
106.4606844018368
 30
0.0
 40
47.36162917948099
100
AcDbArc
 50
288.6740775685721
 51
296.4263690753026
  0
ARC
  5
474C
330
2
100
AcDbEntity
  8
KIJUN
100
AcDbCircle
 10
275.2221106299582
 20
64.24815971459003
 30
0.0
 40
7.807146561829492
100
AcDbArc
 50
358.5309803107296
 51
45.53788497507922
  0
ARC
  5
474D
330
2
100
AcDbEntity
  8
KIJUN
100
AcDbCircle
 10
276.1146440134266
 20
139.9909506678786
 30
0.0
 40
66.1104969369834
100
AcDbArc
 50
247.9770830202114
 51
265.7733013338379
  0
ARC
  5
474E
330
2
100
AcDbEntity
  8
KIJUN
100
AcDbCircle
 10
270.0162685007757
 20
58.68124104536119
 30
0.0
 40
15.42779484102614
100
AcDbArc
 50
46.22048865867177
 51
85.44267233838249
  0
ARC
  5
474F
330
2
100
AcDbEntity
  8
KIJUN
100
AcDbCircle
 10
252.7625569717361
 20
104.1307837472148
 30
0.0
 40
13.94749682917111
100
AcDbArc
 50
243.182778076185
 51
275.1367108271477
  0
ARC
  5
4750
330
2
100
AcDbEntity
  8
KIJUN
100
AcDbCircle
 10
254.2611420537576
 20
85.79162253107091
 30
0.0
 40
4.454690001292918
100
AcDbArc
 50
331.1125651315376
 51
93.2149919746546
  0
ARC
  5
4751
330
2
100
AcDbEntity
  8
KIJUN
100
AcDbCircle
 10
248.7496039298623
 20
89.4746659355018
 30
0.0
 40
11.07395265877037
100
AcDbArc
 50
283.4464448850212
 51
328.2025704742814
  0
ARC
  5
4752
330
2
100
AcDbEntity
  8
KIJUN
100
AcDbCircle
 10
244.572277698031
 20
94.4647218483294
 30
0.0
 40
3.367227473915735
100
AcDbArc
 50
304.3083235575245
 51
91.33087136550239
  0
ARC
  5
4753
330
2
100
AcDbEntity
  8
KIJUN
100
AcDbCircle
 10
245.4893413534327
 20
115.4135697338462
 30
0.0
 40
17.61067521475132
100
AcDbArc
 50
243.5018011576222
 51
266.7601912145331
  0
ARC
  5
4754
330
2
100
AcDbEntity
  8
KIJUN
100
AcDbCircle
 10
332.8273108363102
 20
299.7568673836776
 30
0.0
 40
221.5936297437702
100
AcDbArc
 50
237.7420940045539
 51
244.5581957098155
  0
ARC
  5
4755
330
2
100
AcDbEntity
  8
KIJUN
100
AcDbCircle
 10
150.634303877511
 20
14.44375524247803
 30
0.0
 40
116.9384185611681
100
AcDbArc
 50
56.86415628170141
 51
86.93636426102914
  0
ARC
  5
4756
330
2
100
AcDbEntity
  8
KIJUN
100
AcDbCircle
 10
140.588258764912
 20
118.248449647194
 30
0.0
 40
20.82514112753121
100
AcDbArc
 50
38.50928032407353
 51
53.93484627963605
  0
ARC
  5
4757
330
2
100
AcDbEntity
  8
KIJUN
100
AcDbCircle
 10
149.7220563471454
 20
136.2234822319146
 30
0.0
 40
3.327809449631166
100
AcDbArc
 50
339.9470029165431
 51
43.7618904385464
  0
ARC
  5
4759
330
2
100
AcDbEntity
  8
KIJUN
100
AcDbCircle
 10
136.5152555741869
 20
121.8606278260746
 30
0.0
 40
22.83389731171237
100
AcDbArc
 50
46.871093165091
 51
90.07313991783917
  0
ARC
  5
475C
330
2
100
AcDbEntity
  8
KIJUN
100
AcDbCircle
 10
133.6874339332585
 20
144.5484195428139
 30
0.0
 40
2.802483618157643
100
AcDbArc
 50
2.988050777086927
 51
82.76391919750876
  0
ARC
  5
475D
330
2
100
AcDbEntity
  8
KIJUN
100
AcDbCircle
 10
130.8428582374228
 20
126.3857091923694
 30
0.0
 40
21.18557109639634
100
AcDbArc
 50
81.31908555005862
 51
125.0121050469339
  0
ARC
  5
475E
330
2
100
AcDbEntity
  8
KIJUN
100
AcDbCircle
 10
110.4420222317654
 20
127.4167119170901
 30
0.0
 40
18.28533334625241
100
AcDbArc
 50
63.19585997691574
 51
111.9984199413856
  0
ARC
  5
475F
330
2
100
AcDbEntity
  8
KIJUN
100
AcDbCircle
 10
98.93938784494572
 20
141.7555651839596
 30
0.0
 40
5.337830809214329
100
AcDbArc
 50
29.3364490550527
 51
111.3798226209157
  0
ARC
  5
4760
330
2
100
AcDbEntity
  8
KIJUN
100
AcDbCircle
 10
101.6882850833195
 20
133.6782426272291
 30
0.0
 40
13.86675525096228
100
AcDbArc
 50
109.7894679637063
 51
133.2133046727239
  0
ARC
  5
4761
330
2
100
AcDbEntity
  8
KIJUN
100
AcDbCircle
 10
88.32117148527334
 20
146.86801371317
 30
0.0
 40
3.728154946781223
100
AcDbArc
 50
6.353643600707867
 51
113.4854341620036
  0
ARC
  5
4762
330
2
100
AcDbEntity
  8
KIJUN
100
AcDbCircle
 10
141.82101936699
 20
78.42229957355954
 30
0.0
 40
14.30564878625718
100
AcDbArc
 50
141.0810565319839
 51
273.6827610812879
  0
ARC
  5
4763
330
2
100
AcDbEntity
  8
KIJUN
100
AcDbCircle
 10
145.4582384060289
 20
76.25700412624095
 30
0.0
 40
18.50555593164207
100
AcDbArc
 50
51.92892053372286
 51
142.9399896793338
  0
ARC
  5
4764
330
2
100
AcDbEntity
  8
KIJUN
100
AcDbCircle
 10
158.8937051485765
 20
80.44379557799841
 30
0.0
 40
10.57714289443036
100
AcDbArc
 50
74.89980532023102
 51
101.0331831476032
  0
ARC
  5
4765
330
2
100
AcDbEntity
  8
KIJUN
100
AcDbCircle
 10
162.2194703229216
 20
94.66845002383115
 30
0.0
 40
4.05305080856041
100
AcDbArc
 50
261.9106060678837
 51
349.2017206973076
  0
ARC
  5
4766
330
2
100
AcDbEntity
  8
KIJUN
100
AcDbCircle
 10
151.5893232038827
 20
97.00699326885697
 30
0.0
 40
14.93622471821788
100
AcDbArc
 50
348.0295135680188
 51
58.38517692165793
  0
ARC
  5
4767
330
2
100
AcDbEntity
  8
KIJUN
100
AcDbCircle
 10
130.5659794099135
 20
85.32364915428303
 30
0.0
 40
24.42721933520461
100
AcDbArc
 50
186.3472009601554
 51
299.8925645660356
  0
ARC
  5
4768
330
2
100
AcDbEntity
  8
KIJUN
100
AcDbCircle
 10
133.2104209720157
 20
85.8985774320717
 30
0.0
 40
27.12044683572275
100
AcDbArc
 50
94.63527339640945
 51
186.9367499774267
  0
ARC
  5
4769
330
2
100
AcDbEntity
  8
KIJUN
100
AcDbCircle
 10
135.8387405849885
 20
116.8016681840077
 30
0.0
 40
6.182204249816471
100
AcDbArc
 50
218.7709131837625
 51
320.9854329871644
  0
ARC
  5
476A
330
2
100
AcDbEntity
  8
KIJUN
100
AcDbCircle
 10
140.3605714613411
 20
110.3739595456074
 30
0.0
 40
2.551493410364666
100
AcDbArc
 50
17.59847959674841
 51
83.66230327849121
  0
ARC
  5
476B
330
2
100
AcDbEntity
  8
KIJUN
100
AcDbCircle
 10
152.5931430897478
 20
121.0662803606244
 30
0.0
 40
13.94538283170047
100
AcDbArc
 50
225.3497866277732
 51
295.708455241577
  0
ARC
  5
476C
330
2
100
AcDbEntity
  8
KIJUN
100
AcDbCircle
 10
160.0941882233077
 20
108.4400302424753
 30
0.0
 40
1.452941686657501
100
AcDbArc
 50
117.6917354387264
 51
177.5827995007602
  0
ARC
  5
4800
330
2
100
AcDbEntity
  8
KIJUN
100
AcDbCircle
 10
45.54878055285155
 20
143.3075838069679
 30
0.0
 40
46.64714803568318
100
AcDbArc
 50
0.5857573030685364
 51
4.885884523785961
  0
ARC
  5
4809
330
2
100
AcDbEntity
  8
KIJUN
100
AcDbCircle
 10
141.036171670111
 20
86.44460173605088
 30
0.0
 40
47.12792779073009
100
AcDbArc
 50
179.91628421775
 51
213.9124398388895
  0
ARC
  5
480A
330
2
100
AcDbEntity
  8
KIJUN
100
AcDbCircle
 10
73.22288694153257
 20
109.0806467951578
 30
0.0
 40
30.61313351846044
100
AcDbArc
 50
293.8976759794364
 51
312.50881954481
  0
ARC
  5
480B
330
2
100
AcDbEntity
  8
KIJUN
100
AcDbCircle
 10
100.2124855769339
 20
70.3579446356974
 30
0.0
 40
10.34988795163806
100
AcDbArc
 50
219.3560720337229
 51
279.5247577042699
  0
ARC
  5
480C
330
2
100
AcDbEntity
  8
KIJUN
100
AcDbCircle
 10
111.7516241181254
 20
80.97607455546807
 30
0.0
 40
26.02085794746019
100
AcDbArc
 50
196.1957239096809
 51
221.322209510938
  0
ARC
  5
480D
330
2
100
AcDbEntity
  8
KIJUN
100
AcDbCircle
 10
81.40493152065198
 20
76.66539859273206
 30
0.0
 40
6.115427300740797
100
AcDbArc
 50
331.1901899643664
 51
46.37210696541771
  0
ARC
  5
48B5
330
2
100
AcDbEntity
  8
KIJUN
100
AcDbCircle
 10
309.3687679020242
 20
64.81856513854356
 30
0.0
 40
2.855856018406416
100
AcDbArc
 50
151.3312594841445
 51
237.7573632424216
  0
ARC
  5
48B6
330
2
100
AcDbEntity
  8
KIJUN
100
AcDbCircle
 10
312.6625003741201
 20
63.10474881251974
 30
0.0
 40
6.568442685845115
100
AcDbArc
 50
359.8273215583852
 51
151.9980087869076
  0
ARC
  5
48B7
330
2
100
AcDbEntity
  8
KIJUN
100
AcDbCircle
 10
306.1692874734738
 20
59.40473389473095
 30
0.0
 40
3.434920095286343
100
AcDbArc
 50
257.8453530413863
 51
60.797980928257
  0
ARC
  5
48B8
330
2
100
AcDbEntity
  8
KIJUN
100
AcDbCircle
 10
301.8736013317142
 20
50.31368140938494
 30
0.0
 40
6.755093675997352
100
AcDbArc
 50
58.07192505028542
 51
83.37985424158738
  0
ARC
  5
48B9
330
2
100
AcDbEntity
  8
KIJUN
100
AcDbCircle
 10
304.0092143912266
 20
63.01060008366573
 30
0.0
 40
15.22188043069514
100
AcDbArc
 50
282.9808960818129
 51
0.279867854706117
  0
ARC
  5
48BA
330
2
100
AcDbEntity
  8
KIJUN
100
AcDbCircle
 10
284.5754876369265
 20
37.8661509145461
 30
0.0
 40
8.771772265810939
100
AcDbArc
 50
24.61933710726536
 51
85.5115554097801
  0
ARC
  5
48BB
330
2
100
AcDbEntity
  8
KIJUN
100
AcDbCircle
 10
309.8969061954991
 20
68.71920779336514
 30
0.0
 40
13.75744824053853
100
AcDbArc
 50
224.8161496539933
 51
238.2246588489802
  0
ARC
  5
48BE
330
2
100
AcDbEntity
  8
KIJUN
100
AcDbCircle
 10
284.6184586779948
 20
52.61537147241094
 30
0.0
 40
9.938914520820414
100
AcDbArc
 50
226.81281718873
 51
280.0102356379771
  0
ARC
  5
48BF
330
2
100
AcDbEntity
  8
KIJUN
100
AcDbCircle
 10
286.9390515188241
 20
30.26886608940961
 30
0.0
 40
12.57288456743008
100
AcDbArc
 50
63.49581536388948
 51
92.70322060327428
  0
ARC
  5
48C0
330
2
100
AcDbEntity
  8
KIJUN
100
AcDbCircle
 10
309.7223157466038
 20
60.5681635300065
 30
0.0
 40
4.028428719410837
100
AcDbArc
 50
357.5226322051144
 51
96.76139718436113
  0
ARC
  5
48C1
330
2
100
AcDbEntity
  8
KIJUN
100
AcDbCircle
 10
303.0182495534802
 20
60.88952169571015
 30
0.0
 40
10.74016528212635
100
AcDbArc
 50
307.9279114133618
 51
357.3557821442541
  0
ARC
  5
48C2
330
2
100
AcDbEntity
  8
KIJUN
100
AcDbCircle
 10
297.5289111633217
 20
67.93264590978532
 30
0.0
 40
19.66980325795299
100
AcDbArc
 50
267.8913747819354
 51
307.9299870008783
  0
ARC
  5
48C3
330
2
100
AcDbEntity
  8
KIJUN
100
AcDbCircle
 10
298.4574831553345
 20
121.5531507410863
 30
0.0
 40
73.29561535791208
100
AcDbArc
 50
230.7328425291632
 51
268.708269833446
  0
ARC
  5
48C4
330
2
100
AcDbEntity
  8
KIJUN
100
AcDbCircle
 10
271.7051050458922
 20
98.83331218526066
 30
0.0
 40
33.81786707218934
100
AcDbArc
 50
238.5612582843188
 51
282.9792884984533
  0
ARC
  5
48C6
330
2
100
AcDbEntity
  8
KIJUN
100
AcDbCircle
 10
294.7934920331386
 20
102.7739886601299
 30
0.0
 40
47.06070614805339
100
AcDbArc
 50
245.406112487145
 51
277.1280845636237
  0
ARC
  5
48C7
330
2
100
AcDbEntity
  8
KIJUN
100
AcDbCircle
 10
275.9987112398853
 20
89.42965854386427
 30
0.0
 40
27.859553505398
100
AcDbArc
 50
255.9606673294941
 51
272.2922060180871
  0
ARC
  5
48C8
330
2
100
AcDbEntity
  8
KIJUN
100
AcDbCircle
 10
265.4103908393258
 20
54.98641406509503
 30
0.0
 40
17.65205128763655
100
AcDbArc
 50
38.10447163928235
 51
86.15530345743232
  0
ARC
  5
48C9
330
2
100
AcDbEntity
  8
KIJUN
100
AcDbCircle
 10
232.4943111808096
 20
53.79369274175161
 30
0.0
 40
4.67023138315184
100
AcDbArc
 50
338.789537223052
 51
24.89826947187817
  0
ARC
  5
48CA
330
2
100
AcDbEntity
  8
KIJUN
100
AcDbCircle
 10
242.8938038234961
 20
51.37993422370311
 30
0.0
 40
10.89177325591759
100
AcDbArc
 50
18.25453630328681
 51
90.20769757298506
  0
ARC
  5
48CB
330
2
100
AcDbEntity
  8
KIJUN
100
AcDbCircle
 10
243.063715377124
 20
62.85675651446954
 30
0.0
 40
0.621459613460322
100
AcDbArc
 50
92.6850485288863
 51
250.3094862153855
  0
ARC
  5
48CC
330
2
100
AcDbEntity
  8
KIJUN
100
AcDbCircle
 10
245.9015790360513
 20
75.6841417927935
 30
0.0
 40
12.53877311875258
100
AcDbArc
 50
256.7824613183527
 51
297.1747549847995
  0
ARC
  5
48CD
330
2
100
AcDbEntity
  8
KIJUN
100
AcDbCircle
 10
250.1679909440276
 20
67.31267683586387
 30
0.0
 40
3.142997057680265
100
AcDbArc
 50
297.6819611796569
 51
96.56769125639707
  0
ARC
  5
48CE
330
2
100
AcDbEntity
  8
KIJUN
100
AcDbCircle
 10
249.3252505018834
 20
77.77494206406041
 30
0.0
 40
7.35578570234296
100
AcDbArc
 50
245.8792284959314
 51
273.7668808076766
  0
ARC
  5
48CF
330
2
100
AcDbEntity
  8
KIJUN
100
AcDbCircle
 10
266.6680034067631
 20
113.1296784492666
 30
0.0
 40
46.73126628215928
100
AcDbArc
 50
223.0238930063547
 51
244.1865473068912
  0
ARC
  5
48D0
330
2
100
AcDbEntity
  8
KIJUN
100
AcDbCircle
 10
251.4600264560588
 20
114.1275260820652
 30
0.0
 40
35.42350878135897
100
AcDbArc
 50
240.5868596537852
 51
269.7811167907291
  0
ARC
  5
48D1
330
2
100
AcDbEntity
  8
KIJUN
100
AcDbCircle
 10
233.4374249249547
 20
82.13916308605488
 30
0.0
 40
1.292595620569558
100
AcDbArc
 50
61.0340550465386
 51
223.7827967258082
  0
ARC
  5
48D2
330
2
100
AcDbEntity
  8
KIJUN
100
AcDbCircle
 10
242.284174881396
 20
102.0051903715635
 30
0.0
 40
11.13837907684518
100
AcDbArc
 50
250.8042342043482
 51
292.0750121661811
  0
ARC
  5
48D4
330
2
100
AcDbEntity
  8
KIJUN
100
AcDbCircle
 10
233.2276669375539
 20
58.13274802213027
 30
0.0
 40
1.805645633552376
100
AcDbArc
 50
212.2444197845404
 51
315.4625434207925
  0
ARC
  5
48D5
330
2
100
AcDbEntity
  8
KIJUN
100
AcDbCircle
 10
378.8914310481394
 20
155.1233463300938
 30
0.0
 40
176.8054114430745
100
AcDbArc
 50
207.7567914539538
 51
213.6433324983582
  0
ARC
  5
48D6
330
2
100
AcDbEntity
  8
KIJUN
100
AcDbCircle
 10
246.819978017697
 20
76.52319868356864
 30
0.0
 40
12.05692450411554
100
AcDbArc
 50
223.7779387206033
 51
282.5367582325352
  0
ARC
  5
48D7
330
2
100
AcDbEntity
  8
KIJUN
100
AcDbCircle
 10
378.7920968359784
 20
196.4645118663306
 30
0.0
 40
190.3857106689496
100
AcDbArc
 50
213.9691900306868
 51
222.3615163538906
  0
ARC
  5
48D8
330
2
100
AcDbEntity
  8
KIJUN
100
AcDbCircle
 10
145.4515870407347
 20
37.37835330124159
 30
0.0
 40
92.03457974325315
100
AcDbArc
 50
34.93910488580158
 51
71.31437218790278
  0
ARC
  5
48D9
330
2
100
AcDbEntity
  8
KIJUN
100
AcDbCircle
 10
103.2097287929682
 20
-35.94203962718751
 30
0.0
 40
177.2306565587143
100
AcDbArc
 50
43.20922182249765
 51
51.41424059234719
  0
ARC
  5
48DA
330
2
100
AcDbEntity
  8
KIJUN
100
AcDbCircle
 10
246.9513933340638
 20
98.77333827854398
 30
0.0
 40
17.96050487084682
100
AcDbArc
 50
231.4098306982218
 51
278.6185053141695
  0
ARC
  5
48DB
330
2
100
AcDbEntity
  8
KIJUN
100
AcDbCircle
 10
247.8794767045171
 20
88.94542613191882
 30
0.0
 40
8.123483274167709
100
AcDbArc
 50
282.5371272149064
 51
344.4757087959839
  0
ARC
  5
48DC
330
2
100
AcDbEntity
  8
KIJUN
100
AcDbCircle
 10
243.8933337633979
 20
114.5093859618529
 30
0.0
 40
18.52342911912633
100
AcDbArc
 50
250.1694122388236
 51
274.8135269039646
  0
ARC
  5
48DD
330
2
100
AcDbEntity
  8
KIJUN
100
AcDbCircle
 10
243.3804609189735
 20
95.058452205869
 30
0.0
 40
2.293287392312844
100
AcDbArc
 50
263.530239442827
 51
25.65371748195184
  0
ARC
  5
48DE
330
2
100
AcDbEntity
  8
KIJUN
100
AcDbCircle
 10
188.7044785827566
 20
106.1303324161263
 30
0.0
 40
11.1132579166524
100
AcDbArc
 50
345.4494074246256
 51
5.307126970229221
  0
ARC
  5
48DF
330
2
100
AcDbEntity
  8
KIJUN
100
AcDbCircle
 10
162.8951420678789
 20
71.21359933575857
 30
0.0
 40
51.49543610263699
100
AcDbArc
 50
44.26805789616993
 51
67.37069670988494
  0
ARC
  5
48E0
330
2
100
AcDbEntity
  8
KIJUN
100
AcDbCircle
 10
249.516652021087
 20
63.88123672852208
 30
0.0
 40
13.34703183784635
100
AcDbArc
 50
213.3301110967039
 51
259.1957897860346
  0
ARC
  5
48E1
330
2
100
AcDbEntity
  8
KIJUN
100
AcDbCircle
 10
245.221762608328
 20
41.28463969574989
 30
0.0
 40
9.654113235250541
100
AcDbArc
 50
40.5275546612152
 51
79.29700950384809
  0
ARC
  5
48E3
330
2
100
AcDbEntity
  8
KIJUN
100
AcDbCircle
 10
247.7669463458449
 20
75.70316596806444
 30
0.0
 40
18.56009086862502
100
AcDbArc
 50
217.4131774981115
 51
265.790617578429
  0
ARC
  5
48E4
330
2
100
AcDbEntity
  8
KIJUN
100
AcDbCircle
 10
395.0919729120514
 20
188.2800850703867
 30
0.0
 40
203.9737511112869
100
AcDbArc
 50
209.4087582241477
 51
217.3874599901953
  0
ARC
  5
48E5
330
2
100
AcDbEntity
  8
KIJUN
100
AcDbCircle
 10
256.6519515706353
 20
140.1590033122056
 30
0.0
 40
51.71411782466507
100
AcDbArc
 50
229.3152945376613
 51
245.7676214996205
  0
ARC
  5
48E6
330
2
100
AcDbEntity
  8
KIJUN
100
AcDbCircle
 10
184.683412602089
 20
97.70307493081379
 30
0.0
 40
9.061383171541676
100
AcDbArc
 50
33.07333309408705
 51
71.51964534952139
  0
ARC
  5
48E7
330
2
100
AcDbEntity
  8
KIJUN
100
AcDbCircle
 10
216.027709401048
 20
140.6757858523361
 30
0.0
 40
39.24855556464089
100
AcDbArc
 50
230.5936968246624
 51
243.5059263622585
  0
ARC
  5
48E8
330
2
100
AcDbEntity
  8
KIJUN
100
AcDbCircle
 10
139.2989759099271
 20
44.34256956390055
 30
0.0
 40
83.91401965147549
100
AcDbArc
 50
51.86946868812779
 51
76.97434105583845
  0
ARC
  5
48E9
330
2
100
AcDbEntity
  8
KIJUN
100
AcDbCircle
 10
202.7822673167652
 20
70.76644954088269
 30
0.0
 40
3.004463271661941
100
AcDbArc
 50
186.6736197839894
 51
250.9656160118771
  0
ARC
  5
48EA
330
2
100
AcDbEntity
  8
KIJUN
100
AcDbCircle
 10
126.4127082307425
 20
61.01776377340019
 30
0.0
 40
73.9849704635483
100
AcDbArc
 50
7.298950215134209
 51
23.56618740650029
  0
ARC
  5
48EC
330
2
100
AcDbEntity
  8
KIJUN
100
AcDbCircle
 10
200.2347883078726
 20
49.06187384358688
 30
0.0
 40
6.133227275950753
100
AcDbArc
 50
235.8152606124362
 51
9.741574715550287
  0
ARC
  5
48ED
330
2
100
AcDbEntity
  8
KIJUN
100
AcDbCircle
 10
206.4468076179055
 20
60.43120772112399
 30
0.0
 40
19.06955100099332
100
AcDbArc
 50
175.7729025878239
 51
239.5713735212495
  0
ARC
  5
48EE
330
2
100
AcDbEntity
  8
KIJUN
100
AcDbCircle
 10
206.5426461126624
 20
59.63722493164374
 30
0.0
 40
24.13415041790053
100
AcDbArc
 50
155.8751067962117
 51
177.932353552824
  0
ARC
  5
48EF
330
2
100
AcDbEntity
  8
KIJUN
100
AcDbCircle
 10
198.6537127186641
 20
66.6647540770004
 30
0.0
 40
34.42208356036519
100
AcDbArc
 50
160.5255157949092
 51
185.82134347279
  0
ARC
  5
48F0
330
2
100
AcDbEntity
  8
KIJUN
100
AcDbCircle
 10
164.4375887364731
 20
86.95493286612309
 30
0.0
 40
8.500417110456105
100
AcDbArc
 50
152.9137690762424
 51
258.6330610879092
  0
ARC
  5
48F1
330
2
100
AcDbEntity
  8
KIJUN
100
AcDbCircle
 10
167.0896727379985
 20
97.04108464391126
 30
0.0
 40
18.92133872347787
100
AcDbArc
 50
256.7790320234084
 51
267.3077577889198
  0
ARC
  5
48F3
330
2
100
AcDbEntity
  8
KIJUN
100
AcDbCircle
 10
177.6803272348329
 20
68.83431054665061
 30
0.0
 40
10.99049511629065
100
AcDbArc
 50
138.1031787911482
 51
233.5796496832474
  0
ARC
  5
48F4
330
2
100
AcDbEntity
  8
KIJUN
100
AcDbCircle
 10
157.3908443397031
 20
94.26328827667996
 30
0.0
 40
18.37273619091454
100
AcDbArc
 50
298.6539715909156
 51
344.6808504314852
  0
ARC
  5
48F5
330
2
100
AcDbEntity
  8
KIJUN
100
AcDbCircle
 10
152.9924628041624
 20
92.79369043735858
 30
0.0
 40
23.39679150884816
100
AcDbArc
 50
324.4849305188214
 51
39.54417406471014
  0
ARC
  5
48F6
330
2
100
AcDbEntity
  8
KIJUN
100
AcDbCircle
 10
99.83504143978292
 20
137.1107772060239
 30
0.0
 40
92.55526777332081
100
AcDbArc
 50
318.8230897265321
 51
321.2689148820631
  0
ARC
  5
48F8
330
2
100
AcDbEntity
  8
KIJUN
100
AcDbCircle
 10
138.1629392105243
 20
82.60823096422289
 30
0.0
 40
45.64637656878042
100
AcDbArc
 50
334.496366392043
 51
17.32093003571825
  0
ARC
  5
48F9
330
2
100
AcDbEntity
  8
KIJUN
100
AcDbCircle
 10
129.8834143739634
 20
78.94946575011897
 30
0.0
 40
57.32696150037916
100
AcDbArc
 50
347.3977929712684
 51
17.53619649964793
  0
ARC
  5
48FA
330
2
100
AcDbEntity
  8
KIJUN
100
AcDbCircle
 10
214.8699587580888
 20
60.70701802246111
 30
0.0
 40
29.60150788388962
100
AcDbArc
 50
168.8292527918957
 51
184.4220625060099
  0
ARC
  5
48FB
330
2
100
AcDbEntity
  8
KIJUN
100
AcDbCircle
 10
140.9387519972724
 20
80.96229605358823
 30
0.0
 40
43.55252632672119
100
AcDbArc
 50
20.47686048712833
 51
67.00792070545981
  0
ARC
  5
48FD
330
2
100
AcDbEntity
  8
KIJUN
100
AcDbCircle
 10
144.7009242660089
 20
74.88009037155283
 30
0.0
 40
7.975311240078199
100
AcDbArc
 50
339.0239514057352
 51
182.690646611443
  0
ARC
  5
48FE
330
2
100
AcDbEntity
  8
KIJUN
100
AcDbCircle
 10
140.146716819737
 20
76.79873402433606
 30
0.0
 40
12.91554951177092
100
AcDbArc
 50
281.5825739140215
 51
338.3088598502257
  0
ARC
  5
48FF
330
2
100
AcDbEntity
  8
KIJUN
100
AcDbCircle
 10
141.4519219468546
 20
78.84951479907783
 30
0.0
 40
6.412773945042828
100
AcDbArc
 50
146.1688614032118
 51
222.6383667054233
  0
ARC
  5
4900
330
2
100
AcDbEntity
  8
KIJUN
100
AcDbCircle
 10
144.8889804843363
 20
76.81201226609312
 30
0.0
 40
10.4045989252786
100
AcDbArc
 50
48.28251328446391
 51
147.3862576041415
  0
ARC
  5
4901
330
2
100
AcDbEntity
  8
KIJUN
100
AcDbCircle
 10
131.2242374228386
 20
81.06828942983407
 30
0.0
 40
29.02516552216086
100
AcDbArc
 50
237.3947022479159
 51
321.6097930994166
  0
ARC
  5
4902
330
2
100
AcDbEntity
  8
KIJUN
100
AcDbCircle
 10
142.1201583199109
 20
72.72956436214099
 30
0.0
 40
15.3082207941451
100
AcDbArc
 50
320.7465634574897
 51
50.71589356306026
  0
ARC
  5
4903
330
2
100
AcDbEntity
  8
KIJUN
100
AcDbCircle
 10
133.2088832929306
 20
85.56673013173181
 30
0.0
 40
33.89243341995765
100
AcDbArc
 50
103.5476299377961
 51
238.6662590293742
  0
ARC
  5
4905
330
2
100
AcDbEntity
  8
KIJUN
100
AcDbCircle
 10
159.3557977097445
 20
131.5075046353231
 30
0.0
 40
23.01724959122052
100
AcDbArc
 50
253.3563595131913
 51
268.2242345189835
  0
ARC
  5
4906
330
2
100
AcDbEntity
  8
KIJUN
100
AcDbCircle
 10
153.4329898918562
 20
111.6519177439107
 30
0.0
 40
2.297151630314842
100
AcDbArc
 50
154.1693135683173
 51
253.0487802023881
  0
ARC
  5
4907
330
2
100
AcDbEntity
  8
KIJUN
100
AcDbCircle
 10
130.5368007347626
 20
121.4913272396574
 30
0.0
 40
22.62626823835135
100
AcDbArc
 50
337.0062642786425
 51
37.4709143605143
  0
ARC
  5
4909
330
2
100
AcDbEntity
  8
KIJUN
100
AcDbCircle
 10
167.3981166010234
 20
117.8768547999256
 30
0.0
 40
11.40587369697184
100
AcDbArc
 50
169.0854574992646
 51
225.6080181080414
  0
ARC
  5
490A
330
2
100
AcDbEntity
  8
KIJUN
100
AcDbCircle
 10
106.946798620347
 20
128.6671203601482
 30
0.0
 40
50.00224389680065
100
AcDbArc
 50
350.0607013805538
 51
2.920839853990393
  0
ARC
  5
490B
330
2
100
AcDbEntity
  8
KIJUN
100
AcDbCircle
 10
110.5176090268318
 20
48.45727531408195
 30
0.0
 40
7.819560704435944
100
AcDbArc
 50
8.977972212123091
 51
145.5067945634848
  0
ARC
  5
490C
330
2
100
AcDbEntity
  8
KIJUN
100
AcDbCircle
 10
109.5968468225827
 20
60.71364321362679
 30
0.0
 40
31.59307562457317
100
AcDbArc
 50
190.7610559472165
 51
220.647642015247
  0
ARC
  5
490D
330
2
100
AcDbEntity
  8
KIJUN
100
AcDbCircle
 10
93.47119214852648
 20
47.80971492067965
 30
0.0
 40
8.055938714232738
100
AcDbArc
 50
269.8156428080322
 51
345.2963583044908
  0
ARC
  5
490F
330
2
100
AcDbEntity
  8
KIJUN
100
AcDbCircle
 10
116.4549720919942
 20
43.88555992854745
 30
0.0
 40
15.30747162037977
100
AcDbArc
 50
143.9884649380476
 51
172.9476173337393
  0
ARC
  5
4910
330
2
100
AcDbEntity
  8
KIJUN
100
AcDbCircle
 10
97.60792597326862
 20
46.76667770470894
 30
0.0
 40
3.483987554215483
100
AcDbArc
 50
23.7187275149962
 51
180.3900693027999
  0
ARC
  5
4911
330
2
100
AcDbEntity
  8
KIJUN
100
AcDbCircle
 10
89.94828312658786
 20
46.98489031284404
 30
0.0
 40
4.182738600691378
100
AcDbArc
 50
202.7879875285573
 51
356.684136967971
  0
ARC
  5
4912
330
2
100
AcDbEntity
  8
KIJUN
100
AcDbCircle
 10
141.6281829370201
 20
73.27896386066988
 30
0.0
 40
62.15676544179657
100
AcDbArc
 50
183.8177576868619
 51
206.6854790345382
  0
ARC
  5
4916
330
2
100
AcDbEntity
  8
KIJUN
100
AcDbCircle
 10
98.3662481635738
 20
58.25880824325844
 30
0.0
 40
6.06999332294426
100
AcDbArc
 50
285.599856355696
 51
13.95939211591678
  0
ARC
  5
4917
330
2
100
AcDbEntity
  8
KIJUN
100
AcDbCircle
 10
97.96850193155478
 20
62.54314942963595
 30
0.0
 40
10.33213439317687
100
AcDbArc
 50
219.3239388479036
 51
281.3312807255222
  0
ARC
  5
4918
330
2
100
AcDbEntity
  8
KIJUN
100
AcDbCircle
 10
117.6410776754618
 20
79.13998902964099
 30
0.0
 40
36.06976467980003
100
AcDbArc
 50
194.6507244591137
 51
219.9153625603321
  0
ARC
  5
491A
330
2
100
AcDbEntity
  8
KIJUN
100
AcDbCircle
 10
78.55935479129971
 20
89.50428754444629
 30
0.0
 40
17.79051460691939
100
AcDbArc
 50
242.5387828293416
 51
297.461217170658
  0
ARC
  5
491B
330
2
100
AcDbEntity
  8
KIJUN
100
AcDbCircle
 10
78.55935479129766
 20
124.9677720274063
 30
0.0
 40
44.44098726497992
100
AcDbArc
 50
260.8525354087543
 51
279.1474645912522
  0
ARC
  5
491D
330
2
100
AcDbEntity
  8
KIJUN
100
AcDbCircle
 10
102.4324305027232
 20
56.34557907907387
 30
0.0
 40
3.838827913815601
100
AcDbArc
 50
61.62195296822861
 51
97.59398372891869
  0
ARC
  5
491E
330
2
100
AcDbEntity
  8
KIJUN
100
AcDbCircle
 10
94.11399128446158
 20
45.62623829216843
 30
0.0
 40
7.150666391438526
100
AcDbArc
 50
1.111607719000173
 51
20.8223871959521
  0
ARC
  5
4920
330
2
100
AcDbEntity
  8
KIJUN
100
AcDbCircle
 10
78.55935479129937
 20
157.1913698975719
 30
0.0
 40
8.535236307517788
100
AcDbArc
 50
251.1029700622945
 51
288.8970299377056
  0
ARC
  5
4921
330
2
100
AcDbEntity
  8
KIJUN
100
AcDbCircle
 10
91.46700574113049
 20
144.3952095095965
 30
0.0
 40
7.494565041340644
100
AcDbArc
 50
128.1694735577476
 51
134.4538367142825
  0
ARC
  5
4922
330
2
100
AcDbEntity
  8
KIJUN
100
AcDbCircle
 10
111.8823260333686
 20
114.4284545966087
 30
0.0
 40
30.17224871322051
100
AcDbArc
 50
148.5010625361328
 51
176.8775557006361
  0
ARC
  5
4923
330
2
100
AcDbEntity
  8
KIJUN
100
AcDbCircle
 10
52.54047435327686
 20
153.2620916637637
 30
0.0
 40
40.7699285835006
100
AcDbArc
 50
325.5395257809579
 51
346.557698332317
  0
ARC
  5
4924
330
2
100
AcDbEntity
  8
KIJUN
100
AcDbCircle
 10
150.0254207417207
 20
95.22815607606668
 30
0.0
 40
69.56387692506615
100
AcDbArc
 50
150.6170056925831
 51
162.9377876477221
  0
ARC
  5
4925
330
2
100
AcDbEntity
  8
KIJUN
100
AcDbCircle
 10
82.67165970022393
 20
115.9884780386033
 30
0.0
 40
0.9205798084070337
100
AcDbArc
 50
174.7985443845397
 51
337.6816835719841
  0
ARC
  5
4927
330
2
100
AcDbEntity
  8
KIJUN
100
AcDbCircle
 10
78.55935479129937
 20
88.46297944895544
 30
0.0
 40
7.990388164614904
100
AcDbArc
 50
9.07624321761461
 51
170.9237567823853
  0
ARC
  5
4928
330
2
100
AcDbEntity
  8
KIJUN
100
AcDbCircle
 10
89.6392028903889
 20
90.31159074510602
 30
0.0
 40
3.243277692631699
100
AcDbArc
 50
190.4478650657246
 51
346.9302029307802
  0
ARC
  5
4929
330
2
100
AcDbEntity
  8
KIJUN
100
AcDbCircle
 10
187.6307767793947
 20
62.86379256068139
 30
0.0
 40
96.66028432002063
100
AcDbArc
 50
151.4353439633529
 51
165.8377916496048
  0
ARC
  5
492A
330
2
100
AcDbEntity
  8
KIJUN
100
AcDbCircle
 10
123.2016992961826
 20
112.6622444843345
 30
0.0
 40
7.821644222020234
100
AcDbArc
 50
1.964128069871561
 51
74.63914870156742
  0
ARC
  5
492B
330
2
100
AcDbEntity
  8
KIJUN
100
AcDbCircle
 10
125.1636645993881
 20
95.93375389785222
 30
0.0
 40
25.99744327840653
100
AcDbArc
 50
123.1264369937743
 51
149.6189433419501
  0
ARC
  5
4932
330
2
100
AcDbEntity
  8
KIJUN
100
AcDbCircle
 10
104.9021198390404
 20
107.4622174116695
 30
0.0
 40
17.29318822472202
100
AcDbArc
 50
86.88271659007762
 51
162.5184342595208
  0
ARC
  5
4933
330
2
100
AcDbEntity
  8
KIJUN
100
AcDbCircle
 10
158.944635068225
 20
81.09397943023926
 30
0.0
 40
74.26220448242037
100
AcDbArc
 50
145.4361680309395
 51
155.7480233032123
  0
ARC
  5
4934
330
2
100
AcDbEntity
  8
KIJUN
100
AcDbCircle
 10
89.85532497179212
 20
112.216250569605
 30
0.0
 40
1.513312095832904
100
AcDbArc
 50
163.0644212926646
 51
335.853689409045
  0
ARC
  5
4935
330
2
100
AcDbEntity
  8
KIJUN
100
AcDbCircle
 10
106.0692192083066
 20
127.9986094117626
 30
0.0
 40
3.276643696977483
100
AcDbArc
 50
266.0328078300908
 51
53.12397759694559
  0
ARC
  5
4936
330
2
100
AcDbEntity
  8
KIJUN
100
AcDbCircle
 10
101.428961947563
 20
108.7244600037678
 30
0.0
 40
22.87024947964904
100
AcDbArc
 50
73.20969717373756
 51
86.48072583308186
  0
ARC
  5
4937
330
2
100
AcDbEntity
  8
KIJUN
100
AcDbCircle
 10
108.7284227741396
 20
114.2900857657889
 30
0.0
 40
18.24053599074207
100
AcDbArc
 50
64.60708468975517
 51
108.8573720137779
  0
ARC
  5
4938
330
2
100
AcDbEntity
  8
KIJUN
100
AcDbCircle
 10
112.8050100908182
 20
138.0461964975884
 30
0.0
 40
8.18502293714714
100
AcDbArc
 50
297.2316821727791
 51
44.05212589220937
  0
ARC
  5
493B
330
2
100
AcDbEntity
  8
KIJUN
100
AcDbCircle
 10
118.5187169265641
 20
82.76659177849424
 30
0.0
 40
44.15944298913995
100
AcDbArc
 50
80.19114632873325
 51
98.75593633026221
  0
ARC
  5
493C
330
2
100
AcDbEntity
  8
KIJUN
100
AcDbCircle
 10
121.9617856360927
 20
105.6262746601982
 30
0.0
 40
24.51921428849626
100
AcDbArc
 50
38.40338716232708
 51
115.4551568184954
  0
ARC
  5
493D
330
2
100
AcDbEntity
  8
KIJUN
100
AcDbCircle
 10
128.9970206984544
 20
149.072768554741
 30
0.0
 40
8.67499841744973
100
AcDbArc
 50
316.0509981577044
 51
329.6886343367702
  0
ARC
  5
493E
330
2
100
AcDbEntity
  8
KIJUN
100
AcDbCircle
 10
151.1619402550566
 20
147.4606848669964
 30
0.0
 40
12.49259113523875
100
AcDbArc
 50
257.6707886809105
 51
277.7571393839695
  0
ARC
  5
493F
330
2
100
AcDbEntity
  8
KIJUN
100
AcDbCircle
 10
164.3136074979513
 20
121.5544237422879
 30
0.0
 40
84.260198523528
100
AcDbArc
 50
171.8102899207771
 51
182.4148081230071
  0
ARC
  5
4940
330
2
100
AcDbEntity
  8
KIJUN
100
AcDbCircle
 10
-21.4222149105463
 20
146.2096753739223
 30
0.0
 40
103.1140969306147
100
AcDbArc
 50
352.9519419110654
 51
0.0285102131234167
  0
ARC
  5
4941
330
2
100
AcDbEntity
  8
KIJUN
100
AcDbCircle
 10
105.0653462429536
 20
113.7306765049111
 30
0.0
 40
17.96019859361435
100
AcDbArc
 50
97.1405174107085
 51
166.0990133811035
  0
ARC
  5
4946
330
2
100
AcDbEntity
  8
KIJUN
100
AcDbCircle
 10
120.7501679631485
 20
103.8560443337037
 30
0.0
 40
16.96268998598962
100
AcDbArc
 50
74.53371007313743
 51
125.2660108323435
  0
ARC
  5
4947
330
2
100
AcDbEntity
  8
KIJUN
100
AcDbCircle
 10
121.7182774421537
 20
106.9023225924099
 30
0.0
 40
19.85463026770834
100
AcDbArc
 50
17.61239684558673
 51
77.4225700249833
  0
ARC
  5
4948
330
2
100
AcDbEntity
  8
KIJUN
100
AcDbCircle
 10
133.2372814754383
 20
114.5457674986025
 30
0.0
 40
10.14236991742452
100
AcDbArc
 50
340.4113703881239
 51
38.48502279195377
  0
ARC
  5
4949
330
2
100
AcDbEntity
  8
KIJUN
100
AcDbCircle
 10
-123.7589232949583
 20
163.5248432069176
 30
0.0
 40
224.5571418840316
100
AcDbArc
 50
341.5621768566893
 51
344.5901545018681
  0
ARC
  5
494A
330
2
100
AcDbEntity
  8
KIJUN
100
AcDbCircle
 10
188.4311815734526
 20
64.71126313324063
 30
0.0
 40
105.3705115931443
100
AcDbArc
 50
157.7683034880631
 51
163.8055523618337
  0
ARC
  5
494C
330
2
100
AcDbEntity
  8
KIJUN
100
AcDbCircle
 10
91.77220770630867
 20
104.1222645130366
 30
0.0
 40
0.9898575115319882
100
AcDbArc
 50
344.3427498249392
 51
152.5538283204893
  0
ARC
  5
494D
330
2
100
AcDbEntity
  8
KIJUN
100
AcDbCircle
 10
-140.0379672402125
 20
111.8128330087293
 30
0.0
 40
224.5571418840316
100
AcDbArc
 50
356.4469503817189
 51
359.6842283880867
  0
ARC
  5
494E
330
2
100
AcDbEntity
  8
KIJUN
100
AcDbCircle
 10
187.1129602486325
 20
97.70411839984987
 30
0.0
 40
105.3705115931443
100
AcDbArc
 50
172.862377374282
 51
179.6930636898135
  0
ARC
  5
494F
330
2
100
AcDbEntity
  8
KIJUN
100
AcDbCircle
 10
83.52595461716338
 20
110.5849771877363
 30
0.0
 40
0.9898575115319882
100
AcDbArc
 50
359.4368237111561
 51
167.6479022067083
  0
ARC
  5
4A0F
330
2
100
AcDbEntity
  8
KIJUN
100
AcDbCircle
 10
121.470323746988
 20
100.8662495540859
 30
0.0
 40
38.09577929637131
100
AcDbArc
 50
45.04561614234911
 51
85.4768970247772
  0
ARC
  5
4A10
330
2
100
AcDbEntity
  8
KIJUN
100
AcDbCircle
 10
109.2498900058102
 20
114.8526775391246
 30
0.0
 40
26.78299897629228
100
AcDbArc
 50
83.81511405192497
 51
129.2639505105017
  0
ARC
  5
4A11
330
2
100
AcDbEntity
  8
KIJUN
100
AcDbCircle
 10
-155.0757201297491
 20
66.32569982375369
 30
0.0
 40
14.09610858749723
100
AcDbArc
 50
328.7950251833113
 51
145.2303641549136
  0
ARC
  5
4A12
330
2
100
AcDbEntity
  8
KIJUN
100
AcDbCircle
 10
-151.0021772674332
 20
64.61932697749347
 30
0.0
 40
18.43846794126736
100
AcDbArc
 50
148.0945658434997
 51
257.0442670026277
  0
ARC
  5
4A13
330
2
100
AcDbEntity
  8
KIJUN
100
AcDbCircle
 10
-142.2782917968035
 20
103.0786248740644
 30
0.0
 40
57.87473463979616
100
AcDbArc
 50
257.1637579150587
 51
274.4497591298733
  0
ARC
  5
4A14
330
2
100
AcDbEntity
  8
KIJUN
100
AcDbCircle
 10
-125.5861527583312
 20
43.5975897505343
 30
0.0
 40
12.33119015097589
100
AcDbArc
 50
171.6968740869184
 51
198.0910433059632
  0
ARC
  5
4A15
330
2
100
AcDbEntity
  8
KIJUN
100
AcDbCircle
 10
-135.4077137997919
 20
51.43122822444832
 30
0.0
 40
11.81657267726584
100
AcDbArc
 50
260.747043985093
 51
283.5168885408133
  0
ARC
  5
4A16
330
2
100
AcDbEntity
  8
KIJUN
100
AcDbCircle
 10
-129.5332106008998
 20
26.44169600564899
 30
0.0
 40
13.85443658671666
100
AcDbArc
 50
81.97087574917645
 51
102.9831177474753
  0
ARC
  5
4A17
330
2
100
AcDbEntity
  8
KIJUN
100
AcDbCircle
 10
-129.3932235687027
 20
59.51542769114905
 30
0.0
 40
19.43817768423373
100
AcDbArc
 50
275.2989212798258
 51
307.4217043457354
  0
ARC
  5
4A18
330
2
100
AcDbEntity
  8
KIJUN
100
AcDbCircle
 10
-114.9651126465951
 20
45.75736031252697
 30
0.0
 40
3.108674338432307
100
AcDbArc
 50
212.7000104641389
 51
298.2067146701346
  0
ARC
  5
4A19
330
2
100
AcDbEntity
  8
KIJUN
100
AcDbCircle
 10
-155.9423516573142
 20
124.3753839573984
 30
0.0
 40
91.76469810309546
100
AcDbArc
 50
297.5523443447094
 51
310.6868297705611
  0
ARC
  5
4A1A
330
2
100
AcDbEntity
  8
KIJUN
100
AcDbCircle
 10
-101.4835350499701
 20
53.62943929187693
 30
0.0
 40
5.48925108060417
100
AcDbArc
 50
315.7710812145387
 51
12.22358227210609
  0
ARC
  5
4A1B
330
2
100
AcDbEntity
  8
KIJUN
100
AcDbCircle
 10
-93.62388670790471
 20
47.37172597272177
 30
0.0
 40
4.61679469793222
100
AcDbArc
 50
148.2588787098381
 51
291.3800314109884
  0
ARC
  5
4A1C
330
2
100
AcDbEntity
  8
KIJUN
100
AcDbCircle
 10
-100.7230961574827
 20
67.71839079111396
 30
0.0
 40
26.16373571141292
100
AcDbArc
 50
289.6130326993068
 51
323.3593634142228
  0
ARC
  5
4A1D
330
2
100
AcDbEntity
  8
KIJUN
100
AcDbCircle
 10
-77.22918156799915
 20
54.57507308664691
 30
0.0
 40
3.515318591600776
100
AcDbArc
 50
224.6630794690736
 51
321.2344439878795
  0
ARC
  5
4A1E
330
2
100
AcDbEntity
  8
KIJUN
100
AcDbCircle
 10
-212.8260124730156
 20
155.0567691014036
 30
0.0
 40
172.2820059240166
100
AcDbArc
 50
323.4149351793205
 51
333.1774279805813
  0
ARC
  5
4A1F
330
2
100
AcDbEntity
  8
KIJUN
100
AcDbCircle
 10
42.52918056802331
 20
30.35092411670391
 30
0.0
 40
111.9391463776094
100
AcDbArc
 50
139.3053788812954
 51
155.1920637981887
  0
ARC
  5
4A20
330
2
100
AcDbEntity
  8
KIJUN
100
AcDbCircle
 10
-37.94057098580993
 20
111.4200317876562
 30
0.0
 40
9.202834654030908
100
AcDbArc
 50
241.423474450505
 51
287.6000997350888
  0
ARC
  5
4A21
330
2
100
AcDbEntity
  8
KIJUN
100
AcDbCircle
 10
17.11507976423161
 20
62.7139204930312
 30
0.0
 40
65.78140394208119
100
AcDbArc
 50
142.6218980243221
 51
171.6963057356092
  0
ARC
  5
4A22
330
2
100
AcDbEntity
  8
KIJUN
100
AcDbCircle
 10
-44.67446922304577
 20
71.34175539634748
 30
0.0
 40
3.415506632785581
100
AcDbArc
 50
165.2027946219203
 51
269.8452262526314
  0
ARC
  5
4A23
330
2
100
AcDbEntity
  8
KIJUN
100
AcDbCircle
 10
417.7676035386889
 20
40.89201112782004
 30
0.0
 40
463.2408171950993
100
AcDbArc
 50
176.6543772655633
 51
178.0607918574196
  0
ARC
  5
4A24
330
2
100
AcDbEntity
  8
KIJUN
100
AcDbCircle
 10
-47.58110106501624
 20
56.647809025519
 30
0.0
 40
2.374541284729827
100
AcDbArc
 50
244.5040214851842
 51
358.065846300345
  0
ARC
  5
4A25
330
2
100
AcDbEntity
  8
KIJUN
100
AcDbCircle
 10
-51.70106875375302
 20
48.42387163137175
 30
0.0
 40
6.824284851301767
100
AcDbArc
 50
63.00290921290021
 51
166.1009287844154
  0
ARC
  5
4A26
330
2
100
AcDbEntity
  8
KIJUN
100
AcDbCircle
 10
-48.04549311784104
 20
47.51859150776676
 30
0.0
 40
10.59028605306817
100
AcDbArc
 50
166.097360173586
 51
259.1259930649826
  0
ARC
  5
4A27
330
2
100
AcDbEntity
  8
KIJUN
100
AcDbCircle
 10
-46.92131457010987
 20
55.37201933689917
 30
0.0
 40
18.51862625120344
100
AcDbArc
 50
260.2942133074259
 51
318.5069969664336
  0
ARC
  5
4A28
330
2
100
AcDbEntity
  8
KIJUN
100
AcDbCircle
 10
-55.22491871054398
 20
63.39553069714146
 30
0.0
 40
30.0584374997678
100
AcDbArc
 50
317.5376202766868
 51
354.4873871776572
  0
ARC
  5
4A29
330
2
100
AcDbEntity
  8
KIJUN
100
AcDbCircle
 10
-13.94318387676901
 20
56.02735912049826
 30
0.0
 40
2.644479502141071
100
AcDbArc
 50
234.5452049174933
 51
339.725616914009
  0
ARC
  5
4A2A
330
2
100
AcDbEntity
  8
KIJUN
100
AcDbCircle
 10
-1023.942132882489
 20
-1429.418427900863
 30
0.0
 40
1793.643163918143
100
AcDbArc
 50
55.78887669275803
 51
56.16767255159182
  0
ARC
  5
4A2B
330
2
100
AcDbEntity
  8
KIJUN
100
AcDbCircle
 10
10.63997767206228
 20
48.78417481523971
 30
0.0
 40
22.99022211621438
100
AcDbArc
 50
141.2527657698562
 51
164.0262742776295
  0
ARC
  5
4A2C
330
2
100
AcDbEntity
  8
KIJUN
100
AcDbCircle
 10
24.40567660295381
 20
85.88687930946457
 30
0.0
 40
38.99415702480247
100
AcDbArc
 50
215.6254041594576
 51
291.7849504510308
  0
ARC
  5
4A2D
330
2
100
AcDbEntity
  8
KIJUN
100
AcDbCircle
 10
43.68366632554319
 20
43.93386824162354
 30
0.0
 40
4.757762380390983
100
AcDbArc
 50
36.6360936657531
 51
94.04971284702821
  0
ARC
  5
4A2E
330
2
100
AcDbEntity
  8
KIJUN
100
AcDbCircle
 10
40.73061048272314
 20
50.54335300753772
 30
0.0
 40
2.045534419634929
100
AcDbArc
 50
205.040742567798
 51
273.2335094969789
  0
ARC
  5
4A2F
330
2
100
AcDbEntity
  8
KIJUN
100
AcDbCircle
 10
67.53655771447916
 20
-307.5956819854629
 30
0.0
 40
357.0956270928284
100
AcDbArc
 50
93.884067717818
 51
94.28648311802396
  0
ARC
  5
4A30
330
2
100
AcDbEntity
  8
KIJUN
100
AcDbCircle
 10
62.57257053671764
 20
54.56705565933967
 30
0.0
 40
16.96717820618644
100
AcDbArc
 50
207.3459789070695
 51
301.7164045133005
  0
ARC
  5
4A31
330
2
100
AcDbEntity
  8
KIJUN
100
AcDbCircle
 10
-136.5030037330777
 20
105.0715785213185
 30
0.0
 40
46.50782252484407
100
AcDbArc
 50
261.9459975603921
 51
290.7914123162716
  0
ARC
  5
4A32
330
2
100
AcDbEntity
  8
KIJUN
100
AcDbCircle
 10
-104.8298134843521
 20
106.4606844018368
 30
0.0
 40
47.36162917948099
100
AcDbArc
 50
243.5736309246904
 51
251.3259224314211
  0
ARC
  5
4A33
330
2
100
AcDbEntity
  8
KIJUN
100
AcDbCircle
 10
-118.1034010473591
 20
64.24815971459003
 30
0.0
 40
7.807146561829492
100
AcDbArc
 50
134.4621150249146
 51
181.4690196892703
  0
ARC
  5
4A34
330
2
100
AcDbEntity
  8
KIJUN
100
AcDbCircle
 10
-118.9959344308276
 20
139.9909506678786
 30
0.0
 40
66.1104969369834
100
AcDbArc
 50
274.2266986661555
 51
292.0229169797886
  0
ARC
  5
4A35
330
2
100
AcDbEntity
  8
KIJUN
100
AcDbCircle
 10
-112.8975589181767
 20
58.68124104536119
 30
0.0
 40
15.42779484102614
100
AcDbArc
 50
94.55732766161753
 51
133.7795113413343
  0
ARC
  5
4A36
330
2
100
AcDbEntity
  8
KIJUN
100
AcDbCircle
 10
-95.64384738913714
 20
104.1307837472148
 30
0.0
 40
13.94749682917111
100
AcDbArc
 50
264.8632891728458
 51
296.8172219238155
  0
ARC
  5
4A37
330
2
100
AcDbEntity
  8
KIJUN
100
AcDbCircle
 10
-97.14243247115859
 20
85.79162253107091
 30
0.0
 40
4.454690001292918
100
AcDbArc
 50
86.78500802534541
 51
208.8874348684635
  0
ARC
  5
4A38
330
2
100
AcDbEntity
  8
KIJUN
100
AcDbCircle
 10
-91.63089434726328
 20
89.4746659355018
 30
0.0
 40
11.07395265877037
100
AcDbArc
 50
211.7974295257138
 51
256.5535551149787
  0
ARC
  5
4A39
330
2
100
AcDbEntity
  8
KIJUN
100
AcDbCircle
 10
-87.45356811543206
 20
94.4647218483294
 30
0.0
 40
3.367227473915735
100
AcDbArc
 50
88.66912863449108
 51
235.6916764424819
  0
ARC
  5
4A3A
330
2
100
AcDbEntity
  8
KIJUN
100
AcDbCircle
 10
-88.3706317708337
 20
115.4135697338462
 30
0.0
 40
17.61067521475132
100
AcDbArc
 50
273.239808785467
 51
296.4981988423782
  0
ARC
  5
4A3B
330
2
100
AcDbEntity
  8
KIJUN
100
AcDbCircle
 10
-175.7086012537112
 20
299.7568673836776
 30
0.0
 40
221.5936297437702
100
AcDbArc
 50
295.4418042901777
 51
302.2579059954467
  0
ARC
  5
4A3C
330
2
100
AcDbEntity
  8
KIJUN
100
AcDbCircle
 10
6.484405705087965
 20
14.44375524247803
 30
0.0
 40
116.9384185611681
100
AcDbArc
 50
93.06363573897739
 51
123.1358437182985
  0
ARC
  5
4A3D
330
2
100
AcDbEntity
  8
KIJUN
100
AcDbCircle
 10
16.53045081768698
 20
118.248449647194
 30
0.0
 40
20.82514112753121
100
AcDbArc
 50
126.0651537203632
 51
141.4907196759289
  0
ARC
  5
4A3E
330
2
100
AcDbEntity
  8
KIJUN
100
AcDbCircle
 10
7.396653235453527
 20
136.2234822319146
 30
0.0
 40
3.327809449631166
100
AcDbArc
 50
136.2381095614533
 51
200.0529970834554
  0
ARC
  5
4A3F
330
2
100
AcDbEntity
  8
KIJUN
100
AcDbCircle
 10
20.60345400841208
 20
121.8606278260746
 30
0.0
 40
22.83389731171237
100
AcDbArc
 50
89.9268600821543
 51
133.1289068349086
  0
ARC
  5
4A40
330
2
100
AcDbEntity
  8
KIJUN
100
AcDbCircle
 10
23.43127564934048
 20
144.5484195428139
 30
0.0
 40
2.802483618157643
100
AcDbArc
 50
97.23608080249123
 51
177.0119492229131
  0
ARC
  5
4A41
330
2
100
AcDbEntity
  8
KIJUN
100
AcDbCircle
 10
26.27585134517619
 20
126.3857091923694
 30
0.0
 40
21.18557109639634
100
AcDbArc
 50
54.98789495306617
 51
98.6809144499414
  0
ARC
  5
4A42
330
2
100
AcDbEntity
  8
KIJUN
100
AcDbCircle
 10
46.6766873508335
 20
127.4167119170901
 30
0.0
 40
18.28533334625241
100
AcDbArc
 50
68.0015800586144
 51
116.8041400230907
  0
ARC
  5
4A43
330
2
100
AcDbEntity
  8
KIJUN
100
AcDbCircle
 10
58.17932173765325
 20
141.7555651839596
 30
0.0
 40
5.337830809214329
100
AcDbArc
 50
68.62017737907748
 51
150.6635509449485
  0
ARC
  5
4A44
330
2
100
AcDbEntity
  8
KIJUN
100
AcDbCircle
 10
55.43042449927941
 20
133.6782426272291
 30
0.0
 40
13.86675525096228
100
AcDbArc
 50
46.78669532728223
 51
70.21053203630032
  0
ARC
  5
4A45
330
2
100
AcDbEntity
  8
KIJUN
100
AcDbCircle
 10
68.79753809732562
 20
146.86801371317
 30
0.0
 40
3.728154946781223
100
AcDbArc
 50
66.514565838003
 51
173.6463563992921
  0
ARC
  5
4A46
330
2
100
AcDbEntity
  8
KIJUN
100
AcDbCircle
 10
111.5699290297474
 20
143.3075838069679
 30
0.0
 40
46.64714803568318
100
AcDbArc
 50
175.1141154762156
 51
179.4142426969314
  0
ARC
  5
4A47
330
2
100
AcDbEntity
  8
KIJUN
100
AcDbCircle
 10
15.29769021560889
 20
78.42229957355954
 30
0.0
 40
14.30564878625718
100
AcDbArc
 50
266.3172389187121
 51
38.91894346802142
  0
ARC
  5
4A48
330
2
100
AcDbEntity
  8
KIJUN
100
AcDbCircle
 10
11.66047117657001
 20
76.25700412624095
 30
0.0
 40
18.50555593164207
100
AcDbArc
 50
37.06001032066509
 51
128.0710794662841
  0
ARC
  5
4A49
330
2
100
AcDbEntity
  8
KIJUN
100
AcDbCircle
 10
-1.774995565977519
 20
80.44379557799841
 30
0.0
 40
10.57714289443036
100
AcDbArc
 50
78.96681685239679
 51
105.100194679769
  0
ARC
  5
4A4A
330
2
100
AcDbEntity
  8
KIJUN
100
AcDbCircle
 10
-5.100760740322698
 20
94.66845002383115
 30
0.0
 40
4.05305080856041
100
AcDbArc
 50
190.798279302694
 51
278.0893939321098
  0
ARC
  5
4A4B
330
2
100
AcDbEntity
  8
KIJUN
100
AcDbCircle
 10
5.529386378716253
 20
97.00699326885697
 30
0.0
 40
14.93622471821788
100
AcDbArc
 50
121.6148230783351
 51
191.9704864319811
  0
ARC
  5
4A4C
330
2
100
AcDbEntity
  8
KIJUN
100
AcDbCircle
 10
26.55273017268541
 20
85.32364915428303
 30
0.0
 40
24.42721933520461
100
AcDbArc
 50
240.1074354339712
 51
353.6527990398445
  0
ARC
  5
4A4D
330
2
100
AcDbEntity
  8
KIJUN
100
AcDbCircle
 10
23.90828861058321
 20
85.8985774320717
 30
0.0
 40
27.12044683572275
100
AcDbArc
 50
353.0632500225733
 51
85.36472660359056
  0
ARC
  5
4A4E
330
2
100
AcDbEntity
  8
KIJUN
100
AcDbCircle
 10
21.27996899761047
 20
116.8016681840077
 30
0.0
 40
6.182204249816471
100
AcDbArc
 50
219.0145670128344
 51
321.2290868162321
  0
ARC
  5
4A4F
330
2
100
AcDbEntity
  8
KIJUN
100
AcDbCircle
 10
16.75813812125784
 20
110.3739595456074
 30
0.0
 40
2.551493410364666
100
AcDbArc
 50
96.3376967215153
 51
162.4015204032529
  0
ARC
  5
4A50
330
2
100
AcDbEntity
  8
KIJUN
100
AcDbCircle
 10
4.525566492851112
 20
121.0662803606244
 30
0.0
 40
13.94538283170047
100
AcDbArc
 50
244.2915447584227
 51
314.6502133722267
  0
ARC
  5
4A51
330
2
100
AcDbEntity
  8
KIJUN
100
AcDbCircle
 10
-2.975478640708729
 20
108.4400302424753
 30
0.0
 40
1.452941686657501
100
AcDbArc
 50
2.417200499239794
 51
62.30826456128021
  0
ARC
  5
4A52
330
2
100
AcDbEntity
  8
KIJUN
100
AcDbCircle
 10
16.08253791248796
 20
86.44460173605088
 30
0.0
 40
47.12792779073009
100
AcDbArc
 50
326.0875601611055
 51
0.0837157822499164
  0
ARC
  5
4A53
330
2
100
AcDbEntity
  8
KIJUN
100
AcDbCircle
 10
83.89582264106639
 20
109.0806467951578
 30
0.0
 40
30.61313351846044
100
AcDbArc
 50
227.4911804551836
 51
246.1023240205702
  0
ARC
  5
4A54
330
2
100
AcDbEntity
  8
KIJUN
100
AcDbCircle
 10
56.90622400566508
 20
70.3579446356974
 30
0.0
 40
10.34988795163806
100
AcDbArc
 50
260.4752422957367
 51
320.643927966276
  0
ARC
  5
4A55
330
2
100
AcDbEntity
  8
KIJUN
100
AcDbCircle
 10
45.36708546447357
 20
80.97607455546807
 30
0.0
 40
26.02085794746019
100
AcDbArc
 50
318.6777904890565
 51
343.8042760903205
  0
ARC
  5
4A56
330
2
100
AcDbEntity
  8
KIJUN
100
AcDbCircle
 10
75.71377806194698
 20
76.66539859273206
 30
0.0
 40
6.115427300740797
100
AcDbArc
 50
133.6278930345756
 51
208.8098100356324
  0
ARC
  5
4A57
330
2
100
AcDbEntity
  8
KIJUN
100
AcDbCircle
 10
-152.2500583194252
 20
64.81856513854356
 30
0.0
 40
2.855856018406416
100
AcDbArc
 50
302.2426367575852
 51
28.66874051585407
  0
ARC
  5
4A58
330
2
100
AcDbEntity
  8
KIJUN
100
AcDbCircle
 10
-155.5437907915211
 20
63.10474881251974
 30
0.0
 40
6.568442685845115
100
AcDbArc
 50
28.00199121309386
 51
180.1726784416148
  0
ARC
  5
4A59
330
2
100
AcDbEntity
  8
KIJUN
100
AcDbCircle
 10
-149.0505778908748
 20
59.40473389473095
 30
0.0
 40
3.434920095286343
100
AcDbArc
 50
119.2020190717494
 51
282.1546469586137
  0
ARC
  5
4A5A
330
2
100
AcDbEntity
  8
KIJUN
100
AcDbCircle
 10
-144.7548917491152
 20
50.31368140938494
 30
0.0
 40
6.755093675997352
100
AcDbArc
 50
96.62014575841261
 51
121.9280749497213
  0
ARC
  5
4A5B
330
2
100
AcDbEntity
  8
KIJUN
100
AcDbCircle
 10
-152.7781966129001
 20
68.71920779336514
 30
0.0
 40
13.75744824053853
100
AcDbArc
 50
301.7753411510267
 51
315.1838503460135
  0
ARC
  5
4A5C
330
2
100
AcDbEntity
  8
KIJUN
100
AcDbCircle
 10
-146.8905048086276
 20
63.01060008366573
 30
0.0
 40
15.22188043069514
100
AcDbArc
 50
179.7201321452938
 51
257.0191039181872
  0
ARC
  5
4A5D
330
2
100
AcDbEntity
  8
KIJUN
100
AcDbCircle
 10
-127.4567780543275
 20
37.8661509145461
 30
0.0
 40
8.771772265810939
100
AcDbArc
 50
94.48844459021989
 51
155.3806628927346
  0
ARC
  5
4A5E
330
2
100
AcDbEntity
  8
KIJUN
100
AcDbCircle
 10
-127.4997490953958
 20
52.61537147241094
 30
0.0
 40
9.938914520820414
100
AcDbArc
 50
259.9897643620163
 51
313.1871828112691
  0
ARC
  5
4A5F
330
2
100
AcDbEntity
  8
KIJUN
100
AcDbCircle
 10
-129.8203419362252
 20
30.26886608940961
 30
0.0
 40
12.57288456743008
100
AcDbArc
 50
87.29677939672571
 51
116.504184636117
  0
ARC
  5
4A60
330
2
100
AcDbEntity
  8
KIJUN
100
AcDbCircle
 10
-152.6036061640049
 20
60.5681635300065
 30
0.0
 40
4.028428719410837
100
AcDbArc
 50
83.2386028156454
 51
182.4773677948856
  0
ARC
  5
4A61
330
2
100
AcDbEntity
  8
KIJUN
100
AcDbCircle
 10
-145.8995399708812
 20
60.88952169571015
 30
0.0
 40
10.74016528212635
100
AcDbArc
 50
182.6442178557459
 51
232.0720885866377
  0
ARC
  5
4A62
330
2
100
AcDbEntity
  8
KIJUN
100
AcDbCircle
 10
-140.4102015807227
 20
67.93264590978532
 30
0.0
 40
19.66980325795299
100
AcDbArc
 50
232.0700129991153
 51
272.108625218058
  0
ARC
  5
4A63
330
2
100
AcDbEntity
  8
KIJUN
100
AcDbCircle
 10
-141.3387735727354
 20
121.5531507410863
 30
0.0
 40
73.29561535791208
100
AcDbArc
 50
271.291730166554
 51
309.2671574708306
  0
ARC
  5
4A64
330
2
100
AcDbEntity
  8
KIJUN
100
AcDbCircle
 10
-114.5863954632932
 20
98.83331218526066
 30
0.0
 40
33.81786707218934
100
AcDbArc
 50
257.0207115015402
 51
301.4387417156878
  0
ARC
  5
4A65
330
2
100
AcDbEntity
  8
KIJUN
100
AcDbCircle
 10
-137.6747824505396
 20
102.7739886601299
 30
0.0
 40
47.06070614805339
100
AcDbArc
 50
262.8719154363763
 51
294.5938875128552
  0
ARC
  5
4A66
330
2
100
AcDbEntity
  8
KIJUN
100
AcDbCircle
 10
-118.8800016572863
 20
89.42965854386427
 30
0.0
 40
27.859553505398
100
AcDbArc
 50
267.7077939819063
 51
284.0393326705124
  0
ARC
  5
4A67
330
2
100
AcDbEntity
  8
KIJUN
100
AcDbCircle
 10
-108.2916812567268
 20
54.98641406509503
 30
0.0
 40
17.65205128763655
100
AcDbArc
 50
93.84469654257419
 51
141.8955283607188
  0
ARC
  5
4A68
330
2
100
AcDbEntity
  8
KIJUN
100
AcDbCircle
 10
-75.37560159821066
 20
53.79369274175161
 30
0.0
 40
4.67023138315184
100
AcDbArc
 50
155.101730528119
 51
201.2104627769495
  0
ARC
  5
4A69
330
2
100
AcDbEntity
  8
KIJUN
100
AcDbCircle
 10
-85.77509424089715
 20
51.37993422370311
 30
0.0
 40
10.89177325591759
100
AcDbArc
 50
89.79230242701495
 51
161.7454636967147
  0
ARC
  5
4A6A
330
2
100
AcDbEntity
  8
KIJUN
100
AcDbCircle
 10
-85.94500579452505
 20
62.85675651446954
 30
0.0
 40
0.621459613460322
100
AcDbArc
 50
289.6905137846147
 51
87.31495147110717
  0
ARC
  5
4A6B
330
2
100
AcDbEntity
  8
KIJUN
100
AcDbCircle
 10
-88.78286945345235
 20
75.6841417927935
 30
0.0
 40
12.53877311875258
100
AcDbArc
 50
242.8252450152076
 51
283.2175386816471
  0
ARC
  5
4A6C
330
2
100
AcDbEntity
  8
KIJUN
100
AcDbCircle
 10
-93.0492813614286
 20
67.31267683586387
 30
0.0
 40
3.142997057680265
100
AcDbArc
 50
83.43230874360294
 51
242.3180388203499
  0
ARC
  5
4A6D
330
2
100
AcDbEntity
  8
KIJUN
100
AcDbCircle
 10
-92.20654091928441
 20
77.77494206406041
 30
0.0
 40
7.35578570234296
100
AcDbArc
 50
266.2331191923235
 51
294.1207715040753
  0
ARC
  5
4A6E
330
2
100
AcDbEntity
  8
KIJUN
100
AcDbCircle
 10
-109.5492938241641
 20
113.1296784492666
 30
0.0
 40
46.73126628215928
100
AcDbArc
 50
295.8134526931085
 51
316.9761069936511
  0
ARC
  5
4A6F
330
2
100
AcDbEntity
  8
KIJUN
100
AcDbCircle
 10
-94.34131687345985
 20
114.1275260820652
 30
0.0
 40
35.42350878135897
100
AcDbArc
 50
270.2188832092775
 51
299.4131403462153
  0
ARC
  5
4A70
330
2
100
AcDbEntity
  8
KIJUN
100
AcDbCircle
 10
-76.31871534235575
 20
82.13916308605488
 30
0.0
 40
1.292595620569558
100
AcDbArc
 50
316.2172032741976
 51
118.9659449534612
  0
ARC
  5
4A71
330
2
100
AcDbEntity
  8
KIJUN
100
AcDbCircle
 10
-85.16546529879702
 20
102.0051903715635
 30
0.0
 40
11.13837907684518
100
AcDbArc
 50
247.9249878338124
 51
289.1957657956519
  0
ARC
  5
4A72
330
2
100
AcDbEntity
  8
KIJUN
100
AcDbCircle
 10
-76.10895735495489
 20
58.13274802213027
 30
0.0
 40
1.805645633552376
100
AcDbArc
 50
224.5374565792085
 51
327.7555802154548
  0
ARC
  5
4A73
330
2
100
AcDbEntity
  8
KIJUN
100
AcDbCircle
 10
-221.7727214655404
 20
155.1233463300938
 30
0.0
 40
176.8054114430745
100
AcDbArc
 50
326.3566675016402
 51
332.2432085460448
  0
ARC
  5
4A74
330
2
100
AcDbEntity
  8
KIJUN
100
AcDbCircle
 10
-89.70126843509808
 20
76.52319868356864
 30
0.0
 40
12.05692450411554
100
AcDbArc
 50
257.4632417674649
 51
316.22206127939
  0
ARC
  5
4A75
330
2
100
AcDbEntity
  8
KIJUN
100
AcDbCircle
 10
-221.6733872533795
 20
196.4645118663306
 30
0.0
 40
190.3857106689496
100
AcDbArc
 50
317.6384836461154
 51
326.0308099693129
  0
ARC
  5
4A76
330
2
100
AcDbEntity
  8
KIJUN
100
AcDbCircle
 10
11.66712254186427
 20
37.37835330124159
 30
0.0
 40
92.03457974325315
100
AcDbArc
 50
108.6856278121039
 51
145.0608951141973
  0
ARC
  5
4A77
330
2
100
AcDbEntity
  8
KIJUN
100
AcDbCircle
 10
53.90898078963073
 20
-35.94203962718751
 30
0.0
 40
177.2306565587143
100
AcDbArc
 50
128.5857594076592
 51
136.7907781775034
  0
ARC
  5
4A78
330
2
100
AcDbEntity
  8
KIJUN
100
AcDbCircle
 10
-89.83268375146485
 20
98.77333827854398
 30
0.0
 40
17.96050487084682
100
AcDbArc
 50
261.3814946858305
 51
308.5901693017785
  0
ARC
  5
4A79
330
2
100
AcDbEntity
  8
KIJUN
100
AcDbCircle
 10
-90.7607671219181
 20
88.94542613191882
 30
0.0
 40
8.123483274167709
100
AcDbArc
 50
195.5242912040145
 51
257.462872785087
  0
ARC
  5
4A7A
330
2
100
AcDbEntity
  8
KIJUN
100
AcDbCircle
 10
-86.77462418079892
 20
114.5093859618529
 30
0.0
 40
18.52342911912633
100
AcDbArc
 50
265.1864730960353
 51
289.8305877611761
  0
ARC
  5
4A7B
330
2
100
AcDbEntity
  8
KIJUN
100
AcDbCircle
 10
-86.26175133637458
 20
95.058452205869
 30
0.0
 40
2.293287392312844
100
AcDbArc
 50
154.3462825180497
 51
276.469760557173
  0
ARC
  5
4A7C
330
2
100
AcDbEntity
  8
KIJUN
100
AcDbCircle
 10
-31.58576900015771
 20
106.1303324161263
 30
0.0
 40
11.1132579166524
100
AcDbArc
 50
174.6928730297707
 51
194.5505925753743
  0
ARC
  5
4A7D
330
2
100
AcDbEntity
  8
KIJUN
100
AcDbCircle
 10
-5.776432485279997
 20
71.21359933575857
 30
0.0
 40
51.49543610263699
100
AcDbArc
 50
112.6293032901152
 51
135.7319421038359
  0
ARC
  5
4A7E
330
2
100
AcDbEntity
  8
KIJUN
100
AcDbCircle
 10
-92.39794243848804
 20
63.88123672852208
 30
0.0
 40
13.34703183784635
100
AcDbArc
 50
280.8042102139653
 51
326.6698889032935
  0
ARC
  5
4A7F
330
2
100
AcDbEntity
  8
KIJUN
100
AcDbCircle
 10
-88.10305302572908
 20
41.28463969574989
 30
0.0
 40
9.654113235250541
100
AcDbArc
 50
100.7029904961518
 51
139.4724453387857
  0
ARC
  5
4A80
330
2
100
AcDbEntity
  8
KIJUN
100
AcDbCircle
 10
-90.64823676324591
 20
75.70316596806444
 30
0.0
 40
18.56009086862502
100
AcDbArc
 50
274.209382421571
 51
322.5868225018873
  0
ARC
  5
4A81
330
2
100
AcDbEntity
  8
KIJUN
100
AcDbCircle
 10
-237.9732633294524
 20
188.2800850703867
 30
0.0
 40
203.9737511112869
100
AcDbArc
 50
322.6125400098059
 51
330.5912417758538
  0
ARC
  5
4A82
330
2
100
AcDbEntity
  8
KIJUN
100
AcDbCircle
 10
-99.53324198803636
 20
140.1590033122056
 30
0.0
 40
51.71411782466507
100
AcDbArc
 50
294.2323785003797
 51
310.6847054623388
  0
ARC
  5
4A83
330
2
100
AcDbEntity
  8
KIJUN
100
AcDbCircle
 10
-27.56470301949003
 20
97.70307493081379
 30
0.0
 40
9.061383171541676
100
AcDbArc
 50
108.4803546504851
 51
146.926666905913
  0
ARC
  5
4A84
330
2
100
AcDbEntity
  8
KIJUN
100
AcDbCircle
 10
-58.90899981844905
 20
140.6757858523361
 30
0.0
 40
39.24855556464089
100
AcDbArc
 50
296.4940736377349
 51
309.4063031753446
  0
ARC
  5
4A85
330
2
100
AcDbEntity
  8
KIJUN
100
AcDbCircle
 10
17.81973367267187
 20
44.34256956390055
 30
0.0
 40
83.91401965147549
100
AcDbArc
 50
103.025658944155
 51
128.1305313118652
  0
ARC
  5
4A86
330
2
100
AcDbEntity
  8
KIJUN
100
AcDbCircle
 10
-45.66355773416626
 20
70.76644954088269
 30
0.0
 40
3.004463271661941
100
AcDbArc
 50
289.0343839881296
 51
353.3263802160107
  0
ARC
  5
4A87
330
2
100
AcDbEntity
  8
KIJUN
100
AcDbCircle
 10
30.70600135185646
 20
61.01776377340019
 30
0.0
 40
73.9849704635483
100
AcDbArc
 50
156.4338125934997
 51
172.7010497848658
  0
ARC
  5
4A88
330
2
100
AcDbEntity
  8
KIJUN
100
AcDbCircle
 10
-43.1160787252736
 20
49.06187384358688
 30
0.0
 40
6.133227275950753
100
AcDbArc
 50
170.2584252844497
 51
304.1847393875704
  0
ARC
  5
4A89
330
2
100
AcDbEntity
  8
KIJUN
100
AcDbCircle
 10
-49.32809803530654
 20
60.43120772112399
 30
0.0
 40
19.06955100099332
100
AcDbArc
 50
300.4286264787436
 51
4.227097412176077
  0
ARC
  5
4A8A
330
2
100
AcDbEntity
  8
KIJUN
100
AcDbCircle
 10
-49.42393653006343
 20
59.63722493164374
 30
0.0
 40
24.13415041790053
100
AcDbArc
 50
2.067646447176006
 51
24.12489320378679
  0
ARC
  5
4A8B
330
2
100
AcDbEntity
  8
KIJUN
100
AcDbCircle
 10
-41.53500313606514
 20
66.6647540770004
 30
0.0
 40
34.42208356036519
100
AcDbArc
 50
354.17865652721
 51
19.47448420509066
  0
ARC
  5
4A8C
330
2
100
AcDbEntity
  8
KIJUN
100
AcDbCircle
 10
-7.318879153874149
 20
86.95493286612309
 30
0.0
 40
8.500417110456105
100
AcDbArc
 50
281.3669389120908
 51
27.08623092375314
  0
ARC
  5
4A8D
330
2
100
AcDbEntity
  8
KIJUN
100
AcDbCircle
 10
-9.970963155399545
 20
97.04108464391126
 30
0.0
 40
18.92133872347787
100
AcDbArc
 50
272.6922422110868
 51
283.2209679765917
  0
ARC
  5
4A8E
330
2
100
AcDbEntity
  8
KIJUN
100
AcDbCircle
 10
-20.56161765223396
 20
68.83431054665061
 30
0.0
 40
10.99049511629065
100
AcDbArc
 50
306.4203503167523
 51
41.89682120884505
  0
ARC
  5
4A8F
330
2
100
AcDbEntity
  8
KIJUN
100
AcDbCircle
 10
57.28366814281605
 20
137.1107772060239
 30
0.0
 40
92.55526777332081
100
AcDbArc
 50
218.7310851179374
 51
221.176910273469
  0
ARC
  5
4A90
330
2
100
AcDbEntity
  8
KIJUN
100
AcDbCircle
 10
-0.2721347571041406
 20
94.26328827667996
 30
0.0
 40
18.37273619091454
100
AcDbArc
 50
195.3191495685164
 51
241.3460284090777
  0
ARC
  5
4A91
330
2
100
AcDbEntity
  8
KIJUN
100
AcDbCircle
 10
4.126246778436552
 20
92.79369043735858
 30
0.0
 40
23.39679150884816
100
AcDbArc
 50
140.4558259352898
 51
215.5150694811774
  0
ARC
  5
4A92
330
2
100
AcDbEntity
  8
KIJUN
100
AcDbCircle
 10
18.95577037207465
 20
82.60823096422289
 30
0.0
 40
45.64637656878042
100
AcDbArc
 50
162.6790699642817
 51
205.5036336079586
  0
ARC
  5
4A93
330
2
100
AcDbEntity
  8
KIJUN
100
AcDbCircle
 10
27.23529520863554
 20
78.94946575011897
 30
0.0
 40
57.32696150037916
100
AcDbArc
 50
162.4638035003505
 51
192.6022070287316
  0
ARC
  5
4A94
330
2
100
AcDbEntity
  8
KIJUN
100
AcDbCircle
 10
-57.75124917548987
 20
60.70701802246111
 30
0.0
 40
29.60150788388962
100
AcDbArc
 50
355.57793749399
 51
11.17074720810271
  0
ARC
  5
4A95
330
2
100
AcDbEntity
  8
KIJUN
100
AcDbCircle
 10
16.17995758532652
 20
80.96229605358823
 30
0.0
 40
43.55252632672119
100
AcDbArc
 50
112.9920792945336
 51
159.5231395128732
  0
ARC
  5
4A96
330
2
100
AcDbEntity
  8
KIJUN
100
AcDbCircle
 10
12.41778531659008
 20
74.88009037155283
 30
0.0
 40
7.975311240078199
100
AcDbArc
 50
357.3093533885569
 51
200.9760485942662
  0
ARC
  5
4A97
330
2
100
AcDbEntity
  8
KIJUN
100
AcDbCircle
 10
16.97199276286198
 20
76.79873402433606
 30
0.0
 40
12.91554951177092
100
AcDbArc
 50
201.6911401497757
 51
258.4174260859851
  0
ARC
  5
4A98
330
2
100
AcDbEntity
  8
KIJUN
100
AcDbCircle
 10
15.6667876357443
 20
78.84951479907783
 30
0.0
 40
6.412773945042828
100
AcDbArc
 50
317.3616332945757
 51
33.83113859678929
  0
ARC
  5
4A99
330
2
100
AcDbEntity
  8
KIJUN
100
AcDbCircle
 10
12.22972909826262
 20
76.81201226609312
 30
0.0
 40
10.4045989252786
100
AcDbArc
 50
32.61374239585724
 51
131.7174867155297
  0
ARC
  5
4A9A
330
2
100
AcDbEntity
  8
KIJUN
100
AcDbCircle
 10
14.99855126268801
 20
72.72956436214099
 30
0.0
 40
15.3082207941451
100
AcDbArc
 50
129.2841064369398
 51
219.2534365425159
  0
ARC
  5
4A9B
330
2
100
AcDbEntity
  8
KIJUN
100
AcDbCircle
 10
25.89447215976032
 20
81.06828942983407
 30
0.0
 40
29.02516552216086
100
AcDbArc
 50
218.3902069005818
 51
302.6052977520848
  0
ARC
  5
4A9C
330
2
100
AcDbEntity
  8
KIJUN
100
AcDbCircle
 10
23.90982628966833
 20
85.56673013173181
 30
0.0
 40
33.89243341995765
100
AcDbArc
 50
301.3337409706195
 51
76.45237006220401
  0
ARC
  5
4A9D
330
2
100
AcDbEntity
  8
KIJUN
100
AcDbCircle
 10
-2.237088127145511
 20
131.5075046353231
 30
0.0
 40
23.01724959122052
100
AcDbArc
 50
271.775765481023
 51
286.6436404868153
  0
ARC
  5
4A9E
330
2
100
AcDbEntity
  8
KIJUN
100
AcDbCircle
 10
3.685719690742757
 20
111.6519177439107
 30
0.0
 40
2.297151630314842
100
AcDbArc
 50
286.9512197976119
 51
25.83068643168702
  0
ARC
  5
4A9F
330
2
100
AcDbEntity
  8
KIJUN
100
AcDbCircle
 10
26.58190884783631
 20
121.4913272396574
 30
0.0
 40
22.62626823835135
100
AcDbArc
 50
142.5290856394868
 51
202.9937357213603
  0
ARC
  5
4AA0
330
2
100
AcDbEntity
  8
KIJUN
100
AcDbCircle
 10
-10.27940701842442
 20
117.8768547999256
 30
0.0
 40
11.40587369697184
100
AcDbArc
 50
314.3919818919577
 51
10.91454250073542
  0
ARC
  5
4AA1
330
2
100
AcDbEntity
  8
KIJUN
100
AcDbCircle
 10
50.17191096225189
 20
128.6671203601482
 30
0.0
 40
50.00224389680065
100
AcDbArc
 50
177.0791601460096
 51
189.9392986194462
  0
ARC
  5
4AA2
330
2
100
AcDbEntity
  8
KIJUN
100
AcDbCircle
 10
46.60110055576717
 20
48.45727531408195
 30
0.0
 40
7.819560704435944
100
AcDbArc
 50
34.49320543651491
 51
171.0220277878753
  0
ARC
  5
4AA3
330
2
100
AcDbEntity
  8
KIJUN
100
AcDbCircle
 10
47.52186276001623
 20
60.71364321362679
 30
0.0
 40
31.59307562457317
100
AcDbArc
 50
319.3523579847529
 51
349.2389440527851
  0
ARC
  5
4AA4
330
2
100
AcDbEntity
  8
KIJUN
100
AcDbCircle
 10
63.64751743407248
 20
47.80971492067965
 30
0.0
 40
8.055938714232738
100
AcDbArc
 50
194.7036416955106
 51
270.1843571919744
  0
ARC
  5
4AA5
330
2
100
AcDbEntity
  8
KIJUN
100
AcDbCircle
 10
40.66373749060471
 20
43.88555992854745
 30
0.0
 40
15.30747162037977
100
AcDbArc
 50
7.052382666260688
 51
36.01153506195233
  0
ARC
  5
4AA6
330
2
100
AcDbEntity
  8
KIJUN
100
AcDbCircle
 10
59.51078360933036
 20
46.76667770470894
 30
0.0
 40
3.483987554215483
100
AcDbArc
 50
359.6099306972001
 51
156.2812724850038
  0
ARC
  5
4AA7
330
2
100
AcDbEntity
  8
KIJUN
100
AcDbCircle
 10
63.00471829813739
 20
45.62623829216843
 30
0.0
 40
7.150666391438526
100
AcDbArc
 50
159.1776128040507
 51
178.8883922810014
  0
ARC
  5
4AA8
330
2
100
AcDbEntity
  8
KIJUN
100
AcDbCircle
 10
67.17042645601111
 20
46.98489031284404
 30
0.0
 40
4.182738600691378
100
AcDbArc
 50
183.315863032029
 51
337.2120124714397
  0
ARC
  5
4AA9
330
2
100
AcDbEntity
  8
KIJUN
100
AcDbCircle
 10
15.49052664557882
 20
73.27896386066988
 30
0.0
 40
62.15676544179657
100
AcDbArc
 50
333.3145209654603
 51
356.1822423131382
  0
ARC
  5
4AAA
330
2
100
AcDbEntity
  8
KIJUN
100
AcDbCircle
 10
58.75246141902517
 20
58.25880824325844
 30
0.0
 40
6.06999332294426
100
AcDbArc
 50
166.0406078840848
 51
254.4001436443107
  0
ARC
  5
4AAB
330
2
100
AcDbEntity
  8
KIJUN
100
AcDbCircle
 10
59.15020765104419
 20
62.54314942963595
 30
0.0
 40
10.33213439317687
100
AcDbArc
 50
258.6687192744713
 51
320.676061152096
  0
ARC
  5
4AAC
330
2
100
AcDbEntity
  8
KIJUN
100
AcDbCircle
 10
39.47763190713715
 20
79.13998902964099
 30
0.0
 40
36.06976467980003
100
AcDbArc
 50
320.0846374396677
 51
345.3492755408863
  0
ARC
  5
4AAD
330
2
100
AcDbEntity
  8
KIJUN
100
AcDbCircle
 10
54.68627907987571
 20
56.34557907907387
 30
0.0
 40
3.838827913815601
100
AcDbArc
 50
82.40601627108786
 51
118.3780470317643
  0
ARC
  5
4AAF
330
2
100
AcDbEntity
  8
KIJUN
100
AcDbCircle
 10
65.65170384146847
 20
144.3952095095965
 30
0.0
 40
7.494565041340644
100
AcDbArc
 50
45.54616328571633
 51
51.83052644224553
  0
ARC
  5
4AB0
330
2
100
AcDbEntity
  8
KIJUN
100
AcDbCircle
 10
45.23638354923036
 20
114.4284545966087
 30
0.0
 40
30.17224871322051
100
AcDbArc
 50
3.122444299363847
 51
31.49893746386986
  0
ARC
  5
4AB1
330
2
100
AcDbEntity
  8
KIJUN
100
AcDbCircle
 10
104.5782352293221
 20
153.2620916637637
 30
0.0
 40
40.7699285835006
100
AcDbArc
 50
193.4423016676814
 51
214.460474219041
  0
ARC
  5
4AB2
330
2
100
AcDbEntity
  8
KIJUN
100
AcDbCircle
 10
7.093288840878244
 20
95.22815607606668
 30
0.0
 40
69.56387692506615
100
AcDbArc
 50
17.06221235227785
 51
29.38299430741567
  0
ARC
  5
4AB3
330
2
100
AcDbEntity
  8
KIJUN
100
AcDbCircle
 10
74.44704988237504
 20
115.9884780386033
 30
0.0
 40
0.9205798084070337
100
AcDbArc
 50
202.3183164280198
 51
5.201455615460261
  0
ARC
  5
4AB4
330
2
100
AcDbEntity
  8
KIJUN
100
AcDbCircle
 10
67.47950669221006
 20
90.31159074510602
 30
0.0
 40
3.243277692631699
100
AcDbArc
 50
193.0697970692197
 51
349.5521349342738
  0
ARC
  5
4AB5
330
2
100
AcDbEntity
  8
KIJUN
100
AcDbCircle
 10
-30.51206719679579
 20
62.86379256068139
 30
0.0
 40
96.66028432002063
100
AcDbArc
 50
14.16220835039674
 51
28.56465603664857
  0
ARC
  5
4AB6
330
2
100
AcDbEntity
  8
KIJUN
100
AcDbCircle
 10
33.91701028641637
 20
112.6622444843345
 30
0.0
 40
7.821644222020234
100
AcDbArc
 50
105.360851298426
 51
178.0358719301284
  0
ARC
  5
4AB7
330
2
100
AcDbEntity
  8
KIJUN
100
AcDbCircle
 10
31.95504498321088
 20
95.93375389785222
 30
0.0
 40
25.99744327840653
100
AcDbArc
 50
30.38105665805126
 51
56.87356300622567
  0
ARC
  5
4AB8
330
2
100
AcDbEntity
  8
KIJUN
100
AcDbCircle
 10
52.21658974355853
 20
107.4622174116695
 30
0.0
 40
17.29318822472202
100
AcDbArc
 50
17.48156574047765
 51
93.11728340992889
  0
ARC
  5
4AB9
330
2
100
AcDbEntity
  8
KIJUN
100
AcDbCircle
 10
-1.825925485626044
 20
81.09397943023926
 30
0.0
 40
74.26220448242037
100
AcDbArc
 50
24.25197669678912
 51
34.56383196906049
  0
ARC
  5
4ABA
330
2
100
AcDbEntity
  8
KIJUN
100
AcDbCircle
 10
67.26338461080684
 20
112.216250569605
 30
0.0
 40
1.513312095832904
100
AcDbArc
 50
204.1463105909566
 51
16.93557870733386
  0
ARC
  5
4ABB
330
2
100
AcDbEntity
  8
KIJUN
100
AcDbCircle
 10
51.0494903742923
 20
127.9986094117626
 30
0.0
 40
3.276643696977483
100
AcDbArc
 50
126.8760224030607
 51
273.9671921699157
  0
ARC
  5
4ABC
330
2
100
AcDbEntity
  8
KIJUN
100
AcDbCircle
 10
55.68974763503593
 20
108.7244600037678
 30
0.0
 40
22.87024947964904
100
AcDbArc
 50
93.51927416691813
 51
106.7903028262622
  0
ARC
  5
4ABD
330
2
100
AcDbEntity
  8
KIJUN
100
AcDbCircle
 10
48.39028680845934
 20
114.2900857657889
 30
0.0
 40
18.24053599074207
100
AcDbArc
 50
71.14262798622199
 51
115.3929153102447
  0
ARC
  5
4ABE
330
2
100
AcDbEntity
  8
KIJUN
100
AcDbCircle
 10
44.31369949178076
 20
138.0461964975884
 30
0.0
 40
8.18502293714714
100
AcDbArc
 50
135.9478741077837
 51
242.7683178272141
  0
ARC
  5
4ABF
330
2
100
AcDbEntity
  8
KIJUN
100
AcDbCircle
 10
38.59999265603483
 20
82.76659177849424
 30
0.0
 40
44.15944298913995
100
AcDbArc
 50
81.24406366974431
 51
99.80885367127326
  0
ARC
  5
4AC0
330
2
100
AcDbEntity
  8
KIJUN
100
AcDbCircle
 10
35.40043214044522
 20
106.9023225924099
 30
0.0
 40
19.85463026770834
100
AcDbArc
 50
102.5774299750167
 51
162.3876031544148
  0
ARC
  5
4AC1
330
2
100
AcDbEntity
  8
KIJUN
100
AcDbCircle
 10
35.15692394650625
 20
105.6262746601982
 30
0.0
 40
24.51921428849626
100
AcDbArc
 50
64.54484318149806
 51
141.596612837674
  0
ARC
  5
4AC2
330
2
100
AcDbEntity
  8
KIJUN
100
AcDbCircle
 10
23.88142810716067
 20
114.5457674986025
 30
0.0
 40
10.14236991742452
100
AcDbArc
 50
141.5149772080475
 51
199.5886296118762
  0
ARC
  5
4AC3
330
2
100
AcDbEntity
  8
KIJUN
100
AcDbCircle
 10
28.12168888414453
 20
149.072768554741
 30
0.0
 40
8.67499841744973
100
AcDbArc
 50
210.3113656632324
 51
223.9490018422967
  0
ARC
  5
4AC4
330
2
100
AcDbEntity
  8
KIJUN
100
AcDbCircle
 10
5.95676932754236
 20
147.4606848669964
 30
0.0
 40
12.49259113523875
100
AcDbArc
 50
262.2428606160241
 51
282.3292113190829
  0
ARC
  5
4AC5
330
2
100
AcDbEntity
  8
KIJUN
100
AcDbCircle
 10
-7.194897915352385
 20
121.5544237422879
 30
0.0
 40
84.260198523528
100
AcDbArc
 50
357.5851918769928
 51
8.189710079222862
  0
ARC
  5
4AC6
330
2
100
AcDbEntity
  8
KIJUN
100
AcDbCircle
 10
178.5409244931452
 20
146.2096753739223
 30
0.0
 40
103.1140969306147
100
AcDbArc
 50
179.9714897868765
 51
187.0480580889345
  0
ARC
  5
4AC7
330
2
100
AcDbEntity
  8
KIJUN
100
AcDbCircle
 10
52.05336333964533
 20
113.7306765049111
 30
0.0
 40
17.96019859361435
100
AcDbArc
 50
13.90098661889496
 51
82.85948258929149
  0
ARC
  5
4AC8
330
2
100
AcDbEntity
  8
KIJUN
100
AcDbCircle
 10
36.36854161945041
 20
103.8560443337037
 30
0.0
 40
16.96268998598962
100
AcDbArc
 50
54.7339891676635
 51
105.466289926856
  0
ARC
  5
4AC9
330
2
100
AcDbEntity
  8
KIJUN
100
AcDbCircle
 10
280.8776328775573
 20
163.5248432069176
 30
0.0
 40
224.5571418840316
100
AcDbArc
 50
195.4098454981303
 51
198.4378231433121
  0
ARC
  5
4ACA
330
2
100
AcDbEntity
  8
KIJUN
100
AcDbCircle
 10
-31.31247199085362
 20
64.71126313324063
 30
0.0
 40
105.3705115931443
100
AcDbArc
 50
16.19444763816289
 51
22.23169651193684
  0
ARC
  5
4ACB
330
2
100
AcDbEntity
  8
KIJUN
100
AcDbCircle
 10
65.34650187629029
 20
104.1222645130366
 30
0.0
 40
0.9898575115319882
100
AcDbArc
 50
27.44617167950802
 51
195.6572501750608
  0
ARC
  5
4ACC
330
2
100
AcDbEntity
  8
KIJUN
100
AcDbCircle
 10
297.1566768228115
 20
111.8128330087293
 30
0.0
 40
224.5571418840316
100
AcDbArc
 50
180.3157716119133
 51
183.5530496182812
  0
ARC
  5
4ACD
330
2
100
AcDbEntity
  8
KIJUN
100
AcDbCircle
 10
-29.99425066603351
 20
97.70411839984987
 30
0.0
 40
105.3705115931443
100
AcDbArc
 50
0.3069363101864859
 51
7.137622625718039
  0
ARC
  5
4ACE
330
2
100
AcDbEntity
  8
KIJUN
100
AcDbCircle
 10
73.59275496543557
 20
110.5849771877363
 30
0.0
 40
0.9898575115319882
100
AcDbArc
 50
12.35209779329006
 51
180.5631762888438
  0
ARC
  5
4ACF
330
2
100
AcDbEntity
  8
KIJUN
100
AcDbCircle
 10
35.64838583561095
 20
100.8662495540859
 30
0.0
 40
38.09577929637131
100
AcDbArc
 50
94.52310297522281
 51
134.9543838576449
  0
ARC
  5
4AD0
330
2
100
AcDbEntity
  8
KIJUN
100
AcDbCircle
 10
47.86881957678872
 20
114.8526775391246
 30
0.0
 40
26.78299897629228
100
AcDbArc
 50
50.73604948949907
 51
96.18488594807503
  0
ENDSEC
  0
SECTION
  2
OBJECTS
  0
DICTIONARY
  5
1A
330
0
100
AcDbDictionary
281
     1
  3
ACAD_COLOR
350
144
  3
ACAD_GROUP
350
18
  3
ACAD_LAYOUT
350
58
  3
ACAD_MATERIAL
350
143
  3
ACAD_MLINESTYLE
350
19
  3
ACAD_PLOTSETTINGS
350
59
  3
ACAD_PLOTSTYLENAME
350
56
  3
ACAD_TABLESTYLE
350
145
  3
ACDBHEADERROUNDTRIPXREC
350
4B3D
  3
AcDbVariableDictionary
350
1D1
  0
DICTIONARY
  5
1B4
330
A
100
AcDbDictionary
280
     1
281
     1
  3
ACAD_LAYERFILTERS
360
3C88
  3
ACAD_LAYERSTATES
360
3452
  3
ACLYDICTIONARY
360
3C87
  0
DICTIONARY
  5
1578
330
2
100
AcDbDictionary
280
     1
281
     1
  3
ACAD_SORTENTS
360
1579
  0
DICTIONARY
  5
144
102
{ACAD_REACTORS
330
1A
102
}
330
1A
100
AcDbDictionary
281
     1
  0
DICTIONARY
  5
18
102
{ACAD_REACTORS
330
1A
102
}
330
1A
100
AcDbDictionary
281
     1
  3
*A1
350
CFC
  3
*A10
350
1F8A
  3
*A11
350
2108
  3
*A12
350
2FF8
  3
*A13
350
218C
  3
*A14
350
2335
  3
*A15
350
2862
  3
*A16
350
299B
  3
*A2
350
2C07
  3
*A3
350
2DB5
  3
*A4
350
2E88
  3
*A5
350
15D1
  3
*A6
350
1682
  3
*A7
350
1827
  3
*A8
350
18ED
  3
*A9
350
19E5
  0
DICTIONARY
  5
58
102
{ACAD_REACTORS
330
1A
102
}
330
1A
100
AcDbDictionary
281
     1
  3
Model
350
5A
  3
ﾚｲｱｳﾄ1
350
5B
  0
DICTIONARY
  5
143
102
{ACAD_REACTORS
330
1A
102
}
330
1A
100
AcDbDictionary
281
     1
  0
DICTIONARY
  5
19
102
{ACAD_REACTORS
330
1A
102
}
330
1A
100
AcDbDictionary
281
     1
  3
STANDARD
350
1D
  0
DICTIONARY
  5
59
102
{ACAD_REACTORS
330
1A
102
}
330
1A
100
AcDbDictionary
281
     1
  0
ACDBDICTIONARYWDFLT
  5
56
102
{ACAD_REACTORS
330
1A
102
}
330
1A
100
AcDbDictionary
281
     1
  3
Normal
350
57
100
AcDbDictionaryWithDefault
340
57
  0
DICTIONARY
  5
145
102
{ACAD_REACTORS
330
1A
102
}
330
1A
100
AcDbDictionary
281
     1
  3
Standard
350
146
  0
DICTIONARY
  5
4B3D
102
{ACAD_REACTORS
330
1A
102
}
330
1A
100
AcDbDictionary
281
     1
  0
DICTIONARY
  5
1D1
102
{ACAD_REACTORS
330
1A
102
}
330
1A
100
AcDbDictionary
281
     1
  3
CTABLESTYLE
350
1D2
  3
DIMASSOC
350
D03
  3
PROJECTNAME
350
D04
  0
DICTIONARY
  5
3C88
102
{ACAD_REACTORS
330
1B4
102
}
330
1B4
100
AcDbDictionary
281
     1
  0
DICTIONARY
  5
3452
102
{ACAD_REACTORS
330
1B4
102
}
330
1B4
100
AcDbDictionary
281
     1
  0
DICTIONARY
  5
3C87
102
{ACAD_REACTORS
330
1B4
102
}
330
1B4
100
AcDbDictionary
281
     1
1001
ACAD
1000
<All
  0
SORTENTSTABLE
  5
1579
102
{ACAD_REACTORS
330
1578
102
}
330
1578
100
AcDbSortentsTable
330
2
331
4762
  5
4764
331
4723
  5
4724
331
48C9
  5
48C9
331
476A
  5
476C
331
48D1
  5
48D1
331
4910
  5
4910
331
4733
  5
4734
331
48D9
  5
48D9
331
4918
  5
491A
331
48E1
  5
48E1
331
4920
  5
4920
331
473B
  5
473D
331
480A
  5
480A
331
4947
  5
493C
331
494F
  5
494F
331
48E9
  5
48E9
331
4928
  5
4928
331
4743
  5
4744
331
48BA
  5
48BB
331
48F1
  5
48F1
331
470C
  5
470E
331
474B
  5
474C
331
4938
  5
4938
331
48C2
  5
48C2
331
48F9
  5
48F9
331
4753
  5
4754
331
4901
  5
4902
331
21
  5
3F70
331
48CA
  5
48CA
331
4909
  5
4909
331
4763
  5
4765
331
4724
  5
4725
331
48D2
  5
48D2
331
4911
  5
4912
331
476B
  5
476D
331
48DA
  5
48DA
331
4734
  5
4735
331
4921
  5
4921
331
4940
  5
4946
331
480B
  5
480B
331
4948
  5
493E
331
48EA
  5
48EA
331
4929
  5
4929
331
4744
  5
4745
331
48BB
  5
48B9
331
474C
  5
474D
331
48C3
  5
48C3
331
48FA
  5
48FA
331
4754
  5
4755
331
4902
  5
4901
331
475C
  5
475D
331
48CB
  5
48CB
331
490A
  5
490A
331
4764
  5
4766
331
4725
  5
4726
331
4912
  5
4916
331
476C
  5
4800
331
48DB
  5
48DB
331
491A
  5
491B
331
4735
  5
4736
331
48E3
  5
48E3
331
4922
  5
4922
331
4941
  5
4947
331
480C
  5
480C
331
473D
  5
473E
331
4949
  5
4949
331
492A
  5
492A
331
4745
  5
4746
331
48F3
  5
48F3
331
4932
  5
4932
331
470E
  5
470F
331
474D
  5
474E
331
48C4
  5
48C4
331
48FB
  5
48FB
331
4755
  5
4756
331
4903
  5
4903
331
475D
  5
475E
331
23
  5
3FD1
331
48CC
  5
48CC
331
490B
  5
490B
331
4765
  5
4767
331
3F6F
  5
3FD3
331
4726
  5
472E
331
48D4
  5
48D4
331
472E
  5
472F
331
48DC
  5
48DC
331
491B
  5
491D
331
4736
  5
4737
331
48E4
  5
48E4
331
4923
  5
4923
331
480D
  5
480D
331
473E
  5
473F
331
494A
  5
494A
331
48B5
  5
48B5
331
48EC
  5
48EC
331
492B
  5
492B
331
4746
  5
4747
331
48F4
  5
48F5
331
4933
  5
4933
331
470F
  5
4710
331
474E
  5
474F
331
4756
  5
4757
331
493B
  5
493B
331
475E
  5
475F
331
3F70
  5
3FDB
331
4766
  5
4768
331
48CD
  5
48CD
331
490C
  5
490C
331
472F
  5
4730
331
48D5
  5
48D5
331
4737
  5
4738
331
48DD
  5
48DD
331
473F
  5
4740
331
48E5
  5
48E5
331
4924
  5
4924
331
4747
  5
4749
331
48B6
  5
48B6
331
48ED
  5
48ED
331
4710
  5
4723
331
474F
  5
4750
331
48BE
  5
48BE
331
48F5
  5
48F6
331
4934
  5
4934
331
493C
  5
493D
331
4757
  5
4759
331
48C6
  5
48C6
331
48FD
  5
48FD
331
475F
  5
4760
331
4905
  5
4905
331
4767
  5
4769
331
48CE
  5
48CE
331
490D
  5
490D
331
4730
  5
4731
331
48D6
  5
48D6
331
4738
  5
473A
331
48DE
  5
48DE
331
491D
  5
491E
331
48E6
  5
48E6
331
4925
  5
4925
331
494C
  5
494C
331
4740
  5
4741
331
48B7
  5
48B7
331
48EE
  5
48EE
331
4750
  5
4751
331
48BF
  5
48BF
331
48F6
  5
48F4
331
4935
  5
4935
331
493D
  5
493F
331
48C7
  5
48C7
331
48FE
  5
48FE
331
4906
  5
4906
331
4760
  5
4761
331
4768
  5
476A
331
48CF
  5
48CF
331
48D7
  5
48D7
331
4916
  5
4917
331
4731
  5
4732
331
4800
  5
4763
331
48DF
  5
48DF
331
491E
  5
4911
331
48E7
  5
48E7
331
494D
  5
494D
331
1F
  5
30B1
331
4741
  5
4742
331
4749
  5
474A
331
48B8
  5
48B8
331
48EF
  5
48EF
331
4751
  5
4752
331
48C0
  5
48C0
331
4936
  5
4936
331
493E
  5
4940
331
4759
  5
475C
331
48FF
  5
48FF
331
4907
  5
4907
331
4761
  5
4762
331
48C8
  5
48C8
331
4769
  5
476B
331
48D0
  5
48D0
331
490F
  5
490F
331
4732
  5
4733
331
48D8
  5
48D8
331
4917
  5
4918
331
48E0
  5
48E0
331
473A
  5
473B
331
4809
  5
4809
331
4927
  5
4927
331
4946
  5
4948
331
494E
  5
494E
331
4742
  5
4743
331
48E8
  5
48E8
331
470B
  5
470C
331
474A
  5
474B
331
48B9
  5
48BA
331
48F0
  5
48F0
331
4752
  5
4753
331
48C1
  5
48C1
331
48F8
  5
48F8
331
4937
  5
4937
331
493F
  5
4941
331
4900
  5
4900
331
20
  5
30B2
  0
GROUP
  5
CFC
102
{ACAD_REACTORS
330
18
102
}
330
18
100
AcDbGroup
300

 70
     1
 71
     1
  0
GROUP
  5
1F8A
102
{ACAD_REACTORS
330
18
102
}
330
18
100
AcDbGroup
300

 70
     1
 71
     1
  0
GROUP
  5
2108
102
{ACAD_REACTORS
330
18
102
}
330
18
100
AcDbGroup
300

 70
     1
 71
     1
  0
GROUP
  5
2FF8
102
{ACAD_REACTORS
330
18
102
}
330
18
100
AcDbGroup
300

 70
     1
 71
     1
  0
GROUP
  5
218C
102
{ACAD_REACTORS
330
18
102
}
330
18
100
AcDbGroup
300

 70
     1
 71
     1
  0
GROUP
  5
2335
102
{ACAD_REACTORS
330
18
102
}
330
18
100
AcDbGroup
300

 70
     1
 71
     1
  0
GROUP
  5
2862
102
{ACAD_REACTORS
330
18
102
}
330
18
100
AcDbGroup
300

 70
     1
 71
     1
  0
GROUP
  5
299B
102
{ACAD_REACTORS
330
18
102
}
330
18
100
AcDbGroup
300

 70
     1
 71
     1
  0
GROUP
  5
2C07
102
{ACAD_REACTORS
330
18
102
}
330
18
100
AcDbGroup
300

 70
     1
 71
     1
  0
GROUP
  5
2DB5
102
{ACAD_REACTORS
330
18
102
}
330
18
100
AcDbGroup
300

 70
     1
 71
     1
  0
GROUP
  5
2E88
102
{ACAD_REACTORS
330
18
102
}
330
18
100
AcDbGroup
300

 70
     1
 71
     1
  0
GROUP
  5
15D1
102
{ACAD_REACTORS
330
18
102
}
330
18
100
AcDbGroup
300

 70
     1
 71
     1
  0
GROUP
  5
1682
102
{ACAD_REACTORS
330
18
102
}
330
18
100
AcDbGroup
300

 70
     1
 71
     1
  0
GROUP
  5
1827
102
{ACAD_REACTORS
330
18
102
}
330
18
100
AcDbGroup
300

 70
     1
 71
     1
  0
GROUP
  5
18ED
102
{ACAD_REACTORS
330
18
102
}
330
18
100
AcDbGroup
300

 70
     1
 71
     1
  0
GROUP
  5
19E5
102
{ACAD_REACTORS
330
18
102
}
330
18
100
AcDbGroup
300

 70
     1
 71
     1
  0
LAYOUT
  5
5A
102
{ACAD_XDICTIONARY
360
4B3E
102
}
102
{ACAD_REACTORS
330
58
102
}
330
58
100
AcDbPlotSettings
  1

  2
none_device
  4
Letter_(8.50_x_11.00_Inches)
  6

 40
6.349999904632568
 41
6.349999904632568
 42
6.350006103515625
 43
6.350006103515625
 44
215.8999938964844
 45
279.3999938964844
 46
0.0
 47
0.0
 48
0.0
 49
0.0
140
0.0
141
0.0
142
1.0
143
31.42690824109359
 70
 11952
 72
     0
 73
     1
 74
     0
  7
monochrome.ctb
 75
     0
147
0.0318198657127973
148
-5458.898172012973
149
493.9507553935718
100
AcDbLayout
  1
Model
 70
     1
 71
     0
 10
0.0
 20
0.0
 11
12.0
 21
9.0
 12
0.0
 22
0.0
 32
0.0
 14
0.0
 24
0.0
 34
0.0
 15
0.0
 25
0.0
 35
0.0
146
0.0
 13
0.0
 23
0.0
 33
0.0
 16
1.0
 26
0.0
 36
0.0
 17
0.0
 27
1.0
 37
0.0
 76
     0
330
2
1001
ACAD_PSEXT
1000
なし
1000
なし
1000
適切ではありません
1000
新しいプロッタ環境設定名を選択しない限り、レイアウトは印刷されません。
1070
     0
  0
LAYOUT
  5
5B
102
{ACAD_XDICTIONARY
360
4B40
102
}
102
{ACAD_REACTORS
330
58
102
}
330
58
100
AcDbPlotSettings
  1

  2
なし
  4

  6

 40
0.0
 41
0.0
 42
0.0
 43
0.0
 44
0.0
 45
0.0
 46
0.0
 47
0.0
 48
0.0
 49
0.0
140
0.0
141
0.0
142
1.0
143
1.0
 70
   688
 72
     0
 73
     0
 74
     5
  7
monochrome.ctb
 75
    16
147
1.0
148
0.0
149
0.0
100
AcDbLayout
  1
ﾚｲｱｳﾄ1
 70
     1
 71
     1
 10
0.0
 20
0.0
 11
12.0
 21
9.0
 12
0.0
 22
0.0
 32
0.0
 14
1.000000000000000E+20
 24
1.000000000000000E+20
 34
1.000000000000000E+20
 15
-1.000000000000000E+20
 25
-1.000000000000000E+20
 35
-1.000000000000000E+20
146
0.0
 13
0.0
 23
0.0
 33
0.0
 16
1.0
 26
0.0
 36
0.0
 17
0.0
 27
1.0
 37
0.0
 76
     0
330
7
  0
MLINESTYLE
  5
1D
102
{ACAD_REACTORS
330
19
102
}
330
19
100
AcDbMlineStyle
  2
STANDARD
 70
     0
  3

 62
   256
 51
90.0
 52
90.0
 71
     2
 49
0.5
 62
   256
  6
BYLAYER
 49
-0.5
 62
   256
  6
BYLAYER
  0
ACDBPLACEHOLDER
  5
57
102
{ACAD_REACTORS
330
56
102
}
330
56
  0
TABLESTYLE
  5
146
102
{ACAD_REACTORS
330
145
102
}
330
145
100
AcDbTableStyle
  3
Standard
 70
     0
 71
     0
 40
0.06
 41
0.06
280
     0
281
     0
  7
STANDARD
140
0.18
170
     2
 62
     0
 63
     7
283
     0
274
    -2
284
     1
 64
     0
275
    -2
285
     1
 65
     0
276
    -2
286
     1
 66
     0
277
    -2
287
     1
 67
     0
278
    -2
288
     1
 68
     0
279
    -2
289
     1
 69
     0
  7
STANDARD
140
0.25
170
     5
 62
     0
 63
     7
283
     0
274
    -2
284
     1
 64
     0
275
    -2
285
     1
 65
     0
276
    -2
286
     1
 66
     0
277
    -2
287
     1
 67
     0
278
    -2
288
     1
 68
     0
279
    -2
289
     1
 69
     0
  7
STANDARD
140
0.18
170
     5
 62
     0
 63
     7
283
     0
274
    -2
284
     1
 64
     0
275
    -2
285
     1
 65
     0
276
    -2
286
     1
 66
     0
277
    -2
287
     1
 67
     0
278
    -2
288
     1
 68
     0
279
    -2
289
     1
 69
     0
  0
DICTIONARYVAR
  5
1D2
102
{ACAD_REACTORS
330
1D1
102
}
330
1D1
100
DictionaryVariables
280
     0
  1
STANDARD
  0
DICTIONARYVAR
  5
D03
102
{ACAD_REACTORS
330
1D1
102
}
330
1D1
100
DictionaryVariables
280
     0
  1
1
  0
DICTIONARYVAR
  5
D04
102
{ACAD_REACTORS
330
1D1
102
}
330
1D1
100
DictionaryVariables
280
     0
  1

  0
DICTIONARY
  5
4B3E
330
5A
100
AcDbDictionary
280
     1
281
     1
  3
ACAD_XREC_ROUNDTRIP
360
4B3F
  0
DICTIONARY
  5
4B40
330
5B
100
AcDbDictionary
280
     1
281
     1
  3
ACAD_XREC_ROUNDTRIP
360
4B41
  0
XRECORD
  5
4B3F
102
{ACAD_REACTORS
330
4B3E
102
}
330
4B3E
100
AcDbXrecord
280
     1
102
SHADEPLOT
 70
     0
102
SHADEPLOTRESLEVEL
 70
     2
102
SHADEPLOTCUSTOMDPI
 70
   300
  0
XRECORD
  5
4B41
102
{ACAD_REACTORS
330
4B40
102
}
330
4B40
100
AcDbXrecord
280
     1
102
SHADEPLOT
 70
     0
102
SHADEPLOTRESLEVEL
 70
     2
102
SHADEPLOTCUSTOMDPI
 70
   300
  0
ENDSEC
  0
EOF
