  0
SECTION
  2
HEADER
  9
$ACADVER
  1
AC1015
  9
$ACADMAINTVER
 70
    20
  9
$DWGCODEPAGE
  3
ANSI_932
  9
$INSBASE
 10
922.019522
 20
-675.4306699999999
 30
0.0
  9
$EXTMIN
 10
-396.6802136030939
 20
0.0
 30
0.0
  9
$EXTMAX
 10
518.7984168469686
 20
283.693739891357
 30
0.0
  9
$LIMMIN
 10
0.0
 20
0.0
  9
$LIMMAX
 10
420.0
 20
297.0
  9
$ORTHOMODE
 70
     1
  9
$REGENMODE
 70
     1
  9
$FILLMODE
 70
     1
  9
$QTEXTMODE
 70
     0
  9
$MIRRTEXT
 70
     1
  9
$LTSCALE
 40
1.0
  9
$ATTMODE
 70
     1
  9
$TEXTSIZE
 40
30.0
  9
$TRACEWID
 40
0.05
  9
$TEXTSTYLE
  7
SUNPOU
  9
$CLAYER
  8
0
  9
$CELTYPE
  6
BYLAYER
  9
$CECOLOR
 62
   256
  9
$CELTSCALE
 40
1.0
  9
$DISPSILH
 70
     0
  9
$DIMSCALE
 40
1.0
  9
$DIMASZ
 40
2.0
  9
$DIMEXO
 40
10.0
  9
$DIMDLI
 40
0.38
  9
$DIMRND
 40
0.0
  9
$DIMDLE
 40
0.0
  9
$DIMEXE
 40
0.0
  9
$DIMTP
 40
0.0
  9
$DIMTM
 40
0.0
  9
$DIMTXT
 40
10.0
  9
$DIMCEN
 40
0.0
  9
$DIMTSZ
 40
0.0
  9
$DIMTOL
 70
     0
  9
$DIMLIM
 70
     0
  9
$DIMTIH
 70
     0
  9
$DIMTOH
 70
     0
  9
$DIMSE1
 70
     0
  9
$DIMSE2
 70
     0
  9
$DIMTAD
 70
     1
  9
$DIMZIN
 70
     0
  9
$DIMBLK
  1
Dot
  9
$DIMASO
 70
     1
  9
$DIMSHO
 70
     1
  9
$DIMPOST
  1

  9
$DIMAPOST
  1

  9
$DIMALT
 70
     0
  9
$DIMALTD
 70
     2
  9
$DIMALTF
 40
25.4
  9
$DIMLFAC
 40
1.0
  9
$DIMTOFL
 70
     0
  9
$DIMTVP
 40
0.0
  9
$DIMTIX
 70
     0
  9
$DIMSOXD
 70
     0
  9
$DIMSAH
 70
     0
  9
$DIMBLK1
  1

  9
$DIMBLK2
  1

  9
$DIMSTYLE
  2
STANDARD
  9
$DIMCLRD
 70
    60
  9
$DIMCLRE
 70
    70
  9
$DIMCLRT
 70
    60
  9
$DIMTFAC
 40
0.064286
  9
$DIMGAP
 40
3.0
  9
$DIMJUST
 70
     0
  9
$DIMSD1
 70
     0
  9
$DIMSD2
 70
     0
  9
$DIMTOLJ
 70
     1
  9
$DIMTZIN
 70
     0
  9
$DIMALTZ
 70
     0
  9
$DIMALTTZ
 70
     0
  9
$DIMUPT
 70
     0
  9
$DIMDEC
 70
     0
  9
$DIMTDEC
 70
     0
  9
$DIMALTU
 70
     2
  9
$DIMALTTD
 70
     2
  9
$DIMTXSTY
  7
SUNPOU
  9
$DIMAUNIT
 70
     0
  9
$DIMADEC
 70
     0
  9
$DIMALTRND
 40
0.0
  9
$DIMAZIN
 70
     0
  9
$DIMDSEP
 70
    46
  9
$DIMATFIT
 70
     3
  9
$DIMFRAC
 70
     0
  9
$DIMLDRBLK
  1

  9
$DIMLUNIT
 70
     2
  9
$DIMLWD
 70
    -2
  9
$DIMLWE
 70
    -2
  9
$DIMTMOVE
 70
     0
  9
$LUNITS
 70
     2
  9
$LUPREC
 70
     5
  9
$SKETCHINC
 40
0.1
  9
$FILLETRAD
 40
0.0
  9
$AUNITS
 70
     0
  9
$AUPREC
 70
     0
  9
$MENU
  1
acad
  9
$ELEVATION
 40
0.0
  9
$PELEVATION
 40
0.0
  9
$THICKNESS
 40
0.0
  9
$LIMCHECK
 70
     0
  9
$CHAMFERA
 40
0.0
  9
$CHAMFERB
 40
0.0
  9
$CHAMFERC
 40
0.0
  9
$CHAMFERD
 40
0.0
  9
$SKPOLY
 70
     0
  9
$TDCREATE
 40
2450623.654673033
  9
$TDUCREATE
 40
2450623.279673032
  9
$TDUPDATE
 40
2415386.065375960
  9
$TDUUPDATE
 40
2415385.690375960
  9
$TDINDWG
 40
1.6159936806
  9
$TDUSRTIMER
 40
1.6159935069
  9
$USRTIMER
 70
     1
  9
$ANGBASE
 50
0.0
  9
$ANGDIR
 70
     0
  9
$PDMODE
 70
     0
  9
$PDSIZE
 40
0.0
  9
$PLINEWID
 40
0.0
  9
$SPLFRAME
 70
     0
  9
$SPLINETYPE
 70
     6
  9
$SPLINESEGS
 70
     8
  9
$HANDSEED
  5
4E3C
  9
$SURFTAB1
 70
     6
  9
$SURFTAB2
 70
     6
  9
$SURFTYPE
 70
     6
  9
$SURFU
 70
     6
  9
$SURFV
 70
     6
  9
$UCSBASE
  2

  9
$UCSNAME
  2

  9
$UCSORG
 10
0.0
 20
0.0
 30
0.0
  9
$UCSXDIR
 10
1.0
 20
0.0
 30
0.0
  9
$UCSYDIR
 10
0.0
 20
1.0
 30
0.0
  9
$UCSORTHOREF
  2

  9
$UCSORTHOVIEW
 70
     0
  9
$UCSORGTOP
 10
0.0
 20
0.0
 30
0.0
  9
$UCSORGBOTTOM
 10
0.0
 20
0.0
 30
0.0
  9
$UCSORGLEFT
 10
0.0
 20
0.0
 30
0.0
  9
$UCSORGRIGHT
 10
0.0
 20
0.0
 30
0.0
  9
$UCSORGFRONT
 10
0.0
 20
0.0
 30
0.0
  9
$UCSORGBACK
 10
0.0
 20
0.0
 30
0.0
  9
$PUCSBASE
  2

  9
$PUCSNAME
  2

  9
$PUCSORG
 10
0.0
 20
0.0
 30
0.0
  9
$PUCSXDIR
 10
1.0
 20
0.0
 30
0.0
  9
$PUCSYDIR
 10
0.0
 20
1.0
 30
0.0
  9
$PUCSORTHOREF
  2

  9
$PUCSORTHOVIEW
 70
     0
  9
$PUCSORGTOP
 10
0.0
 20
0.0
 30
0.0
  9
$PUCSORGBOTTOM
 10
0.0
 20
0.0
 30
0.0
  9
$PUCSORGLEFT
 10
0.0
 20
0.0
 30
0.0
  9
$PUCSORGRIGHT
 10
0.0
 20
0.0
 30
0.0
  9
$PUCSORGFRONT
 10
0.0
 20
0.0
 30
0.0
  9
$PUCSORGBACK
 10
0.0
 20
0.0
 30
0.0
  9
$USERI1
 70
     0
  9
$USERI2
 70
     0
  9
$USERI3
 70
     0
  9
$USERI4
 70
     0
  9
$USERI5
 70
     0
  9
$USERR1
 40
0.0
  9
$USERR2
 40
0.0
  9
$USERR3
 40
0.0
  9
$USERR4
 40
0.0
  9
$USERR5
 40
0.0
  9
$WORLDVIEW
 70
     1
  9
$SHADEDGE
 70
     3
  9
$SHADEDIF
 70
    70
  9
$TILEMODE
 70
     1
  9
$MAXACTVP
 70
    16
  9
$PINSBASE
 10
0.0
 20
0.0
 30
0.0
  9
$PLIMCHECK
 70
     0
  9
$PEXTMIN
 10
1.000000000000000E+20
 20
1.000000000000000E+20
 30
1.000000000000000E+20
  9
$PEXTMAX
 10
-1.000000000000000E+20
 20
-1.000000000000000E+20
 30
-1.000000000000000E+20
  9
$PLIMMIN
 10
0.0
 20
0.0
  9
$PLIMMAX
 10
12.0
 20
9.0
  9
$UNITMODE
 70
     0
  9
$VISRETAIN
 70
     0
  9
$PLINEGEN
 70
     0
  9
$PSLTSCALE
 70
     1
  9
$TREEDEPTH
 70
  3020
  9
$CMLSTYLE
  2
STANDARD
  9
$CMLJUST
 70
     0
  9
$CMLSCALE
 40
1.0
  9
$PROXYGRAPHICS
 70
     1
  9
$MEASUREMENT
 70
     0
  9
$CELWEIGHT
370
    -1
  9
$ENDCAPS
280
     0
  9
$JOINSTYLE
280
     0
  9
$LWDISPLAY
290
     0
  9
$INSUNITS
 70
     0
  9
$HYPERLINKBASE
  1

  9
$STYLESHEET
  1
monochrome.ctb
  9
$XEDIT
290
     1
  9
$CEPSNTYPE
380
     0
  9
$PSTYLEMODE
290
     1
  9
$FINGERPRINTGUID
  2
{FB88A696-E29C-4009-92AF-A3599A8169D5}
  9
$VERSIONGUID
  2
{A92687E0-B32B-4179-AC36-FDFBB4D42B90}
  9
$EXTNAMES
290
     1
  9
$PSVPSCALE
 40
0.0
  9
$OLESTARTUP
290
     0
  0
ENDSEC
  0
SECTION
  2
CLASSES
  0
CLASS
  1
DICTIONARYVAR
  2
AcDbDictionaryVar
  3
ObjectDBX Classes
 90
        0
280
     0
281
     0
  0
CLASS
  1
ACDBDICTIONARYWDFLT
  2
AcDbDictionaryWithDefault
  3
ObjectDBX Classes
 90
        0
280
     0
281
     0
  0
CLASS
  1
ACDBPLACEHOLDER
  2
AcDbPlaceHolder
  3
ObjectDBX Classes
 90
        0
280
     0
281
     0
  0
CLASS
  1
LAYOUT
  2
AcDbLayout
  3
ObjectDBX Classes
 90
        0
280
     0
281
     0
  0
CLASS
  1
TABLESTYLE
  2
AcDbTableStyle
  3
ObjectDBX Classes
 90
     2047
280
     0
281
     0
  0
CLASS
  1
SORTENTSTABLE
  2
AcDbSortentsTable
  3
ObjectDBX Classes
 90
        0
280
     0
281
     0
  0
ENDSEC
  0
SECTION
  2
TABLES
  0
TABLE
  2
VPORT
  5
12
330
0
100
AcDbSymbolTable
 70
     2
  0
VPORT
  5
4E36
330
12
100
AcDbSymbolTableRecord
100
AcDbViewportTableRecord
  2
*Active
 70
     0
 10
0.0
 20
0.0
 11
1.0
 21
1.0
 12
61.07559670080303
 22
142.2181367918863
 13
0.0
 23
0.0
 14
1.0
 24
1.0
 15
0.0
 25
0.0
 16
0.0
 26
0.0
 36
1.0
 17
0.0
 27
0.0
 37
0.0
 40
577.3967944601401
 41
1.593464052287581
 42
50.0
 43
0.0
 44
0.0
 50
0.0
 51
0.0
 71
     0
 72
 20000
 73
     1
 74
     1
 75
     0
 76
     0
 77
     0
 78
     0
281
     0
 65
     1
110
0.0
120
0.0
130
0.0
111
1.0
121
0.0
131
0.0
112
0.0
122
1.0
132
0.0
 79
     0
146
0.0
  0
ENDTAB
  0
TABLE
  2
LTYPE
  5
D
330
0
100
AcDbSymbolTable
 70
     1
  0
LTYPE
  5
E
330
D
100
AcDbSymbolTableRecord
100
AcDbLinetypeTableRecord
  2
BYBLOCK
 70
     0
  3

 72
    65
 73
     0
 40
0.0
  0
LTYPE
  5
F
330
D
100
AcDbSymbolTableRecord
100
AcDbLinetypeTableRecord
  2
BYLAYER
 70
     0
  3

 72
    65
 73
     0
 40
0.0
  0
LTYPE
  5
5
330
D
100
AcDbSymbolTableRecord
100
AcDbLinetypeTableRecord
  2
CONTINUOUS
 70
     0
  3
Solid line
 72
    65
 73
     0
 40
0.0
  0
ENDTAB
  0
TABLE
  2
LAYER
  5
A
102
{ACAD_XDICTIONARY
360
1B4
102
}
330
0
100
AcDbSymbolTable
 70
     6
  0
LAYER
  5
4
330
A
100
AcDbSymbolTableRecord
100
AcDbLayerTableRecord
  2
0
 70
     0
 62
     7
  6
CONTINUOUS
370
    -3
390
57
  0
LAYER
  5
25
330
A
100
AcDbSymbolTableRecord
100
AcDbLayerTableRecord
  2
KIJUN
 70
     0
 62
     7
  6
CONTINUOUS
370
    50
390
57
  0
LAYER
  5
22
330
A
100
AcDbSymbolTableRecord
100
AcDbLayerTableRecord
  2
HOJO
 70
     0
 62
     3
  6
CONTINUOUS
370
    20
390
57
  0
LAYER
  5
1B
330
A
100
AcDbSymbolTableRecord
100
AcDbLayerTableRecord
  2
WAKU
 70
     0
 62
     1
  6
CONTINUOUS
370
    -3
390
57
  0
LAYER
  5
31
330
A
100
AcDbSymbolTableRecord
100
AcDbLayerTableRecord
  2
DEFPOINTS
 70
     0
 62
     7
  6
CONTINUOUS
290
     0
370
    -3
390
57
  0
LAYER
  5
28
330
A
100
AcDbSymbolTableRecord
100
AcDbLayerTableRecord
  2
SUNPOU
 70
     0
 62
    70
  6
CONTINUOUS
370
    20
390
57
  0
ENDTAB
  0
TABLE
  2
STYLE
  5
B
330
0
100
AcDbSymbolTable
 70
     2
  0
STYLE
  5
C
330
B
100
AcDbSymbolTableRecord
100
AcDbTextStyleTableRecord
  2
STANDARD
 70
     0
 40
0.0
 41
1.0
 50
0.0
 71
     0
 42
0.2
  3
txt
  4

  0
STYLE
  5
1C
330
B
100
AcDbSymbolTableRecord
100
AcDbTextStyleTableRecord
  2
SUNPOU
 70
     0
 40
0.0
 41
1.0
 50
0.0
 71
     0
 42
30.0
  3
txt
  4
bigfont
  0
ENDTAB
  0
TABLE
  2
VIEW
  5
10
330
0
100
AcDbSymbolTable
 70
     0
  0
ENDTAB
  0
TABLE
  2
UCS
  5
11
330
0
100
AcDbSymbolTable
 70
     0
  0
ENDTAB
  0
TABLE
  2
APPID
  5
14
330
0
100
AcDbSymbolTable
 70
    11
  0
APPID
  5
15
330
14
100
AcDbSymbolTableRecord
100
AcDbRegAppTableRecord
  2
ACAD
 70
     0
  0
APPID
  5
1D3
330
14
100
AcDbSymbolTableRecord
100
AcDbRegAppTableRecord
  2
ACAD_DSTYLE_DIMTEXT_FILL
 70
     0
  0
APPID
  5
1D4
330
14
100
AcDbSymbolTableRecord
100
AcDbRegAppTableRecord
  2
ACAD_DSTYLE_DIMEXT_LENGTH
 70
     0
  0
APPID
  5
1D5
330
14
100
AcDbSymbolTableRecord
100
AcDbRegAppTableRecord
  2
ACAD_DSTYLE_DIMEXT_ENABLED
 70
     0
  0
APPID
  5
1D6
330
14
100
AcDbSymbolTableRecord
100
AcDbRegAppTableRecord
  2
ACAD_DSTYLE_DIM_LINETYPE
 70
     0
  0
APPID
  5
1D7
330
14
100
AcDbSymbolTableRecord
100
AcDbRegAppTableRecord
  2
ACAD_DSTYLE_DIM_EXT1_LINETYPE
 70
     0
  0
APPID
  5
1D8
330
14
100
AcDbSymbolTableRecord
100
AcDbRegAppTableRecord
  2
ACAD_DSTYLE_DIM_EXT2_LINETYPE
 70
     0
  0
APPID
  5
294
330
14
100
AcDbSymbolTableRecord
100
AcDbRegAppTableRecord
  2
ACAD_DSTYLE_DIMJOGGED_JOGANGLE_SYMBOL
 70
     0
  0
APPID
  5
478
330
14
100
AcDbSymbolTableRecord
100
AcDbRegAppTableRecord
  2
ACAD_DSTYLE_DIMARC_LENGTH_SYMBOL
 70
     0
  0
APPID
  5
157B
330
14
100
AcDbSymbolTableRecord
100
AcDbRegAppTableRecord
  2
ACAD_EXEMPT_FROM_CAD_STANDARDS
 70
     0
  0
APPID
  5
2F1F
330
14
100
AcDbSymbolTableRecord
100
AcDbRegAppTableRecord
  2
ACAD_PSEXT
 70
     0
  0
ENDTAB
  0
TABLE
  2
DIMSTYLE
  5
16
330
0
100
AcDbSymbolTable
 70
     1
100
AcDbDimStyleTable
 71
     1
340
1E
  0
DIMSTYLE
105
1E
102
{ACAD_REACTORS
330
4714
330
4715
102
}
330
16
100
AcDbSymbolTableRecord
100
AcDbDimStyleTableRecord
  2
STANDARD
 70
     0
340
C
  0
ENDTAB
  0
TABLE
  2
BLOCK_RECORD
  5
1
330
0
100
AcDbSymbolTable
 70
     3
  0
BLOCK_RECORD
  5
2
102
{ACAD_XDICTIONARY
360
1578
102
}
330
1
100
AcDbSymbolTableRecord
100
AcDbBlockTableRecord
  2
*MODEL_SPACE
340
5A
  0
BLOCK_RECORD
  5
7
330
1
100
AcDbSymbolTableRecord
100
AcDbBlockTableRecord
  2
*PAPER_SPACE
340
5B
  0
BLOCK_RECORD
  5
109
330
1
100
AcDbSymbolTableRecord
100
AcDbBlockTableRecord
  2
_Dot
340
0
102
{BLKREFS
331
4DF2
331
4DF3
331
4E0D
331
4E0E
102
}
  0
BLOCK_RECORD
  5
484F
330
1
100
AcDbSymbolTableRecord
100
AcDbBlockTableRecord
  2
*D1
340
0
  0
BLOCK_RECORD
  5
485B
330
1
100
AcDbSymbolTableRecord
100
AcDbBlockTableRecord
  2
*D2
340
0
  0
ENDTAB
  0
ENDSEC
  0
SECTION
  2
BLOCKS
  0
BLOCK
  5
3
330
2
100
AcDbEntity
  8
0
100
AcDbBlockBegin
  2
*MODEL_SPACE
 70
     0
 10
0.0
 20
0.0
 30
0.0
  3
*MODEL_SPACE
  1

  0
ENDBLK
  5
6
330
2
100
AcDbEntity
  8
0
100
AcDbBlockEnd
  0
BLOCK
  5
8
330
7
100
AcDbEntity
 67
     1
  8
0
100
AcDbBlockBegin
  2
*PAPER_SPACE
 70
     0
 10
0.0
 20
0.0
 30
0.0
  3
*PAPER_SPACE
  1

  0
ENDBLK
  5
9
330
7
100
AcDbEntity
 67
     1
  8
0
100
AcDbBlockEnd
  0
BLOCK
  5
10C
330
109
100
AcDbEntity
  8
0
100
AcDbBlockBegin
  2
_Dot
 70
     0
 10
0.0
 20
0.0
 30
0.0
  3
_Dot
  1

  0
LWPOLYLINE
  5
10A
330
109
100
AcDbEntity
  8
0
  6
ByBlock
 62
     0
100
AcDbPolyline
 90
        2
 70
     1
 43
0.5
 10
-0.25
 20
0.0
 42
1.0
 10
0.25
 20
0.0
 42
1.0
  0
LINE
  5
10B
330
109
100
AcDbEntity
  8
0
  6
ByBlock
 62
     0
370
    -2
100
AcDbLine
 10
-0.5
 20
0.0
 30
0.0
 11
-1.0
 21
0.0
 31
0.0
  0
ENDBLK
  5
10D
330
109
100
AcDbEntity
  8
0
100
AcDbBlockEnd
  0
BLOCK
  5
4859
330
484F
100
AcDbEntity
  8
0
100
AcDbBlockBegin
  2
*D1
 70
     1
 10
0.0
 20
0.0
 30
0.0
  3
*D1
  1

  0
LINE
  5
4DEF
330
484F
100
AcDbEntity
  8
SUNPOU
 62
    70
370
    -2
100
AcDbLine
 10
-352.2015831530314
 20
94.02296882094068
 30
0.0
 11
-352.2015831530314
 21
274.6937398913569
 31
0.0
  0
LINE
  5
4DF0
330
484F
100
AcDbEntity
  8
SUNPOU
 62
    70
370
    -2
100
AcDbLine
 10
517.7984168469686
 20
94.02296882094068
 30
0.0
 11
517.7984168469686
 21
274.6937398913569
 31
0.0
  0
LINE
  5
4DF1
330
484F
100
AcDbEntity
  8
SUNPOU
 62
    60
370
    -2
100
AcDbLine
 10
-350.2015831530314
 20
274.6937398913569
 30
0.0
 11
515.7984168469686
 21
274.6937398913569
 31
0.0
  0
INSERT
  5
4DF2
330
484F
100
AcDbEntity
  8
SUNPOU
 62
    60
370
    -2
100
AcDbBlockReference
  2
_Dot
 10
-352.2015831530314
 20
274.6937398913569
 30
0.0
 41
2.0
 42
2.0
 43
2.0
 50
180.0
  0
INSERT
  5
4DF3
330
484F
100
AcDbEntity
  8
SUNPOU
 62
    60
370
    -2
100
AcDbBlockReference
  2
_Dot
 10
517.7984168469686
 20
274.6937398913569
 30
0.0
 41
2.0
 42
2.0
 43
2.0
  0
MTEXT
  5
4DF4
330
484F
100
AcDbEntity
  8
SUNPOU
 62
    60
100
AcDbMText
 10
82.79841684696862
 20
280.1937398913569
 30
0.0
 40
7.0
 41
0.0
 71
     5
 72
     1
  1
\A1;870
  7
SUNPOU
 73
     1
 44
1.0
1001
ACAD
1000
MTEXTBEGIN
1070
    73
1070
     1
1070
    44
1040
1.0
1070
    74
1070
     0
1000
MTEXTEND
  0
POINT
  5
4DF5
330
484F
100
AcDbEntity
  8
DEFPOINTS
 62
     0
100
AcDbPoint
 10
-352.2015831530314
 20
89.02296882094068
 30
0.0
  0
POINT
  5
4DF6
330
484F
100
AcDbEntity
  8
DEFPOINTS
 62
     0
100
AcDbPoint
 10
517.7984168469686
 20
89.02296882094068
 30
0.0
  0
POINT
  5
4DF7
330
484F
100
AcDbEntity
  8
DEFPOINTS
 62
     0
100
AcDbPoint
 10
517.7984168469686
 20
274.6937398913569
 30
0.0
  0
ENDBLK
  5
485A
330
484F
100
AcDbEntity
  8
0
100
AcDbBlockEnd
  0
BLOCK
  5
4865
330
485B
100
AcDbEntity
  8
0
100
AcDbBlockBegin
  2
*D2
 70
     1
 10
0.0
 20
0.0
 30
0.0
  3
*D2
  1

  0
LINE
  5
4E0A
330
485B
100
AcDbEntity
  8
SUNPOU
 62
    70
370
    -2
100
AcDbLine
 10
77.79841684696828
 20
234.8807048369067
 30
0.0
 11
-387.6802136030937
 21
234.8807048369068
 31
0.0
  0
LINE
  5
4E0B
330
485B
100
AcDbEntity
  8
SUNPOU
 62
    70
370
    -2
100
AcDbLine
 10
-122.2713185423132
 20
46.88070483690672
 30
0.0
 11
-387.6802136030938
 21
46.88070483690679
 31
0.0
  0
LINE
  5
4E0C
330
485B
100
AcDbEntity
  8
SUNPOU
 62
    60
370
    -2
100
AcDbLine
 10
-387.6802136030937
 20
232.8807048369068
 30
0.0
 11
-387.6802136030938
 21
48.88070483690679
 31
0.0
  0
INSERT
  5
4E0D
330
485B
100
AcDbEntity
  8
SUNPOU
 62
    60
370
    -2
100
AcDbBlockReference
  2
_Dot
 10
-387.6802136030937
 20
234.8807048369068
 30
0.0
 41
2.0
 42
2.0
 43
2.0
 50
90.0
  0
INSERT
  5
4E0E
330
485B
100
AcDbEntity
  8
SUNPOU
 62
    60
370
    -2
100
AcDbBlockReference
  2
_Dot
 10
-387.6802136030938
 20
46.88070483690679
 30
0.0
 41
2.0
 42
2.0
 43
2.0
 50
270.0
  0
MTEXT
  5
4E0F
330
485B
100
AcDbEntity
  8
SUNPOU
 62
    60
100
AcDbMText
 10
-393.1802136030938
 20
140.8807048369067
 30
0.0
 40
7.0
 41
0.0
 71
     5
 72
     1
  1
\A1;188
  7
SUNPOU
 11
0.0000000000000001
 21
1.0
 31
0.0
 73
     1
 44
1.0
1001
ACAD
1000
MTEXTBEGIN
1070
    73
1070
     1
1070
    44
1040
1.0
1070
    74
1070
     0
1000
MTEXTEND
  0
POINT
  5
4E10
330
485B
100
AcDbEntity
  8
DEFPOINTS
 62
     0
100
AcDbPoint
 10
82.79841684696828
 20
234.8807048369067
 30
0.0
  0
POINT
  5
4E11
330
485B
100
AcDbEntity
  8
DEFPOINTS
 62
     0
100
AcDbPoint
 10
-117.2713185423132
 20
46.88070483690672
 30
0.0
  0
POINT
  5
4E12
330
485B
100
AcDbEntity
  8
DEFPOINTS
 62
     0
100
AcDbPoint
 10
-387.6802136030938
 20
46.88070483690679
 30
0.0
  0
ENDBLK
  5
4866
330
485B
100
AcDbEntity
  8
0
100
AcDbBlockEnd
  0
ENDSEC
  0
SECTION
  2
ENTITIES
  0
LINE
  5
1F
330
2
100
AcDbEntity
  8
WAKU
100
AcDbLine
 10
0.0
 20
14.0
 30
0.0
 11
147.8933597240585
 21
13.99999999999999
 31
0.0
  0
LINE
  5
20
330
2
100
AcDbEntity
  8
WAKU
100
AcDbLine
 10
0.0
 20
0.0
 30
0.0
 11
147.8933597240585
 21
0.0
 31
0.0
  0
TEXT
  5
21
330
2
100
AcDbEntity
  8
HOJO
100
AcDbText
 10
9.653966000000025
 20
2.366626000000024
 30
0.0
 40
9.0
  1
TC465A
  7
SUNPOU
100
AcDbText
  0
TEXT
  5
23
330
2
100
AcDbEntity
  8
HOJO
100
AcDbText
 10
85.84696046283864
 20
5.044386000000031
 30
0.0
 40
6.0
  1
870×188×20
  7
SUNPOU
100
AcDbText
  0
DIMENSION
  5
4714
330
2
100
AcDbEntity
  8
SUNPOU
100
AcDbDimension
  2
*D1
 10
517.7984168469686
 20
274.6937398913569
 30
0.0
 11
82.79841684696862
 21
280.1937398913569
 31
0.0
 70
    32
 71
     5
 42
870.0
  3
STANDARD
100
AcDbAlignedDimension
 13
-352.2015831530314
 23
89.02296882094068
 33
0.0
 14
517.7984168469686
 24
89.02296882094068
 34
0.0
100
AcDbRotatedDimension
1001
ACAD
1000
DSTYLE
1002
{
1070
    41
1040
2.0
1070
    42
1040
5.0
1070
    44
1040
0.0
1070
    73
1070
     0
1070
    74
1070
     0
1070
    77
1070
     1
1070
    78
1070
     8
1070
   140
1040
7.0
1070
   141
1040
0.0
1070
   146
1040
0.064286
1070
   147
1040
2.0
1070
   176
1070
    60
1070
   177
1070
    70
1070
   178
1070
    60
1070
   271
1070
     6
1070
   272
1070
     0
1070
   340
1005
1C
1070
   342
1005
109
1002
}
  0
DIMENSION
  5
4715
330
2
100
AcDbEntity
  8
SUNPOU
100
AcDbDimension
  2
*D2
 10
-387.6802136030938
 20
46.88070483690679
 30
0.0
 11
-393.1802136030938
 21
140.8807048369067
 31
0.0
 70
    32
 71
     5
 42
188.0
  3
STANDARD
100
AcDbAlignedDimension
 13
82.79841684696828
 23
234.8807048369067
 33
0.0
 14
-117.2713185423132
 24
46.88070483690672
 34
0.0
 50
90.0
100
AcDbRotatedDimension
1001
ACAD
1000
DSTYLE
1002
{
1070
    41
1040
2.0
1070
    42
1040
5.0
1070
    44
1040
0.0
1070
    73
1070
     0
1070
    74
1070
     0
1070
    77
1070
     1
1070
    78
1070
     8
1070
   140
1040
7.0
1070
   141
1040
0.0
1070
   146
1040
0.064286
1070
   147
1040
2.0
1070
   176
1070
    60
1070
   177
1070
    70
1070
   178
1070
    60
1070
   271
1070
     6
1070
   272
1070
     0
1070
   340
1005
1C
1070
   342
1005
109
1002
}
  0
ARC
  5
4716
330
2
100
AcDbEntity
  8
KIJUN
100
AcDbCircle
 10
82.79841684696828
 20
202.556063508758
 30
0.0
 40
32.32464132814865
100
AcDbArc
 50
30.21646329254332
 51
149.7835367074569
  0
ARC
  5
4717
330
2
100
AcDbEntity
  8
KIJUN
100
AcDbCircle
 10
27.54094333027899
 20
188.724632773358
 30
0.0
 40
29.15283026228235
100
AcDbArc
 50
62.82258429962798
 51
189.5841474087337
  0
ARC
  5
4718
330
2
100
AcDbEntity
  8
KIJUN
100
AcDbCircle
 10
45.53328623692585
 20
224.5708669510813
 30
0.0
 40
10.95994548063073
100
AcDbArc
 50
244.7401968917203
 51
328.375566393003
  0
ARC
  5
4719
330
2
100
AcDbEntity
  8
KIJUN
100
AcDbCircle
 10
-333.3971008298568
 20
89.02296882094068
 30
0.0
 40
18.80448232317459
100
AcDbArc
 50
151.0862252530962
 51
215.7813198692081
  0
ARC
  5
471A
330
2
100
AcDbEntity
  8
KIJUN
100
AcDbCircle
 10
-308.5327541482041
 20
104.4453792516757
 30
0.0
 40
48.03593971759319
100
AcDbArc
 50
213.3634379736815
 51
250.0924755633969
  0
ARC
  5
471B
330
2
100
AcDbEntity
  8
KIJUN
100
AcDbCircle
 10
-289.5903426539967
 20
157.8484289375936
 30
0.0
 40
104.6984201721087
100
AcDbArc
 50
250.2968299724817
 51
268.9441065219962
  0
ARC
  5
471C
330
2
100
AcDbEntity
  8
KIJUN
100
AcDbCircle
 10
-285.0511187510706
 20
51.20815867475092
 30
0.0
 40
6.758898371268887
100
AcDbArc
 50
163.1460479156735
 51
212.5520722474449
  0
ARC
  5
471D
330
2
100
AcDbEntity
  8
KIJUN
100
AcDbCircle
 10
-279.3579589120319
 20
141.1408682573564
 30
0.0
 40
94.26016342044963
100
AcDbArc
 50
263.0595043842705
 51
290.3879408976646
  0
ARC
  5
471F
330
2
100
AcDbEntity
  8
KIJUN
100
AcDbCircle
 10
-194.9203830081228
 20
53.42355648016372
 30
0.0
 40
10.93431852954635
100
AcDbArc
 50
154.5817151576172
 51
169.6295195631595
  0
ARC
  5
4720
330
2
100
AcDbEntity
  8
KIJUN
100
AcDbCircle
 10
-196.7558469004071
 20
54.43478137340886
 30
0.0
 40
8.971433353029542
100
AcDbArc
 50
173.875935105481
 51
219.8830577540986
  0
ARC
  5
4721
330
2
100
AcDbEntity
  8
KIJUN
100
AcDbCircle
 10
-202.5657334523887
 20
56.77795989788339
 30
0.0
 40
8.166844362307926
100
AcDbArc
 50
262.4405648086944
 51
315.9160487263784
  0
ARC
  5
4722
330
2
100
AcDbEntity
  8
KIJUN
100
AcDbCircle
 10
22.8193250770081
 20
-166.289223724902
 30
0.0
 40
308.941503354209
100
AcDbArc
 50
129.5158169574601
 51
135.2797499224622
  0
ARC
  5
4723
330
2
100
AcDbEntity
  8
KIJUN
100
AcDbCircle
 10
-121.2642009225277
 20
121.1377473390533
 30
0.0
 40
71.87347941818372
100
AcDbArc
 50
223.0837414707043
 51
262.484431439494
  0
ARC
  5
4724
330
2
100
AcDbEntity
  8
KIJUN
100
AcDbCircle
 10
-117.2713185423132
 20
144.8689191892112
 30
0.0
 40
97.98821435230451
100
AcDbArc
 50
263.7174892424567
 51
284.8623368601863
  0
ARC
  5
4725
330
2
100
AcDbEntity
  8
KIJUN
100
AcDbCircle
 10
-127.1718864846888
 20
51.06404028616937
 30
0.0
 40
3.687722533514965
100
AcDbArc
 50
198.7000208931574
 51
257.1145599961173
  0
ARC
  5
4726
330
2
100
AcDbEntity
  8
KIJUN
100
AcDbCircle
 10
-79.16064317142332
 20
74.20475204887513
 30
0.0
 40
27.32404721196834
100
AcDbArc
 50
241.6453644313487
 51
299.2067510123076
  0
ARC
  5
4727
330
2
100
AcDbEntity
  8
KIJUN
100
AcDbCircle
 10
-108.8682487378729
 20
132.63533212577
 30
0.0
 40
92.85811168682393
100
AcDbArc
 50
297.6138711791322
 51
314.2092033725911
  0
ARC
  5
4728
330
2
100
AcDbEntity
  8
KIJUN
100
AcDbCircle
 10
9.18308268645444
 20
130.4910325817767
 30
0.0
 40
83.61032774486989
100
AcDbArc
 50
230.3929066053808
 51
295.482633894129
  0
ARC
  5
472A
330
2
100
AcDbEntity
  8
KIJUN
100
AcDbCircle
 10
57.04629310319183
 20
60.99309713734911
 30
0.0
 40
13.30921899460391
100
AcDbArc
 50
206.6919893490375
 51
330.6819661210746
  0
ARC
  5
472B
330
2
100
AcDbEntity
  8
KIJUN
100
AcDbCircle
 10
82.79841684696805
 20
55.97990801413023
 30
0.0
 40
9.099203177223431
100
AcDbArc
 50
200.0920453967774
 51
339.9079546032251
  0
ARC
  5
472C
330
2
100
AcDbEntity
  8
KIJUN
100
AcDbCircle
 10
-324.9637680335773
 20
90.09634917344857
 30
0.0
 40
8.758115917197276
100
AcDbArc
 50
151.7578270788309
 51
266.4874354757066
  0
ARC
  5
472D
330
2
100
AcDbEntity
  8
KIJUN
100
AcDbCircle
 10
-341.821931309267
 20
93.72343066358331
 30
0.0
 40
9.157274173323504
100
AcDbArc
 50
3.238103274493428
 51
151.3439843365941
  0
ARC
  5
472E
330
2
100
AcDbEntity
  8
KIJUN
100
AcDbCircle
 10
-294.5895269248723
 20
7.776669233542515
 30
0.0
 40
76.20052301515875
100
AcDbArc
 50
87.76105563809522
 51
101.6125447433522
  0
ARC
  5
472F
330
2
100
AcDbEntity
  8
KIJUN
100
AcDbCircle
 10
-321.7661116760425
 20
141.2560842497468
 30
0.0
 40
60.0176810871175
100
AcDbArc
 50
266.4328065248234
 51
281.3757168498597
  0
ARC
  5
4730
330
2
100
AcDbEntity
  8
KIJUN
100
AcDbCircle
 10
-208.7119857445747
 20
129.5192325449999
 30
0.0
 40
20.85921846136325
100
AcDbArc
 50
218.5532974747994
 51
258.9350003965929
  0
ARC
  5
4731
330
2
100
AcDbEntity
  8
KIJUN
100
AcDbCircle
 10
-222.1190896332415
 20
136.3202489407439
 30
0.0
 40
14.98054419886495
100
AcDbArc
 50
268.5745595650787
 51
300.0191963385991
  0
ARC
  5
4732
330
2
100
AcDbEntity
  8
KIJUN
100
AcDbCircle
 10
-222.5891057189248
 20
118.318029075869
 30
0.0
 40
3.027877162062992
100
AcDbArc
 50
88.15737934646598
 51
216.4551643216429
  0
ARC
  5
4733
330
2
100
AcDbEntity
  8
KIJUN
100
AcDbCircle
 10
-191.726201322709
 20
78.02637198780191
 30
0.0
 40
50.77885374907214
100
AcDbArc
 50
99.52096943363089
 51
116.8040772417602
  0
ARC
  5
4734
330
2
100
AcDbEntity
  8
KIJUN
100
AcDbCircle
 10
-197.9726946676214
 20
130.3558229556333
 30
0.0
 40
3.114033369808803
100
AcDbArc
 50
83.22951384496054
 51
226.2660683913793
  0
ARC
  5
4735
330
2
100
AcDbEntity
  8
KIJUN
100
AcDbCircle
 10
-193.234699195918
 20
196.7219128037056
 30
0.0
 40
63.42456024536598
100
AcDbArc
 50
266.0483556101653
 51
281.4646955637688
  0
ARC
  5
4736
330
2
100
AcDbEntity
  8
KIJUN
100
AcDbCircle
 10
-160.3228615814157
 20
18.48996850344238
 30
0.0
 40
117.8355512829665
100
AcDbArc
 50
88.67458199609616
 51
99.92268221084604
  0
ARC
  5
4737
330
2
100
AcDbEntity
  8
KIJUN
100
AcDbCircle
 10
-159.4339228248968
 20
146.4056674526496
 30
0.0
 40
3.719228785095585
100
AcDbArc
 50
64.79418354252207
 51
204.1354407211966
  0
ARC
  5
4738
330
2
100
AcDbEntity
  8
KIJUN
100
AcDbCircle
 10
-133.4955702244747
 20
163.0060300807056
 30
0.0
 40
34.5403804512876
100
AcDbArc
 50
234.7147776971158
 51
278.4329747333647
  0
ARC
  5
4739
330
2
100
AcDbEntity
  8
KIJUN
100
AcDbCircle
 10
-152.8934216381565
 20
159.1580178846876
 30
0.0
 40
10.61547368766753
100
AcDbArc
 50
242.1653747035221
 51
287.6335916458311
  0
ARC
  5
473A
330
2
100
AcDbEntity
  8
KIJUN
100
AcDbCircle
 10
-129.2994849608468
 20
91.95258803451393
 30
0.0
 40
60.61679491293275
100
AcDbArc
 50
82.05297348248794
 51
109.6443604307506
  0
ARC
  5
473B
330
2
100
AcDbEntity
  8
KIJUN
100
AcDbCircle
 10
-151.0944984149376
 20
150.2672480776944
 30
0.0
 40
30.22471784827249
100
AcDbArc
 50
3.262279122965707
 51
16.09981883660253
  0
ARC
  5
473C
330
2
100
AcDbEntity
  8
KIJUN
100
AcDbCircle
 10
-109.02929380564
 20
136.7611992469674
 30
0.0
 40
24.66999351956252
100
AcDbArc
 50
51.97382549720539
 51
94.60445180291708
  0
ARC
  5
473D
330
2
100
AcDbEntity
  8
KIJUN
100
AcDbCircle
 10
-118.8701323148588
 20
159.7894295016334
 30
0.0
 40
3.383103446710632
100
AcDbArc
 50
63.28475040804754
 51
199.7015823205837
  0
ARC
  5
473E
330
2
100
AcDbEntity
  8
KIJUN
100
AcDbCircle
 10
-89.94505874657102
 20
157.0836774347741
 30
0.0
 40
3.987401931884246
100
AcDbArc
 50
61.41041166270858
 51
192.8854155336367
  0
ARC
  5
473F
330
2
100
AcDbEntity
  8
KIJUN
100
AcDbCircle
 10
-117.8560931126012
 20
111.3565039336317
 30
0.0
 40
57.55532401980268
100
AcDbArc
 50
31.58465594843823
 51
58.79543465514277
  0
ARC
  5
4740
330
2
100
AcDbEntity
  8
KIJUN
100
AcDbCircle
 10
-23.23873185485752
 20
138.2789233858999
 30
0.0
 40
45.70162960129798
100
AcDbArc
 50
149.3316243746388
 51
175.9564581084672
  0
ARC
  5
4741
330
2
100
AcDbEntity
  8
KIJUN
100
AcDbCircle
 10
-60.56352204995983
 20
160.5260750060919
 30
0.0
 40
2.251850187846801
100
AcDbArc
 50
44.72269218391903
 51
151.8090978373917
  0
ARC
  5
4742
330
2
100
AcDbEntity
  8
KIJUN
100
AcDbCircle
 10
-22.78891659974192
 20
136.8689688660911
 30
0.0
 40
37.25540443941265
100
AcDbArc
 50
99.71143806380769
 51
149.5721379170868
  0
ARC
  5
4743
330
2
100
AcDbEntity
  8
KIJUN
100
AcDbCircle
 10
-30.05137940620898
 20
185.6230917598481
 30
0.0
 40
12.07227480257306
100
AcDbArc
 50
274.6467035462487
 51
327.3045905649642
  0
ARC
  5
4744
330
2
100
AcDbEntity
  8
KIJUN
100
AcDbCircle
 10
-15.94340489860929
 20
177.3865759154304
 30
0.0
 40
4.30502851883765
100
AcDbArc
 50
44.38438279832499
 51
156.5177901841408
  0
ARC
  5
4745
330
2
100
AcDbEntity
  8
KIJUN
100
AcDbCircle
 10
-25.09968863829977
 20
169.159187340696
 30
0.0
 40
16.61177802988722
100
AcDbArc
 50
4.938867574279433
 51
42.57426859616335
  0
ARC
  5
4746
330
2
100
AcDbEntity
  8
KIJUN
100
AcDbCircle
 10
-37.21609323487076
 20
207.21928852329
 30
0.0
 40
46.51367027490456
100
AcDbArc
 50
308.0466450196825
 51
316.5257244311931
  0
ARC
  5
4747
330
2
100
AcDbEntity
  8
KIJUN
100
AcDbCircle
 10
13.30789594144062
 20
97.51702972238428
 30
0.0
 40
15.44506900765974
100
AcDbArc
 50
305.2725278361587
 51
71.24545231825742
  0
ARC
  5
4749
330
2
100
AcDbEntity
  8
KIJUN
100
AcDbCircle
 10
11.5021505318025
 20
105.3461147222239
 30
0.0
 40
23.08157901174691
100
AcDbArc
 50
185.0929866663186
 51
297.6872803247407
  0
ARC
  5
474A
330
2
100
AcDbEntity
  8
KIJUN
100
AcDbCircle
 10
28.93783522620083
 20
97.02804641355886
 30
0.0
 40
18.49746579493028
100
AcDbArc
 50
27.50449125336979
 51
125.2060147307256
  0
ARC
  5
474B
330
2
100
AcDbEntity
  8
KIJUN
100
AcDbCircle
 10
20.26234924478286
 20
93.69946533714466
 30
0.0
 40
27.74962986900672
100
AcDbArc
 50
301.683445602067
 51
25.32746309515938
  0
ARC
  5
474C
330
2
100
AcDbEntity
  8
KIJUN
100
AcDbCircle
 10
25.63057420548251
 20
129.0853216956326
 30
0.0
 40
67.61876545759607
100
AcDbArc
 50
220.1333960719844
 51
249.5197308027495
  0
ARC
  5
474D
330
2
100
AcDbEntity
  8
KIJUN
100
AcDbCircle
 10
-1880.042508262963
 20
1619.110748656019
 30
0.0
 40
2406.072695965348
100
AcDbArc
 50
320.4024119790115
 51
320.9502502655846
  0
ARC
  5
474E
330
2
100
AcDbEntity
  8
KIJUN
100
AcDbCircle
 10
-216.5798851237191
 20
311.3406565899432
 30
0.0
 40
277.2196117823478
100
AcDbArc
 50
310.9559400917214
 51
318.471093489434
  0
ARC
  5
474F
330
2
100
AcDbEntity
  8
KIJUN
100
AcDbCircle
 10
16.89495002559579
 20
159.2158399448281
 30
0.0
 40
40.93980786007182
100
AcDbArc
 50
209.0576814472279
 51
230.6786000885383
  0
ARC
  5
4750
330
2
100
AcDbEntity
  8
KIJUN
100
AcDbCircle
 10
-23.92513755577488
 20
127.6204520518336
 30
0.0
 40
12.74714798094584
100
AcDbArc
 50
66.7428269374103
 51
156.3693758461282
  0
ARC
  5
4751
330
2
100
AcDbEntity
  8
KIJUN
100
AcDbCircle
 10
-0.6570576524007948
 20
118.1818414577403
 30
0.0
 40
37.85362882540715
100
AcDbArc
 50
157.3980503865524
 51
205.3405760793459
  0
ARC
  5
4752
330
2
100
AcDbEntity
  8
KIJUN
100
AcDbCircle
 10
-81.60154368220753
 20
85.74827518566873
 30
0.0
 40
11.69364116639024
100
AcDbArc
 50
132.1615395199949
 51
158.8815854584389
  0
ARC
  5
4753
330
2
100
AcDbEntity
  8
KIJUN
100
AcDbCircle
 10
-93.46777486303722
 20
20.49197510061295
 30
0.0
 40
64.90222701307427
100
AcDbArc
 50
64.34001124493763
 51
86.19843374660353
  0
ARC
  5
4754
330
2
100
AcDbEntity
  8
KIJUN
100
AcDbCircle
 10
-114.3308987904299
 20
31.02621829196825
 30
0.0
 40
68.09791432818052
100
AcDbArc
 50
68.57020790544628
 51
125.2838013439354
  0
ARC
  5
4755
330
2
100
AcDbEntity
  8
KIJUN
100
AcDbCircle
 10
-144.4769984968432
 20
84.71141524452077
 30
0.0
 40
9.384105089278587
100
AcDbArc
 50
168.2986500415307
 51
231.6809458055071
  0
ARC
  5
4757
330
2
100
AcDbEntity
  8
KIJUN
100
AcDbCircle
 10
-108.3053931827652
 20
130.0115039149309
 30
0.0
 40
67.35367678050988
100
AcDbArc
 50
231.4331464499686
 51
256.2987668520789
  0
ARC
  5
4758
330
2
100
AcDbEntity
  8
KIJUN
100
AcDbCircle
 10
-100.7474253380099
 20
135.5386681870107
 30
0.0
 40
66.70381117800411
100
AcDbArc
 50
251.9397373847109
 51
302.0370883630637
  0
ARC
  5
4759
330
2
100
AcDbEntity
  8
KIJUN
100
AcDbCircle
 10
-120.2442664450179
 20
67.37278377149724
 30
0.0
 40
4.893522948879499
100
AcDbArc
 50
103.9834980048951
 51
214.8790591866265
  0
ARC
  5
475E
330
2
100
AcDbEntity
  8
KIJUN
100
AcDbCircle
 10
14.75543465220371
 20
148.5150935961606
 30
0.0
 40
24.38012233821504
100
AcDbArc
 50
121.3084444425641
 51
206.9666082615948
  0
ARC
  5
475F
330
2
100
AcDbEntity
  8
KIJUN
100
AcDbCircle
 10
24.8509301885083
 20
94.66111943078571
 30
0.0
 40
44.54336467159972
100
AcDbArc
 50
297.1187112877973
 51
39.63141417596767
  0
ARC
  5
4760
330
2
100
AcDbEntity
  8
KIJUN
100
AcDbCircle
 10
22.58377152890466
 20
87.62267482795756
 30
0.0
 40
50.93421212559492
100
AcDbArc
 50
44.10704505315057
 51
128.3906288554609
  0
ARC
  5
4761
330
2
100
AcDbEntity
  8
KIJUN
100
AcDbCircle
 10
59.41074965706798
 20
61.72796651451371
 30
0.0
 40
87.92831847574468
100
AcDbArc
 50
131.1167968505261
 51
148.7926457487234
  0
ARC
  5
4762
330
2
100
AcDbEntity
  8
KIJUN
100
AcDbCircle
 10
14.34135896468319
 20
102.6923717898384
 30
0.0
 40
10.23521204299191
100
AcDbArc
 50
67.40601235362628
 51
182.3634928966584
  0
ARC
  5
4763
330
2
100
AcDbEntity
  8
KIJUN
100
AcDbCircle
 10
14.76526056157479
 20
102.6370232421827
 30
0.0
 40
10.65671905699389
100
AcDbArc
 50
181.972173848494
 51
338.3930167103622
  0
ARC
  5
4764
330
2
100
AcDbEntity
  8
KIJUN
100
AcDbCircle
 10
-119.5620902481297
 20
236.8008867885669
 30
0.0
 40
129.2584401079069
100
AcDbArc
 50
320.4473194989207
 51
329.1867453374414
  0
ARC
  5
4765
330
2
100
AcDbEntity
  8
KIJUN
100
AcDbCircle
 10
-25.00412986102356
 20
146.5386987036487
 30
0.0
 40
9.449865479727828
100
AcDbArc
 50
310.3019117424582
 51
57.29860598907557
  0
ARC
  5
4766
330
2
100
AcDbEntity
  8
KIJUN
100
AcDbCircle
 10
-22.36636654227391
 20
134.7954708052799
 30
0.0
 40
19.84925055146247
100
AcDbArc
 50
82.85859984935129
 51
156.980235476462
  0
ARC
  5
4767
330
2
100
AcDbEntity
  8
KIJUN
100
AcDbCircle
 10
2.626111466728843
 20
119.2566260457117
 30
0.0
 40
49.13711469161729
100
AcDbArc
 50
151.6926623612945
 51
216.6483596258473
  0
ARC
  5
4768
330
2
100
AcDbEntity
  8
KIJUN
100
AcDbCircle
 10
-27.85913429447385
 20
101.447408037289
 30
0.0
 40
7.029511507167313
100
AcDbArc
 50
175.6502070960072
 51
208.3024743969074
  0
ARC
  5
4769
330
2
100
AcDbEntity
  8
KIJUN
100
AcDbCircle
 10
-2973.960625380363
 20
-1442.684327035926
 30
0.0
 40
3319.208566997555
100
AcDbArc
 50
27.48105802331611
 51
27.65889318481264
  0
ARC
  5
476A
330
2
100
AcDbEntity
  8
KIJUN
100
AcDbCircle
 10
-23.69223423327889
 20
90.91528347925947
 30
0.0
 40
5.912824995822522
100
AcDbArc
 50
199.0825960672418
 51
246.3191547406388
  0
ARC
  5
476B
330
2
100
AcDbEntity
  8
KIJUN
100
AcDbCircle
 10
-80.27451084915879
 20
144.0933476117806
 30
0.0
 40
27.90664421835383
100
AcDbArc
 50
24.66038996058114
 51
40.21274966821864
  0
ARC
  5
476C
330
2
100
AcDbEntity
  8
KIJUN
100
AcDbCircle
 10
-21.08975521670811
 20
180.516208867475
 30
0.0
 40
9.44026585277497
100
AcDbArc
 50
274.1696802401904
 51
341.4775961135732
  0
ARC
  5
476D
330
2
100
AcDbEntity
  8
KIJUN
100
AcDbCircle
 10
-19.89919098107543
 20
129.7631258387663
 30
0.0
 40
41.3408789344723
100
AcDbArc
 50
90.69874828105854
 51
135.3319382932789
  0
ARC
  5
476E
330
2
100
AcDbEntity
  8
KIJUN
100
AcDbCircle
 10
-163.0463452319611
 20
90.29902266534234
 30
0.0
 40
10.07790729468579
100
AcDbArc
 50
338.5559108016252
 51
112.4969802291333
  0
ARC
  5
476F
330
2
100
AcDbEntity
  8
KIJUN
100
AcDbCircle
 10
-158.6333617258068
 20
79.46657276966878
 30
0.0
 40
7.670455752241489
100
AcDbArc
 50
96.92297885271157
 51
214.4659005539086
  0
ARC
  5
4770
330
2
100
AcDbEntity
  8
KIJUN
100
AcDbCircle
 10
-107.7965090170764
 20
135.4657744446731
 30
0.0
 40
83.11608476013091
100
AcDbArc
 50
226.5498495531236
 51
278.442019402336
  0
ARC
  5
4771
330
2
100
AcDbEntity
  8
KIJUN
100
AcDbCircle
 10
-131.4805401487753
 20
63.10142803643786
 30
0.0
 40
13.24485671971921
100
AcDbArc
 50
273.5304520760449
 51
289.9991846253147
  0
ARC
  5
4772
330
2
100
AcDbEntity
  8
KIJUN
100
AcDbCircle
 10
-86.64154627966956
 20
57.07568723781713
 30
0.0
 40
6.193814283860309
100
AcDbArc
 50
22.16381520878316
 51
163.318186451557
  0
ARC
  5
4773
330
2
100
AcDbEntity
  8
KIJUN
100
AcDbCircle
 10
-80.77118656624202
 20
56.11496171089151
 30
0.0
 40
3.300109304978555
100
AcDbArc
 50
92.33080960025684
 51
268.8427789915642
  0
ARC
  5
4774
330
2
100
AcDbEntity
  8
KIJUN
100
AcDbCircle
 10
-87.49692822679833
 20
18.67273627386499
 30
0.0
 40
64.25340331579997
100
AcDbArc
 50
47.53888839272941
 51
69.85019549975324
  0
ARC
  5
4775
330
2
100
AcDbEntity
  8
KIJUN
100
AcDbCircle
 10
-88.28076686785278
 20
108.2428584141631
 30
0.0
 40
55.92482868843191
100
AcDbArc
 50
277.6480808392535
 51
315.9993178557245
  0
ARC
  5
4776
330
2
100
AcDbEntity
  8
KIJUN
100
AcDbCircle
 10
-87.77518022683716
 20
341.4412259749491
 30
0.0
 40
279.5895791868858
100
AcDbArc
 50
263.2129779946319
 51
268.7011591623169
  0
ARC
  5
4777
330
2
100
AcDbEntity
  8
KIJUN
100
AcDbCircle
 10
-95.07545847618962
 20
106.5322003221346
 30
0.0
 40
44.27911821683444
100
AcDbArc
 50
286.1812858867785
 51
315.7907130451598
  0
ARC
  5
4779
330
2
100
AcDbEntity
  8
KIJUN
100
AcDbCircle
 10
21.98766359290846
 20
104.5687654074232
 30
0.0
 40
22.51725009282775
100
AcDbArc
 50
144.5336738393184
 51
201.2362414108534
  0
ARC
  5
477A
330
2
100
AcDbEntity
  8
KIJUN
100
AcDbCircle
 10
12.50798113789585
 20
100.9419361209804
 30
0.0
 40
12.36771161102567
100
AcDbArc
 50
201.48236225786
 51
349.6164296934187
  0
ARC
  5
477B
330
2
100
AcDbEntity
  8
KIJUN
100
AcDbCircle
 10
28.99438319554315
 20
94.93084505420002
 30
0.0
 40
34.02715323444863
100
AcDbArc
 50
347.4871959436807
 51
138.1485359260533
  0
ARC
  5
477C
330
2
100
AcDbEntity
  8
KIJUN
100
AcDbCircle
 10
-148.024516462097
 20
127.2552085796452
 30
0.0
 40
227.3969033642932
100
AcDbArc
 50
359.5488533385508
 51
22.54244221708151
  0
ARC
  5
477D
330
2
100
AcDbEntity
  8
KIJUN
100
AcDbCircle
 10
-36.01770361185534
 20
122.3860163403149
 30
0.0
 40
112.0110886484952
100
AcDbArc
 50
359.5974655213322
 51
49.12607909170407
  0
ARC
  5
477E
330
2
100
AcDbEntity
  8
KIJUN
100
AcDbCircle
 10
-15.4214797772264
 20
92.48464961139671
 30
0.0
 40
95.43293887003745
100
AcDbArc
 50
25.05235706956822
 51
76.24319521292327
  0
ARC
  5
477F
330
2
100
AcDbEntity
  8
KIJUN
100
AcDbCircle
 10
-2.587315448636233
 20
85.67811095434548
 30
0.0
 40
83.79736533104008
100
AcDbArc
 50
29.92030351396422
 51
86.80270812816173
  0
ARC
  5
4780
330
2
100
AcDbEntity
  8
KIJUN
100
AcDbCircle
 10
20.1040297837039
 20
86.51113673009904
 30
0.0
 40
57.69695691582299
100
AcDbArc
 50
33.12303106444959
 51
117.9896640515412
  0
ARC
  5
4781
330
2
100
AcDbEntity
  8
KIJUN
100
AcDbCircle
 10
72.68282571200064
 20
57.91638512262032
 30
0.0
 40
5.300231011722083
100
AcDbArc
 50
220.4717779056126
 51
287.2319900641181
  0
ARC
  5
4782
330
2
100
AcDbEntity
  8
KIJUN
100
AcDbCircle
 10
50.32315374759332
 20
68.18842292323113
 30
0.0
 40
28.42144966505627
100
AcDbArc
 50
327.3480314646686
 51
8.435890721398759
  0
ARC
  5
4783
330
2
100
AcDbEntity
  8
KIJUN
100
AcDbCircle
 10
82.79841684696862
 20
72.52559561276647
 30
0.0
 40
4.364537404527697
100
AcDbArc
 50
357.798364311763
 51
182.201635688241
  0
ARC
  5
4784
330
2
100
AcDbEntity
  8
KIJUN
100
AcDbCircle
 10
-5.139359744509761
 20
131.2911930870091
 30
0.0
 40
55.45287145651069
100
AcDbArc
 50
153.8424558101955
 51
196.3235847529426
  0
ARC
  5
4785
330
2
100
AcDbEntity
  8
KIJUN
100
AcDbCircle
 10
20.30861081532066
 20
132.0744752057526
 30
0.0
 40
75.57595599181346
100
AcDbArc
 50
180.999750838692
 51
267.5253743117336
  0
ARC
  5
4786
330
2
100
AcDbEntity
  8
KIJUN
100
AcDbCircle
 10
19.88307453747905
 20
100.8443714111856
 30
0.0
 40
44.36621073963397
100
AcDbArc
 50
266.3329372176337
 51
342.5750056042494
  0
ARC
  5
4788
330
2
100
AcDbEntity
  8
KIJUN
100
AcDbCircle
 10
-20.57913400703933
 20
130.4947178284103
 30
0.0
 40
34.67768931698938
100
AcDbArc
 50
87.97205089670711
 51
179.5685906219653
  0
ARC
  5
478A
330
2
100
AcDbEntity
  8
KIJUN
100
AcDbCircle
 10
14.99945279794394
 20
94.0035989912244
 30
0.0
 40
60.10825545086335
100
AcDbArc
 50
325.3212809838132
 51
343.6618215031397
  0
ARC
  5
478B
330
2
100
AcDbEntity
  8
KIJUN
100
AcDbCircle
 10
-147.253938438757
 20
190.0198551109081
 30
0.0
 40
155.3268339304038
100
AcDbArc
 50
319.4218790296806
 51
327.8161247579833
  0
ARC
  5
478C
330
2
100
AcDbEntity
  8
KIJUN
100
AcDbCircle
 10
-105.2076251307561
 20
171.3508440659693
 30
0.0
 40
24.93569666346318
100
AcDbArc
 50
230.9450079189111
 51
263.8592533864373
  0
ARC
  5
478D
330
2
100
AcDbEntity
  8
KIJUN
100
AcDbCircle
 10
-108.2988523742497
 20
133.668342791014
 30
0.0
 40
12.89684854294898
100
AcDbArc
 50
21.67329525148959
 51
88.11676213829143
  0
ARC
  5
478E
330
2
100
AcDbEntity
  8
KIJUN
100
AcDbCircle
 10
-78.80317177548886
 20
199.3222872532793
 30
0.0
 40
63.358737225339
100
AcDbArc
 50
228.3394324275504
 51
253.9562103236784
  0
ARC
  5
478F
330
2
100
AcDbEntity
  8
KIJUN
100
AcDbCircle
 10
-71.04650466776297
 20
170.7525826215443
 30
0.0
 40
27.03922068485708
100
AcDbArc
 50
212.5752572281968
 51
235.0718440805315
  0
ARC
  5
4792
330
2
100
AcDbEntity
  8
KIJUN
100
AcDbCircle
 10
17.75966750405098
 20
140.7395838757283
 30
0.0
 40
86.58961886201051
100
AcDbArc
 50
179.4958033457852
 51
230.4007267053552
  0
ARC
  5
4794
330
2
100
AcDbEntity
  8
KIJUN
100
AcDbCircle
 10
-119.8071962903385
 20
88.07641835638795
 30
0.0
 40
41.66474722894123
100
AcDbArc
 50
101.9442736907842
 51
116.5843526383331
  0
ARC
  5
4795
330
2
100
AcDbEntity
  8
KIJUN
100
AcDbCircle
 10
-127.2612928855935
 20
134.7551787862334
 30
0.0
 40
14.62758924118751
100
AcDbArc
 50
220.0845413489882
 51
284.7881606090254
  0
ARC
  5
4796
330
2
100
AcDbEntity
  8
KIJUN
100
AcDbCircle
 10
-115.2859020372458
 20
92.20001633931758
 30
0.0
 40
29.58333525454801
100
AcDbArc
 50
67.46601612542052
 51
106.1763442833456
  0
ARC
  5
4797
330
2
100
AcDbEntity
  8
KIJUN
100
AcDbCircle
 10
-127.0220366278455
 20
62.61028915481091
 30
0.0
 40
58.10698818011846
100
AcDbArc
 50
67.88491025409294
 51
86.55232645214089
  0
ARC
  5
4798
330
2
100
AcDbEntity
  8
KIJUN
100
AcDbCircle
 10
-104.2282431650215
 20
117.8594027688115
 30
0.0
 40
1.688640793675516
100
AcDbArc
 50
237.0543296867447
 51
80.46916070035235
  0
ARC
  5
4799
330
2
100
AcDbEntity
  8
KIJUN
100
AcDbCircle
 10
-329.1102368596381
 20
92.85537231697047
 30
0.0
 40
16.54774453569563
100
AcDbArc
 50
166.953805969526
 51
266.9620120372229
  0
ARC
  5
479A
330
2
100
AcDbEntity
  8
KIJUN
100
AcDbCircle
 10
-326.3762438196753
 20
139.5134638595475
 30
0.0
 40
63.28568314216995
100
AcDbArc
 50
266.7290076237494
 51
284.8862205384673
  0
ARC
  5
479B
330
2
100
AcDbEntity
  8
KIJUN
100
AcDbCircle
 10
-125.4309167676729
 20
-75.70401154780085
 30
0.0
 40
193.6230291547683
100
AcDbArc
 50
93.52911522300297
 51
119.2429804526535
  0
ARC
  5
479D
330
2
100
AcDbEntity
  8
KIJUN
100
AcDbCircle
 10
-282.3227217537352
 20
36.30001072974439
 30
0.0
 40
19.21213989426505
100
AcDbArc
 50
108.3866483506745
 51
118.6009675609071
  0
ARC
  5
479E
330
2
100
AcDbEntity
  8
KIJUN
100
AcDbCircle
 10
-213.6595476382402
 20
140.1360086346866
 30
0.0
 40
31.10255890788031
100
AcDbArc
 50
271.7396476576896
 51
311.2381707900533
  0
ARC
  5
479F
330
2
100
AcDbEntity
  8
KIJUN
100
AcDbCircle
 10
-193.6368544900224
 20
141.2618324429268
 30
0.0
 40
14.66916462172087
100
AcDbArc
 50
243.7473941112266
 51
274.6586320668813
  0
ARC
  5
47A0
330
2
100
AcDbEntity
  8
KIJUN
100
AcDbCircle
 10
-214.7814644452735
 20
130.7202226675766
 30
0.0
 40
14.75655804788923
100
AcDbArc
 50
245.0679556017422
 51
292.1115552604213
  0
ARC
  5
47A1
330
2
100
AcDbEntity
  8
KIJUN
100
AcDbCircle
 10
-158.2997631661146
 20
-1.186017181972717
 30
0.0
 40
128.7365080346584
100
AcDbArc
 50
91.47782946015105
 51
113.3029182017146
  0
ARC
  5
47A2
330
2
100
AcDbEntity
  8
KIJUN
100
AcDbCircle
 10
-224.780967042776
 20
82.86391224308587
 30
0.0
 40
11.7012897121876
100
AcDbArc
 50
282.0745920885405
 51
357.0680805145579
  0
ARC
  5
47A3
330
2
100
AcDbEntity
  8
KIJUN
100
AcDbCircle
 10
-122.1897910378734
 20
-49.12731202828277
 30
0.0
 40
162.4709859608889
100
AcDbArc
 50
87.62283559117772
 51
120.1205485622986
  0
ARC
  5
47A5
330
2
100
AcDbEntity
  8
KIJUN
100
AcDbCircle
 10
-119.7069011162026
 20
79.92093129038436
 30
0.0
 40
49.68985676499592
100
AcDbArc
 50
60.96830806211594
 51
100.110885147586
  0
ARC
  5
47A6
330
2
100
AcDbEntity
  8
KIJUN
100
AcDbCircle
 10
-51.6274906356183
 20
229.8052786247944
 30
0.0
 40
130.0646691079317
100
AcDbArc
 50
220.3716358646777
 51
224.06397926545
  0
ARC
  5
47A7
330
2
100
AcDbEntity
  8
KIJUN
100
AcDbCircle
 10
-185.9982398473448
 20
-414.6065481285591
 30
0.0
 40
550.8489132960853
100
AcDbArc
 50
81.13605828019796
 51
84.28866419552955
  0
ARC
  5
47A8
330
2
100
AcDbEntity
  8
KIJUN
100
AcDbCircle
 10
-310.3535147818767
 20
255.8585784151242
 30
0.0
 40
186.022220482295
100
AcDbArc
 50
267.7236137390393
 51
299.0526994781064
  0
ARC
  5
47AC
330
2
100
AcDbEntity
  8
KIJUN
100
AcDbCircle
 10
-115.1096086281624
 20
20.27920981631361
 30
0.0
 40
85.70717518202735
100
AcDbArc
 50
63.17752501215195
 51
115.1099204969371
  0
ARC
  5
47AE
330
2
100
AcDbEntity
  8
KIJUN
100
AcDbCircle
 10
-298.8906598490351
 20
34.34996022755409
 30
0.0
 40
45.41163217339377
100
AcDbArc
 50
75.79068300744324
 51
104.3141144564663
  0
ARC
  5
47B1
330
2
100
AcDbEntity
  8
KIJUN
100
AcDbCircle
 10
-87.72067097940647
 20
69.0189394010799
 30
0.0
 40
25.45615728853275
100
AcDbArc
 50
76.89294609529794
 51
93.89663314527785
  0
ARC
  5
47B2
330
2
100
AcDbEntity
  8
KIJUN
100
AcDbCircle
 10
-92.45908292285184
 20
47.88298305213356
 30
0.0
 40
43.31604210356822
100
AcDbArc
 50
52.39824952636612
 51
82.91105534080614
  0
ARC
  5
47B3
330
2
100
AcDbEntity
  8
KIJUN
100
AcDbCircle
 10
82.79841684696839
 20
116.9648227194355
 30
0.0
 40
29.73775314888003
100
AcDbArc
 50
242.7909383298637
 51
297.2090616701363
  0
ARC
  5
4CCD
330
2
100
AcDbEntity
  8
KIJUN
100
AcDbCircle
 10
-284.5741500183066
 20
90.63225822327162
 30
0.0
 40
9.726631004885545
100
AcDbArc
 50
166.6320067014238
 51
223.6452691420359
  0
ARC
  5
4CCE
330
2
100
AcDbEntity
  8
KIJUN
100
AcDbCircle
 10
-292.184575641097
 20
88.32137759834671
 30
0.0
 40
4.921729390591587
100
AcDbArc
 50
70.01971146287414
 51
112.1124408169496
  0
ARC
  5
4CCF
330
2
100
AcDbEntity
  8
KIJUN
100
AcDbCircle
 10
-286.6350581719192
 20
106.6102019216391
 30
0.0
 40
14.20022420758903
100
AcDbArc
 50
254.1943912819481
 51
289.0913662885236
  0
ARC
  5
4CD0
330
2
100
AcDbEntity
  8
KIJUN
100
AcDbCircle
 10
-266.4625590612673
 20
47.06598750334712
 30
0.0
 40
48.66863003573598
100
AcDbArc
 50
89.43910104966514
 51
108.6057648788589
  0
ARC
  5
4CD1
330
2
100
AcDbEntity
  8
KIJUN
100
AcDbCircle
 10
-261.2546664727525
 20
98.77832215606446
 30
0.0
 40
5.627168465098951
100
AcDbArc
 50
160.039311314581
 51
212.772789553172
  0
ARC
  5
4CD3
330
2
100
AcDbEntity
  8
KIJUN
100
AcDbCircle
 10
-260.3543355404308
 20
80.30372842406489
 30
0.0
 40
21.31404901625893
100
AcDbArc
 50
83.14673727203123
 51
106.8815089357033
  0
ARC
  5
4CD4
330
2
100
AcDbEntity
  8
KIJUN
100
AcDbCircle
 10
-251.0177406950263
 20
176.6893907806242
 30
0.0
 40
75.53001872656854
100
AcDbArc
 50
264.8397809047854
 51
288.5123995553842
  0
ARC
  5
4CD5
330
2
100
AcDbEntity
  8
KIJUN
100
AcDbCircle
 10
-198.2776418323329
 20
29.34525174816297
 30
0.0
 40
80.99963532345716
100
AcDbArc
 50
100.2674930006935
 51
110.7962449222887
  0
ARC
  5
4CD6
330
2
100
AcDbEntity
  8
KIJUN
100
AcDbCircle
 10
-230.0164610653727
 20
85.94081080923913
 30
0.0
 40
39.0601059723324
100
AcDbArc
 50
253.9262797362567
 51
308.5466691170272
  0
ARC
  5
4CD7
330
2
100
AcDbEntity
  8
KIJUN
100
AcDbCircle
 10
-237.9415186560559
 20
58.04794036892324
 30
0.0
 40
10.06400543630796
100
AcDbArc
 50
211.5261149504551
 51
253.3138472651124
  0
ARC
  5
4CDA
330
2
100
AcDbEntity
  8
KIJUN
100
AcDbCircle
 10
-158.6320619917616
 20
82.91779306700346
 30
0.0
 40
18.62873857524392
100
AcDbArc
 50
116.3569079077274
 51
215.7143130374938
  0
ARC
  5
4CDB
330
2
100
AcDbEntity
  8
KIJUN
100
AcDbCircle
 10
-134.9135445198419
 20
155.9934535224097
 30
0.0
 40
30.0436042996963
100
AcDbArc
 50
201.7000717174265
 51
220.972419987169
  0
ARC
  5
4CDD
330
2
100
AcDbEntity
  8
KIJUN
100
AcDbCircle
 10
-130.6375177401905
 20
154.2726953260966
 30
0.0
 40
20.77187411225793
100
AcDbArc
 50
225.9218709407722
 51
268.5045316013169
  0
ARC
  5
4CDF
330
2
100
AcDbEntity
  8
KIJUN
100
AcDbCircle
 10
-78.42411770589206
 20
55.20667026274827
 30
0.0
 40
14.61297773203004
100
AcDbArc
 50
165.5478074446369
 51
200.2080408978107
  0
ARC
  5
4CE2
330
2
100
AcDbEntity
  8
KIJUN
100
AcDbCircle
 10
-112.187293108157
 20
170.7328822907706
 30
0.0
 40
9.454927048419497
100
AcDbArc
 50
236.9102136331379
 51
277.1545897423508
  0
ARC
  5
4CE4
330
2
100
AcDbEntity
  8
KIJUN
100
AcDbCircle
 10
-11.60365397403018
 20
181.9612280719825
 30
0.0
 40
10.57255840576217
100
AcDbArc
 50
320.3614228791441
 51
10.40566282078547
  0
ARC
  5
4CE6
330
2
100
AcDbEntity
  8
KIJUN
100
AcDbCircle
 10
-89.31850776440809
 20
88.68504943088446
 30
0.0
 40
3.437098505142666
100
AcDbArc
 50
158.2004041047348
 51
272.5651222488918
  0
ARC
  5
4CE8
330
2
100
AcDbEntity
  8
KIJUN
100
AcDbCircle
 10
13.67721875424695
 20
103.6698114971375
 30
0.0
 40
39.69440177718558
100
AcDbArc
 50
252.8491481549775
 51
302.2132159818755
  0
ARC
  5
4D18
330
2
100
AcDbEntity
  8
KIJUN
100
AcDbCircle
 10
36.1578448907286
 20
93.84567181224536
 30
0.0
 40
48.57452899272337
100
AcDbArc
 50
135.3699170170745
 51
168.7800457181598
  0
ARC
  5
4D19
330
2
100
AcDbEntity
  8
KIJUN
100
AcDbCircle
 10
51.80559204268513
 20
66.12602979137708
 30
0.0
 40
20.48123375498439
100
AcDbArc
 50
325.3328742836161
 51
344.9263988824025
  0
ARC
  5
4D1D
330
2
100
AcDbEntity
  8
KIJUN
100
AcDbCircle
 10
-92.72183545109555
 20
175.3802036641095
 30
0.0
 40
27.90050633731475
100
AcDbArc
 50
211.2854514694423
 51
250.554266341763
  0
ARC
  5
4D1E
330
2
100
AcDbEntity
  8
KIJUN
100
AcDbCircle
 10
-166.5697890547568
 20
12.95981120167362
 30
0.0
 40
138.8969771256227
100
AcDbArc
 50
46.62229890235457
 51
71.08391666983931
  0
ARC
  5
4D1F
330
2
100
AcDbEntity
  8
KIJUN
100
AcDbCircle
 10
-140.0671706032764
 20
13.33369948178688
 30
0.0
 40
111.9232651275681
100
AcDbArc
 50
42.02788554500539
 51
64.5777849629578
  0
ARC
  5
4D20
330
2
100
AcDbEntity
  8
KIJUN
100
AcDbCircle
 10
-258.3828976974219
 20
117.2529192402801
 30
0.0
 40
22.82425726960473
100
AcDbArc
 50
250.5417188810404
 51
291.4515836172782
  0
ARC
  5
4D21
330
2
100
AcDbEntity
  8
KIJUN
100
AcDbCircle
 10
-282.155662701647
 20
103.0111839083116
 30
0.0
 40
21.30597070601777
100
AcDbArc
 50
243.6493657789136
 51
296.2711594845167
  0
ARC
  5
4D23
330
2
100
AcDbEntity
  8
KIJUN
100
AcDbCircle
 10
-210.3867075575338
 20
39.00748988814589
 30
0.0
 40
34.54544224122898
100
AcDbArc
 50
110.2318968222896
 51
141.1112472580385
  0
ARC
  5
4D24
330
2
100
AcDbEntity
  8
KIJUN
100
AcDbCircle
 10
-263.5949917776128
 20
82.09822001810648
 30
0.0
 40
33.92317302581972
100
AcDbArc
 50
300.2212306865436
 51
320.8821033905788
  0
ARC
  5
4D25
330
2
100
AcDbEntity
  8
KIJUN
100
AcDbCircle
 10
-306.6046026414664
 20
213.2046599270323
 30
0.0
 40
160.901015763353
100
AcDbArc
 50
278.7845562709226
 51
305.5323360237729
  0
ARC
  5
4D26
330
2
100
AcDbEntity
  8
KIJUN
100
AcDbCircle
 10
-131.0346874167087
 20
16.21143567708741
 30
0.0
 40
84.53404094102113
100
AcDbArc
 50
128.8777134381117
 51
145.8439082383371
  0
ARC
  5
4D27
330
2
100
AcDbEntity
  8
KIJUN
100
AcDbCircle
 10
138.0558903636582
 20
188.724632773358
 30
0.0
 40
29.15283026228234
100
AcDbArc
 50
350.4158525912663
 51
117.1774157003653
  0
ARC
  5
4D28
330
2
100
AcDbEntity
  8
KIJUN
100
AcDbCircle
 10
177.2004876679674
 20
181.9612280719825
 30
0.0
 40
10.57255840576217
100
AcDbArc
 50
169.5943371792141
 51
219.6385771208565
  0
ARC
  5
4D29
330
2
100
AcDbEntity
  8
KIJUN
100
AcDbCircle
 10
120.0635474570114
 20
224.5708669510813
 30
0.0
 40
10.95994548063072
100
AcDbArc
 50
211.6244336069948
 51
295.25980310828
  0
ARC
  5
4D2A
330
2
100
AcDbEntity
  8
KIJUN
100
AcDbCircle
 10
498.993934523794
 20
89.02296882094068
 30
0.0
 40
18.80448232317458
100
AcDbArc
 50
324.2186801307909
 51
28.91377474690287
  0
ARC
  5
4D2B
330
2
100
AcDbEntity
  8
KIJUN
100
AcDbCircle
 10
474.1295878421412
 20
104.4453792516757
 30
0.0
 40
48.03593971759317
100
AcDbArc
 50
289.9075244366031
 51
326.6365620263132
  0
ARC
  5
4D2C
330
2
100
AcDbEntity
  8
KIJUN
100
AcDbCircle
 10
455.1871763479339
 20
157.8484289375936
 30
0.0
 40
104.6984201721087
100
AcDbArc
 50
271.0558934779973
 51
289.7031700275186
  0
ARC
  5
4D2D
330
2
100
AcDbEntity
  8
KIJUN
100
AcDbCircle
 10
450.6479524450078
 20
51.20815867475092
 30
0.0
 40
6.758898371268885
100
AcDbArc
 50
327.447927752553
 51
16.85395208432814
  0
ARC
  5
4D2E
330
2
100
AcDbEntity
  8
KIJUN
100
AcDbCircle
 10
444.954792605969
 20
141.1408682573564
 30
0.0
 40
94.26016342044961
100
AcDbArc
 50
249.6120591023287
 51
276.9404956157295
  0
ARC
  5
4D2F
330
2
100
AcDbEntity
  8
KIJUN
100
AcDbCircle
 10
360.5172167020601
 20
53.42355648016372
 30
0.0
 40
10.93431852954635
100
AcDbArc
 50
10.37048043684079
 51
25.41828484238215
  0
ARC
  5
4D30
330
2
100
AcDbEntity
  8
KIJUN
100
AcDbCircle
 10
362.3526805943443
 20
54.43478137340886
 30
0.0
 40
8.97143335302954
100
AcDbArc
 50
320.1169422459072
 51
6.124064894518882
  0
ARC
  5
4D31
330
2
100
AcDbEntity
  8
KIJUN
100
AcDbCircle
 10
368.1625671463257
 20
56.77795989788339
 30
0.0
 40
8.166844362307925
100
AcDbArc
 50
224.0839512736158
 51
277.5594351913122
  0
ARC
  5
4D32
330
2
100
AcDbEntity
  8
KIJUN
100
AcDbCircle
 10
142.7775086169291
 20
-166.289223724902
 30
0.0
 40
308.9415033542089
100
AcDbArc
 50
44.7202500775386
 51
50.48418304253995
  0
ARC
  5
4D33
330
2
100
AcDbEntity
  8
KIJUN
100
AcDbCircle
 10
286.8610346164648
 20
121.1377473390533
 30
0.0
 40
71.8734794181837
100
AcDbArc
 50
277.5155685605126
 51
316.9162585292892
  0
ARC
  5
4D34
330
2
100
AcDbEntity
  8
KIJUN
100
AcDbCircle
 10
282.8681522362503
 20
144.8689191892112
 30
0.0
 40
97.98821435230449
100
AcDbArc
 50
255.1376631398136
 51
276.2825107575433
  0
ARC
  5
4D35
330
2
100
AcDbEntity
  8
KIJUN
100
AcDbCircle
 10
292.7687201786259
 20
51.06404028616937
 30
0.0
 40
3.687722533514964
100
AcDbArc
 50
282.8854400038827
 51
341.2999791068427
  0
ARC
  5
4D36
330
2
100
AcDbEntity
  8
KIJUN
100
AcDbCircle
 10
244.7574768653603
 20
74.20475204887513
 30
0.0
 40
27.32404721196833
100
AcDbArc
 50
240.7932489876928
 51
298.3546355686446
  0
ARC
  5
4D37
330
2
100
AcDbEntity
  8
KIJUN
100
AcDbCircle
 10
274.46508243181
 20
132.63533212577
 30
0.0
 40
92.85811168682391
100
AcDbArc
 50
225.7907966274027
 51
242.3861288208612
  0
ARC
  5
4D38
330
2
100
AcDbEntity
  8
KIJUN
100
AcDbCircle
 10
156.4137510074828
 20
130.4910325817767
 30
0.0
 40
83.61032774486988
100
AcDbArc
 50
244.5173661058643
 51
309.607093394626
  0
ARC
  5
4D39
330
2
100
AcDbEntity
  8
KIJUN
100
AcDbCircle
 10
108.5505405907454
 20
60.99309713734911
 30
0.0
 40
13.30921899460391
100
AcDbArc
 50
209.3180338789254
 51
333.3080106509624
  0
ARC
  5
4D3A
330
2
100
AcDbEntity
  8
KIJUN
100
AcDbCircle
 10
490.5606017275145
 20
90.09634917344857
 30
0.0
 40
8.758115917197274
100
AcDbArc
 50
273.5125645242934
 51
28.24217292116816
  0
ARC
  5
4D3B
330
2
100
AcDbEntity
  8
KIJUN
100
AcDbCircle
 10
507.418765003204
 20
93.72343066358331
 30
0.0
 40
9.157274173323502
100
AcDbArc
 50
28.65601566340538
 51
176.7618967255066
  0
ARC
  5
4D3C
330
2
100
AcDbEntity
  8
KIJUN
100
AcDbCircle
 10
460.1863606188094
 20
7.776669233542515
 30
0.0
 40
76.20052301515873
100
AcDbArc
 50
78.38745525664769
 51
92.23894436189825
  0
ARC
  5
4D3D
330
2
100
AcDbEntity
  8
KIJUN
100
AcDbCircle
 10
487.3629453699796
 20
141.2560842497468
 30
0.0
 40
60.01768108711748
100
AcDbArc
 50
258.6242831501402
 51
273.5671934751766
  0
ARC
  5
4D3E
330
2
100
AcDbEntity
  8
KIJUN
100
AcDbCircle
 10
374.3088194385118
 20
129.5192325449999
 30
0.0
 40
20.85921846136324
100
AcDbArc
 50
281.0649996034072
 51
321.4467025252028
  0
ARC
  5
4D3F
330
2
100
AcDbEntity
  8
KIJUN
100
AcDbCircle
 10
387.7159233271786
 20
136.3202489407439
 30
0.0
 40
14.98054419886494
100
AcDbArc
 50
239.9808036614015
 51
271.4254404349278
  0
ARC
  5
4D40
330
2
100
AcDbEntity
  8
KIJUN
100
AcDbCircle
 10
388.1859394128619
 20
118.318029075869
 30
0.0
 40
3.027877162062991
100
AcDbArc
 50
323.5448356783515
 51
91.84262065353401
  0
ARC
  5
4D41
330
2
100
AcDbEntity
  8
KIJUN
100
AcDbCircle
 10
357.3230350166462
 20
78.02637198780191
 30
0.0
 40
50.77885374907213
100
AcDbArc
 50
63.19592275824017
 51
80.47903056636908
  0
ARC
  5
4D42
330
2
100
AcDbEntity
  8
KIJUN
100
AcDbCircle
 10
363.5695283615587
 20
130.3558229556333
 30
0.0
 40
3.114033369808802
100
AcDbArc
 50
313.7339316086197
 51
96.77048615503291
  0
ARC
  5
4D43
330
2
100
AcDbEntity
  8
KIJUN
100
AcDbCircle
 10
358.8315328898552
 20
196.7219128037056
 30
0.0
 40
63.42456024536597
100
AcDbArc
 50
258.5353044362246
 51
273.9516443898347
  0
ARC
  5
4D44
330
2
100
AcDbEntity
  8
KIJUN
100
AcDbCircle
 10
325.9196952753527
 20
18.48996850344238
 30
0.0
 40
117.8355512829664
100
AcDbArc
 50
80.07731778914743
 51
91.32541800390384
  0
ARC
  5
4D45
330
2
100
AcDbEntity
  8
KIJUN
100
AcDbCircle
 10
325.0307565188341
 20
146.4056674526496
 30
0.0
 40
3.719228785095584
100
AcDbArc
 50
335.8645592788016
 51
115.205816457471
  0
ARC
  5
4D46
330
2
100
AcDbEntity
  8
KIJUN
100
AcDbCircle
 10
300.510378213779
 20
155.9934535224097
 30
0.0
 40
30.0436042996963
100
AcDbArc
 50
319.0275800128308
 51
338.2999282825736
  0
ARC
  5
4D47
330
2
100
AcDbEntity
  8
KIJUN
100
AcDbCircle
 10
299.092403918412
 20
163.0060300807056
 30
0.0
 40
34.54038045128759
100
AcDbArc
 50
261.5670252666287
 51
305.2852223028844
  0
ARC
  5
4D48
330
2
100
AcDbEntity
  8
KIJUN
100
AcDbCircle
 10
318.4902553320935
 20
159.1580178846876
 30
0.0
 40
10.61547368766753
100
AcDbArc
 50
252.3664083541755
 51
297.8346252964773
  0
ARC
  5
4D49
330
2
100
AcDbEntity
  8
KIJUN
100
AcDbCircle
 10
294.8963186547839
 20
91.95258803451393
 30
0.0
 40
60.61679491293273
100
AcDbArc
 50
70.35563956924963
 51
97.94702651751862
  0
ARC
  5
4D4A
330
2
100
AcDbEntity
  8
KIJUN
100
AcDbCircle
 10
316.6913321088748
 20
150.2672480776944
 30
0.0
 40
30.22471784827248
100
AcDbArc
 50
163.9001811633981
 51
176.7377208770345
  0
ARC
  5
4D4B
330
2
100
AcDbEntity
  8
KIJUN
100
AcDbCircle
 10
274.6261274995772
 20
136.7611992469674
 30
0.0
 40
24.66999351956251
100
AcDbArc
 50
85.39554819708943
 51
128.026174502794
  0
ARC
  5
4D4C
330
2
100
AcDbEntity
  8
KIJUN
100
AcDbCircle
 10
284.4669660087959
 20
159.7894295016334
 30
0.0
 40
3.383103446710631
100
AcDbArc
 50
340.2984176794171
 51
116.7152495919588
  0
ARC
  5
4D4D
330
2
100
AcDbEntity
  8
KIJUN
100
AcDbCircle
 10
255.541892440508
 20
157.0836774347741
 30
0.0
 40
3.987401931884244
100
AcDbArc
 50
347.1145844663628
 51
118.5895883372916
  0
ARC
  5
4D4E
330
2
100
AcDbEntity
  8
KIJUN
100
AcDbCircle
 10
283.4529268065385
 20
111.3565039336317
 30
0.0
 40
57.55532401980267
100
AcDbArc
 50
121.2045653448575
 51
148.4153440515639
  0
ARC
  5
4D4F
330
2
100
AcDbEntity
  8
KIJUN
100
AcDbCircle
 10
188.8355655487947
 20
138.2789233858999
 30
0.0
 40
45.70162960129797
100
AcDbArc
 50
4.043541891533014
 51
30.6683756253658
  0
ARC
  5
4D50
330
2
100
AcDbEntity
  8
KIJUN
100
AcDbCircle
 10
226.1603557438971
 20
160.5260750060919
 30
0.0
 40
2.251850187846801
100
AcDbArc
 50
28.19090216260597
 51
135.277307816074
  0
ARC
  5
4D51
330
2
100
AcDbEntity
  8
KIJUN
100
AcDbCircle
 10
188.3857502936791
 20
136.8689688660911
 30
0.0
 40
37.25540443941265
100
AcDbArc
 50
30.4278620829152
 51
80.28856193619224
  0
ARC
  5
4D52
330
2
100
AcDbEntity
  8
KIJUN
100
AcDbCircle
 10
195.6482131001462
 20
185.6230917598481
 30
0.0
 40
12.07227480257306
100
AcDbArc
 50
212.6954094350346
 51
265.3532964537448
  0
ARC
  5
4D53
330
2
100
AcDbEntity
  8
KIJUN
100
AcDbCircle
 10
181.5402385925465
 20
177.3865759154304
 30
0.0
 40
4.305028518837649
100
AcDbArc
 50
23.4822098158612
 51
135.6156172016808
  0
ARC
  5
4D54
330
2
100
AcDbEntity
  8
KIJUN
100
AcDbCircle
 10
190.696522332237
 20
169.159187340696
 30
0.0
 40
16.61177802988722
100
AcDbArc
 50
137.4257314038357
 51
175.0611324257204
  0
ARC
  5
4D55
330
2
100
AcDbEntity
  8
KIJUN
100
AcDbCircle
 10
202.812926928808
 20
207.21928852329
 30
0.0
 40
46.51367027490455
100
AcDbArc
 50
223.4742755688002
 51
231.9533549803113
  0
ARC
  5
4D56
330
2
100
AcDbEntity
  8
KIJUN
100
AcDbCircle
 10
152.2889377524966
 20
97.51702972238428
 30
0.0
 40
15.44506900765974
100
AcDbArc
 50
108.7545476817427
 51
234.7274721638349
  0
ARC
  5
4D57
330
2
100
AcDbEntity
  8
KIJUN
100
AcDbCircle
 10
154.0946831621347
 20
105.3461147222239
 30
0.0
 40
23.0815790117469
100
AcDbArc
 50
242.3127196752588
 51
354.9070133336814
  0
ARC
  5
4D58
330
2
100
AcDbEntity
  8
KIJUN
100
AcDbCircle
 10
136.6589984677364
 20
97.02804641355886
 30
0.0
 40
18.49746579493028
100
AcDbArc
 50
54.79398526928141
 51
152.4955087466259
  0
ARC
  5
4D59
330
2
100
AcDbEntity
  8
KIJUN
100
AcDbCircle
 10
145.3344844491544
 20
93.69946533714466
 30
0.0
 40
27.74962986900671
100
AcDbArc
 50
154.6725369048423
 51
238.3165543979264
  0
ARC
  5
4D5A
330
2
100
AcDbEntity
  8
KIJUN
100
AcDbCircle
 10
139.9662594884547
 20
129.0853216956326
 30
0.0
 40
67.61876545759605
100
AcDbArc
 50
290.4802691972505
 51
319.8666039280213
  0
ARC
  5
4D5B
330
2
100
AcDbEntity
  8
KIJUN
100
AcDbCircle
 10
151.9196149396903
 20
103.6698114971375
 30
0.0
 40
39.69440177718557
100
AcDbArc
 50
237.7867840181178
 51
287.1508518450157
  0
ARC
  5
4D5C
330
2
100
AcDbEntity
  8
KIJUN
100
AcDbCircle
 10
2045.639341956899
 20
1619.110748656019
 30
0.0
 40
2406.072695965348
100
AcDbArc
 50
219.0497497344094
 51
219.5975880209885
  0
ARC
  5
4D5D
330
2
100
AcDbEntity
  8
KIJUN
100
AcDbCircle
 10
382.1767188176563
 20
311.3406565899432
 30
0.0
 40
277.2196117823477
100
AcDbArc
 50
221.5289065105669
 51
229.0440599082795
  0
ARC
  5
4D5E
330
2
100
AcDbEntity
  8
KIJUN
100
AcDbCircle
 10
148.7018836683414
 20
159.2158399448281
 30
0.0
 40
40.93980786007182
100
AcDbArc
 50
309.321399911462
 51
330.9423185527709
  0
ARC
  5
4D5F
330
2
100
AcDbEntity
  8
KIJUN
100
AcDbCircle
 10
189.5219712497121
 20
127.6204520518336
 30
0.0
 40
12.74714798094584
100
AcDbArc
 50
23.63062415387078
 51
113.2571730625899
  0
ARC
  5
4D60
330
2
100
AcDbEntity
  8
KIJUN
100
AcDbCircle
 10
166.253891346338
 20
118.1818414577403
 30
0.0
 40
37.85362882540714
100
AcDbArc
 50
334.6594239206557
 51
22.60194961344772
  0
ARC
  5
4D61
330
2
100
AcDbEntity
  8
KIJUN
100
AcDbCircle
 10
247.1983773761447
 20
85.74827518566873
 30
0.0
 40
11.69364116639024
100
AcDbArc
 50
21.11841454156282
 51
47.83846048000421
  0
ARC
  5
4D62
330
2
100
AcDbEntity
  8
KIJUN
100
AcDbCircle
 10
254.9153414583452
 20
88.68504943088446
 30
0.0
 40
3.437098505142665
100
AcDbArc
 50
267.4348777511148
 51
21.7995958952643
  0
ARC
  5
4D63
330
2
100
AcDbEntity
  8
KIJUN
100
AcDbCircle
 10
259.0646085569742
 20
20.49197510061295
 30
0.0
 40
64.90222701307425
100
AcDbArc
 50
93.80156625340298
 51
115.6599887550693
  0
ARC
  5
4D64
330
2
100
AcDbEntity
  8
KIJUN
100
AcDbCircle
 10
279.927732484367
 20
31.02621829196825
 30
0.0
 40
68.09791432818051
100
AcDbArc
 50
54.71619865606414
 51
111.4297920945538
  0
ARC
  5
4D65
330
2
100
AcDbEntity
  8
KIJUN
100
AcDbCircle
 10
310.0738321907802
 20
84.71141524452077
 30
0.0
 40
9.384105089278586
100
AcDbArc
 50
308.3190541944921
 51
11.70134995846907
  0
ARC
  5
4D66
330
2
100
AcDbEntity
  8
KIJUN
100
AcDbCircle
 10
273.9022268767024
 20
130.0115039149309
 30
0.0
 40
67.35367678050987
100
AcDbArc
 50
283.7012331479276
 51
308.5668535500246
  0
ARC
  5
4D67
330
2
100
AcDbEntity
  8
KIJUN
100
AcDbCircle
 10
266.3442590319471
 20
135.5386681870107
 30
0.0
 40
66.7038111780041
100
AcDbArc
 50
237.9629116369429
 51
288.0602626152825
  0
ARC
  5
4D68
330
2
100
AcDbEntity
  8
KIJUN
100
AcDbCircle
 10
285.841100138955
 20
67.37278377149724
 30
0.0
 40
4.893522948879498
100
AcDbArc
 50
325.1209408133726
 51
76.01650199509832
  0
ARC
  5
4D6D
330
2
100
AcDbEntity
  8
KIJUN
100
AcDbCircle
 10
140.7459035054289
 20
94.66111943078571
 30
0.0
 40
44.54336467159971
100
AcDbArc
 50
140.3685858240299
 51
242.8812887122023
  0
ARC
  5
4D6E
330
2
100
AcDbEntity
  8
KIJUN
100
AcDbCircle
 10
143.0130621650326
 20
87.62267482795756
 30
0.0
 40
50.93421212559491
100
AcDbArc
 50
51.60937114453924
 51
135.8929549468561
  0
ARC
  5
4D6F
330
2
100
AcDbEntity
  8
KIJUN
100
AcDbCircle
 10
106.1860840368692
 20
61.72796651451371
 30
0.0
 40
87.92831847574467
100
AcDbArc
 50
31.20735425127619
 51
48.88320314947995
  0
ARC
  5
4D70
330
2
100
AcDbEntity
  8
KIJUN
100
AcDbCircle
 10
151.255474729254
 20
102.6923717898384
 30
0.0
 40
10.23521204299191
100
AcDbArc
 50
357.6365071033416
 51
112.5939876463803
  0
ARC
  5
4D71
330
2
100
AcDbEntity
  8
KIJUN
100
AcDbCircle
 10
150.8315731323624
 20
102.6370232421827
 30
0.0
 40
10.65671905699389
100
AcDbArc
 50
201.6069832896369
 51
358.0278261515059
  0
ARC
  5
4D72
330
2
100
AcDbEntity
  8
KIJUN
100
AcDbCircle
 10
285.1589239420668
 20
236.8008867885669
 30
0.0
 40
129.2584401079068
100
AcDbArc
 50
210.8132546625578
 51
219.5526805010787
  0
ARC
  5
4D73
330
2
100
AcDbEntity
  8
KIJUN
100
AcDbCircle
 10
190.6009635549608
 20
146.5386987036487
 30
0.0
 40
9.449865479727826
100
AcDbArc
 50
122.7013940109173
 51
229.6980882575416
  0
ARC
  5
4D74
330
2
100
AcDbEntity
  8
KIJUN
100
AcDbCircle
 10
187.9632002362111
 20
134.7954708052799
 30
0.0
 40
19.84925055146246
100
AcDbArc
 50
23.019764523539
 51
97.14140015064865
  0
ARC
  5
4D75
330
2
100
AcDbEntity
  8
KIJUN
100
AcDbCircle
 10
162.9707222272084
 20
119.2566260457117
 30
0.0
 40
49.13711469161728
100
AcDbArc
 50
323.3516403741534
 51
28.30733763870395
  0
ARC
  5
4D76
330
2
100
AcDbEntity
  8
KIJUN
100
AcDbCircle
 10
193.4559679884111
 20
101.447408037289
 30
0.0
 40
7.029511507167311
100
AcDbArc
 50
331.6975256030931
 51
4.34979290399307
  0
ARC
  5
4D77
330
2
100
AcDbEntity
  8
KIJUN
100
AcDbCircle
 10
3139.5574590743
 20
-1442.684327035926
 30
0.0
 40
3319.208566997553
100
AcDbArc
 50
152.3411068151879
 51
152.5189419766823
  0
ARC
  5
4D78
330
2
100
AcDbEntity
  8
KIJUN
100
AcDbCircle
 10
189.2890679272161
 20
90.91528347925947
 30
0.0
 40
5.912824995822521
100
AcDbArc
 50
293.6808452593677
 51
340.9174039327568
  0
ARC
  5
4D79
330
2
100
AcDbEntity
  8
KIJUN
100
AcDbCircle
 10
245.8713445430958
 20
144.0933476117806
 30
0.0
 40
27.90664421835383
100
AcDbArc
 50
139.7872503317824
 51
155.3396100394186
  0
ARC
  5
4D7A
330
2
100
AcDbEntity
  8
KIJUN
100
AcDbCircle
 10
186.6865889106453
 20
180.516208867475
 30
0.0
 40
9.440265852774968
100
AcDbArc
 50
198.5224038864237
 51
265.8303197598097
  0
ARC
  5
4D7B
330
2
100
AcDbEntity
  8
KIJUN
100
AcDbCircle
 10
185.4960246750126
 20
129.7631258387663
 30
0.0
 40
41.34087893447229
100
AcDbArc
 50
44.66806170672104
 51
89.30125171894799
  0
ARC
  5
4D7C
330
2
100
AcDbEntity
  8
KIJUN
100
AcDbCircle
 10
328.6431789258982
 20
90.29902266534234
 30
0.0
 40
10.07790729468579
100
AcDbArc
 50
67.50301977085986
 51
201.444089198373
  0
ARC
  5
4D7D
330
2
100
AcDbEntity
  8
KIJUN
100
AcDbCircle
 10
324.2288956856987
 20
82.91779306700346
 30
0.0
 40
18.62873857524392
100
AcDbArc
 50
324.2856869625069
 51
63.64309209226582
  0
ARC
  5
4D7E
330
2
100
AcDbEntity
  8
KIJUN
100
AcDbCircle
 10
324.230195419744
 20
79.46657276966878
 30
0.0
 40
7.670455752241487
100
AcDbArc
 50
325.5340994460895
 51
83.07702114728188
  0
ARC
  5
4D7F
330
2
100
AcDbEntity
  8
KIJUN
100
AcDbCircle
 10
273.3933427110137
 20
135.4657744446731
 30
0.0
 40
83.11608476013089
100
AcDbArc
 50
261.5579805976573
 51
313.4501504468762
  0
ARC
  5
4D80
330
2
100
AcDbEntity
  8
KIJUN
100
AcDbCircle
 10
297.0773738427124
 20
63.10142803643786
 30
0.0
 40
13.2448567197192
100
AcDbArc
 50
250.0008153746851
 51
266.4695479239616
  0
ARC
  5
4D81
330
2
100
AcDbEntity
  8
KIJUN
100
AcDbCircle
 10
252.2383799736067
 20
57.07568723781713
 30
0.0
 40
6.193814283860307
100
AcDbArc
 50
16.68181354844238
 51
157.8361847912158
  0
ARC
  5
4D82
330
2
100
AcDbEntity
  8
KIJUN
100
AcDbCircle
 10
244.0209513998293
 20
55.20667026274827
 30
0.0
 40
14.61297773203004
100
AcDbArc
 50
339.7919591021901
 51
14.45219255536543
  0
ARC
  5
4D83
330
2
100
AcDbEntity
  8
KIJUN
100
AcDbCircle
 10
246.368020260179
 20
56.11496171089151
 30
0.0
 40
3.300109304978554
100
AcDbArc
 50
271.1572210084294
 51
87.66919039974316
  0
ARC
  5
4D84
330
2
100
AcDbEntity
  8
KIJUN
100
AcDbCircle
 10
253.0937619207354
 20
18.67273627386499
 30
0.0
 40
64.25340331579995
100
AcDbArc
 50
110.149804500247
 51
132.4611116072768
  0
ARC
  5
4D85
330
2
100
AcDbEntity
  8
KIJUN
100
AcDbCircle
 10
253.8776005617899
 20
108.2428584141631
 30
0.0
 40
55.92482868843189
100
AcDbArc
 50
224.0006821442687
 51
262.3519191607531
  0
ARC
  5
4D86
330
2
100
AcDbEntity
  8
KIJUN
100
AcDbCircle
 10
253.3720139207744
 20
341.4412259749491
 30
0.0
 40
279.5895791868857
100
AcDbArc
 50
271.2988408376766
 51
276.7870220053616
  0
ARC
  5
4D87
330
2
100
AcDbEntity
  8
KIJUN
100
AcDbCircle
 10
260.6722921701266
 20
106.5322003221346
 30
0.0
 40
44.27911821683443
100
AcDbArc
 50
224.2092869548335
 51
253.8187141132148
  0
ARC
  5
4D88
330
2
100
AcDbEntity
  8
KIJUN
100
AcDbCircle
 10
143.6091701010288
 20
104.5687654074232
 30
0.0
 40
22.51725009282775
100
AcDbArc
 50
338.763758589147
 51
35.46632616067951
  0
ARC
  5
4D89
330
2
100
AcDbEntity
  8
KIJUN
100
AcDbCircle
 10
153.0888525560414
 20
100.9419361209804
 30
0.0
 40
12.36771161102567
100
AcDbArc
 50
190.3835703065812
 51
338.5176377421387
  0
ARC
  5
4D8A
330
2
100
AcDbEntity
  8
KIJUN
100
AcDbCircle
 10
136.6024504983941
 20
94.93084505420002
 30
0.0
 40
34.02715323444862
100
AcDbArc
 50
41.85146407394446
 51
192.512804056318
  0
ARC
  5
4D90
330
2
100
AcDbEntity
  8
KIJUN
100
AcDbCircle
 10
92.91400798193661
 20
57.91638512262032
 30
0.0
 40
5.300231011722082
100
AcDbArc
 50
252.7680099358886
 51
319.5282220943929
  0
ARC
  5
4D91
330
2
100
AcDbEntity
  8
KIJUN
100
AcDbCircle
 10
115.2736799463439
 20
68.18842292323113
 30
0.0
 40
28.42144966505627
100
AcDbArc
 50
171.5641092786005
 51
212.6519685353338
  0
ARC
  5
4D92
330
2
100
AcDbEntity
  8
KIJUN
100
AcDbCircle
 10
170.736193438447
 20
131.2911930870091
 30
0.0
 40
55.45287145651069
100
AcDbArc
 50
343.6764152470563
 51
26.15754418980523
  0
ARC
  5
4D93
330
2
100
AcDbEntity
  8
KIJUN
100
AcDbCircle
 10
145.2882228786165
 20
132.0744752057526
 30
0.0
 40
75.57595599181344
100
AcDbArc
 50
272.4746256882664
 51
359.0002491613079
  0
ARC
  5
4D94
330
2
100
AcDbEntity
  8
KIJUN
100
AcDbCircle
 10
145.7137591564582
 20
100.8443714111856
 30
0.0
 40
44.36621073963396
100
AcDbArc
 50
197.4249943957492
 51
273.6670627823663
  0
ARC
  5
4D95
330
2
100
AcDbEntity
  8
KIJUN
100
AcDbCircle
 10
186.1759677009765
 20
130.4947178284103
 30
0.0
 40
34.67768931698937
100
AcDbArc
 50
0.4314093780347394
 51
92.0279491032994
  0
ARC
  5
4D96
330
2
100
AcDbEntity
  8
KIJUN
100
AcDbCircle
 10
150.5973808959933
 20
94.0035989912244
 30
0.0
 40
60.10825545086333
100
AcDbArc
 50
196.3381784968608
 51
214.6787190161875
  0
ARC
  5
4D97
330
2
100
AcDbEntity
  8
KIJUN
100
AcDbCircle
 10
312.8507721326942
 20
190.0198551109081
 30
0.0
 40
155.3268339304038
100
AcDbArc
 50
212.1838752420218
 51
220.5781209703137
  0
ARC
  5
4D98
330
2
100
AcDbEntity
  8
KIJUN
100
AcDbCircle
 10
270.8044588246933
 20
171.3508440659693
 30
0.0
 40
24.93569666346318
100
AcDbArc
 50
276.1407466135693
 51
309.0549920810889
  0
ARC
  5
4D99
330
2
100
AcDbEntity
  8
KIJUN
100
AcDbCircle
 10
273.8956860681869
 20
133.668342791014
 30
0.0
 40
12.89684854294897
100
AcDbArc
 50
91.88323786170858
 51
158.3267047485088
  0
ARC
  5
4D9A
330
2
100
AcDbEntity
  8
KIJUN
100
AcDbCircle
 10
244.4000054694261
 20
199.3222872532793
 30
0.0
 40
63.35873722533899
100
AcDbArc
 50
286.043789676315
 51
311.6605675724426
  0
ARC
  5
4D9B
330
2
100
AcDbEntity
  8
KIJUN
100
AcDbCircle
 10
236.6433383617
 20
170.7525826215443
 30
0.0
 40
27.03922068485707
100
AcDbArc
 50
304.9281559194622
 51
327.4247427718011
  0
ARC
  5
4D9C
330
2
100
AcDbEntity
  8
KIJUN
100
AcDbCircle
 10
147.8371661898862
 20
140.7395838757283
 30
0.0
 40
86.5896188620105
100
AcDbArc
 50
309.5992732946442
 51
0.5041966542147519
  0
ARC
  5
4D9D
330
2
100
AcDbEntity
  8
KIJUN
100
AcDbCircle
 10
285.4040299842757
 20
88.07641835638795
 30
0.0
 40
41.66474722894122
100
AcDbArc
 50
63.41564736166636
 51
78.05572630921566
  0
ARC
  5
4D9E
330
2
100
AcDbEntity
  8
KIJUN
100
AcDbCircle
 10
292.8581265795306
 20
134.7551787862334
 30
0.0
 40
14.62758924118751
100
AcDbArc
 50
255.2118393909744
 51
319.9154586510125
  0
ARC
  5
4D9F
330
2
100
AcDbEntity
  8
KIJUN
100
AcDbCircle
 10
280.8827357311829
 20
92.20001633931758
 30
0.0
 40
29.58333525454801
100
AcDbArc
 50
73.82365571664777
 51
112.5339838745799
  0
ARC
  5
4DA0
330
2
100
AcDbEntity
  8
KIJUN
100
AcDbCircle
 10
292.6188703217826
 20
62.61028915481091
 30
0.0
 40
58.10698818011844
100
AcDbArc
 50
93.4476735478656
 51
112.115089745907
  0
ARC
  5
4DA1
330
2
100
AcDbEntity
  8
KIJUN
100
AcDbCircle
 10
269.8250768589587
 20
117.8594027688115
 30
0.0
 40
1.688640793675515
100
AcDbArc
 50
99.53083929964764
 51
302.9456703132547
  0
ARC
  5
4DA2
330
2
100
AcDbEntity
  8
KIJUN
100
AcDbCircle
 10
494.7070705535752
 20
92.85537231697047
 30
0.0
 40
16.54774453569563
100
AcDbArc
 50
273.0379879627836
 51
13.04619403047492
  0
ARC
  5
4DA3
330
2
100
AcDbEntity
  8
KIJUN
100
AcDbCircle
 10
491.9730775136124
 20
139.5134638595475
 30
0.0
 40
63.28568314216994
100
AcDbArc
 50
255.1137794615261
 51
273.2709923762441
  0
ARC
  5
4DA4
330
2
100
AcDbEntity
  8
KIJUN
100
AcDbCircle
 10
291.0277504616102
 20
-75.70401154780085
 30
0.0
 40
193.6230291547682
100
AcDbArc
 50
60.75701954734588
 51
86.47088477699702
  0
ARC
  5
4DA5
330
2
100
AcDbEntity
  8
KIJUN
100
AcDbCircle
 10
447.9195554476723
 20
36.30001072974439
 30
0.0
 40
19.21213989426505
100
AcDbArc
 50
61.39903243909945
 51
71.61335164931883
  0
ARC
  5
4DA6
330
2
100
AcDbEntity
  8
KIJUN
100
AcDbCircle
 10
379.2563813321772
 20
140.1360086346866
 30
0.0
 40
31.1025589078803
100
AcDbArc
 50
228.7618292099396
 51
268.2603523423105
  0
ARC
  5
4DA7
330
2
100
AcDbEntity
  8
KIJUN
100
AcDbCircle
 10
359.2336881839596
 20
141.2618324429268
 30
0.0
 40
14.66916462172086
100
AcDbArc
 50
265.3413679331122
 51
296.2526058887735
  0
ARC
  5
4DA8
330
2
100
AcDbEntity
  8
KIJUN
100
AcDbCircle
 10
380.3782981392105
 20
130.7202226675766
 30
0.0
 40
14.75655804788923
100
AcDbArc
 50
247.8884447395785
 51
294.9320443982513
  0
ARC
  5
4DA9
330
2
100
AcDbEntity
  8
KIJUN
100
AcDbCircle
 10
323.8965968600519
 20
-1.186017181972717
 30
0.0
 40
128.7365080346584
100
AcDbArc
 50
66.69708179828511
 51
88.52217053985544
  0
ARC
  5
4DAA
330
2
100
AcDbEntity
  8
KIJUN
100
AcDbCircle
 10
390.3778007367132
 20
82.86391224308587
 30
0.0
 40
11.70128971218759
100
AcDbArc
 50
182.9319194854419
 51
257.9254079114528
  0
ARC
  5
4DAB
330
2
100
AcDbEntity
  8
KIJUN
100
AcDbCircle
 10
287.7866247318106
 20
-49.12731202828277
 30
0.0
 40
162.4709859608889
100
AcDbArc
 50
59.87945143769471
 51
92.37716440882229
  0
ARC
  5
4DAC
330
2
100
AcDbEntity
  8
KIJUN
100
AcDbCircle
 10
285.3037348101397
 20
79.92093129038436
 30
0.0
 40
49.6898567649959
100
AcDbArc
 50
79.88911485240741
 51
119.031691937891
  0
ARC
  5
4DAD
330
2
100
AcDbEntity
  8
KIJUN
100
AcDbCircle
 10
217.2243243295554
 20
229.8052786247944
 30
0.0
 40
130.0646691079317
100
AcDbArc
 50
315.9360207345496
 51
319.6283641353214
  0
ARC
  5
4DAE
330
2
100
AcDbEntity
  8
KIJUN
100
AcDbCircle
 10
351.5950735412821
 20
-414.6065481285591
 30
0.0
 40
550.8489132960852
100
AcDbArc
 50
95.71133580446391
 51
98.86394171979548
  0
ARC
  5
4DAF
330
2
100
AcDbEntity
  8
KIJUN
100
AcDbCircle
 10
475.9503484758138
 20
255.8585784151242
 30
0.0
 40
186.022220482295
100
AcDbArc
 50
240.9473005218931
 51
272.2763862609607
  0
ARC
  5
4DB0
330
2
100
AcDbEntity
  8
KIJUN
100
AcDbCircle
 10
280.7064423220995
 20
20.27920981631361
 30
0.0
 40
85.70717518202734
100
AcDbArc
 50
64.89007950306239
 51
116.8224749878485
  0
ARC
  5
4DB1
330
2
100
AcDbEntity
  8
KIJUN
100
AcDbCircle
 10
464.487493542972
 20
34.34996022755409
 30
0.0
 40
45.41163217339376
100
AcDbArc
 50
75.68588554352718
 51
104.2093169925567
  0
ARC
  5
4DB2
330
2
100
AcDbEntity
  8
KIJUN
100
AcDbCircle
 10
253.3175046733436
 20
69.0189394010799
 30
0.0
 40
25.45615728853274
100
AcDbArc
 50
86.10336685472216
 51
103.1070539046955
  0
ARC
  5
4DB3
330
2
100
AcDbEntity
  8
KIJUN
100
AcDbCircle
 10
258.0559166167891
 20
47.88298305213356
 30
0.0
 40
43.31604210356821
100
AcDbArc
 50
97.0889446591873
 51
127.6017504736339
  0
ARC
  5
4DB4
330
2
100
AcDbEntity
  8
KIJUN
100
AcDbCircle
 10
450.1709837122437
 20
90.63225822327162
 30
0.0
 40
9.726631004885543
100
AcDbArc
 50
316.3547308579646
 51
13.36799329857581
  0
ARC
  5
4DB5
330
2
100
AcDbEntity
  8
KIJUN
100
AcDbCircle
 10
457.7814093350341
 20
88.32137759834671
 30
0.0
 40
4.921729390591586
100
AcDbArc
 50
67.88755918305682
 51
109.9802885371191
  0
ARC
  5
4DB6
330
2
100
AcDbEntity
  8
KIJUN
100
AcDbCircle
 10
452.2318918658563
 20
106.6102019216391
 30
0.0
 40
14.20022420758903
100
AcDbArc
 50
250.9086337114832
 51
285.805608718052
  0
ARC
  5
4DB7
330
2
100
AcDbEntity
  8
KIJUN
100
AcDbCircle
 10
432.0593927552045
 20
47.06598750334712
 30
0.0
 40
48.66863003573596
100
AcDbArc
 50
71.39423512114106
 51
90.56089895034137
  0
ARC
  5
4DB8
330
2
100
AcDbEntity
  8
KIJUN
100
AcDbCircle
 10
426.8515001666896
 20
98.77832215606446
 30
0.0
 40
5.62716846509895
100
AcDbArc
 50
327.2272104468303
 51
19.96068868541936
  0
ARC
  5
4DB9
330
2
100
AcDbEntity
  8
KIJUN
100
AcDbCircle
 10
425.951169234368
 20
80.30372842406489
 30
0.0
 40
21.31404901625893
100
AcDbArc
 50
73.11849106429672
 51
96.85326272796878
  0
ARC
  5
4DBA
330
2
100
AcDbEntity
  8
KIJUN
100
AcDbCircle
 10
416.6145743889633
 20
176.6893907806242
 30
0.0
 40
75.53001872656853
100
AcDbArc
 50
251.4876004446225
 51
275.1602190952146
  0
ARC
  5
4DBB
330
2
100
AcDbEntity
  8
KIJUN
100
AcDbCircle
 10
363.8744755262701
 20
29.34525174816297
 30
0.0
 40
80.99963532345716
100
AcDbArc
 50
69.20375507771798
 51
79.73250699929986
  0
ARC
  5
4DBC
330
2
100
AcDbEntity
  8
KIJUN
100
AcDbCircle
 10
395.6132947593098
 20
85.94081080923913
 30
0.0
 40
39.06010597233239
100
AcDbArc
 50
231.4533308829732
 51
286.0737202637432
  0
ARC
  5
4DBD
330
2
100
AcDbEntity
  8
KIJUN
100
AcDbCircle
 10
403.5383523499931
 20
58.04794036892324
 30
0.0
 40
10.06400543630796
100
AcDbArc
 50
286.6861527348942
 51
328.473885049545
  0
ARC
  5
4DBE
330
2
100
AcDbEntity
  8
KIJUN
100
AcDbCircle
 10
296.2343514341278
 20
154.2726953260966
 30
0.0
 40
20.77187411225793
100
AcDbArc
 50
271.4954683986831
 51
314.0781290592284
  0
ARC
  5
4DBF
330
2
100
AcDbEntity
  8
KIJUN
100
AcDbCircle
 10
277.7841268020943
 20
170.7328822907706
 30
0.0
 40
9.454927048419495
100
AcDbArc
 50
262.8454102576492
 51
303.0897863668687
  0
ARC
  5
4DC0
330
2
100
AcDbEntity
  8
KIJUN
100
AcDbCircle
 10
129.4389888032086
 20
93.84567181224536
 30
0.0
 40
48.57452899272336
100
AcDbArc
 50
11.21995428184074
 51
44.63008298293183
  0
ARC
  5
4DC1
330
2
100
AcDbEntity
  8
KIJUN
100
AcDbCircle
 10
113.7912416512521
 20
66.12602979137708
 30
0.0
 40
20.48123375498438
100
AcDbArc
 50
195.0736011175981
 51
214.6671257163828
  0
ARC
  5
4DC2
330
2
100
AcDbEntity
  8
KIJUN
100
AcDbCircle
 10
258.3186691450328
 20
175.3802036641095
 30
0.0
 40
27.90050633731474
100
AcDbArc
 50
289.445733658237
 51
328.714548530553
  0
ARC
  5
4DC3
330
2
100
AcDbEntity
  8
KIJUN
100
AcDbCircle
 10
332.1666227486939
 20
12.95981120167362
 30
0.0
 40
138.8969771256227
100
AcDbArc
 50
108.9160833301541
 51
133.377701097652
  0
ARC
  5
4DC4
330
2
100
AcDbEntity
  8
KIJUN
100
AcDbCircle
 10
305.6640042972135
 20
13.33369948178688
 30
0.0
 40
111.9232651275681
100
AcDbArc
 50
115.4222150370427
 51
137.9721144549936
  0
ARC
  5
4DC5
330
2
100
AcDbEntity
  8
KIJUN
100
AcDbCircle
 10
423.9797313913591
 20
117.2529192402801
 30
0.0
 40
22.82425726960472
100
AcDbArc
 50
248.5484163827151
 51
289.4582811189664
  0
ARC
  5
4DC6
330
2
100
AcDbEntity
  8
KIJUN
100
AcDbCircle
 10
447.7524963955841
 20
103.0111839083116
 30
0.0
 40
21.30597070601777
100
AcDbArc
 50
243.7288405154764
 51
296.3506342210862
  0
ARC
  5
4DC7
330
2
100
AcDbEntity
  8
KIJUN
100
AcDbCircle
 10
375.9835412514708
 20
39.00748988814589
 30
0.0
 40
34.54544224122898
100
AcDbArc
 50
38.88875274196174
 51
69.76810317771036
  0
ARC
  5
4DC8
330
2
100
AcDbEntity
  8
KIJUN
100
AcDbCircle
 10
429.1918254715499
 20
82.09822001810648
 30
0.0
 40
33.92317302581972
100
AcDbArc
 50
219.1178966094154
 51
239.7787693134633
  0
ARC
  5
4DC9
330
2
100
AcDbEntity
  8
KIJUN
100
AcDbCircle
 10
472.2014363354035
 20
213.2046599270323
 30
0.0
 40
160.901015763353
100
AcDbArc
 50
234.4676639762206
 51
261.2154437290774
  0
ARC
  5
4DCA
330
2
100
AcDbEntity
  8
KIJUN
100
AcDbCircle
 10
296.6315211106457
 20
16.21143567708741
 30
0.0
 40
84.53404094102111
100
AcDbArc
 50
34.15609176166487
 51
51.12228656188758
  0
ARC
  5
4E19
330
2
100
AcDbEntity
  8
KIJUN
100
AcDbCircle
 10
27.53701271080177
 20
188.9254241671747
 30
0.0
 40
20.60764534669216
100
AcDbArc
 50
61.77850535747652
 51
190.4717125727992
  0
ARC
  5
4E1A
330
2
100
AcDbEntity
  8
KIJUN
100
AcDbCircle
 10
45.53328623692585
 20
224.5708669510813
 30
0.0
 40
19.33641482642897
100
AcDbArc
 50
244.7401968917203
 51
328.375566393003
  0
ARC
  5
4E1B
330
2
100
AcDbEntity
  8
KIJUN
100
AcDbCircle
 10
82.7984168469686
 20
202.5543136916438
 30
0.0
 40
23.95245298558533
100
AcDbArc
 50
29.72773923708291
 51
150.2722607629167
  0
ARC
  5
4E1C
330
2
100
AcDbEntity
  8
KIJUN
100
AcDbCircle
 10
-5.621230466627632
 20
180.6361474835965
 30
0.0
 40
13.67103212360995
100
AcDbArc
 50
304.318635104722
 51
19.4126655622872
  0
ARC
  5
4E1D
330
2
100
AcDbEntity
  8
KIJUN
100
AcDbCircle
 10
138.0598209831354
 20
188.9254241671747
 30
0.0
 40
20.60764534669216
100
AcDbArc
 50
349.5282874272008
 51
118.2214946425236
  0
ARC
  5
4E1E
330
2
100
AcDbEntity
  8
KIJUN
100
AcDbCircle
 10
171.2180641605648
 20
180.6361474835965
 30
0.0
 40
13.67103212360995
100
AcDbArc
 50
160.587334437713
 51
235.6813648952784
  0
ARC
  5
4E1F
330
2
100
AcDbEntity
  8
KIJUN
100
AcDbCircle
 10
120.0635474570114
 20
224.5708669510813
 30
0.0
 40
19.33641482642897
100
AcDbArc
 50
211.6244336069974
 51
295.25980310828
  0
ARC
  5
4E20
330
2
100
AcDbEntity
  8
KIJUN
100
AcDbCircle
 10
150.8413990417335
 20
148.5150935961606
 30
0.0
 40
24.38012233821504
100
AcDbArc
 50
333.033391738405
 51
58.69155555743651
  0
ARC
  5
4E21
330
2
100
AcDbEntity
  8
KIJUN
100
AcDbCircle
 10
313.6213501560343
 20
127.2552085796452
 30
0.0
 40
227.3969033642932
100
AcDbArc
 50
157.4575577829187
 51
180.4511466614492
  0
ARC
  5
4E22
330
2
100
AcDbEntity
  8
KIJUN
100
AcDbCircle
 10
201.6145373057926
 20
122.3860163403149
 30
0.0
 40
112.0110886484952
100
AcDbArc
 50
130.8739209082957
 51
180.4025344786678
  0
ARC
  5
4E23
330
2
100
AcDbEntity
  8
KIJUN
100
AcDbCircle
 10
181.0183134711636
 20
92.48464961139671
 30
0.0
 40
95.43293887003745
100
AcDbArc
 50
103.7568047870769
 51
154.9476429304315
  0
ARC
  5
4E24
330
2
100
AcDbEntity
  8
KIJUN
100
AcDbCircle
 10
168.1841491425735
 20
85.67811095434548
 30
0.0
 40
83.79736533104008
100
AcDbArc
 50
93.19729187183751
 51
150.0796964860354
  0
ARC
  5
4E25
330
2
100
AcDbEntity
  8
KIJUN
100
AcDbCircle
 10
145.4928039102333
 20
86.51113673009904
 30
0.0
 40
57.69695691582299
100
AcDbArc
 50
62.01033594845942
 51
146.8769689355504
  0
ENDSEC
  0
SECTION
  2
OBJECTS
  0
DICTIONARY
  5
1A
330
0
100
AcDbDictionary
281
     1
  3
ACAD_COLOR
350
144
  3
ACAD_GROUP
350
18
  3
ACAD_LAYOUT
350
58
  3
ACAD_MATERIAL
350
143
  3
ACAD_MLINESTYLE
350
19
  3
ACAD_PLOTSETTINGS
350
59
  3
ACAD_PLOTSTYLENAME
350
56
  3
ACAD_TABLESTYLE
350
145
  3
ACDBHEADERROUNDTRIPXREC
350
4E37
  3
AcDbVariableDictionary
350
1D1
  0
DICTIONARY
  5
1B4
330
A
100
AcDbDictionary
280
     1
281
     1
  3
ACAD_LAYERFILTERS
360
3C88
  3
ACAD_LAYERSTATES
360
3452
  3
ACLYDICTIONARY
360
3C87
  0
DICTIONARY
  5
1578
330
2
100
AcDbDictionary
280
     1
281
     1
  3
ACAD_SORTENTS
360
1579
  0
DICTIONARY
  5
144
102
{ACAD_REACTORS
330
1A
102
}
330
1A
100
AcDbDictionary
281
     1
  0
DICTIONARY
  5
18
102
{ACAD_REACTORS
330
1A
102
}
330
1A
100
AcDbDictionary
281
     1
  3
*A1
350
CFC
  3
*A10
350
2E88
  3
*A11
350
15D1
  3
*A12
350
1682
  3
*A13
350
1827
  3
*A14
350
18ED
  3
*A15
350
19E5
  3
*A16
350
1F8A
  3
*A2
350
2108
  3
*A3
350
2FF8
  3
*A4
350
218C
  3
*A5
350
2335
  3
*A6
350
2862
  3
*A7
350
299B
  3
*A8
350
2C07
  3
*A9
350
2DB5
  0
DICTIONARY
  5
58
102
{ACAD_REACTORS
330
1A
102
}
330
1A
100
AcDbDictionary
281
     1
  3
Model
350
5A
  3
ﾚｲｱｳﾄ1
350
5B
  0
DICTIONARY
  5
143
102
{ACAD_REACTORS
330
1A
102
}
330
1A
100
AcDbDictionary
281
     1
  0
DICTIONARY
  5
19
102
{ACAD_REACTORS
330
1A
102
}
330
1A
100
AcDbDictionary
281
     1
  3
STANDARD
350
1D
  0
DICTIONARY
  5
59
102
{ACAD_REACTORS
330
1A
102
}
330
1A
100
AcDbDictionary
281
     1
  0
ACDBDICTIONARYWDFLT
  5
56
102
{ACAD_REACTORS
330
1A
102
}
330
1A
100
AcDbDictionary
281
     1
  3
Normal
350
57
100
AcDbDictionaryWithDefault
340
57
  0
DICTIONARY
  5
145
102
{ACAD_REACTORS
330
1A
102
}
330
1A
100
AcDbDictionary
281
     1
  3
Standard
350
146
  0
DICTIONARY
  5
4E37
102
{ACAD_REACTORS
330
1A
102
}
330
1A
100
AcDbDictionary
281
     1
  0
DICTIONARY
  5
1D1
102
{ACAD_REACTORS
330
1A
102
}
330
1A
100
AcDbDictionary
281
     1
  3
CTABLESTYLE
350
1D2
  3
DIMASSOC
350
D03
  3
PROJECTNAME
350
D04
  0
DICTIONARY
  5
3C88
102
{ACAD_REACTORS
330
1B4
102
}
330
1B4
100
AcDbDictionary
281
     1
  0
DICTIONARY
  5
3452
102
{ACAD_REACTORS
330
1B4
102
}
330
1B4
100
AcDbDictionary
281
     1
  0
DICTIONARY
  5
3C87
102
{ACAD_REACTORS
330
1B4
102
}
330
1B4
100
AcDbDictionary
281
     1
1001
ACAD
1000
<All
  0
SORTENTSTABLE
  5
1579
102
{ACAD_REACTORS
330
1578
102
}
330
1578
100
AcDbSortentsTable
330
2
331
4D20
  5
4D25
331
478A
  5
479A
331
4714
  5
4717
331
474B
  5
4754
331
4D28
  5
4D2C
331
4792
  5
47A1
331
471C
  5
4725
331
4753
  5
475F
331
4D9E
  5
4DA2
331
4D30
  5
4D34
331
4D5F
  5
4D63
331
4724
  5
472C
331
479A
  5
47A9
331
4CD1
  5
4CE2
331
4D38
  5
4D3C
331
4D67
  5
4D6B
331
4DA6
  5
4DAA
331
47A2
  5
47B2
331
472C
  5
4734
331
4763
  5
476E
331
4D6F
  5
4D73
331
4DAE
  5
4DB2
331
4D77
  5
4D7B
331
4DB6
  5
4DBA
331
4D40
  5
4D44
331
4734
  5
473C
331
476B
  5
4776
331
4D48
  5
4D4C
331
473C
  5
4745
331
4773
  5
4780
331
47B2
  5
4CD6
331
4D50
  5
4D54
331
4D7F
  5
4D83
331
4DBE
  5
4DC2
331
4744
  5
474E
331
477B
  5
4788
331
4D19
  5
4D20
331
4D87
  5
4D8B
331
4DC6
  5
4DCA
331
21
  5
3FD1
331
4783
  5
4791
331
4D97
  5
4D9B
331
4D21
  5
4D26
331
478B
  5
479B
331
4715
  5
4718
331
474C
  5
4755
331
4D29
  5
4D2D
331
4D58
  5
4D5C
331
471D
  5
4726
331
4754
  5
4760
331
4D31
  5
4D35
331
4D60
  5
4D64
331
4D9F
  5
4DA3
331
4725
  5
472E
331
479B
  5
47AA
331
4D39
  5
4D3D
331
4D68
  5
4D6C
331
4DA7
  5
4DAB
331
47A3
  5
47B3
331
472D
  5
4735
331
4764
  5
476F
331
4D70
  5
4D74
331
4DAF
  5
4DB3
331
4DB7
  5
4DBB
331
4CDA
  5
477A
331
4D41
  5
4D45
331
4735
  5
473D
331
476C
  5
4777
331
4CE2
  5
4D1E
331
4D49
  5
4D4D
331
4D78
  5
4D7C
331
473D
  5
4746
331
4774
  5
4782
331
47B3
  5
4CD7
331
4D51
  5
4D55
331
4D80
  5
4D84
331
4DBF
  5
4DC3
331
4745
  5
474F
331
477C
  5
4789
331
4D88
  5
4D8C
331
4DC7
  5
4E19
331
4784
  5
4793
331
4D90
  5
4D94
331
478C
  5
479C
331
4716
  5
4719
331
474D
  5
4757
331
4D98
  5
4D9C
331
4D2A
  5
4D2E
331
4D59
  5
4D5D
331
4794
  5
47A2
331
4755
  5
4761
331
4D32
  5
4D36
331
4D61
  5
4D65
331
4DA0
  5
4DA4
331
4726
  5
472F
331
4D3A
  5
4D3E
331
4DA8
  5
4DAC
331
472E
  5
4736
331
4765
  5
4770
331
4CD3
  5
4CE4
331
4D71
  5
4D75
331
4DB0
  5
4DB4
331
4D42
  5
4D46
331
4736
  5
473E
331
476D
  5
4778
331
47AC
  5
4CC4
331
4CDB
  5
4740
331
4D4A
  5
4D4E
331
4D79
  5
4D7D
331
4DB8
  5
4DBC
331
473E
  5
4747
331
4775
  5
4783
331
4D52
  5
4D56
331
4D81
  5
4D85
331
4DC0
  5
4DC4
331
4746
  5
4750
331
477D
  5
478A
331
4D89
  5
4D8D
331
4DC8
  5
4E1A
331
23
  5
3FD3
331
4785
  5
4794
331
4D91
  5
4D95
331
4D23
  5
4D27
331
478D
  5
479D
331
4717
  5
471B
331
474E
  5
4758
331
4D99
  5
4D9D
331
4D2B
  5
4D2F
331
4D5A
  5
4D5E
331
471F
  5
4727
331
4795
  5
47A3
331
4D33
  5
4D37
331
4D62
  5
4D66
331
4DA1
  5
4DA5
331
479D
  5
47AB
331
4727
  5
4730
331
475E
  5
4769
331
4D3B
  5
4D3F
331
4DA9
  5
4DAD
331
47A5
  5
47B7
331
472F
  5
4737
331
4766
  5
4771
331
4CD4
  5
4CE6
331
4D72
  5
4D76
331
4DB1
  5
4DB5
331
4D43
  5
4D47
331
4737
  5
473F
331
476E
  5
4779
331
4D7A
  5
4D7E
331
4DB9
  5
4DBD
331
473F
  5
4748
331
4776
  5
4784
331
4CE4
  5
471D
331
4D4B
  5
4D4F
331
4747
  5
4751
331
477E
  5
478B
331
4D53
  5
4D57
331
4D82
  5
4D86
331
4DC1
  5
4DC5
331
4786
  5
4795
331
4D8A
  5
4D8E
331
4DC9
  5
4E1B
331
4D92
  5
4D96
331
4D24
  5
4D28
331
474F
  5
4759
331
4718
  5
471F
331
478E
  5
479E
331
4D9A
  5
4D9E
331
4D2C
  5
4D30
331
4D5B
  5
4D5F
331
4796
  5
47A4
331
4720
  5
4728
331
4757
  5
4762
331
4CCD
  5
4CDA
331
4D34
  5
4D38
331
4D63
  5
4D67
331
4DA2
  5
4DA6
331
479E
  5
47AC
331
4728
  5
4731
331
475F
  5
476A
331
4CD5
  5
4CE8
331
4D3C
  5
4D40
331
4DAA
  5
4DAE
331
47A6
  5
47B8
331
4767
  5
4772
331
4D73
  5
4D77
331
4DB2
  5
4DB6
331
4730
  5
4738
331
4CDD
  5
4D1D
331
4D44
  5
4D48
331
4738
  5
4741
331
476F
  5
477B
331
47AE
  5
4CD4
331
4E19
  5
471C
331
4D4C
  5
4D50
331
4D7B
  5
4D7F
331
4DBA
  5
4DBE
331
4740
  5
4749
331
4777
  5
4785
331
4D54
  5
4D58
331
4D83
  5
4D87
331
4DC2
  5
4DC6
331
477F
  5
478C
331
4D1D
  5
4D21
331
4DCA
  5
4E1C
331
4D93
  5
4D97
331
4D25
  5
4D29
331
478F
  5
47A0
331
4719
  5
4722
331
4750
  5
475A
331
4D9B
  5
4D9F
331
4D2D
  5
4D31
331
4D5C
  5
4D60
331
4797
  5
47A5
331
4721
  5
4729
331
4758
  5
4763
331
4CCE
  5
4CDB
331
4D35
  5
4D39
331
4D64
  5
4D68
331
4DA3
  5
4DA7
331
479F
  5
47AD
331
4760
  5
476B
331
4CD6
  5
4D18
331
4D3D
  5
4D41
331
4DAB
  5
4DAF
331
47A7
  5
4CC1
331
4D74
  5
4D78
331
4DB3
  5
4DB7
331
4731
  5
4739
331
4768
  5
4773
331
4D45
  5
4D49
331
4739
  5
4742
331
4770
  5
477C
331
4E1A
  5
4720
331
4CE6
  5
475E
331
4D4D
  5
4D51
331
4D7C
  5
4D80
331
4DBB
  5
4DBF
331
4741
  5
474A
331
4D55
  5
4D59
331
4D84
  5
4D88
331
4DC3
  5
4DC7
331
4780
  5
478D
331
4D1E
  5
4D23
331
4D94
  5
4D98
331
4788
  5
4799
331
4749
  5
4752
331
4D26
  5
4D2A
331
471A
  5
4723
331
4751
  5
475B
331
4D9C
  5
4DA0
331
4D2E
  5
4D32
331
4D5D
  5
4D61
331
4798
  5
47A6
331
4722
  5
472A
331
4759
  5
4764
331
4CCF
  5
4CDD
331
4D36
  5
4D3A
331
4D65
  5
4D69
331
4DA4
  5
4DA8
331
47A0
  5
47AF
331
472A
  5
4732
331
4761
  5
476C
331
4CD7
  5
4D19
331
4D3E
  5
4D42
331
4D6D
  5
4D71
331
4DAC
  5
4DB0
331
4D75
  5
4D79
331
4DB4
  5
4DB8
331
1F
  5
30B2
331
4732
  5
473A
331
4769
  5
4774
331
47A8
  5
4CC2
331
4CDF
  5
477F
331
4D46
  5
4D4A
331
473A
  5
4743
331
4771
  5
477D
331
4E1B
  5
471A
331
4D4E
  5
4D52
331
4D7D
  5
4D81
331
4DBC
  5
4DC0
331
4742
  5
474B
331
4779
  5
4786
331
4D56
  5
4D5A
331
4D85
  5
4D89
331
4DC4
  5
4DC8
331
4781
  5
478E
331
4D1F
  5
4D24
331
4D95
  5
4D99
331
474A
  5
4753
331
4D27
  5
4D2B
331
471B
  5
4724
331
4752
  5
475C
331
4D9D
  5
4DA1
331
4D2F
  5
4D33
331
4D5E
  5
4D62
331
4723
  5
472B
331
4799
  5
47A7
331
4CD0
  5
4CDF
331
4D37
  5
4D3B
331
4D66
  5
4D6A
331
4DA5
  5
4DA9
331
47A1
  5
47B1
331
472B
  5
4733
331
4762
  5
476D
331
4D3F
  5
4D43
331
4D6E
  5
4D72
331
4DAD
  5
4DB1
331
4D76
  5
4D7A
331
4DB5
  5
4DB9
331
4733
  5
473B
331
476A
  5
4775
331
4D47
  5
4D4B
331
473B
  5
4744
331
4772
  5
477E
331
47B1
  5
4CD5
331
4E1C
  5
471E
331
4D4F
  5
4D53
331
4D7E
  5
4D82
331
4DBD
  5
4DC1
331
4CE8
  5
4756
331
4743
  5
474C
331
477A
  5
4787
331
4D18
  5
4D1F
331
4D57
  5
4D5B
331
4D86
  5
4D8A
331
4DC5
  5
4DC9
331
20
  5
3F70
331
4782
  5
478F
331
4D96
  5
4D9A
  0
GROUP
  5
CFC
102
{ACAD_REACTORS
330
18
102
}
330
18
100
AcDbGroup
300

 70
     1
 71
     1
  0
GROUP
  5
2E88
102
{ACAD_REACTORS
330
18
102
}
330
18
100
AcDbGroup
300

 70
     1
 71
     1
  0
GROUP
  5
15D1
102
{ACAD_REACTORS
330
18
102
}
330
18
100
AcDbGroup
300

 70
     1
 71
     1
  0
GROUP
  5
1682
102
{ACAD_REACTORS
330
18
102
}
330
18
100
AcDbGroup
300

 70
     1
 71
     1
  0
GROUP
  5
1827
102
{ACAD_REACTORS
330
18
102
}
330
18
100
AcDbGroup
300

 70
     1
 71
     1
  0
GROUP
  5
18ED
102
{ACAD_REACTORS
330
18
102
}
330
18
100
AcDbGroup
300

 70
     1
 71
     1
  0
GROUP
  5
19E5
102
{ACAD_REACTORS
330
18
102
}
330
18
100
AcDbGroup
300

 70
     1
 71
     1
  0
GROUP
  5
1F8A
102
{ACAD_REACTORS
330
18
102
}
330
18
100
AcDbGroup
300

 70
     1
 71
     1
  0
GROUP
  5
2108
102
{ACAD_REACTORS
330
18
102
}
330
18
100
AcDbGroup
300

 70
     1
 71
     1
  0
GROUP
  5
2FF8
102
{ACAD_REACTORS
330
18
102
}
330
18
100
AcDbGroup
300

 70
     1
 71
     1
  0
GROUP
  5
218C
102
{ACAD_REACTORS
330
18
102
}
330
18
100
AcDbGroup
300

 70
     1
 71
     1
  0
GROUP
  5
2335
102
{ACAD_REACTORS
330
18
102
}
330
18
100
AcDbGroup
300

 70
     1
 71
     1
  0
GROUP
  5
2862
102
{ACAD_REACTORS
330
18
102
}
330
18
100
AcDbGroup
300

 70
     1
 71
     1
  0
GROUP
  5
299B
102
{ACAD_REACTORS
330
18
102
}
330
18
100
AcDbGroup
300

 70
     1
 71
     1
  0
GROUP
  5
2C07
102
{ACAD_REACTORS
330
18
102
}
330
18
100
AcDbGroup
300

 70
     1
 71
     1
  0
GROUP
  5
2DB5
102
{ACAD_REACTORS
330
18
102
}
330
18
100
AcDbGroup
300

 70
     1
 71
     1
  0
LAYOUT
  5
5A
102
{ACAD_XDICTIONARY
360
4E38
102
}
102
{ACAD_REACTORS
330
58
102
}
330
58
100
AcDbPlotSettings
  1

  2
none_device
  4
Letter_(8.50_x_11.00_Inches)
  6

 40
6.349999904632568
 41
6.349999904632568
 42
6.350006103515625
 43
6.350006103515625
 44
215.8999938964844
 45
279.3999938964844
 46
0.0
 47
0.0
 48
0.0
 49
0.0
140
0.0
141
0.0
142
1.0
143
31.42690824109359
 70
 11952
 72
     0
 73
     1
 74
     0
  7
monochrome.ctb
 75
     0
147
0.0318198657127973
148
-5458.898172012973
149
493.9507553935718
100
AcDbLayout
  1
Model
 70
     1
 71
     0
 10
0.0
 20
0.0
 11
12.0
 21
9.0
 12
0.0
 22
0.0
 32
0.0
 14
0.0
 24
0.0
 34
0.0
 15
0.0
 25
0.0
 35
0.0
146
0.0
 13
0.0
 23
0.0
 33
0.0
 16
1.0
 26
0.0
 36
0.0
 17
0.0
 27
1.0
 37
0.0
 76
     0
330
2
1001
ACAD_PSEXT
1000
なし
1000
なし
1000
適切ではありません
1000
新しいプロッタ環境設定名を選択しない限り、レイアウトは印刷されません。
1070
     0
  0
LAYOUT
  5
5B
102
{ACAD_XDICTIONARY
360
4E3A
102
}
102
{ACAD_REACTORS
330
58
102
}
330
58
100
AcDbPlotSettings
  1

  2
なし
  4

  6

 40
0.0
 41
0.0
 42
0.0
 43
0.0
 44
0.0
 45
0.0
 46
0.0
 47
0.0
 48
0.0
 49
0.0
140
0.0
141
0.0
142
1.0
143
1.0
 70
   688
 72
     0
 73
     0
 74
     5
  7
monochrome.ctb
 75
    16
147
1.0
148
0.0
149
0.0
100
AcDbLayout
  1
ﾚｲｱｳﾄ1
 70
     1
 71
     1
 10
0.0
 20
0.0
 11
12.0
 21
9.0
 12
0.0
 22
0.0
 32
0.0
 14
1.000000000000000E+20
 24
1.000000000000000E+20
 34
1.000000000000000E+20
 15
-1.000000000000000E+20
 25
-1.000000000000000E+20
 35
-1.000000000000000E+20
146
0.0
 13
0.0
 23
0.0
 33
0.0
 16
1.0
 26
0.0
 36
0.0
 17
0.0
 27
1.0
 37
0.0
 76
     0
330
7
  0
MLINESTYLE
  5
1D
102
{ACAD_REACTORS
330
19
102
}
330
19
100
AcDbMlineStyle
  2
STANDARD
 70
     0
  3

 62
   256
 51
90.0
 52
90.0
 71
     2
 49
0.5
 62
   256
  6
BYLAYER
 49
-0.5
 62
   256
  6
BYLAYER
  0
ACDBPLACEHOLDER
  5
57
102
{ACAD_REACTORS
330
56
102
}
330
56
  0
TABLESTYLE
  5
146
102
{ACAD_REACTORS
330
145
102
}
330
145
100
AcDbTableStyle
  3
Standard
 70
     0
 71
     0
 40
0.06
 41
0.06
280
     0
281
     0
  7
STANDARD
140
0.18
170
     2
 62
     0
 63
     7
283
     0
274
    -2
284
     1
 64
     0
275
    -2
285
     1
 65
     0
276
    -2
286
     1
 66
     0
277
    -2
287
     1
 67
     0
278
    -2
288
     1
 68
     0
279
    -2
289
     1
 69
     0
  7
STANDARD
140
0.25
170
     5
 62
     0
 63
     7
283
     0
274
    -2
284
     1
 64
     0
275
    -2
285
     1
 65
     0
276
    -2
286
     1
 66
     0
277
    -2
287
     1
 67
     0
278
    -2
288
     1
 68
     0
279
    -2
289
     1
 69
     0
  7
STANDARD
140
0.18
170
     5
 62
     0
 63
     7
283
     0
274
    -2
284
     1
 64
     0
275
    -2
285
     1
 65
     0
276
    -2
286
     1
 66
     0
277
    -2
287
     1
 67
     0
278
    -2
288
     1
 68
     0
279
    -2
289
     1
 69
     0
  0
DICTIONARYVAR
  5
1D2
102
{ACAD_REACTORS
330
1D1
102
}
330
1D1
100
DictionaryVariables
280
     0
  1
STANDARD
  0
DICTIONARYVAR
  5
D03
102
{ACAD_REACTORS
330
1D1
102
}
330
1D1
100
DictionaryVariables
280
     0
  1
1
  0
DICTIONARYVAR
  5
D04
102
{ACAD_REACTORS
330
1D1
102
}
330
1D1
100
DictionaryVariables
280
     0
  1

  0
DICTIONARY
  5
4E38
330
5A
100
AcDbDictionary
280
     1
281
     1
  3
ACAD_XREC_ROUNDTRIP
360
4E39
  0
DICTIONARY
  5
4E3A
330
5B
100
AcDbDictionary
280
     1
281
     1
  3
ACAD_XREC_ROUNDTRIP
360
4E3B
  0
XRECORD
  5
4E39
102
{ACAD_REACTORS
330
4E38
102
}
330
4E38
100
AcDbXrecord
280
     1
102
SHADEPLOT
 70
     0
102
SHADEPLOTRESLEVEL
 70
     2
102
SHADEPLOTCUSTOMDPI
 70
   300
  0
XRECORD
  5
4E3B
102
{ACAD_REACTORS
330
4E3A
102
}
330
4E3A
100
AcDbXrecord
280
     1
102
SHADEPLOT
 70
     0
102
SHADEPLOTRESLEVEL
 70
     2
102
SHADEPLOTCUSTOMDPI
 70
   300
  0
ENDSEC
  0
EOF
