  0
SECTION
  2
HEADER
  9
$ACADVER
  1
AC1015
  9
$ACADMAINTVER
 70
    20
  9
$DWGCODEPAGE
  3
ANSI_932
  9
$INSBASE
 10
922.019522
 20
-675.4306699999999
 30
0.0
  9
$EXTMIN
 10
-219.5738864523364
 20
0.0
 30
0.0
  9
$EXTMAX
 10
326.8109897219886
 20
222.0903923950619
 30
0.0
  9
$LIMMIN
 10
0.0
 20
0.0
  9
$LIMMAX
 10
420.0
 20
297.0
  9
$ORTHOMODE
 70
     0
  9
$REGENMODE
 70
     1
  9
$FILLMODE
 70
     1
  9
$QTEXTMODE
 70
     0
  9
$MIRRTEXT
 70
     1
  9
$LTSCALE
 40
1.0
  9
$ATTMODE
 70
     1
  9
$TEXTSIZE
 40
30.0
  9
$TRACEWID
 40
0.05
  9
$TEXTSTYLE
  7
SUNPOU
  9
$CLAYER
  8
0
  9
$CELTYPE
  6
BYLAYER
  9
$CECOLOR
 62
   256
  9
$CELTSCALE
 40
1.0
  9
$DISPSILH
 70
     0
  9
$DIMSCALE
 40
1.0
  9
$DIMASZ
 40
2.0
  9
$DIMEXO
 40
10.0
  9
$DIMDLI
 40
0.38
  9
$DIMRND
 40
0.0
  9
$DIMDLE
 40
0.0
  9
$DIMEXE
 40
0.0
  9
$DIMTP
 40
0.0
  9
$DIMTM
 40
0.0
  9
$DIMTXT
 40
10.0
  9
$DIMCEN
 40
0.0
  9
$DIMTSZ
 40
0.0
  9
$DIMTOL
 70
     0
  9
$DIMLIM
 70
     0
  9
$DIMTIH
 70
     0
  9
$DIMTOH
 70
     0
  9
$DIMSE1
 70
     0
  9
$DIMSE2
 70
     0
  9
$DIMTAD
 70
     1
  9
$DIMZIN
 70
     0
  9
$DIMBLK
  1
Dot
  9
$DIMASO
 70
     1
  9
$DIMSHO
 70
     1
  9
$DIMPOST
  1

  9
$DIMAPOST
  1

  9
$DIMALT
 70
     0
  9
$DIMALTD
 70
     2
  9
$DIMALTF
 40
25.4
  9
$DIMLFAC
 40
1.0
  9
$DIMTOFL
 70
     0
  9
$DIMTVP
 40
0.0
  9
$DIMTIX
 70
     0
  9
$DIMSOXD
 70
     0
  9
$DIMSAH
 70
     0
  9
$DIMBLK1
  1

  9
$DIMBLK2
  1

  9
$DIMSTYLE
  2
STANDARD
  9
$DIMCLRD
 70
    60
  9
$DIMCLRE
 70
    70
  9
$DIMCLRT
 70
    60
  9
$DIMTFAC
 40
0.064286
  9
$DIMGAP
 40
3.0
  9
$DIMJUST
 70
     0
  9
$DIMSD1
 70
     0
  9
$DIMSD2
 70
     0
  9
$DIMTOLJ
 70
     1
  9
$DIMTZIN
 70
     0
  9
$DIMALTZ
 70
     0
  9
$DIMALTTZ
 70
     0
  9
$DIMUPT
 70
     0
  9
$DIMDEC
 70
     0
  9
$DIMTDEC
 70
     0
  9
$DIMALTU
 70
     2
  9
$DIMALTTD
 70
     2
  9
$DIMTXSTY
  7
SUNPOU
  9
$DIMAUNIT
 70
     0
  9
$DIMADEC
 70
     0
  9
$DIMALTRND
 40
0.0
  9
$DIMAZIN
 70
     0
  9
$DIMDSEP
 70
    46
  9
$DIMATFIT
 70
     3
  9
$DIMFRAC
 70
     0
  9
$DIMLDRBLK
  1

  9
$DIMLUNIT
 70
     2
  9
$DIMLWD
 70
    -2
  9
$DIMLWE
 70
    -2
  9
$DIMTMOVE
 70
     0
  9
$LUNITS
 70
     2
  9
$LUPREC
 70
     5
  9
$SKETCHINC
 40
0.1
  9
$FILLETRAD
 40
0.0
  9
$AUNITS
 70
     0
  9
$AUPREC
 70
     0
  9
$MENU
  1
acad
  9
$ELEVATION
 40
0.0
  9
$PELEVATION
 40
0.0
  9
$THICKNESS
 40
0.0
  9
$LIMCHECK
 70
     0
  9
$CHAMFERA
 40
0.0
  9
$CHAMFERB
 40
0.0
  9
$CHAMFERC
 40
0.0
  9
$CHAMFERD
 40
0.0
  9
$SKPOLY
 70
     0
  9
$TDCREATE
 40
2450623.654673033
  9
$TDUCREATE
 40
2450623.279673032
  9
$TDUPDATE
 40
2415386.065966076
  9
$TDUUPDATE
 40
2415385.690966076
  9
$TDINDWG
 40
1.1876079861
  9
$TDUSRTIMER
 40
1.1876078125
  9
$USRTIMER
 70
     1
  9
$ANGBASE
 50
0.0
  9
$ANGDIR
 70
     0
  9
$PDMODE
 70
     0
  9
$PDSIZE
 40
0.0
  9
$PLINEWID
 40
0.0
  9
$SPLFRAME
 70
     0
  9
$SPLINETYPE
 70
     6
  9
$SPLINESEGS
 70
     8
  9
$HANDSEED
  5
470A
  9
$SURFTAB1
 70
     6
  9
$SURFTAB2
 70
     6
  9
$SURFTYPE
 70
     6
  9
$SURFU
 70
     6
  9
$SURFV
 70
     6
  9
$UCSBASE
  2

  9
$UCSNAME
  2

  9
$UCSORG
 10
0.0
 20
0.0
 30
0.0
  9
$UCSXDIR
 10
1.0
 20
0.0
 30
0.0
  9
$UCSYDIR
 10
0.0
 20
1.0
 30
0.0
  9
$UCSORTHOREF
  2

  9
$UCSORTHOVIEW
 70
     0
  9
$UCSORGTOP
 10
0.0
 20
0.0
 30
0.0
  9
$UCSORGBOTTOM
 10
0.0
 20
0.0
 30
0.0
  9
$UCSORGLEFT
 10
0.0
 20
0.0
 30
0.0
  9
$UCSORGRIGHT
 10
0.0
 20
0.0
 30
0.0
  9
$UCSORGFRONT
 10
0.0
 20
0.0
 30
0.0
  9
$UCSORGBACK
 10
0.0
 20
0.0
 30
0.0
  9
$PUCSBASE
  2

  9
$PUCSNAME
  2

  9
$PUCSORG
 10
0.0
 20
0.0
 30
0.0
  9
$PUCSXDIR
 10
1.0
 20
0.0
 30
0.0
  9
$PUCSYDIR
 10
0.0
 20
1.0
 30
0.0
  9
$PUCSORTHOREF
  2

  9
$PUCSORTHOVIEW
 70
     0
  9
$PUCSORGTOP
 10
0.0
 20
0.0
 30
0.0
  9
$PUCSORGBOTTOM
 10
0.0
 20
0.0
 30
0.0
  9
$PUCSORGLEFT
 10
0.0
 20
0.0
 30
0.0
  9
$PUCSORGRIGHT
 10
0.0
 20
0.0
 30
0.0
  9
$PUCSORGFRONT
 10
0.0
 20
0.0
 30
0.0
  9
$PUCSORGBACK
 10
0.0
 20
0.0
 30
0.0
  9
$USERI1
 70
     0
  9
$USERI2
 70
     0
  9
$USERI3
 70
     0
  9
$USERI4
 70
     0
  9
$USERI5
 70
     0
  9
$USERR1
 40
0.0
  9
$USERR2
 40
0.0
  9
$USERR3
 40
0.0
  9
$USERR4
 40
0.0
  9
$USERR5
 40
0.0
  9
$WORLDVIEW
 70
     1
  9
$SHADEDGE
 70
     3
  9
$SHADEDIF
 70
    70
  9
$TILEMODE
 70
     1
  9
$MAXACTVP
 70
    16
  9
$PINSBASE
 10
0.0
 20
0.0
 30
0.0
  9
$PLIMCHECK
 70
     0
  9
$PEXTMIN
 10
1.000000000000000E+20
 20
1.000000000000000E+20
 30
1.000000000000000E+20
  9
$PEXTMAX
 10
-1.000000000000000E+20
 20
-1.000000000000000E+20
 30
-1.000000000000000E+20
  9
$PLIMMIN
 10
0.0
 20
0.0
  9
$PLIMMAX
 10
12.0
 20
9.0
  9
$UNITMODE
 70
     0
  9
$VISRETAIN
 70
     0
  9
$PLINEGEN
 70
     0
  9
$PSLTSCALE
 70
     1
  9
$TREEDEPTH
 70
  3020
  9
$CMLSTYLE
  2
STANDARD
  9
$CMLJUST
 70
     0
  9
$CMLSCALE
 40
1.0
  9
$PROXYGRAPHICS
 70
     1
  9
$MEASUREMENT
 70
     0
  9
$CELWEIGHT
370
    -1
  9
$ENDCAPS
280
     0
  9
$JOINSTYLE
280
     0
  9
$LWDISPLAY
290
     0
  9
$INSUNITS
 70
     0
  9
$HYPERLINKBASE
  1

  9
$STYLESHEET
  1
monochrome.ctb
  9
$XEDIT
290
     1
  9
$CEPSNTYPE
380
     0
  9
$PSTYLEMODE
290
     1
  9
$FINGERPRINTGUID
  2
{FB88A696-E29C-4009-92AF-A3599A8169D5}
  9
$VERSIONGUID
  2
{1FDA4130-F178-49F3-9663-F332B86575AC}
  9
$EXTNAMES
290
     1
  9
$PSVPSCALE
 40
0.0
  9
$OLESTARTUP
290
     0
  0
ENDSEC
  0
SECTION
  2
CLASSES
  0
CLASS
  1
DICTIONARYVAR
  2
AcDbDictionaryVar
  3
ObjectDBX Classes
 90
        0
280
     0
281
     0
  0
CLASS
  1
ACDBDICTIONARYWDFLT
  2
AcDbDictionaryWithDefault
  3
ObjectDBX Classes
 90
        0
280
     0
281
     0
  0
CLASS
  1
ACDBPLACEHOLDER
  2
AcDbPlaceHolder
  3
ObjectDBX Classes
 90
        0
280
     0
281
     0
  0
CLASS
  1
LAYOUT
  2
AcDbLayout
  3
ObjectDBX Classes
 90
        0
280
     0
281
     0
  0
CLASS
  1
TABLESTYLE
  2
AcDbTableStyle
  3
ObjectDBX Classes
 90
     2047
280
     0
281
     0
  0
CLASS
  1
SORTENTSTABLE
  2
AcDbSortentsTable
  3
ObjectDBX Classes
 90
        0
280
     0
281
     0
  0
ENDSEC
  0
SECTION
  2
TABLES
  0
TABLE
  2
VPORT
  5
12
330
0
100
AcDbSymbolTable
 70
     2
  0
VPORT
  5
4704
330
12
100
AcDbSymbolTableRecord
100
AcDbViewportTableRecord
  2
*Active
 70
     0
 10
0.0
 20
0.0
 11
1.0
 21
1.0
 12
53.61451929726399
 22
111.3267998047392
 13
0.0
 23
0.0
 14
1.0
 24
1.0
 15
0.0
 25
0.0
 16
0.0
 26
0.0
 36
1.0
 17
0.0
 27
0.0
 37
0.0
 40
344.6014456992966
 41
1.593464052287581
 42
50.0
 43
0.0
 44
0.0
 50
0.0
 51
0.0
 71
     0
 72
 20000
 73
     1
 74
     1
 75
     0
 76
     0
 77
     0
 78
     0
281
     0
 65
     1
110
0.0
120
0.0
130
0.0
111
1.0
121
0.0
131
0.0
112
0.0
122
1.0
132
0.0
 79
     0
146
0.0
  0
ENDTAB
  0
TABLE
  2
LTYPE
  5
D
330
0
100
AcDbSymbolTable
 70
     1
  0
LTYPE
  5
E
330
D
100
AcDbSymbolTableRecord
100
AcDbLinetypeTableRecord
  2
BYBLOCK
 70
     0
  3

 72
    65
 73
     0
 40
0.0
  0
LTYPE
  5
F
330
D
100
AcDbSymbolTableRecord
100
AcDbLinetypeTableRecord
  2
BYLAYER
 70
     0
  3

 72
    65
 73
     0
 40
0.0
  0
LTYPE
  5
5
330
D
100
AcDbSymbolTableRecord
100
AcDbLinetypeTableRecord
  2
CONTINUOUS
 70
     0
  3
Solid line
 72
    65
 73
     0
 40
0.0
  0
ENDTAB
  0
TABLE
  2
LAYER
  5
A
102
{ACAD_XDICTIONARY
360
1B4
102
}
330
0
100
AcDbSymbolTable
 70
     6
  0
LAYER
  5
4
330
A
100
AcDbSymbolTableRecord
100
AcDbLayerTableRecord
  2
0
 70
     0
 62
     7
  6
CONTINUOUS
370
    -3
390
57
  0
LAYER
  5
25
330
A
100
AcDbSymbolTableRecord
100
AcDbLayerTableRecord
  2
KIJUN
 70
     0
 62
     7
  6
CONTINUOUS
370
    50
390
57
  0
LAYER
  5
22
330
A
100
AcDbSymbolTableRecord
100
AcDbLayerTableRecord
  2
HOJO
 70
     0
 62
     3
  6
CONTINUOUS
370
    20
390
57
  0
LAYER
  5
1B
330
A
100
AcDbSymbolTableRecord
100
AcDbLayerTableRecord
  2
WAKU
 70
     0
 62
     1
  6
CONTINUOUS
370
    -3
390
57
  0
LAYER
  5
31
330
A
100
AcDbSymbolTableRecord
100
AcDbLayerTableRecord
  2
DEFPOINTS
 70
     0
 62
     7
  6
CONTINUOUS
290
     0
370
    -3
390
57
  0
LAYER
  5
28
330
A
100
AcDbSymbolTableRecord
100
AcDbLayerTableRecord
  2
SUNPOU
 70
     0
 62
    70
  6
CONTINUOUS
370
    20
390
57
  0
ENDTAB
  0
TABLE
  2
STYLE
  5
B
330
0
100
AcDbSymbolTable
 70
     2
  0
STYLE
  5
C
330
B
100
AcDbSymbolTableRecord
100
AcDbTextStyleTableRecord
  2
STANDARD
 70
     0
 40
0.0
 41
1.0
 50
0.0
 71
     0
 42
0.2
  3
txt
  4

  0
STYLE
  5
1C
330
B
100
AcDbSymbolTableRecord
100
AcDbTextStyleTableRecord
  2
SUNPOU
 70
     0
 40
0.0
 41
1.0
 50
0.0
 71
     0
 42
30.0
  3
txt
  4
bigfont
  0
ENDTAB
  0
TABLE
  2
VIEW
  5
10
330
0
100
AcDbSymbolTable
 70
     0
  0
ENDTAB
  0
TABLE
  2
UCS
  5
11
330
0
100
AcDbSymbolTable
 70
     0
  0
ENDTAB
  0
TABLE
  2
APPID
  5
14
330
0
100
AcDbSymbolTable
 70
    11
  0
APPID
  5
15
330
14
100
AcDbSymbolTableRecord
100
AcDbRegAppTableRecord
  2
ACAD
 70
     0
  0
APPID
  5
1D3
330
14
100
AcDbSymbolTableRecord
100
AcDbRegAppTableRecord
  2
ACAD_DSTYLE_DIMTEXT_FILL
 70
     0
  0
APPID
  5
1D4
330
14
100
AcDbSymbolTableRecord
100
AcDbRegAppTableRecord
  2
ACAD_DSTYLE_DIMEXT_LENGTH
 70
     0
  0
APPID
  5
1D5
330
14
100
AcDbSymbolTableRecord
100
AcDbRegAppTableRecord
  2
ACAD_DSTYLE_DIMEXT_ENABLED
 70
     0
  0
APPID
  5
1D6
330
14
100
AcDbSymbolTableRecord
100
AcDbRegAppTableRecord
  2
ACAD_DSTYLE_DIM_LINETYPE
 70
     0
  0
APPID
  5
1D7
330
14
100
AcDbSymbolTableRecord
100
AcDbRegAppTableRecord
  2
ACAD_DSTYLE_DIM_EXT1_LINETYPE
 70
     0
  0
APPID
  5
1D8
330
14
100
AcDbSymbolTableRecord
100
AcDbRegAppTableRecord
  2
ACAD_DSTYLE_DIM_EXT2_LINETYPE
 70
     0
  0
APPID
  5
294
330
14
100
AcDbSymbolTableRecord
100
AcDbRegAppTableRecord
  2
ACAD_DSTYLE_DIMJOGGED_JOGANGLE_SYMBOL
 70
     0
  0
APPID
  5
478
330
14
100
AcDbSymbolTableRecord
100
AcDbRegAppTableRecord
  2
ACAD_DSTYLE_DIMARC_LENGTH_SYMBOL
 70
     0
  0
APPID
  5
157B
330
14
100
AcDbSymbolTableRecord
100
AcDbRegAppTableRecord
  2
ACAD_EXEMPT_FROM_CAD_STANDARDS
 70
     0
  0
APPID
  5
2F1F
330
14
100
AcDbSymbolTableRecord
100
AcDbRegAppTableRecord
  2
ACAD_PSEXT
 70
     0
  0
ENDTAB
  0
TABLE
  2
DIMSTYLE
  5
16
330
0
100
AcDbSymbolTable
 70
     1
100
AcDbDimStyleTable
 71
     1
340
1E
  0
DIMSTYLE
105
1E
102
{ACAD_REACTORS
330
3F6F
330
3F70
102
}
330
16
100
AcDbSymbolTableRecord
100
AcDbDimStyleTableRecord
  2
STANDARD
 70
     0
340
C
  0
ENDTAB
  0
TABLE
  2
BLOCK_RECORD
  5
1
330
0
100
AcDbSymbolTable
 70
     3
  0
BLOCK_RECORD
  5
2
102
{ACAD_XDICTIONARY
360
1578
102
}
330
1
100
AcDbSymbolTableRecord
100
AcDbBlockTableRecord
  2
*MODEL_SPACE
340
5A
  0
BLOCK_RECORD
  5
7
330
1
100
AcDbSymbolTableRecord
100
AcDbBlockTableRecord
  2
*PAPER_SPACE
340
5B
  0
BLOCK_RECORD
  5
109
330
1
100
AcDbSymbolTableRecord
100
AcDbBlockTableRecord
  2
_Dot
340
0
102
{BLKREFS
331
46EB
331
46EC
331
46F4
331
46F5
102
}
  0
BLOCK_RECORD
  5
3F71
330
1
100
AcDbSymbolTableRecord
100
AcDbBlockTableRecord
  2
*D1
340
0
  0
BLOCK_RECORD
  5
3F7D
330
1
100
AcDbSymbolTableRecord
100
AcDbBlockTableRecord
  2
*D2
340
0
  0
ENDTAB
  0
ENDSEC
  0
SECTION
  2
BLOCKS
  0
BLOCK
  5
3
330
2
100
AcDbEntity
  8
0
100
AcDbBlockBegin
  2
*MODEL_SPACE
 70
     0
 10
0.0
 20
0.0
 30
0.0
  3
*MODEL_SPACE
  1

  0
ENDBLK
  5
6
330
2
100
AcDbEntity
  8
0
100
AcDbBlockEnd
  0
BLOCK
  5
8
330
7
100
AcDbEntity
 67
     1
  8
0
100
AcDbBlockBegin
  2
*PAPER_SPACE
 70
     0
 10
0.0
 20
0.0
 30
0.0
  3
*PAPER_SPACE
  1

  0
ENDBLK
  5
9
330
7
100
AcDbEntity
 67
     1
  8
0
100
AcDbBlockEnd
  0
BLOCK
  5
10C
330
109
100
AcDbEntity
  8
0
100
AcDbBlockBegin
  2
_Dot
 70
     0
 10
0.0
 20
0.0
 30
0.0
  3
_Dot
  1

  0
LWPOLYLINE
  5
10A
330
109
100
AcDbEntity
  8
0
  6
ByBlock
 62
     0
100
AcDbPolyline
 90
        2
 70
     1
 43
0.5
 10
-0.25
 20
0.0
 42
1.0
 10
0.25
 20
0.0
 42
1.0
  0
LINE
  5
10B
330
109
100
AcDbEntity
  8
0
  6
ByBlock
 62
     0
370
    -2
100
AcDbLine
 10
-0.5
 20
0.0
 30
0.0
 11
-1.0
 21
0.0
 31
0.0
  0
ENDBLK
  5
10D
330
109
100
AcDbEntity
  8
0
100
AcDbBlockEnd
  0
BLOCK
  5
3F7B
330
3F71
100
AcDbEntity
  8
0
100
AcDbBlockBegin
  2
*D1
 70
     1
 10
0.0
 20
0.0
 30
0.0
  3
*D1
  1

  0
LINE
  5
46E8
330
3F71
100
AcDbEntity
  8
SUNPOU
 62
    70
370
    -2
100
AcDbLine
 10
-170.1890102780116
 20
80.51659081020133
 30
0.0
 11
-170.1890102780116
 21
213.0903923950618
 31
0.0
  0
LINE
  5
46E9
330
3F71
100
AcDbEntity
  8
SUNPOU
 62
    70
370
    -2
100
AcDbLine
 10
325.8109897219886
 20
80.51659081020133
 30
0.0
 11
325.8109897219886
 21
213.0903923950618
 31
0.0
  0
LINE
  5
46EA
330
3F71
100
AcDbEntity
  8
SUNPOU
 62
    60
370
    -2
100
AcDbLine
 10
-168.1890102780116
 20
213.0903923950618
 30
0.0
 11
323.8109897219886
 21
213.0903923950618
 31
0.0
  0
INSERT
  5
46EB
330
3F71
100
AcDbEntity
  8
SUNPOU
 62
    60
370
    -2
100
AcDbBlockReference
  2
_Dot
 10
-170.1890102780116
 20
213.0903923950618
 30
0.0
 41
2.0
 42
2.0
 43
2.0
 50
180.0
  0
INSERT
  5
46EC
330
3F71
100
AcDbEntity
  8
SUNPOU
 62
    60
370
    -2
100
AcDbBlockReference
  2
_Dot
 10
325.8109897219886
 20
213.0903923950618
 30
0.0
 41
2.0
 42
2.0
 43
2.0
  0
MTEXT
  5
46ED
330
3F71
100
AcDbEntity
  8
SUNPOU
 62
    60
100
AcDbMText
 10
77.81098972198845
 20
218.5903923950618
 30
0.0
 40
7.0
 41
0.0
 71
     5
 72
     1
  1
\A1;496
  7
SUNPOU
 73
     1
 44
1.0
1001
ACAD
1000
MTEXTBEGIN
1070
    73
1070
     1
1070
    44
1040
1.0
1070
    74
1070
     0
1000
MTEXTEND
  0
POINT
  5
46EE
330
3F71
100
AcDbEntity
  8
DEFPOINTS
 62
     0
100
AcDbPoint
 10
-170.1890102780116
 20
75.51659081020133
 30
0.0
  0
POINT
  5
46EF
330
3F71
100
AcDbEntity
  8
DEFPOINTS
 62
     0
100
AcDbPoint
 10
325.8109897219886
 20
75.51659081020133
 30
0.0
  0
POINT
  5
46F0
330
3F71
100
AcDbEntity
  8
DEFPOINTS
 62
     0
100
AcDbPoint
 10
325.8109897219886
 20
213.0903923950618
 30
0.0
  0
ENDBLK
  5
3F7C
330
3F71
100
AcDbEntity
  8
0
100
AcDbBlockEnd
  0
BLOCK
  5
3F87
330
3F7D
100
AcDbEntity
  8
0
100
AcDbBlockBegin
  2
*D2
 70
     1
 10
0.0
 20
0.0
 30
0.0
  3
*D2
  1

  0
LINE
  5
46F1
330
3F7D
100
AcDbEntity
  8
SUNPOU
 62
    70
370
    -2
100
AcDbLine
 10
72.81098972198856
 20
171.8807048369066
 30
0.0
 11
-210.5738864523364
 21
171.8807048369068
 31
0.0
  0
LINE
  5
46F2
330
3F7D
100
AcDbEntity
  8
SUNPOU
 62
    70
370
    -2
100
AcDbLine
 10
-51.3729863064965
 20
46.88070483690673
 30
0.0
 11
-210.5738864523364
 21
46.88070483690677
 31
0.0
  0
LINE
  5
46F3
330
3F7D
100
AcDbEntity
  8
SUNPOU
 62
    60
370
    -2
100
AcDbLine
 10
-210.5738864523364
 20
169.8807048369068
 30
0.0
 11
-210.5738864523364
 21
48.88070483690677
 31
0.0
  0
INSERT
  5
46F4
330
3F7D
100
AcDbEntity
  8
SUNPOU
 62
    60
370
    -2
100
AcDbBlockReference
  2
_Dot
 10
-210.5738864523364
 20
171.8807048369068
 30
0.0
 41
2.0
 42
2.0
 43
2.0
 50
90.0
  0
INSERT
  5
46F5
330
3F7D
100
AcDbEntity
  8
SUNPOU
 62
    60
370
    -2
100
AcDbBlockReference
  2
_Dot
 10
-210.5738864523364
 20
46.88070483690677
 30
0.0
 41
2.0
 42
2.0
 43
2.0
 50
270.0
  0
MTEXT
  5
46F6
330
3F7D
100
AcDbEntity
  8
SUNPOU
 62
    60
100
AcDbMText
 10
-216.0738864523364
 20
109.3807048369067
 30
0.0
 40
7.0
 41
0.0
 71
     5
 72
     1
  1
\A1;125
  7
SUNPOU
 11
0.0000000000000001
 21
1.0
 31
0.0
 73
     1
 44
1.0
1001
ACAD
1000
MTEXTBEGIN
1070
    73
1070
     1
1070
    44
1040
1.0
1070
    74
1070
     0
1000
MTEXTEND
  0
POINT
  5
46F7
330
3F7D
100
AcDbEntity
  8
DEFPOINTS
 62
     0
100
AcDbPoint
 10
77.81098972198856
 20
171.8807048369066
 30
0.0
  0
POINT
  5
46F8
330
3F7D
100
AcDbEntity
  8
DEFPOINTS
 62
     0
100
AcDbPoint
 10
-46.3729863064965
 20
46.88070483690672
 30
0.0
  0
POINT
  5
46F9
330
3F7D
100
AcDbEntity
  8
DEFPOINTS
 62
     0
100
AcDbPoint
 10
-210.5738864523364
 20
46.88070483690677
 30
0.0
  0
ENDBLK
  5
3F88
330
3F7D
100
AcDbEntity
  8
0
100
AcDbBlockEnd
  0
ENDSEC
  0
SECTION
  2
ENTITIES
  0
LINE
  5
1F
330
2
100
AcDbEntity
  8
WAKU
100
AcDbLine
 10
0.0
 20
14.0
 30
0.0
 11
147.8933597240585
 21
13.99999999999999
 31
0.0
  0
LINE
  5
20
330
2
100
AcDbEntity
  8
WAKU
100
AcDbLine
 10
0.0
 20
0.0
 30
0.0
 11
147.8933597240585
 21
0.0
 31
0.0
  0
TEXT
  5
21
330
2
100
AcDbEntity
  8
HOJO
100
AcDbText
 10
9.653966000000025
 20
2.366626000000024
 30
0.0
 40
9.0
  1
TC465
  7
SUNPOU
100
AcDbText
  0
TEXT
  5
23
330
2
100
AcDbEntity
  8
HOJO
100
AcDbText
 10
85.84696046283864
 20
5.044386000000031
 30
0.0
 40
6.0
  1
496×125×15
  7
SUNPOU
100
AcDbText
  0
DIMENSION
  5
3F6F
330
2
100
AcDbEntity
  8
SUNPOU
100
AcDbDimension
  2
*D1
 10
325.8109897219886
 20
213.0903923950618
 30
0.0
 11
77.81098972198845
 21
218.5903923950618
 31
0.0
 70
    32
 71
     5
 42
496.0000000000002
  3
STANDARD
100
AcDbAlignedDimension
 13
-170.1890102780116
 23
75.51659081020133
 33
0.0
 14
325.8109897219886
 24
75.51659081020133
 34
0.0
100
AcDbRotatedDimension
1001
ACAD
1000
DSTYLE
1002
{
1070
    41
1040
2.0
1070
    42
1040
5.0
1070
    44
1040
0.0
1070
    73
1070
     0
1070
    74
1070
     0
1070
    77
1070
     1
1070
    78
1070
     8
1070
   140
1040
7.0
1070
   141
1040
0.0
1070
   146
1040
0.064286
1070
   147
1040
2.0
1070
   176
1070
    60
1070
   177
1070
    70
1070
   178
1070
    60
1070
   271
1070
     6
1070
   272
1070
     0
1070
   340
1005
1C
1070
   342
1005
109
1002
}
  0
DIMENSION
  5
3F70
330
2
100
AcDbEntity
  8
SUNPOU
100
AcDbDimension
  2
*D2
 10
-210.5738864523364
 20
46.88070483690677
 30
0.0
 11
-216.0738864523364
 21
109.3807048369067
 31
0.0
 70
    32
 71
     5
 42
125.0
  3
STANDARD
100
AcDbAlignedDimension
 13
77.81098972198856
 23
171.8807048369066
 33
0.0
 14
-46.3729863064965
 24
46.88070483690672
 34
0.0
 50
90.0
100
AcDbRotatedDimension
1001
ACAD
1000
DSTYLE
1002
{
1070
    41
1040
2.0
1070
    42
1040
5.0
1070
    44
1040
0.0
1070
    73
1070
     0
1070
    74
1070
     0
1070
    77
1070
     1
1070
    78
1070
     8
1070
   140
1040
7.0
1070
   141
1040
0.0
1070
   146
1040
0.064286
1070
   147
1040
2.0
1070
   176
1070
    60
1070
   177
1070
    70
1070
   178
1070
    60
1070
   271
1070
     6
1070
   272
1070
     0
1070
   340
1005
1C
1070
   342
1005
109
1002
}
  0
ARC
  5
3FD3
330
2
100
AcDbEntity
  8
KIJUN
100
AcDbCircle
 10
77.81098972198856
 20
146.9275174492736
 30
0.0
 40
24.95318738763307
100
AcDbArc
 50
30.03282441619223
 51
149.9671755838083
  0
ARC
  5
3FDB
330
2
100
AcDbEntity
  8
KIJUN
100
AcDbCircle
 10
42.89728515574393
 20
139.1622476290725
 30
0.0
 40
20.05558529675742
100
AcDbArc
 50
66.99017501009362
 51
199.418737946404
  0
ARC
  5
3FDC
330
2
100
AcDbEntity
  8
KIJUN
100
AcDbCircle
 10
52.42587686349918
 20
161.7104505339958
 30
0.0
 40
4.423467819250475
100
AcDbArc
 50
247.551908826045
 51
328.7623573284282
  0
ARC
  5
3FDD
330
2
100
AcDbEntity
  8
KIJUN
100
AcDbCircle
 10
-160.2441855160745
 20
75.51659081020133
 30
0.0
 40
9.944824761937216
100
AcDbArc
 50
131.989647335833
 51
215.725232493498
  0
ARC
  5
3FDE
330
2
100
AcDbEntity
  8
KIJUN
100
AcDbCircle
 10
-150.2286247952581
 20
81.45366501892706
 30
0.0
 40
21.56689603667032
100
AcDbArc
 50
212.9926255661899
 51
260.9807125925326
  0
ARC
  5
3FDF
330
2
100
AcDbEntity
  8
KIJUN
100
AcDbCircle
 10
-144.8666795242932
 20
119.2429484731209
 30
0.0
 40
59.73282053384497
100
AcDbArc
 50
261.5835452532273
 51
279.6530103939605
  0
ARC
  5
3FE0
330
2
100
AcDbEntity
  8
KIJUN
100
AcDbCircle
 10
-131.2989270572756
 20
57.50956784796926
 30
0.0
 40
4.551480006016288
100
AcDbArc
 50
141.2916352027695
 51
189.2985013200539
  0
ARC
  5
3FE1
330
2
100
AcDbEntity
  8
KIJUN
100
AcDbCircle
 10
-130.7107514212069
 20
77.97413218649634
 30
0.0
 40
21.80009545497949
100
AcDbArc
 50
256.5250879142724
 51
287.6156150212472
  0
ARC
  5
3FE2
330
2
100
AcDbEntity
  8
KIJUN
100
AcDbCircle
 10
-138.249484816096
 20
106.0106039718345
 30
0.0
 40
50.81994734588562
100
AcDbArc
 50
286.1504327613918
 51
307.4680372134724
  0
ARC
  5
3FE3
330
2
100
AcDbEntity
  8
KIJUN
100
AcDbCircle
 10
-118.3407357041866
 20
66.3617731862376
 30
0.0
 40
11.02737361728793
100
AcDbArc
 50
322.0099930870431
 51
356.4302887499238
  0
ARC
  5
3FE4
330
2
100
AcDbEntity
  8
KIJUN
100
AcDbCircle
 10
-106.633530707385
 20
56.89835451249564
 30
0.0
 40
4.032144920684143
100
AcDbArc
 50
138.4235858935752
 51
190.746098491869
  0
ARC
  5
3FE5
330
2
100
AcDbEntity
  8
KIJUN
100
AcDbCircle
 10
-106.9215891153131
 20
67.96629974675798
 30
0.0
 40
12.37742248156954
100
AcDbArc
 50
252.7356772013111
 51
298.3822419996222
  0
ARC
  5
3FE6
330
2
100
AcDbEntity
  8
KIJUN
100
AcDbCircle
 10
-125.2968092054258
 20
104.0908627724566
 30
0.0
 40
52.90391062129019
100
AcDbArc
 50
297.2932872888341
 51
317.7814744666916
  0
ARC
  5
3FE8
330
2
100
AcDbEntity
  8
KIJUN
100
AcDbCircle
 10
-52.50353812681328
 20
90.67279827055021
 30
0.0
 40
40.24483119370534
100
AcDbArc
 50
213.3612076341913
 51
267.3370935166243
  0
ARC
  5
3FE9
330
2
100
AcDbEntity
  8
KIJUN
100
AcDbCircle
 10
-46.3729863064965
 20
85.28814448911749
 30
0.0
 40
38.40743965221076
100
AcDbArc
 50
259.7971494305682
 51
293.7040064289537
  0
ARC
  5
3FEA
330
2
100
AcDbEntity
  8
KIJUN
100
AcDbCircle
 10
-52.84037585994543
 20
49.35465859326479
 30
0.0
 40
1.896584607347225
100
AcDbArc
 50
143.9259579931139
 51
259.7998046858359
  0
ARC
  5
3FEB
330
2
100
AcDbEntity
  8
KIJUN
100
AcDbCircle
 10
-24.37172608555352
 20
66.20711176073275
 30
0.0
 40
17.37270689844811
100
AcDbArc
 50
247.8110460110078
 51
302.2785713797256
  0
ARC
  5
3FEC
330
2
100
AcDbEntity
  8
KIJUN
100
AcDbCircle
 10
-48.74586334075559
 20
102.3456413328905
 30
0.0
 40
60.95715539338188
100
AcDbArc
 50
303.5082093501725
 51
318.8223862984469
  0
ARC
  5
3FEE
330
2
100
AcDbEntity
  8
KIJUN
100
AcDbCircle
 10
35.13659929891435
 20
106.111945429864
 30
0.0
 40
58.06340206377793
100
AcDbArc
 50
229.1192841204347
 51
273.179094637872
  0
ARC
  5
3FEF
330
2
100
AcDbEntity
  8
KIJUN
100
AcDbCircle
 10
64.99988845426492
 20
58.43323423206847
 30
0.0
 40
9.486274561249798
100
AcDbArc
 50
207.0451757559078
 51
318.7237313845817
  0
ARC
  5
3FF0
330
2
100
AcDbEntity
  8
KIJUN
100
AcDbCircle
 10
77.81098972198811
 20
54.25358261817173
 30
0.0
 40
6.050002112515579
100
AcDbArc
 50
200.0920453967776
 51
339.9079546032258
  0
ARC
  5
3FF1
330
2
100
AcDbEntity
  8
KIJUN
100
AcDbCircle
 10
35.98849446121255
 20
86.00077180995951
 30
0.0
 40
37.93685815101589
100
AcDbArc
 50
273.5789106814475
 51
302.8211184023739
  0
ARC
  5
3FF2
330
2
100
AcDbEntity
  8
KIJUN
100
AcDbCircle
 10
-154.603896757941
 20
80.48138068752976
 30
0.0
 40
6.612093712577082
100
AcDbArc
 50
179.7425833787833
 51
265.5117486957215
  0
ARC
  5
3FF3
330
2
100
AcDbEntity
  8
KIJUN
100
AcDbCircle
 10
-164.6198464002305
 20
80.37470643899657
 30
0.0
 40
3.40665366565637
100
AcDbArc
 50
2.294371792670979
 51
131.9523557557401
  0
ARC
  5
3FF4
330
2
100
AcDbEntity
  8
KIJUN
100
AcDbCircle
 10
-34.47333431201992
 20
-62.18836482620485
 30
0.0
 40
175.6662357312178
100
AcDbArc
 50
118.5104573781415
 51
126.8709872774846
  0
ARC
  5
3FF5
330
2
100
AcDbEntity
  8
KIJUN
100
AcDbCircle
 10
-153.4757326496384
 20
96.57974788458105
 30
0.0
 40
22.74977874765731
100
AcDbArc
 50
265.8519221322405
 51
306.7130195331246
  0
ARC
  5
3FF6
330
2
100
AcDbEntity
  8
KIJUN
100
AcDbCircle
 10
-115.8650422013883
 20
96.96696562359829
 30
0.0
 40
5.38536633556616
100
AcDbArc
 50
188.5342903630609
 51
242.8536881043501
  0
ARC
  5
3FF8
330
2
100
AcDbEntity
  8
KIJUN
100
AcDbCircle
 10
-120.3413394297718
 20
105.3299075502605
 30
0.0
 40
7.856584540740722
100
AcDbArc
 50
273.1062539441273
 51
320.2779907347412
  0
ARC
  5
3FF9
330
2
100
AcDbEntity
  8
KIJUN
100
AcDbCircle
 10
-120.0316766171734
 20
96.32140315354027
 30
0.0
 40
1.169238262072426
100
AcDbArc
 50
84.30296432835945
 51
187.5502501641505
  0
ARC
  5
3FFA
330
2
100
AcDbEntity
  8
KIJUN
100
AcDbCircle
 10
-93.72167855411669
 20
82.03722047236821
 30
0.0
 40
27.51839257689327
100
AcDbArc
 50
103.2415523221785
 51
138.3954060511792
  0
ARC
  5
3FFB
330
2
100
AcDbEntity
  8
KIJUN
100
AcDbCircle
 10
-97.90797208539618
 20
109.7701888806493
 30
0.0
 40
2.318819755437246
100
AcDbArc
 50
102.8461921724286
 51
204.082716984804
  0
ARC
  5
3FFC
330
2
100
AcDbEntity
  8
KIJUN
100
AcDbCircle
 10
-99.6418789304746
 20
132.784346495011
 30
0.0
 40
20.7891086437938
100
AcDbArc
 50
273.359764327755
 51
295.8735282456264
  0
ARC
  5
3FFD
330
2
100
AcDbEntity
  8
KIJUN
100
AcDbCircle
 10
-84.80920747500489
 20
76.05821696235484
 30
0.0
 40
38.45485241304368
100
AcDbArc
 50
83.04574753443377
 51
98.61542072157147
  0
ARC
  5
3FFE
330
2
100
AcDbEntity
  8
KIJUN
100
AcDbCircle
 10
-85.94981287464021
 20
124.7597420550995
 30
0.0
 40
4.395595527499004
100
AcDbArc
 50
128.3968076777943
 51
222.7242533643419
  0
ARC
  5
3FFF
330
2
100
AcDbEntity
  8
KIJUN
100
AcDbCircle
 10
-64.29850496994617
 20
142.3611456533153
 30
0.0
 40
32.29123868324943
100
AcDbArc
 50
219.6010965459453
 51
240.5942538231704
  0
ARC
  5
4001
330
2
100
AcDbEntity
  8
KIJUN
100
AcDbCircle
 10
-78.69022250018258
 20
153.2578808389349
 30
0.0
 40
26.97140248560676
100
AcDbArc
 50
248.2608427951748
 51
286.9640088421521
  0
ARC
  5
4002
330
2
100
AcDbEntity
  8
KIJUN
100
AcDbCircle
 10
-61.17536854930711
 20
101.4195966295325
 30
0.0
 40
27.76938461697844
100
AcDbArc
 50
56.8952763502992
 51
110.324625995081
  0
ARC
  5
4003
330
2
100
AcDbEntity
  8
KIJUN
100
AcDbCircle
 10
-14.96143437692876
 20
139.1258515841931
 30
0.0
 40
34.2427822923498
100
AcDbArc
 50
188.0897855231638
 51
204.950064818982
  0
ARC
  5
4004
330
2
100
AcDbEntity
  8
KIJUN
100
AcDbCircle
 10
-54.14896565888216
 20
98.25810686009795
 30
0.0
 40
38.57186090593802
100
AcDbArc
 50
63.92009263226583
 51
79.22326322240272
  0
ARC
  5
4005
330
2
100
AcDbEntity
  8
KIJUN
100
AcDbCircle
 10
-47.25560019505713
 20
134.5544645357403
 30
0.0
 40
1.626783596412593
100
AcDbArc
 50
78.69517176153523
 51
188.7481285610079
  0
ARC
  5
4006
330
2
100
AcDbEntity
  8
KIJUN
100
AcDbCircle
 10
-34.84843045183425
 20
131.4729821196047
 30
0.0
 40
2.745091240737369
100
AcDbArc
 50
48.46708036920865
 51
148.6134677804079
  0
ARC
  5
4007
330
2
100
AcDbEntity
  8
KIJUN
100
AcDbCircle
 10
-67.41320590174962
 20
98.82297164652779
 30
0.0
 40
48.85440832074748
100
AcDbArc
 50
13.04334513332961
 51
45.26537876868487
  0
ARC
  5
4008
330
2
100
AcDbEntity
  8
KIJUN
100
AcDbCircle
 10
20.45006795380221
 20
110.4888883298679
 30
0.0
 40
40.30271210638643
100
AcDbArc
 50
154.5473570871661
 51
182.3322082268542
  0
ARC
  5
4009
330
2
100
AcDbEntity
  8
KIJUN
100
AcDbCircle
 10
-14.72377108076239
 20
123.826902641784
 30
0.0
 40
4.164506615963902
100
AcDbArc
 50
359.8794949640508
 51
106.9933902227659
  0
ARC
  5
400A
330
2
100
AcDbEntity
  8
KIJUN
100
AcDbCircle
 10
4.280547439060001
 20
114.8300930594713
 30
0.0
 40
17.34950567450181
100
AcDbArc
 50
85.28676407877552
 51
148.7979219847317
  0
ARC
  5
400B
330
2
100
AcDbEntity
  8
KIJUN
100
AcDbCircle
 10
6.40981482901077
 20
139.789435699475
 30
0.0
 40
7.700723521649122
100
AcDbArc
 50
264.7570853222029
 51
327.8794634754457
  0
ARC
  5
400C
330
2
100
AcDbEntity
  8
KIJUN
100
AcDbCircle
 10
14.54079256337695
 20
134.6985288784701
 30
0.0
 40
1.892538677751129
100
AcDbArc
 50
58.86882363447927
 51
148.2309458045327
  0
ARC
  5
400D
330
2
100
AcDbEntity
  8
KIJUN
100
AcDbCircle
 10
11.95655274208445
 20
130.2632047730708
 30
0.0
 40
7.02563019703972
100
AcDbArc
 50
350.7491811194664
 51
59.52929989064085
  0
ARC
  5
400E
330
2
100
AcDbEntity
  8
KIJUN
100
AcDbCircle
 10
14.31453201615318
 20
141.6051845012932
 30
0.0
 40
13.28450364767544
100
AcDbArc
 50
290.1501952265755
 51
316.6996884362252
  0
ARC
  5
44CF
330
2
100
AcDbEntity
  8
KIJUN
100
AcDbCircle
 10
35.21284994887776
 20
82.12012505312115
 30
0.0
 40
10.02787703145915
100
AcDbArc
 50
301.5702742797663
 51
72.51156535225451
  0
ARC
  5
44D1
330
2
100
AcDbEntity
  8
KIJUN
100
AcDbCircle
 10
40.73003113704351
 20
87.21836864397047
 30
0.0
 40
20.3013147069545
100
AcDbArc
 50
168.3140420870531
 51
212.2828439298258
  0
ARC
  5
44DA
330
2
100
AcDbEntity
  8
KIJUN
100
AcDbCircle
 10
33.58131704998323
 20
84.43147702733872
 30
0.0
 40
12.85258509775467
100
AcDbArc
 50
218.8145655432495
 51
302.3725899790798
  0
ARC
  5
44DB
330
2
100
AcDbEntity
  8
KIJUN
100
AcDbCircle
 10
44.09808548945227
 20
80.92361625078327
 30
0.0
 40
12.25861160177239
100
AcDbArc
 50
8.697155446758436
 51
118.6193139383175
  0
ARC
  5
44DC
330
2
100
AcDbEntity
  8
KIJUN
100
AcDbCircle
 10
38.77666744437852
 20
78.6986803315495
 30
0.0
 40
17.90966465518395
100
AcDbArc
 50
287.702689372607
 51
13.16351020587313
  0
ARC
  5
44DD
330
2
100
AcDbEntity
  8
KIJUN
100
AcDbCircle
 10
33.99604097946542
 20
92.13404527986526
 30
0.0
 40
32.16592707095421
100
AcDbArc
 50
213.1905040406127
 51
288.5378693578984
  0
ARC
  5
44DE
330
2
100
AcDbEntity
  8
KIJUN
100
AcDbCircle
 10
167.1594432443855
 20
-42.6179935425609
 30
0.0
 40
198.3652018887312
100
AcDbArc
 50
137.5255571856902
 51
143.8042920018665
  0
ARC
  5
44DF
330
2
100
AcDbEntity
  8
KIJUN
100
AcDbCircle
 10
408.5081668774941
 20
-369.3437989063631
 30
0.0
 40
610.3770106569233
100
AcDbArc
 50
129.6487623145433
 51
131.7718801503337
  0
ARC
  5
44E0
330
2
100
AcDbEntity
  8
KIJUN
100
AcDbCircle
 10
32.97206088651501
 20
116.2084480260788
 30
0.0
 40
20.90126400769753
100
AcDbArc
 50
192.8194083883808
 51
228.1941557551089
  0
ARC
  5
44E1
330
2
100
AcDbEntity
  8
KIJUN
100
AcDbCircle
 10
10.90856413947381
 20
101.2247786335547
 30
0.0
 40
10.48214871162788
100
AcDbArc
 50
80.75949804789731
 51
155.1617775444188
  0
ARC
  5
44E2
330
2
100
AcDbEntity
  8
KIJUN
100
AcDbCircle
 10
25.34628639835603
 20
96.35182440622255
 30
0.0
 40
25.68383839854112
100
AcDbArc
 50
158.8283436915225
 51
204.0684875938381
  0
ARC
  5
44E3
330
2
100
AcDbEntity
  8
KIJUN
100
AcDbCircle
 10
-26.49164462062959
 20
78.58327470968493
 30
0.0
 40
3.607327239613462
100
AcDbArc
 50
102.3476519742242
 51
275.1776312431648
  0
ARC
  5
44E4
330
2
100
AcDbEntity
  8
KIJUN
100
AcDbCircle
 10
-25.26084435421115
 20
59.02519612766545
 30
0.0
 40
15.99111441027939
100
AcDbArc
 50
50.85340766734416
 51
93.24526501251893
  0
ARC
  5
44E5
330
2
100
AcDbEntity
  8
KIJUN
100
AcDbCircle
 10
-44.77655783157092
 20
24.44737338470907
 30
0.0
 40
60.26088117680058
100
AcDbArc
 50
73.1044303792341
 51
114.1672367691799
  0
ARC
  5
44E6
330
2
100
AcDbEntity
  8
KIJUN
100
AcDbCircle
 10
-75.53852578303076
 20
78.45887123280481
 30
0.0
 40
6.167482949637505
100
AcDbArc
 50
319.1324962335183
 51
9.027970532345621
  0
ARC
  5
44E7
330
2
100
AcDbEntity
  8
KIJUN
100
AcDbCircle
 10
-66.14371554102195
 20
72.02231633566931
 30
0.0
 40
5.305261861625954
100
AcDbArc
 50
153.0901649203194
 51
230.9331613368843
  0
ARC
  5
44E8
330
2
100
AcDbEntity
  8
KIJUN
100
AcDbCircle
 10
-45.96015932803936
 20
93.30363496423542
 30
0.0
 40
34.62228571157852
100
AcDbArc
 50
227.1926420767151
 51
263.0084042724629
  0
ARC
  5
44E9
330
2
100
AcDbEntity
  8
KIJUN
100
AcDbCircle
 10
-40.96456883557664
 20
109.0185757887444
 30
0.0
 40
45.59307284486187
100
AcDbArc
 50
263.328951705227
 51
304.461614189449
  0
ARC
  5
44EB
330
2
100
AcDbEntity
  8
KIJUN
100
AcDbCircle
 10
-46.61085192855501
 20
60.02509787319884
 30
0.0
 40
3.725550924019597
100
AcDbArc
 50
84.61263604425747
 51
196.9526002370507
  0
ARC
  5
44EC
330
2
100
AcDbEntity
  8
KIJUN
100
AcDbCircle
 10
51.57117268167429
 20
163.8598908837601
 30
0.0
 40
11.04202441719963
100
AcDbArc
 50
247.0651340081219
 51
329.0711578554768
  0
ARC
  5
44EE
330
2
100
AcDbEntity
  8
KIJUN
100
AcDbCircle
 10
77.81098972198754
 20
147.4111048862118
 30
0.0
 40
19.93063867218822
100
AcDbArc
 50
32.72100361673254
 51
147.2789963832663
  0
ARC
  5
44EF
330
2
100
AcDbEntity
  8
KIJUN
100
AcDbCircle
 10
42.15926635706932
 20
140.8082875000758
 30
0.0
 40
13.85856701731766
100
AcDbArc
 50
68.36743673034655
 51
199.4811777917792
  0
ARC
  5
44F0
330
2
100
AcDbEntity
  8
KIJUN
100
AcDbCircle
 10
22.54748171464519
 20
133.9887335778783
 30
0.0
 40
6.905663981070151
100
AcDbArc
 50
293.7385808666065
 51
18.55741773146499
  0
ARC
  5
44F1
330
2
100
AcDbEntity
  8
KIJUN
100
AcDbCircle
 10
32.88122313679719
 20
114.1990765468207
 30
0.0
 40
15.44194575784581
100
AcDbArc
 50
119.286175880864
 51
215.2141383186097
  0
ARC
  5
44F3
330
2
100
AcDbEntity
  8
KIJUN
100
AcDbCircle
 10
38.64053303163905
 20
78.4691713693513
 30
0.0
 40
30.22698398081378
100
AcDbArc
 50
306.3368130422463
 51
39.11914751016914
  0
ARC
  5
44F4
330
2
100
AcDbEntity
  8
KIJUN
100
AcDbCircle
 10
38.93607132608736
 20
76.36879022359344
 30
0.0
 40
31.37549872723881
100
AcDbArc
 50
42.43728548738277
 51
129.357438370464
  0
ARC
  5
44F5
330
2
100
AcDbEntity
  8
KIJUN
100
AcDbCircle
 10
44.33539909311583
 20
71.98625090865039
 30
0.0
 40
33.3459905827075
100
AcDbArc
 50
113.8004431444453
 51
143.4690235298796
  0
ARC
  5
44F6
330
2
100
AcDbEntity
  8
KIJUN
100
AcDbCircle
 10
36.68206526081679
 20
84.4855172065432
 30
0.0
 40
7.362747707998876
100
AcDbArc
 50
77.89262750453817
 51
171.7279194756022
  0
ARC
  5
44F7
330
2
100
AcDbEntity
  8
KIJUN
100
AcDbCircle
 10
36.07014822862652
 20
84.87520563914477
 30
0.0
 40
6.707735817833325
100
AcDbArc
 50
174.2707366392088
 51
280.5927894603607
  0
ARC
  5
44F8
330
2
100
AcDbEntity
  8
KIJUN
100
AcDbCircle
 10
-2.745531124052035
 20
136.7898334685797
 30
0.0
 40
22.95095223893366
100
AcDbArc
 50
311.4589744248499
 51
340.513611044135
  0
ARC
  5
44F9
330
2
100
AcDbEntity
  8
KIJUN
100
AcDbCircle
 10
9.04154778445104
 20
115.5187497004872
 30
0.0
 40
5.309391447759959
100
AcDbArc
 50
311.9644682059262
 51
50.06252977119288
  0
ARC
  5
44FA
330
2
100
AcDbEntity
  8
KIJUN
100
AcDbCircle
 10
9.942097315161504
 20
105.3683994501168
 30
0.0
 40
14.44072717586839
100
AcDbArc
 50
79.99913482446416
 51
165.9781073532021
  0
ARC
  5
44FB
330
2
100
AcDbEntity
  8
KIJUN
100
AcDbCircle
 10
30.43527497885418
 20
99.29723195119875
 30
0.0
 40
35.80622113092991
100
AcDbArc
 50
164.4979195950697
 51
210.6318657825887
  0
ARC
  5
44FC
330
2
100
AcDbEntity
  8
KIJUN
100
AcDbCircle
 10
8.840220822311266
 20
85.24832199108413
 30
0.0
 40
6.973202464128281
100
AcDbArc
 50
174.8255282734987
 51
193.4338405439474
  0
ARC
  5
44FD
330
2
100
AcDbEntity
  8
KIJUN
100
AcDbCircle
 10
7.257721893954453
 20
77.05993626742449
 30
0.0
 40
2.54068574889344
100
AcDbArc
 50
176.6451967142587
 51
265.9396335005169
  0
ARC
  5
44FE
330
2
100
AcDbEntity
  8
KIJUN
100
AcDbCircle
 10
-6.493922050262881
 20
76.31769686897294
 30
0.0
 40
11.25064269896259
100
AcDbArc
 50
4.541902022607655
 51
40.52603048492911
  0
ARC
  5
44FF
330
2
100
AcDbEntity
  8
KIJUN
100
AcDbCircle
 10
-17.44496401732113
 20
123.9728623906216
 30
0.0
 40
6.887428353059876
100
AcDbArc
 50
323.4542198697546
 51
358.7128044728883
  0
ARC
  5
4500
330
2
100
AcDbEntity
  8
KIJUN
100
AcDbCircle
 10
10.25547467162073
 20
135.2827247647481
 30
0.0
 40
5.55239925961304
100
AcDbArc
 50
263.5173602510402
 51
343.8694829464012
  0
ARC
  5
4501
330
2
100
AcDbEntity
  8
KIJUN
100
AcDbCircle
 10
7.966305047868445
 20
105.2232186402297
 30
0.0
 40
24.59883809800984
100
AcDbArc
 50
86.12522601328812
 51
122.5407727252012
  0
ARC
  5
4502
330
2
100
AcDbEntity
  8
KIJUN
100
AcDbCircle
 10
-77.43790203634773
 20
73.45692908055792
 30
0.0
 40
9.974215188096485
100
AcDbArc
 50
36.7636541581327
 51
209.5253721405629
  0
ARC
  5
4503
330
2
100
AcDbEntity
  8
KIJUN
100
AcDbCircle
 10
-76.55493668702274
 20
72.39253091546067
 30
0.0
 40
6.032543684813388
100
AcDbArc
 50
43.71630922633886
 51
215.2810506770483
  0
ARC
  5
4504
330
2
100
AcDbEntity
  8
KIJUN
100
AcDbCircle
 10
-50.15763774717425
 20
91.54021384323327
 30
0.0
 40
38.64278942279039
100
AcDbArc
 50
215.8504889600547
 51
269.1087665982287
  0
ARC
  5
4506
330
2
100
AcDbEntity
  8
KIJUN
100
AcDbCircle
 10
-49.88087120133195
 20
47.69376302725855
 30
0.0
 40
5.281794256598206
100
AcDbArc
 50
99.56689742603014
 51
148.2715788737167
  0
ARC
  5
4507
330
2
100
AcDbEntity
  8
KIJUN
100
AcDbCircle
 10
-28.53607839728875
 20
55.3217539279108
 30
0.0
 40
5.726444698970341
100
AcDbArc
 50
41.15743952173294
 51
245.2584613375526
  0
ARC
  5
4508
330
2
100
AcDbEntity
  8
KIJUN
100
AcDbCircle
 10
-21.70546604388972
 20
56.64546141342582
 30
0.0
 40
3.510602825919572
100
AcDbArc
 50
135.8552963758412
 51
300.564632789813
  0
ARC
  5
4509
330
2
100
AcDbEntity
  8
KIJUN
100
AcDbCircle
 10
-81.05159763587995
 20
-29.33561683312659
 30
0.0
 40
120.3912118799584
100
AcDbArc
 50
49.50084264175584
 51
56.82033035633854
  0
ARC
  5
450A
330
2
100
AcDbEntity
  8
KIJUN
100
AcDbCircle
 10
-47.97840302659915
 20
109.9595706996191
 30
0.0
 40
62.93733398154465
100
AcDbArc
 50
296.475195117771
 51
311.6509750998315
  0
ARC
  5
450B
330
2
100
AcDbEntity
  8
KIJUN
100
AcDbCircle
 10
-41.50083758070843
 20
105.1429148509696
 30
0.0
 40
47.01119964181284
100
AcDbArc
 50
262.402200324429
 51
280.4156140093346
  0
ARC
  5
450C
330
2
100
AcDbEntity
  8
KIJUN
100
AcDbCircle
 10
-45.63221255053417
 20
97.23150334819976
 30
0.0
 40
47.41173351170936
100
AcDbArc
 50
263.6501156102761
 51
281.9226265834621
  0
ARC
  5
450D
330
2
100
AcDbEntity
  8
KIJUN
100
AcDbCircle
 10
-41.50083758070843
 20
105.1429148509696
 30
0.0
 40
47.01119964181284
100
AcDbArc
 50
288.7570700891669
 51
308.0595079721851
  0
ARC
  5
450E
330
2
100
AcDbEntity
  8
KIJUN
100
AcDbCircle
 10
38.57573557961575
 20
86.52618272928213
 30
0.0
 40
12.34553402121726
100
AcDbArc
 50
134.4715009232236
 51
198.8334511693413
  0
ARC
  5
450F
330
2
100
AcDbEntity
  8
KIJUN
100
AcDbCircle
 10
43.35307322080211
 20
79.6296471365502
 30
0.0
 40
20.6626890515384
100
AcDbArc
 50
350.1762643514772
 51
130.5244834961098
  0
ARC
  5
4510
330
2
100
AcDbEntity
  8
KIJUN
100
AcDbCircle
 10
33.93906465891234
 20
84.91411256125799
 30
0.0
 40
7.436756651747686
100
AcDbArc
 50
198.61033784038
 51
296.8957154043862
  0
ARC
  5
4517
330
2
100
AcDbEntity
  8
KIJUN
100
AcDbCircle
 10
-30.91263702574338
 20
103.2881916908081
 30
0.0
 40
107.0956118229722
100
AcDbArc
 50
359.5820358705069
 51
30.83666217346958
  0
ARC
  5
4518
330
2
100
AcDbEntity
  8
KIJUN
100
AcDbCircle
 10
-131.3633417501952
 20
19.41767685019921
 30
0.0
 40
223.4692630741602
100
AcDbArc
 50
24.79731304838668
 51
36.93130295192349
  0
ARC
  5
4519
330
2
100
AcDbEntity
  8
KIJUN
100
AcDbCircle
 10
12.89424809908075
 20
80.06789272630728
 30
0.0
 40
58.41003556008192
100
AcDbArc
 50
25.85074979236962
 51
73.89808035704131
  0
ARC
  5
451A
330
2
100
AcDbEntity
  8
KIJUN
100
AcDbCircle
 10
14.8753796522667
 20
72.25314215705999
 30
0.0
 40
56.3913101338671
100
AcDbArc
 50
34.18327448304249
 51
79.31851675504238
  0
ARC
  5
451B
330
2
100
AcDbEntity
  8
KIJUN
100
AcDbCircle
 10
37.76445774419244
 20
74.46989871646477
 30
0.0
 40
35.44569205643735
100
AcDbArc
 50
61.82477667448893
 51
119.583704197489
  0
ARC
  5
451C
330
2
100
AcDbEntity
  8
KIJUN
100
AcDbCircle
 10
74.80562203662429
 20
56.2398301370962
 30
0.0
 40
4.866654471338138
100
AcDbArc
 50
236.6360436489703
 51
266.8150747422977
  0
ARC
  5
451D
330
2
100
AcDbEntity
  8
KIJUN
100
AcDbCircle
 10
25.41771522150725
 20
64.31936456538903
 30
0.0
 40
50.793111039511
100
AcDbArc
 50
345.2422464810261
 51
5.424428176358288
  0
ARC
  5
451E
330
2
100
AcDbEntity
  8
KIJUN
100
AcDbCircle
 10
77.81098972198788
 20
69.49348360053147
 30
0.0
 40
1.865203334388366
100
AcDbArc
 50
348.479808779193
 51
191.5201912208317
  0
ARC
  5
4520
330
2
100
AcDbEntity
  8
KIJUN
100
AcDbCircle
 10
12.64588262904476
 20
104.1398702249392
 30
0.0
 40
29.1644487035524
100
AcDbArc
 50
147.3561073939174
 51
187.3576558690225
  0
ARC
  5
4522
330
2
100
AcDbEntity
  8
KIJUN
100
AcDbCircle
 10
38.0126613372637
 20
102.4948600020533
 30
0.0
 40
47.76760234951817
100
AcDbArc
 50
179.8154318736253
 51
270.9860418019305
  0
ARC
  5
4523
330
2
100
AcDbEntity
  8
KIJUN
100
AcDbCircle
 10
31.52686268530533
 20
87.81852165914598
 30
0.0
 40
34.16222771493467
100
AcDbArc
 50
340.8004672131434
 51
340.8004672131434
  0
ARC
  5
4524
330
2
100
AcDbEntity
  8
KIJUN
100
AcDbCircle
 10
38.4929827577065
 20
80.29820042616703
 30
0.0
 40
25.56615282014222
100
AcDbArc
 50
270.7658062831405
 51
350.5582972381999
  0
ARC
  5
4525
330
2
100
AcDbEntity
  8
KIJUN
100
AcDbCircle
 10
13.30162751940747
 20
102.4751283684915
 30
0.0
 40
23.05697427991315
100
AcDbArc
 50
98.82518648696271
 51
179.5685906219653
  0
ARC
  5
4526
330
2
100
AcDbEntity
  8
KIJUN
100
AcDbCircle
 10
64.20721886763169
 20
59.51916707010402
 30
0.0
 40
5.124315921664908
100
AcDbArc
 50
217.9822019971864
 51
325.3171615765743
  0
ARC
  5
4527
330
2
100
AcDbEntity
  8
KIJUN
100
AcDbCircle
 10
52.53994752655831
 20
68.51266973185772
 30
0.0
 40
19.85050187217873
100
AcDbArc
 50
323.1333218361785
 51
356.8771938493571
  0
ARC
  5
4528
330
2
100
AcDbEntity
  8
KIJUN
100
AcDbCircle
 10
221.1420291603629
 20
-65.41293026021207
 30
0.0
 40
257.2559463737035
100
AcDbArc
 50
142.3197977090662
 51
146.4962295106429
  0
ARC
  5
452A
330
2
100
AcDbEntity
  8
KIJUN
100
AcDbCircle
 10
-30.4133876906227
 20
133.4110602924722
 30
0.0
 40
17.87226068103977
100
AcDbArc
 50
209.2390309903767
 51
240.3933481581716
  0
ARC
  5
452B
330
2
100
AcDbEntity
  8
KIJUN
100
AcDbCircle
 10
-47.74264621262921
 20
106.1511005203896
 30
0.0
 40
14.47854885348487
100
AcDbArc
 50
28.82400337037433
 51
54.05222774766456
  0
ARC
  5
452C
330
2
100
AcDbEntity
  8
KIJUN
100
AcDbCircle
 10
-21.09609302780757
 20
137.3352095408111
 30
0.0
 40
27.94193489901104
100
AcDbArc
 50
206.9276614764357
 51
240.0216390926654
  0
ARC
  5
452D
330
2
100
AcDbEntity
  8
KIJUN
100
AcDbCircle
 10
-77.88623257731626
 20
98.9945785938986
 30
0.0
 40
52.96971588723393
100
AcDbArc
 50
17.23136776029287
 51
39.80231292914289
  0
ARC
  5
452E
330
2
100
AcDbEntity
  8
KIJUN
100
AcDbCircle
 10
-67.85455822209996
 20
73.24211150332692
 30
0.0
 40
51.64090931030873
100
AcDbArc
 50
28.90446076074093
 51
50.57332176941298
  0
ARC
  5
452F
330
2
100
AcDbEntity
  8
KIJUN
100
AcDbCircle
 10
376.8316485371827
 20
360.8769287867568
 30
0.0
 40
478.1011156593233
100
AcDbArc
 50
213.3266351086815
 51
214.9519264204747
  0
ARC
  5
4530
330
2
100
AcDbEntity
  8
KIJUN
100
AcDbCircle
 10
60.14490164068786
 20
118.8357797449311
 30
0.0
 40
80.58539801924792
100
AcDbArc
 50
187.1189690980358
 51
194.9728991288394
  0
ARC
  5
4532
330
2
100
AcDbEntity
  8
KIJUN
100
AcDbCircle
 10
-76.23114721816307
 20
136.2123048391083
 30
0.0
 40
22.32929044436821
100
AcDbArc
 50
259.88369747762
 51
286.2241295127237
  0
ARC
  5
4533
330
2
100
AcDbEntity
  8
KIJUN
100
AcDbCircle
 10
-64.52843581860884
 20
106.2784724885454
 30
0.0
 40
10.09949028965709
100
AcDbArc
 50
122.7529797357946
 51
177.0704202546626
  0
ARC
  5
4534
330
2
100
AcDbEntity
  8
KIJUN
100
AcDbCircle
 10
-69.05941179990645
 20
128.9046412027286
 30
0.0
 40
22.79722711929375
100
AcDbArc
 50
255.8959352245146
 51
283.2041443317481
  0
ARC
  5
4535
330
2
100
AcDbEntity
  8
KIJUN
100
AcDbCircle
 10
-56.46458499751554
 20
72.33426003618165
 30
0.0
 40
35.16069010575188
100
AcDbArc
 50
66.71191204280164
 51
102.1285355264606
  0
ARC
  5
4536
330
2
100
AcDbEntity
  8
KIJUN
100
AcDbCircle
 10
-64.88131843545033
 20
52.17692292247059
 30
0.0
 40
54.54290813432355
100
AcDbArc
 50
66.9206982497671
 51
88.91870773043461
  0
ARC
  5
4537
330
2
100
AcDbEntity
  8
KIJUN
100
AcDbCircle
 10
-43.07274432993369
 20
103.5091654058382
 30
0.0
 40
1.231363756736525
100
AcDbArc
 50
249.6857034661104
 51
65.57873557631921
  0
ARC
  5
4538
330
2
100
AcDbEntity
  8
KIJUN
100
AcDbCircle
 10
-160.2826739299619
 20
76.18122372126942
 30
0.0
 40
7.459093877639852
100
AcDbArc
 50
134.9692593721229
 51
258.9295882856258
  0
ARC
  5
4539
330
2
100
AcDbEntity
  8
KIJUN
100
AcDbCircle
 10
-157.0624459672488
 20
99.16618638866154
 30
0.0
 40
30.66030435172196
100
AcDbArc
 50
261.2720491573121
 51
307.0733804461633
  0
ARC
  5
453A
330
2
100
AcDbEntity
  8
KIJUN
100
AcDbCircle
 10
-65.2854760544127
 20
13.95861449781948
 30
0.0
 40
84.25438978186654
100
AcDbArc
 50
62.85454772012199
 51
131.6370882049643
  0
ARC
  5
453B
330
2
100
AcDbEntity
  8
KIJUN
100
AcDbCircle
 10
-84.51820523778588
 20
56.30111604770211
 30
0.0
 40
24.66714566795975
100
AcDbArc
 50
115.6293450485525
 51
157.6649478863092
  0
ARC
  5
453C
330
2
100
AcDbEntity
  8
KIJUN
100
AcDbCircle
 10
-129.1102896672039
 20
57.14058115859879
 30
0.0
 40
6.579476028831678
100
AcDbArc
 50
107.5739964290422
 51
150.7458783491873
  0
ARC
  5
453D
330
2
100
AcDbEntity
  8
KIJUN
100
AcDbCircle
 10
-118.9499910932847
 20
112.8451894599851
 30
0.0
 40
20.67989289087787
100
AcDbArc
 50
271.7396476576896
 51
311.2381707900543
  0
ARC
  5
453E
330
2
100
AcDbEntity
  8
KIJUN
100
AcDbCircle
 10
-95.7107241611809
 20
117.5713754927012
 30
0.0
 40
9.753433924016535
100
AcDbArc
 50
243.7473941112263
 51
295.519641693395
  0
ARC
  5
453F
330
2
100
AcDbEntity
  8
KIJUN
100
AcDbCircle
 10
-116.0505448346798
 20
102.2361636258627
 30
0.0
 40
7.158722356475784
100
AcDbArc
 50
235.4288384964949
 51
301.7506723656693
  0
ARC
  5
4540
330
2
100
AcDbEntity
  8
KIJUN
100
AcDbCircle
 10
-81.14297159245337
 20
50.70364346015942
 30
0.0
 40
55.09073774637298
100
AcDbArc
 50
92.12713914875052
 51
124.4202119679963
  0
ARC
  5
4541
330
2
100
AcDbEntity
  8
KIJUN
100
AcDbCircle
 10
-129.4087224171512
 20
84.06993005052187
 30
0.0
 40
23.96556380104716
100
AcDbArc
 50
266.2893911401935
 51
322.2057090943884
  0
ARC
  5
4543
330
2
100
AcDbEntity
  8
KIJUN
100
AcDbCircle
 10
-61.5049737547589
 20
28.647859424778
 30
0.0
 40
63.69467258920331
100
AcDbArc
 50
91.7230229788632
 51
140.2424688132654
  0
ARC
  5
4544
330
2
100
AcDbEntity
  8
KIJUN
100
AcDbCircle
 10
-56.8398293492462
 20
4.234295607180078
 30
0.0
 40
88.32489887391353
100
AcDbArc
 50
72.87254562015487
 51
94.2725616616666
  0
ARC
  5
4545
330
2
100
AcDbEntity
  8
KIJUN
100
AcDbCircle
 10
-64.58932827566627
 20
77.40043312409284
 30
0.0
 40
37.76038441422985
100
AcDbArc
 50
62.26627474480306
 51
98.2266637771702
  0
ARC
  5
4546
330
2
100
AcDbEntity
  8
KIJUN
100
AcDbCircle
 10
-78.80724665889999
 20
128.9770743328932
 30
0.0
 40
9.902855840860473
100
AcDbArc
 50
184.4733708440987
 51
276.9398000053122
  0
ARC
  5
4547
330
2
100
AcDbEntity
  8
KIJUN
100
AcDbCircle
 10
-72.23691649862065
 20
64.4692791055584
 30
0.0
 40
54.94093014474078
100
AcDbArc
 50
66.91095371107943
 51
95.61310708736746
  0
ARC
  5
4548
330
2
100
AcDbEntity
  8
KIJUN
100
AcDbCircle
 10
-147.9651227569562
 20
107.3800543388952
 30
0.0
 40
40.49996965519739
100
AcDbArc
 50
274.7260713191476
 51
311.2437738440204
  0
ARC
  5
4549
330
2
100
AcDbEntity
  8
KIJUN
100
AcDbCircle
 10
-110.421431913942
 20
61.38758539708916
 30
0.0
 40
4.546421285031964
100
AcDbArc
 50
285.3555290600061
 51
358.4021887549581
  0
ARC
  5
454A
330
2
100
AcDbEntity
  8
KIJUN
100
AcDbCircle
 10
-86.61907413087124
 20
59.03827285381201
 30
0.0
 40
19.38553244141753
100
AcDbArc
 50
113.1104759996799
 51
173.4165878024975
  0
ARC
  5
454B
330
2
100
AcDbEntity
  8
KIJUN
100
AcDbCircle
 10
-96.03040693825427
 20
80.96606089569597
 30
0.0
 40
4.476814418686849
100
AcDbArc
 50
293.7414230035738
 51
2.294738737721549
  0
ARC
  5
454C
330
2
100
AcDbEntity
  8
KIJUN
100
AcDbCircle
 10
-55.36871325274649
 20
13.72087393406621
 30
0.0
 40
76.52228602635872
100
AcDbArc
 50
85.40375575089862
 51
118.2236250625853
  0
ARC
  5
454D
330
2
100
AcDbEntity
  8
KIJUN
100
AcDbCircle
 10
-81.32208975512412
 20
54.88294416691228
 30
0.0
 40
20.79857570824176
100
AcDbArc
 50
110.6012001852489
 51
154.3379615283772
  0
ARC
  5
454E
330
2
100
AcDbEntity
  8
KIJUN
100
AcDbCircle
 10
-265.8480456478688
 20
266.0209655389802
 30
0.0
 40
229.7819417800438
100
AcDbArc
 50
303.6327545069172
 51
309.4564606557355
  0
ARC
  5
4550
330
2
100
AcDbEntity
  8
KIJUN
100
AcDbCircle
 10
-58.80081512589232
 20
69.56548717455638
 30
0.0
 40
39.98041749855324
100
AcDbArc
 50
75.24216675865265
 51
106.6459400081011
  0
ARC
  5
4551
330
2
100
AcDbEntity
  8
KIJUN
100
AcDbCircle
 10
-74.29216103814474
 20
24.12359276701885
 30
0.0
 40
84.09290794376488
100
AcDbArc
 50
38.6347004112672
 51
66.05615082747718
  0
ARC
  5
4552
330
2
100
AcDbEntity
  8
KIJUN
100
AcDbCircle
 10
-23.54992515122194
 20
68.17935264912264
 30
0.0
 40
14.41426423994339
100
AcDbArc
 50
49.32290243017692
 51
104.927728237026
  0
ARC
  5
4553
330
2
100
AcDbEntity
  8
KIJUN
100
AcDbCircle
 10
-28.21267971894997
 20
50.46057154012969
 30
0.0
 40
28.80055990928738
100
AcDbArc
 50
52.39824952636689
 51
82.9110553408061
  0
ARC
  5
45BF
330
2
100
AcDbEntity
  8
KIJUN
100
AcDbCircle
 10
77.81098972198845
 20
89.62501306174862
 30
0.0
 40
12.50064908692866
100
AcDbArc
 50
223.6192856803473
 51
316.3807143196516
  0
ARC
  5
45F1
330
2
100
AcDbEntity
  8
KIJUN
100
AcDbCircle
 10
77.81098972198845
 20
66.69433913950252
 30
0.0
 40
12.50064908692866
100
AcDbArc
 50
113.4828583244171
 51
136.8198626475759
  0
ARC
  5
45FD
330
2
100
AcDbEntity
  8
KIJUN
100
AcDbCircle
 10
112.7246942882327
 20
139.1622476290725
 30
0.0
 40
20.05558529675742
100
AcDbArc
 50
340.5812620535963
 51
113.0098249898998
  0
ARC
  5
45FE
330
2
100
AcDbEntity
  8
KIJUN
100
AcDbCircle
 10
103.1961025804775
 20
161.7104505339958
 30
0.0
 40
4.423467819250475
100
AcDbArc
 50
211.2376426715714
 51
292.4480911739617
  0
ARC
  5
45FF
330
2
100
AcDbEntity
  8
KIJUN
100
AcDbCircle
 10
315.8661649600513
 20
75.51659081020133
 30
0.0
 40
9.944824761937216
100
AcDbArc
 50
324.2747675065043
 51
48.01035266416661
  0
ARC
  5
4600
330
2
100
AcDbEntity
  8
KIJUN
100
AcDbCircle
 10
305.8506042392348
 20
81.45366501892706
 30
0.0
 40
21.56689603667032
100
AcDbArc
 50
279.0192874074675
 51
327.0073744338153
  0
ARC
  5
4601
330
2
100
AcDbEntity
  8
KIJUN
100
AcDbCircle
 10
300.4886589682699
 20
119.2429484731209
 30
0.0
 40
59.73282053384497
100
AcDbArc
 50
260.3469896060329
 51
278.4164547467661
  0
ARC
  5
4602
330
2
100
AcDbEntity
  8
KIJUN
100
AcDbCircle
 10
286.9209065012524
 20
57.50956784796926
 30
0.0
 40
4.551480006016288
100
AcDbArc
 50
350.7014986799454
 51
38.70836479723273
  0
ARC
  5
4603
330
2
100
AcDbEntity
  8
KIJUN
100
AcDbCircle
 10
286.3327308651837
 20
77.97413218649634
 30
0.0
 40
21.80009545497949
100
AcDbArc
 50
252.3843849787462
 51
283.4749120857275
  0
ARC
  5
4604
330
2
100
AcDbEntity
  8
KIJUN
100
AcDbCircle
 10
293.8714642600725
 20
106.0106039718345
 30
0.0
 40
50.81994734588562
100
AcDbArc
 50
232.5319627865346
 51
253.8495672386015
  0
ARC
  5
4605
330
2
100
AcDbEntity
  8
KIJUN
100
AcDbCircle
 10
273.9627151481632
 20
66.3617731862376
 30
0.0
 40
11.02737361728793
100
AcDbArc
 50
183.569711250076
 51
217.9900069129629
  0
ARC
  5
4606
330
2
100
AcDbEntity
  8
KIJUN
100
AcDbCircle
 10
262.2555101513617
 20
56.89835451249564
 30
0.0
 40
4.032144920684143
100
AcDbArc
 50
349.2539015081318
 51
41.5764141064243
  0
ARC
  5
4607
330
2
100
AcDbEntity
  8
KIJUN
100
AcDbCircle
 10
262.5435685592897
 20
67.96629974675798
 30
0.0
 40
12.37742248156954
100
AcDbArc
 50
241.6177580003846
 51
287.264322798689
  0
ARC
  5
4608
330
2
100
AcDbEntity
  8
KIJUN
100
AcDbCircle
 10
280.9187886494024
 20
104.0908627724566
 30
0.0
 40
52.90391062129019
100
AcDbArc
 50
222.2185255333092
 51
242.7067127111593
  0
ARC
  5
4609
330
2
100
AcDbEntity
  8
KIJUN
100
AcDbCircle
 10
208.1255175707899
 20
90.67279827055021
 30
0.0
 40
40.24483119370534
100
AcDbArc
 50
272.6629064833756
 51
326.6387923658109
  0
ARC
  5
460A
330
2
100
AcDbEntity
  8
KIJUN
100
AcDbCircle
 10
201.9949657504731
 20
85.28814448911749
 30
0.0
 40
38.40743965221076
100
AcDbArc
 50
246.2959935710397
 51
280.2028505694317
  0
ARC
  5
460B
330
2
100
AcDbEntity
  8
KIJUN
100
AcDbCircle
 10
208.4623553039221
 20
49.35465859326479
 30
0.0
 40
1.896584607347225
100
AcDbArc
 50
280.2001953141642
 51
36.07404200688497
  0
ARC
  5
460C
330
2
100
AcDbEntity
  8
KIJUN
100
AcDbCircle
 10
179.9937055295302
 20
66.20711176073275
 30
0.0
 40
17.37270689844811
100
AcDbArc
 50
237.7214286202811
 51
292.1889539889989
  0
ARC
  5
460D
330
2
100
AcDbEntity
  8
KIJUN
100
AcDbCircle
 10
204.3678427847323
 20
102.3456413328905
 30
0.0
 40
60.95715539338188
100
AcDbArc
 50
221.1776137015474
 51
236.4917906498338
  0
ARC
  5
460E
330
2
100
AcDbEntity
  8
KIJUN
100
AcDbCircle
 10
120.4853801450623
 20
106.111945429864
 30
0.0
 40
58.06340206377793
100
AcDbArc
 50
266.8209053621215
 51
310.8807158795714
  0
ARC
  5
460F
330
2
100
AcDbEntity
  8
KIJUN
100
AcDbCircle
 10
119.6334849827641
 20
86.00077180995951
 30
0.0
 40
37.93685815101589
100
AcDbArc
 50
237.1788815976192
 51
266.4210893185526
  0
ARC
  5
4610
330
2
100
AcDbEntity
  8
KIJUN
100
AcDbCircle
 10
90.62209098971175
 20
58.43323423206847
 30
0.0
 40
9.486274561249798
100
AcDbArc
 50
221.2762686154122
 51
332.9548242440905
  0
ARC
  5
4611
330
2
100
AcDbEntity
  8
KIJUN
100
AcDbCircle
 10
310.2258762019178
 20
80.48138068752976
 30
0.0
 40
6.612093712577082
100
AcDbArc
 50
274.488251304285
 51
0.2574166212165398
  0
ARC
  5
4612
330
2
100
AcDbEntity
  8
KIJUN
100
AcDbCircle
 10
320.2418258442071
 20
80.37470643899657
 30
0.0
 40
3.40665366565637
100
AcDbArc
 50
48.04764424425371
 51
177.7056282073288
  0
ARC
  5
4613
330
2
100
AcDbEntity
  8
KIJUN
100
AcDbCircle
 10
190.0953137559966
 20
-62.18836482620485
 30
0.0
 40
175.6662357312178
100
AcDbArc
 50
53.12901272251469
 51
61.48954262185839
  0
ARC
  5
4614
330
2
100
AcDbEntity
  8
KIJUN
100
AcDbCircle
 10
309.097712093615
 20
96.57974788458105
 30
0.0
 40
22.74977874765731
100
AcDbArc
 50
233.2869804668824
 51
274.148077867753
  0
ARC
  5
4615
330
2
100
AcDbEntity
  8
KIJUN
100
AcDbCircle
 10
271.4870216453651
 20
96.96696562359829
 30
0.0
 40
5.38536633556616
100
AcDbArc
 50
297.1463118956496
 51
351.4657096369393
  0
ARC
  5
4616
330
2
100
AcDbEntity
  8
KIJUN
100
AcDbCircle
 10
275.9633188737485
 20
105.3299075502605
 30
0.0
 40
7.856584540740722
100
AcDbArc
 50
219.7220092652597
 51
266.8937460558727
  0
ARC
  5
4617
330
2
100
AcDbEntity
  8
KIJUN
100
AcDbCircle
 10
275.65365606115
 20
96.32140315354027
 30
0.0
 40
1.169238262072426
100
AcDbArc
 50
352.4497498358495
 51
95.6970356716406
  0
ARC
  5
4618
330
2
100
AcDbEntity
  8
KIJUN
100
AcDbCircle
 10
249.3436579980933
 20
82.03722047236821
 30
0.0
 40
27.51839257689327
100
AcDbArc
 50
41.60459394881487
 51
76.75844767782153
  0
ARC
  5
4619
330
2
100
AcDbEntity
  8
KIJUN
100
AcDbCircle
 10
253.5299515293729
 20
109.7701888806493
 30
0.0
 40
2.318819755437246
100
AcDbArc
 50
335.9172830151954
 51
77.15380782757148
  0
ARC
  5
461A
330
2
100
AcDbEntity
  8
KIJUN
100
AcDbCircle
 10
255.2638583744513
 20
132.784346495011
 30
0.0
 40
20.7891086437938
100
AcDbArc
 50
244.126471754373
 51
266.6402356722449
  0
ARC
  5
461B
330
2
100
AcDbEntity
  8
KIJUN
100
AcDbCircle
 10
240.4311869189815
 20
76.05821696235484
 30
0.0
 40
38.45485241304368
100
AcDbArc
 50
81.38457927843509
 51
96.95425246557276
  0
ARC
  5
461C
330
2
100
AcDbEntity
  8
KIJUN
100
AcDbCircle
 10
241.5717923186169
 20
124.7597420550995
 30
0.0
 40
4.395595527499004
100
AcDbArc
 50
317.2757466356641
 51
51.60319232220487
  0
ARC
  5
461D
330
2
100
AcDbEntity
  8
KIJUN
100
AcDbCircle
 10
219.9204844139229
 20
142.3611456533153
 30
0.0
 40
32.29123868324943
100
AcDbArc
 50
299.4057461768292
 51
320.3989034540547
  0
ARC
  5
461E
330
2
100
AcDbEntity
  8
KIJUN
100
AcDbCircle
 10
234.3122019441592
 20
153.2578808389349
 30
0.0
 40
26.97140248560676
100
AcDbArc
 50
253.0359911578478
 51
291.7391572048321
  0
ARC
  5
461F
330
2
100
AcDbEntity
  8
KIJUN
100
AcDbCircle
 10
216.7973479932838
 20
101.4195966295325
 30
0.0
 40
27.76938461697844
100
AcDbArc
 50
69.67537400491858
 51
123.1047236497075
  0
ARC
  5
4620
330
2
100
AcDbEntity
  8
KIJUN
100
AcDbCircle
 10
170.5834138209054
 20
139.1258515841931
 30
0.0
 40
34.2427822923498
100
AcDbArc
 50
335.0499351810177
 51
351.9102144768354
  0
ARC
  5
4621
330
2
100
AcDbEntity
  8
KIJUN
100
AcDbCircle
 10
209.7709451028588
 20
98.25810686009795
 30
0.0
 40
38.57186090593802
100
AcDbArc
 50
100.7767367775972
 51
116.0799073677273
  0
ARC
  5
4622
330
2
100
AcDbEntity
  8
KIJUN
100
AcDbCircle
 10
202.8775796390338
 20
134.5544645357403
 30
0.0
 40
1.626783596412593
100
AcDbArc
 50
351.2518714389927
 51
101.3048282384648
  0
ARC
  5
4623
330
2
100
AcDbEntity
  8
KIJUN
100
AcDbCircle
 10
190.4704098958109
 20
131.4729821196047
 30
0.0
 40
2.745091240737369
100
AcDbArc
 50
31.38653221959455
 51
131.5329196307908
  0
ARC
  5
4624
330
2
100
AcDbEntity
  8
KIJUN
100
AcDbCircle
 10
223.0351853457263
 20
98.82297164652779
 30
0.0
 40
48.85440832074748
100
AcDbArc
 50
134.7346212313209
 51
166.9566548666712
  0
ARC
  5
4625
330
2
100
AcDbEntity
  8
KIJUN
100
AcDbCircle
 10
135.1719114901744
 20
110.4888883298679
 30
0.0
 40
40.30271210638643
100
AcDbArc
 50
357.6677917731454
 51
25.45264291283422
  0
ARC
  5
4626
330
2
100
AcDbEntity
  8
KIJUN
100
AcDbCircle
 10
170.345750524739
 20
123.826902641784
 30
0.0
 40
4.164506615963902
100
AcDbArc
 50
73.00660977723412
 51
180.1205050359492
  0
ARC
  5
4627
330
2
100
AcDbEntity
  8
KIJUN
100
AcDbCircle
 10
151.3414320049166
 20
114.8300930594713
 30
0.0
 40
17.34950567450181
100
AcDbArc
 50
31.20207801526942
 51
94.71323592121793
  0
ARC
  5
4628
330
2
100
AcDbEntity
  8
KIJUN
100
AcDbCircle
 10
149.2121646149659
 20
139.789435699475
 30
0.0
 40
7.700723521649122
100
AcDbArc
 50
212.1205365245566
 51
275.2429146777905
  0
ARC
  5
4629
330
2
100
AcDbEntity
  8
KIJUN
100
AcDbCircle
 10
141.0811868805997
 20
134.6985288784701
 30
0.0
 40
1.892538677751129
100
AcDbArc
 50
31.76905419546223
 51
121.1311763655141
  0
ARC
  5
462A
330
2
100
AcDbEntity
  8
KIJUN
100
AcDbCircle
 10
143.6654267018922
 20
130.2632047730708
 30
0.0
 40
7.02563019703972
100
AcDbArc
 50
120.4707001093595
 51
189.2508188805331
  0
ARC
  5
462B
330
2
100
AcDbEntity
  8
KIJUN
100
AcDbCircle
 10
141.3074474278235
 20
141.6051845012932
 30
0.0
 40
13.28450364767544
100
AcDbArc
 50
223.3003115637751
 51
249.8498047734247
  0
ARC
  5
462C
330
2
100
AcDbEntity
  8
KIJUN
100
AcDbCircle
 10
120.4091294950989
 20
82.12012505312115
 30
0.0
 40
10.02787703145915
100
AcDbArc
 50
107.4884346477388
 51
238.4297257202335
  0
ARC
  5
462D
330
2
100
AcDbEntity
  8
KIJUN
100
AcDbCircle
 10
114.8919483069331
 20
87.21836864397047
 30
0.0
 40
20.3013147069545
100
AcDbArc
 50
327.717156070169
 51
11.68595791294579
  0
ARC
  5
462E
330
2
100
AcDbEntity
  8
KIJUN
100
AcDbCircle
 10
122.0406623939934
 20
84.43147702733872
 30
0.0
 40
12.85258509775467
100
AcDbArc
 50
237.6274100209208
 51
321.1854344567528
  0
ARC
  5
462F
330
2
100
AcDbEntity
  8
KIJUN
100
AcDbCircle
 10
111.5238939545244
 20
80.92361625078327
 30
0.0
 40
12.25861160177239
100
AcDbArc
 50
61.38068606168266
 51
171.3028445532415
  0
ARC
  5
4630
330
2
100
AcDbEntity
  8
KIJUN
100
AcDbCircle
 10
116.8453119995981
 20
78.6986803315495
 30
0.0
 40
17.90966465518395
100
AcDbArc
 50
166.8364897941273
 51
252.297310627393
  0
ARC
  5
4631
330
2
100
AcDbEntity
  8
KIJUN
100
AcDbCircle
 10
121.6259384645112
 20
92.13404527986526
 30
0.0
 40
32.16592707095421
100
AcDbArc
 50
251.4621306420949
 51
326.809495959388
  0
ARC
  5
4632
330
2
100
AcDbEntity
  8
KIJUN
100
AcDbCircle
 10
-11.53746380040888
 20
-42.6179935425609
 30
0.0
 40
198.3652018887312
100
AcDbArc
 50
36.1957079981333
 51
42.47444281431609
  0
ARC
  5
4633
330
2
100
AcDbEntity
  8
KIJUN
100
AcDbCircle
 10
-252.8861874335175
 20
-369.3437989063631
 30
0.0
 40
610.3770106569233
100
AcDbArc
 50
48.22811984965961
 51
50.35123768546286
  0
ARC
  5
4634
330
2
100
AcDbEntity
  8
KIJUN
100
AcDbCircle
 10
122.6499185574616
 20
116.2084480260788
 30
0.0
 40
20.90126400769753
100
AcDbArc
 50
311.805844244898
 51
347.1805916116196
  0
ARC
  5
4635
330
2
100
AcDbEntity
  8
KIJUN
100
AcDbCircle
 10
144.7134153045028
 20
101.2247786335547
 30
0.0
 40
10.48214871162788
100
AcDbArc
 50
24.8382224555797
 51
99.24050195209613
  0
ARC
  5
4636
330
2
100
AcDbEntity
  8
KIJUN
100
AcDbCircle
 10
130.2756930456206
 20
96.35182440622255
 30
0.0
 40
25.68383839854112
100
AcDbArc
 50
335.9315124061602
 51
21.17165630847614
  0
ARC
  5
4637
330
2
100
AcDbEntity
  8
KIJUN
100
AcDbCircle
 10
182.1136240646062
 20
78.58327470968493
 30
0.0
 40
3.607327239613462
100
AcDbArc
 50
264.8223687568286
 51
77.65234802577565
  0
ARC
  5
4638
330
2
100
AcDbEntity
  8
KIJUN
100
AcDbCircle
 10
180.8828237981878
 20
59.02519612766545
 30
0.0
 40
15.99111441027939
100
AcDbArc
 50
86.75473498748107
 51
129.1465923326566
  0
ARC
  5
4639
330
2
100
AcDbEntity
  8
KIJUN
100
AcDbCircle
 10
200.3985372755476
 20
24.44737338470907
 30
0.0
 40
60.26088117680058
100
AcDbArc
 50
65.83276323081985
 51
106.8955696207657
  0
ARC
  5
463A
330
2
100
AcDbEntity
  8
KIJUN
100
AcDbCircle
 10
231.1605052270074
 20
78.45887123280481
 30
0.0
 40
6.167482949637505
100
AcDbArc
 50
170.9720294676534
 51
220.8675037664804
  0
ARC
  5
463B
330
2
100
AcDbEntity
  8
KIJUN
100
AcDbCircle
 10
221.7656949849986
 20
72.02231633566931
 30
0.0
 40
5.305261861625954
100
AcDbArc
 50
309.0668386631223
 51
26.90983507968154
  0
ARC
  5
463C
330
2
100
AcDbEntity
  8
KIJUN
100
AcDbCircle
 10
201.582138772016
 20
93.30363496423542
 30
0.0
 40
34.62228571157852
100
AcDbArc
 50
276.9915957275371
 51
312.807357923284
  0
ARC
  5
463D
330
2
100
AcDbEntity
  8
KIJUN
100
AcDbCircle
 10
196.5865482795533
 20
109.0185757887444
 30
0.0
 40
45.59307284486187
100
AcDbArc
 50
235.5383858105447
 51
276.671048294773
  0
ARC
  5
463E
330
2
100
AcDbEntity
  8
KIJUN
100
AcDbCircle
 10
202.2328313725317
 20
60.02509787319884
 30
0.0
 40
3.725550924019597
100
AcDbArc
 50
343.0473997629499
 51
95.38736395574254
  0
ARC
  5
463F
330
2
100
AcDbEntity
  8
KIJUN
100
AcDbCircle
 10
104.0508067623024
 20
163.8598908837601
 30
0.0
 40
11.04202441719963
100
AcDbArc
 50
210.9288421445225
 51
292.934865991878
  0
ARC
  5
4640
330
2
100
AcDbEntity
  8
KIJUN
100
AcDbCircle
 10
113.4627130869073
 20
140.8082875000758
 30
0.0
 40
13.85856701731766
100
AcDbArc
 50
340.5188222082207
 51
111.6325632696534
  0
ARC
  5
4641
330
2
100
AcDbEntity
  8
KIJUN
100
AcDbCircle
 10
133.0744977293315
 20
133.9887335778783
 30
0.0
 40
6.905663981070151
100
AcDbArc
 50
161.4425822685332
 51
246.2614191333937
  0
ARC
  5
4642
330
2
100
AcDbEntity
  8
KIJUN
100
AcDbCircle
 10
122.7407563071795
 20
114.1990765468207
 30
0.0
 40
15.44194575784581
100
AcDbArc
 50
324.7858616813906
 51
60.71382411913592
  0
ARC
  5
4643
330
2
100
AcDbEntity
  8
KIJUN
100
AcDbCircle
 10
116.9814464123376
 20
78.4691713693513
 30
0.0
 40
30.22698398081378
100
AcDbArc
 50
140.8808524898308
 51
233.6631869577602
  0
ARC
  5
4644
330
2
100
AcDbEntity
  8
KIJUN
100
AcDbCircle
 10
116.6859081178893
 20
76.36879022359344
 30
0.0
 40
31.37549872723881
100
AcDbArc
 50
50.64256162954256
 51
137.5627145126169
  0
ARC
  5
4645
330
2
100
AcDbEntity
  8
KIJUN
100
AcDbCircle
 10
111.2865803508608
 20
71.98625090865039
 30
0.0
 40
33.3459905827075
100
AcDbArc
 50
36.53097647011989
 51
66.1995568555613
  0
ARC
  5
4646
330
2
100
AcDbEntity
  8
KIJUN
100
AcDbCircle
 10
118.9399141831598
 20
84.4855172065432
 30
0.0
 40
7.362747707998876
100
AcDbArc
 50
8.272080524397797
 51
102.1073724954618
  0
ARC
  5
4647
330
2
100
AcDbEntity
  8
KIJUN
100
AcDbCircle
 10
119.5518312153501
 20
84.87520563914477
 30
0.0
 40
6.707735817833325
100
AcDbArc
 50
259.4072105396459
 51
5.729263360791795
  0
ARC
  5
4648
330
2
100
AcDbEntity
  8
KIJUN
100
AcDbCircle
 10
158.3675105680287
 20
136.7898334685797
 30
0.0
 40
22.95095223893366
100
AcDbArc
 50
199.4863889558637
 51
228.5410255751569
  0
ARC
  5
4649
330
2
100
AcDbEntity
  8
KIJUN
100
AcDbCircle
 10
146.5804316595256
 20
115.5187497004872
 30
0.0
 40
5.309391447759959
100
AcDbArc
 50
129.9374702288076
 51
228.0355317940745
  0
ARC
  5
464A
330
2
100
AcDbEntity
  8
KIJUN
100
AcDbCircle
 10
145.6798821288152
 20
105.3683994501168
 30
0.0
 40
14.44072717586839
100
AcDbArc
 50
14.02189264679917
 51
100.0008651755292
  0
ARC
  5
464B
330
2
100
AcDbEntity
  8
KIJUN
100
AcDbCircle
 10
125.1867044651225
 20
99.29723195119875
 30
0.0
 40
35.80622113092991
100
AcDbArc
 50
329.3681342174119
 51
15.5020804049289
  0
ARC
  5
464C
330
2
100
AcDbEntity
  8
KIJUN
100
AcDbCircle
 10
146.7817586216654
 20
85.24832199108413
 30
0.0
 40
6.973202464128281
100
AcDbArc
 50
346.5661594560523
 51
5.174471726501487
  0
ARC
  5
464D
330
2
100
AcDbEntity
  8
KIJUN
100
AcDbCircle
 10
162.1159014942395
 20
76.31769686897294
 30
0.0
 40
11.25064269896259
100
AcDbArc
 50
139.4739695150699
 51
175.4580979773926
  0
ARC
  5
464E
330
2
100
AcDbEntity
  8
KIJUN
100
AcDbCircle
 10
148.3642575500222
 20
77.05993626742449
 30
0.0
 40
2.54068574889344
100
AcDbArc
 50
274.0603664994766
 51
3.354803285741043
  0
ARC
  5
464F
330
2
100
AcDbEntity
  8
KIJUN
100
AcDbCircle
 10
173.0669434612978
 20
123.9728623906216
 30
0.0
 40
6.887428353059876
100
AcDbArc
 50
181.2871955271117
 51
216.5457801302476
  0
ARC
  5
4650
330
2
100
AcDbEntity
  8
KIJUN
100
AcDbCircle
 10
145.3665047723559
 20
135.2827247647481
 30
0.0
 40
5.55239925961304
100
AcDbArc
 50
196.1305170535993
 51
276.4826397489599
  0
ARC
  5
4651
330
2
100
AcDbEntity
  8
KIJUN
100
AcDbCircle
 10
147.6556743961082
 20
105.2232186402297
 30
0.0
 40
24.59883809800984
100
AcDbArc
 50
57.45922727480581
 51
93.87477398671189
  0
ARC
  5
4652
330
2
100
AcDbEntity
  8
KIJUN
100
AcDbCircle
 10
233.0598814803244
 20
73.45692908055792
 30
0.0
 40
9.974215188096485
100
AcDbArc
 50
330.4746278594381
 51
143.2363458418663
  0
ARC
  5
4653
330
2
100
AcDbEntity
  8
KIJUN
100
AcDbCircle
 10
232.1769161309994
 20
72.39253091546067
 30
0.0
 40
6.032543684813388
100
AcDbArc
 50
324.7189493229523
 51
136.283690773655
  0
ARC
  5
4654
330
2
100
AcDbEntity
  8
KIJUN
100
AcDbCircle
 10
205.7796171911509
 20
91.54021384323327
 30
0.0
 40
38.64278942279039
100
AcDbArc
 50
270.8912334017647
 51
324.14951103994
  0
ARC
  5
4655
330
2
100
AcDbEntity
  8
KIJUN
100
AcDbCircle
 10
205.5028506453086
 20
47.69376302725855
 30
0.0
 40
5.281794256598206
100
AcDbArc
 50
31.7284211262831
 51
80.43310257396992
  0
ARC
  5
4656
330
2
100
AcDbEntity
  8
KIJUN
100
AcDbCircle
 10
184.1580578412654
 20
55.3217539279108
 30
0.0
 40
5.726444698970341
100
AcDbArc
 50
294.7415386624478
 51
138.8425604782733
  0
ARC
  5
4657
330
2
100
AcDbEntity
  8
KIJUN
100
AcDbCircle
 10
177.3274454878664
 20
56.64546141342582
 30
0.0
 40
3.510602825919572
100
AcDbArc
 50
239.4353672101804
 51
44.14470362416478
  0
ARC
  5
4658
330
2
100
AcDbEntity
  8
KIJUN
100
AcDbCircle
 10
236.6735770798566
 20
-29.33561683312659
 30
0.0
 40
120.3912118799584
100
AcDbArc
 50
123.1796696436622
 51
130.4991573582503
  0
ARC
  5
4659
330
2
100
AcDbEntity
  8
KIJUN
100
AcDbCircle
 10
203.6003824705758
 20
109.9595706996191
 30
0.0
 40
62.93733398154465
100
AcDbArc
 50
228.3490249001678
 51
243.5248048822291
  0
ARC
  5
465A
330
2
100
AcDbEntity
  8
KIJUN
100
AcDbCircle
 10
197.1228170246851
 20
105.1429148509696
 30
0.0
 40
47.01119964181284
100
AcDbArc
 50
259.5843859906653
 51
277.597799675571
  0
ARC
  5
465B
330
2
100
AcDbEntity
  8
KIJUN
100
AcDbCircle
 10
197.1228170246851
 20
105.1429148509696
 30
0.0
 40
47.01119964181284
100
AcDbArc
 50
231.9404920278215
 51
251.2429299108331
  0
ARC
  5
465C
330
2
100
AcDbEntity
  8
KIJUN
100
AcDbCircle
 10
201.2541919945109
 20
97.23150334819976
 30
0.0
 40
47.41173351170936
100
AcDbArc
 50
258.0773734165313
 51
276.3498843897239
  0
ARC
  5
465D
330
2
100
AcDbEntity
  8
KIJUN
100
AcDbCircle
 10
117.0462438643609
 20
86.52618272928213
 30
0.0
 40
12.34553402121726
100
AcDbArc
 50
341.1665488306604
 51
45.52849907677612
  0
ARC
  5
465E
330
2
100
AcDbEntity
  8
KIJUN
100
AcDbCircle
 10
121.6829147850643
 20
84.91411256125799
 30
0.0
 40
7.436756651747686
100
AcDbArc
 50
243.1042845956204
 51
341.3896621596204
  0
ARC
  5
465F
330
2
100
AcDbEntity
  8
KIJUN
100
AcDbCircle
 10
112.2689062231745
 20
79.6296471365502
 30
0.0
 40
20.6626890515384
100
AcDbArc
 50
49.47551650388978
 51
189.8237356485235
  0
ARC
  5
4660
330
2
100
AcDbEntity
  8
KIJUN
100
AcDbCircle
 10
186.53461646972
 20
103.2881916908081
 30
0.0
 40
107.0956118229722
100
AcDbArc
 50
149.16333782653
 51
180.4179641294929
  0
ARC
  5
4661
330
2
100
AcDbEntity
  8
KIJUN
100
AcDbCircle
 10
286.9853211941718
 20
19.41767685019921
 30
0.0
 40
223.4692630741602
100
AcDbArc
 50
143.0686970480745
 51
155.2026869516151
  0
ARC
  5
4662
330
2
100
AcDbEntity
  8
KIJUN
100
AcDbCircle
 10
142.7277313448959
 20
80.06789272630728
 30
0.0
 40
58.41003556008192
100
AcDbArc
 50
106.1019196429587
 51
154.1492502076293
  0
ARC
  5
4663
330
2
100
AcDbEntity
  8
KIJUN
100
AcDbCircle
 10
140.74659979171
 20
72.25314215705999
 30
0.0
 40
56.3913101338671
100
AcDbArc
 50
100.6814832449575
 51
145.8167255169585
  0
ARC
  5
4664
330
2
100
AcDbEntity
  8
KIJUN
100
AcDbCircle
 10
117.8575216997842
 20
74.46989871646477
 30
0.0
 40
35.44569205643735
100
AcDbArc
 50
60.41629580251132
 51
118.1752233255116
  0
ARC
  5
4665
330
2
100
AcDbEntity
  8
KIJUN
100
AcDbCircle
 10
80.81635740735237
 20
56.2398301370962
 30
0.0
 40
4.866654471338138
100
AcDbArc
 50
273.1849252576958
 51
303.3639563510365
  0
ARC
  5
4666
330
2
100
AcDbEntity
  8
KIJUN
100
AcDbCircle
 10
130.2042642224694
 20
64.31936456538903
 30
0.0
 40
50.793111039511
100
AcDbArc
 50
174.5755718236415
 51
194.757753518973
  0
ARC
  5
4667
330
2
100
AcDbEntity
  8
KIJUN
100
AcDbCircle
 10
142.9760968149319
 20
104.1398702249392
 30
0.0
 40
29.1644487035524
100
AcDbArc
 50
352.6423441309777
 51
32.64389260608345
  0
ARC
  5
4668
330
2
100
AcDbEntity
  8
KIJUN
100
AcDbCircle
 10
117.609318106713
 20
102.4948600020533
 30
0.0
 40
47.76760234951817
100
AcDbArc
 50
269.0139581980629
 51
0.1845681263746314
  0
ARC
  5
4669
330
2
100
AcDbEntity
  8
KIJUN
100
AcDbCircle
 10
117.1289966862701
 20
80.29820042616703
 30
0.0
 40
25.56615282014222
100
AcDbArc
 50
189.4417027618008
 51
269.2341937168531
  0
ARC
  5
466A
330
2
100
AcDbEntity
  8
KIJUN
100
AcDbCircle
 10
124.0951167586713
 20
87.81852165914598
 30
0.0
 40
34.16222771493467
100
AcDbArc
 50
199.199532786857
 51
199.1995327868571
  0
ARC
  5
466B
330
2
100
AcDbEntity
  8
KIJUN
100
AcDbCircle
 10
142.3203519245692
 20
102.4751283684915
 30
0.0
 40
23.05697427991315
100
AcDbArc
 50
0.43140937803466
 51
81.17481351303075
  0
ARC
  5
466C
330
2
100
AcDbEntity
  8
KIJUN
100
AcDbCircle
 10
91.41476057634497
 20
59.51916707010402
 30
0.0
 40
5.124315921664908
100
AcDbArc
 50
214.6828384234256
 51
322.0177980028083
  0
ARC
  5
466D
330
2
100
AcDbEntity
  8
KIJUN
100
AcDbCircle
 10
103.0820319174183
 20
68.51266973185772
 30
0.0
 40
19.85050187217873
100
AcDbArc
 50
183.122806150643
 51
216.866678163827
  0
ARC
  5
466E
330
2
100
AcDbEntity
  8
KIJUN
100
AcDbCircle
 10
-65.52004971638621
 20
-65.41293026021207
 30
0.0
 40
257.2559463737035
100
AcDbArc
 50
33.50377048935587
 51
37.68020229093154
  0
ARC
  5
466F
330
2
100
AcDbEntity
  8
KIJUN
100
AcDbCircle
 10
186.0353671345994
 20
133.4110602924722
 30
0.0
 40
17.87226068103977
100
AcDbArc
 50
299.606651841835
 51
330.7609690096243
  0
ARC
  5
4670
330
2
100
AcDbEntity
  8
KIJUN
100
AcDbCircle
 10
203.3646256566059
 20
106.1511005203896
 30
0.0
 40
14.47854885348487
100
AcDbArc
 50
125.9477722523415
 51
151.1759966296266
  0
ARC
  5
4671
330
2
100
AcDbEntity
  8
KIJUN
100
AcDbCircle
 10
176.7180724717842
 20
137.3352095408111
 30
0.0
 40
27.94193489901104
100
AcDbArc
 50
299.9783609073276
 51
333.0723385235661
  0
ARC
  5
4672
330
2
100
AcDbEntity
  8
KIJUN
100
AcDbCircle
 10
233.5082120212929
 20
98.9945785938986
 30
0.0
 40
52.96971588723393
100
AcDbArc
 50
140.1976870708576
 51
162.7686322397071
  0
ARC
  5
4673
330
2
100
AcDbEntity
  8
KIJUN
100
AcDbCircle
 10
223.4765376660766
 20
73.24211150332692
 30
0.0
 40
51.64090931030873
100
AcDbArc
 50
129.42667823058
 51
151.0955392392571
  0
ARC
  5
4674
330
2
100
AcDbEntity
  8
KIJUN
100
AcDbCircle
 10
-221.209669093206
 20
360.8769287867568
 30
0.0
 40
478.1011156593233
100
AcDbArc
 50
325.0480735795265
 51
326.6733648913206
  0
ARC
  5
4675
330
2
100
AcDbEntity
  8
KIJUN
100
AcDbCircle
 10
95.47707780328881
 20
118.8357797449311
 30
0.0
 40
80.58539801924792
100
AcDbArc
 50
345.0271008711612
 51
352.8810309019647
  0
ARC
  5
4676
330
2
100
AcDbEntity
  8
KIJUN
100
AcDbCircle
 10
231.8531266621397
 20
136.2123048391083
 30
0.0
 40
22.32929044436821
100
AcDbArc
 50
253.7758704872764
 51
280.1163025223866
  0
ARC
  5
4677
330
2
100
AcDbEntity
  8
KIJUN
100
AcDbCircle
 10
220.1504152625855
 20
106.2784724885454
 30
0.0
 40
10.09949028965709
100
AcDbArc
 50
2.929579745337312
 51
57.24702026420565
  0
ARC
  5
4678
330
2
100
AcDbEntity
  8
KIJUN
100
AcDbCircle
 10
224.6813912438831
 20
128.9046412027286
 30
0.0
 40
22.79722711929375
100
AcDbArc
 50
256.7958556682453
 51
284.1040647754919
  0
ARC
  5
4679
330
2
100
AcDbEntity
  8
KIJUN
100
AcDbCircle
 10
212.0865644414922
 20
72.33426003618165
 30
0.0
 40
35.16069010575188
100
AcDbArc
 50
77.87146447353933
 51
113.2880879571978
  0
ARC
  5
467A
330
2
100
AcDbEntity
  8
KIJUN
100
AcDbCircle
 10
220.503297879427
 20
52.17692292247059
 30
0.0
 40
54.54290813432355
100
AcDbArc
 50
91.0812922695654
 51
113.0793017502326
  0
ARC
  5
467B
330
2
100
AcDbEntity
  8
KIJUN
100
AcDbCircle
 10
198.6947237739103
 20
103.5091654058382
 30
0.0
 40
1.231363756736525
100
AcDbArc
 50
114.4212644236805
 51
290.3142965338897
  0
ARC
  5
467C
330
2
100
AcDbEntity
  8
KIJUN
100
AcDbCircle
 10
315.9046533739386
 20
76.18122372126942
 30
0.0
 40
7.459093877639852
100
AcDbArc
 50
281.0704117143741
 51
45.03074062787746
  0
ARC
  5
467D
330
2
100
AcDbEntity
  8
KIJUN
100
AcDbCircle
 10
312.6844254112254
 20
99.16618638866154
 30
0.0
 40
30.66030435172196
100
AcDbArc
 50
232.9266195538298
 51
278.7279508426879
  0
ARC
  5
467E
330
2
100
AcDbEntity
  8
KIJUN
100
AcDbCircle
 10
220.9074554983894
 20
13.95861449781948
 30
0.0
 40
84.25438978186654
100
AcDbArc
 50
48.36291179503581
 51
117.1454522798781
  0
ARC
  5
467F
330
2
100
AcDbEntity
  8
KIJUN
100
AcDbCircle
 10
240.1401846817626
 20
56.30111604770211
 30
0.0
 40
24.66714566795975
100
AcDbArc
 50
22.33505211369127
 51
64.3706549514411
  0
ARC
  5
4680
330
2
100
AcDbEntity
  8
KIJUN
100
AcDbCircle
 10
284.7322691111806
 20
57.14058115859879
 30
0.0
 40
6.579476028831678
100
AcDbArc
 50
29.25412165081187
 51
72.42600357096451
  0
ARC
  5
4681
330
2
100
AcDbEntity
  8
KIJUN
100
AcDbCircle
 10
274.5719705372612
 20
112.8451894599851
 30
0.0
 40
20.67989289087787
100
AcDbArc
 50
228.7618292099392
 51
268.2603523423105
  0
ARC
  5
4682
330
2
100
AcDbEntity
  8
KIJUN
100
AcDbCircle
 10
251.3327036051576
 20
117.5713754927012
 30
0.0
 40
9.753433924016535
100
AcDbArc
 50
244.4803583065982
 51
296.2526058887736
  0
ARC
  5
4683
330
2
100
AcDbEntity
  8
KIJUN
100
AcDbCircle
 10
271.6725242786565
 20
102.2361636258627
 30
0.0
 40
7.158722356475784
100
AcDbArc
 50
238.2493276343371
 51
304.5711615035046
  0
ARC
  5
4684
330
2
100
AcDbEntity
  8
KIJUN
100
AcDbCircle
 10
236.76495103643
 20
50.70364346015942
 30
0.0
 40
55.09073774637298
100
AcDbArc
 50
55.57978803201079
 51
87.87286085124947
  0
ARC
  5
4685
330
2
100
AcDbEntity
  8
KIJUN
100
AcDbCircle
 10
285.0307018611279
 20
84.06993005052187
 30
0.0
 40
23.96556380104716
100
AcDbArc
 50
217.7942909056125
 51
273.7106088598065
  0
ARC
  5
4686
330
2
100
AcDbEntity
  8
KIJUN
100
AcDbCircle
 10
217.1269531987356
 20
28.647859424778
 30
0.0
 40
63.69467258920331
100
AcDbArc
 50
39.75753118673341
 51
88.27697702113027
  0
ARC
  5
4687
330
2
100
AcDbEntity
  8
KIJUN
100
AcDbCircle
 10
212.4618087932229
 20
4.234295607180078
 30
0.0
 40
88.32489887391353
100
AcDbArc
 50
85.72743833833341
 51
107.1274543798518
  0
ARC
  5
4688
330
2
100
AcDbEntity
  8
KIJUN
100
AcDbCircle
 10
220.2113077196429
 20
77.40043312409284
 30
0.0
 40
37.76038441422985
100
AcDbArc
 50
81.77333622282981
 51
117.7337252551974
  0
ARC
  5
4689
330
2
100
AcDbEntity
  8
KIJUN
100
AcDbCircle
 10
234.4292261028767
 20
128.9770743328932
 30
0.0
 40
9.902855840860473
100
AcDbArc
 50
263.0601999946813
 51
355.5266291559014
  0
ARC
  5
468A
330
2
100
AcDbEntity
  8
KIJUN
100
AcDbCircle
 10
227.8588959425973
 20
64.4692791055584
 30
0.0
 40
54.94093014474078
100
AcDbArc
 50
84.38689291263257
 51
113.0890462889207
  0
ARC
  5
468B
330
2
100
AcDbEntity
  8
KIJUN
100
AcDbCircle
 10
303.5871022009328
 20
107.3800543388952
 30
0.0
 40
40.49996965519739
100
AcDbArc
 50
228.756226155979
 51
265.2739286808525
  0
ARC
  5
468C
330
2
100
AcDbEntity
  8
KIJUN
100
AcDbCircle
 10
266.0434113579186
 20
61.38758539708916
 30
0.0
 40
4.546421285031964
100
AcDbArc
 50
181.5978112450418
 51
254.6444709399939
  0
ARC
  5
468D
330
2
100
AcDbEntity
  8
KIJUN
100
AcDbCircle
 10
242.2410535748479
 20
59.03827285381201
 30
0.0
 40
19.38553244141753
100
AcDbArc
 50
6.583412197502482
 51
66.88952400031978
  0
ARC
  5
468E
330
2
100
AcDbEntity
  8
KIJUN
100
AcDbCircle
 10
251.6523863822309
 20
80.96606089569597
 30
0.0
 40
4.476814418686849
100
AcDbArc
 50
177.7052612622785
 51
246.2585769964197
  0
ARC
  5
468F
330
2
100
AcDbEntity
  8
KIJUN
100
AcDbCircle
 10
210.9906926967231
 20
13.72087393406621
 30
0.0
 40
76.52228602635872
100
AcDbArc
 50
61.77637493741459
 51
94.59624424909488
  0
ARC
  5
4690
330
2
100
AcDbEntity
  8
KIJUN
100
AcDbCircle
 10
236.9440691991008
 20
54.88294416691228
 30
0.0
 40
20.79857570824176
100
AcDbArc
 50
25.66203847162245
 51
69.39879981475147
  0
ARC
  5
4691
330
2
100
AcDbEntity
  8
KIJUN
100
AcDbCircle
 10
421.4700250918453
 20
266.0209655389802
 30
0.0
 40
229.7819417800438
100
AcDbArc
 50
230.5435393442578
 51
236.3672454930896
  0
ARC
  5
4692
330
2
100
AcDbEntity
  8
KIJUN
100
AcDbCircle
 10
214.422794569869
 20
69.56548717455638
 30
0.0
 40
39.98041749855324
100
AcDbArc
 50
73.35405999189866
 51
104.7578332413538
  0
ARC
  5
4693
330
2
100
AcDbEntity
  8
KIJUN
100
AcDbCircle
 10
229.9141404821214
 20
24.12359276701885
 30
0.0
 40
84.09290794376488
100
AcDbArc
 50
113.9438491725295
 51
141.3652995887336
  0
ARC
  5
4694
330
2
100
AcDbEntity
  8
KIJUN
100
AcDbCircle
 10
179.1719045951986
 20
68.17935264912264
 30
0.0
 40
14.41426423994339
100
AcDbArc
 50
75.07227176297404
 51
130.677097569824
  0
ARC
  5
4695
330
2
100
AcDbEntity
  8
KIJUN
100
AcDbCircle
 10
183.8346591629266
 20
50.46057154012969
 30
0.0
 40
28.80055990928738
100
AcDbArc
 50
97.08894465920042
 51
127.6017504736337
  0
ARC
  5
4696
330
2
100
AcDbEntity
  8
KIJUN
100
AcDbCircle
 10
77.81098972198822
 20
66.69433913950252
 30
0.0
 40
12.50064908692866
100
AcDbArc
 50
43.1801373524174
 51
66.51714167557618
  0
ENDSEC
  0
SECTION
  2
OBJECTS
  0
DICTIONARY
  5
1A
330
0
100
AcDbDictionary
281
     1
  3
ACAD_COLOR
350
144
  3
ACAD_GROUP
350
18
  3
ACAD_LAYOUT
350
58
  3
ACAD_MATERIAL
350
143
  3
ACAD_MLINESTYLE
350
19
  3
ACAD_PLOTSETTINGS
350
59
  3
ACAD_PLOTSTYLENAME
350
56
  3
ACAD_TABLESTYLE
350
145
  3
ACDBHEADERROUNDTRIPXREC
350
4705
  3
AcDbVariableDictionary
350
1D1
  0
DICTIONARY
  5
1B4
330
A
100
AcDbDictionary
280
     1
281
     1
  3
ACAD_LAYERFILTERS
360
3C88
  3
ACAD_LAYERSTATES
360
3452
  3
ACLYDICTIONARY
360
3C87
  0
DICTIONARY
  5
1578
330
2
100
AcDbDictionary
280
     1
281
     1
  3
ACAD_SORTENTS
360
1579
  0
DICTIONARY
  5
144
102
{ACAD_REACTORS
330
1A
102
}
330
1A
100
AcDbDictionary
281
     1
  0
DICTIONARY
  5
18
102
{ACAD_REACTORS
330
1A
102
}
330
1A
100
AcDbDictionary
281
     1
  3
*A1
350
CFC
  3
*A10
350
2C07
  3
*A11
350
2DB5
  3
*A12
350
2E88
  3
*A13
350
15D1
  3
*A14
350
1682
  3
*A15
350
1827
  3
*A16
350
18ED
  3
*A2
350
19E5
  3
*A3
350
1F8A
  3
*A4
350
2108
  3
*A5
350
2FF8
  3
*A6
350
218C
  3
*A7
350
2335
  3
*A8
350
2862
  3
*A9
350
299B
  0
DICTIONARY
  5
58
102
{ACAD_REACTORS
330
1A
102
}
330
1A
100
AcDbDictionary
281
     1
  3
Model
350
5A
  3
ﾚｲｱｳﾄ1
350
5B
  0
DICTIONARY
  5
143
102
{ACAD_REACTORS
330
1A
102
}
330
1A
100
AcDbDictionary
281
     1
  0
DICTIONARY
  5
19
102
{ACAD_REACTORS
330
1A
102
}
330
1A
100
AcDbDictionary
281
     1
  3
STANDARD
350
1D
  0
DICTIONARY
  5
59
102
{ACAD_REACTORS
330
1A
102
}
330
1A
100
AcDbDictionary
281
     1
  0
ACDBDICTIONARYWDFLT
  5
56
102
{ACAD_REACTORS
330
1A
102
}
330
1A
100
AcDbDictionary
281
     1
  3
Normal
350
57
100
AcDbDictionaryWithDefault
340
57
  0
DICTIONARY
  5
145
102
{ACAD_REACTORS
330
1A
102
}
330
1A
100
AcDbDictionary
281
     1
  3
Standard
350
146
  0
DICTIONARY
  5
4705
102
{ACAD_REACTORS
330
1A
102
}
330
1A
100
AcDbDictionary
281
     1
  0
DICTIONARY
  5
1D1
102
{ACAD_REACTORS
330
1A
102
}
330
1A
100
AcDbDictionary
281
     1
  3
CTABLESTYLE
350
1D2
  3
DIMASSOC
350
D03
  3
PROJECTNAME
350
D04
  0
DICTIONARY
  5
3C88
102
{ACAD_REACTORS
330
1B4
102
}
330
1B4
100
AcDbDictionary
281
     1
  0
DICTIONARY
  5
3452
102
{ACAD_REACTORS
330
1B4
102
}
330
1B4
100
AcDbDictionary
281
     1
  0
DICTIONARY
  5
3C87
102
{ACAD_REACTORS
330
1B4
102
}
330
1B4
100
AcDbDictionary
281
     1
1001
ACAD
1000
<All
  0
SORTENTSTABLE
  5
1579
102
{ACAD_REACTORS
330
1578
102
}
330
1578
100
AcDbSortentsTable
330
2
331
4550
  5
4550
331
44DA
  5
44DA
331
3FE3
  5
3FE3
331
44E2
  5
44E2
331
4519
  5
4519
331
3FEB
  5
3FEB
331
3FF3
  5
3FF3
331
3FFB
  5
3FFB
331
44FA
  5
44FA
331
4003
  5
4003
331
4502
  5
4502
331
4539
  5
4539
331
400B
  5
400B
331
450A
  5
450A
331
4541
  5
4541
331
3FDC
  5
3FDC
331
4549
  5
4549
331
21
  5
30B1
331
4551
  5
4551
331
44DB
  5
44DB
331
3FE4
  5
3FE4
331
451A
  5
451A
331
3FEC
  5
3FEC
331
44E3
  5
44E3
331
45F1
  5
45F1
331
3FF4
  5
3FF4
331
44EB
  5
44EB
331
4522
  5
4522
331
3FFC
  5
3FFC
331
44F3
  5
44F3
331
452A
  5
452A
331
4004
  5
4004
331
44FB
  5
44FB
331
4532
  5
4532
331
400C
  5
400C
331
4503
  5
4503
331
453A
  5
453A
331
3FDD
  5
3FDD
331
450B
  5
450B
331
454A
  5
454A
331
44DC
  5
44DC
331
3FE5
  5
3FE5
331
4552
  5
4552
331
44E4
  5
44E4
331
451B
  5
451B
331
3FF5
  5
3FF5
331
44EC
  5
44EC
331
4523
  5
4524
331
3FFD
  5
3FFD
331
44F4
  5
44F4
331
452B
  5
452B
331
4005
  5
4005
331
44FC
  5
44FC
331
4533
  5
4533
331
400D
  5
400D
331
4504
  5
4504
331
453B
  5
453B
331
3FDE
  5
3FDE
331
450C
  5
450D
331
4543
  5
4543
331
23
  5
30B2
331
454B
  5
454B
331
44DD
  5
44DD
331
3FE6
  5
3FE6
331
3F6F
  5
3F70
331
4553
  5
4553
331
3FEE
  5
3FEE
331
44E5
  5
44E5
331
451C
  5
451C
331
3FF6
  5
3FF6
331
4524
  5
4523
331
3FFE
  5
3FFE
331
44F5
  5
44F5
331
452C
  5
452C
331
4006
  5
4006
331
44FD
  5
44FE
331
4534
  5
4534
331
400E
  5
400E
331
453C
  5
453C
331
3FDF
  5
3FDF
331
450D
  5
450C
331
4544
  5
4544
331
454C
  5
454C
331
3F70
  5
3FD1
331
44DE
  5
44DE
331
3FEF
  5
3FF0
331
44E6
  5
44E6
331
451D
  5
451D
331
44EE
  5
44EE
331
4525
  5
4525
331
3FFF
  5
3FFF
331
44F6
  5
44F6
331
452D
  5
452D
331
4007
  5
4007
331
44FE
  5
44FD
331
4535
  5
4535
331
4506
  5
4506
331
453D
  5
453D
331
450E
  5
450E
331
4545
  5
4545
331
44CF
  5
44CF
331
454D
  5
454D
331
3FE0
  5
3FE0
331
3FE8
  5
3FE8
331
44DF
  5
44DF
331
3FF0
  5
3FF1
331
44E7
  5
44E7
331
451E
  5
451E
331
3FF8
  5
3FF8
331
44EF
  5
44EF
331
4526
  5
4526
331
44F7
  5
44F7
331
452E
  5
452E
331
4008
  5
4008
331
44FF
  5
44FF
331
4536
  5
4536
331
4507
  5
4507
331
453E
  5
453E
331
450F
  5
4510
331
4546
  5
4546
331
454E
  5
454E
331
3FE1
  5
3FE1
331
44E0
  5
44E0
331
4517
  5
4517
331
3FE9
  5
3FE9
331
44E8
  5
44E8
331
3FF1
  5
3FEF
331
44F0
  5
44F0
331
4527
  5
4527
331
3FF9
  5
3FF9
331
452F
  5
452F
331
1F
  5
2DE6
331
44F8
  5
44F8
331
4001
  5
4001
331
4500
  5
4500
331
4537
  5
4537
331
4009
  5
4009
331
4508
  5
4508
331
453F
  5
453F
331
4547
  5
4547
331
44D1
  5
44D1
331
4510
  5
450F
331
3FE2
  5
3FE2
331
44E1
  5
44E1
331
4518
  5
4518
331
3FEA
  5
3FEA
331
45BF
  5
45BF
331
44E9
  5
44E9
331
4520
  5
4520
331
3FF2
  5
3FF2
331
44F1
  5
44F1
331
4528
  5
4528
331
3FFA
  5
3FFA
331
44F9
  5
44F9
331
4530
  5
4530
331
4002
  5
4002
331
4501
  5
4501
331
4538
  5
4538
331
3FD3
  5
3FD3
331
400A
  5
400A
331
4509
  5
4509
331
4540
  5
4540
331
3FDB
  5
3FDB
331
4548
  5
4548
331
20
  5
2E12
  0
GROUP
  5
CFC
102
{ACAD_REACTORS
330
18
102
}
330
18
100
AcDbGroup
300

 70
     1
 71
     1
  0
GROUP
  5
2C07
102
{ACAD_REACTORS
330
18
102
}
330
18
100
AcDbGroup
300

 70
     1
 71
     1
  0
GROUP
  5
2DB5
102
{ACAD_REACTORS
330
18
102
}
330
18
100
AcDbGroup
300

 70
     1
 71
     1
  0
GROUP
  5
2E88
102
{ACAD_REACTORS
330
18
102
}
330
18
100
AcDbGroup
300

 70
     1
 71
     1
  0
GROUP
  5
15D1
102
{ACAD_REACTORS
330
18
102
}
330
18
100
AcDbGroup
300

 70
     1
 71
     1
  0
GROUP
  5
1682
102
{ACAD_REACTORS
330
18
102
}
330
18
100
AcDbGroup
300

 70
     1
 71
     1
  0
GROUP
  5
1827
102
{ACAD_REACTORS
330
18
102
}
330
18
100
AcDbGroup
300

 70
     1
 71
     1
  0
GROUP
  5
18ED
102
{ACAD_REACTORS
330
18
102
}
330
18
100
AcDbGroup
300

 70
     1
 71
     1
  0
GROUP
  5
19E5
102
{ACAD_REACTORS
330
18
102
}
330
18
100
AcDbGroup
300

 70
     1
 71
     1
  0
GROUP
  5
1F8A
102
{ACAD_REACTORS
330
18
102
}
330
18
100
AcDbGroup
300

 70
     1
 71
     1
  0
GROUP
  5
2108
102
{ACAD_REACTORS
330
18
102
}
330
18
100
AcDbGroup
300

 70
     1
 71
     1
  0
GROUP
  5
2FF8
102
{ACAD_REACTORS
330
18
102
}
330
18
100
AcDbGroup
300

 70
     1
 71
     1
  0
GROUP
  5
218C
102
{ACAD_REACTORS
330
18
102
}
330
18
100
AcDbGroup
300

 70
     1
 71
     1
  0
GROUP
  5
2335
102
{ACAD_REACTORS
330
18
102
}
330
18
100
AcDbGroup
300

 70
     1
 71
     1
  0
GROUP
  5
2862
102
{ACAD_REACTORS
330
18
102
}
330
18
100
AcDbGroup
300

 70
     1
 71
     1
  0
GROUP
  5
299B
102
{ACAD_REACTORS
330
18
102
}
330
18
100
AcDbGroup
300

 70
     1
 71
     1
  0
LAYOUT
  5
5A
102
{ACAD_XDICTIONARY
360
4706
102
}
102
{ACAD_REACTORS
330
58
102
}
330
58
100
AcDbPlotSettings
  1

  2
none_device
  4
Letter_(8.50_x_11.00_Inches)
  6

 40
6.349999904632568
 41
6.349999904632568
 42
6.350006103515625
 43
6.350006103515625
 44
215.8999938964844
 45
279.3999938964844
 46
0.0
 47
0.0
 48
0.0
 49
0.0
140
0.0
141
0.0
142
1.0
143
31.42690824109359
 70
 11952
 72
     0
 73
     1
 74
     0
  7
monochrome.ctb
 75
     0
147
0.0318198657127973
148
-5458.898172012973
149
493.9507553935718
100
AcDbLayout
  1
Model
 70
     1
 71
     0
 10
0.0
 20
0.0
 11
12.0
 21
9.0
 12
0.0
 22
0.0
 32
0.0
 14
0.0
 24
0.0
 34
0.0
 15
0.0
 25
0.0
 35
0.0
146
0.0
 13
0.0
 23
0.0
 33
0.0
 16
1.0
 26
0.0
 36
0.0
 17
0.0
 27
1.0
 37
0.0
 76
     0
330
2
1001
ACAD_PSEXT
1000
なし
1000
なし
1000
適切ではありません
1000
新しいプロッタ環境設定名を選択しない限り、レイアウトは印刷されません。
1070
     0
  0
LAYOUT
  5
5B
102
{ACAD_XDICTIONARY
360
4708
102
}
102
{ACAD_REACTORS
330
58
102
}
330
58
100
AcDbPlotSettings
  1

  2
なし
  4

  6

 40
0.0
 41
0.0
 42
0.0
 43
0.0
 44
0.0
 45
0.0
 46
0.0
 47
0.0
 48
0.0
 49
0.0
140
0.0
141
0.0
142
1.0
143
1.0
 70
   688
 72
     0
 73
     0
 74
     5
  7
monochrome.ctb
 75
    16
147
1.0
148
0.0
149
0.0
100
AcDbLayout
  1
ﾚｲｱｳﾄ1
 70
     1
 71
     1
 10
0.0
 20
0.0
 11
12.0
 21
9.0
 12
0.0
 22
0.0
 32
0.0
 14
1.000000000000000E+20
 24
1.000000000000000E+20
 34
1.000000000000000E+20
 15
-1.000000000000000E+20
 25
-1.000000000000000E+20
 35
-1.000000000000000E+20
146
0.0
 13
0.0
 23
0.0
 33
0.0
 16
1.0
 26
0.0
 36
0.0
 17
0.0
 27
1.0
 37
0.0
 76
     0
330
7
  0
MLINESTYLE
  5
1D
102
{ACAD_REACTORS
330
19
102
}
330
19
100
AcDbMlineStyle
  2
STANDARD
 70
     0
  3

 62
   256
 51
90.0
 52
90.0
 71
     2
 49
0.5
 62
   256
  6
BYLAYER
 49
-0.5
 62
   256
  6
BYLAYER
  0
ACDBPLACEHOLDER
  5
57
102
{ACAD_REACTORS
330
56
102
}
330
56
  0
TABLESTYLE
  5
146
102
{ACAD_REACTORS
330
145
102
}
330
145
100
AcDbTableStyle
  3
Standard
 70
     0
 71
     0
 40
0.06
 41
0.06
280
     0
281
     0
  7
STANDARD
140
0.18
170
     2
 62
     0
 63
     7
283
     0
274
    -2
284
     1
 64
     0
275
    -2
285
     1
 65
     0
276
    -2
286
     1
 66
     0
277
    -2
287
     1
 67
     0
278
    -2
288
     1
 68
     0
279
    -2
289
     1
 69
     0
  7
STANDARD
140
0.25
170
     5
 62
     0
 63
     7
283
     0
274
    -2
284
     1
 64
     0
275
    -2
285
     1
 65
     0
276
    -2
286
     1
 66
     0
277
    -2
287
     1
 67
     0
278
    -2
288
     1
 68
     0
279
    -2
289
     1
 69
     0
  7
STANDARD
140
0.18
170
     5
 62
     0
 63
     7
283
     0
274
    -2
284
     1
 64
     0
275
    -2
285
     1
 65
     0
276
    -2
286
     1
 66
     0
277
    -2
287
     1
 67
     0
278
    -2
288
     1
 68
     0
279
    -2
289
     1
 69
     0
  0
DICTIONARYVAR
  5
1D2
102
{ACAD_REACTORS
330
1D1
102
}
330
1D1
100
DictionaryVariables
280
     0
  1
STANDARD
  0
DICTIONARYVAR
  5
D03
102
{ACAD_REACTORS
330
1D1
102
}
330
1D1
100
DictionaryVariables
280
     0
  1
1
  0
DICTIONARYVAR
  5
D04
102
{ACAD_REACTORS
330
1D1
102
}
330
1D1
100
DictionaryVariables
280
     0
  1

  0
DICTIONARY
  5
4706
330
5A
100
AcDbDictionary
280
     1
281
     1
  3
ACAD_XREC_ROUNDTRIP
360
4707
  0
DICTIONARY
  5
4708
330
5B
100
AcDbDictionary
280
     1
281
     1
  3
ACAD_XREC_ROUNDTRIP
360
4709
  0
XRECORD
  5
4707
102
{ACAD_REACTORS
330
4706
102
}
330
4706
100
AcDbXrecord
280
     1
102
SHADEPLOT
 70
     0
102
SHADEPLOTRESLEVEL
 70
     2
102
SHADEPLOTCUSTOMDPI
 70
   300
  0
XRECORD
  5
4709
102
{ACAD_REACTORS
330
4708
102
}
330
4708
100
AcDbXrecord
280
     1
102
SHADEPLOT
 70
     0
102
SHADEPLOTRESLEVEL
 70
     2
102
SHADEPLOTCUSTOMDPI
 70
   300
  0
ENDSEC
  0
EOF
