  0
SECTION
  2
HEADER
  9
$ACADVER
  1
AC1015
  9
$ACADMAINTVER
 70
    20
  9
$DWGCODEPAGE
  3
ANSI_932
  9
$INSBASE
 10
922.019522
 20
-675.4306699999999
 30
0.0
  9
$EXTMIN
 10
-199.8162337135161
 20
-0.0167891672346059
 30
-0.0000000000000053
  9
$EXTMAX
 10
263.9723986606282
 20
211.3168563181713
 30
0.0000000000000099
  9
$LIMMIN
 10
0.0
 20
0.0
  9
$LIMMAX
 10
420.0
 20
297.0
  9
$ORTHOMODE
 70
     1
  9
$REGENMODE
 70
     1
  9
$FILLMODE
 70
     1
  9
$QTEXTMODE
 70
     0
  9
$MIRRTEXT
 70
     1
  9
$LTSCALE
 40
1.0
  9
$ATTMODE
 70
     1
  9
$TEXTSIZE
 40
30.0
  9
$TRACEWID
 40
0.05
  9
$TEXTSTYLE
  7
SUNPOU
  9
$CLAYER
  8
0
  9
$CELTYPE
  6
BYLAYER
  9
$CECOLOR
 62
   256
  9
$CELTSCALE
 40
1.0
  9
$DISPSILH
 70
     0
  9
$DIMSCALE
 40
1.0
  9
$DIMASZ
 40
2.0
  9
$DIMEXO
 40
10.0
  9
$DIMDLI
 40
0.38
  9
$DIMRND
 40
0.0
  9
$DIMDLE
 40
0.0
  9
$DIMEXE
 40
0.0
  9
$DIMTP
 40
0.0
  9
$DIMTM
 40
0.0
  9
$DIMTXT
 40
10.0
  9
$DIMCEN
 40
0.0
  9
$DIMTSZ
 40
0.0
  9
$DIMTOL
 70
     0
  9
$DIMLIM
 70
     0
  9
$DIMTIH
 70
     0
  9
$DIMTOH
 70
     0
  9
$DIMSE1
 70
     0
  9
$DIMSE2
 70
     0
  9
$DIMTAD
 70
     1
  9
$DIMZIN
 70
     0
  9
$DIMBLK
  1
Dot
  9
$DIMASO
 70
     1
  9
$DIMSHO
 70
     1
  9
$DIMPOST
  1

  9
$DIMAPOST
  1

  9
$DIMALT
 70
     0
  9
$DIMALTD
 70
     2
  9
$DIMALTF
 40
25.4
  9
$DIMLFAC
 40
1.0
  9
$DIMTOFL
 70
     0
  9
$DIMTVP
 40
0.0
  9
$DIMTIX
 70
     0
  9
$DIMSOXD
 70
     0
  9
$DIMSAH
 70
     0
  9
$DIMBLK1
  1

  9
$DIMBLK2
  1

  9
$DIMSTYLE
  2
STANDARD
  9
$DIMCLRD
 70
    60
  9
$DIMCLRE
 70
    70
  9
$DIMCLRT
 70
    60
  9
$DIMTFAC
 40
0.064286
  9
$DIMGAP
 40
3.0
  9
$DIMJUST
 70
     0
  9
$DIMSD1
 70
     0
  9
$DIMSD2
 70
     0
  9
$DIMTOLJ
 70
     1
  9
$DIMTZIN
 70
     0
  9
$DIMALTZ
 70
     0
  9
$DIMALTTZ
 70
     0
  9
$DIMUPT
 70
     0
  9
$DIMDEC
 70
     0
  9
$DIMTDEC
 70
     0
  9
$DIMALTU
 70
     2
  9
$DIMALTTD
 70
     2
  9
$DIMTXSTY
  7
SUNPOU
  9
$DIMAUNIT
 70
     0
  9
$DIMADEC
 70
     0
  9
$DIMALTRND
 40
0.0
  9
$DIMAZIN
 70
     0
  9
$DIMDSEP
 70
    46
  9
$DIMATFIT
 70
     3
  9
$DIMFRAC
 70
     0
  9
$DIMLDRBLK
  1

  9
$DIMLUNIT
 70
     2
  9
$DIMLWD
 70
    -2
  9
$DIMLWE
 70
    -2
  9
$DIMTMOVE
 70
     0
  9
$LUNITS
 70
     2
  9
$LUPREC
 70
     5
  9
$SKETCHINC
 40
0.1
  9
$FILLETRAD
 40
0.0
  9
$AUNITS
 70
     0
  9
$AUPREC
 70
     0
  9
$MENU
  1
acad
  9
$ELEVATION
 40
0.0
  9
$PELEVATION
 40
0.0
  9
$THICKNESS
 40
0.0
  9
$LIMCHECK
 70
     0
  9
$CHAMFERA
 40
0.0
  9
$CHAMFERB
 40
0.0
  9
$CHAMFERC
 40
0.0
  9
$CHAMFERD
 40
0.0
  9
$SKPOLY
 70
     0
  9
$TDCREATE
 40
2450623.654673033
  9
$TDUCREATE
 40
2450623.279673032
  9
$TDUPDATE
 40
2453858.615782292
  9
$TDUUPDATE
 40
2453858.240782292
  9
$TDINDWG
 40
0.1820522338
  9
$TDUSRTIMER
 40
0.1820520602
  9
$USRTIMER
 70
     1
  9
$ANGBASE
 50
0.0
  9
$ANGDIR
 70
     0
  9
$PDMODE
 70
     0
  9
$PDSIZE
 40
0.0
  9
$PLINEWID
 40
0.0
  9
$SPLFRAME
 70
     0
  9
$SPLINETYPE
 70
     6
  9
$SPLINESEGS
 70
     8
  9
$HANDSEED
  5
4821
  9
$SURFTAB1
 70
     6
  9
$SURFTAB2
 70
     6
  9
$SURFTYPE
 70
     6
  9
$SURFU
 70
     6
  9
$SURFV
 70
     6
  9
$UCSBASE
  2

  9
$UCSNAME
  2

  9
$UCSORG
 10
0.0
 20
0.0
 30
0.0
  9
$UCSXDIR
 10
1.0
 20
0.0
 30
0.0
  9
$UCSYDIR
 10
0.0
 20
1.0
 30
0.0
  9
$UCSORTHOREF
  2

  9
$UCSORTHOVIEW
 70
     0
  9
$UCSORGTOP
 10
0.0
 20
0.0
 30
0.0
  9
$UCSORGBOTTOM
 10
0.0
 20
0.0
 30
0.0
  9
$UCSORGLEFT
 10
0.0
 20
0.0
 30
0.0
  9
$UCSORGRIGHT
 10
0.0
 20
0.0
 30
0.0
  9
$UCSORGFRONT
 10
0.0
 20
0.0
 30
0.0
  9
$UCSORGBACK
 10
0.0
 20
0.0
 30
0.0
  9
$PUCSBASE
  2

  9
$PUCSNAME
  2

  9
$PUCSORG
 10
0.0
 20
0.0
 30
0.0
  9
$PUCSXDIR
 10
1.0
 20
0.0
 30
0.0
  9
$PUCSYDIR
 10
0.0
 20
1.0
 30
0.0
  9
$PUCSORTHOREF
  2

  9
$PUCSORTHOVIEW
 70
     0
  9
$PUCSORGTOP
 10
0.0
 20
0.0
 30
0.0
  9
$PUCSORGBOTTOM
 10
0.0
 20
0.0
 30
0.0
  9
$PUCSORGLEFT
 10
0.0
 20
0.0
 30
0.0
  9
$PUCSORGRIGHT
 10
0.0
 20
0.0
 30
0.0
  9
$PUCSORGFRONT
 10
0.0
 20
0.0
 30
0.0
  9
$PUCSORGBACK
 10
0.0
 20
0.0
 30
0.0
  9
$USERI1
 70
     0
  9
$USERI2
 70
     0
  9
$USERI3
 70
     0
  9
$USERI4
 70
     0
  9
$USERI5
 70
     0
  9
$USERR1
 40
0.0
  9
$USERR2
 40
0.0
  9
$USERR3
 40
0.0
  9
$USERR4
 40
0.0
  9
$USERR5
 40
0.0
  9
$WORLDVIEW
 70
     1
  9
$SHADEDGE
 70
     3
  9
$SHADEDIF
 70
    70
  9
$TILEMODE
 70
     1
  9
$MAXACTVP
 70
    16
  9
$PINSBASE
 10
0.0
 20
0.0
 30
0.0
  9
$PLIMCHECK
 70
     0
  9
$PEXTMIN
 10
1.000000000000000E+20
 20
1.000000000000000E+20
 30
1.000000000000000E+20
  9
$PEXTMAX
 10
-1.000000000000000E+20
 20
-1.000000000000000E+20
 30
-1.000000000000000E+20
  9
$PLIMMIN
 10
0.0
 20
0.0
  9
$PLIMMAX
 10
12.0
 20
9.0
  9
$UNITMODE
 70
     0
  9
$VISRETAIN
 70
     0
  9
$PLINEGEN
 70
     0
  9
$PSLTSCALE
 70
     1
  9
$TREEDEPTH
 70
  3020
  9
$CMLSTYLE
  2
STANDARD
  9
$CMLJUST
 70
     0
  9
$CMLSCALE
 40
1.0
  9
$PROXYGRAPHICS
 70
     1
  9
$MEASUREMENT
 70
     0
  9
$CELWEIGHT
370
    -1
  9
$ENDCAPS
280
     0
  9
$JOINSTYLE
280
     0
  9
$LWDISPLAY
290
     0
  9
$INSUNITS
 70
     0
  9
$HYPERLINKBASE
  1

  9
$STYLESHEET
  1

  9
$XEDIT
290
     1
  9
$CEPSNTYPE
380
     0
  9
$PSTYLEMODE
290
     1
  9
$FINGERPRINTGUID
  2
{FB88A696-E29C-4009-92AF-A3599A8169D5}
  9
$VERSIONGUID
  2
{879F62B1-BB16-4204-B5B5-95E11E31AC7C}
  9
$EXTNAMES
290
     1
  9
$PSVPSCALE
 40
0.0
  9
$OLESTARTUP
290
     0
  0
ENDSEC
  0
SECTION
  2
CLASSES
  0
CLASS
  1
DICTIONARYVAR
  2
AcDbDictionaryVar
  3
ObjectDBX Classes
 90
        0
280
     0
281
     0
  0
CLASS
  1
ACDBDICTIONARYWDFLT
  2
AcDbDictionaryWithDefault
  3
ObjectDBX Classes
 90
        0
280
     0
281
     0
  0
CLASS
  1
ACDBPLACEHOLDER
  2
AcDbPlaceHolder
  3
ObjectDBX Classes
 90
        0
280
     0
281
     0
  0
CLASS
  1
LAYOUT
  2
AcDbLayout
  3
ObjectDBX Classes
 90
        0
280
     0
281
     0
  0
CLASS
  1
TABLESTYLE
  2
AcDbTableStyle
  3
ObjectDBX Classes
 90
     2047
280
     0
281
     0
  0
CLASS
  1
SORTENTSTABLE
  2
AcDbSortentsTable
  3
ObjectDBX Classes
 90
        0
280
     0
281
     0
  0
ENDSEC
  0
SECTION
  2
TABLES
  0
TABLE
  2
VPORT
  5
12
330
0
100
AcDbSymbolTable
 70
    28
  0
VPORT
  5
481B
330
12
100
AcDbSymbolTableRecord
100
AcDbViewportTableRecord
  2
*Active
 70
     0
 10
0.0
 20
0.0
 11
1.0
 21
1.0
 12
32.0780824735561
 22
105.6500335754683
 13
0.0
 23
0.0
 14
1.0
 24
1.0
 15
0.0
 25
0.0
 16
0.0
 26
0.0
 36
1.0
 17
0.0
 27
0.0
 37
0.0
 40
299.2340255327428
 41
1.557544757033248
 42
50.0
 43
0.0
 44
0.0
 50
0.0
 51
0.0
 71
     0
 72
 20000
 73
     1
 74
     1
 75
     0
 76
     0
 77
     0
 78
     0
281
     0
 65
     1
110
0.0
120
0.0
130
0.0
111
1.0
121
0.0
131
0.0
112
0.0
122
1.0
132
0.0
 79
     0
146
0.0
  0
ENDTAB
  0
TABLE
  2
LTYPE
  5
D
330
0
100
AcDbSymbolTable
 70
     2
  0
LTYPE
  5
E
330
D
100
AcDbSymbolTableRecord
100
AcDbLinetypeTableRecord
  2
BYBLOCK
 70
     0
  3

 72
    65
 73
     0
 40
0.0
  0
LTYPE
  5
F
330
D
100
AcDbSymbolTableRecord
100
AcDbLinetypeTableRecord
  2
BYLAYER
 70
     0
  3

 72
    65
 73
     0
 40
0.0
  0
LTYPE
  5
5
330
D
100
AcDbSymbolTableRecord
100
AcDbLinetypeTableRecord
  2
CONTINUOUS
 70
     0
  3
Solid line
 72
    65
 73
     0
 40
0.0
  0
ENDTAB
  0
TABLE
  2
LAYER
  5
A
102
{ACAD_XDICTIONARY
360
1B4
102
}
330
0
100
AcDbSymbolTable
 70
     6
  0
LAYER
  5
4
330
A
100
AcDbSymbolTableRecord
100
AcDbLayerTableRecord
  2
0
 70
     0
 62
     7
  6
CONTINUOUS
370
    -3
390
57
  0
LAYER
  5
25
330
A
100
AcDbSymbolTableRecord
100
AcDbLayerTableRecord
  2
KIJUN
 70
     0
 62
     7
  6
CONTINUOUS
370
    -3
390
57
  0
LAYER
  5
22
330
A
100
AcDbSymbolTableRecord
100
AcDbLayerTableRecord
  2
HOJO
 70
     0
 62
     3
  6
CONTINUOUS
370
    -3
390
57
  0
LAYER
  5
1B
330
A
100
AcDbSymbolTableRecord
100
AcDbLayerTableRecord
  2
WAKU
 70
     0
 62
     1
  6
CONTINUOUS
370
    -3
390
57
  0
LAYER
  5
31
330
A
100
AcDbSymbolTableRecord
100
AcDbLayerTableRecord
  2
DEFPOINTS
 70
     0
 62
     7
  6
CONTINUOUS
290
     0
370
    -3
390
57
  0
LAYER
  5
28
330
A
100
AcDbSymbolTableRecord
100
AcDbLayerTableRecord
  2
SUNPOU
 70
     0
 62
    70
  6
CONTINUOUS
370
    -3
390
57
  0
ENDTAB
  0
TABLE
  2
STYLE
  5
B
330
0
100
AcDbSymbolTable
 70
     3
  0
STYLE
  5
C
330
B
100
AcDbSymbolTableRecord
100
AcDbTextStyleTableRecord
  2
STANDARD
 70
     0
 40
0.0
 41
1.0
 50
0.0
 71
     0
 42
0.2
  3
txt
  4

  0
STYLE
  5
1C
330
B
100
AcDbSymbolTableRecord
100
AcDbTextStyleTableRecord
  2
SUNPOU
 70
     0
 40
0.0
 41
1.0
 50
0.0
 71
     0
 42
30.0
  3
txt
  4
bigfont
  0
STYLE
  5
14A
330
B
100
AcDbSymbolTableRecord
100
AcDbTextStyleTableRecord
  2
LIFE
 70
     0
 40
0.0
 41
0.7
 50
0.0
 71
     0
 42
10.0
  3
romans
  4
extfont
  0
ENDTAB
  0
TABLE
  2
VIEW
  5
10
330
0
100
AcDbSymbolTable
 70
     0
  0
ENDTAB
  0
TABLE
  2
UCS
  5
11
330
0
100
AcDbSymbolTable
 70
     0
  0
ENDTAB
  0
TABLE
  2
APPID
  5
14
330
0
100
AcDbSymbolTable
 70
    10
  0
APPID
  5
15
330
14
100
AcDbSymbolTableRecord
100
AcDbRegAppTableRecord
  2
ACAD
 70
     0
  0
APPID
  5
1D3
330
14
100
AcDbSymbolTableRecord
100
AcDbRegAppTableRecord
  2
ACAD_DSTYLE_DIMTEXT_FILL
 70
     0
  0
APPID
  5
1D4
330
14
100
AcDbSymbolTableRecord
100
AcDbRegAppTableRecord
  2
ACAD_DSTYLE_DIMEXT_LENGTH
 70
     0
  0
APPID
  5
1D5
330
14
100
AcDbSymbolTableRecord
100
AcDbRegAppTableRecord
  2
ACAD_DSTYLE_DIMEXT_ENABLED
 70
     0
  0
APPID
  5
1D6
330
14
100
AcDbSymbolTableRecord
100
AcDbRegAppTableRecord
  2
ACAD_DSTYLE_DIM_LINETYPE
 70
     0
  0
APPID
  5
1D7
330
14
100
AcDbSymbolTableRecord
100
AcDbRegAppTableRecord
  2
ACAD_DSTYLE_DIM_EXT1_LINETYPE
 70
     0
  0
APPID
  5
1D8
330
14
100
AcDbSymbolTableRecord
100
AcDbRegAppTableRecord
  2
ACAD_DSTYLE_DIM_EXT2_LINETYPE
 70
     0
  0
APPID
  5
294
330
14
100
AcDbSymbolTableRecord
100
AcDbRegAppTableRecord
  2
ACAD_DSTYLE_DIMJOGGED_JOGANGLE_SYMBOL
 70
     0
  0
APPID
  5
478
330
14
100
AcDbSymbolTableRecord
100
AcDbRegAppTableRecord
  2
ACAD_DSTYLE_DIMARC_LENGTH_SYMBOL
 70
     0
  0
APPID
  5
157B
330
14
100
AcDbSymbolTableRecord
100
AcDbRegAppTableRecord
  2
ACAD_EXEMPT_FROM_CAD_STANDARDS
 70
     0
  0
ENDTAB
  0
TABLE
  2
DIMSTYLE
  5
16
330
0
100
AcDbSymbolTable
 70
     2
100
AcDbDimStyleTable
 71
     1
340
1E
  0
DIMSTYLE
105
1E
102
{ACAD_REACTORS
330
47C1
330
47CE
102
}
330
16
100
AcDbSymbolTableRecord
100
AcDbDimStyleTableRecord
  2
STANDARD
 70
     0
340
C
  0
ENDTAB
  0
TABLE
  2
BLOCK_RECORD
  5
1
330
0
100
AcDbSymbolTable
 70
   106
  0
BLOCK_RECORD
  5
2
102
{ACAD_XDICTIONARY
360
1578
102
}
330
1
100
AcDbSymbolTableRecord
100
AcDbBlockTableRecord
  2
*MODEL_SPACE
340
5A
  0
BLOCK_RECORD
  5
7
330
1
100
AcDbSymbolTableRecord
100
AcDbBlockTableRecord
  2
*PAPER_SPACE
340
5B
  0
BLOCK_RECORD
  5
109
330
1
100
AcDbSymbolTableRecord
100
AcDbBlockTableRecord
  2
_Dot
340
0
102
{BLKREFS
331
CF6
331
CF7
331
15B9
331
15BA
331
15CB
331
15CC
331
1664
331
1665
331
1686
331
1687
331
1818
331
1819
331
1821
331
1822
331
18DE
331
18DF
331
18E7
331
18E8
331
19C4
331
19C5
331
19DF
331
19E0
331
1F7B
331
1F7C
331
1F84
331
1F85
331
20F9
331
20FA
331
2102
331
2103
331
2165
331
2166
331
2172
331
2173
331
2314
331
2315
331
2326
331
2327
331
232F
331
2330
331
2834
331
2835
331
2848
331
2849
331
298C
331
298D
331
2995
331
2996
331
2BF8
331
2BF9
331
2C01
331
2C02
331
2DA5
331
2DA6
331
2DAE
331
2DAF
331
2E70
331
2E71
331
2E82
331
2E83
331
2FAC
331
2FAD
331
2FB5
331
2FB6
331
311A
331
311B
331
3123
331
3124
331
32AE
331
32AF
331
32B7
331
32B8
331
3692
331
3693
331
369B
331
369C
331
371A
331
371B
331
3743
331
3744
331
39C7
331
39C8
331
3A9C
331
3A9D
331
3AAE
331
3AAF
331
3BA4
331
3BA5
331
3BB6
331
3BB7
331
3D99
331
3D9A
331
3DAB
331
3DAC
331
3F8B
331
3F8C
331
3F9D
331
3F9E
331
4187
331
4188
331
4199
331
419A
331
4383
331
4384
331
4395
331
4396
331
4578
331
4579
331
458A
331
458B
331
46DB
331
46DC
331
46ED
331
46EE
331
4802
331
4803
331
4814
331
4815
102
}
  0
BLOCK_RECORD
  5
35E9
330
1
100
AcDbSymbolTableRecord
100
AcDbBlockTableRecord
  2
*D68
340
0
  0
BLOCK_RECORD
  5
35F6
330
1
100
AcDbSymbolTableRecord
100
AcDbBlockTableRecord
  2
*D69
340
0
  0
BLOCK_RECORD
  5
370A
330
1
100
AcDbSymbolTableRecord
100
AcDbBlockTableRecord
  2
*D71
340
0
  0
BLOCK_RECORD
  5
3734
330
1
100
AcDbSymbolTableRecord
100
AcDbBlockTableRecord
  2
*D73
340
0
  0
BLOCK_RECORD
  5
37B1
330
1
100
AcDbSymbolTableRecord
100
AcDbBlockTableRecord
  2
*D75
340
0
  0
BLOCK_RECORD
  5
3A45
330
1
100
AcDbSymbolTableRecord
100
AcDbBlockTableRecord
  2
*D80
340
0
  0
BLOCK_RECORD
  5
3A52
330
1
100
AcDbSymbolTableRecord
100
AcDbBlockTableRecord
  2
*D81
340
0
  0
BLOCK_RECORD
  5
3B2D
330
1
100
AcDbSymbolTableRecord
100
AcDbBlockTableRecord
  2
*D83
340
0
  0
BLOCK_RECORD
  5
3B3A
330
1
100
AcDbSymbolTableRecord
100
AcDbBlockTableRecord
  2
*D84
340
0
  0
BLOCK_RECORD
  5
3D2D
330
1
100
AcDbSymbolTableRecord
100
AcDbBlockTableRecord
  2
*D86
340
0
  0
BLOCK_RECORD
  5
3D3A
330
1
100
AcDbSymbolTableRecord
100
AcDbBlockTableRecord
  2
*D87
340
0
  0
BLOCK_RECORD
  5
3F20
330
1
100
AcDbSymbolTableRecord
100
AcDbBlockTableRecord
  2
*D89
340
0
  0
BLOCK_RECORD
  5
3F2D
330
1
100
AcDbSymbolTableRecord
100
AcDbBlockTableRecord
  2
*D90
340
0
  0
BLOCK_RECORD
  5
4113
330
1
100
AcDbSymbolTableRecord
100
AcDbBlockTableRecord
  2
*D92
340
0
  0
BLOCK_RECORD
  5
4120
330
1
100
AcDbSymbolTableRecord
100
AcDbBlockTableRecord
  2
*D93
340
0
  0
BLOCK_RECORD
  5
430F
330
1
100
AcDbSymbolTableRecord
100
AcDbBlockTableRecord
  2
*D95
340
0
  0
BLOCK_RECORD
  5
431C
330
1
100
AcDbSymbolTableRecord
100
AcDbBlockTableRecord
  2
*D96
340
0
  0
BLOCK_RECORD
  5
450B
330
1
100
AcDbSymbolTableRecord
100
AcDbBlockTableRecord
  2
*D98
340
0
  0
BLOCK_RECORD
  5
4518
330
1
100
AcDbSymbolTableRecord
100
AcDbBlockTableRecord
  2
*D99
340
0
  0
BLOCK_RECORD
  5
467B
330
1
100
AcDbSymbolTableRecord
100
AcDbBlockTableRecord
  2
*D101
340
0
  0
BLOCK_RECORD
  5
4688
330
1
100
AcDbSymbolTableRecord
100
AcDbBlockTableRecord
  2
*D102
340
0
  0
BLOCK_RECORD
  5
47C2
330
1
100
AcDbSymbolTableRecord
100
AcDbBlockTableRecord
  2
*D104
340
0
  0
BLOCK_RECORD
  5
47CF
330
1
100
AcDbSymbolTableRecord
100
AcDbBlockTableRecord
  2
*D105
340
0
  0
ENDTAB
  0
ENDSEC
  0
SECTION
  2
BLOCKS
  0
BLOCK
  5
3
330
2
100
AcDbEntity
  8
0
100
AcDbBlockBegin
  2
*MODEL_SPACE
 70
     0
 10
0.0
 20
0.0
 30
0.0
  3
*MODEL_SPACE
  1

  0
ENDBLK
  5
6
330
2
100
AcDbEntity
  8
0
100
AcDbBlockEnd
  0
BLOCK
  5
8
330
7
100
AcDbEntity
 67
     1
  8
0
100
AcDbBlockBegin
  2
*PAPER_SPACE
 70
     0
 10
0.0
 20
0.0
 30
0.0
  3
*PAPER_SPACE
  1

  0
ENDBLK
  5
9
330
7
100
AcDbEntity
 67
     1
  8
0
100
AcDbBlockEnd
  0
BLOCK
  5
10C
330
109
100
AcDbEntity
  8
0
100
AcDbBlockBegin
  2
_Dot
 70
     0
 10
0.0
 20
0.0
 30
0.0
  3
_Dot
  1

  0
LWPOLYLINE
  5
10A
330
109
100
AcDbEntity
  8
0
  6
ByBlock
 62
     0
100
AcDbPolyline
 90
        2
 70
     1
 43
0.5
 10
-0.25
 20
0.0
 42
1.0
 10
0.25
 20
0.0
 42
1.0
  0
LINE
  5
10B
330
109
100
AcDbEntity
  8
0
  6
ByBlock
 62
     0
370
    -2
100
AcDbLine
 10
-0.5
 20
0.0
 30
0.0
 11
-1.0
 21
0.0
 31
0.0
  0
ENDBLK
  5
10D
330
109
100
AcDbEntity
  8
0
100
AcDbBlockEnd
  0
BLOCK
  5
35F3
330
35E9
100
AcDbEntity
  8
0
100
AcDbBlockBegin
  2
*D68
 70
     1
 10
0.0
 20
0.0
 30
0.0
  3
*D68
  1

  0
LINE
  5
368F
330
35E9
100
AcDbEntity
  8
SUNPOU
 62
    70
370
    -2
100
AcDbLine
 10
-57.31304931990838
 20
149.8921824087356
 30
0.0
 11
-57.31304931990837
 21
205.1481820578692
 31
0.0
  0
LINE
  5
3690
330
35E9
100
AcDbEntity
  8
SUNPOU
 62
    70
370
    -2
100
AcDbLine
 10
248.6869506800916
 20
150.5513573235502
 30
0.0
 11
248.6869506800916
 21
205.1481820578692
 31
0.0
  0
LINE
  5
3691
330
35E9
100
AcDbEntity
  8
SUNPOU
 62
    60
370
    -2
100
AcDbLine
 10
-55.31304931990836
 20
205.1481820578692
 30
0.0
 11
246.6869506800916
 21
205.1481820578692
 31
0.0
  0
INSERT
  5
3692
330
35E9
100
AcDbEntity
  8
SUNPOU
 62
    60
370
    -2
100
AcDbBlockReference
  2
_Dot
 10
-57.31304931990837
 20
205.1481820578692
 30
0.0
 41
2.0
 42
2.0
 43
2.0
 50
180.0
  0
INSERT
  5
3693
330
35E9
100
AcDbEntity
  8
SUNPOU
 62
    60
370
    -2
100
AcDbBlockReference
  2
_Dot
 10
248.6869506800916
 20
205.1481820578692
 30
0.0
 41
2.0
 42
2.0
 43
2.0
  0
MTEXT
  5
3694
330
35E9
100
AcDbEntity
  8
SUNPOU
 62
    60
100
AcDbMText
 10
95.68695068009162
 20
213.1481820578692
 30
0.0
 40
10.0
 41
0.0
 71
     5
 72
     1
  1
\A1;306
  7
SUNPOU
 73
     1
 44
1.0
1001
ACAD
1000
MTEXTBEGIN
1070
    73
1070
     1
1070
    44
1040
1.0
1070
    74
1070
     0
1000
MTEXTEND
  0
POINT
  5
3695
330
35E9
100
AcDbEntity
  8
DEFPOINTS
 62
     0
100
AcDbPoint
 10
-57.31304931990838
 20
139.8921824087356
 30
0.0
  0
POINT
  5
3696
330
35E9
100
AcDbEntity
  8
DEFPOINTS
 62
     0
100
AcDbPoint
 10
248.6869506800916
 20
140.5513573235502
 30
0.0
  0
POINT
  5
3697
330
35E9
100
AcDbEntity
  8
DEFPOINTS
 62
     0
100
AcDbPoint
 10
248.6869506800916
 20
205.1481820578692
 30
0.0
  0
ENDBLK
  5
35F4
330
35E9
100
AcDbEntity
  8
0
100
AcDbBlockEnd
  0
BLOCK
  5
3600
330
35F6
100
AcDbEntity
  8
0
100
AcDbBlockBegin
  2
*D69
 70
     1
 10
0.0
 20
0.0
 30
0.0
  3
*D69
  1

  0
LINE
  5
3698
330
35F6
100
AcDbEntity
  8
SUNPOU
 62
    70
370
    -2
100
AcDbLine
 10
-67.31304931990836
 20
163.7291678152901
 30
0.0
 11
-98.37628952802333
 21
163.7291678152901
 31
0.0
  0
LINE
  5
3699
330
35F6
100
AcDbEntity
  8
SUNPOU
 62
    70
370
    -2
100
AcDbLine
 10
-67.49508426752891
 20
117.7291678152901
 30
0.0
 11
-98.37628952802333
 21
117.7291678152901
 31
0.0
  0
LINE
  5
369A
330
35F6
100
AcDbEntity
  8
SUNPOU
 62
    60
370
    -2
100
AcDbLine
 10
-98.37628952802333
 20
161.7291678152901
 30
0.0
 11
-98.37628952802333
 21
119.7291678152901
 31
0.0
  0
INSERT
  5
369B
330
35F6
100
AcDbEntity
  8
SUNPOU
 62
    60
370
    -2
100
AcDbBlockReference
  2
_Dot
 10
-98.37628952802333
 20
163.7291678152901
 30
0.0
 41
2.0
 42
2.0
 43
2.0
 50
90.0
  0
INSERT
  5
369C
330
35F6
100
AcDbEntity
  8
SUNPOU
 62
    60
370
    -2
100
AcDbBlockReference
  2
_Dot
 10
-98.37628952802333
 20
117.7291678152901
 30
0.0
 41
2.0
 42
2.0
 43
2.0
 50
270.0
  0
MTEXT
  5
369D
330
35F6
100
AcDbEntity
  8
SUNPOU
 62
    60
100
AcDbMText
 10
-106.3762895280233
 20
140.7291678152901
 30
0.0
 40
10.0
 41
0.0
 71
     5
 72
     1
  1
\A1;46
  7
SUNPOU
 11
0.0000000000000001
 21
1.0
 31
0.0
 73
     1
 44
1.0
1001
ACAD
1000
MTEXTBEGIN
1070
    73
1070
     1
1070
    44
1040
1.0
1070
    74
1070
     0
1000
MTEXTEND
  0
POINT
  5
369E
330
35F6
100
AcDbEntity
  8
DEFPOINTS
 62
     0
100
AcDbPoint
 10
-57.31304931990838
 20
163.7291678152901
 30
0.0
  0
POINT
  5
369F
330
35F6
100
AcDbEntity
  8
DEFPOINTS
 62
     0
100
AcDbPoint
 10
-57.49508426752891
 20
117.7291678152901
 30
0.0
  0
POINT
  5
36A0
330
35F6
100
AcDbEntity
  8
DEFPOINTS
 62
     0
100
AcDbPoint
 10
-98.37628952802333
 20
117.7291678152901
 30
0.0
  0
ENDBLK
  5
3601
330
35F6
100
AcDbEntity
  8
0
100
AcDbBlockEnd
  0
BLOCK
  5
3714
330
370A
100
AcDbEntity
  8
0
100
AcDbBlockBegin
  2
*D71
 70
     1
 10
0.0
 20
0.0
 30
0.0
  3
*D71
  1

  0
LINE
  5
3716
330
370A
100
AcDbEntity
  8
SUNPOU
 62
    70
370
    -2
100
AcDbLine
 10
28.04651099485443
 20
67.73890226967478
 30
0.0
 11
28.04651099485444
 21
96.76277591141218
 31
0.0
  0
LINE
  5
3717
330
370A
100
AcDbEntity
  8
SUNPOU
 62
    70
370
    -2
100
AcDbLine
 10
67.88324783326004
 20
68.05244005182112
 30
0.0
 11
67.88324783326004
 21
96.76277591141218
 31
0.0
  0
LINE
  5
3718
330
370A
100
AcDbEntity
  8
SUNPOU
 62
    60
370
    -2
100
AcDbLine
 10
30.04651099485443
 20
96.76277591141218
 30
0.0
 11
65.88324783326005
 21
96.76277591141218
 31
0.0
  0
LINE
  5
3719
330
370A
100
AcDbEntity
  8
SUNPOU
 62
    60
370
    -2
100
AcDbLine
 10
67.88324783326004
 20
96.76277591141218
 30
0.0
 11
155.88324783326
 21
96.76277591141218
 31
0.0
  0
INSERT
  5
371A
330
370A
100
AcDbEntity
  8
SUNPOU
 62
    60
370
    -2
100
AcDbBlockReference
  2
_Dot
 10
28.04651099485444
 20
96.76277591141218
 30
0.0
 41
2.0
 42
2.0
 43
2.0
 50
180.0
  0
INSERT
  5
371B
330
370A
100
AcDbEntity
  8
SUNPOU
 62
    60
370
    -2
100
AcDbBlockReference
  2
_Dot
 10
67.88324783326004
 20
96.76277591141218
 30
0.0
 41
2.0
 42
2.0
 43
2.0
  0
MTEXT
  5
371C
330
370A
100
AcDbEntity
  8
SUNPOU
 62
    60
100
AcDbMText
 10
112.88324783326
 20
104.7627759114122
 30
0.0
 40
10.0
 41
0.0
 71
     5
 72
     1
  1
\A1;39.836737
  7
SUNPOU
 73
     1
 44
1.0
1001
ACAD
1000
MTEXTBEGIN
1070
    73
1070
     1
1070
    44
1040
1.0
1070
    74
1070
     0
1000
MTEXTEND
  0
POINT
  5
371D
330
370A
100
AcDbEntity
  8
DEFPOINTS
 62
     0
100
AcDbPoint
 10
28.04651099485443
 20
57.73890226967478
 30
0.0
  0
POINT
  5
371E
330
370A
100
AcDbEntity
  8
DEFPOINTS
 62
     0
100
AcDbPoint
 10
67.88324783326004
 20
58.05244005182112
 30
0.0
  0
POINT
  5
371F
330
370A
100
AcDbEntity
  8
DEFPOINTS
 62
     0
100
AcDbPoint
 10
67.88324783326004
 20
96.76277591141218
 30
0.0
  0
ENDBLK
  5
3715
330
370A
100
AcDbEntity
  8
0
100
AcDbBlockEnd
  0
BLOCK
  5
373E
330
3734
100
AcDbEntity
  8
0
100
AcDbBlockBegin
  2
*D73
 70
     1
 10
0.0
 20
0.0
 30
0.0
  3
*D73
  1

  0
LINE
  5
3740
330
3734
100
AcDbEntity
  8
SUNPOU
 62
    70
370
    -2
100
AcDbLine
 10
27.89994361320522
 20
69.85225236533939
 30
0.0
 11
27.89994361320522
 21
98.69576219890257
 31
0.0
  0
LINE
  5
3741
330
3734
100
AcDbEntity
  8
SUNPOU
 62
    70
370
    -2
100
AcDbLine
 10
67.89994361320521
 20
69.85225236533939
 30
0.0
 11
67.89994361320521
 21
98.69576219890257
 31
0.0
  0
LINE
  5
3742
330
3734
100
AcDbEntity
  8
SUNPOU
 62
    60
370
    -2
100
AcDbLine
 10
29.89994361320522
 20
98.69576219890257
 30
0.0
 11
65.8999436132052
 21
98.69576219890257
 31
0.0
  0
INSERT
  5
3743
330
3734
100
AcDbEntity
  8
SUNPOU
 62
    60
370
    -2
100
AcDbBlockReference
  2
_Dot
 10
27.89994361320522
 20
98.69576219890257
 30
0.0
 41
2.0
 42
2.0
 43
2.0
 50
180.0
  0
INSERT
  5
3744
330
3734
100
AcDbEntity
  8
SUNPOU
 62
    60
370
    -2
100
AcDbBlockReference
  2
_Dot
 10
67.89994361320521
 20
98.69576219890257
 30
0.0
 41
2.0
 42
2.0
 43
2.0
  0
MTEXT
  5
3745
330
3734
100
AcDbEntity
  8
SUNPOU
 62
    60
100
AcDbMText
 10
47.89994361320521
 20
106.6957621989025
 30
0.0
 40
10.0
 41
0.0
 71
     5
 72
     1
  1
\A1;40φ
  7
SUNPOU
 73
     1
 44
1.0
1001
ACAD
1000
MTEXTBEGIN
1070
    73
1070
     1
1070
    44
1040
1.0
1070
    74
1070
     0
1000
MTEXTEND
  0
POINT
  5
3746
330
3734
100
AcDbEntity
  8
DEFPOINTS
 62
     0
100
AcDbPoint
 10
27.89994361320522
 20
59.85225236533939
 30
0.0
  0
POINT
  5
3747
330
3734
100
AcDbEntity
  8
DEFPOINTS
 62
     0
100
AcDbPoint
 10
67.89994361320521
 20
59.85225236533939
 30
0.0
  0
POINT
  5
3748
330
3734
100
AcDbEntity
  8
DEFPOINTS
 62
     0
100
AcDbPoint
 10
67.89994361320521
 20
98.69576219890257
 30
0.0
  0
ENDBLK
  5
373F
330
3734
100
AcDbEntity
  8
0
100
AcDbBlockEnd
  0
BLOCK
  5
37BB
330
37B1
100
AcDbEntity
  8
0
100
AcDbBlockBegin
  2
*D75
 70
     1
 10
0.0
 20
0.0
 30
0.0
  3
*D75
  1

  0
LINE
  5
39C4
330
37B1
100
AcDbEntity
  8
SUNPOU
 62
    70
370
    -2
100
AcDbLine
 10
-42.54865485741496
 20
157.2140937351553
 30
0.0
 11
-42.54865485741495
 21
282.2045269340939
 31
0.0
  0
LINE
  5
39C5
330
37B1
100
AcDbEntity
  8
SUNPOU
 62
    70
370
    -2
100
AcDbLine
 10
149.451345142585
 20
157.2140937351553
 30
0.0
 11
149.451345142585
 21
282.2045269340939
 31
0.0
  0
LINE
  5
39C6
330
37B1
100
AcDbEntity
  8
SUNPOU
 62
    60
370
    -2
100
AcDbLine
 10
-40.54865485741495
 20
282.2045269340939
 30
0.0
 11
147.451345142585
 21
282.2045269340939
 31
0.0
  0
INSERT
  5
39C7
330
37B1
100
AcDbEntity
  8
SUNPOU
 62
    60
370
    -2
100
AcDbBlockReference
  2
_Dot
 10
-42.54865485741495
 20
282.2045269340939
 30
0.0
 41
2.0
 42
2.0
 43
2.0
 50
180.0
  0
INSERT
  5
39C8
330
37B1
100
AcDbEntity
  8
SUNPOU
 62
    60
370
    -2
100
AcDbBlockReference
  2
_Dot
 10
149.451345142585
 20
282.2045269340939
 30
0.0
 41
2.0
 42
2.0
 43
2.0
  0
MTEXT
  5
39C9
330
37B1
100
AcDbEntity
  8
SUNPOU
 62
    60
100
AcDbMText
 10
53.45134514258504
 20
290.2045269340939
 30
0.0
 40
10.0
 41
0.0
 71
     5
 72
     1
  1
\A1;192φ
  7
SUNPOU
 73
     1
 44
1.0
1001
ACAD
1000
MTEXTBEGIN
1070
    73
1070
     1
1070
    44
1040
1.0
1070
    74
1070
     0
1000
MTEXTEND
  0
POINT
  5
39CA
330
37B1
100
AcDbEntity
  8
DEFPOINTS
 62
     0
100
AcDbPoint
 10
-42.54865485741496
 20
147.2140937351553
 30
0.0
  0
POINT
  5
39CB
330
37B1
100
AcDbEntity
  8
DEFPOINTS
 62
     0
100
AcDbPoint
 10
149.451345142585
 20
147.2140937351553
 30
0.0
  0
POINT
  5
39CC
330
37B1
100
AcDbEntity
  8
DEFPOINTS
 62
     0
100
AcDbPoint
 10
149.451345142585
 20
282.2045269340939
 30
0.0
  0
ENDBLK
  5
37BC
330
37B1
100
AcDbEntity
  8
0
100
AcDbBlockEnd
  0
BLOCK
  5
3A4F
330
3A45
100
AcDbEntity
  8
0
100
AcDbBlockBegin
  2
*D80
 70
     1
 10
0.0
 20
0.0
 30
0.0
  3
*D80
  1

  0
LINE
  5
3AAB
330
3A45
100
AcDbEntity
  8
SUNPOU
 62
    70
370
    -2
100
AcDbLine
 10
-68.96399143244808
 20
170.0383087325503
 30
0.0
 11
-68.96399143244808
 21
206.3986443243337
 31
0.0
  0
LINE
  5
3AAC
330
3A45
100
AcDbEntity
  8
SUNPOU
 62
    70
370
    -2
100
AcDbLine
 10
181.0360085675522
 20
170.3162869883523
 30
0.0
 11
181.0360085675522
 21
206.3986443243337
 31
0.0
  0
LINE
  5
3AAD
330
3A45
100
AcDbEntity
  8
SUNPOU
 62
    60
370
    -2
100
AcDbLine
 10
-66.96399143244808
 20
206.3986443243337
 30
0.0
 11
179.0360085675522
 21
206.3986443243337
 31
0.0
  0
INSERT
  5
3AAE
330
3A45
100
AcDbEntity
  8
SUNPOU
 62
    60
370
    -2
100
AcDbBlockReference
  2
_Dot
 10
-68.96399143244808
 20
206.3986443243337
 30
0.0
 41
2.0
 42
2.0
 43
2.0
 50
180.0
  0
INSERT
  5
3AAF
330
3A45
100
AcDbEntity
  8
SUNPOU
 62
    60
370
    -2
100
AcDbBlockReference
  2
_Dot
 10
181.0360085675522
 20
206.3986443243337
 30
0.0
 41
2.0
 42
2.0
 43
2.0
  0
MTEXT
  5
3AB0
330
3A45
100
AcDbEntity
  8
SUNPOU
 62
    60
100
AcDbMText
 10
56.03600856755208
 20
214.3986443243337
 30
0.0
 40
10.0
 41
0.0
 71
     5
 72
     1
  1
\A1;250
  7
SUNPOU
 73
     1
 44
1.0
1001
ACAD
1000
MTEXTBEGIN
1070
    73
1070
     1
1070
    44
1040
1.0
1070
    74
1070
     0
1000
MTEXTEND
  0
POINT
  5
3AB1
330
3A45
100
AcDbEntity
  8
DEFPOINTS
 62
     0
100
AcDbPoint
 10
-68.96399143244808
 20
160.0383087325503
 30
0.0
  0
POINT
  5
3AB2
330
3A45
100
AcDbEntity
  8
DEFPOINTS
 62
     0
100
AcDbPoint
 10
181.0360085675522
 20
160.3162869883523
 30
0.0
  0
POINT
  5
3AB3
330
3A45
100
AcDbEntity
  8
DEFPOINTS
 62
     0
100
AcDbPoint
 10
181.0360085675522
 20
206.3986443243337
 30
0.0
  0
ENDBLK
  5
3A50
330
3A45
100
AcDbEntity
  8
0
100
AcDbBlockEnd
  0
BLOCK
  5
3A5C
330
3A52
100
AcDbEntity
  8
0
100
AcDbBlockBegin
  2
*D81
 70
     1
 10
0.0
 20
0.0
 30
0.0
  3
*D81
  1

  0
LINE
  5
3A99
330
3A52
100
AcDbEntity
  8
SUNPOU
 62
    70
370
    -2
100
AcDbLine
 10
-78.96399143244808
 20
160.0383087325503
 30
0.0
 11
-111.0858629527327
 21
160.0383087325503
 31
0.0
  0
LINE
  5
3A9A
330
3A52
100
AcDbEntity
  8
SUNPOU
 62
    70
370
    -2
100
AcDbLine
 10
-79.11309215177175
 20
46.03830873255026
 30
0.0
 11
-111.0858629527328
 21
46.03830873255026
 31
0.0
  0
LINE
  5
3A9B
330
3A52
100
AcDbEntity
  8
SUNPOU
 62
    60
370
    -2
100
AcDbLine
 10
-111.0858629527327
 20
158.0383087325503
 30
0.0
 11
-111.0858629527328
 21
48.03830873255027
 31
0.0
  0
INSERT
  5
3A9C
330
3A52
100
AcDbEntity
  8
SUNPOU
 62
    60
370
    -2
100
AcDbBlockReference
  2
_Dot
 10
-111.0858629527327
 20
160.0383087325503
 30
0.0
 41
2.0
 42
2.0
 43
2.0
 50
90.0
  0
INSERT
  5
3A9D
330
3A52
100
AcDbEntity
  8
SUNPOU
 62
    60
370
    -2
100
AcDbBlockReference
  2
_Dot
 10
-111.0858629527328
 20
46.03830873255026
 30
0.0
 41
2.0
 42
2.0
 43
2.0
 50
270.0
  0
MTEXT
  5
3A9E
330
3A52
100
AcDbEntity
  8
SUNPOU
 62
    60
100
AcDbMText
 10
-119.0858629527328
 20
103.0383087325503
 30
0.0
 40
10.0
 41
0.0
 71
     5
 72
     1
  1
\A1;114
  7
SUNPOU
 11
0.0000000000000001
 21
1.0
 31
0.0
 73
     1
 44
1.0
1001
ACAD
1000
MTEXTBEGIN
1070
    73
1070
     1
1070
    44
1040
1.0
1070
    74
1070
     0
1000
MTEXTEND
  0
POINT
  5
3A9F
330
3A52
100
AcDbEntity
  8
DEFPOINTS
 62
     0
100
AcDbPoint
 10
-68.96399143244808
 20
160.0383087325503
 30
0.0
  0
POINT
  5
3AA0
330
3A52
100
AcDbEntity
  8
DEFPOINTS
 62
     0
100
AcDbPoint
 10
-69.11309215177175
 20
46.03830873255026
 30
0.0
  0
POINT
  5
3AA1
330
3A52
100
AcDbEntity
  8
DEFPOINTS
 62
     0
100
AcDbPoint
 10
-111.0858629527328
 20
46.03830873255026
 30
0.0
  0
ENDBLK
  5
3A5D
330
3A52
100
AcDbEntity
  8
0
100
AcDbBlockEnd
  0
BLOCK
  5
3B37
330
3B2D
100
AcDbEntity
  8
0
100
AcDbBlockBegin
  2
*D83
 70
     1
 10
0.0
 20
0.0
 30
0.0
  3
*D83
  1

  0
LINE
  5
3BB3
330
3B2D
100
AcDbEntity
  8
SUNPOU
 62
    70
370
    -2
100
AcDbLine
 10
-9.274404385007244
 20
116.3927336291364
 30
0.0
 11
-9.274404385007242
 21
131.1328898609256
 31
0.0
  0
LINE
  5
3BB4
330
3B2D
100
AcDbEntity
  8
SUNPOU
 62
    70
370
    -2
100
AcDbLine
 10
130.7255956149869
 20
115.4686950255653
 30
0.0
 11
130.7255956149869
 21
131.1328898609256
 31
0.0
  0
LINE
  5
3BB5
330
3B2D
100
AcDbEntity
  8
SUNPOU
 62
    60
370
    -2
100
AcDbLine
 10
-7.274404385007242
 20
131.1328898609256
 30
0.0
 11
128.7255956149869
 21
131.1328898609256
 31
0.0
  0
INSERT
  5
3BB6
330
3B2D
100
AcDbEntity
  8
SUNPOU
 62
    60
370
    -2
100
AcDbBlockReference
  2
_Dot
 10
-9.274404385007242
 20
131.1328898609256
 30
0.0
 41
2.0
 42
2.0
 43
2.0
 50
180.0
  0
INSERT
  5
3BB7
330
3B2D
100
AcDbEntity
  8
SUNPOU
 62
    60
370
    -2
100
AcDbBlockReference
  2
_Dot
 10
130.7255956149869
 20
131.1328898609256
 30
0.0
 41
2.0
 42
2.0
 43
2.0
  0
MTEXT
  5
3BB8
330
3B2D
100
AcDbEntity
  8
SUNPOU
 62
    60
100
AcDbMText
 10
60.72559561498986
 20
139.1328898609256
 30
0.0
 40
10.0
 41
0.0
 71
     5
 72
     1
  1
\A1;140
  7
SUNPOU
 73
     1
 44
1.0
1001
ACAD
1000
MTEXTBEGIN
1070
    73
1070
     1
1070
    44
1040
1.0
1070
    74
1070
     0
1000
MTEXTEND
  0
POINT
  5
3BB9
330
3B2D
100
AcDbEntity
  8
DEFPOINTS
 62
     0
100
AcDbPoint
 10
-9.274404385007244
 20
106.3927336291364
 30
0.0
  0
POINT
  5
3BBA
330
3B2D
100
AcDbEntity
  8
DEFPOINTS
 62
     0
100
AcDbPoint
 10
130.7255956149869
 20
105.4686950255653
 30
0.0
  0
POINT
  5
3BBB
330
3B2D
100
AcDbEntity
  8
DEFPOINTS
 62
     0
100
AcDbPoint
 10
130.7255956149869
 20
131.1328898609256
 30
0.0
  0
ENDBLK
  5
3B38
330
3B2D
100
AcDbEntity
  8
0
100
AcDbBlockEnd
  0
BLOCK
  5
3B44
330
3B3A
100
AcDbEntity
  8
0
100
AcDbBlockBegin
  2
*D84
 70
     1
 10
0.0
 20
0.0
 30
0.0
  3
*D84
  1

  0
LINE
  5
3BA1
330
3B3A
100
AcDbEntity
  8
SUNPOU
 62
    70
370
    -2
100
AcDbLine
 10
-19.27440438500724
 20
106.3927336291364
 30
0.0
 11
-33.65713159452923
 21
106.3927336291365
 31
0.0
  0
LINE
  5
3BA2
330
3B3A
100
AcDbEntity
  8
SUNPOU
 62
    70
370
    -2
100
AcDbLine
 10
-19.43240988204923
 20
46.39273362913645
 30
0.0
 11
-33.65713159452924
 21
46.39273362913645
 31
0.0
  0
LINE
  5
3BA3
330
3B3A
100
AcDbEntity
  8
SUNPOU
 62
    60
370
    -2
100
AcDbLine
 10
-33.65713159452923
 20
104.3927336291365
 30
0.0
 11
-33.65713159452923
 21
48.39273362913645
 31
0.0
  0
INSERT
  5
3BA4
330
3B3A
100
AcDbEntity
  8
SUNPOU
 62
    60
370
    -2
100
AcDbBlockReference
  2
_Dot
 10
-33.65713159452923
 20
106.3927336291365
 30
0.0
 41
2.0
 42
2.0
 43
2.0
 50
90.0
  0
INSERT
  5
3BA5
330
3B3A
100
AcDbEntity
  8
SUNPOU
 62
    60
370
    -2
100
AcDbBlockReference
  2
_Dot
 10
-33.65713159452924
 20
46.39273362913645
 30
0.0
 41
2.0
 42
2.0
 43
2.0
 50
270.0
  0
MTEXT
  5
3BA6
330
3B3A
100
AcDbEntity
  8
SUNPOU
 62
    60
100
AcDbMText
 10
-41.65713159452923
 20
76.39273362913645
 30
0.0
 40
10.0
 41
0.0
 71
     5
 72
     1
  1
\A1;60
  7
SUNPOU
 11
0.0000000000000001
 21
1.0
 31
0.0
 73
     1
 44
1.0
1001
ACAD
1000
MTEXTBEGIN
1070
    73
1070
     1
1070
    44
1040
1.0
1070
    74
1070
     0
1000
MTEXTEND
  0
POINT
  5
3BA7
330
3B3A
100
AcDbEntity
  8
DEFPOINTS
 62
     0
100
AcDbPoint
 10
-9.274404385007244
 20
106.3927336291364
 30
0.0
  0
POINT
  5
3BA8
330
3B3A
100
AcDbEntity
  8
DEFPOINTS
 62
     0
100
AcDbPoint
 10
-9.432409882049228
 20
46.39273362913644
 30
0.0
  0
POINT
  5
3BA9
330
3B3A
100
AcDbEntity
  8
DEFPOINTS
 62
     0
100
AcDbPoint
 10
-33.65713159452924
 20
46.39273362913645
 30
0.0
  0
ENDBLK
  5
3B45
330
3B3A
100
AcDbEntity
  8
0
100
AcDbBlockEnd
  0
BLOCK
  5
3D37
330
3D2D
100
AcDbEntity
  8
0
100
AcDbBlockBegin
  2
*D86
 70
     1
 10
0.0
 20
0.0
 30
0.0
  3
*D86
  1

  0
LINE
  5
3DA8
330
3D2D
100
AcDbEntity
  8
SUNPOU
 62
    70
370
    -2
100
AcDbLine
 10
-216.7182434847339
 20
298.5498201292545
 30
0.0
 11
-216.7182434847339
 21
344.3264832414134
 31
0.0
  0
LINE
  5
3DA9
330
3D2D
100
AcDbEntity
  8
SUNPOU
 62
    70
370
    -2
100
AcDbLine
 10
383.2817565152661
 20
303.5155978063508
 30
0.0
 11
383.2817565152661
 21
344.3264832414134
 31
0.0
  0
LINE
  5
3DAA
330
3D2D
100
AcDbEntity
  8
SUNPOU
 62
    60
370
    -2
100
AcDbLine
 10
-214.7182434847339
 20
344.3264832414134
 30
0.0
 11
381.2817565152661
 21
344.3264832414134
 31
0.0
  0
INSERT
  5
3DAB
330
3D2D
100
AcDbEntity
  8
SUNPOU
 62
    60
370
    -2
100
AcDbBlockReference
  2
_Dot
 10
-216.7182434847339
 20
344.3264832414134
 30
0.0
 41
2.0
 42
2.0
 43
2.0
 50
180.0
  0
INSERT
  5
3DAC
330
3D2D
100
AcDbEntity
  8
SUNPOU
 62
    60
370
    -2
100
AcDbBlockReference
  2
_Dot
 10
383.2817565152661
 20
344.3264832414134
 30
0.0
 41
2.0
 42
2.0
 43
2.0
  0
MTEXT
  5
3DAD
330
3D2D
100
AcDbEntity
  8
SUNPOU
 62
    60
100
AcDbMText
 10
83.28175651526612
 20
352.3264832414134
 30
0.0
 40
10.0
 41
0.0
 71
     5
 72
     1
  1
\A1;600
  7
SUNPOU
 73
     1
 44
1.0
1001
ACAD
1000
MTEXTBEGIN
1070
    73
1070
     1
1070
    44
1040
1.0
1070
    74
1070
     0
1000
MTEXTEND
  0
POINT
  5
3DAE
330
3D2D
100
AcDbEntity
  8
DEFPOINTS
 62
     0
100
AcDbPoint
 10
-216.7182434847339
 20
288.5498201292545
 30
0.0
  0
POINT
  5
3DAF
330
3D2D
100
AcDbEntity
  8
DEFPOINTS
 62
     0
100
AcDbPoint
 10
383.2817565152661
 20
293.5155978063508
 30
0.0
  0
POINT
  5
3DB0
330
3D2D
100
AcDbEntity
  8
DEFPOINTS
 62
     0
100
AcDbPoint
 10
383.2817565152661
 20
344.3264832414134
 30
0.0
  0
ENDBLK
  5
3D38
330
3D2D
100
AcDbEntity
  8
0
100
AcDbBlockEnd
  0
BLOCK
  5
3D44
330
3D3A
100
AcDbEntity
  8
0
100
AcDbBlockBegin
  2
*D87
 70
     1
 10
0.0
 20
0.0
 30
0.0
  3
*D87
  1

  0
LINE
  5
3D96
330
3D3A
100
AcDbEntity
  8
SUNPOU
 62
    70
370
    -2
100
AcDbLine
 10
-226.7182434847339
 20
288.5498201292545
 30
0.0
 11
-304.1079869232616
 21
288.5498201292545
 31
0.0
  0
LINE
  5
3D97
330
3D3A
100
AcDbEntity
  8
SUNPOU
 62
    70
370
    -2
100
AcDbLine
 10
-227.1359776599575
 20
93.54982012925452
 30
0.0
 11
-304.1079869232617
 21
93.54982012925452
 31
0.0
  0
LINE
  5
3D98
330
3D3A
100
AcDbEntity
  8
SUNPOU
 62
    60
370
    -2
100
AcDbLine
 10
-304.1079869232616
 20
286.5498201292545
 30
0.0
 11
-304.1079869232617
 21
95.54982012925453
 31
0.0
  0
INSERT
  5
3D99
330
3D3A
100
AcDbEntity
  8
SUNPOU
 62
    60
370
    -2
100
AcDbBlockReference
  2
_Dot
 10
-304.1079869232616
 20
288.5498201292545
 30
0.0
 41
2.0
 42
2.0
 43
2.0
 50
90.0
  0
INSERT
  5
3D9A
330
3D3A
100
AcDbEntity
  8
SUNPOU
 62
    60
370
    -2
100
AcDbBlockReference
  2
_Dot
 10
-304.1079869232617
 20
93.54982012925452
 30
0.0
 41
2.0
 42
2.0
 43
2.0
 50
270.0
  0
MTEXT
  5
3D9B
330
3D3A
100
AcDbEntity
  8
SUNPOU
 62
    60
100
AcDbMText
 10
-312.1079869232617
 20
191.0498201292545
 30
0.0
 40
10.0
 41
0.0
 71
     5
 72
     1
  1
\A1;195
  7
SUNPOU
 11
0.0000000000000001
 21
1.0
 31
0.0
 73
     1
 44
1.0
1001
ACAD
1000
MTEXTBEGIN
1070
    73
1070
     1
1070
    44
1040
1.0
1070
    74
1070
     0
1000
MTEXTEND
  0
POINT
  5
3D9C
330
3D3A
100
AcDbEntity
  8
DEFPOINTS
 62
     0
100
AcDbPoint
 10
-216.7182434847339
 20
288.5498201292545
 30
0.0
  0
POINT
  5
3D9D
330
3D3A
100
AcDbEntity
  8
DEFPOINTS
 62
     0
100
AcDbPoint
 10
-217.1359776599575
 20
93.5498201292545
 30
0.0
  0
POINT
  5
3D9E
330
3D3A
100
AcDbEntity
  8
DEFPOINTS
 62
     0
100
AcDbPoint
 10
-304.1079869232617
 20
93.54982012925452
 30
0.0
  0
ENDBLK
  5
3D45
330
3D3A
100
AcDbEntity
  8
0
100
AcDbBlockEnd
  0
BLOCK
  5
3F2A
330
3F20
100
AcDbEntity
  8
0
100
AcDbBlockBegin
  2
*D89
 70
     1
 10
0.0
 20
0.0
 30
0.0
  3
*D89
  1

  0
LINE
  5
3F9A
330
3F20
100
AcDbEntity
  8
SUNPOU
 62
    70
370
    -2
100
AcDbLine
 10
-171.7799306511583
 20
243.6438293736883
 30
0.0
 11
-171.7799306511583
 21
294.8058791037634
 31
0.0
  0
LINE
  5
3F9B
330
3F20
100
AcDbEntity
  8
SUNPOU
 62
    70
370
    -2
100
AcDbLine
 10
328.2200693488416
 20
244.4171992733745
 30
0.0
 11
328.2200693488416
 21
294.8058791037634
 31
0.0
  0
LINE
  5
3F9C
330
3F20
100
AcDbEntity
  8
SUNPOU
 62
    60
370
    -2
100
AcDbLine
 10
-169.7799306511583
 20
294.8058791037634
 30
0.0
 11
326.2200693488417
 21
294.8058791037634
 31
0.0
  0
INSERT
  5
3F9D
330
3F20
100
AcDbEntity
  8
SUNPOU
 62
    60
370
    -2
100
AcDbBlockReference
  2
_Dot
 10
-171.7799306511583
 20
294.8058791037634
 30
0.0
 41
2.0
 42
2.0
 43
2.0
 50
180.0
  0
INSERT
  5
3F9E
330
3F20
100
AcDbEntity
  8
SUNPOU
 62
    60
370
    -2
100
AcDbBlockReference
  2
_Dot
 10
328.2200693488416
 20
294.8058791037634
 30
0.0
 41
2.0
 42
2.0
 43
2.0
  0
MTEXT
  5
3F9F
330
3F20
100
AcDbEntity
  8
SUNPOU
 62
    60
100
AcDbMText
 10
78.22006934884166
 20
302.8058791037633
 30
0.0
 40
10.0
 41
0.0
 71
     5
 72
     1
  1
\A1;500
  7
SUNPOU
 73
     1
 44
1.0
1001
ACAD
1000
MTEXTBEGIN
1070
    73
1070
     1
1070
    44
1040
1.0
1070
    74
1070
     0
1000
MTEXTEND
  0
POINT
  5
3FA0
330
3F20
100
AcDbEntity
  8
DEFPOINTS
 62
     0
100
AcDbPoint
 10
-171.7799306511583
 20
233.6438293736883
 30
0.0
  0
POINT
  5
3FA1
330
3F20
100
AcDbEntity
  8
DEFPOINTS
 62
     0
100
AcDbPoint
 10
328.2200693488416
 20
234.4171992733745
 30
0.0
  0
POINT
  5
3FA2
330
3F20
100
AcDbEntity
  8
DEFPOINTS
 62
     0
100
AcDbPoint
 10
328.2200693488416
 20
294.8058791037634
 30
0.0
  0
ENDBLK
  5
3F2B
330
3F20
100
AcDbEntity
  8
0
100
AcDbBlockEnd
  0
BLOCK
  5
3F37
330
3F2D
100
AcDbEntity
  8
0
100
AcDbBlockBegin
  2
*D90
 70
     1
 10
0.0
 20
0.0
 30
0.0
  3
*D90
  1

  0
LINE
  5
3F88
330
3F2D
100
AcDbEntity
  8
SUNPOU
 62
    70
370
    -2
100
AcDbLine
 10
-181.7799306511583
 20
233.6438293736883
 30
0.0
 11
-228.1049532351698
 21
233.6438293736883
 31
0.0
  0
LINE
  5
3F89
330
3F2D
100
AcDbEntity
  8
SUNPOU
 62
    70
370
    -2
100
AcDbLine
 10
-182.8189487700756
 20
66.64382937368819
 30
0.0
 11
-228.1049532351699
 21
66.6438293736882
 31
0.0
  0
LINE
  5
3F8A
330
3F2D
100
AcDbEntity
  8
SUNPOU
 62
    60
370
    -2
100
AcDbLine
 10
-228.1049532351698
 20
231.6438293736883
 30
0.0
 11
-228.1049532351699
 21
68.6438293736882
 31
0.0
  0
INSERT
  5
3F8B
330
3F2D
100
AcDbEntity
  8
SUNPOU
 62
    60
370
    -2
100
AcDbBlockReference
  2
_Dot
 10
-228.1049532351698
 20
233.6438293736883
 30
0.0
 41
2.0
 42
2.0
 43
2.0
 50
90.0
  0
INSERT
  5
3F8C
330
3F2D
100
AcDbEntity
  8
SUNPOU
 62
    60
370
    -2
100
AcDbBlockReference
  2
_Dot
 10
-228.1049532351699
 20
66.6438293736882
 30
0.0
 41
2.0
 42
2.0
 43
2.0
 50
270.0
  0
MTEXT
  5
3F8D
330
3F2D
100
AcDbEntity
  8
SUNPOU
 62
    60
100
AcDbMText
 10
-236.1049532351699
 20
150.1438293736882
 30
0.0
 40
10.0
 41
0.0
 71
     5
 72
     1
  1
\A1;167
  7
SUNPOU
 11
0.0000000000000001
 21
1.0
 31
0.0
 73
     1
 44
1.0
1001
ACAD
1000
MTEXTBEGIN
1070
    73
1070
     1
1070
    44
1040
1.0
1070
    74
1070
     0
1000
MTEXTEND
  0
POINT
  5
3F8E
330
3F2D
100
AcDbEntity
  8
DEFPOINTS
 62
     0
100
AcDbPoint
 10
-171.7799306511583
 20
233.6438293736883
 30
0.0
  0
POINT
  5
3F8F
330
3F2D
100
AcDbEntity
  8
DEFPOINTS
 62
     0
100
AcDbPoint
 10
-172.8189487700756
 20
66.64382937368819
 30
0.0
  0
POINT
  5
3F90
330
3F2D
100
AcDbEntity
  8
DEFPOINTS
 62
     0
100
AcDbPoint
 10
-228.1049532351699
 20
66.6438293736882
 30
0.0
  0
ENDBLK
  5
3F38
330
3F2D
100
AcDbEntity
  8
0
100
AcDbBlockEnd
  0
BLOCK
  5
411D
330
4113
100
AcDbEntity
  8
0
100
AcDbBlockBegin
  2
*D92
 70
     1
 10
0.0
 20
0.0
 30
0.0
  3
*D92
  1

  0
LINE
  5
4196
330
4113
100
AcDbEntity
  8
SUNPOU
 62
    70
370
    -2
100
AcDbLine
 10
-116.2914213925551
 20
214.1651106888427
 30
0.0
 11
-116.2914213925551
 21
254.7405778968164
 31
0.0
  0
LINE
  5
4197
330
4113
100
AcDbEntity
  8
SUNPOU
 62
    70
370
    -2
100
AcDbLine
 10
283.7085786074449
 20
215.8970289941608
 30
0.0
 11
283.7085786074449
 21
254.7405778968164
 31
0.0
  0
LINE
  5
4198
330
4113
100
AcDbEntity
  8
SUNPOU
 62
    60
370
    -2
100
AcDbLine
 10
-114.2914213925551
 20
254.7405778968164
 30
0.0
 11
281.7085786074449
 21
254.7405778968164
 31
0.0
  0
INSERT
  5
4199
330
4113
100
AcDbEntity
  8
SUNPOU
 62
    60
370
    -2
100
AcDbBlockReference
  2
_Dot
 10
-116.2914213925551
 20
254.7405778968164
 30
0.0
 41
2.0
 42
2.0
 43
2.0
 50
180.0
  0
INSERT
  5
419A
330
4113
100
AcDbEntity
  8
SUNPOU
 62
    60
370
    -2
100
AcDbBlockReference
  2
_Dot
 10
283.7085786074449
 20
254.7405778968164
 30
0.0
 41
2.0
 42
2.0
 43
2.0
  0
MTEXT
  5
419B
330
4113
100
AcDbEntity
  8
SUNPOU
 62
    60
100
AcDbMText
 10
83.70857860744491
 20
262.7405778968164
 30
0.0
 40
10.0
 41
0.0
 71
     5
 72
     1
  1
\A1;400
  7
SUNPOU
 73
     1
 44
1.0
1001
ACAD
1000
MTEXTBEGIN
1070
    73
1070
     1
1070
    44
1040
1.0
1070
    74
1070
     0
1000
MTEXTEND
  0
POINT
  5
419C
330
4113
100
AcDbEntity
  8
DEFPOINTS
 62
     0
100
AcDbPoint
 10
-116.2914213925551
 20
204.1651106888427
 30
0.0
  0
POINT
  5
419D
330
4113
100
AcDbEntity
  8
DEFPOINTS
 62
     0
100
AcDbPoint
 10
283.7085786074449
 20
205.8970289941608
 30
0.0
  0
POINT
  5
419E
330
4113
100
AcDbEntity
  8
DEFPOINTS
 62
     0
100
AcDbPoint
 10
283.7085786074449
 20
254.7405778968164
 30
0.0
  0
ENDBLK
  5
411E
330
4113
100
AcDbEntity
  8
0
100
AcDbBlockEnd
  0
BLOCK
  5
412A
330
4120
100
AcDbEntity
  8
0
100
AcDbBlockBegin
  2
*D93
 70
     1
 10
0.0
 20
0.0
 30
0.0
  3
*D93
  1

  0
LINE
  5
4184
330
4120
100
AcDbEntity
  8
SUNPOU
 62
    70
370
    -2
100
AcDbLine
 10
-126.2914213925551
 20
204.1651106888427
 30
0.0
 11
-176.1343835884108
 21
204.1651106888427
 31
0.0
  0
LINE
  5
4185
330
4120
100
AcDbEntity
  8
SUNPOU
 62
    70
370
    -2
100
AcDbLine
 10
-125.9948475759538
 20
64.16511068884261
 30
0.0
 11
-176.1343835884108
 21
64.16511068884263
 31
0.0
  0
LINE
  5
4186
330
4120
100
AcDbEntity
  8
SUNPOU
 62
    60
370
    -2
100
AcDbLine
 10
-176.1343835884108
 20
202.1651106888427
 30
0.0
 11
-176.1343835884108
 21
66.16511068884263
 31
0.0
  0
INSERT
  5
4187
330
4120
100
AcDbEntity
  8
SUNPOU
 62
    60
370
    -2
100
AcDbBlockReference
  2
_Dot
 10
-176.1343835884108
 20
204.1651106888427
 30
0.0
 41
2.0
 42
2.0
 43
2.0
 50
90.0
  0
INSERT
  5
4188
330
4120
100
AcDbEntity
  8
SUNPOU
 62
    60
370
    -2
100
AcDbBlockReference
  2
_Dot
 10
-176.1343835884108
 20
64.16511068884263
 30
0.0
 41
2.0
 42
2.0
 43
2.0
 50
270.0
  0
MTEXT
  5
4189
330
4120
100
AcDbEntity
  8
SUNPOU
 62
    60
100
AcDbMText
 10
-184.1343835884108
 20
134.1651106888426
 30
0.0
 40
10.0
 41
0.0
 71
     5
 72
     1
  1
\A1;140
  7
SUNPOU
 11
0.0000000000000001
 21
1.0
 31
0.0
 73
     1
 44
1.0
1001
ACAD
1000
MTEXTBEGIN
1070
    73
1070
     1
1070
    44
1040
1.0
1070
    74
1070
     0
1000
MTEXTEND
  0
POINT
  5
418A
330
4120
100
AcDbEntity
  8
DEFPOINTS
 62
     0
100
AcDbPoint
 10
-116.2914213925551
 20
204.1651106888427
 30
0.0
  0
POINT
  5
418B
330
4120
100
AcDbEntity
  8
DEFPOINTS
 62
     0
100
AcDbPoint
 10
-115.9948475759538
 20
64.16511068884261
 30
0.0
  0
POINT
  5
418C
330
4120
100
AcDbEntity
  8
DEFPOINTS
 62
     0
100
AcDbPoint
 10
-176.1343835884108
 20
64.16511068884263
 30
0.0
  0
ENDBLK
  5
412B
330
4120
100
AcDbEntity
  8
0
100
AcDbBlockEnd
  0
BLOCK
  5
4319
330
430F
100
AcDbEntity
  8
0
100
AcDbBlockBegin
  2
*D95
 70
     1
 10
0.0
 20
0.0
 30
0.0
  3
*D95
  1

  0
LINE
  5
4392
330
430F
100
AcDbEntity
  8
SUNPOU
 62
    70
370
    -2
100
AcDbLine
 10
-84.22043254813889
 20
152.5849428298555
 30
0.0
 11
-84.22043254813889
 21
195.0659752419669
 31
0.0
  0
LINE
  5
4393
330
430F
100
AcDbEntity
  8
SUNPOU
 62
    70
370
    -2
100
AcDbLine
 10
215.7795674518611
 20
154.1727972850744
 30
0.0
 11
215.7795674518611
 21
195.0659752419669
 31
0.0
  0
LINE
  5
4394
330
430F
100
AcDbEntity
  8
SUNPOU
 62
    60
370
    -2
100
AcDbLine
 10
-82.22043254813888
 20
195.0659752419669
 30
0.0
 11
213.7795674518611
 21
195.0659752419669
 31
0.0
  0
INSERT
  5
4395
330
430F
100
AcDbEntity
  8
SUNPOU
 62
    60
370
    -2
100
AcDbBlockReference
  2
_Dot
 10
-84.22043254813889
 20
195.0659752419669
 30
0.0
 41
2.0
 42
2.0
 43
2.0
 50
180.0
  0
INSERT
  5
4396
330
430F
100
AcDbEntity
  8
SUNPOU
 62
    60
370
    -2
100
AcDbBlockReference
  2
_Dot
 10
215.7795674518611
 20
195.0659752419669
 30
0.0
 41
2.0
 42
2.0
 43
2.0
  0
MTEXT
  5
4397
330
430F
100
AcDbEntity
  8
SUNPOU
 62
    60
100
AcDbMText
 10
65.77956745186111
 20
203.065975241967
 30
0.0
 40
10.0
 41
0.0
 71
     5
 72
     1
  1
\A1;300
  7
SUNPOU
 73
     1
 44
1.0
1001
ACAD
1000
MTEXTBEGIN
1070
    73
1070
     1
1070
    44
1040
1.0
1070
    74
1070
     0
1000
MTEXTEND
  0
POINT
  5
4398
330
430F
100
AcDbEntity
  8
DEFPOINTS
 62
     0
100
AcDbPoint
 10
-84.22043254813889
 20
142.5849428298555
 30
0.0
  0
POINT
  5
4399
330
430F
100
AcDbEntity
  8
DEFPOINTS
 62
     0
100
AcDbPoint
 10
215.7795674518611
 20
144.1727972850744
 30
0.0
  0
POINT
  5
439A
330
430F
100
AcDbEntity
  8
DEFPOINTS
 62
     0
100
AcDbPoint
 10
215.7795674518611
 20
195.0659752419669
 30
0.0
  0
ENDBLK
  5
431A
330
430F
100
AcDbEntity
  8
0
100
AcDbBlockEnd
  0
BLOCK
  5
4326
330
431C
100
AcDbEntity
  8
0
100
AcDbBlockBegin
  2
*D96
 70
     1
 10
0.0
 20
0.0
 30
0.0
  3
*D96
  1

  0
LINE
  5
4380
330
431C
100
AcDbEntity
  8
SUNPOU
 62
    70
370
    -2
100
AcDbLine
 10
-94.22043254813889
 20
142.5849428298555
 30
0.0
 11
-127.7379072557178
 21
142.5849428298555
 31
0.0
  0
LINE
  5
4381
330
431C
100
AcDbEntity
  8
SUNPOU
 62
    70
370
    -2
100
AcDbLine
 10
-95.39648315633803
 20
49.58494282985543
 30
0.0
 11
-127.7379072557178
 21
49.58494282985544
 31
0.0
  0
LINE
  5
4382
330
431C
100
AcDbEntity
  8
SUNPOU
 62
    60
370
    -2
100
AcDbLine
 10
-127.7379072557178
 20
140.5849428298555
 30
0.0
 11
-127.7379072557178
 21
51.58494282985543
 31
0.0
  0
INSERT
  5
4383
330
431C
100
AcDbEntity
  8
SUNPOU
 62
    60
370
    -2
100
AcDbBlockReference
  2
_Dot
 10
-127.7379072557178
 20
142.5849428298555
 30
0.0
 41
2.0
 42
2.0
 43
2.0
 50
90.0
  0
INSERT
  5
4384
330
431C
100
AcDbEntity
  8
SUNPOU
 62
    60
370
    -2
100
AcDbBlockReference
  2
_Dot
 10
-127.7379072557178
 20
49.58494282985544
 30
0.0
 41
2.0
 42
2.0
 43
2.0
 50
270.0
  0
MTEXT
  5
4385
330
431C
100
AcDbEntity
  8
SUNPOU
 62
    60
100
AcDbMText
 10
-135.7379072557178
 20
96.08494282985546
 30
0.0
 40
10.0
 41
0.0
 71
     5
 72
     1
  1
\A1;93
  7
SUNPOU
 11
0.0000000000000001
 21
1.0
 31
0.0
 73
     1
 44
1.0
1001
ACAD
1000
MTEXTBEGIN
1070
    73
1070
     1
1070
    44
1040
1.0
1070
    74
1070
     0
1000
MTEXTEND
  0
POINT
  5
4386
330
431C
100
AcDbEntity
  8
DEFPOINTS
 62
     0
100
AcDbPoint
 10
-84.22043254813889
 20
142.5849428298555
 30
0.0
  0
POINT
  5
4387
330
431C
100
AcDbEntity
  8
DEFPOINTS
 62
     0
100
AcDbPoint
 10
-85.39648315633803
 20
49.58494282985543
 30
0.0
  0
POINT
  5
4388
330
431C
100
AcDbEntity
  8
DEFPOINTS
 62
     0
100
AcDbPoint
 10
-127.7379072557178
 20
49.58494282985544
 30
0.0
  0
ENDBLK
  5
4327
330
431C
100
AcDbEntity
  8
0
100
AcDbBlockEnd
  0
BLOCK
  5
4515
330
450B
100
AcDbEntity
  8
0
100
AcDbBlockBegin
  2
*D98
 70
     1
 10
0.0
 20
0.0
 30
0.0
  3
*D98
  1

  0
LINE
  5
4587
330
450B
100
AcDbEntity
  8
SUNPOU
 62
    70
370
    -2
100
AcDbLine
 10
-30.19178240027213
 20
119.1005919951203
 30
0.0
 11
-30.19178240027213
 21
135.1431922466149
 31
0.0
  0
LINE
  5
4588
330
450B
100
AcDbEntity
  8
SUNPOU
 62
    70
370
    -2
100
AcDbLine
 10
169.8082175997278
 20
120.0650453891685
 30
0.0
 11
169.8082175997278
 21
135.1431922466149
 31
0.0
  0
LINE
  5
4589
330
450B
100
AcDbEntity
  8
SUNPOU
 62
    60
370
    -2
100
AcDbLine
 10
-28.19178240027213
 20
135.1431922466149
 30
0.0
 11
167.8082175997279
 21
135.1431922466149
 31
0.0
  0
INSERT
  5
458A
330
450B
100
AcDbEntity
  8
SUNPOU
 62
    60
370
    -2
100
AcDbBlockReference
  2
_Dot
 10
-30.19178240027213
 20
135.1431922466149
 30
0.0
 41
2.0
 42
2.0
 43
2.0
 50
180.0
  0
INSERT
  5
458B
330
450B
100
AcDbEntity
  8
SUNPOU
 62
    60
370
    -2
100
AcDbBlockReference
  2
_Dot
 10
169.8082175997278
 20
135.1431922466149
 30
0.0
 41
2.0
 42
2.0
 43
2.0
  0
MTEXT
  5
458C
330
450B
100
AcDbEntity
  8
SUNPOU
 62
    60
100
AcDbMText
 10
69.80821759972787
 20
143.1431922466149
 30
0.0
 40
10.0
 41
0.0
 71
     5
 72
     1
  1
\A1;200
  7
SUNPOU
 73
     1
 44
1.0
1001
ACAD
1000
MTEXTBEGIN
1070
    73
1070
     1
1070
    44
1040
1.0
1070
    74
1070
     0
1000
MTEXTEND
  0
POINT
  5
458D
330
450B
100
AcDbEntity
  8
DEFPOINTS
 62
     0
100
AcDbPoint
 10
-30.19178240027213
 20
109.1005919951203
 30
0.0
  0
POINT
  5
458E
330
450B
100
AcDbEntity
  8
DEFPOINTS
 62
     0
100
AcDbPoint
 10
169.8082175997278
 20
110.0650453891685
 30
0.0
  0
POINT
  5
458F
330
450B
100
AcDbEntity
  8
DEFPOINTS
 62
     0
100
AcDbPoint
 10
169.8082175997278
 20
135.1431922466149
 30
0.0
  0
ENDBLK
  5
4516
330
450B
100
AcDbEntity
  8
0
100
AcDbBlockEnd
  0
BLOCK
  5
4522
330
4518
100
AcDbEntity
  8
0
100
AcDbBlockBegin
  2
*D99
 70
     1
 10
0.0
 20
0.0
 30
0.0
  3
*D99
  1

  0
LINE
  5
4575
330
4518
100
AcDbEntity
  8
SUNPOU
 62
    70
370
    -2
100
AcDbLine
 10
-40.19178240027214
 20
109.1005919951203
 30
0.0
 11
-57.46671658807462
 21
109.1005919951203
 31
0.0
  0
LINE
  5
4576
330
4518
100
AcDbEntity
  8
SUNPOU
 62
    70
370
    -2
100
AcDbLine
 10
-40.9674180703596
 20
49.10059199512026
 30
0.0
 11
-57.46671658807463
 21
49.10059199512027
 31
0.0
  0
LINE
  5
4577
330
4518
100
AcDbEntity
  8
SUNPOU
 62
    60
370
    -2
100
AcDbLine
 10
-57.46671658807462
 20
107.1005919951203
 30
0.0
 11
-57.46671658807463
 21
51.10059199512027
 31
0.0
  0
INSERT
  5
4578
330
4518
100
AcDbEntity
  8
SUNPOU
 62
    60
370
    -2
100
AcDbBlockReference
  2
_Dot
 10
-57.46671658807462
 20
109.1005919951203
 30
0.0
 41
2.0
 42
2.0
 43
2.0
 50
90.0
  0
INSERT
  5
4579
330
4518
100
AcDbEntity
  8
SUNPOU
 62
    60
370
    -2
100
AcDbBlockReference
  2
_Dot
 10
-57.46671658807463
 20
49.10059199512027
 30
0.0
 41
2.0
 42
2.0
 43
2.0
 50
270.0
  0
MTEXT
  5
457A
330
4518
100
AcDbEntity
  8
SUNPOU
 62
    60
100
AcDbMText
 10
-65.46671658807465
 20
79.10059199512028
 30
0.0
 40
10.0
 41
0.0
 71
     5
 72
     1
  1
\A1;60
  7
SUNPOU
 11
0.0000000000000001
 21
1.0
 31
0.0
 73
     1
 44
1.0
1001
ACAD
1000
MTEXTBEGIN
1070
    73
1070
     1
1070
    44
1040
1.0
1070
    74
1070
     0
1000
MTEXTEND
  0
POINT
  5
457B
330
4518
100
AcDbEntity
  8
DEFPOINTS
 62
     0
100
AcDbPoint
 10
-30.19178240027213
 20
109.1005919951203
 30
0.0
  0
POINT
  5
457C
330
4518
100
AcDbEntity
  8
DEFPOINTS
 62
     0
100
AcDbPoint
 10
-30.9674180703596
 20
49.10059199512026
 30
0.0
  0
POINT
  5
457D
330
4518
100
AcDbEntity
  8
DEFPOINTS
 62
     0
100
AcDbPoint
 10
-57.46671658807463
 20
49.10059199512027
 30
0.0
  0
ENDBLK
  5
4523
330
4518
100
AcDbEntity
  8
0
100
AcDbBlockEnd
  0
BLOCK
  5
4685
330
467B
100
AcDbEntity
  8
0
100
AcDbBlockBegin
  2
*D101
 70
     1
 10
0.0
 20
0.0
 30
0.0
  3
*D101
  1

  0
LINE
  5
46EA
330
467B
100
AcDbEntity
  8
SUNPOU
 62
    70
370
    -2
100
AcDbLine
 10
-146.5237399993603
 20
160.9173842831635
 30
0.0
 11
-146.5237399993603
 21
192.9956752641087
 31
0.0
  0
LINE
  5
46EB
330
467B
100
AcDbEntity
  8
SUNPOU
 62
    70
370
    -2
100
AcDbLine
 10
268.4762600006378
 20
169.1062691404845
 30
0.0
 11
268.4762600006378
 21
192.9956752641087
 31
0.0
  0
LINE
  5
46EC
330
467B
100
AcDbEntity
  8
SUNPOU
 62
    60
370
    -2
100
AcDbLine
 10
-144.5237399993603
 20
192.9956752641087
 30
0.0
 11
266.4762600006377
 21
192.9956752641087
 31
0.0
  0
INSERT
  5
46ED
330
467B
100
AcDbEntity
  8
SUNPOU
 62
    60
370
    -2
100
AcDbBlockReference
  2
_Dot
 10
-146.5237399993603
 20
192.9956752641087
 30
0.0
 41
2.0
 42
2.0
 43
2.0
 50
180.0
  0
INSERT
  5
46EE
330
467B
100
AcDbEntity
  8
SUNPOU
 62
    60
370
    -2
100
AcDbBlockReference
  2
_Dot
 10
268.4762600006378
 20
192.9956752641087
 30
0.0
 41
2.0
 42
2.0
 43
2.0
  0
MTEXT
  5
46EF
330
467B
100
AcDbEntity
  8
SUNPOU
 62
    60
100
AcDbMText
 10
60.97626000063868
 20
200.9956752641087
 30
0.0
 40
10.0
 41
0.0
 71
     5
 72
     1
  1
\A1;415
  7
SUNPOU
 73
     1
 44
1.0
1001
ACAD
1000
MTEXTBEGIN
1070
    73
1070
     1
1070
    44
1040
1.0
1070
    74
1070
     0
1000
MTEXTEND
  0
POINT
  5
46F0
330
467B
100
AcDbEntity
  8
DEFPOINTS
 62
     0
100
AcDbPoint
 10
-146.5237399993603
 20
150.9173842831636
 30
0.0
  0
POINT
  5
46F1
330
467B
100
AcDbEntity
  8
DEFPOINTS
 62
     0
100
AcDbPoint
 10
268.4762600006378
 20
159.1062691404845
 30
0.0
  0
POINT
  5
46F2
330
467B
100
AcDbEntity
  8
DEFPOINTS
 62
     0
100
AcDbPoint
 10
268.4762600006378
 20
192.9956752641087
 30
0.0
  0
ENDBLK
  5
4686
330
467B
100
AcDbEntity
  8
0
100
AcDbBlockEnd
  0
BLOCK
  5
4692
330
4688
100
AcDbEntity
  8
0
100
AcDbBlockBegin
  2
*D102
 70
     1
 10
0.0
 20
0.0
 30
0.0
  3
*D102
  1

  0
LINE
  5
46D8
330
4688
100
AcDbEntity
  8
SUNPOU
 62
    70
370
    -2
100
AcDbLine
 10
-156.5237399993604
 20
150.9173842831636
 30
0.0
 11
-184.21117021614
 21
150.9173842831636
 31
0.0
  0
LINE
  5
46D9
330
4688
100
AcDbEntity
  8
SUNPOU
 62
    70
370
    -2
100
AcDbLine
 10
-156.3245408996864
 20
49.91738428316352
 30
0.0
 11
-184.2111702161401
 21
49.91738428316353
 31
0.0
  0
LINE
  5
46DA
330
4688
100
AcDbEntity
  8
SUNPOU
 62
    60
370
    -2
100
AcDbLine
 10
-184.21117021614
 20
148.9173842831636
 30
0.0
 11
-184.2111702161401
 21
51.91738428316353
 31
0.0
  0
INSERT
  5
46DB
330
4688
100
AcDbEntity
  8
SUNPOU
 62
    60
370
    -2
100
AcDbBlockReference
  2
_Dot
 10
-184.21117021614
 20
150.9173842831636
 30
0.0
 41
2.0
 42
2.0
 43
2.0
 50
90.0
  0
INSERT
  5
46DC
330
4688
100
AcDbEntity
  8
SUNPOU
 62
    60
370
    -2
100
AcDbBlockReference
  2
_Dot
 10
-184.2111702161401
 20
49.91738428316353
 30
0.0
 41
2.0
 42
2.0
 43
2.0
 50
270.0
  0
MTEXT
  5
46DD
330
4688
100
AcDbEntity
  8
SUNPOU
 62
    60
100
AcDbMText
 10
-192.2111702161401
 20
100.4173842831635
 30
0.0
 40
10.0
 41
0.0
 71
     5
 72
     1
  1
\A1;101
  7
SUNPOU
 11
0.0000000000000001
 21
1.0
 31
0.0
 73
     1
 44
1.0
1001
ACAD
1000
MTEXTBEGIN
1070
    73
1070
     1
1070
    44
1040
1.0
1070
    74
1070
     0
1000
MTEXTEND
  0
POINT
  5
46DE
330
4688
100
AcDbEntity
  8
DEFPOINTS
 62
     0
100
AcDbPoint
 10
-146.5237399993603
 20
150.9173842831636
 30
0.0
  0
POINT
  5
46DF
330
4688
100
AcDbEntity
  8
DEFPOINTS
 62
     0
100
AcDbPoint
 10
-146.3245408996864
 20
49.91738428316352
 30
0.0
  0
POINT
  5
46E0
330
4688
100
AcDbEntity
  8
DEFPOINTS
 62
     0
100
AcDbPoint
 10
-184.2111702161401
 20
49.91738428316353
 30
0.0
  0
ENDBLK
  5
4693
330
4688
100
AcDbEntity
  8
0
100
AcDbBlockEnd
  0
BLOCK
  5
47CC
330
47C2
100
AcDbEntity
  8
0
100
AcDbBlockBegin
  2
*D104
 70
     1
 10
0.0
 20
0.0
 30
0.0
  3
*D104
  1

  0
LINE
  5
4811
330
47C2
100
AcDbEntity
  8
SUNPOU
 62
    70
370
    -2
100
AcDbLine
 10
-147.0418067546898
 20
143.1456262488451
 30
0.0
 11
-147.0418067546898
 21
198.3150519019309
 31
0.0
  0
LINE
  5
4812
330
47C2
100
AcDbEntity
  8
SUNPOU
 62
    70
370
    -2
100
AcDbLine
 10
262.9581932453098
 20
152.5727548669661
 30
0.0
 11
262.9581932453098
 21
198.3150519019309
 31
0.0
  0
LINE
  5
4813
330
47C2
100
AcDbEntity
  8
SUNPOU
 62
    60
370
    -2
100
AcDbLine
 10
-145.0418067546898
 20
198.3150519019309
 30
0.0
 11
260.9581932453098
 21
198.3150519019309
 31
0.0
  0
INSERT
  5
4814
330
47C2
100
AcDbEntity
  8
SUNPOU
 62
    60
370
    -2
100
AcDbBlockReference
  2
_Dot
 10
-147.0418067546898
 20
198.3150519019309
 30
0.0
 41
2.0
 42
2.0
 43
2.0
 50
180.0
  0
INSERT
  5
4815
330
47C2
100
AcDbEntity
  8
SUNPOU
 62
    60
370
    -2
100
AcDbBlockReference
  2
_Dot
 10
262.9581932453098
 20
198.3150519019309
 30
0.0
 41
2.0
 42
2.0
 43
2.0
  0
MTEXT
  5
4816
330
47C2
100
AcDbEntity
  8
SUNPOU
 62
    60
100
AcDbMText
 10
57.95819324530999
 20
206.3150519019309
 30
0.0
 40
10.0
 41
0.0
 71
     5
 72
     1
  1
\A1;410
  7
SUNPOU
 73
     1
 44
1.0
1001
ACAD
1000
MTEXTBEGIN
1070
    73
1070
     1
1070
    44
1040
1.0
1070
    74
1070
     0
1000
MTEXTEND
  0
POINT
  5
4817
330
47C2
100
AcDbEntity
  8
DEFPOINTS
 62
     0
100
AcDbPoint
 10
-147.0418067546898
 20
133.145626248845
 30
0.0
  0
POINT
  5
4818
330
47C2
100
AcDbEntity
  8
DEFPOINTS
 62
     0
100
AcDbPoint
 10
262.9581932453098
 20
142.5727548669661
 30
0.0
  0
POINT
  5
4819
330
47C2
100
AcDbEntity
  8
DEFPOINTS
 62
     0
100
AcDbPoint
 10
262.9581932453098
 20
198.3150519019309
 30
0.0
  0
ENDBLK
  5
47CD
330
47C2
100
AcDbEntity
  8
0
100
AcDbBlockEnd
  0
BLOCK
  5
47D9
330
47CF
100
AcDbEntity
  8
0
100
AcDbBlockBegin
  2
*D105
 70
     1
 10
0.0
 20
0.0
 30
0.0
  3
*D105
  1

  0
LINE
  5
47FF
330
47CF
100
AcDbEntity
  8
SUNPOU
 62
    70
370
    -2
100
AcDbLine
 10
-157.0418067546898
 20
133.145626248845
 30
0.0
 11
-186.7861525740773
 21
133.145626248845
 31
0.0
  0
LINE
  5
4800
330
47CF
100
AcDbEntity
  8
SUNPOU
 62
    70
370
    -2
100
AcDbLine
 10
-157.0418067546889
 20
51.14562624884502
 30
0.0
 11
-186.7861525740773
 21
51.14562624884502
 31
0.0
  0
LINE
  5
4801
330
47CF
100
AcDbEntity
  8
SUNPOU
 62
    60
370
    -2
100
AcDbLine
 10
-186.7861525740773
 20
131.145626248845
 30
0.0
 11
-186.7861525740773
 21
53.14562624884502
 31
0.0
  0
INSERT
  5
4802
330
47CF
100
AcDbEntity
  8
SUNPOU
 62
    60
370
    -2
100
AcDbBlockReference
  2
_Dot
 10
-186.7861525740773
 20
133.145626248845
 30
0.0
 41
2.0
 42
2.0
 43
2.0
 50
90.0
  0
INSERT
  5
4803
330
47CF
100
AcDbEntity
  8
SUNPOU
 62
    60
370
    -2
100
AcDbBlockReference
  2
_Dot
 10
-186.7861525740773
 20
51.14562624884502
 30
0.0
 41
2.0
 42
2.0
 43
2.0
 50
270.0
  0
MTEXT
  5
4804
330
47CF
100
AcDbEntity
  8
SUNPOU
 62
    60
100
AcDbMText
 10
-194.7861525740773
 20
92.14562624884504
 30
0.0
 40
10.0
 41
0.0
 71
     5
 72
     1
  1
\A1;82
  7
SUNPOU
 11
0.0000000000000001
 21
1.0
 31
0.0
 73
     1
 44
1.0
1001
ACAD
1000
MTEXTBEGIN
1070
    73
1070
     1
1070
    44
1040
1.0
1070
    74
1070
     0
1000
MTEXTEND
  0
POINT
  5
4805
330
47CF
100
AcDbEntity
  8
DEFPOINTS
 62
     0
100
AcDbPoint
 10
-147.0418067546898
 20
133.145626248845
 30
0.0
  0
POINT
  5
4806
330
47CF
100
AcDbEntity
  8
DEFPOINTS
 62
     0
100
AcDbPoint
 10
-147.0418067546888
 20
51.14562624884502
 30
0.0
  0
POINT
  5
4807
330
47CF
100
AcDbEntity
  8
DEFPOINTS
 62
     0
100
AcDbPoint
 10
-186.7861525740773
 20
51.14562624884502
 30
0.0
  0
ENDBLK
  5
47DA
330
47CF
100
AcDbEntity
  8
0
100
AcDbBlockEnd
  0
ENDSEC
  0
SECTION
  2
ENTITIES
  0
LINE
  5
1F
330
2
100
AcDbEntity
  8
WAKU
100
AcDbLine
 10
0.0
 20
14.0
 30
0.0
 11
141.7992909508968
 21
13.99999999999999
 31
0.0
  0
LINE
  5
20
330
2
100
AcDbEntity
  8
WAKU
100
AcDbLine
 10
0.0
 20
0.0
 30
0.0
 11
141.7992909508968
 21
0.0
 31
0.0
  0
TEXT
  5
21
330
2
100
AcDbEntity
  8
HOJO
100
AcDbText
 10
9.653966000000025
 20
2.366626000000024
 30
0.0
 40
9.0
  1
TC417
  7
SUNPOU
100
AcDbText
  0
TEXT
  5
23
330
2
100
AcDbEntity
  8
HOJO
100
AcDbText
 10
75.65253479254602
 20
5.044386000000031
 30
0.0
 40
6.0
  1
410×82×13
  7
SUNPOU
100
AcDbText
  0
ARC
  5
4763
102
{ACAD_REACTORS
330
481A
102
}
330
2
100
AcDbEntity
  8
KIJUN
100
AcDbCircle
 10
28.36774181568171
 20
37.03747521116793
 30
0.0
 40
54.78885700992974
100
AcDbArc
 50
113.7273986038006
 51
134.3235497642214
  0
ARC
  5
4764
102
{ACAD_REACTORS
330
481A
102
}
330
2
100
AcDbEntity
  8
KIJUN
100
AcDbCircle
 10
28.36774181568171
 20
37.03747521116793
 30
0.0
 40
57.78885700992974
100
AcDbArc
 50
113.7273986038006
 51
134.3235497642214
  0
ARC
  5
4765
102
{ACAD_REACTORS
330
481A
102
}
330
2
100
AcDbEntity
  8
KIJUN
100
AcDbCircle
 10
28.36774181568171
 20
37.03747521116793
 30
0.0
 40
60.78885700992974
100
AcDbArc
 50
113.7273986038006
 51
134.3235497642214
  0
ARC
  5
4766
102
{ACAD_REACTORS
330
481A
102
}
330
2
100
AcDbEntity
  8
KIJUN
100
AcDbCircle
 10
26.21554968315058
 20
63.75775929136807
 30
0.0
 40
50.20559718204537
100
AcDbArc
 50
81.70558853849984
 51
133.6997531372571
  0
LINE
  5
4767
102
{ACAD_REACTORS
330
481A
102
}
330
2
100
AcDbEntity
  8
KIJUN
100
AcDbLine
 10
-77.61321887108806
 20
57.14562624884502
 30
0.0
 11
-147.0418067546888
 21
57.14562624884502
 31
0.0
  0
LINE
  5
4768
102
{ACAD_REACTORS
330
481A
102
}
330
2
100
AcDbEntity
  8
KIJUN
100
AcDbLine
 10
-77.61321887108806
 20
54.1456262488441
 30
0.0
 11
-147.0418067546888
 21
54.1456262488441
 31
0.0
  0
LINE
  5
4769
102
{ACAD_REACTORS
330
481A
102
}
330
2
100
AcDbEntity
  8
KIJUN
100
AcDbLine
 10
-77.61321887108806
 20
51.14562624884502
 30
0.0
 11
-147.0418067546888
 21
51.14562624884502
 31
0.0
  0
LINE
  5
476A
102
{ACAD_REACTORS
330
481A
102
}
330
2
100
AcDbEntity
  8
KIJUN
100
AcDbLine
 10
-66.86090389544006
 20
68.14562624884411
 30
0.0
 11
-147.0418067546888
 21
68.14562624884411
 31
0.0
  0
LINE
  5
476B
102
{ACAD_REACTORS
330
481A
102
}
330
2
100
AcDbEntity
  8
KIJUN
100
AcDbLine
 10
-147.0418067546898
 20
68.14562624884411
 30
0.0
 11
-147.0418067546888
 21
51.14562624884502
 31
0.0
  0
LINE
  5
476C
102
{ACAD_REACTORS
330
481A
102
}
330
2
100
AcDbEntity
  8
KIJUN
100
AcDbLine
 10
-147.0418067546888
 20
51.14562624884502
 30
0.0
 11
-147.0418067546882
 21
68.14562624884411
 31
0.0
  0
ARC
  5
476D
102
{ACAD_REACTORS
330
481A
102
}
330
2
100
AcDbEntity
  8
KIJUN
100
AcDbCircle
 10
-71.9513553250572
 20
139.7537772865209
 30
0.0
 40
82.78885700992971
100
AcDbArc
 50
266.3438977288338
 51
314.3235497642214
  0
ARC
  5
476E
102
{ACAD_REACTORS
330
481A
102
}
330
2
100
AcDbEntity
  8
KIJUN
100
AcDbCircle
 10
-71.9513553250572
 20
139.7537772865209
 30
0.0
 40
85.78885700992975
100
AcDbArc
 50
266.3438977288338
 51
314.3235497642214
  0
ARC
  5
476F
102
{ACAD_REACTORS
330
481A
102
}
330
2
100
AcDbEntity
  8
KIJUN
100
AcDbCircle
 10
-71.9513553250572
 20
139.7537772865209
 30
0.0
 40
88.78885700992972
100
AcDbArc
 50
266.3438977288338
 51
314.3235497642214
  0
ARC
  5
4770
102
{ACAD_REACTORS
330
481A
102
}
330
2
100
AcDbEntity
  8
KIJUN
100
AcDbCircle
 10
-71.9513553250572
 20
139.7537772865209
 30
0.0
 40
71.78885700992973
100
AcDbArc
 50
274.0661791207633
 51
314.3235497642214
  0
ARC
  5
4771
102
{ACAD_REACTORS
330
481A
102
}
330
2
100
AcDbEntity
  8
KIJUN
100
AcDbCircle
 10
34.64282452717566
 20
37.35586663326512
 30
0.0
 40
76.09155452174859
100
AcDbArc
 50
124.5132963583413
 51
137.8736534232763
  0
LINE
  5
4772
102
{ACAD_REACTORS
330
481A
102
}
330
2
100
AcDbEntity
  8
KIJUN
100
AcDbLine
 10
193.1312071623586
 20
51.14562624884502
 30
0.0
 11
262.9581932453107
 21
51.14562624884502
 31
0.0
  0
LINE
  5
4773
102
{ACAD_REACTORS
330
481A
102
}
330
2
100
AcDbEntity
  8
KIJUN
100
AcDbLine
 10
182.3788921867105
 20
68.14562624884411
 30
0.0
 11
262.95819324531
 21
68.14562624884409
 31
0.0
  0
LINE
  5
4774
102
{ACAD_REACTORS
330
481A
102
}
330
2
100
AcDbEntity
  8
KIJUN
100
AcDbLine
 10
193.1312071623586
 20
54.1456262488441
 30
0.0
 11
262.9581932453106
 21
54.1456262488441
 31
0.0
  0
LINE
  5
4775
102
{ACAD_REACTORS
330
481A
102
}
330
2
100
AcDbEntity
  8
KIJUN
100
AcDbLine
 10
193.1312071623586
 20
57.14562624884502
 30
0.0
 11
262.9581932453105
 21
57.14562624884501
 31
0.0
  0
ARC
  5
4776
102
{ACAD_REACTORS
330
481A
102
}
330
2
100
AcDbEntity
  8
KIJUN
100
AcDbCircle
 10
82.05979504595962
 20
94.93819913077913
 30
0.0
 40
18.5
100
AcDbArc
 50
90.0
 51
337.8973532604192
  0
ARC
  5
4777
102
{ACAD_REACTORS
330
481A
102
}
330
2
100
AcDbEntity
  8
KIJUN
100
AcDbCircle
 10
87.2040089899956
 20
93.52213397894207
 30
0.0
 40
13.21572998873914
100
AcDbArc
 50
335.1927879916893
 51
154.0244137377976
  0
ARC
  5
4778
102
{ACAD_REACTORS
330
481A
102
}
330
2
100
AcDbEntity
  8
KIJUN
100
AcDbCircle
 10
36.4654776951777
 20
101.904911844588
 30
0.0
 40
15.46562083482037
100
AcDbArc
 50
347.8262807039231
 51
62.33814110495043
  0
ARC
  5
4779
102
{ACAD_REACTORS
330
481A
102
}
330
2
100
AcDbEntity
  8
KIJUN
100
AcDbCircle
 10
37.86896516129468
 20
100.6144685749091
 30
0.0
 40
13.07326641857569
100
AcDbArc
 50
1.694552360758514
 51
74.89349795396845
  0
ARC
  5
477A
102
{ACAD_REACTORS
330
481A
102
}
330
2
100
AcDbEntity
  8
KIJUN
100
AcDbCircle
 10
79.05251059609168
 20
101.904911844588
 30
0.0
 40
15.46562083482037
100
AcDbArc
 50
117.6618588950495
 51
192.1737192960768
  0
ARC
  5
477B
102
{ACAD_REACTORS
330
481A
102
}
330
2
100
AcDbEntity
  8
KIJUN
100
AcDbCircle
 10
77.64902312997264
 20
100.6144685749091
 30
0.0
 40
13.07326641857569
100
AcDbArc
 50
105.1065020460315
 51
178.3054476392415
  0
ARC
  5
477C
102
{ACAD_REACTORS
330
481A
102
}
330
2
100
AcDbEntity
  8
KIJUN
100
AcDbCircle
 10
89.30243860811856
 20
63.75775929136807
 30
0.0
 40
50.20559718204537
100
AcDbArc
 50
46.30024686274281
 51
98.29441146150017
  0
ARC
  5
477D
102
{ACAD_REACTORS
330
481A
102
}
330
2
100
AcDbEntity
  8
KIJUN
100
AcDbCircle
 10
33.45819324531067
 20
94.93819913077913
 30
0.0
 40
18.5
100
AcDbArc
 50
202.1026467395808
 51
90.0
  0
ARC
  5
477E
102
{ACAD_REACTORS
330
481A
102
}
330
2
100
AcDbEntity
  8
KIJUN
100
AcDbCircle
 10
28.31397930127264
 20
93.52213397894207
 30
0.0
 40
13.21572998873914
100
AcDbArc
 50
25.97558626220239
 51
204.8072120083106
  0
ARC
  5
477F
102
{ACAD_REACTORS
330
481A
102
}
330
2
100
AcDbEntity
  8
KIJUN
100
AcDbCircle
 10
103.4880303419615
 20
79.91909536793719
 30
0.0
 40
9.127925584129231
100
AcDbArc
 50
53.69062828932707
 51
118.0176012886526
  0
ARC
  5
4780
102
{ACAD_REACTORS
330
481A
102
}
330
2
100
AcDbEntity
  8
KIJUN
100
AcDbCircle
 10
103.4880303419615
 20
79.91909536793719
 30
0.0
 40
12.12792558412923
100
AcDbArc
 50
53.69062828932707
 51
105.3309820626845
  0
ARC
  5
4781
102
{ACAD_REACTORS
330
481A
102
}
330
2
100
AcDbEntity
  8
KIJUN
100
AcDbCircle
 10
103.4880303419615
 20
79.91909536793719
 30
0.0
 40
15.12792558412923
100
AcDbArc
 50
53.69062828932707
 51
101.9129970957929
  0
ARC
  5
4782
102
{ACAD_REACTORS
330
481A
102
}
330
2
100
AcDbEntity
  8
KIJUN
100
AcDbCircle
 10
57.97529825018478
 20
94.46261198670596
 30
0.0
 40
9.695038339452819
100
AcDbArc
 50
220.9410142632166
 51
316.4355582857628
  0
LINE
  5
4783
102
{ACAD_REACTORS
330
481A
102
}
330
2
100
AcDbEntity
  8
KIJUN
100
AcDbLine
 10
51.57814518892564
 20
98.66879446679309
 30
0.0
 11
54.99987224158758
 21
92.47344130325904
 31
0.0
  0
LINE
  5
4784
102
{ACAD_REACTORS
330
481A
102
}
330
2
100
AcDbEntity
  8
KIJUN
100
AcDbLine
 10
54.21292546226573
 20
95.35592001082319
 30
0.0
 11
54.99987224158758
 21
92.47344130325904
 31
0.0
  0
ARC
  5
4785
102
{ACAD_REACTORS
330
481A
102
}
330
2
100
AcDbEntity
  8
KIJUN
100
AcDbCircle
 10
55.89504614984867
 20
96.74765880361997
 30
0.0
 40
2.0
100
AcDbArc
 50
116.2948664047863
 51
195.9624466988258
  0
ARC
  5
4786
102
{ACAD_REACTORS
330
481A
102
}
330
2
100
AcDbEntity
  8
KIJUN
100
AcDbCircle
 10
57.75899414563468
 20
106.2986307412032
 30
0.0
 40
35.15300449235786
100
AcDbArc
 50
236.6788403182179
 51
303.3211596817821
  0
LINE
  5
4787
102
{ACAD_REACTORS
330
481A
102
}
330
2
100
AcDbEntity
  8
KIJUN
100
AcDbLine
 10
54.21292546226573
 20
95.35592001082319
 30
0.0
 11
53.97216184964668
 21
96.19764428740996
 31
0.0
  0
ARC
  5
4788
102
{ACAD_REACTORS
330
481A
102
}
330
2
100
AcDbEntity
  8
KIJUN
100
AcDbCircle
 10
73.24369370244949
 20
60.19711635370618
 30
0.0
 40
31.89097035374034
100
AcDbArc
 50
134.554441756454
 51
149.6367570430191
  0
ARC
  5
4789
102
{ACAD_REACTORS
330
481A
102
}
330
2
100
AcDbEntity
  8
KIJUN
100
AcDbCircle
 10
78.78443598421473
 20
68.63713908359409
 30
0.0
 40
29.0033954673109
100
AcDbArc
 50
152.9625168798645
 51
169.6032761849228
  0
ARC
  5
478A
102
{ACAD_REACTORS
330
481A
102
}
330
2
100
AcDbEntity
  8
KIJUN
100
AcDbCircle
 10
23.35266884904058
 20
99.04237400585907
 30
0.0
 40
31.89097035374034
100
AcDbArc
 50
314.5544417564722
 51
329.6367570430191
  0
ARC
  5
478B
102
{ACAD_REACTORS
330
481A
102
}
330
2
100
AcDbEntity
  8
KIJUN
100
AcDbCircle
 10
24.42362933651362
 20
87.0553453192042
 30
0.0
 40
29.0033954673109
100
AcDbArc
 50
332.9625168798646
 51
349.6032761849498
  0
ARC
  5
478C
102
{ACAD_REACTORS
330
481A
102
}
330
2
100
AcDbEntity
  8
KIJUN
100
AcDbCircle
 10
12.02995794930643
 20
79.91909536793719
 30
0.0
 40
15.12792558412923
100
AcDbArc
 50
78.08700290420711
 51
126.3093717106729
  0
ARC
  5
478D
102
{ACAD_REACTORS
330
481A
102
}
330
2
100
AcDbEntity
  8
KIJUN
100
AcDbCircle
 10
12.02995794930643
 20
79.91909536793719
 30
0.0
 40
12.12792558412923
100
AcDbArc
 50
74.66901793731544
 51
126.3093717106729
  0
ARC
  5
478E
102
{ACAD_REACTORS
330
481A
102
}
330
2
100
AcDbEntity
  8
KIJUN
100
AcDbCircle
 10
12.02995794930643
 20
79.91909536793719
 30
0.0
 40
9.127925584129231
100
AcDbArc
 50
61.98239871134162
 51
126.3093717106729
  0
ARC
  5
478F
102
{ACAD_REACTORS
330
481A
102
}
330
2
100
AcDbEntity
  8
KIJUN
100
AcDbCircle
 10
6.723880490251758
 20
86.27957513958405
 30
0.0
 40
1.0
100
AcDbArc
 50
95.68032130601446
 51
113.7273986037513
  0
ARC
  5
4790
102
{ACAD_REACTORS
330
481A
102
}
330
2
100
AcDbEntity
  8
KIJUN
100
AcDbCircle
 10
33.41558414552765
 20
94.32341896282014
 30
0.0
 40
8.415854112356857
100
AcDbArc
 50
162.7207788148705
 51
36.34014730926239
  0
LINE
  5
4791
102
{ACAD_REACTORS
330
481A
102
}
330
2
100
AcDbEntity
  8
KIJUN
100
AcDbLine
 10
63.9398431023435
 20
98.668794466789
 30
0.0
 11
60.5181160496827
 21
92.47344130325904
 31
0.0
  0
LINE
  5
4792
102
{ACAD_REACTORS
330
481A
102
}
330
2
100
AcDbEntity
  8
KIJUN
100
AcDbLine
 10
61.30506282900364
 20
95.35592001082319
 30
0.0
 11
60.5181160496827
 21
92.47344130325904
 31
0.0
  0
LINE
  5
4793
102
{ACAD_REACTORS
330
481A
102
}
330
2
100
AcDbEntity
  8
KIJUN
100
AcDbLine
 10
61.30506282900364
 20
95.35592001082319
 30
0.0
 11
61.54582643256663
 21
96.1976442557559
 31
0.0
  0
LINE
  5
4794
102
{ACAD_REACTORS
330
481A
102
}
330
2
100
AcDbEntity
  8
KIJUN
100
AcDbLine
 10
55.00906441878874
 20
98.54071105389904
 30
0.0
 11
55.54403981186169
 21
98.80505272311712
 31
0.0
  0
LINE
  5
4795
102
{ACAD_REACTORS
330
481A
102
}
330
2
100
AcDbEntity
  8
KIJUN
100
AcDbLine
 10
59.97394838013974
 20
98.80505272311507
 30
0.0
 11
60.50892382861753
 21
98.54071103944306
 31
0.0
  0
ARC
  5
4796
102
{ACAD_REACTORS
330
481A
102
}
330
2
100
AcDbEntity
  8
KIJUN
100
AcDbCircle
 10
57.75899409600175
 20
94.32242207592116
 30
0.0
 40
5.0
100
AcDbArc
 50
63.705134151351
 51
116.2948658485988
  0
ARC
  5
4797
102
{ACAD_REACTORS
330
481A
102
}
330
2
100
AcDbEntity
  8
KIJUN
100
AcDbCircle
 10
82.22248390643153
 20
74.05258337200894
 30
0.0
 40
27.11793206880773
100
AcDbArc
 50
164.1601502634659
 51
183.4864652451034
  0
ARC
  5
4798
102
{ACAD_REACTORS
330
481A
102
}
330
2
100
AcDbEntity
  8
KIJUN
100
AcDbCircle
 10
29.06652146949341
 20
79.80529090999607
 30
0.0
 40
27.11793206880773
100
AcDbArc
 50
344.1601502634659
 51
3.486465245103478
  0
ARC
  5
4799
102
{ACAD_REACTORS
330
481A
102
}
330
2
100
AcDbEntity
  8
KIJUN
100
AcDbCircle
 10
86.45146682177665
 20
79.80529090999607
 30
0.0
 40
27.11793206880773
100
AcDbArc
 50
176.5135347548965
 51
195.8398497365341
  0
ARC
  5
479A
102
{ACAD_REACTORS
330
481A
102
}
330
2
100
AcDbEntity
  8
KIJUN
100
AcDbCircle
 10
91.09435895475554
 20
87.0553453192042
 30
0.0
 40
29.0033954673109
100
AcDbArc
 50
190.3967238150502
 51
207.0374831201354
  0
ARC
  5
479B
102
{ACAD_REACTORS
330
481A
102
}
330
2
100
AcDbEntity
  8
KIJUN
100
AcDbCircle
 10
92.16531944222969
 20
99.04237400585907
 30
0.0
 40
31.89097035374034
100
AcDbArc
 50
210.3632429569809
 51
225.4455582435278
  0
ARC
  5
479C
102
{ACAD_REACTORS
330
481A
102
}
330
2
100
AcDbEntity
  8
KIJUN
100
AcDbCircle
 10
33.29550438483853
 20
74.05258337200894
 30
0.0
 40
27.11793206880773
100
AcDbArc
 50
356.5135347548965
 51
15.8398497365341
  0
ARC
  5
479D
102
{ACAD_REACTORS
330
481A
102
}
330
2
100
AcDbEntity
  8
KIJUN
100
AcDbCircle
 10
36.73355230705374
 20
68.63713908359409
 30
0.0
 40
29.0033954673109
100
AcDbArc
 50
10.39672381507713
 51
27.03748312013543
  0
ARC
  5
479E
102
{ACAD_REACTORS
330
481A
102
}
330
2
100
AcDbEntity
  8
KIJUN
100
AcDbCircle
 10
42.27429458881966
 20
60.19711635370618
 30
0.0
 40
31.89097035374034
100
AcDbArc
 50
30.36324295698086
 51
45.44555824354601
  0
LINE
  5
479F
102
{ACAD_REACTORS
330
481A
102
}
330
2
100
AcDbEntity
  8
KIJUN
100
AcDbLine
 10
54.99987224158758
 20
92.47344130325904
 30
0.0
 11
55.39968979909668
 21
91.11688342094794
 31
0.0
  0
LINE
  5
47A0
102
{ACAD_REACTORS
330
481A
102
}
330
2
100
AcDbEntity
  8
KIJUN
100
AcDbLine
 10
60.5181160496827
 20
92.47344130325904
 30
0.0
 11
59.68501770967463
 21
90.74993037793616
 31
0.0
  0
ARC
  5
47A1
102
{ACAD_REACTORS
330
481A
102
}
330
2
100
AcDbEntity
  8
KIJUN
100
AcDbCircle
 10
59.62294213236759
 20
96.74765877196591
 30
0.0
 40
2.0
100
AcDbArc
 50
344.0375533011742
 51
63.70513470754381
  0
ARC
  5
47A2
102
{ACAD_REACTORS
330
481A
102
}
330
2
100
AcDbEntity
  8
KIJUN
100
AcDbCircle
 10
82.10240414574059
 20
94.32341896282014
 30
0.0
 40
8.415854112356857
100
AcDbArc
 50
143.6598526907376
 51
17.27922118512944
  0
ARC
  5
47A3
102
{ACAD_REACTORS
330
481A
102
}
330
2
100
AcDbEntity
  8
KIJUN
100
AcDbCircle
 10
187.4693436163274
 20
139.7537772865209
 30
0.0
 40
71.78885700992973
100
AcDbArc
 50
225.6764502357786
 51
265.9338208792367
  0
ARC
  5
47A4
102
{ACAD_REACTORS
330
481A
102
}
330
2
100
AcDbEntity
  8
KIJUN
100
AcDbCircle
 10
187.4693436163274
 20
139.7537772865209
 30
0.0
 40
88.78885700992972
100
AcDbArc
 50
225.6764502357786
 51
273.6561022711662
  0
ARC
  5
47A5
102
{ACAD_REACTORS
330
481A
102
}
330
2
100
AcDbEntity
  8
KIJUN
100
AcDbCircle
 10
187.4693436163274
 20
139.7537772865209
 30
0.0
 40
85.78885700992975
100
AcDbArc
 50
225.6764502357786
 51
273.6561022711662
  0
ARC
  5
47A6
102
{ACAD_REACTORS
330
481A
102
}
330
2
100
AcDbEntity
  8
KIJUN
100
AcDbCircle
 10
187.4693436163274
 20
139.7537772865209
 30
0.0
 40
82.78885700992971
100
AcDbArc
 50
225.6764502357786
 51
273.6561022711662
  0
ARC
  5
47A7
102
{ACAD_REACTORS
330
481A
102
}
330
2
100
AcDbEntity
  8
KIJUN
100
AcDbCircle
 10
80.87516376409348
 20
37.35586663326512
 30
0.0
 40
76.09155452174859
100
AcDbArc
 50
42.12634657672366
 51
55.48670364165867
  0
ARC
  5
47A8
102
{ACAD_REACTORS
330
481A
102
}
330
2
100
AcDbEntity
  8
KIJUN
100
AcDbCircle
 10
87.15024647558857
 20
37.03747521116793
 30
0.0
 40
60.78885700992974
100
AcDbArc
 50
45.67645023577859
 51
66.27260139619938
  0
ARC
  5
47A9
102
{ACAD_REACTORS
330
481A
102
}
330
2
100
AcDbEntity
  8
KIJUN
100
AcDbCircle
 10
108.7941078010185
 20
86.27957513958405
 30
0.0
 40
1.0
100
AcDbArc
 50
66.27260139624862
 51
84.31967869398553
  0
ARC
  5
47AA
102
{ACAD_REACTORS
330
481A
102
}
330
2
100
AcDbEntity
  8
KIJUN
100
AcDbCircle
 10
87.15024647558857
 20
37.03747521116793
 30
0.0
 40
54.78885700992974
100
AcDbArc
 50
45.67645023577859
 51
66.27260139619938
  0
ARC
  5
47AB
102
{ACAD_REACTORS
330
481A
102
}
330
2
100
AcDbEntity
  8
KIJUN
100
AcDbCircle
 10
87.15024647558857
 20
37.03747521116793
 30
0.0
 40
57.78885700992974
100
AcDbArc
 50
45.67645023577859
 51
66.27260139619938
  0
ARC
  5
47AC
102
{ACAD_REACTORS
330
481A
102
}
330
2
100
AcDbEntity
  8
KIJUN
100
AcDbCircle
 10
57.75899414563468
 20
128.145626248845
 30
0.0
 40
5.0
100
AcDbArc
 50
37.05565053827639
 51
142.9443494617236
  0
ARC
  5
47AD
102
{ACAD_REACTORS
330
481A
102
}
330
2
100
AcDbEntity
  8
KIJUN
100
AcDbCircle
 10
35.72199901997169
 20
104.485947063592
 30
0.0
 40
17.43301249351511
100
AcDbArc
 50
3.478236095565253
 51
58.50230065425448
  0
ARC
  5
47AE
102
{ACAD_REACTORS
330
481A
102
}
330
2
100
AcDbEntity
  8
KIJUN
100
AcDbCircle
 10
34.96884255961663
 20
106.8562153450641
 30
0.0
 40
20.4150260418283
100
AcDbArc
 50
354.647553755062
 51
44.34383919299675
  0
ARC
  5
47AF
102
{ACAD_REACTORS
330
481A
102
}
330
2
100
AcDbEntity
  8
KIJUN
100
AcDbCircle
 10
39.77927581568361
 20
110.6092566777711
 30
0.0
 40
16.59146093579309
100
AcDbArc
 50
354.0753690990842
 51
44.8428927785785
  0
LINE
  5
47B0
102
{ACAD_REACTORS
330
481A
102
}
330
2
100
AcDbEntity
  8
KIJUN
100
AcDbLine
 10
53.32042252832161
 20
125.0703795176912
 30
0.0
 11
54.50511713664673
 21
121.5200131850681
 31
0.0
  0
ARC
  5
47B1
102
{ACAD_REACTORS
330
481A
102
}
330
2
100
AcDbEntity
  8
KIJUN
100
AcDbCircle
 10
62.5500396451107
 20
125.7985541294761
 30
0.0
 40
10.28790863571015
100
AcDbArc
 50
148.6004904119914
 51
173.8844143989441
  0
ARC
  5
47B2
102
{ACAD_REACTORS
330
481A
102
}
330
2
100
AcDbEntity
  8
KIJUN
100
AcDbCircle
 10
56.30426654450366
 20
115.0452219626029
 30
0.0
 40
12.50104227163032
100
AcDbArc
 50
108.5819305534531
 51
161.3575552325726
  0
ARC
  5
47B3
102
{ACAD_REACTORS
330
481A
102
}
330
2
100
AcDbEntity
  8
KIJUN
100
AcDbCircle
 10
46.97455886233865
 20
110.254538364102
 30
0.0
 40
9.139745151621204
100
AcDbArc
 50
105.9750439718057
 51
163.700962441267
  0
ARC
  5
47B4
102
{ACAD_REACTORS
330
481A
102
}
330
2
100
AcDbEntity
  8
KIJUN
100
AcDbCircle
 10
28.33403575115563
 20
99.16176370962809
 30
0.0
 40
25.59717784445104
100
AcDbArc
 50
14.43715037824514
 51
50.9531261255865
  0
LINE
  5
47B5
102
{ACAD_REACTORS
330
481A
102
}
330
2
100
AcDbEntity
  8
KIJUN
100
AcDbLine
 10
52.32067948317558
 20
126.8945718182681
 30
0.0
 11
53.32042252832161
 21
125.0703795176912
 31
0.0
  0
ARC
  5
47B6
102
{ACAD_REACTORS
330
481A
102
}
330
2
100
AcDbEntity
  8
KIJUN
100
AcDbCircle
 10
68.54342942893049
 20
110.254538364102
 30
0.0
 40
9.139745151621204
100
AcDbArc
 50
16.29903755873298
 51
74.02495602819425
  0
ARC
  5
47B7
102
{ACAD_REACTORS
330
481A
102
}
330
2
100
AcDbEntity
  8
KIJUN
100
AcDbCircle
 10
52.96794864615958
 20
125.7985541294761
 30
0.0
 40
10.28790863571025
100
AcDbArc
 50
6.115585601055865
 51
31.39950958800854
  0
ARC
  5
47B8
102
{ACAD_REACTORS
330
481A
102
}
330
2
100
AcDbEntity
  8
KIJUN
100
AcDbCircle
 10
-169.3494021739736
 20
110.1354618081711
 30
0.0
 40
226.0265255681439
100
AcDbArc
 50
359.9359717883753
 51
4.79142136928775
  0
ARC
  5
47B9
102
{ACAD_REACTORS
330
481A
102
}
330
2
100
AcDbEntity
  8
KIJUN
100
AcDbCircle
 10
284.8673904652435
 20
110.1354618081711
 30
0.0
 40
226.0265255681439
100
AcDbArc
 50
175.2085786307122
 51
180.0640282116247
  0
LINE
  5
47BA
102
{ACAD_REACTORS
330
481A
102
}
330
2
100
AcDbEntity
  8
KIJUN
100
AcDbLine
 10
63.07731877181663
 20
127.70687793827
 30
0.0
 11
61.01287115462355
 21
121.5200131850681
 31
0.0
  0
ARC
  5
47BB
102
{ACAD_REACTORS
330
481A
102
}
330
2
100
AcDbEntity
  8
KIJUN
100
AcDbCircle
 10
75.73871247558577
 20
110.6092566777711
 30
0.0
 40
16.59146093579309
100
AcDbArc
 50
135.1571072214215
 51
185.9246309009157
  0
ARC
  5
47BC
102
{ACAD_REACTORS
330
481A
102
}
330
2
100
AcDbEntity
  8
KIJUN
100
AcDbCircle
 10
80.54914573165365
 20
106.8562153450641
 30
0.0
 40
20.4150260418283
100
AcDbArc
 50
135.6561608070032
 51
185.352446244938
  0
ARC
  5
47BD
102
{ACAD_REACTORS
330
481A
102
}
330
2
100
AcDbEntity
  8
KIJUN
100
AcDbCircle
 10
59.21372174676662
 20
115.0452219626029
 30
0.0
 40
12.50104227163032
100
AcDbArc
 50
18.6424447674274
 51
71.41806944654688
  0
ARC
  5
47BE
102
{ACAD_REACTORS
330
481A
102
}
330
2
100
AcDbEntity
  8
KIJUN
100
AcDbCircle
 10
79.79598927129768
 20
104.485947063592
 30
0.0
 40
17.43301249351511
100
AcDbArc
 50
121.4976993457455
 51
176.5217639044347
  0
ARC
  5
47BF
102
{ACAD_REACTORS
330
481A
102
}
330
2
100
AcDbEntity
  8
KIJUN
100
AcDbCircle
 10
87.18395254011467
 20
99.16176370962809
 30
0.0
 40
25.59717784445104
100
AcDbArc
 50
129.0468738744135
 51
165.5628496217548
  0
LINE
  5
47C0
102
{ACAD_REACTORS
330
481A
102
}
330
2
100
AcDbEntity
  8
KIJUN
100
AcDbLine
 10
262.9581932453107
 20
51.14562624884502
 30
0.0
 11
262.95819324531
 21
68.14562624884409
 31
0.0
  0
DIMENSION
  5
47C1
330
2
100
AcDbEntity
  8
SUNPOU
100
AcDbDimension
  2
*D104
 10
262.9581932453098
 20
198.3150519019309
 30
0.0
 11
57.95819324530999
 21
206.3150519019309
 31
0.0
 70
    32
 71
     5
 42
409.9999999999995
  3
STANDARD
100
AcDbAlignedDimension
 13
-147.0418067546898
 23
133.145626248845
 33
0.0
 14
262.9581932453098
 24
142.5727548669661
 34
0.0
100
AcDbRotatedDimension
1001
ACAD
1000
DSTYLE
1002
{
1070
    41
1040
2.0
1070
    42
1040
10.0
1070
    44
1040
0.0
1070
    73
1070
     0
1070
    74
1070
     0
1070
    77
1070
     1
1070
   140
1040
10.0
1070
   141
1040
0.0
1070
   146
1040
0.064286
1070
   147
1040
3.0
1070
   176
1070
    60
1070
   177
1070
    70
1070
   178
1070
    60
1070
   271
1070
     0
1070
   272
1070
     0
1070
   340
1005
1C
1070
   342
1005
109
1002
}
  0
DIMENSION
  5
47CE
330
2
100
AcDbEntity
  8
SUNPOU
100
AcDbDimension
  2
*D105
 10
-186.7861525740773
 20
51.14562624884502
 30
0.0
 11
-194.7861525740773
 21
92.14562624884504
 31
0.0
 70
    32
 71
     5
 42
82.00000000000006
  3
STANDARD
100
AcDbAlignedDimension
 13
-147.0418067546898
 23
133.145626248845
 33
0.0
 14
-147.0418067546888
 24
51.14562624884502
 34
0.0
 50
90.0
100
AcDbRotatedDimension
1001
ACAD
1000
DSTYLE
1002
{
1070
    41
1040
2.0
1070
    42
1040
10.0
1070
    44
1040
0.0
1070
    73
1070
     0
1070
    74
1070
     0
1070
    77
1070
     1
1070
   140
1040
10.0
1070
   141
1040
0.0
1070
   146
1040
0.064286
1070
   147
1040
3.0
1070
   176
1070
    60
1070
   177
1070
    70
1070
   178
1070
    60
1070
   271
1070
     0
1070
   272
1070
     0
1070
   340
1005
1C
1070
   342
1005
109
1002
}
  0
ENDSEC
  0
SECTION
  2
OBJECTS
  0
DICTIONARY
  5
1A
330
0
100
AcDbDictionary
281
     1
  3
ACAD_COLOR
350
144
  3
ACAD_GROUP
350
18
  3
ACAD_LAYOUT
350
58
  3
ACAD_MATERIAL
350
143
  3
ACAD_MLINESTYLE
350
19
  3
ACAD_PLOTSETTINGS
350
59
  3
ACAD_PLOTSTYLENAME
350
56
  3
ACAD_TABLESTYLE
350
145
  3
ACDBHEADERROUNDTRIPXREC
350
481C
  3
AcDbVariableDictionary
350
1D1
  0
DICTIONARY
  5
1B4
330
A
100
AcDbDictionary
280
     1
281
     1
  3
ACAD_LAYERFILTERS
360
1C2
  3
ACLYDICTIONARY
360
1C1
  0
DICTIONARY
  5
1578
330
2
100
AcDbDictionary
280
     1
281
     1
  3
ACAD_SORTENTS
360
1579
  0
DICTIONARY
  5
144
102
{ACAD_REACTORS
330
1A
102
}
330
1A
100
AcDbDictionary
281
     1
  0
DICTIONARY
  5
18
102
{ACAD_REACTORS
330
1A
102
}
330
1A
100
AcDbDictionary
281
     1
  3
*A1
350
CFC
  3
*A10
350
2FE9
  3
*A11
350
312A
  3
*A12
350
15D1
  3
*A13
350
3154
  3
*A14
350
327B
  3
*A15
350
32AA
  3
*A16
350
3650
  3
*A17
350
367C
  3
*A18
350
1682
  3
*A19
350
1827
  3
*A2
350
218C
  3
*A20
350
18ED
  3
*A21
350
19E5
  3
*A22
350
1F8A
  3
*A23
350
2108
  3
*A24
350
3732
  3
*A25
350
37CF
  3
*A26
350
3837
  3
*A27
350
38C3
  3
*A29
350
39C3
  3
*A3
350
2335
  3
*A30
350
3AB4
  3
*A31
350
3BBC
  3
*A32
350
3D8C
  3
*A33
350
3FA3
  3
*A34
350
419F
  3
*A35
350
439B
  3
*A36
350
4590
  3
*A37
350
46F3
  3
*A38
350
481A
  3
*A4
350
2862
  3
*A5
350
299B
  3
*A6
350
2C07
  3
*A7
350
2DB5
  3
*A8
350
2E88
  3
*A9
350
2FBC
  0
DICTIONARY
  5
58
102
{ACAD_REACTORS
330
1A
102
}
330
1A
100
AcDbDictionary
281
     1
  3
Model
350
5A
  3
ﾚｲｱｳﾄ1
350
5B
  0
DICTIONARY
  5
143
102
{ACAD_REACTORS
330
1A
102
}
330
1A
100
AcDbDictionary
281
     1
  0
DICTIONARY
  5
19
102
{ACAD_REACTORS
330
1A
102
}
330
1A
100
AcDbDictionary
281
     1
  3
STANDARD
350
1D
  0
DICTIONARY
  5
59
102
{ACAD_REACTORS
330
1A
102
}
330
1A
100
AcDbDictionary
281
     1
  0
ACDBDICTIONARYWDFLT
  5
56
102
{ACAD_REACTORS
330
1A
102
}
330
1A
100
AcDbDictionary
281
     1
  3
Normal
350
57
100
AcDbDictionaryWithDefault
340
57
  0
DICTIONARY
  5
145
102
{ACAD_REACTORS
330
1A
102
}
330
1A
100
AcDbDictionary
281
     1
  3
Standard
350
146
  0
DICTIONARY
  5
481C
102
{ACAD_REACTORS
330
1A
102
}
330
1A
100
AcDbDictionary
281
     1
  0
DICTIONARY
  5
1D1
102
{ACAD_REACTORS
330
1A
102
}
330
1A
100
AcDbDictionary
281
     1
  3
CTABLESTYLE
350
1D2
  3
DIMASSOC
350
D03
  3
PROJECTNAME
350
D04
  0
DICTIONARY
  5
1C2
102
{ACAD_REACTORS
330
1B4
102
}
330
1B4
100
AcDbDictionary
281
     1
  0
DICTIONARY
  5
1C1
102
{ACAD_REACTORS
330
1B4
102
}
330
1B4
100
AcDbDictionary
281
     1
1001
ACAD
1000
<All
  0
SORTENTSTABLE
  5
1579
102
{ACAD_REACTORS
330
1578
102
}
330
1578
100
AcDbSortentsTable
330
2
331
1F
  5
1F
331
20
  5
20
331
21
  5
21
331
23
  5
23
  0
GROUP
  5
CFC
102
{ACAD_REACTORS
330
18
102
}
330
18
100
AcDbGroup
300

 70
     1
 71
     1
  0
GROUP
  5
2FE9
102
{ACAD_REACTORS
330
18
102
}
330
18
100
AcDbGroup
300

 70
     1
 71
     1
  0
GROUP
  5
312A
102
{ACAD_REACTORS
330
18
102
}
330
18
100
AcDbGroup
300

 70
     1
 71
     1
  0
GROUP
  5
15D1
102
{ACAD_REACTORS
330
18
102
}
330
18
100
AcDbGroup
300

 70
     1
 71
     1
  0
GROUP
  5
3154
102
{ACAD_REACTORS
330
18
102
}
330
18
100
AcDbGroup
300

 70
     1
 71
     1
  0
GROUP
  5
327B
102
{ACAD_REACTORS
330
18
102
}
330
18
100
AcDbGroup
300

 70
     1
 71
     1
  0
GROUP
  5
32AA
102
{ACAD_REACTORS
330
18
102
}
330
18
100
AcDbGroup
300

 70
     1
 71
     1
  0
GROUP
  5
3650
102
{ACAD_REACTORS
330
18
102
}
330
18
100
AcDbGroup
300

 70
     1
 71
     1
  0
GROUP
  5
367C
102
{ACAD_REACTORS
330
18
102
}
330
18
100
AcDbGroup
300

 70
     1
 71
     1
  0
GROUP
  5
1682
102
{ACAD_REACTORS
330
18
102
}
330
18
100
AcDbGroup
300

 70
     1
 71
     1
  0
GROUP
  5
1827
102
{ACAD_REACTORS
330
18
102
}
330
18
100
AcDbGroup
300

 70
     1
 71
     1
  0
GROUP
  5
218C
102
{ACAD_REACTORS
330
18
102
}
330
18
100
AcDbGroup
300

 70
     1
 71
     1
  0
GROUP
  5
18ED
102
{ACAD_REACTORS
330
18
102
}
330
18
100
AcDbGroup
300

 70
     1
 71
     1
  0
GROUP
  5
19E5
102
{ACAD_REACTORS
330
18
102
}
330
18
100
AcDbGroup
300

 70
     1
 71
     1
  0
GROUP
  5
1F8A
102
{ACAD_REACTORS
330
18
102
}
330
18
100
AcDbGroup
300

 70
     1
 71
     1
  0
GROUP
  5
2108
102
{ACAD_REACTORS
330
18
102
}
330
18
100
AcDbGroup
300

 70
     1
 71
     1
  0
GROUP
  5
3732
102
{ACAD_REACTORS
330
18
102
}
330
18
100
AcDbGroup
300

 70
     1
 71
     1
  0
GROUP
  5
37CF
102
{ACAD_REACTORS
330
18
102
}
330
18
100
AcDbGroup
300

 70
     1
 71
     1
  0
GROUP
  5
3837
102
{ACAD_REACTORS
330
18
102
}
330
18
100
AcDbGroup
300

 70
     1
 71
     1
  0
GROUP
  5
38C3
102
{ACAD_REACTORS
330
18
102
}
330
18
100
AcDbGroup
300

 70
     1
 71
     1
  0
GROUP
  5
39C3
102
{ACAD_REACTORS
330
18
102
}
330
18
100
AcDbGroup
300

 70
     1
 71
     1
  0
GROUP
  5
2335
102
{ACAD_REACTORS
330
18
102
}
330
18
100
AcDbGroup
300

 70
     1
 71
     1
  0
GROUP
  5
3AB4
102
{ACAD_REACTORS
330
18
102
}
330
18
100
AcDbGroup
300

 70
     1
 71
     1
  0
GROUP
  5
3BBC
102
{ACAD_REACTORS
330
18
102
}
330
18
100
AcDbGroup
300

 70
     1
 71
     1
  0
GROUP
  5
3D8C
102
{ACAD_REACTORS
330
18
102
}
330
18
100
AcDbGroup
300

 70
     1
 71
     1
  0
GROUP
  5
3FA3
102
{ACAD_REACTORS
330
18
102
}
330
18
100
AcDbGroup
300

 70
     1
 71
     1
  0
GROUP
  5
419F
102
{ACAD_REACTORS
330
18
102
}
330
18
100
AcDbGroup
300

 70
     1
 71
     1
  0
GROUP
  5
439B
102
{ACAD_REACTORS
330
18
102
}
330
18
100
AcDbGroup
300

 70
     1
 71
     1
  0
GROUP
  5
4590
102
{ACAD_REACTORS
330
18
102
}
330
18
100
AcDbGroup
300

 70
     1
 71
     1
  0
GROUP
  5
46F3
102
{ACAD_REACTORS
330
18
102
}
330
18
100
AcDbGroup
300

 70
     1
 71
     1
  0
GROUP
  5
481A
102
{ACAD_REACTORS
330
18
102
}
330
18
100
AcDbGroup
300

 70
     1
 71
     1
340
47C0
340
47BF
340
47BE
340
47BD
340
47BC
340
47BB
340
47BA
340
47B9
340
47B8
340
47B7
340
47B6
340
47B5
340
47B4
340
47B3
340
47B2
340
47B1
340
47B0
340
47AF
340
47AE
340
47AD
340
47AC
340
47AB
340
47AA
340
47A9
340
47A8
340
47A7
340
47A6
340
47A5
340
47A4
340
47A3
340
47A2
340
47A1
340
47A0
340
479F
340
479E
340
479D
340
479C
340
479B
340
479A
340
4799
340
4798
340
4797
340
4796
340
4795
340
4794
340
4793
340
4792
340
4791
340
4790
340
478F
340
478E
340
478D
340
478C
340
478B
340
478A
340
4789
340
4788
340
4787
340
4786
340
4785
340
4784
340
4783
340
4782
340
4781
340
4780
340
477F
340
477E
340
477D
340
477C
340
477B
340
477A
340
4779
340
4778
340
4777
340
4776
340
4775
340
4774
340
4773
340
4772
340
4771
340
4770
340
476F
340
476E
340
476D
340
476C
340
476B
340
476A
340
4769
340
4768
340
4767
340
4766
340
4765
340
4764
340
4763
  0
GROUP
  5
2862
102
{ACAD_REACTORS
330
18
102
}
330
18
100
AcDbGroup
300

 70
     1
 71
     1
  0
GROUP
  5
299B
102
{ACAD_REACTORS
330
18
102
}
330
18
100
AcDbGroup
300

 70
     1
 71
     1
  0
GROUP
  5
2C07
102
{ACAD_REACTORS
330
18
102
}
330
18
100
AcDbGroup
300

 70
     1
 71
     1
  0
GROUP
  5
2DB5
102
{ACAD_REACTORS
330
18
102
}
330
18
100
AcDbGroup
300

 70
     1
 71
     1
  0
GROUP
  5
2E88
102
{ACAD_REACTORS
330
18
102
}
330
18
100
AcDbGroup
300

 70
     1
 71
     1
  0
GROUP
  5
2FBC
102
{ACAD_REACTORS
330
18
102
}
330
18
100
AcDbGroup
300

 70
     1
 71
     1
  0
LAYOUT
  5
5A
102
{ACAD_XDICTIONARY
360
481D
102
}
102
{ACAD_REACTORS
330
58
102
}
330
58
100
AcDbPlotSettings
  1

  2
なし
  4

  6

 40
0.0
 41
0.0
 42
0.0
 43
0.0
 44
0.0
 45
0.0
 46
0.0
 47
0.0
 48
0.0
 49
0.0
140
0.0
141
0.0
142
1.0
143
1.0
 70
  1712
 72
     0
 73
     0
 74
     0
  7
monochrome.ctb
 75
     0
147
1.0
148
0.0
149
0.0
100
AcDbLayout
  1
Model
 70
     1
 71
     0
 10
0.0
 20
0.0
 11
12.0
 21
9.0
 12
0.0
 22
0.0
 32
0.0
 14
0.0
 24
0.0
 34
0.0
 15
0.0
 25
0.0
 35
0.0
146
0.0
 13
0.0
 23
0.0
 33
0.0
 16
1.0
 26
0.0
 36
0.0
 17
0.0
 27
1.0
 37
0.0
 76
     0
330
2
  0
LAYOUT
  5
5B
102
{ACAD_XDICTIONARY
360
481F
102
}
102
{ACAD_REACTORS
330
58
102
}
330
58
100
AcDbPlotSettings
  1

  2
なし
  4

  6

 40
0.0
 41
0.0
 42
0.0
 43
0.0
 44
0.0
 45
0.0
 46
0.0
 47
0.0
 48
0.0
 49
0.0
140
0.0
141
0.0
142
1.0
143
1.0
 70
   688
 72
     0
 73
     0
 74
     5
  7
monochrome.ctb
 75
    16
147
1.0
148
0.0
149
0.0
100
AcDbLayout
  1
ﾚｲｱｳﾄ1
 70
     1
 71
     1
 10
0.0
 20
0.0
 11
12.0
 21
9.0
 12
0.0
 22
0.0
 32
0.0
 14
1.000000000000000E+20
 24
1.000000000000000E+20
 34
1.000000000000000E+20
 15
-1.000000000000000E+20
 25
-1.000000000000000E+20
 35
-1.000000000000000E+20
146
0.0
 13
0.0
 23
0.0
 33
0.0
 16
1.0
 26
0.0
 36
0.0
 17
0.0
 27
1.0
 37
0.0
 76
     0
330
7
  0
MLINESTYLE
  5
1D
102
{ACAD_REACTORS
330
19
102
}
330
19
100
AcDbMlineStyle
  2
STANDARD
 70
     0
  3

 62
   256
 51
90.0
 52
90.0
 71
     2
 49
0.5
 62
   256
  6
BYLAYER
 49
-0.5
 62
   256
  6
BYLAYER
  0
ACDBPLACEHOLDER
  5
57
102
{ACAD_REACTORS
330
56
102
}
330
56
  0
TABLESTYLE
  5
146
102
{ACAD_REACTORS
330
145
102
}
330
145
100
AcDbTableStyle
  3
Standard
 70
     0
 71
     0
 40
0.06
 41
0.06
280
     0
281
     0
  7
STANDARD
140
0.18
170
     2
 62
     0
 63
     7
283
     0
274
    -2
284
     1
 64
     0
275
    -2
285
     1
 65
     0
276
    -2
286
     1
 66
     0
277
    -2
287
     1
 67
     0
278
    -2
288
     1
 68
     0
279
    -2
289
     1
 69
     0
  7
STANDARD
140
0.25
170
     5
 62
     0
 63
     7
283
     0
274
    -2
284
     1
 64
     0
275
    -2
285
     1
 65
     0
276
    -2
286
     1
 66
     0
277
    -2
287
     1
 67
     0
278
    -2
288
     1
 68
     0
279
    -2
289
     1
 69
     0
  7
STANDARD
140
0.18
170
     5
 62
     0
 63
     7
283
     0
274
    -2
284
     1
 64
     0
275
    -2
285
     1
 65
     0
276
    -2
286
     1
 66
     0
277
    -2
287
     1
 67
     0
278
    -2
288
     1
 68
     0
279
    -2
289
     1
 69
     0
  0
DICTIONARYVAR
  5
1D2
102
{ACAD_REACTORS
330
1D1
102
}
330
1D1
100
DictionaryVariables
280
     0
  1
STANDARD
  0
DICTIONARYVAR
  5
D03
102
{ACAD_REACTORS
330
1D1
102
}
330
1D1
100
DictionaryVariables
280
     0
  1
1
  0
DICTIONARYVAR
  5
D04
102
{ACAD_REACTORS
330
1D1
102
}
330
1D1
100
DictionaryVariables
280
     0
  1

  0
DICTIONARY
  5
481D
330
5A
100
AcDbDictionary
280
     1
281
     1
  3
ACAD_XREC_ROUNDTRIP
360
481E
  0
DICTIONARY
  5
481F
330
5B
100
AcDbDictionary
280
     1
281
     1
  3
ACAD_XREC_ROUNDTRIP
360
4820
  0
XRECORD
  5
481E
102
{ACAD_REACTORS
330
481D
102
}
330
481D
100
AcDbXrecord
280
     1
102
SHADEPLOT
 70
     0
102
SHADEPLOTRESLEVEL
 70
     2
102
SHADEPLOTCUSTOMDPI
 70
   300
  0
XRECORD
  5
4820
102
{ACAD_REACTORS
330
481F
102
}
330
481F
100
AcDbXrecord
280
     1
102
SHADEPLOT
 70
     0
102
SHADEPLOTRESLEVEL
 70
     2
102
SHADEPLOTCUSTOMDPI
 70
   300
  0
ENDSEC
  0
EOF
