  0
SECTION
  2
HEADER
  9
$ACADVER
  1
AC1015
  9
$ACADMAINTVER
 70
    20
  9
$DWGCODEPAGE
  3
ANSI_932
  9
$INSBASE
 10
922.019522
 20
-675.4306699999998
 30
0.0
  9
$EXTMIN
 10
-194.7785642432
 20
0.0
 30
0.0
  9
$EXTMAX
 10
281.249866288247
 20
171.5591389615893
 30
0.0
  9
$LIMMIN
 10
0.0
 20
0.0
  9
$LIMMAX
 10
420.0
 20
297.0
  9
$ORTHOMODE
 70
     1
  9
$REGENMODE
 70
     1
  9
$FILLMODE
 70
     1
  9
$QTEXTMODE
 70
     0
  9
$MIRRTEXT
 70
     1
  9
$LTSCALE
 40
1.0
  9
$ATTMODE
 70
     1
  9
$TEXTSIZE
 40
30.0
  9
$TRACEWID
 40
0.05
  9
$TEXTSTYLE
  7
SUNPOU
  9
$CLAYER
  8
0
  9
$CELTYPE
  6
BYLAYER
  9
$CECOLOR
 62
   256
  9
$CELTSCALE
 40
1.0
  9
$DISPSILH
 70
     0
  9
$DIMSCALE
 40
1.0
  9
$DIMASZ
 40
2.0
  9
$DIMEXO
 40
10.0
  9
$DIMDLI
 40
0.38
  9
$DIMRND
 40
0.0
  9
$DIMDLE
 40
0.0
  9
$DIMEXE
 40
0.0
  9
$DIMTP
 40
0.0
  9
$DIMTM
 40
0.0
  9
$DIMTXT
 40
5.0
  9
$DIMCEN
 40
0.0
  9
$DIMTSZ
 40
0.0
  9
$DIMTOL
 70
     0
  9
$DIMLIM
 70
     0
  9
$DIMTIH
 70
     0
  9
$DIMTOH
 70
     0
  9
$DIMSE1
 70
     0
  9
$DIMSE2
 70
     0
  9
$DIMTAD
 70
     1
  9
$DIMZIN
 70
     0
  9
$DIMBLK
  1
Dot
  9
$DIMASO
 70
     1
  9
$DIMSHO
 70
     1
  9
$DIMPOST
  1

  9
$DIMAPOST
  1

  9
$DIMALT
 70
     0
  9
$DIMALTD
 70
     2
  9
$DIMALTF
 40
25.4
  9
$DIMLFAC
 40
1.0
  9
$DIMTOFL
 70
     0
  9
$DIMTVP
 40
0.0
  9
$DIMTIX
 70
     0
  9
$DIMSOXD
 70
     0
  9
$DIMSAH
 70
     0
  9
$DIMBLK1
  1

  9
$DIMBLK2
  1

  9
$DIMSTYLE
  2
STANDARD
  9
$DIMCLRD
 70
    60
  9
$DIMCLRE
 70
    70
  9
$DIMCLRT
 70
    60
  9
$DIMTFAC
 40
0.064286
  9
$DIMGAP
 40
3.0
  9
$DIMJUST
 70
     0
  9
$DIMSD1
 70
     0
  9
$DIMSD2
 70
     0
  9
$DIMTOLJ
 70
     1
  9
$DIMTZIN
 70
     0
  9
$DIMALTZ
 70
     0
  9
$DIMALTTZ
 70
     0
  9
$DIMUPT
 70
     0
  9
$DIMDEC
 70
     0
  9
$DIMTDEC
 70
     0
  9
$DIMALTU
 70
     2
  9
$DIMALTTD
 70
     2
  9
$DIMTXSTY
  7
SUNPOU
  9
$DIMAUNIT
 70
     0
  9
$DIMADEC
 70
     0
  9
$DIMALTRND
 40
0.0
  9
$DIMAZIN
 70
     0
  9
$DIMDSEP
 70
    46
  9
$DIMATFIT
 70
     3
  9
$DIMFRAC
 70
     0
  9
$DIMLDRBLK
  1

  9
$DIMLUNIT
 70
     2
  9
$DIMLWD
 70
    -2
  9
$DIMLWE
 70
    -2
  9
$DIMTMOVE
 70
     0
  9
$LUNITS
 70
     2
  9
$LUPREC
 70
     5
  9
$SKETCHINC
 40
0.1
  9
$FILLETRAD
 40
2.0
  9
$AUNITS
 70
     0
  9
$AUPREC
 70
     0
  9
$MENU
  1
acad
  9
$ELEVATION
 40
0.0
  9
$PELEVATION
 40
0.0
  9
$THICKNESS
 40
0.0
  9
$LIMCHECK
 70
     0
  9
$CHAMFERA
 40
0.0
  9
$CHAMFERB
 40
0.0
  9
$CHAMFERC
 40
0.0
  9
$CHAMFERD
 40
0.0
  9
$SKPOLY
 70
     0
  9
$TDCREATE
 40
2450623.654673033
  9
$TDUCREATE
 40
2450623.279673032
  9
$TDUPDATE
 40
2453879.437795174
  9
$TDUUPDATE
 40
2453879.062795174
  9
$TDINDWG
 40
1.5168371759
  9
$TDUSRTIMER
 40
1.5168324884
  9
$USRTIMER
 70
     1
  9
$ANGBASE
 50
0.0
  9
$ANGDIR
 70
     0
  9
$PDMODE
 70
     0
  9
$PDSIZE
 40
0.0
  9
$PLINEWID
 40
0.0
  9
$SPLFRAME
 70
     0
  9
$SPLINETYPE
 70
     6
  9
$SPLINESEGS
 70
     8
  9
$HANDSEED
  5
8EA1
  9
$SURFTAB1
 70
     6
  9
$SURFTAB2
 70
     6
  9
$SURFTYPE
 70
     6
  9
$SURFU
 70
     6
  9
$SURFV
 70
     6
  9
$UCSBASE
  2

  9
$UCSNAME
  2

  9
$UCSORG
 10
0.0
 20
0.0
 30
0.0
  9
$UCSXDIR
 10
1.0
 20
0.0
 30
0.0
  9
$UCSYDIR
 10
0.0
 20
1.0
 30
0.0
  9
$UCSORTHOREF
  2

  9
$UCSORTHOVIEW
 70
     0
  9
$UCSORGTOP
 10
0.0
 20
0.0
 30
0.0
  9
$UCSORGBOTTOM
 10
0.0
 20
0.0
 30
0.0
  9
$UCSORGLEFT
 10
0.0
 20
0.0
 30
0.0
  9
$UCSORGRIGHT
 10
0.0
 20
0.0
 30
0.0
  9
$UCSORGFRONT
 10
0.0
 20
0.0
 30
0.0
  9
$UCSORGBACK
 10
0.0
 20
0.0
 30
0.0
  9
$PUCSBASE
  2

  9
$PUCSNAME
  2

  9
$PUCSORG
 10
0.0
 20
0.0
 30
0.0
  9
$PUCSXDIR
 10
1.0
 20
0.0
 30
0.0
  9
$PUCSYDIR
 10
0.0
 20
1.0
 30
0.0
  9
$PUCSORTHOREF
  2

  9
$PUCSORTHOVIEW
 70
     0
  9
$PUCSORGTOP
 10
0.0
 20
0.0
 30
0.0
  9
$PUCSORGBOTTOM
 10
0.0
 20
0.0
 30
0.0
  9
$PUCSORGLEFT
 10
0.0
 20
0.0
 30
0.0
  9
$PUCSORGRIGHT
 10
0.0
 20
0.0
 30
0.0
  9
$PUCSORGFRONT
 10
0.0
 20
0.0
 30
0.0
  9
$PUCSORGBACK
 10
0.0
 20
0.0
 30
0.0
  9
$USERI1
 70
     0
  9
$USERI2
 70
     0
  9
$USERI3
 70
     0
  9
$USERI4
 70
     0
  9
$USERI5
 70
     0
  9
$USERR1
 40
0.0
  9
$USERR2
 40
0.0
  9
$USERR3
 40
0.0
  9
$USERR4
 40
0.0
  9
$USERR5
 40
0.0
  9
$WORLDVIEW
 70
     1
  9
$SHADEDGE
 70
     3
  9
$SHADEDIF
 70
    70
  9
$TILEMODE
 70
     1
  9
$MAXACTVP
 70
    16
  9
$PINSBASE
 10
0.0
 20
0.0
 30
0.0
  9
$PLIMCHECK
 70
     0
  9
$PEXTMIN
 10
1.000000000000000E+20
 20
1.000000000000000E+20
 30
1.000000000000000E+20
  9
$PEXTMAX
 10
-1.000000000000000E+20
 20
-1.000000000000000E+20
 30
-1.000000000000000E+20
  9
$PLIMMIN
 10
0.0
 20
0.0
  9
$PLIMMAX
 10
12.0
 20
9.0
  9
$UNITMODE
 70
     0
  9
$VISRETAIN
 70
     0
  9
$PLINEGEN
 70
     0
  9
$PSLTSCALE
 70
     1
  9
$TREEDEPTH
 70
  3020
  9
$CMLSTYLE
  2
STANDARD
  9
$CMLJUST
 70
     0
  9
$CMLSCALE
 40
1.0
  9
$PROXYGRAPHICS
 70
     1
  9
$MEASUREMENT
 70
     0
  9
$CELWEIGHT
370
    -1
  9
$ENDCAPS
280
     0
  9
$JOINSTYLE
280
     0
  9
$LWDISPLAY
290
     0
  9
$INSUNITS
 70
     0
  9
$HYPERLINKBASE
  1

  9
$STYLESHEET
  1

  9
$XEDIT
290
     1
  9
$CEPSNTYPE
380
     0
  9
$PSTYLEMODE
290
     1
  9
$FINGERPRINTGUID
  2
{FB88A696-E29C-4009-92AF-A3599A8169D5}
  9
$VERSIONGUID
  2
{C8A56218-2B80-4A50-BE48-B726EC96F988}
  9
$EXTNAMES
290
     1
  9
$PSVPSCALE
 40
0.0
  9
$OLESTARTUP
290
     0
  0
ENDSEC
  0
SECTION
  2
CLASSES
  0
CLASS
  1
DICTIONARYVAR
  2
AcDbDictionaryVar
  3
ObjectDBX Classes
 90
        0
280
     0
281
     0
  0
CLASS
  1
ACDBDICTIONARYWDFLT
  2
AcDbDictionaryWithDefault
  3
ObjectDBX Classes
 90
        0
280
     0
281
     0
  0
CLASS
  1
ACDBPLACEHOLDER
  2
AcDbPlaceHolder
  3
ObjectDBX Classes
 90
        0
280
     0
281
     0
  0
CLASS
  1
LAYOUT
  2
AcDbLayout
  3
ObjectDBX Classes
 90
        0
280
     0
281
     0
  0
CLASS
  1
TABLESTYLE
  2
AcDbTableStyle
  3
ObjectDBX Classes
 90
     2047
280
     0
281
     0
  0
CLASS
  1
SORTENTSTABLE
  2
AcDbSortentsTable
  3
ObjectDBX Classes
 90
        0
280
     0
281
     0
  0
ENDSEC
  0
SECTION
  2
TABLES
  0
TABLE
  2
VPORT
  5
12
330
0
100
AcDbSymbolTable
 70
     3
  0
VPORT
  5
8E9B
330
12
100
AcDbSymbolTableRecord
100
AcDbViewportTableRecord
  2
*Active
 70
     0
 10
0.0
 20
0.0
 11
1.0
 21
1.0
 12
43.58059708778603
 22
85.77733771534344
 13
0.0
 23
0.0
 14
1.0
 24
1.0
 15
0.0
 25
0.0
 16
0.0
 26
0.0
 36
1.0
 17
0.0
 27
0.0
 37
0.0
 40
307.463018314329
 41
1.558109833971902
 42
50.0
 43
0.0
 44
0.0
 50
0.0
 51
0.0
 71
     0
 72
 20000
 73
     1
 74
     1
 75
     0
 76
     0
 77
     0
 78
     0
281
     0
 65
     1
110
0.0
120
0.0
130
0.0
111
1.0
121
0.0
131
0.0
112
0.0
122
1.0
132
0.0
 79
     0
146
0.0
  0
ENDTAB
  0
TABLE
  2
LTYPE
  5
D
330
0
100
AcDbSymbolTable
 70
     1
  0
LTYPE
  5
E
330
D
100
AcDbSymbolTableRecord
100
AcDbLinetypeTableRecord
  2
BYBLOCK
 70
     0
  3

 72
    65
 73
     0
 40
0.0
  0
LTYPE
  5
F
330
D
100
AcDbSymbolTableRecord
100
AcDbLinetypeTableRecord
  2
BYLAYER
 70
     0
  3

 72
    65
 73
     0
 40
0.0
  0
LTYPE
  5
5
330
D
100
AcDbSymbolTableRecord
100
AcDbLinetypeTableRecord
  2
CONTINUOUS
 70
     0
  3
Solid line
 72
    65
 73
     0
 40
0.0
  0
ENDTAB
  0
TABLE
  2
LAYER
  5
A
102
{ACAD_XDICTIONARY
360
1B4
102
}
330
0
100
AcDbSymbolTable
 70
     6
  0
LAYER
  5
4
330
A
100
AcDbSymbolTableRecord
100
AcDbLayerTableRecord
  2
0
 70
     0
 62
     7
  6
CONTINUOUS
370
    -3
390
57
  0
LAYER
  5
25
330
A
100
AcDbSymbolTableRecord
100
AcDbLayerTableRecord
  2
KIJUN
 70
     0
 62
     7
  6
CONTINUOUS
370
    -3
390
57
  0
LAYER
  5
22
330
A
100
AcDbSymbolTableRecord
100
AcDbLayerTableRecord
  2
HOJO
 70
     0
 62
     3
  6
CONTINUOUS
370
    -3
390
57
  0
LAYER
  5
1B
330
A
100
AcDbSymbolTableRecord
100
AcDbLayerTableRecord
  2
WAKU
 70
     0
 62
     1
  6
CONTINUOUS
370
    -3
390
57
  0
LAYER
  5
31
330
A
100
AcDbSymbolTableRecord
100
AcDbLayerTableRecord
  2
DEFPOINTS
 70
     0
 62
     7
  6
CONTINUOUS
290
     0
370
    -3
390
57
  0
LAYER
  5
28
330
A
100
AcDbSymbolTableRecord
100
AcDbLayerTableRecord
  2
SUNPOU
 70
     0
 62
    70
  6
CONTINUOUS
370
    -3
390
57
  0
ENDTAB
  0
TABLE
  2
STYLE
  5
B
330
0
100
AcDbSymbolTable
 70
     2
  0
STYLE
  5
C
330
B
100
AcDbSymbolTableRecord
100
AcDbTextStyleTableRecord
  2
STANDARD
 70
     0
 40
0.0
 41
1.0
 50
0.0
 71
     0
 42
0.2
  3
txt
  4

  0
STYLE
  5
1C
330
B
100
AcDbSymbolTableRecord
100
AcDbTextStyleTableRecord
  2
SUNPOU
 70
     0
 40
0.0
 41
1.0
 50
0.0
 71
     0
 42
30.0
  3
txt
  4
bigfont
  0
ENDTAB
  0
TABLE
  2
VIEW
  5
10
330
0
100
AcDbSymbolTable
 70
     0
  0
ENDTAB
  0
TABLE
  2
UCS
  5
11
330
0
100
AcDbSymbolTable
 70
     0
  0
ENDTAB
  0
TABLE
  2
APPID
  5
14
330
0
100
AcDbSymbolTable
 70
    10
  0
APPID
  5
15
330
14
100
AcDbSymbolTableRecord
100
AcDbRegAppTableRecord
  2
ACAD
 70
     0
  0
APPID
  5
1D3
330
14
100
AcDbSymbolTableRecord
100
AcDbRegAppTableRecord
  2
ACAD_DSTYLE_DIMTEXT_FILL
 70
     0
  0
APPID
  5
1D4
330
14
100
AcDbSymbolTableRecord
100
AcDbRegAppTableRecord
  2
ACAD_DSTYLE_DIMEXT_LENGTH
 70
     0
  0
APPID
  5
1D5
330
14
100
AcDbSymbolTableRecord
100
AcDbRegAppTableRecord
  2
ACAD_DSTYLE_DIMEXT_ENABLED
 70
     0
  0
APPID
  5
1D6
330
14
100
AcDbSymbolTableRecord
100
AcDbRegAppTableRecord
  2
ACAD_DSTYLE_DIM_LINETYPE
 70
     0
  0
APPID
  5
1D7
330
14
100
AcDbSymbolTableRecord
100
AcDbRegAppTableRecord
  2
ACAD_DSTYLE_DIM_EXT1_LINETYPE
 70
     0
  0
APPID
  5
1D8
330
14
100
AcDbSymbolTableRecord
100
AcDbRegAppTableRecord
  2
ACAD_DSTYLE_DIM_EXT2_LINETYPE
 70
     0
  0
APPID
  5
294
330
14
100
AcDbSymbolTableRecord
100
AcDbRegAppTableRecord
  2
ACAD_DSTYLE_DIMJOGGED_JOGANGLE_SYMBOL
 70
     0
  0
APPID
  5
478
330
14
100
AcDbSymbolTableRecord
100
AcDbRegAppTableRecord
  2
ACAD_DSTYLE_DIMARC_LENGTH_SYMBOL
 70
     0
  0
APPID
  5
F55
330
14
100
AcDbSymbolTableRecord
100
AcDbRegAppTableRecord
  2
ACAD_EXEMPT_FROM_CAD_STANDARDS
 70
     0
  0
ENDTAB
  0
TABLE
  2
DIMSTYLE
  5
16
330
0
100
AcDbSymbolTable
 70
     1
100
AcDbDimStyleTable
 71
     1
340
1E
  0
DIMSTYLE
105
1E
102
{ACAD_REACTORS
330
8DB1
330
8DBE
102
}
330
16
100
AcDbSymbolTableRecord
100
AcDbDimStyleTableRecord
  2
STANDARD
 70
     0
340
C
  0
ENDTAB
  0
TABLE
  2
BLOCK_RECORD
  5
1
330
0
100
AcDbSymbolTable
 70
     5
  0
BLOCK_RECORD
  5
2
102
{ACAD_XDICTIONARY
360
D13
102
}
330
1
100
AcDbSymbolTableRecord
100
AcDbBlockTableRecord
  2
*MODEL_SPACE
340
5A
  0
BLOCK_RECORD
  5
7
330
1
100
AcDbSymbolTableRecord
100
AcDbBlockTableRecord
  2
*PAPER_SPACE
340
5B
  0
BLOCK_RECORD
  5
109
330
1
100
AcDbSymbolTableRecord
100
AcDbBlockTableRecord
  2
_Dot
340
0
102
{BLKREFS
331
8E60
331
8E61
331
8E72
331
8E73
102
}
  0
BLOCK_RECORD
  5
8DB2
330
1
100
AcDbSymbolTableRecord
100
AcDbBlockTableRecord
  2
*D3
340
0
  0
BLOCK_RECORD
  5
8DBF
330
1
100
AcDbSymbolTableRecord
100
AcDbBlockTableRecord
  2
*D4
340
0
  0
ENDTAB
  0
ENDSEC
  0
SECTION
  2
BLOCKS
  0
BLOCK
  5
3
330
2
100
AcDbEntity
  8
0
100
AcDbBlockBegin
  2
*MODEL_SPACE
 70
     0
 10
0.0
 20
0.0
 30
0.0
  3
*MODEL_SPACE
  1

  0
ENDBLK
  5
6
330
2
100
AcDbEntity
  8
0
100
AcDbBlockEnd
  0
BLOCK
  5
8
330
7
100
AcDbEntity
 67
     1
  8
0
100
AcDbBlockBegin
  2
*PAPER_SPACE
 70
     0
 10
0.0
 20
0.0
 30
0.0
  3
*PAPER_SPACE
  1

  0
ENDBLK
  5
9
330
7
100
AcDbEntity
 67
     1
  8
0
100
AcDbBlockEnd
  0
BLOCK
  5
10C
330
109
100
AcDbEntity
  8
0
100
AcDbBlockBegin
  2
_Dot
 70
     0
 10
0.0
 20
0.0
 30
0.0
  3
_Dot
  1

  0
LWPOLYLINE
  5
10A
330
109
100
AcDbEntity
  8
0
  6
ByBlock
 62
     0
100
AcDbPolyline
 90
        2
 70
     1
 43
0.5
 10
-0.25
 20
0.0
 42
1.0
 10
0.25
 20
0.0
 42
1.0
  0
LINE
  5
10B
330
109
100
AcDbEntity
  8
0
  6
ByBlock
 62
     0
370
    -2
100
AcDbLine
 10
-0.5
 20
0.0
 30
0.0
 11
-1.0
 21
0.0
 31
0.0
  0
ENDBLK
  5
10D
330
109
100
AcDbEntity
  8
0
100
AcDbBlockEnd
  0
BLOCK
  5
8DBC
330
8DB2
100
AcDbEntity
  8
0
100
AcDbBlockBegin
  2
*D3
 70
     1
 10
0.0
 20
0.0
 30
0.0
  3
*D3
  1

  0
LINE
  5
8E6F
330
8DB2
100
AcDbEntity
  8
SUNPOU
 62
    70
370
    -2
100
AcDbLine
 10
-154.750133711753
 20
146.0825441785129
 30
0.0
 11
-154.750133711753
 21
163.5591389615892
 31
0.0
  0
LINE
  5
8E70
330
8DB2
100
AcDbEntity
  8
SUNPOU
 62
    70
370
    -2
100
AcDbLine
 10
280.249866288247
 20
135.3836330757506
 30
0.0
 11
280.249866288247
 21
163.5591389615892
 31
0.0
  0
LINE
  5
8E71
330
8DB2
100
AcDbEntity
  8
SUNPOU
 62
    60
370
    -2
100
AcDbLine
 10
-152.750133711753
 20
163.5591389615892
 30
0.0
 11
278.249866288247
 21
163.5591389615892
 31
0.0
  0
INSERT
  5
8E72
330
8DB2
100
AcDbEntity
  8
SUNPOU
 62
    60
370
    -2
100
AcDbBlockReference
  2
_Dot
 10
-154.750133711753
 20
163.5591389615892
 30
0.0
 41
2.0
 42
2.0
 43
2.0
 50
180.0
  0
INSERT
  5
8E73
330
8DB2
100
AcDbEntity
  8
SUNPOU
 62
    60
370
    -2
100
AcDbBlockReference
  2
_Dot
 10
280.249866288247
 20
163.5591389615892
 30
0.0
 41
2.0
 42
2.0
 43
2.0
  0
MTEXT
  5
8E74
330
8DB2
100
AcDbEntity
  8
SUNPOU
 62
    60
100
AcDbMText
 10
62.74986628824698
 20
169.0591389615893
 30
0.0
 40
5.0
 41
0.0
 71
     5
 72
     1
  1
\A1;435
  7
SUNPOU
 73
     1
 44
1.0
1001
ACAD
1000
MTEXTBEGIN
1070
    73
1070
     1
1070
    44
1040
1.0
1070
    74
1070
     0
1000
MTEXTEND
  0
POINT
  5
8E75
330
8DB2
100
AcDbEntity
  8
DEFPOINTS
 62
     0
100
AcDbPoint
 10
-154.750133711753
 20
136.0825441785129
 30
0.0
  0
POINT
  5
8E76
330
8DB2
100
AcDbEntity
  8
DEFPOINTS
 62
     0
100
AcDbPoint
 10
280.249866288247
 20
125.3836330757506
 30
0.0
  0
POINT
  5
8E77
330
8DB2
100
AcDbEntity
  8
DEFPOINTS
 62
     0
100
AcDbPoint
 10
280.249866288247
 20
163.5591389615892
 30
0.0
  0
ENDBLK
  5
8DBD
330
8DB2
100
AcDbEntity
  8
0
100
AcDbBlockEnd
  0
BLOCK
  5
8DC9
330
8DBF
100
AcDbEntity
  8
0
100
AcDbBlockBegin
  2
*D4
 70
     1
 10
0.0
 20
0.0
 30
0.0
  3
*D4
  1

  0
LINE
  5
8E5D
330
8DBF
100
AcDbEntity
  8
SUNPOU
 62
    70
370
    -2
100
AcDbLine
 10
-164.750133711753
 20
136.0825441785129
 30
0.0
 11
-186.7785642431999
 21
136.0825441785129
 31
0.0
  0
LINE
  5
8E5E
330
8DBF
100
AcDbEntity
  8
SUNPOU
 62
    70
370
    -2
100
AcDbLine
 10
-163.0421318321227
 20
41.08254417851288
 30
0.0
 11
-186.7785642432
 21
41.08254417851289
 31
0.0
  0
LINE
  5
8E5F
330
8DBF
100
AcDbEntity
  8
SUNPOU
 62
    60
370
    -2
100
AcDbLine
 10
-186.7785642431999
 20
134.0825441785129
 30
0.0
 11
-186.7785642432
 21
43.08254417851289
 31
0.0
  0
INSERT
  5
8E60
330
8DBF
100
AcDbEntity
  8
SUNPOU
 62
    60
370
    -2
100
AcDbBlockReference
  2
_Dot
 10
-186.7785642431999
 20
136.0825441785129
 30
0.0
 41
2.0
 42
2.0
 43
2.0
 50
90.0
  0
INSERT
  5
8E61
330
8DBF
100
AcDbEntity
  8
SUNPOU
 62
    60
370
    -2
100
AcDbBlockReference
  2
_Dot
 10
-186.7785642432
 20
41.08254417851289
 30
0.0
 41
2.0
 42
2.0
 43
2.0
 50
270.0
  0
MTEXT
  5
8E62
330
8DBF
100
AcDbEntity
  8
SUNPOU
 62
    60
100
AcDbMText
 10
-192.2785642432
 20
88.58254417851288
 30
0.0
 40
5.0
 41
0.0
 71
     5
 72
     1
  1
\A1;95
  7
SUNPOU
 11
0.0000000000000001
 21
1.0
 31
0.0
 73
     1
 44
1.0
1001
ACAD
1000
MTEXTBEGIN
1070
    73
1070
     1
1070
    44
1040
1.0
1070
    74
1070
     0
1000
MTEXTEND
  0
POINT
  5
8E63
330
8DBF
100
AcDbEntity
  8
DEFPOINTS
 62
     0
100
AcDbPoint
 10
-154.750133711753
 20
136.0825441785129
 30
0.0
  0
POINT
  5
8E64
330
8DBF
100
AcDbEntity
  8
DEFPOINTS
 62
     0
100
AcDbPoint
 10
-153.0421318321228
 20
41.08254417851288
 30
0.0
  0
POINT
  5
8E65
330
8DBF
100
AcDbEntity
  8
DEFPOINTS
 62
     0
100
AcDbPoint
 10
-186.7785642432
 20
41.08254417851289
 30
0.0
  0
ENDBLK
  5
8DCA
330
8DBF
100
AcDbEntity
  8
0
100
AcDbBlockEnd
  0
ENDSEC
  0
SECTION
  2
ENTITIES
  0
LINE
  5
1F
330
2
100
AcDbEntity
  8
WAKU
100
AcDbLine
 10
0.0
 20
14.0
 30
0.0
 11
133.4211017667494
 21
13.99999999999999
 31
0.0
  0
LINE
  5
20
330
2
100
AcDbEntity
  8
WAKU
100
AcDbLine
 10
0.0
 20
0.0
 30
0.0
 11
133.4211017667494
 21
0.0
 31
0.0
  0
TEXT
  5
21
330
2
100
AcDbEntity
  8
HOJO
100
AcDbText
 10
9.653966000000023
 20
2.366626000000023
 30
0.0
 40
9.0
  1
TC395
  7
SUNPOU
100
AcDbText
  0
TEXT
  5
23
330
2
100
AcDbEntity
  8
HOJO
100
AcDbText
 10
75.80772268774158
 20
5.044386000000031
 30
0.0
 40
6.0
  1
435×95×6
  7
SUNPOU
100
AcDbText
  0
SPLINE
  5
8D0F
102
{ACAD_REACTORS
330
8E79
102
}
330
2
100
AcDbEntity
  8
KIJUN
100
AcDbSpline
210
0.0
220
0.0
230
1.0
 70
     8
 71
     3
 72
    14
 73
    10
 74
     0
 42
0.0000000001
 43
0.0000000001
 40
0.0
 40
0.0
 40
0.0
 40
0.0
 40
2.360804937749884
 40
4.888519026478915
 40
8.32072882437896
 40
11.61083366616766
 40
15.20348331780696
 40
29.23153594141169
 40
41.54243384795474
 40
41.54243384795474
 40
41.54243384795474
 40
41.54243384795474
 10
8.528905910068486
 20
92.13517417851743
 30
0.0
 10
9.293715359501334
 20
92.60739760017726
 30
0.0
 10
10.87740636480202
 20
93.58523068779094
 30
0.0
 10
11.70813203167631
 20
97.45931990097837
 30
0.0
 10
6.477229015904298
 20
96.43575547486321
 30
0.0
 10
2.598965118295723
 20
98.57990660041584
 30
0.0
 10
2.468448274529805
 20
106.1986097696809
 30
0.0
 10
5.843366295632903
 20
116.7835077921326
 30
0.0
 10
15.7637879546811
 20
121.190129400276
 30
0.0
 10
20.40062031801358
 20
123.2497964575691
 30
0.0
  0
ELLIPSE
  5
8D10
102
{ACAD_REACTORS
330
8E79
102
}
330
2
100
AcDbEntity
  8
KIJUN
100
AcDbEllipse
 10
38.34756831677657
 20
100.980339143628
 30
0.0
 11
19.96463095241229
 21
0.0000000000001342
 31
0.0
210
0.0
220
0.0
230
1.0
 40
0.8285783594877734
 41
2.174525286539906
 42
3.859950031546556
  0
ELLIPSE
  5
8D11
102
{ACAD_REACTORS
330
8E79
102
}
330
2
100
AcDbEntity
  8
KIJUN
100
AcDbEllipse
 10
34.8806005654352
 20
103.601509475462
 30
0.0
 11
29.76436940664251
 21
0.0000000000004645
 31
0.0
210
0.0
220
0.0
230
1.0
 40
0.8285783594877688
 41
3.625156414100062
 42
4.989837974099113
  0
SPLINE
  5
8D13
102
{ACAD_REACTORS
330
8E79
102
}
330
2
100
AcDbEntity
  8
KIJUN
100
AcDbSpline
210
0.0
220
0.0
230
1.0
 70
     8
 71
     3
 72
    15
 73
    11
 74
     0
 42
0.0000000001
 43
0.0000000001
 40
0.0
 40
0.0
 40
0.0
 40
0.0
 40
3.944153969757755
 40
8.057646281266809
 40
9.682256321609862
 40
11.30679795393234
 40
19.11314146445586
 40
37.90580864985403
 40
51.28201847232601
 40
66.72834797736395
 40
66.72834797736395
 40
66.72834797736395
 40
66.72834797736395
 10
3.986478374853049
 20
98.03690863608665
 30
0.0
 10
5.527907423754641
 20
97.9321606885486
 30
0.0
 10
8.676945250105518
 20
97.71816754415795
 30
0.0
 10
13.49399563074473
 20
101.2802827466446
 30
0.0
 10
10.45869069724881
 20
102.7990854606729
 30
0.0
 10
7.386468904897355
 20
105.5673041872442
 30
0.0
 10
11.29465969384318
 20
116.9336127833586
 30
0.0
 10
25.99180080661665
 20
123.8445264717896
 30
0.0
 10
44.49448553001604
 20
129.3062174850454
 30
0.0
 10
56.38018407436027
 20
129.9388374298936
 30
0.0
 10
62.74986628824695
 20
130.2778657163521
 30
0.0
  0
SPLINE
  5
8D16
102
{ACAD_REACTORS
330
8E79
102
}
330
2
100
AcDbEntity
  8
KIJUN
100
AcDbSpline
210
0.0
220
0.0
230
1.0
 70
     8
 71
     3
 72
    10
 73
     6
 74
     0
 42
0.0000000001
 43
0.0000000001
 40
0.0
 40
0.0
 40
0.0
 40
0.0
 40
4.365241156247719
 40
9.479951262949473
 40
14.52387293684771
 40
14.52387293684771
 40
14.52387293684771
 40
14.52387293684771
 10
-152.285533393381
 20
73.75622737851279
 30
0.0
 10
-150.4489540920464
 20
73.57145799304453
 30
0.0
 10
-146.460472896162
 20
73.1701961368434
 30
0.0
 10
-141.2964899964298
 20
77.01457811325212
 30
0.0
 10
-141.1791614498703
 20
80.56651857489406
 30
0.0
 10
-141.120905967071
 20
82.33011330554324
 30
0.0
  0
SPLINE
  5
8D18
102
{ACAD_REACTORS
330
8E79
102
}
330
2
100
AcDbEntity
  8
KIJUN
100
AcDbSpline
210
0.0
220
0.0
230
1.0
 70
     8
 71
     3
 72
     9
 73
     5
 74
     0
 42
0.0000000001
 43
0.0000000001
 40
0.0
 40
0.0
 40
0.0
 40
0.0
 40
8.124091228860605
 40
19.6539772698336
 40
19.6539772698336
 40
19.6539772698336
 40
19.6539772698336
 10
-137.4979987447877
 20
67.62991177851302
 30
0.0
 10
-136.4648285690934
 20
70.29792641794995
 30
0.0
 10
-133.9653609268757
 20
76.75244515757151
 30
0.0
 10
-135.4307514230749
 20
83.46831909153022
 30
0.0
 10
-136.2904138310816
 20
87.40814562439879
 30
0.0
  0
ELLIPSE
  5
8D1A
102
{ACAD_REACTORS
330
8E79
102
}
330
2
100
AcDbEntity
  8
KIJUN
100
AcDbEllipse
 10
-109.2478814480699
 20
111.6825631716876
 30
0.0
 11
-12.90467228104497
 21
0.0000000000000638
 31
0.0
210
0.0
220
0.0
230
1.0
 40
0.8285783594877669
 41
3.417782643309323
 42
5.434892434025428
  0
ELLIPSE
  5
8D1B
102
{ACAD_REACTORS
330
8E79
102
}
330
2
100
AcDbEntity
  8
KIJUN
100
AcDbEllipse
 10
-94.60867579385569
 20
90.30935567581794
 30
0.0
 11
21.99939642922158
 21
0.0000000000023363
 31
0.0
210
0.0
220
0.0
230
1.0
 40
0.8285783594877111
 41
1.602155044711405
 42
2.145831999426721
  0
ELLIPSE
  5
8D1C
102
{ACAD_REACTORS
330
8E79
102
}
330
2
100
AcDbEntity
  8
KIJUN
100
AcDbEllipse
 10
-99.73399472445088
 20
104.305002883072
 30
0.0
 11
10.26951813790675
 21
0.000000000000158
 31
0.0
210
0.0
220
0.0
230
1.0
 40
0.8285783594877777
 41
4.121124464482782
 42
5.7936108225403
  0
ELLIPSE
  5
8D1E
102
{ACAD_REACTORS
330
8E79
102
}
330
2
100
AcDbEntity
  8
KIJUN
100
AcDbEllipse
 10
-120.7945808606324
 20
99.72321806814809
 30
0.0
 11
-5.656304544077197
 21
0.0000000000006019
 31
0.0
210
0.0
220
0.0
230
1.0
 40
0.8285783594877662
 41
4.615228345816148
 42
6.159031499400557
  0
ELLIPSE
  5
8D22
102
{ACAD_REACTORS
330
8E79
102
}
330
2
100
AcDbEntity
  8
KIJUN
100
AcDbEllipse
 10
-138.0948508399237
 20
99.1309678748861
 30
0.0
 11
12.07736520845726
 21
0.0000000000003789
 31
0.0
210
0.0
220
0.0
230
1.0
 40
0.8285783594877747
 41
1.937686710738546
 42
3.659450715599601
  0
ELLIPSE
  5
8D23
102
{ACAD_REACTORS
330
8E79
102
}
330
2
100
AcDbEntity
  8
KIJUN
100
AcDbEllipse
 10
-123.4855107659616
 20
104.1166619842624
 30
0.0
 11
-19.65748313608547
 21
0.0000000000001016
 31
0.0
210
0.0
220
0.0
230
1.0
 40
0.8285783594877708
 41
4.417973181367213
 42
6.012491201257892
  0
SPLINE
  5
8D24
102
{ACAD_REACTORS
330
8E79
102
}
330
2
100
AcDbEntity
  8
KIJUN
100
AcDbSpline
210
0.0
220
0.0
230
1.0
 70
     8
 71
     3
 72
    16
 73
    12
 74
     0
 42
0.0000000001
 43
0.0000000001
 40
0.0
 40
0.0
 40
0.0
 40
0.0
 40
1.978621764947525
 40
7.439796170173019
 40
13.77932884406209
 40
19.54589812849894
 40
25.59057848587732
 40
32.86935037507756
 40
36.76461965386518
 40
40.91269384697145
 40
44.26793709050119
 40
44.26793709050119
 40
44.26793709050119
 40
44.26793709050119
 10
-105.4583403395022
 20
97.24043717851282
 30
0.0
 10
-105.0994174323483
 20
97.85128869676965
 30
0.0
 10
-103.7498349515856
 20
100.1481454617058
 30
0.0
 10
-105.1559968191161
 20
105.3397929133524
 30
0.0
 10
-111.4303978002077
 20
109.1063042742991
 30
0.0
 10
-118.7862296945053
 20
109.8826992570027
 30
0.0
 10
-127.2874379841735
 20
109.6238099655181
 30
0.0
 10
-131.2083265208188
 20
103.7019667914575
 30
0.0
 10
-132.8511410240326
 20
99.01456304235139
 30
0.0
 10
-133.194998091286
 20
94.26635407320771
 30
0.0
 10
-129.8711219992955
 20
93.54838422659156
 30
0.0
 10
-128.384791067123
 20
93.22733110612048
 30
0.0
  0
SPLINE
  5
8D25
102
{ACAD_REACTORS
330
8E79
102
}
330
2
100
AcDbEntity
  8
KIJUN
100
AcDbSpline
210
0.0
220
0.0
230
1.0
 70
     8
 71
     3
 72
    10
 73
     6
 74
     0
 42
0.0000000001
 43
0.0000000001
 40
0.0
 40
0.0
 40
0.0
 40
0.0
 40
4.548082061862656
 40
10.23394251137264
 40
15.37230316540551
 40
15.37230316540551
 40
15.37230316540551
 40
15.37230316540551
 10
-132.56882052859
 20
88.0509637785127
 30
0.0
 10
-134.4649199698797
 20
87.62999071008525
 30
0.0
 10
-138.7314596703659
 20
86.68273115704186
 30
0.0
 10
-144.1480966503776
 20
90.31397811567751
 30
0.0
 10
-147.1592341404883
 20
92.93368135000424
 30
0.0
 10
-148.5886497312327
 20
94.17727937851273
 30
0.0
  0
ELLIPSE
  5
8D26
102
{ACAD_REACTORS
330
8E79
102
}
330
2
100
AcDbEntity
  8
KIJUN
100
AcDbEllipse
 10
-159.0471112558379
 20
114.241805394057
 30
0.0
 11
41.78898937124313
 21
0.0000000000009119
 31
0.0
210
0.0
220
0.0
230
1.0
 40
0.8285783594877511
 41
-0.1328047223092705
 42
0.1584007069241338
  0
ELLIPSE
  5
8D27
102
{ACAD_REACTORS
330
8E79
102
}
330
2
100
AcDbEntity
  8
KIJUN
100
AcDbEllipse
 10
-96.00673008533501
 20
174.4442429485985
 30
0.0
 11
-92.16484976486755
 21
0.0000000000153746
 31
0.0
210
0.0
220
0.0
230
1.0
 40
0.8285783594877296
 41
1.042957391401175
 42
1.182680734347778
  0
LINE
  5
8D28
102
{ACAD_REACTORS
330
8E79
102
}
330
2
100
AcDbEntity
  8
KIJUN
100
AcDbLine
 10
-108.869331615469
 20
108.3067843304494
 30
0.0
 11
-104.6730673575662
 21
113.3350077745821
 31
0.0
  0
LINE
  5
8D29
102
{ACAD_REACTORS
330
8E79
102
}
330
2
100
AcDbEntity
  8
KIJUN
100
AcDbLine
 10
-111.6370804481723
 20
109.5638397709572
 30
0.0
 11
-109.5835898517476
 21
114.7399524862322
 31
0.0
  0
LINE
  5
8D2A
102
{ACAD_REACTORS
330
8E79
102
}
330
2
100
AcDbEntity
  8
KIJUN
100
AcDbLine
 10
-124.3151541922182
 20
110.0814510985546
 30
0.0
 11
-125.2079764638874
 21
114.5181191402191
 31
0.0
  0
LINE
  5
8D2B
102
{ACAD_REACTORS
330
8E79
102
}
330
2
100
AcDbEntity
  8
KIJUN
100
AcDbLine
 10
-127.5293141607561
 20
108.824395658047
 30
0.0
 11
-131.7255784186591
 21
111.8561184273605
 31
0.0
  0
LINE
  5
8D2C
102
{ACAD_REACTORS
330
8E79
102
}
330
2
100
AcDbEntity
  8
KIJUN
100
AcDbLine
 10
-133.7790690150838
 20
99.06372675136616
 30
0.0
 11
-141.1894921941668
 21
100.7644494446007
 31
0.0
  0
LINE
  5
8D2D
102
{ACAD_REACTORS
330
8E79
102
}
330
2
100
AcDbEntity
  8
KIJUN
100
AcDbLine
 10
-134.5826092690577
 20
97.28905942256027
 30
0.0
 11
-143.3322658556446
 21
96.47567067407884
 31
0.0
  0
SPLINE
  5
8D2E
102
{ACAD_REACTORS
330
8E79
102
}
330
2
100
AcDbEntity
  8
KIJUN
100
AcDbSpline
210
0.0
220
0.0
230
1.0
 70
     8
 71
     3
 72
     9
 73
     5
 74
     0
 42
0.0000000001
 43
0.0000000001
 40
0.0
 40
0.0
 40
0.0
 40
0.0
 40
15.61402645171171
 40
17.51378540145741
 40
17.51378540145741
 40
17.51378540145741
 40
17.51378540145741
 10
-24.74304704926374
 20
102.3457001785128
 30
0.0
 10
-31.00284740039308
 20
96.9235474858722
 30
0.0
 10
-38.0242778011101
 20
90.84168135310198
 30
0.0
 10
-42.71829496054635
 20
95.69313652989638
 30
0.0
 10
-43.22746536000521
 20
96.21938457851285
 30
0.0
  0
SPLINE
  5
8D2F
102
{ACAD_REACTORS
330
8E79
102
}
330
2
100
AcDbEntity
  8
KIJUN
100
AcDbSpline
210
0.0
220
0.0
230
1.0
 70
     8
 71
     3
 72
    10
 73
     6
 74
     0
 42
0.0000000001
 43
0.0000000001
 40
0.0
 40
0.0
 40
0.0
 40
0.0
 40
1.937717373376967
 40
9.479872025543626
 40
17.72847306352512
 40
17.72847306352512
 40
17.72847306352512
 40
17.72847306352512
 10
-43.22746536000521
 20
96.21938457851285
 30
0.0
 10
-42.4903795669801
 20
96.46724636746649
 30
0.0
 10
-38.88434336906551
 20
97.67985769643793
 30
0.0
 10
-32.07002601904856
 20
99.94276544888599
 30
0.0
 10
-26.93946119861664
 20
103.2777221411115
 30
0.0
 10
-24.25941325577787
 20
105.0198000867717
 30
0.0
  0
SPLINE
  5
8D30
102
{ACAD_REACTORS
330
8E79
102
}
330
2
100
AcDbEntity
  8
KIJUN
100
AcDbSpline
210
0.0
220
0.0
230
1.0
 70
     8
 71
     3
 72
    17
 73
    13
 74
     0
 42
0.0000000001
 43
0.0000000001
 40
0.0
 40
0.0
 40
0.0
 40
0.0
 40
2.586091375433957
 40
6.382073038180352
 40
9.627837702785733
 40
12.51897287804625
 40
14.7375521544825
 40
20.88319051122983
 40
34.80960608872674
 40
46.34312256918413
 40
57.31321576094758
 40
63.85897725916173
 40
63.85897725916173
 40
63.85897725916173
 40
63.85897725916173
 10
-67.87335644099414
 20
97.24043717851282
 30
0.0
 10
-68.09906372302896
 20
98.16490591646505
 30
0.0
 10
-68.65607434256003
 20
100.4463516005473
 30
0.0
 10
-65.04737980448647
 20
102.6228400389825
 30
0.0
 10
-61.12435834208167
 20
104.3996280689026
 30
0.0
 10
-58.05237580136235
 20
102.4746286234332
 30
0.0
 10
-54.789785817537
 20
99.77265544049942
 30
0.0
 10
-44.93654342896854
 20
99.41517163407013
 30
0.0
 10
-31.11373804595587
 20
102.2247818300066
 30
0.0
 10
-25.07945687330404
 20
114.4439624488296
 30
0.0
 10
-15.89775069945779
 20
121.206286139891
 30
0.0
 10
-9.207678281911283
 20
123.4515959924251
 30
0.0
 10
-6.707565142922248
 20
124.2906793854088
 30
0.0
  0
SPLINE
  5
8D31
102
{ACAD_REACTORS
330
8E79
102
}
330
2
100
AcDbEntity
  8
KIJUN
100
AcDbSpline
210
0.0
220
0.0
230
1.0
 70
     8
 71
     3
 72
    16
 73
    12
 74
     0
 42
0.0000000001
 43
0.0000000001
 40
0.0
 40
0.0
 40
0.0
 40
0.0
 40
2.592641565017095
 40
3.869096403543973
 40
4.964856382086088
 40
7.097626517589397
 40
9.041126544873595
 40
16.60463153276753
 40
23.76100531675318
 40
32.62687508664392
 40
40.94592603697956
 40
40.94592603697956
 40
40.94592603697956
 40
40.94592603697956
 10
-56.4388531373396
 20
101.2133068578837
 30
0.0
 10
-57.14925439537818
 20
101.9977367218591
 30
0.0
 10
-58.20941287992798
 20
103.1683708760334
 30
0.0
 10
-57.26870959000006
 20
104.8281928218246
 30
0.0
 10
-55.49932290688354
 20
105.7593229536056
 30
0.0
 10
-53.68639833412885
 20
104.1980454886241
 30
0.0
 10
-50.0339759665445
 20
101.7808918934299
 30
0.0
 10
-42.17581462553119
 20
103.3070620032696
 30
0.0
 10
-33.8119740626812
 20
107.1508197620251
 30
0.0
 10
-28.21761896271323
 20
114.360312739591
 30
0.0
 10
-22.78869276123862
 20
118.1079855219457
 30
0.0
 10
-20.16060303007567
 20
119.922197023364
 30
0.0
  0
ELLIPSE
  5
8D32
102
{ACAD_REACTORS
330
8E79
102
}
330
2
100
AcDbEntity
  8
KIJUN
100
AcDbEllipse
 10
-54.26690957570611
 20
117.9995393204718
 30
0.0
 11
28.51021326140191
 21
0.0000000000001663
 31
0.0
210
0.0
220
0.0
230
1.0
 40
0.8285783594877623
 41
4.214868411602422
 42
5.109992757723059
  0
SPLINE
  5
8D33
102
{ACAD_REACTORS
330
8E79
102
}
330
2
100
AcDbEntity
  8
KIJUN
100
AcDbSpline
210
0.0
220
0.0
230
1.0
 70
     8
 71
     3
 72
    10
 73
     6
 74
     0
 42
0.0000000001
 43
0.0000000001
 40
0.0
 40
0.0
 40
0.0
 40
0.0
 40
9.123046104142312
 40
14.10211928390164
 40
16.4697311326627
 40
16.4697311326627
 40
16.4697311326627
 40
16.4697311326627
 10
-67.87335644099414
 20
97.24043717851282
 30
0.0
 10
-71.2051152856834
 20
96.60793992218069
 30
0.0
 10
-76.35524388490944
 20
95.63024544889641
 30
0.0
 10
-85.2220793000024
 20
94.60925801489249
 30
0.0
 10
-85.61500087167621
 20
97.37135153101974
 30
0.0
 10
-85.7416274747111
 20
98.26148977851289
 30
0.0
  0
LINE
  5
8D34
102
{ACAD_REACTORS
330
8E79
102
}
330
2
100
AcDbEntity
  8
KIJUN
100
AcDbLine
 10
-85.7416274747111
 20
98.26148977851289
 30
0.0
 11
-90.67080569090887
 21
100.3035949785129
 31
0.0
  0
ELLIPSE
  5
8D35
102
{ACAD_REACTORS
330
8E79
102
}
330
2
100
AcDbEntity
  8
KIJUN
100
AcDbEllipse
 10
-81.97649721199798
 20
109.9462483256909
 30
0.0
 11
-4.909009218209834
 21
0.0000000000001867
 31
0.0
210
0.0
220
0.0
230
1.0
 40
0.8285783594877461
 41
3.281662470610701
 42
5.586516172148523
  0
ELLIPSE
  5
8D36
102
{ACAD_REACTORS
330
8E79
102
}
330
2
100
AcDbEntity
  8
KIJUN
100
AcDbEllipse
 10
-79.30843711645081
 20
159.8753022625485
 30
0.0
 11
-74.63863469125101
 21
0.0000000000007669
 31
0.0
210
0.0
220
0.0
230
1.0
 40
0.8285783594877996
 41
1.484498092606251
 42
1.720674967855241
  0
SPLINE
  5
8D37
102
{ACAD_REACTORS
330
8E79
102
}
330
2
100
AcDbEntity
  8
KIJUN
100
AcDbSpline
210
0.0
220
0.0
230
1.0
 70
     8
 71
     3
 72
    11
 73
     7
 74
     0
 42
0.0000000001
 43
0.0000000001
 40
0.0
 40
0.0
 40
0.0
 40
0.0
 40
3.538989019227944
 40
8.259645460392107
 40
13.68058026058861
 40
19.37739701543096
 40
19.37739701543096
 40
19.37739701543096
 40
19.37739701543096
 10
-85.7416274747111
 20
112.5562261785129
 30
0.0
 10
-86.08641321153493
 20
111.2679615662642
 30
0.0
 10
-86.89110854415458
 20
108.2612811559745
 30
0.0
 10
-80.9850049146862
 20
105.5946855554378
 30
0.0
 10
-74.97410344426906
 20
104.2085897971276
 30
0.0
 10
-70.34897552713299
 20
104.0930073033716
 30
0.0
 10
-67.97902634440584
 20
104.0337819929538
 30
0.0
  0
ELLIPSE
  5
8D38
102
{ACAD_REACTORS
330
8E79
102
}
330
2
100
AcDbEntity
  8
KIJUN
100
AcDbEllipse
 10
-92.34529225092524
 20
109.6311521575406
 30
0.0
 11
7.488052350217237
 21
0.0000000000001202
 31
0.0
210
0.0
220
0.0
230
1.0
 40
0.8285783594877791
 41
0.4909327240125867
 42
2.213322037829305
  0
ELLIPSE
  5
8D39
102
{ACAD_REACTORS
330
8E79
102
}
330
2
100
AcDbEntity
  8
KIJUN
100
AcDbEllipse
 10
-99.47885874760959
 20
101.9075902184214
 30
0.0
 11
9.018274539075452
 21
0.0000000000003129
 31
0.0
210
0.0
220
0.0
230
1.0
 40
0.8285783594877715
 41
-0.2163411264490846
 42
1.088798607097563
  0
ELLIPSE
  5
8D3A
102
{ACAD_REACTORS
330
8E79
102
}
330
2
100
AcDbEntity
  8
KIJUN
100
AcDbEllipse
 10
-122.287185730704
 20
107.0141930213888
 30
0.0
 11
27.05056860843805
 21
0.0000000000013171
 31
0.0
210
0.0
220
0.0
230
1.0
 40
0.8285783594876939
 41
0.0676189921104526
 42
0.3451878334474563
  0
ELLIPSE
  5
8D3B
102
{ACAD_REACTORS
330
8E79
102
}
330
2
100
AcDbEntity
  8
KIJUN
100
AcDbEllipse
 10
2.70108634616747
 20
96.55236154179512
 30
0.0
 11
7.898323035367774
 21
0.000000000000474
 31
0.0
210
0.0
220
0.0
230
1.0
 40
0.8285783594877802
 41
3.349997584231195
 42
5.542276278236188
  0
ELLIPSE
  5
8D3C
102
{ACAD_REACTORS
330
8E79
102
}
330
2
100
AcDbEntity
  8
KIJUN
100
AcDbEllipse
 10
-10.96451922030451
 20
103.986889915604
 30
0.0
 11
12.15590672805219
 21
0.0000000000001222
 31
0.0
210
0.0
220
0.0
230
1.0
 40
0.8285783594877621
 41
3.515968928110726
 42
5.22276115181721
  0
ELLIPSE
  5
8D3D
102
{ACAD_REACTORS
330
8E79
102
}
330
2
100
AcDbEntity
  8
KIJUN
100
AcDbEllipse
 10
-22.19479418487663
 20
102.4150221564467
 30
0.0
 11
2.549625910790318
 21
0.0000000000000766
 31
0.0
210
0.0
220
0.0
230
1.0
 40
0.8285783594877434
 41
3.174412675386323
 42
4.679568958588174
  0
SPLINE
  5
8D3E
102
{ACAD_REACTORS
330
8E79
102
}
330
2
100
AcDbEntity
  8
KIJUN
100
AcDbSpline
210
0.0
220
0.0
230
1.0
 70
     8
 71
     3
 72
    12
 73
     8
 74
     0
 42
0.0000000001
 43
0.0000000001
 40
0.0
 40
0.0
 40
0.0
 40
0.0
 40
2.877957777216571
 40
6.907897244444623
 40
13.66158431967779
 40
23.03592971397494
 40
30.48014214844654
 40
30.48014214844654
 40
30.48014214844654
 40
30.48014214844654
 10
-5.026334184468396
 20
95.19833197851472
 30
0.0
 10
-4.463834895701324
 20
96.199485368861
 30
0.0
 10
-3.113680519692593
 20
98.6025313069182
 30
0.0
 10
-9.276389503987617
 20
101.4886470596541
 30
0.0
 10
-8.987415034985019
 20
109.071250140431
 30
0.0
 10
-5.888447453544812
 20
116.9468899979641
 30
0.0
 10
-0.0833822203247792
 20
120.3106819607207
 30
0.0
 10
2.486049667475866
 20
121.7995600328521
 30
0.0
  0
SPLINE
  5
8D3F
102
{ACAD_REACTORS
330
8E79
102
}
330
2
100
AcDbEntity
  8
KIJUN
100
AcDbSpline
210
0.0
220
0.0
230
1.0
 70
     8
 71
     3
 72
    11
 73
     7
 74
     0
 42
0.0000000001
 43
0.0000000001
 40
0.0
 40
0.0
 40
0.0
 40
0.0
 40
5.563486307153691
 40
16.77855928428098
 40
31.05277454289031
 40
43.13439870509305
 40
43.13439870509305
 40
43.13439870509305
 40
43.13439870509305
 10
-22.27845794116467
 20
100.3035949785129
 30
0.0
 10
-22.09558264218242
 20
102.1989810874751
 30
0.0
 10
-21.54406083082164
 20
107.9151537245735
 30
0.0
 10
-15.16713674963068
 20
117.6335739648095
 30
0.0
 10
-2.307023400687056
 20
125.2655142392187
 30
0.0
 10
7.806047930430394
 20
128.4809339448912
 30
0.0
 10
12.44192102850468
 20
129.9548954373489
 30
0.0
  0
SPLINE
  5
8D40
102
{ACAD_REACTORS
330
8E79
102
}
330
2
100
AcDbEntity
  8
KIJUN
100
AcDbSpline
210
0.0
220
0.0
230
1.0
 70
     8
 71
     3
 72
    10
 73
     6
 74
     0
 42
0.0000000001
 43
0.0000000001
 40
0.0
 40
0.0
 40
0.0
 40
0.0
 40
8.257460148326002
 40
19.84264596165218
 40
27.10752454210181
 40
27.10752454210181
 40
27.10752454210181
 40
27.10752454210181
 10
-24.74304704926374
 20
102.3457001785128
 30
0.0
 10
-24.26039146535357
 20
105.1551647185084
 30
0.0
 10
-23.10057189602936
 20
111.9062975375086
 30
0.0
 10
-15.83007876287968
 20
119.6239157610048
 30
0.0
 10
-9.245344140291647
 20
122.9924390971411
 30
0.0
 10
-6.707565142922248
 20
124.2906793854088
 30
0.0
  0
ELLIPSE
  5
8D41
102
{ACAD_REACTORS
330
8E79
102
}
330
2
100
AcDbEntity
  8
KIJUN
100
AcDbEllipse
 10
51.69103626700928
 20
79.90890914166175
 30
0.0
 11
-8.657941320344354
 21
0.0000000000006561
 31
0.0
210
0.0
220
0.0
230
1.0
 40
0.8285783594877818
 41
0.0036753583411897
 42
1.567120968453866
  0
SPLINE
  5
8D42
102
{ACAD_REACTORS
330
8E79
102
}
330
2
100
AcDbEntity
  8
KIJUN
100
AcDbSpline
210
0.0
220
0.0
230
1.0
 70
     8
 71
     3
 72
    12
 73
     8
 74
     0
 42
0.0000000001
 43
0.0000000001
 40
0.0
 40
0.0
 40
0.0
 40
0.0
 40
1.40817742601206
 40
3.145591137751146
 40
9.568925748718877
 40
16.20645375088058
 40
22.33085300362851
 40
22.33085300362851
 40
22.33085300362851
 40
22.33085300362851
 10
51.63940743453554
 20
72.5670484853946
 30
0.0
 10
51.92447450038753
 20
73.00303673991162
 30
0.0
 10
52.56125820352337
 20
73.97694866623464
 30
0.0
 10
56.76040288446404
 20
74.88481113045169
 30
0.0
 10
56.62735600992686
 20
81.30402505046902
 30
0.0
 10
57.68681136014379
 20
87.38910421214667
 30
0.0
 10
56.23324905445098
 20
91.67207655081439
 30
0.0
 10
55.53569015750759
 20
93.72745831773249
 30
0.0
  0
SPLINE
  5
8D43
102
{ACAD_REACTORS
330
8E79
102
}
330
2
100
AcDbEntity
  8
KIJUN
100
AcDbSpline
210
0.0
220
0.0
230
1.0
 70
     8
 71
     3
 72
    10
 73
     6
 74
     0
 42
0.0000000001
 43
0.0000000001
 40
0.0
 40
0.0
 40
0.0
 40
0.0
 40
4.365241156247776
 40
9.47995126294953
 40
14.52387293684777
 40
14.52387293684777
 40
14.52387293684777
 40
14.52387293684777
 10
277.7852659698749
 20
73.75622737851279
 30
0.0
 10
275.9486866685402
 20
73.57145799304453
 30
0.0
 10
271.9602054726558
 20
73.17019613684317
 30
0.0
 10
266.7962225729236
 20
77.01457811325223
 30
0.0
 10
266.6788940263641
 20
80.56651857489406
 30
0.0
 10
266.6206385435649
 20
82.33011330554324
 30
0.0
  0
SPLINE
  5
8D44
102
{ACAD_REACTORS
330
8E79
102
}
330
2
100
AcDbEntity
  8
KIJUN
100
AcDbSpline
210
0.0
220
0.0
230
1.0
 70
     8
 71
     3
 72
     9
 73
     5
 74
     0
 42
0.0000000001
 43
0.0000000001
 40
0.0
 40
0.0
 40
0.0
 40
0.0
 40
8.124091228860605
 40
19.6539772698336
 40
19.6539772698336
 40
19.6539772698336
 40
19.6539772698336
 10
262.9977313212815
 20
67.62991177851302
 30
0.0
 10
261.9645611455874
 20
70.29792641794995
 30
0.0
 10
259.4650935033696
 20
76.75244515757151
 30
0.0
 10
260.9304839995687
 20
83.46831909153022
 30
0.0
 10
261.7901464075755
 20
87.40814562439879
 30
0.0
  0
SPLINE
  5
8D45
102
{ACAD_REACTORS
330
8E79
102
}
330
2
100
AcDbEntity
  8
KIJUN
100
AcDbSpline
210
0.0
220
0.0
230
1.0
 70
     8
 71
     3
 72
    11
 73
     7
 74
     0
 42
0.0000000001
 43
0.0000000001
 40
0.0
 40
0.0
 40
0.0
 40
0.0
 40
12.49899328928814
 40
31.37488809789289
 40
38.00320729114293
 40
43.71469187340102
 40
43.71469187340102
 40
43.71469187340102
 40
43.71469187340102
 10
68.57118114882689
 20
59.69572366028035
 30
0.0
 10
66.75079912066188
 20
63.69510323638746
 30
0.0
 10
62.1812885123121
 20
73.73431869615558
 30
0.0
 10
63.10071630227082
 20
87.24934322247236
 30
0.0
 10
67.39604020534898
 20
97.28021711697351
 30
0.0
 10
67.98990718666471
 20
101.4661077920574
 30
0.0
 10
68.26477882720292
 20
103.403549463635
 30
0.0
  0
SPLINE
  5
8D46
102
{ACAD_REACTORS
330
8E79
102
}
330
2
100
AcDbEntity
  8
KIJUN
100
AcDbSpline
210
0.0
220
0.0
230
1.0
 70
     8
 71
     3
 72
    12
 73
     8
 74
     0
 42
0.0000000001
 43
0.0000000001
 40
0.0
 40
0.0
 40
0.0
 40
0.0
 40
1.40817742601206
 40
3.145591137751146
 40
9.568925748718877
 40
16.20645375088058
 40
22.33085300362851
 40
22.33085300362851
 40
22.33085300362851
 40
22.33085300362851
 10
73.86032514195824
 20
72.5670484853946
 30
0.0
 10
73.57525807610659
 20
73.00303673991162
 30
0.0
 10
72.93847437297073
 20
73.97694866623464
 30
0.0
 10
68.73932969202974
 20
74.88481113045169
 30
0.0
 10
68.8723765665669
 20
81.30402505046902
 30
0.0
 10
67.81292121634975
 20
87.38910421214667
 30
0.0
 10
69.26648352204279
 20
91.67207655081439
 30
0.0
 10
69.96404241898621
 20
93.72745831773249
 30
0.0
  0
ELLIPSE
  5
8D49
102
{ACAD_REACTORS
330
8E79
102
}
330
2
100
AcDbEntity
  8
KIJUN
100
AcDbEllipse
 10
73.8086963094845
 20
79.90890914166175
 30
0.0
 11
8.657941320344468
 21
0.0000000000009618
 31
0.0
210
0.0
220
0.0
230
1.0
 40
0.828578359487771
 41
-1.567120968453884
 42
-0.0036753583412321
  0
SPLINE
  5
8D4A
102
{ACAD_REACTORS
330
8E79
102
}
330
2
100
AcDbEntity
  8
KIJUN
100
AcDbSpline
210
0.0
220
0.0
230
1.0
 70
     8
 71
     3
 72
    15
 73
    11
 74
     0
 42
0.0000000001
 43
0.0000000001
 40
0.0
 40
0.0
 40
0.0
 40
0.0
 40
5.834616377839282
 40
13.43347371549321
 40
20.10113881575493
 40
25.02804923818675
 40
29.01737269355729
 40
30.56430356616341
 40
34.83009038555389
 40
38.21666540612456
 40
38.21666540612456
 40
38.21666540612456
 40
38.21666540612456
 10
69.06650703710943
 20
73.32667393507937
 30
0.0
 10
68.49821337905632
 20
71.38647365083976
 30
0.0
 10
67.18978838180522
 20
66.91940540962355
 30
0.0
 10
70.07334626191028
 20
59.70036599387242
 30
0.0
 10
65.06975359240482
 20
54.37118894425328
 30
0.0
 10
59.14589035317419
 20
50.30923866756802
 30
0.0
 10
61.70668119123671
 20
47.11689596965071
 30
0.0
 10
62.92305680491789
 20
43.05005450776536
 30
0.0
 10
66.42019179868589
 20
48.62051541642539
 30
0.0
 10
64.75031466459473
 20
50.71694048152585
 30
0.0
 10
64.01130567521284
 20
51.64471950014114
 30
0.0
  0
ELLIPSE
  5
8D4B
102
{ACAD_REACTORS
330
8E79
102
}
330
2
100
AcDbEntity
  8
KIJUN
100
AcDbEllipse
 10
52.68860050974911
 20
72.5670484853946
 30
0.0
 11
1.04919307521356
 21
0.0000000000000974
 31
0.0
210
0.0
220
0.0
230
1.0
 40
0.8285783594877747
 41
2.946970719153359
 42
4.907010914820847
  0
SPLINE
  5
8D4C
102
{ACAD_REACTORS
330
8E79
102
}
330
2
100
AcDbEntity
  8
KIJUN
100
AcDbSpline
210
0.0
220
0.0
230
1.0
 70
     8
 71
     3
 72
     9
 73
     5
 74
     0
 42
0.0000000001
 43
0.0000000001
 40
0.0
 40
0.0
 40
0.0
 40
0.0
 40
1.482286856470368
 40
3.570460444622455
 40
3.570460444622455
 40
3.570460444622455
 40
3.570460444622455
 10
52.57235294268355
 20
71.70306228704807
 30
0.0
 10
53.18060268472175
 20
71.79706248060051
 30
0.0
 10
54.64572506297066
 20
72.02348557232595
 30
0.0
 10
55.77359438776067
 20
72.84576573290076
 30
0.0
 10
56.43322553938435
 20
73.3266739350795
 30
0.0
  0
ELLIPSE
  5
8D4D
102
{ACAD_REACTORS
330
8E79
102
}
330
2
100
AcDbEntity
  8
KIJUN
100
AcDbEllipse
 10
80.16323091105176
 20
52.77598409544316
 30
0.0
 11
22.41410890092834
 21
0.0000000000021663
 31
0.0
210
0.0
220
0.0
230
1.0
 40
0.8285783594877297
 41
3.221525161926649
 42
3.822672899477466
  0
ELLIPSE
  5
8D4E
102
{ACAD_REACTORS
330
8E79
102
}
330
2
100
AcDbEntity
  8
KIJUN
100
AcDbEllipse
 10
65.80345407232858
 20
58.01312523323679
 30
0.0
 11
11.37990437480668
 21
0.0000000000005692
 31
0.0
210
0.0
220
0.0
230
1.0
 40
0.8285783594877578
 41
2.51454966318733
 42
3.934918107769047
  0
ELLIPSE
  5
8D4F
102
{ACAD_REACTORS
330
8E79
102
}
330
2
100
AcDbEntity
  8
KIJUN
100
AcDbEllipse
 10
63.85876209778189
 20
70.46328014252811
 30
0.0
 11
-11.07066336322686
 21
0.000000000000158
 31
0.0
210
0.0
220
0.0
230
1.0
 40
0.8285783594877738
 41
-0.1367887691349818
 42
0.8543301096761574
  0
SPLINE
  5
8D50
102
{ACAD_REACTORS
330
8E79
102
}
330
2
100
AcDbEntity
  8
KIJUN
100
AcDbSpline
210
0.0
220
0.0
230
1.0
 70
     8
 71
     3
 72
     9
 73
     5
 74
     0
 42
0.0000000001
 43
0.0000000001
 40
0.0
 40
0.0
 40
0.0
 40
0.0
 40
1.482286856470368
 40
3.570460444622455
 40
3.570460444622455
 40
3.570460444622455
 40
3.570460444622455
 10
72.92737963381035
 20
71.70306228704807
 30
0.0
 10
72.31912989177226
 20
71.79706248060051
 30
0.0
 10
70.85400751352334
 20
72.02348557232595
 30
0.0
 10
69.72613818873333
 20
72.84576573290076
 30
0.0
 10
69.06650703710943
 20
73.3266739350795
 30
0.0
  0
ELLIPSE
  5
8D51
102
{ACAD_REACTORS
330
8E79
102
}
330
2
100
AcDbEntity
  8
KIJUN
100
AcDbEllipse
 10
72.81113206674479
 20
72.5670484853946
 30
0.0
 11
1.049193075213537
 21
0.0000000000002107
 31
0.0
210
0.0
220
0.0
230
1.0
 40
0.8285783594877747
 41
4.517767045948284
 42
6.47780724161567
  0
ELLIPSE
  5
8D52
102
{ACAD_REACTORS
330
8E79
102
}
330
2
100
AcDbEntity
  8
KIJUN
100
AcDbEllipse
 10
61.64097047871201
 20
70.46328014252811
 30
0.0
 11
11.07066336322686
 21
0.000000000000158
 31
0.0
210
0.0
220
0.0
230
1.0
 40
0.8285783594877733
 41
-0.8543301096761586
 42
0.1367887691349816
  0
ELLIPSE
  5
8D53
102
{ACAD_REACTORS
330
8E79
102
}
330
2
100
AcDbEntity
  8
KIJUN
100
AcDbEllipse
 10
59.69627850416522
 20
58.01312523323679
 30
0.0
 11
-11.37990437480668
 21
0.000000000000453
 31
0.0
210
0.0
220
0.0
230
1.0
 40
0.8285783594877722
 41
2.348267199410543
 42
3.768635643992228
  0
ELLIPSE
  5
8D54
102
{ACAD_REACTORS
330
8E79
102
}
330
2
100
AcDbEntity
  8
KIJUN
100
AcDbEllipse
 10
45.33650166544214
 20
52.77598409544316
 30
0.0
 11
22.4141089009284
 21
0.0000000000000063
 31
0.0
210
0.0
220
0.0
230
1.0
 40
0.8285783594877619
 41
-0.6810802458877575
 42
-0.0799325083369706
  0
LINE
  5
8D56
102
{ACAD_REACTORS
330
8E79
102
}
330
2
100
AcDbEntity
  8
KIJUN
100
AcDbLine
 10
253.0290467372501
 20
108.824395658047
 30
0.0
 11
257.2253109951529
 21
111.8561184273605
 31
0.0
  0
ELLIPSE
  5
8D57
102
{ACAD_REACTORS
330
8E79
102
}
330
2
100
AcDbEntity
  8
KIJUN
100
AcDbEllipse
 10
221.5064626618289
 20
174.4442429485985
 30
0.0
 11
92.16484976486341
 21
0.0000000000039553
 31
0.0
210
0.0
220
0.0
230
1.0
 40
0.8285783594877564
 41
-1.182680734347657
 42
-1.042957391401047
  0
SPLINE
  5
8D58
102
{ACAD_REACTORS
330
8E79
102
}
330
2
100
AcDbEntity
  8
KIJUN
100
AcDbSpline
210
0.0
220
0.0
230
1.0
 70
     8
 71
     3
 72
    16
 73
    12
 74
     0
 42
0.0000000001
 43
0.0000000001
 40
0.0
 40
0.0
 40
0.0
 40
0.0
 40
1.978621764947525
 40
7.439796170173019
 40
13.77932884406209
 40
19.54589812849894
 40
25.59057848587732
 40
32.86935037507756
 40
36.76461965386518
 40
40.91269384697145
 40
44.26793709050119
 40
44.26793709050119
 40
44.26793709050119
 40
44.26793709050119
 10
230.958072915996
 20
97.24043717851282
 30
0.0
 10
230.5991500088424
 20
97.85128869676965
 30
0.0
 10
229.2495675280791
 20
100.1481454617058
 30
0.0
 10
230.6557293956103
 20
105.3397929133524
 30
0.0
 10
236.9301303767014
 20
109.1063042742991
 30
0.0
 10
244.2859622709995
 20
109.8826992570027
 30
0.0
 10
252.7871705606669
 20
109.6238099655181
 30
0.0
 10
256.7080590973124
 20
103.7019667914575
 30
0.0
 10
258.3508736005265
 20
99.01456304235139
 30
0.0
 10
258.6947306677797
 20
94.26635407320771
 30
0.0
 10
255.3708545757893
 20
93.54838422659156
 30
0.0
 10
253.8845236436168
 20
93.22733110612048
 30
0.0
  0
ELLIPSE
  5
8D59
102
{ACAD_REACTORS
330
8E79
102
}
330
2
100
AcDbEntity
  8
KIJUN
100
AcDbEllipse
 10
248.9852433424555
 20
104.1166619842624
 30
0.0
 11
-19.65748313608549
 21
0.0000000000001452
 31
0.0
210
0.0
220
0.0
230
1.0
 40
0.8285783594877688
 41
3.412286759511501
 42
5.006804779402174
  0
SPLINE
  5
8D5B
102
{ACAD_REACTORS
330
8E79
102
}
330
2
100
AcDbEntity
  8
KIJUN
100
AcDbSpline
210
0.0
220
0.0
230
1.0
 70
     8
 71
     3
 72
    17
 73
    13
 74
     0
 42
0.0000000001
 43
0.0000000001
 40
0.0
 40
0.0
 40
0.0
 40
0.0
 40
2.586091375433957
 40
6.382073038180352
 40
9.627837702785733
 40
12.51897287804625
 40
14.7375521544825
 40
20.88319051122983
 40
34.80960608872674
 40
46.34312256918413
 40
57.31321576094758
 40
63.85897725916173
 40
63.85897725916173
 40
63.85897725916173
 40
63.85897725916173
 10
193.3730890174879
 20
97.24043717851282
 30
0.0
 10
193.5987962995225
 20
98.16490591646505
 30
0.0
 10
194.1558069190536
 20
100.4463516005473
 30
0.0
 10
190.5471123809802
 20
102.6228400389825
 30
0.0
 10
186.6240909185755
 20
104.3996280689026
 30
0.0
 10
183.5521083778561
 20
102.4746286234332
 30
0.0
 10
180.2895183940306
 20
99.77265544049942
 30
0.0
 10
170.4362760054625
 20
99.41517163407013
 30
0.0
 10
156.6134706224493
 20
102.2247818300066
 30
0.0
 10
150.5791894497981
 20
114.4439624488296
 30
0.0
 10
141.3974832759512
 20
121.206286139891
 30
0.0
 10
134.7074108584052
 20
123.4515959924251
 30
0.0
 10
132.2072977194161
 20
124.2906793854088
 30
0.0
  0
SPLINE
  5
8D5C
102
{ACAD_REACTORS
330
8E79
102
}
330
2
100
AcDbEntity
  8
KIJUN
100
AcDbSpline
210
0.0
220
0.0
230
1.0
 70
     8
 71
     3
 72
    10
 73
     6
 74
     0
 42
0.0000000001
 43
0.0000000001
 40
0.0
 40
0.0
 40
0.0
 40
0.0
 40
8.257460148326002
 40
19.84264596165218
 40
27.10752454210181
 40
27.10752454210181
 40
27.10752454210181
 40
27.10752454210181
 10
150.2427796257575
 20
102.3457001785128
 30
0.0
 10
149.7601240418474
 20
105.1551647185084
 30
0.0
 10
148.6003044725232
 20
111.9062975375086
 30
0.0
 10
141.3298113393736
 20
119.6239157610048
 30
0.0
 10
134.7450767167855
 20
122.9924390971411
 30
0.0
 10
132.2072977194161
 20
124.2906793854088
 30
0.0
  0
SPLINE
  5
8D5D
102
{ACAD_REACTORS
330
8E79
102
}
330
2
100
AcDbEntity
  8
KIJUN
100
AcDbSpline
210
0.0
220
0.0
230
1.0
 70
     8
 71
     3
 72
    11
 73
     7
 74
     0
 42
0.0000000001
 43
0.0000000001
 40
0.0
 40
0.0
 40
0.0
 40
0.0
 40
5.563486307153683
 40
16.77855928428098
 40
31.0527745428903
 40
43.13439870509305
 40
43.13439870509305
 40
43.13439870509305
 40
43.13439870509305
 10
147.7781905176584
 20
100.3035949785129
 30
0.0
 10
147.5953152186763
 20
102.1989810874751
 30
0.0
 10
147.0437934073154
 20
107.9151537245736
 30
0.0
 10
140.6668693261245
 20
117.6335739648093
 30
0.0
 10
127.8067559771812
 20
125.2655142392187
 30
0.0
 10
117.6936846460635
 20
128.4809339448912
 30
0.0
 10
113.0578115479891
 20
129.9548954373489
 30
0.0
  0
ELLIPSE
  5
8D5F
102
{ACAD_REACTORS
330
8E79
102
}
330
2
100
AcDbEntity
  8
KIJUN
100
AcDbEllipse
 10
136.4642517967983
 20
103.986889915604
 30
0.0
 11
-12.15590672805219
 21
0.0000000000000466
 31
0.0
210
0.0
220
0.0
230
1.0
 40
0.8285783594877653
 41
1.060424155362357
 42
2.767216379068853
  0
SPLINE
  5
8D61
102
{ACAD_REACTORS
330
8E79
102
}
330
2
100
AcDbEntity
  8
KIJUN
100
AcDbSpline
210
0.0
220
0.0
230
1.0
 70
     8
 71
     3
 72
    15
 73
    11
 74
     0
 42
0.0000000001
 43
0.0000000001
 40
0.0
 40
0.0
 40
0.0
 40
0.0
 40
3.944153969757698
 40
8.057646281266752
 40
9.682256321609807
 40
11.30679795393228
 40
19.1131414644558
 40
37.90580864985397
 40
51.28201847232595
 40
66.72834797736391
 40
66.72834797736391
 40
66.72834797736391
 40
66.72834797736391
 10
121.5132542016407
 20
98.03690863608665
 30
0.0
 10
119.9718251527391
 20
97.9321606885486
 30
0.0
 10
116.8227873263882
 20
97.71816754415809
 30
0.0
 10
112.0057369457489
 20
101.2802827466446
 30
0.0
 10
115.0410418792451
 20
102.7990854606728
 30
0.0
 10
118.1132636715965
 20
105.567304187244
 30
0.0
 10
114.2050728826502
 20
116.9336127833588
 30
0.0
 10
99.50793176987737
 20
123.8445264717895
 30
0.0
 10
81.00524704647773
 20
129.3062174850453
 30
0.0
 10
69.11954850213361
 20
129.9388374298936
 30
0.0
 10
62.74986628824695
 20
130.2778657163521
 30
0.0
  0
SPLINE
  5
8D62
102
{ACAD_REACTORS
330
8E79
102
}
330
2
100
AcDbEntity
  8
KIJUN
100
AcDbSpline
210
0.0
220
0.0
230
1.0
 70
     8
 71
     3
 72
     9
 73
     5
 74
     0
 42
0.0000000001
 43
0.0000000001
 40
0.0
 40
0.0
 40
0.0
 40
0.0
 40
3.805237203731056
 40
7.136893586061749
 40
7.136893586061749
 40
7.136893586061749
 40
7.136893586061749
 10
81.96803412024747
 20
77.50958392615519
 30
0.0
 10
80.26022810594952
 20
77.63866430167479
 30
0.0
 10
77.05716108617764
 20
77.8807603537234
 30
0.0
 10
75.96079192628916
 20
80.3505536425323
 30
0.0
 10
75.44898307487709
 20
81.50350660091303
 30
0.0
  0
SPLINE
  5
8D63
102
{ACAD_REACTORS
330
8E79
102
}
330
2
100
AcDbEntity
  8
KIJUN
100
AcDbSpline
210
0.0
220
0.0
230
1.0
 70
     8
 71
     3
 72
    10
 73
     6
 74
     0
 42
0.0000000001
 43
0.0000000001
 40
0.0
 40
0.0
 40
0.0
 40
0.0
 40
4.835437932009343
 40
8.044111472610222
 40
11.65418574625073
 40
11.65418574625073
 40
11.65418574625073
 40
11.65418574625073
 10
74.05281634342566
 20
87.69807646248343
 30
0.0
 10
74.55712227465188
 20
86.15460371602228
 30
0.0
 10
75.39607278629579
 20
83.58692173932274
 30
0.0
 10
77.74282323540933
 20
79.55634850392766
 30
0.0
 10
80.83138875766223
 20
79.76962646013895
 30
0.0
 10
82.46657915303819
 20
79.8825429785129
 30
0.0
  0
ELLIPSE
  5
8D64
102
{ACAD_REACTORS
330
8E79
102
}
330
2
100
AcDbEntity
  8
KIJUN
100
AcDbEllipse
 10
87.28917844321335
 20
89.03104698356299
 30
0.0
 11
11.03518402000979
 21
0.0000000000002163
 31
0.0
210
0.0
220
0.0
230
1.0
 40
0.8285783594877639
 41
2.259687871976734
 42
4.018972784172746
  0
ELLIPSE
  5
8D65
102
{ACAD_REACTORS
330
8E79
102
}
330
2
100
AcDbEntity
  8
KIJUN
100
AcDbEllipse
 10
60.8010576721249
 20
66.28416840775265
 30
0.0
 11
-69.42771645468782
 21
0.0000000000007905
 31
0.0
210
0.0
220
0.0
230
1.0
 40
0.8285783594877626
 41
4.138621804555452
 42
4.684315687492823
  0
SPLINE
  5
8D66
102
{ACAD_REACTORS
330
8E79
102
}
330
2
100
AcDbEntity
  8
KIJUN
100
AcDbSpline
210
0.0
220
0.0
230
1.0
 70
     8
 71
     3
 72
    13
 73
     9
 74
     0
 42
0.0000000001
 43
0.0000000001
 40
0.0
 40
0.0
 40
0.0
 40
0.0
 40
4.038930249682135
 40
7.545747106173172
 40
11.68326936901122
 40
17.06249284905636
 40
20.81934850256704
 40
25.8815349550998
 40
25.8815349550998
 40
25.8815349550998
 40
25.8815349550998
 10
62.74986628824695
 20
105.4088579785128
 30
0.0
 10
64.52946245991677
 20
105.2227940803369
 30
0.0
 10
67.85419991077811
 20
104.8751794808189
 30
0.0
 10
69.76476916862214
 20
100.5529025246372
 30
0.0
 10
75.79657894274965
 20
100.0934980834456
 30
0.0
 10
79.00932343514639
 20
96.0177727274663
 30
0.0
 10
85.13554297303029
 20
94.79509220910983
 30
0.0
 10
86.57150563618428
 20
91.80779604297844
 30
0.0
 10
87.39575736923573
 20
90.09306897851287
 30
0.0
  0
SPLINE
  5
8D67
102
{ACAD_REACTORS
330
8E79
102
}
330
2
100
AcDbEntity
  8
KIJUN
100
AcDbSpline
210
0.0
220
0.0
230
1.0
 70
     8
 71
     3
 72
    13
 73
     9
 74
     0
 42
0.0000000001
 43
0.0000000001
 40
0.0
 40
0.0
 40
0.0
 40
0.0
 40
4.038930249682135
 40
7.545747106173172
 40
11.68326936901122
 40
17.06249284905636
 40
20.81934850256704
 40
25.8815349550998
 40
25.8815349550998
 40
25.8815349550998
 40
25.8815349550998
 10
62.74986628824695
 20
105.4088579785128
 30
0.0
 10
60.97027011657725
 20
105.2227940803369
 30
0.0
 10
57.64553266571602
 20
104.8751794808189
 30
0.0
 10
55.73496340787129
 20
100.5529025246372
 30
0.0
 10
49.70315363374448
 20
100.0934980834456
 30
0.0
 10
46.49040914134718
 20
96.0177727274663
 30
0.0
 10
40.36418960346373
 20
94.79509220910983
 30
0.0
 10
38.92822694030964
 20
91.80779604297844
 30
0.0
 10
38.10397520725803
 20
90.09306897851287
 30
0.0
  0
ELLIPSE
  5
8D68
102
{ACAD_REACTORS
330
8E79
102
}
330
2
100
AcDbEntity
  8
KIJUN
100
AcDbEllipse
 10
64.698674904369
 20
66.28416840775265
 30
0.0
 11
69.42771645468785
 21
0.0000000000004513
 31
0.0
210
0.0
220
0.0
230
1.0
 40
0.8285783594877621
 41
1.598869619686764
 42
2.144563502624138
  0
SPLINE
  5
8D69
102
{ACAD_REACTORS
330
8E79
102
}
330
2
100
AcDbEntity
  8
KIJUN
100
AcDbSpline
210
0.0
220
0.0
230
1.0
 70
     8
 71
     3
 72
    11
 73
     7
 74
     0
 42
0.0000000001
 43
0.0000000001
 40
0.0
 40
0.0
 40
0.0
 40
0.0
 40
1.878258510243963
 40
5.050962094883439
 40
7.205162610208728
 40
8.259858756911272
 40
8.259858756911272
 40
8.259858756911272
 40
8.259858756911272
 10
38.10397520725803
 20
90.09306897851287
 30
0.0
 10
38.40748841833658
 20
89.47896596703015
 30
0.0
 10
39.22368795428577
 20
87.82753672210118
 30
0.0
 10
43.13002900727087
 20
87.43866338177587
 30
0.0
 10
44.85883824458471
 20
89.55059796603675
 30
0.0
 10
44.63829629743871
 20
90.64284789867169
 30
0.0
 10
44.56580884572566
 20
91.00184724222115
 30
0.0
  0
SPLINE
  5
8D6A
102
{ACAD_REACTORS
330
8E79
102
}
330
2
100
AcDbEntity
  8
KIJUN
100
AcDbSpline
210
0.0
220
0.0
230
1.0
 70
     8
 71
     3
 72
    11
 73
     7
 74
     0
 42
0.0000000001
 43
0.0000000001
 40
0.0
 40
0.0
 40
0.0
 40
0.0
 40
1.739426392505432
 40
3.948969685542656
 40
5.838210170738879
 40
6.822307278383127
 40
6.822307278383127
 40
6.822307278383127
 40
6.822307278383127
 10
43.03315342345571
 20
79.8825429785129
 30
0.0
 10
42.4449064853087
 20
80.28620937263632
 30
0.0
 10
41.10942638890231
 20
81.20264157139729
 30
0.0
 10
42.22368140251274
 20
83.79331877743856
 30
0.0
 10
45.2673979382905
 20
83.42494130325484
 30
0.0
 10
45.26478697198956
 20
82.36283528383216
 30
0.0
 10
45.2638927351304
 20
81.99907174127815
 30
0.0
  0
ELLIPSE
  5
8D6B
102
{ACAD_REACTORS
330
8E79
102
}
330
2
100
AcDbEntity
  8
KIJUN
100
AcDbEllipse
 10
38.21055413328054
 20
89.03104698356299
 30
0.0
 11
-11.03518402000967
 21
0.0000000000002212
 31
0.0
210
0.0
220
0.0
230
1.0
 40
0.828578359487769
 41
2.264212523006833
 42
4.023497435202854
  0
SPLINE
  5
8D6C
102
{ACAD_REACTORS
330
8E79
102
}
330
2
100
AcDbEntity
  8
KIJUN
100
AcDbSpline
210
0.0
220
0.0
230
1.0
 70
     8
 71
     3
 72
    10
 73
     6
 74
     0
 42
0.0000000001
 43
0.0000000001
 40
0.0
 40
0.0
 40
0.0
 40
0.0
 40
4.835437932009343
 40
8.044111472610222
 40
11.65418574625073
 40
11.65418574625073
 40
11.65418574625073
 40
11.65418574625073
 10
51.44691623306812
 20
87.69807646248343
 30
0.0
 10
50.94261030184191
 20
86.15460371602228
 30
0.0
 10
50.10365979019775
 20
83.58692173932274
 30
0.0
 10
47.75690934108456
 20
79.55634850392766
 30
0.0
 10
44.66834381883153
 20
79.76962646013895
 30
0.0
 10
43.03315342345571
 20
79.8825429785129
 30
0.0
  0
SPLINE
  5
8D6D
102
{ACAD_REACTORS
330
8E79
102
}
330
2
100
AcDbEntity
  8
KIJUN
100
AcDbSpline
210
0.0
220
0.0
230
1.0
 70
     8
 71
     3
 72
     9
 73
     5
 74
     0
 42
0.0000000001
 43
0.0000000001
 40
0.0
 40
0.0
 40
0.0
 40
0.0
 40
3.805237203731056
 40
7.136893586061749
 40
7.136893586061749
 40
7.136893586061749
 40
7.136893586061749
 10
43.53169845624643
 20
77.50958392615519
 30
0.0
 10
45.23950447054426
 20
77.63866430167479
 30
0.0
 10
48.44257149031625
 20
77.8807603537234
 30
0.0
 10
49.53894065020461
 20
80.3505536425323
 30
0.0
 10
50.05074950161668
 20
81.50350660091303
 30
0.0
  0
ELLIPSE
  5
8D6E
102
{ACAD_REACTORS
330
8E79
102
}
330
2
100
AcDbEntity
  8
KIJUN
100
AcDbEllipse
 10
30.71020788296142
 20
105.9655292992147
 30
0.0
 11
-20.53363076447212
 21
0.0000000000000195
 31
0.0
210
0.0
220
0.0
230
1.0
 40
0.828578359487752
 41
1.202441766047027
 42
1.939150887542749
  0
SPLINE
  5
8D6F
102
{ACAD_REACTORS
330
8E79
102
}
330
2
100
AcDbEntity
  8
KIJUN
100
AcDbSpline
210
0.0
220
0.0
230
1.0
 70
     8
 71
     3
 72
    12
 73
     8
 74
     0
 42
0.0000000001
 43
0.0000000001
 40
0.0
 40
0.0
 40
0.0
 40
0.0
 40
2.877957777216571
 40
6.907897244444623
 40
13.66158431967779
 40
23.03592971397494
 40
30.48014214844654
 40
30.48014214844654
 40
30.48014214844654
 40
30.48014214844654
 10
130.5260667609623
 20
95.19833197851472
 30
0.0
 10
129.9635674721952
 20
96.199485368861
 30
0.0
 10
128.6134130961869
 20
98.6025313069182
 30
0.0
 10
134.776122080481
 20
101.4886470596541
 30
0.0
 10
134.4871476114791
 20
109.071250140431
 30
0.0
 10
131.3881800300386
 20
116.9468899979641
 30
0.0
 10
125.5831147968184
 20
120.3106819607207
 30
0.0
 10
123.013682909018
 20
121.7995600328521
 30
0.0
  0
SPLINE
  5
8D70
102
{ACAD_REACTORS
330
8E79
102
}
330
2
100
AcDbEntity
  8
KIJUN
100
AcDbSpline
210
0.0
220
0.0
230
1.0
 70
     8
 71
     3
 72
    14
 73
    10
 74
     0
 42
0.0000000001
 43
0.0000000001
 40
0.0
 40
0.0
 40
0.0
 40
0.0
 40
2.360804937749884
 40
4.888519026478915
 40
8.32072882437896
 40
11.61083366616766
 40
15.20348331780696
 40
29.23153594141169
 40
41.54243384795474
 40
41.54243384795474
 40
41.54243384795474
 40
41.54243384795474
 10
116.9708266664254
 20
92.13517417851743
 30
0.0
 10
116.2060172169925
 20
92.60739760017726
 30
0.0
 10
114.6223262116921
 20
93.58523068779094
 30
0.0
 10
113.7916005448173
 20
97.45931990097837
 30
0.0
 10
119.0225035605897
 20
96.43575547486321
 30
0.0
 10
122.900767458198
 20
98.57990660041584
 30
0.0
 10
123.0312843019639
 20
106.1986097696809
 30
0.0
 10
119.6563662808605
 20
116.7835077921326
 30
0.0
 10
109.7359446218127
 20
121.190129400276
 30
0.0
 10
105.0991122584803
 20
123.2497964575691
 30
0.0
  0
SPLINE
  5
8D71
102
{ACAD_REACTORS
330
8E79
102
}
330
2
100
AcDbEntity
  8
KIJUN
100
AcDbSpline
210
0.0
220
0.0
230
1.0
 70
     8
 71
     3
 72
    11
 73
     7
 74
     0
 42
0.0000000001
 43
0.0000000001
 40
0.0
 40
0.0
 40
0.0
 40
0.0
 40
1.739426392505432
 40
3.948969685542656
 40
5.838210170738879
 40
6.822307278383127
 40
6.822307278383127
 40
6.822307278383127
 40
6.822307278383127
 10
82.46657915303819
 20
79.8825429785129
 30
0.0
 10
83.05482609118508
 20
80.28620937263632
 30
0.0
 10
84.39030618759181
 20
81.20264157139729
 30
0.0
 10
83.27605117398094
 20
83.79331877743856
 30
0.0
 10
80.23233463820373
 20
83.42494130325484
 30
0.0
 10
80.23494560450409
 20
82.36283528383216
 30
0.0
 10
80.23583984136337
 20
81.99907174127815
 30
0.0
  0
SPLINE
  5
8D72
102
{ACAD_REACTORS
330
8E79
102
}
330
2
100
AcDbEntity
  8
KIJUN
100
AcDbSpline
210
0.0
220
0.0
230
1.0
 70
     8
 71
     3
 72
    11
 73
     7
 74
     0
 42
0.0000000001
 43
0.0000000001
 40
0.0
 40
0.0
 40
0.0
 40
0.0
 40
1.878258510243963
 40
5.050962094883439
 40
7.205162610208728
 40
8.259858756911272
 40
8.259858756911272
 40
8.259858756911272
 40
8.259858756911272
 10
87.39575736923573
 20
90.09306897851287
 30
0.0
 10
87.0922441581572
 20
89.47896596703015
 30
0.0
 10
86.27604462220778
 20
87.82753672210118
 30
0.0
 10
82.3697035692229
 20
87.43866338177587
 30
0.0
 10
80.6408943319092
 20
89.55059796603675
 30
0.0
 10
80.86143627905494
 20
90.64284789867169
 30
0.0
 10
80.93392373076813
 20
91.00184724222115
 30
0.0
  0
ELLIPSE
  5
8D73
102
{ACAD_REACTORS
330
8E79
102
}
330
2
100
AcDbEntity
  8
KIJUN
100
AcDbEllipse
 10
122.7986462303264
 20
96.55236154179512
 30
0.0
 11
-7.898323035367798
 21
0.0000000000001653
 31
0.0
210
0.0
220
0.0
230
1.0
 40
0.8285783594877809
 41
0.7409090289433449
 42
2.933187722948341
  0
ELLIPSE
  5
8D74
102
{ACAD_REACTORS
330
8E79
102
}
330
2
100
AcDbEntity
  8
KIJUN
100
AcDbEllipse
 10
90.61913201105872
 20
103.601509475462
 30
0.0
 11
-29.76436940664239
 21
0.0000000000002926
 31
0.0
210
0.0
220
0.0
230
1.0
 40
0.8285783594877711
 41
1.293347333080467
 42
2.658028893079515
  0
ELLIPSE
  5
8D75
102
{ACAD_REACTORS
330
8E79
102
}
330
2
100
AcDbEntity
  8
KIJUN
100
AcDbEllipse
 10
94.78952469353249
 20
105.9655292992147
 30
0.0
 11
20.53363076447213
 21
0.0000000000000149
 31
0.0
210
0.0
220
0.0
230
1.0
 40
0.8285783594877516
 41
4.344034419636837
 42
5.080743541132558
  0
ELLIPSE
  5
8D76
102
{ACAD_REACTORS
330
8E79
102
}
330
2
100
AcDbEntity
  8
KIJUN
100
AcDbEllipse
 10
87.15216425971719
 20
100.980339143628
 30
0.0
 11
-19.9646309524124
 21
0.0000000000001564
 31
0.0
210
0.0
220
0.0
230
1.0
 40
0.8285783594877706
 41
2.423235275633031
 42
4.108660020639677
  0
SPLINE
  5
8D77
102
{ACAD_REACTORS
330
8E79
102
}
330
2
100
AcDbEntity
  8
KIJUN
100
AcDbSpline
210
0.0
220
0.0
230
1.0
 70
     8
 71
     3
 72
    11
 73
     7
 74
     0
 42
0.0000000001
 43
0.0000000001
 40
0.0
 40
0.0
 40
0.0
 40
0.0
 40
3.538989019227948
 40
8.259645460392111
 40
13.68058026058861
 40
19.37739701543096
 40
19.37739701543096
 40
19.37739701543096
 40
19.37739701543096
 10
211.2413600512048
 20
112.5562261785129
 30
0.0
 10
211.5861457880287
 20
111.2679615662642
 30
0.0
 10
212.3908411206482
 20
108.2612811559745
 30
0.0
 10
206.4847374911801
 20
105.5946855554378
 30
0.0
 10
200.4738360207629
 20
104.2085897971276
 30
0.0
 10
195.848708103627
 20
104.0930073033716
 30
0.0
 10
193.4787589208996
 20
104.0337819929538
 30
0.0
  0
ELLIPSE
  5
8D78
102
{ACAD_REACTORS
330
8E79
102
}
330
2
100
AcDbEntity
  8
KIJUN
100
AcDbEllipse
 10
204.8081696929446
 20
159.8753022625485
 30
0.0
 11
74.63863469125105
 21
0.0000000000009161
 31
0.0
210
0.0
220
0.0
230
1.0
 40
0.828578359487799
 41
4.562510339324339
 42
4.79868721457333
  0
SPLINE
  5
8D79
102
{ACAD_REACTORS
330
8E79
102
}
330
2
100
AcDbEntity
  8
KIJUN
100
AcDbSpline
210
0.0
220
0.0
230
1.0
 70
     8
 71
     3
 72
    10
 73
     6
 74
     0
 42
0.0000000001
 43
0.0000000001
 40
0.0
 40
0.0
 40
0.0
 40
0.0
 40
9.123046104142312
 40
14.10211928390164
 40
16.4697311326627
 40
16.4697311326627
 40
16.4697311326627
 40
16.4697311326627
 10
193.3730890174879
 20
97.24043717851282
 30
0.0
 10
196.704847862177
 20
96.60793992218069
 30
0.0
 10
201.854976461403
 20
95.63024544889641
 30
0.0
 10
210.7218118764961
 20
94.60925801489249
 30
0.0
 10
211.11473344817
 20
97.37135153101974
 30
0.0
 10
211.2413600512049
 20
98.26148977851289
 30
0.0
  0
SPLINE
  5
8D7A
102
{ACAD_REACTORS
330
8E79
102
}
330
2
100
AcDbEntity
  8
KIJUN
100
AcDbSpline
210
0.0
220
0.0
230
1.0
 70
     8
 71
     3
 72
    16
 73
    12
 74
     0
 42
0.0000000001
 43
0.0000000001
 40
0.0
 40
0.0
 40
0.0
 40
0.0
 40
2.592641565017095
 40
3.869096403543973
 40
4.964856382086088
 40
7.097626517589397
 40
9.041126544873595
 40
16.60463153276753
 40
23.76100531675318
 40
32.62687508664392
 40
40.94592603697956
 40
40.94592603697956
 40
40.94592603697956
 40
40.94592603697956
 10
181.9385857138334
 20
101.2133068578837
 30
0.0
 10
182.6489869718718
 20
101.9977367218591
 30
0.0
 10
183.7091454564217
 20
103.1683708760334
 30
0.0
 10
182.7684421664937
 20
104.8281928218246
 30
0.0
 10
180.9990554833776
 20
105.7593229536056
 30
0.0
 10
179.1861309106223
 20
104.1980454886241
 30
0.0
 10
175.5337085430386
 20
101.7808918934299
 30
0.0
 10
167.6755472020248
 20
103.3070620032696
 30
0.0
 10
159.3117066391751
 20
107.1508197620251
 30
0.0
 10
153.717351539207
 20
114.360312739591
 30
0.0
 10
148.2884253377325
 20
118.1079855219457
 30
0.0
 10
145.6603356065695
 20
119.922197023364
 30
0.0
  0
SPLINE
  5
8D7B
102
{ACAD_REACTORS
330
8E79
102
}
330
2
100
AcDbEntity
  8
KIJUN
100
AcDbSpline
210
0.0
220
0.0
230
1.0
 70
     8
 71
     3
 72
    10
 73
     6
 74
     0
 42
0.0000000001
 43
0.0000000001
 40
0.0
 40
0.0
 40
0.0
 40
0.0
 40
1.937717373376967
 40
9.479872025543626
 40
17.72847306352516
 40
17.72847306352516
 40
17.72847306352516
 40
17.72847306352516
 10
168.7271979364991
 20
96.21938457851285
 30
0.0
 10
167.9901121434738
 20
96.46724636746649
 30
0.0
 10
164.384075945559
 20
97.67985769643793
 30
0.0
 10
157.5697585955425
 20
99.94276544888613
 30
0.0
 10
152.4391937751104
 20
103.2777221411116
 30
0.0
 10
149.7591458322716
 20
105.0198000867717
 30
0.0
  0
ELLIPSE
  5
8D7C
102
{ACAD_REACTORS
330
8E79
102
}
330
2
100
AcDbEntity
  8
KIJUN
100
AcDbEllipse
 10
179.7666421521998
 20
117.9995393204718
 30
0.0
 11
-28.51021326140187
 21
0.000000000000179
 31
0.0
210
0.0
220
0.0
230
1.0
 40
0.8285783594877639
 41
1.173192549456524
 42
2.068316895577165
  0
SPLINE
  5
8D7D
102
{ACAD_REACTORS
330
8E79
102
}
330
2
100
AcDbEntity
  8
KIJUN
100
AcDbSpline
210
0.0
220
0.0
230
1.0
 70
     8
 71
     3
 72
     9
 73
     5
 74
     0
 42
0.0000000001
 43
0.0000000001
 40
0.0
 40
0.0
 40
0.0
 40
0.0
 40
15.61402645171171
 40
17.51378540145741
 40
17.51378540145741
 40
17.51378540145741
 40
17.51378540145741
 10
150.2427796257575
 20
102.3457001785128
 30
0.0
 10
156.5025799768867
 20
96.9235474858722
 30
0.0
 10
163.5240103776036
 20
90.84168135310198
 30
0.0
 10
168.21802753704
 20
95.69313652989638
 30
0.0
 10
168.7271979364991
 20
96.21938457851285
 30
0.0
  0
ELLIPSE
  5
8D7E
102
{ACAD_REACTORS
330
8E79
102
}
330
2
100
AcDbEntity
  8
KIJUN
100
AcDbEllipse
 10
147.6945267613705
 20
102.4150221564467
 30
0.0
 11
2.549625910790206
 21
0.0000000000000454
 31
0.0
210
0.0
220
0.0
230
1.0
 40
0.8285783594877791
 41
-1.537976304998465
 42
-0.032820021796588
  0
LINE
  5
8D7F
102
{ACAD_REACTORS
330
8E79
102
}
330
2
100
AcDbEntity
  8
KIJUN
100
AcDbLine
 10
249.8148867687121
 20
110.0814510985546
 30
0.0
 11
250.7077090403813
 21
114.5181191402191
 31
0.0
  0
LINE
  5
8D80
102
{ACAD_REACTORS
330
8E79
102
}
330
2
100
AcDbEntity
  8
KIJUN
100
AcDbLine
 10
237.1368130246664
 20
109.5638397709572
 30
0.0
 11
235.0833224282415
 21
114.7399524862322
 31
0.0
  0
LINE
  5
8D81
102
{ACAD_REACTORS
330
8E79
102
}
330
2
100
AcDbEntity
  8
KIJUN
100
AcDbLine
 10
234.3690641919628
 20
108.3067843304494
 30
0.0
 11
230.17279993406
 21
113.3350077745821
 31
0.0
  0
ELLIPSE
  5
8D82
102
{ACAD_REACTORS
330
8E79
102
}
330
2
100
AcDbEntity
  8
KIJUN
100
AcDbEllipse
 10
284.5468438323317
 20
114.241805394057
 30
0.0
 11
-41.78898937124315
 21
0.000000000000049
 31
0.0
210
0.0
220
0.0
230
1.0
 40
0.8285783594876981
 41
-0.1584007069241688
 42
0.132804722309253
  0
ELLIPSE
  5
8D83
102
{ACAD_REACTORS
330
8E79
102
}
330
2
100
AcDbEntity
  8
KIJUN
100
AcDbEllipse
 10
220.1084083703495
 20
90.30935567581794
 30
0.0
 11
-21.99939642922161
 21
0.0000000000023803
 31
0.0
210
0.0
220
0.0
230
1.0
 40
0.8285783594877104
 41
4.137353307752865
 42
4.681030262468174
  0
ELLIPSE
  5
8D84
102
{ACAD_REACTORS
330
8E79
102
}
330
2
100
AcDbEntity
  8
KIJUN
100
AcDbEllipse
 10
247.7869183071978
 20
107.0141930213888
 30
0.0
 11
-27.05056860843791
 21
0.000000000002158
 31
0.0
210
0.0
220
0.0
230
1.0
 40
0.8285783594877342
 41
-0.345187833447403
 42
-0.0676189921104122
  0
ELLIPSE
  5
8D85
102
{ACAD_REACTORS
330
8E79
102
}
330
2
100
AcDbEntity
  8
KIJUN
100
AcDbEllipse
 10
224.9785913241035
 20
101.9075902184214
 30
0.0
 11
9.018274539075523
 21
0.0000000000001888
 31
0.0
210
0.0
220
0.0
230
1.0
 40
0.8285783594877722
 41
2.052794046492179
 42
3.357933780038807
  0
ELLIPSE
  5
8D86
102
{ACAD_REACTORS
330
8E79
102
}
330
2
100
AcDbEntity
  8
KIJUN
100
AcDbEllipse
 10
207.4762297884918
 20
109.9462483256909
 30
0.0
 11
4.909009218209714
 21
0.0000000000000962
 31
0.0
210
0.0
220
0.0
230
1.0
 40
0.8285783594877663
 41
0.6966691350310854
 42
3.001522836568906
  0
ELLIPSE
  5
8D87
102
{ACAD_REACTORS
330
8E79
102
}
330
2
100
AcDbEntity
  8
KIJUN
100
AcDbEllipse
 10
217.845024827419
 20
109.6311521575406
 30
0.0
 11
-7.48805235021734
 21
0.0000000000002715
 31
0.0
210
0.0
220
0.0
230
1.0
 40
0.8285783594877658
 41
4.069863269350308
 42
5.792252583167022
  0
ELLIPSE
  5
8D88
102
{ACAD_REACTORS
330
8E79
102
}
330
2
100
AcDbEntity
  8
KIJUN
100
AcDbEllipse
 10
234.7476140245638
 20
111.6825631716876
 30
0.0
 11
12.90467228104497
 21
0.000000000000061
 31
0.0
210
0.0
220
0.0
230
1.0
 40
0.8285783594877669
 41
0.8482928731541583
 42
2.865402663870261
  0
ELLIPSE
  5
8D8A
102
{ACAD_REACTORS
330
8E79
102
}
330
2
100
AcDbEntity
  8
KIJUN
100
AcDbEllipse
 10
246.2943134371264
 20
99.72321806814809
 30
0.0
 11
5.656304544076983
 21
0.0000000000003206
 31
0.0
210
0.0
220
0.0
230
1.0
 40
0.8285783594877964
 41
0.1241538077790891
 42
1.667956961363481
  0
ELLIPSE
  5
8D8C
102
{ACAD_REACTORS
330
8E79
102
}
330
2
100
AcDbEntity
  8
KIJUN
100
AcDbEllipse
 10
225.2337273009448
 20
104.305002883072
 30
0.0
 11
10.2695181379068
 21
0.0000000000002492
 31
0.0
210
0.0
220
0.0
230
1.0
 40
0.8285783594877724
 41
3.631167138229031
 42
5.303653496286546
  0
LINE
  5
8D8D
102
{ACAD_REACTORS
330
8E79
102
}
330
2
100
AcDbEntity
  8
KIJUN
100
AcDbLine
 10
211.2413600512049
 20
98.26148977851289
 30
0.0
 11
216.1705382674027
 21
100.3035949785129
 31
0.0
  0
LINE
  5
8D8E
102
{ACAD_REACTORS
330
8E79
102
}
330
2
100
AcDbEntity
  8
KIJUN
100
AcDbLine
 10
260.0823418455516
 20
97.28905942256027
 30
0.0
 11
268.8319984321386
 21
96.47567067407884
 31
0.0
  0
LINE
  5
8D8F
102
{ACAD_REACTORS
330
8E79
102
}
330
2
100
AcDbEntity
  8
KIJUN
100
AcDbLine
 10
259.2788015915776
 20
99.06372675136616
 30
0.0
 11
266.6892247706607
 21
100.7644494446007
 31
0.0
  0
SPLINE
  5
8D90
102
{ACAD_REACTORS
330
8E79
102
}
330
2
100
AcDbEntity
  8
KIJUN
100
AcDbSpline
210
0.0
220
0.0
230
1.0
 70
     8
 71
     3
 72
    10
 73
     6
 74
     0
 42
0.0000000001
 43
0.0000000001
 40
0.0
 40
0.0
 40
0.0
 40
0.0
 40
4.548082061862598
 40
10.23394251137258
 40
15.37230316540545
 40
15.37230316540545
 40
15.37230316540545
 40
15.37230316540545
 10
258.0685531050838
 20
88.0509637785127
 30
0.0
 10
259.9646525463736
 20
87.62999071008525
 30
0.0
 10
264.2311922468597
 20
86.68273115704209
 30
0.0
 10
269.6478292268712
 20
90.31397811567751
 30
0.0
 10
272.6589667169822
 20
92.93368135000424
 30
0.0
 10
274.0883823077265
 20
94.17727937851273
 30
0.0
  0
ELLIPSE
  5
8D91
102
{ACAD_REACTORS
330
8E79
102
}
330
2
100
AcDbEntity
  8
KIJUN
100
AcDbEllipse
 10
263.5945834164177
 20
99.1309678748861
 30
0.0
 11
-12.07736520845715
 21
0.0000000000003923
 31
0.0
210
0.0
220
0.0
230
1.0
 40
0.8285783594877768
 41
2.623734591579979
 42
4.345498596441054
  0
SPLINE
  5
8D96
102
{ACAD_REACTORS
330
8E79
102
}
330
2
100
AcDbEntity
  8
KIJUN
100
AcDbSpline
210
0.0
220
0.0
230
1.0
 70
     8
 71
     3
 72
    20
 73
    16
 74
     0
 42
0.0000000001
 43
0.0000000001
 40
0.0
 40
0.0
 40
0.0
 40
0.0
 40
8.396930361839379
 40
13.8027856282323
 40
20.3581764476462
 40
24.03130348473588
 40
25.69956916377005
 40
28.63149017518021
 40
31.46611901997476
 40
35.12920939222963
 40
44.97794332285411
 40
57.34165276897241
 40
73.82262125100464
 40
86.66328450175742
 40
99.97407878127228
 40
99.97407878127228
 40
99.97407878127228
 40
99.97407878127228
 10
-1.670076662911014
 20
121.7995600328521
 30
0.0
 10
-4.137228803798392
 20
119.5783474063938
 30
0.0
 10
-8.192707490112411
 20
115.9271415017863
 30
0.0
 10
-9.925508104924119
 20
109.0894815952526
 30
0.0
 10
-10.65211459630393
 20
103.4621090433199
 30
0.0
 10
-8.22379308625193
 20
100.0258377835533
 30
0.0
 10
-4.802198442768029
 20
97.77202363842869
 30
0.0
 10
-2.819730621121948
 20
101.6392932383957
 30
0.0
 10
-5.948377954365922
 20
103.9078737370681
 30
0.0
 10
-7.937610803223036
 20
109.5639267919843
 30
0.0
 10
-2.45366180362373
 20
118.1295977295556
 30
0.0
 10
9.758010102255523
 20
127.3410339275576
 30
0.0
 10
27.05334318180508
 20
131.6674608946353
 30
0.0
 10
45.41874557607069
 20
134.0183737828022
 30
0.0
 10
56.18526827720677
 20
134.3389512745132
 30
0.0
 10
62.74986628824684
 20
134.4589423541272
 30
0.0
  0
ARC
  5
8D97
102
{ACAD_REACTORS
330
8E79
102
}
330
2
100
AcDbEntity
  8
KIJUN
100
AcDbCircle
 10
62.74986628824684
 20
-137.1010477491504
 30
0.0
 40
273.1835919276633
100
AcDbArc
 50
75.8224502794378
 51
104.1775497205622
  0
ARC
  5
8D98
102
{ACAD_REACTORS
330
8E79
102
}
330
2
100
AcDbEntity
  8
KIJUN
100
AcDbCircle
 10
-72.05376381454342
 20
113.0192025495236
 30
0.0
 40
5.647766899923309
100
AcDbArc
 50
206.3307702840645
 51
255.2242469231312
  0
ARC
  5
8D99
102
{ACAD_REACTORS
330
8E79
102
}
330
2
100
AcDbEntity
  8
KIJUN
100
AcDbCircle
 10
-65.59747157995396
 20
155.5634132243243
 30
0.0
 40
48.65036590693957
100
AcDbArc
 50
260.6587129088698
 51
291.5890780223218
  0
ARC
  5
8D9A
102
{ACAD_REACTORS
330
8E79
102
}
330
2
100
AcDbEntity
  8
KIJUN
100
AcDbCircle
 10
63.6668499746321
 20
-104.6726237563511
 30
0.0
 40
242.1286086338761
100
AcDbArc
 50
106.2678830475899
 51
117.382947570774
  0
SPLINE
  5
8D9E
102
{ACAD_REACTORS
330
8E79
102
}
330
2
100
AcDbEntity
  8
KIJUN
100
AcDbSpline
210
0.0
220
0.0
230
1.0
 70
     8
 71
     3
 72
    20
 73
    16
 74
     0
 42
0.0000000001
 43
0.0000000001
 40
0.0
 40
0.0
 40
0.0
 40
0.0
 40
8.396930361839379
 40
13.8027856282323
 40
20.3581764476462
 40
24.03130348473588
 40
25.69956916377005
 40
28.63149017518021
 40
31.46611901997476
 40
35.12920939222963
 40
44.97794332285411
 40
57.34165276897241
 40
73.82262125100464
 40
86.66328450175742
 40
99.97407878127228
 40
99.97407878127228
 40
99.97407878127228
 40
99.97407878127228
 10
127.1698092394078
 20
121.7995600328521
 30
0.0
 10
129.6369613802953
 20
119.5783474063938
 30
0.0
 10
133.6924400666094
 20
115.9271415017863
 30
0.0
 10
135.4252406814209
 20
109.0894815952526
 30
0.0
 10
136.1518471728009
 20
103.4621090433199
 30
0.0
 10
133.7235256627489
 20
100.0258377835533
 30
0.0
 10
130.3019310192649
 20
97.77202363842869
 30
0.0
 10
128.3194631976189
 20
101.6392932383957
 30
0.0
 10
131.4481105308628
 20
103.9078737370681
 30
0.0
 10
133.43734337972
 20
109.5639267919843
 30
0.0
 10
127.9533943801207
 20
118.1295977295556
 30
0.0
 10
115.7417224742414
 20
127.3410339275576
 30
0.0
 10
98.44638939469177
 20
131.6674608946353
 30
0.0
 10
80.08098700042614
 20
134.0183737828022
 30
0.0
 10
69.31446429929008
 20
134.3389512745132
 30
0.0
 10
62.74986628825002
 20
134.4589423541272
 30
0.0
  0
ARC
  5
8D9F
102
{ACAD_REACTORS
330
8E79
102
}
330
2
100
AcDbEntity
  8
KIJUN
100
AcDbCircle
 10
197.5534963910433
 20
113.0192025495236
 30
0.0
 40
5.647766899923309
100
AcDbArc
 50
284.7757530768754
 51
333.6692297159357
  0
ARC
  5
8DA0
102
{ACAD_REACTORS
330
8E79
102
}
330
2
100
AcDbEntity
  8
KIJUN
100
AcDbCircle
 10
191.0972041564539
 20
155.5634132243243
 30
0.0
 40
48.65036590693957
100
AcDbArc
 50
248.4109219776849
 51
279.3412870911367
  0
ARC
  5
8DA1
102
{ACAD_REACTORS
330
8E79
102
}
330
2
100
AcDbEntity
  8
KIJUN
100
AcDbCircle
 10
61.83288260186794
 20
-104.6726237563511
 30
0.0
 40
242.1286086338761
100
AcDbArc
 50
62.61705242922611
 51
73.73211695241015
  0
DIMENSION
  5
8DB1
330
2
100
AcDbEntity
  8
SUNPOU
100
AcDbDimension
  2
*D3
 10
280.249866288247
 20
163.5591389615892
 30
0.0
 11
62.74986628824698
 21
169.0591389615893
 31
0.0
 70
    32
 71
     5
 42
435.0
  3
STANDARD
100
AcDbAlignedDimension
 13
-154.750133711753
 23
136.0825441785129
 33
0.0
 14
280.249866288247
 24
125.3836330757506
 34
0.0
100
AcDbRotatedDimension
1001
ACAD
1000
DSTYLE
1002
{
1070
    41
1040
2.0
1070
    42
1040
10.0
1070
    44
1040
0.0
1070
    73
1070
     0
1070
    74
1070
     0
1070
    77
1070
     1
1070
   140
1040
5.0
1070
   141
1040
0.0
1070
   146
1040
0.064286
1070
   147
1040
3.0
1070
   176
1070
    60
1070
   177
1070
    70
1070
   178
1070
    60
1070
   271
1070
     0
1070
   272
1070
     0
1070
   340
1005
1C
1070
   342
1005
109
1002
}
  0
DIMENSION
  5
8DBE
330
2
100
AcDbEntity
  8
SUNPOU
100
AcDbDimension
  2
*D4
 10
-186.7785642432
 20
41.08254417851289
 30
0.0
 11
-192.2785642432
 21
88.58254417851288
 31
0.0
 70
    32
 71
     5
 42
95.00000000000005
  3
STANDARD
100
AcDbAlignedDimension
 13
-154.750133711753
 23
136.0825441785129
 33
0.0
 14
-153.0421318321228
 24
41.08254417851288
 34
0.0
 50
90.0
100
AcDbRotatedDimension
1001
ACAD
1000
DSTYLE
1002
{
1070
    41
1040
2.0
1070
    42
1040
10.0
1070
    44
1040
0.0
1070
    73
1070
     0
1070
    74
1070
     0
1070
    77
1070
     1
1070
   140
1040
5.0
1070
   141
1040
0.0
1070
   146
1040
0.064286
1070
   147
1040
3.0
1070
   176
1070
    60
1070
   177
1070
    70
1070
   178
1070
    60
1070
   271
1070
     0
1070
   272
1070
     0
1070
   340
1005
1C
1070
   342
1005
109
1002
}
  0
ARC
  5
8DE4
102
{ACAD_REACTORS
330
8E79
102
}
330
2
100
AcDbEntity
  8
KIJUN
100
AcDbCircle
 10
-150.7172073277171
 20
70.04943090222386
 30
0.0
 40
4.032926384035889
100
AcDbArc
 50
113.2003131712272
 51
222.753804066631
  0
ARC
  5
8DE6
102
{ACAD_REACTORS
330
8E79
102
}
330
2
100
AcDbEntity
  8
KIJUN
100
AcDbCircle
 10
-145.7148523662065
 20
73.9080907418277
 30
0.0
 40
10.34080337939131
100
AcDbArc
 50
219.6354875666187
 51
322.6179587228594
  0
ARC
  5
8DE7
102
{ACAD_REACTORS
330
8E79
102
}
330
2
100
AcDbEntity
  8
KIJUN
100
AcDbCircle
 10
-144.1802836404796
 20
80.12285099423992
 30
0.0
 40
10.32282011386027
100
AcDbArc
 50
199.0330597447644
 51
218.0793601605782
  0
ARC
  5
8DE8
102
{ACAD_REACTORS
330
8E79
102
}
330
2
100
AcDbEntity
  8
KIJUN
100
AcDbCircle
 10
-148.4613418106193
 20
82.59667125787219
 30
0.0
 40
3.543195993977731
100
AcDbArc
 50
276.1342717537037
 51
60.63008343885471
  0
ARC
  5
8DE9
102
{ACAD_REACTORS
330
8E79
102
}
330
2
100
AcDbEntity
  8
KIJUN
100
AcDbCircle
 10
-148.9760224539521
 20
58.77576142054213
 30
0.0
 40
20.31764879302579
100
AcDbArc
 50
87.48007451503021
 51
98.11540909304115
  0
ARC
  5
8DEA
102
{ACAD_REACTORS
330
8E79
102
}
330
2
100
AcDbEntity
  8
KIJUN
100
AcDbCircle
 10
-152.759955244482
 20
77.26340459683784
 30
0.0
 40
1.28319829890845
100
AcDbArc
 50
116.8896882975593
 51
203.270979446569
  0
ARC
  5
8DEB
102
{ACAD_REACTORS
330
8E79
102
}
330
2
100
AcDbEntity
  8
KIJUN
100
AcDbCircle
 10
-151.1015766799019
 20
74.02268502273033
 30
0.0
 40
4.923587861872924
100
AcDbArc
 50
98.67517484416282
 51
117.0453805524096
  0
ARC
  5
8DEC
102
{ACAD_REACTORS
330
8E79
102
}
330
2
100
AcDbEntity
  8
KIJUN
100
AcDbCircle
 10
-145.2816302675038
 20
80.61145470590874
 30
0.0
 40
13.96309338152958
100
AcDbArc
 50
103.7001111377636
 51
119.7667265295992
  0
ARC
  5
8DED
102
{ACAD_REACTORS
330
8E79
102
}
330
2
100
AcDbEntity
  8
KIJUN
100
AcDbCircle
 10
-151.3126160285593
 20
90.90592195212964
 30
0.0
 40
2.03653618454443
100
AcDbArc
 50
116.2667342894645
 51
188.5794625092137
  0
ARC
  5
8DEE
102
{ACAD_REACTORS
330
8E79
102
}
330
2
100
AcDbEntity
  8
KIJUN
100
AcDbCircle
 10
-149.4115655454602
 20
91.22552546080349
 30
0.0
 40
3.964125129195566
100
AcDbArc
 50
189.0481489591445
 51
245.1928866788032
  0
ARC
  5
8DEF
102
{ACAD_REACTORS
330
8E79
102
}
330
2
100
AcDbEntity
  8
KIJUN
100
AcDbCircle
 10
-200.5273722099496
 20
-28.97746004314972
 30
0.0
 40
126.657821018497
100
AcDbArc
 50
64.86222752391601
 51
67.01796263848094
  0
ARC
  5
8DF0
102
{ACAD_REACTORS
330
8E79
102
}
330
2
100
AcDbEntity
  8
KIJUN
100
AcDbCircle
 10
-161.7172042270689
 20
79.45011384199026
 30
0.0
 40
30.39083565590678
100
AcDbArc
 50
342.8750685856647
 51
16.43981451477257
  0
ARC
  5
8DF1
102
{ACAD_REACTORS
330
8E79
102
}
330
2
100
AcDbEntity
  8
KIJUN
100
AcDbCircle
 10
-136.4028713898163
 20
71.2782981007043
 30
0.0
 40
3.809202892937053
100
AcDbArc
 50
253.2919464511161
 51
348.2309274291131
  0
ARC
  5
8DF2
102
{ACAD_REACTORS
330
8E79
102
}
330
2
100
AcDbEntity
  8
KIJUN
100
AcDbCircle
 10
-132.8159037233586
 20
92.52982753013798
 30
0.0
 40
4.485673930499053
100
AcDbArc
 50
273.1576064486573
 51
8.945553697151629
  0
ARC
  5
8DF3
102
{ACAD_REACTORS
330
8E79
102
}
330
2
100
AcDbEntity
  8
KIJUN
100
AcDbCircle
 10
-128.8050926542585
 20
97.15921087749027
 30
0.0
 40
3.95428020765546
100
AcDbArc
 50
276.1015107330567
 51
52.67272793272027
  0
ARC
  5
8DF5
102
{ACAD_REACTORS
330
8E79
102
}
330
2
100
AcDbEntity
  8
KIJUN
100
AcDbCircle
 10
-111.5463434892113
 20
112.7977488428164
 30
0.0
 40
16.70609854427855
100
AcDbArc
 50
278.5073007414947
 51
291.3717703040534
  0
ARC
  5
8DF6
102
{ACAD_REACTORS
330
8E79
102
}
330
2
100
AcDbEntity
  8
KIJUN
100
AcDbCircle
 10
-109.461053038852
 20
99.52719502930079
 30
0.0
 40
3.274573753587159
100
AcDbArc
 50
168.3128552020289
 51
276.771999656593
  0
ARC
  5
8DF7
102
{ACAD_REACTORS
330
8E79
102
}
330
2
100
AcDbEntity
  8
KIJUN
100
AcDbCircle
 10
-121.8957595030339
 20
87.9468661531221
 30
0.0
 40
16.52351662103522
100
AcDbArc
 50
59.52528049769298
 51
84.26942746126684
  0
ARC
  5
8DF8
102
{ACAD_REACTORS
330
8E79
102
}
330
2
100
AcDbEntity
  8
KIJUN
100
AcDbCircle
 10
-114.6154563818239
 20
100.5421571712774
 30
0.0
 40
1.979204996934925
100
AcDbArc
 50
349.7660947990567
 51
56.24493640709593
  0
ARC
  5
8DF9
102
{ACAD_REACTORS
330
8E79
102
}
330
2
100
AcDbEntity
  8
KIJUN
100
AcDbCircle
 10
276.2169399042111
 20
70.04943090222386
 30
0.0
 40
4.03292638403589
100
AcDbArc
 50
317.2461959333692
 51
66.79968682877239
  0
ARC
  5
8DFA
102
{ACAD_REACTORS
330
8E79
102
}
330
2
100
AcDbEntity
  8
KIJUN
100
AcDbCircle
 10
271.2145849427005
 20
73.9080907418277
 30
0.0
 40
10.34080337939131
100
AcDbArc
 50
217.3820412771407
 51
320.3645124333811
  0
ARC
  5
8DFB
102
{ACAD_REACTORS
330
8E79
102
}
330
2
100
AcDbEntity
  8
KIJUN
100
AcDbCircle
 10
269.6800162169736
 20
80.12285099423992
 30
0.0
 40
10.32282011386028
100
AcDbArc
 50
321.9206398394218
 51
340.9669402552357
  0
ARC
  5
8DFC
102
{ACAD_REACTORS
330
8E79
102
}
330
2
100
AcDbEntity
  8
KIJUN
100
AcDbCircle
 10
273.9610743871133
 20
82.59667125787219
 30
0.0
 40
3.543195993977732
100
AcDbArc
 50
119.3699165611455
 51
263.8657282462966
  0
ARC
  5
8DFD
102
{ACAD_REACTORS
330
8E79
102
}
330
2
100
AcDbEntity
  8
KIJUN
100
AcDbCircle
 10
274.4757550304462
 20
58.77576142054213
 30
0.0
 40
20.31764879302581
100
AcDbArc
 50
81.88459090695912
 51
92.51992548496971
  0
ARC
  5
8DFE
102
{ACAD_REACTORS
330
8E79
102
}
330
2
100
AcDbEntity
  8
KIJUN
100
AcDbCircle
 10
278.2596878209759
 20
77.26340459683784
 30
0.0
 40
1.283198298908452
100
AcDbArc
 50
336.7290205534309
 51
63.11031170244049
  0
ARC
  5
8DFF
102
{ACAD_REACTORS
330
8E79
102
}
330
2
100
AcDbEntity
  8
KIJUN
100
AcDbCircle
 10
276.6013092563959
 20
74.02268502273033
 30
0.0
 40
4.923587861872927
100
AcDbArc
 50
62.95461944759022
 51
81.32482515583756
  0
ARC
  5
8E00
102
{ACAD_REACTORS
330
8E79
102
}
330
2
100
AcDbEntity
  8
KIJUN
100
AcDbCircle
 10
270.7813628439978
 20
80.61145470590874
 30
0.0
 40
13.96309338152958
100
AcDbArc
 50
60.23327347040106
 51
76.29988886223657
  0
ARC
  5
8E01
102
{ACAD_REACTORS
330
8E79
102
}
330
2
100
AcDbEntity
  8
KIJUN
100
AcDbCircle
 10
276.8123486050533
 20
90.90592195212964
 30
0.0
 40
2.036536184544432
100
AcDbArc
 50
351.4205374907862
 51
63.73326571053528
  0
ARC
  5
8E02
102
{ACAD_REACTORS
330
8E79
102
}
330
2
100
AcDbEntity
  8
KIJUN
100
AcDbCircle
 10
274.9112981219543
 20
91.22552546080349
 30
0.0
 40
3.964125129195568
100
AcDbArc
 50
294.807113321197
 51
350.9518510408555
  0
ARC
  5
8E03
102
{ACAD_REACTORS
330
8E79
102
}
330
2
100
AcDbEntity
  8
KIJUN
100
AcDbCircle
 10
326.0271047864435
 20
-28.97746004314972
 30
0.0
 40
126.6578210184971
100
AcDbArc
 50
112.9820373615193
 51
115.1377724760842
  0
ARC
  5
8E04
102
{ACAD_REACTORS
330
8E79
102
}
330
2
100
AcDbEntity
  8
KIJUN
100
AcDbCircle
 10
287.2169368035629
 20
79.45011384199026
 30
0.0
 40
30.39083565590679
100
AcDbArc
 50
163.5601854852273
 51
197.1249314143354
  0
ARC
  5
8E05
102
{ACAD_REACTORS
330
8E79
102
}
330
2
100
AcDbEntity
  8
KIJUN
100
AcDbCircle
 10
261.9026039663103
 20
71.2782981007043
 30
0.0
 40
3.809202892937053
100
AcDbArc
 50
191.7690725708869
 51
286.7080535488835
  0
ARC
  5
8E06
102
{ACAD_REACTORS
330
8E79
102
}
330
2
100
AcDbEntity
  8
KIJUN
100
AcDbCircle
 10
254.3048252307526
 20
97.15921087749027
 30
0.0
 40
3.954280207655461
100
AcDbArc
 50
127.3272720672798
 51
263.8984892669429
  0
ARC
  5
8E07
102
{ACAD_REACTORS
330
8E79
102
}
330
2
100
AcDbEntity
  8
KIJUN
100
AcDbCircle
 10
237.0460760657053
 20
112.7977488428164
 30
0.0
 40
16.70609854427856
100
AcDbArc
 50
248.6282296959462
 51
261.4926992585056
  0
ARC
  5
8E08
102
{ACAD_REACTORS
330
8E79
102
}
330
2
100
AcDbEntity
  8
KIJUN
100
AcDbCircle
 10
234.960785615346
 20
99.52719502930079
 30
0.0
 40
3.274573753587161
100
AcDbArc
 50
263.2280003434071
 51
11.68714479797108
  0
ARC
  5
8E09
102
{ACAD_REACTORS
330
8E79
102
}
330
2
100
AcDbEntity
  8
KIJUN
100
AcDbCircle
 10
247.3954920795279
 20
87.9468661531221
 30
0.0
 40
16.52351662103523
100
AcDbArc
 50
95.73057253873331
 51
120.4747195023068
  0
ARC
  5
8E0A
102
{ACAD_REACTORS
330
8E79
102
}
330
2
100
AcDbEntity
  8
KIJUN
100
AcDbCircle
 10
240.1151889583179
 20
100.5421571712774
 30
0.0
 40
1.979204996934925
100
AcDbArc
 50
123.7550635929039
 51
190.2339052009434
  0
ARC
  5
8E0B
102
{ACAD_REACTORS
330
8E79
102
}
330
2
100
AcDbEntity
  8
KIJUN
100
AcDbCircle
 10
258.3156362998525
 20
92.52982753013798
 30
0.0
 40
4.485673930499053
100
AcDbArc
 50
171.0544463028484
 51
266.8423935513427
  0
ENDSEC
  0
SECTION
  2
OBJECTS
  0
DICTIONARY
  5
1A
330
0
100
AcDbDictionary
281
     1
  3
ACAD_COLOR
350
144
  3
ACAD_GROUP
350
18
  3
ACAD_LAYOUT
350
58
  3
ACAD_MATERIAL
350
143
  3
ACAD_MLINESTYLE
350
19
  3
ACAD_PLOTSETTINGS
350
59
  3
ACAD_PLOTSTYLENAME
350
56
  3
ACAD_TABLESTYLE
350
145
  3
ACDBHEADERROUNDTRIPXREC
350
8E9C
  3
AcDbVariableDictionary
350
1D1
  0
DICTIONARY
  5
1B4
330
A
100
AcDbDictionary
280
     1
281
     1
  3
ACAD_LAYERFILTERS
360
7795
  3
ACLYDICTIONARY
360
7794
  0
DICTIONARY
  5
D13
330
2
100
AcDbDictionary
280
     1
281
     1
  3
ACAD_SORTENTS
360
D14
  0
DICTIONARY
  5
144
102
{ACAD_REACTORS
330
1A
102
}
330
1A
100
AcDbDictionary
281
     1
  0
DICTIONARY
  5
18
102
{ACAD_REACTORS
330
1A
102
}
330
1A
100
AcDbDictionary
281
     1
  3
*A1
350
E0D
  3
*A10
350
52B0
  3
*A11
350
36C9
  3
*A12
350
4C3E
  3
*A13
350
5396
  3
*A14
350
265A
  3
*A15
350
275E
  3
*A16
350
48BA
  3
*A17
350
5464
  3
*A18
350
556A
  3
*A19
350
213E
  3
*A2
350
4EE5
  3
*A20
350
57BF
  3
*A21
350
31DF
  3
*A22
350
3349
  3
*A23
350
4CEC
  3
*A24
350
58EE
  3
*A25
350
382B
  3
*A26
350
1EFE
  3
*A27
350
2573
  3
*A28
350
422E
  3
*A29
350
4516
  3
*A3
350
4F64
  3
*A30
350
3878
  3
*A31
350
5D92
  3
*A32
350
2905
  3
*A33
350
3E5C
  3
*A34
350
1555
  3
*A35
350
17BC
  3
*A36
350
3181
  3
*A37
350
2B84
  3
*A38
350
24D6
  3
*A39
350
5F6F
  3
*A4
350
4781
  3
*A40
350
4A53
  3
*A41
350
626B
  3
*A42
350
6417
  3
*A43
350
307D
  3
*A44
350
668C
  3
*A45
350
4D76
  3
*A46
350
241A
  3
*A47
350
68C5
  3
*A48
350
34BB
  3
*A49
350
6A30
  3
*A5
350
5011
  3
*A50
350
2EE1
  3
*A51
350
6A98
  3
*A52
350
1A98
  3
*A53
350
6C32
  3
*A54
350
2037
  3
*A55
350
6D00
  3
*A56
350
3988
  3
*A57
350
6DE3
  3
*A58
350
FF8
  3
*A59
350
6EB7
  3
*A6
350
2C6B
  3
*A60
350
706D
  3
*A61
350
45E5
  3
*A62
350
7170
  3
*A63
350
35A5
  3
*A64
350
3695
  3
*A65
350
401B
  3
*A66
350
1CBC
  3
*A67
350
3C81
  3
*A68
350
7453
  3
*A69
350
76E3
  3
*A7
350
22C8
  3
*A70
350
3A25
  3
*A71
350
7793
  3
*A72
350
2D78
  3
*A73
350
7ADA
  3
*A74
350
26DD
  3
*A75
350
7D2B
  3
*A76
350
32E4
  3
*A77
350
2F81
  3
*A78
350
4407
  3
*A79
350
7E5C
  3
*A8
350
2A17
  3
*A80
350
8108
  3
*A81
350
8393
  3
*A82
350
84B0
  3
*A83
350
8635
  3
*A84
350
3467
  3
*A85
350
87B5
  3
*A86
350
136A
  3
*A87
350
46A5
  3
*A88
350
4B49
  3
*A89
350
4E16
  3
*A9
350
519C
  3
*A90
350
8919
  3
*A91
350
8BB8
  3
*A92
350
8E79
  0
DICTIONARY
  5
58
102
{ACAD_REACTORS
330
1A
102
}
330
1A
100
AcDbDictionary
281
     1
  3
Model
350
5A
  3
ﾚｲｱｳﾄ1
350
5B
  0
DICTIONARY
  5
143
102
{ACAD_REACTORS
330
1A
102
}
330
1A
100
AcDbDictionary
281
     1
  0
DICTIONARY
  5
19
102
{ACAD_REACTORS
330
1A
102
}
330
1A
100
AcDbDictionary
281
     1
  3
STANDARD
350
1D
  0
DICTIONARY
  5
59
102
{ACAD_REACTORS
330
1A
102
}
330
1A
100
AcDbDictionary
281
     1
  0
ACDBDICTIONARYWDFLT
  5
56
102
{ACAD_REACTORS
330
1A
102
}
330
1A
100
AcDbDictionary
281
     1
  3
Normal
350
57
100
AcDbDictionaryWithDefault
340
57
  0
DICTIONARY
  5
145
102
{ACAD_REACTORS
330
1A
102
}
330
1A
100
AcDbDictionary
281
     1
  3
Standard
350
146
  0
DICTIONARY
  5
8E9C
102
{ACAD_REACTORS
330
1A
102
}
330
1A
100
AcDbDictionary
281
     1
  0
DICTIONARY
  5
1D1
102
{ACAD_REACTORS
330
1A
102
}
330
1A
100
AcDbDictionary
281
     1
  3
CTABLESTYLE
350
1D2
  3
DIMASSOC
350
D03
  3
PROJECTNAME
350
D04
  0
DICTIONARY
  5
7795
102
{ACAD_REACTORS
330
1B4
102
}
330
1B4
100
AcDbDictionary
281
     1
  0
DICTIONARY
  5
7794
102
{ACAD_REACTORS
330
1B4
102
}
330
1B4
100
AcDbDictionary
281
     1
1001
ACAD
1000
<All
  0
SORTENTSTABLE
  5
D14
102
{ACAD_REACTORS
330
D13
102
}
330
D13
100
AcDbSortentsTable
330
2
331
8D3F
  5
8D3F
331
8D18
  5
8D18
331
8D7F
  5
8D7F
331
8D58
  5
8D58
331
8D10
  5
8D10
331
8D37
  5
8D37
331
8D50
  5
8D50
331
8D77
  5
8D77
331
8D2F
  5
8D2F
331
8D6F
  5
8D6F
331
8D40
  5
8D40
331
8D8E
  5
8D8E
331
8D67
  5
8D67
331
8D86
  5
8D86
331
20
  5
20
331
8D23
  5
8D23
331
8D5B
  5
8D5B
331
8D1B
  5
8D1B
331
8D13
  5
8D13
331
8D53
  5
8D53
331
8D7A
  5
8D7A
331
8D3A
  5
8D3A
331
8D72
  5
8D72
331
8D4B
  5
8D4B
331
8D32
  5
8D32
331
8D6A
  5
8D6A
331
8D91
  5
8D91
331
8D43
  5
8D43
331
8D2A
  5
8D2A
331
8D62
  5
8D62
331
8D81
  5
8D81
331
23
  5
23
331
8D26
  5
8D26
331
8D1E
  5
8D1E
331
8D7D
  5
8D7D
331
1F
  5
1F
331
8D56
  5
8D56
331
8D3D
  5
8D3D
331
8D16
  5
8D16
331
8D4E
  5
8D4E
331
8D75
  5
8D75
331
8D35
  5
8D35
331
8D46
  5
8D46
331
8D2D
  5
8D2D
331
8D6D
  5
8D6D
331
8D65
  5
8D65
331
8D8C
  5
8D8C
331
8D84
  5
8D84
331
8D59
  5
8D59
331
8D11
  5
8D11
331
8D38
  5
8D38
331
8D51
  5
8D51
331
8D78
  5
8D78
331
8D30
  5
8D30
331
8D70
  5
8D70
331
8D49
  5
8D49
331
8D41
  5
8D41
331
8D28
  5
8D28
331
8D68
  5
8D68
331
8D8F
  5
8D8F
331
8D87
  5
8D87
331
21
  5
21
331
8D24
  5
8D24
331
8D1C
  5
8D1C
331
8D5C
  5
8D5C
331
8D3B
  5
8D3B
331
8D54
  5
8D54
331
8D7B
  5
8D7B
331
8D33
  5
8D33
331
8D4C
  5
8D4C
331
8D73
  5
8D73
331
8D44
  5
8D44
331
8D2B
  5
8D2B
331
8D6B
  5
8D6B
331
8D63
  5
8D63
331
8D8A
  5
8D8A
331
8D82
  5
8D82
331
8D27
  5
8D27
331
8D5F
  5
8D5F
331
8D3E
  5
8D3E
331
8D57
  5
8D57
331
8D7E
  5
8D7E
331
8D0F
  5
8D0F
331
8D36
  5
8D36
331
8D76
  5
8D76
331
8D4F
  5
8D4F
331
8D2E
  5
8D2E
331
8D6E
  5
8D6E
331
8D66
  5
8D66
331
8D8D
  5
8D8D
331
8D85
  5
8D85
331
8D22
  5
8D22
331
8D1A
  5
8D1A
331
8D39
  5
8D39
331
8D52
  5
8D52
331
8D79
  5
8D79
331
8D31
  5
8D31
331
8D4A
  5
8D4A
331
8D71
  5
8D71
331
8D29
  5
8D29
331
8D69
  5
8D69
331
8D90
  5
8D90
331
8D42
  5
8D42
331
8D88
  5
8D88
331
8D61
  5
8D61
331
8D80
  5
8D80
331
8D25
  5
8D25
331
8D5D
  5
8D5D
331
8D3C
  5
8D3C
331
8D7C
  5
8D7C
331
8D34
  5
8D34
331
8D74
  5
8D74
331
8D4D
  5
8D4D
331
8D2C
  5
8D2C
331
8D6C
  5
8D6C
331
8D45
  5
8D45
331
8D64
  5
8D64
331
8D83
  5
8D83
  0
GROUP
  5
E0D
102
{ACAD_REACTORS
330
18
102
}
330
18
100
AcDbGroup
300

 70
     1
 71
     1
  0
GROUP
  5
52B0
102
{ACAD_REACTORS
330
18
102
}
330
18
100
AcDbGroup
300

 70
     1
 71
     1
  0
GROUP
  5
36C9
102
{ACAD_REACTORS
330
18
102
}
330
18
100
AcDbGroup
300

 70
     1
 71
     1
  0
GROUP
  5
4C3E
102
{ACAD_REACTORS
330
18
102
}
330
18
100
AcDbGroup
300

 70
     1
 71
     1
  0
GROUP
  5
5396
102
{ACAD_REACTORS
330
18
102
}
330
18
100
AcDbGroup
300

 70
     1
 71
     1
  0
GROUP
  5
265A
102
{ACAD_REACTORS
330
18
102
}
330
18
100
AcDbGroup
300

 70
     1
 71
     1
  0
GROUP
  5
275E
102
{ACAD_REACTORS
330
18
102
}
330
18
100
AcDbGroup
300

 70
     1
 71
     1
  0
GROUP
  5
48BA
102
{ACAD_REACTORS
330
18
102
}
330
18
100
AcDbGroup
300

 70
     1
 71
     1
  0
GROUP
  5
5464
102
{ACAD_REACTORS
330
18
102
}
330
18
100
AcDbGroup
300

 70
     1
 71
     1
  0
GROUP
  5
556A
102
{ACAD_REACTORS
330
18
102
}
330
18
100
AcDbGroup
300

 70
     1
 71
     1
  0
GROUP
  5
213E
102
{ACAD_REACTORS
330
18
102
}
330
18
100
AcDbGroup
300

 70
     1
 71
     1
  0
GROUP
  5
4EE5
102
{ACAD_REACTORS
330
18
102
}
330
18
100
AcDbGroup
300

 70
     1
 71
     1
  0
GROUP
  5
57BF
102
{ACAD_REACTORS
330
18
102
}
330
18
100
AcDbGroup
300

 70
     1
 71
     1
  0
GROUP
  5
31DF
102
{ACAD_REACTORS
330
18
102
}
330
18
100
AcDbGroup
300

 70
     1
 71
     1
  0
GROUP
  5
3349
102
{ACAD_REACTORS
330
18
102
}
330
18
100
AcDbGroup
300

 70
     1
 71
     1
  0
GROUP
  5
4CEC
102
{ACAD_REACTORS
330
18
102
}
330
18
100
AcDbGroup
300

 70
     1
 71
     1
  0
GROUP
  5
58EE
102
{ACAD_REACTORS
330
18
102
}
330
18
100
AcDbGroup
300

 70
     1
 71
     1
  0
GROUP
  5
382B
102
{ACAD_REACTORS
330
18
102
}
330
18
100
AcDbGroup
300

 70
     1
 71
     1
  0
GROUP
  5
1EFE
102
{ACAD_REACTORS
330
18
102
}
330
18
100
AcDbGroup
300

 70
     1
 71
     1
  0
GROUP
  5
2573
102
{ACAD_REACTORS
330
18
102
}
330
18
100
AcDbGroup
300

 70
     1
 71
     1
  0
GROUP
  5
422E
102
{ACAD_REACTORS
330
18
102
}
330
18
100
AcDbGroup
300

 70
     1
 71
     1
  0
GROUP
  5
4516
102
{ACAD_REACTORS
330
18
102
}
330
18
100
AcDbGroup
300

 70
     1
 71
     1
  0
GROUP
  5
4F64
102
{ACAD_REACTORS
330
18
102
}
330
18
100
AcDbGroup
300

 70
     1
 71
     1
  0
GROUP
  5
3878
102
{ACAD_REACTORS
330
18
102
}
330
18
100
AcDbGroup
300

 70
     1
 71
     1
  0
GROUP
  5
5D92
102
{ACAD_REACTORS
330
18
102
}
330
18
100
AcDbGroup
300

 70
     1
 71
     1
  0
GROUP
  5
2905
102
{ACAD_REACTORS
330
18
102
}
330
18
100
AcDbGroup
300

 70
     1
 71
     1
  0
GROUP
  5
3E5C
102
{ACAD_REACTORS
330
18
102
}
330
18
100
AcDbGroup
300

 70
     1
 71
     1
  0
GROUP
  5
1555
102
{ACAD_REACTORS
330
18
102
}
330
18
100
AcDbGroup
300

 70
     1
 71
     1
  0
GROUP
  5
17BC
102
{ACAD_REACTORS
330
18
102
}
330
18
100
AcDbGroup
300

 70
     1
 71
     1
  0
GROUP
  5
3181
102
{ACAD_REACTORS
330
18
102
}
330
18
100
AcDbGroup
300

 70
     1
 71
     1
  0
GROUP
  5
2B84
102
{ACAD_REACTORS
330
18
102
}
330
18
100
AcDbGroup
300

 70
     1
 71
     1
  0
GROUP
  5
24D6
102
{ACAD_REACTORS
330
18
102
}
330
18
100
AcDbGroup
300

 70
     1
 71
     1
  0
GROUP
  5
5F6F
102
{ACAD_REACTORS
330
18
102
}
330
18
100
AcDbGroup
300

 70
     1
 71
     1
  0
GROUP
  5
4781
102
{ACAD_REACTORS
330
18
102
}
330
18
100
AcDbGroup
300

 70
     1
 71
     1
  0
GROUP
  5
4A53
102
{ACAD_REACTORS
330
18
102
}
330
18
100
AcDbGroup
300

 70
     1
 71
     1
  0
GROUP
  5
626B
102
{ACAD_REACTORS
330
18
102
}
330
18
100
AcDbGroup
300

 70
     1
 71
     1
  0
GROUP
  5
6417
102
{ACAD_REACTORS
330
18
102
}
330
18
100
AcDbGroup
300

 70
     1
 71
     1
  0
GROUP
  5
307D
102
{ACAD_REACTORS
330
18
102
}
330
18
100
AcDbGroup
300

 70
     1
 71
     1
  0
GROUP
  5
668C
102
{ACAD_REACTORS
330
18
102
}
330
18
100
AcDbGroup
300

 70
     1
 71
     1
  0
GROUP
  5
4D76
102
{ACAD_REACTORS
330
18
102
}
330
18
100
AcDbGroup
300

 70
     1
 71
     1
  0
GROUP
  5
241A
102
{ACAD_REACTORS
330
18
102
}
330
18
100
AcDbGroup
300

 70
     1
 71
     1
  0
GROUP
  5
68C5
102
{ACAD_REACTORS
330
18
102
}
330
18
100
AcDbGroup
300

 70
     1
 71
     1
  0
GROUP
  5
34BB
102
{ACAD_REACTORS
330
18
102
}
330
18
100
AcDbGroup
300

 70
     1
 71
     1
  0
GROUP
  5
6A30
102
{ACAD_REACTORS
330
18
102
}
330
18
100
AcDbGroup
300

 70
     1
 71
     1
  0
GROUP
  5
5011
102
{ACAD_REACTORS
330
18
102
}
330
18
100
AcDbGroup
300

 70
     1
 71
     1
  0
GROUP
  5
2EE1
102
{ACAD_REACTORS
330
18
102
}
330
18
100
AcDbGroup
300

 70
     1
 71
     1
  0
GROUP
  5
6A98
102
{ACAD_REACTORS
330
18
102
}
330
18
100
AcDbGroup
300

 70
     1
 71
     1
  0
GROUP
  5
1A98
102
{ACAD_REACTORS
330
18
102
}
330
18
100
AcDbGroup
300

 70
     1
 71
     1
  0
GROUP
  5
6C32
102
{ACAD_REACTORS
330
18
102
}
330
18
100
AcDbGroup
300

 70
     1
 71
     1
  0
GROUP
  5
2037
102
{ACAD_REACTORS
330
18
102
}
330
18
100
AcDbGroup
300

 70
     1
 71
     1
  0
GROUP
  5
6D00
102
{ACAD_REACTORS
330
18
102
}
330
18
100
AcDbGroup
300

 70
     1
 71
     1
  0
GROUP
  5
3988
102
{ACAD_REACTORS
330
18
102
}
330
18
100
AcDbGroup
300

 70
     1
 71
     1
  0
GROUP
  5
6DE3
102
{ACAD_REACTORS
330
18
102
}
330
18
100
AcDbGroup
300

 70
     1
 71
     1
  0
GROUP
  5
FF8
102
{ACAD_REACTORS
330
18
102
}
330
18
100
AcDbGroup
300

 70
     1
 71
     1
  0
GROUP
  5
6EB7
102
{ACAD_REACTORS
330
18
102
}
330
18
100
AcDbGroup
300

 70
     1
 71
     1
  0
GROUP
  5
2C6B
102
{ACAD_REACTORS
330
18
102
}
330
18
100
AcDbGroup
300

 70
     1
 71
     1
  0
GROUP
  5
706D
102
{ACAD_REACTORS
330
18
102
}
330
18
100
AcDbGroup
300

 70
     1
 71
     1
  0
GROUP
  5
45E5
102
{ACAD_REACTORS
330
18
102
}
330
18
100
AcDbGroup
300

 70
     1
 71
     1
  0
GROUP
  5
7170
102
{ACAD_REACTORS
330
18
102
}
330
18
100
AcDbGroup
300

 70
     1
 71
     1
  0
GROUP
  5
35A5
102
{ACAD_REACTORS
330
18
102
}
330
18
100
AcDbGroup
300

 70
     1
 71
     1
  0
GROUP
  5
3695
102
{ACAD_REACTORS
330
18
102
}
330
18
100
AcDbGroup
300

 70
     1
 71
     1
  0
GROUP
  5
401B
102
{ACAD_REACTORS
330
18
102
}
330
18
100
AcDbGroup
300

 70
     1
 71
     1
  0
GROUP
  5
1CBC
102
{ACAD_REACTORS
330
18
102
}
330
18
100
AcDbGroup
300

 70
     1
 71
     1
  0
GROUP
  5
3C81
102
{ACAD_REACTORS
330
18
102
}
330
18
100
AcDbGroup
300

 70
     1
 71
     1
  0
GROUP
  5
7453
102
{ACAD_REACTORS
330
18
102
}
330
18
100
AcDbGroup
300

 70
     1
 71
     1
  0
GROUP
  5
76E3
102
{ACAD_REACTORS
330
18
102
}
330
18
100
AcDbGroup
300

 70
     1
 71
     1
  0
GROUP
  5
22C8
102
{ACAD_REACTORS
330
18
102
}
330
18
100
AcDbGroup
300

 70
     1
 71
     1
  0
GROUP
  5
3A25
102
{ACAD_REACTORS
330
18
102
}
330
18
100
AcDbGroup
300

 70
     1
 71
     1
  0
GROUP
  5
7793
102
{ACAD_REACTORS
330
18
102
}
330
18
100
AcDbGroup
300

 70
     1
 71
     1
  0
GROUP
  5
2D78
102
{ACAD_REACTORS
330
18
102
}
330
18
100
AcDbGroup
300

 70
     1
 71
     1
  0
GROUP
  5
7ADA
102
{ACAD_REACTORS
330
18
102
}
330
18
100
AcDbGroup
300

 70
     1
 71
     1
  0
GROUP
  5
26DD
102
{ACAD_REACTORS
330
18
102
}
330
18
100
AcDbGroup
300

 70
     1
 71
     1
  0
GROUP
  5
7D2B
102
{ACAD_REACTORS
330
18
102
}
330
18
100
AcDbGroup
300

 70
     1
 71
     1
  0
GROUP
  5
32E4
102
{ACAD_REACTORS
330
18
102
}
330
18
100
AcDbGroup
300

 70
     1
 71
     1
  0
GROUP
  5
2F81
102
{ACAD_REACTORS
330
18
102
}
330
18
100
AcDbGroup
300

 70
     1
 71
     1
  0
GROUP
  5
4407
102
{ACAD_REACTORS
330
18
102
}
330
18
100
AcDbGroup
300

 70
     1
 71
     1
  0
GROUP
  5
7E5C
102
{ACAD_REACTORS
330
18
102
}
330
18
100
AcDbGroup
300

 70
     1
 71
     1
  0
GROUP
  5
2A17
102
{ACAD_REACTORS
330
18
102
}
330
18
100
AcDbGroup
300

 70
     1
 71
     1
  0
GROUP
  5
8108
102
{ACAD_REACTORS
330
18
102
}
330
18
100
AcDbGroup
300

 70
     1
 71
     1
  0
GROUP
  5
8393
102
{ACAD_REACTORS
330
18
102
}
330
18
100
AcDbGroup
300

 70
     1
 71
     1
  0
GROUP
  5
84B0
102
{ACAD_REACTORS
330
18
102
}
330
18
100
AcDbGroup
300

 70
     1
 71
     1
  0
GROUP
  5
8635
102
{ACAD_REACTORS
330
18
102
}
330
18
100
AcDbGroup
300

 70
     1
 71
     1
  0
GROUP
  5
3467
102
{ACAD_REACTORS
330
18
102
}
330
18
100
AcDbGroup
300

 70
     1
 71
     1
  0
GROUP
  5
87B5
102
{ACAD_REACTORS
330
18
102
}
330
18
100
AcDbGroup
300

 70
     1
 71
     1
  0
GROUP
  5
136A
102
{ACAD_REACTORS
330
18
102
}
330
18
100
AcDbGroup
300

 70
     1
 71
     1
  0
GROUP
  5
46A5
102
{ACAD_REACTORS
330
18
102
}
330
18
100
AcDbGroup
300

 70
     1
 71
     1
  0
GROUP
  5
4B49
102
{ACAD_REACTORS
330
18
102
}
330
18
100
AcDbGroup
300

 70
     1
 71
     1
  0
GROUP
  5
4E16
102
{ACAD_REACTORS
330
18
102
}
330
18
100
AcDbGroup
300

 70
     1
 71
     1
  0
GROUP
  5
519C
102
{ACAD_REACTORS
330
18
102
}
330
18
100
AcDbGroup
300

 70
     1
 71
     1
  0
GROUP
  5
8919
102
{ACAD_REACTORS
330
18
102
}
330
18
100
AcDbGroup
300

 70
     1
 71
     1
  0
GROUP
  5
8BB8
102
{ACAD_REACTORS
330
18
102
}
330
18
100
AcDbGroup
300

 70
     1
 71
     1
  0
GROUP
  5
8E79
102
{ACAD_REACTORS
330
18
102
}
330
18
100
AcDbGroup
300

 70
     1
 71
     1
340
8E0B
340
8E0A
340
8E09
340
8E08
340
8E07
340
8E06
340
8E05
340
8E04
340
8E03
340
8E02
340
8E01
340
8E00
340
8DFF
340
8DFE
340
8DFD
340
8DFC
340
8DFB
340
8DFA
340
8DF9
340
8DF8
340
8DF7
340
8DF6
340
8DF5
340
8DF3
340
8DF2
340
8DF1
340
8DF0
340
8DEF
340
8DEE
340
8DED
340
8DEC
340
8DEB
340
8DEA
340
8DE9
340
8DE8
340
8DE7
340
8DE6
340
8DE4
340
8DA1
340
8DA0
340
8D9F
340
8D9E
340
8D9A
340
8D99
340
8D98
340
8D97
340
8D96
340
8D91
340
8D90
340
8D8F
340
8D8E
340
8D8D
340
8D8C
340
8D8A
340
8D88
340
8D87
340
8D86
340
8D85
340
8D84
340
8D83
340
8D82
340
8D81
340
8D80
340
8D7F
340
8D7E
340
8D7D
340
8D7C
340
8D7B
340
8D7A
340
8D79
340
8D78
340
8D77
340
8D76
340
8D75
340
8D74
340
8D73
340
8D72
340
8D71
340
8D70
340
8D6F
340
8D6E
340
8D6D
340
8D6C
340
8D6B
340
8D6A
340
8D69
340
8D68
340
8D67
340
8D66
340
8D65
340
8D64
340
8D63
340
8D62
340
8D61
340
8D5F
340
8D5D
340
8D5C
340
8D5B
340
8D59
340
8D58
340
8D57
340
8D56
340
8D54
340
8D53
340
8D52
340
8D51
340
8D50
340
8D4F
340
8D4E
340
8D4D
340
8D4C
340
8D4B
340
8D4A
340
8D49
340
8D46
340
8D45
340
8D44
340
8D43
340
8D42
340
8D41
340
8D40
340
8D3F
340
8D3E
340
8D3D
340
8D3C
340
8D3B
340
8D3A
340
8D39
340
8D38
340
8D37
340
8D36
340
8D35
340
8D34
340
8D33
340
8D32
340
8D31
340
8D30
340
8D2F
340
8D2E
340
8D2D
340
8D2C
340
8D2B
340
8D2A
340
8D29
340
8D28
340
8D27
340
8D26
340
8D25
340
8D24
340
8D23
340
8D22
340
8D1E
340
8D1C
340
8D1B
340
8D1A
340
8D18
340
8D16
340
8D13
340
8D11
340
8D10
340
8D0F
  0
LAYOUT
  5
5A
102
{ACAD_XDICTIONARY
360
8E9D
102
}
102
{ACAD_REACTORS
330
58
102
}
330
58
100
AcDbPlotSettings
  1

  2
なし
  4

  6

 40
0.0
 41
0.0
 42
0.0
 43
0.0
 44
0.0
 45
0.0
 46
0.0
 47
0.0
 48
0.0
 49
0.0
140
0.0
141
0.0
142
1.0
143
1.0
 70
  1712
 72
     0
 73
     0
 74
     0
  7
monochrome.ctb
 75
     0
147
1.0
148
0.0
149
0.0
100
AcDbLayout
  1
Model
 70
     1
 71
     0
 10
0.0
 20
0.0
 11
12.0
 21
9.0
 12
0.0
 22
0.0
 32
0.0
 14
0.0
 24
0.0
 34
0.0
 15
0.0
 25
0.0
 35
0.0
146
0.0
 13
0.0
 23
0.0
 33
0.0
 16
1.0
 26
0.0
 36
0.0
 17
0.0
 27
1.0
 37
0.0
 76
     0
330
2
  0
LAYOUT
  5
5B
102
{ACAD_XDICTIONARY
360
8E9F
102
}
102
{ACAD_REACTORS
330
58
102
}
330
58
100
AcDbPlotSettings
  1

  2
なし
  4

  6

 40
0.0
 41
0.0
 42
0.0
 43
0.0
 44
0.0
 45
0.0
 46
0.0
 47
0.0
 48
0.0
 49
0.0
140
0.0
141
0.0
142
1.0
143
1.0
 70
   688
 72
     0
 73
     0
 74
     5
  7
monochrome.ctb
 75
    16
147
1.0
148
0.0
149
0.0
100
AcDbLayout
  1
ﾚｲｱｳﾄ1
 70
     1
 71
     1
 10
0.0
 20
0.0
 11
12.0
 21
9.0
 12
0.0
 22
0.0
 32
0.0
 14
1.000000000000000E+20
 24
1.000000000000000E+20
 34
1.000000000000000E+20
 15
-1.000000000000000E+20
 25
-1.000000000000000E+20
 35
-1.000000000000000E+20
146
0.0
 13
0.0
 23
0.0
 33
0.0
 16
1.0
 26
0.0
 36
0.0
 17
0.0
 27
1.0
 37
0.0
 76
     0
330
7
  0
MLINESTYLE
  5
1D
102
{ACAD_REACTORS
330
19
102
}
330
19
100
AcDbMlineStyle
  2
STANDARD
 70
     0
  3

 62
   256
 51
90.0
 52
90.0
 71
     2
 49
0.5
 62
   256
  6
BYLAYER
 49
-0.5
 62
   256
  6
BYLAYER
  0
ACDBPLACEHOLDER
  5
57
102
{ACAD_REACTORS
330
56
102
}
330
56
  0
TABLESTYLE
  5
146
102
{ACAD_REACTORS
330
145
102
}
330
145
100
AcDbTableStyle
  3
Standard
 70
     0
 71
     0
 40
0.06
 41
0.06
280
     0
281
     0
  7
STANDARD
140
0.18
170
     2
 62
     0
 63
     7
283
     0
274
    -2
284
     1
 64
     0
275
    -2
285
     1
 65
     0
276
    -2
286
     1
 66
     0
277
    -2
287
     1
 67
     0
278
    -2
288
     1
 68
     0
279
    -2
289
     1
 69
     0
  7
STANDARD
140
0.25
170
     5
 62
     0
 63
     7
283
     0
274
    -2
284
     1
 64
     0
275
    -2
285
     1
 65
     0
276
    -2
286
     1
 66
     0
277
    -2
287
     1
 67
     0
278
    -2
288
     1
 68
     0
279
    -2
289
     1
 69
     0
  7
STANDARD
140
0.18
170
     5
 62
     0
 63
     7
283
     0
274
    -2
284
     1
 64
     0
275
    -2
285
     1
 65
     0
276
    -2
286
     1
 66
     0
277
    -2
287
     1
 67
     0
278
    -2
288
     1
 68
     0
279
    -2
289
     1
 69
     0
  0
DICTIONARYVAR
  5
1D2
102
{ACAD_REACTORS
330
1D1
102
}
330
1D1
100
DictionaryVariables
280
     0
  1
STANDARD
  0
DICTIONARYVAR
  5
D03
102
{ACAD_REACTORS
330
1D1
102
}
330
1D1
100
DictionaryVariables
280
     0
  1
1
  0
DICTIONARYVAR
  5
D04
102
{ACAD_REACTORS
330
1D1
102
}
330
1D1
100
DictionaryVariables
280
     0
  1

  0
DICTIONARY
  5
8E9D
330
5A
100
AcDbDictionary
280
     1
281
     1
  3
ACAD_XREC_ROUNDTRIP
360
8E9E
  0
DICTIONARY
  5
8E9F
330
5B
100
AcDbDictionary
280
     1
281
     1
  3
ACAD_XREC_ROUNDTRIP
360
8EA0
  0
XRECORD
  5
8E9E
102
{ACAD_REACTORS
330
8E9D
102
}
330
8E9D
100
AcDbXrecord
280
     1
102
SHADEPLOT
 70
     0
102
SHADEPLOTRESLEVEL
 70
     2
102
SHADEPLOTCUSTOMDPI
 70
   300
  0
XRECORD
  5
8EA0
102
{ACAD_REACTORS
330
8E9F
102
}
330
8E9F
100
AcDbXrecord
280
     1
102
SHADEPLOT
 70
     0
102
SHADEPLOTRESLEVEL
 70
     2
102
SHADEPLOTCUSTOMDPI
 70
   300
  0
ENDSEC
  0
EOF
