  0
SECTION
  2
HEADER
  9
$ACADVER
  1
AC1015
  9
$ACADMAINTVER
 70
    20
  9
$DWGCODEPAGE
  3
ANSI_932
  9
$INSBASE
 10
922.019522
 20
-675.4306699999999
 30
0.0
  9
$EXTMIN
 10
-221.6151151614496
 20
-0.0024123760074417
 30
-0.000000000000013
  9
$EXTMAX
 10
293.3609359779861
 20
185.3833276025151
 30
0.0000000000000023
  9
$LIMMIN
 10
0.0
 20
0.0
  9
$LIMMAX
 10
420.0
 20
297.0
  9
$ORTHOMODE
 70
     1
  9
$REGENMODE
 70
     1
  9
$FILLMODE
 70
     1
  9
$QTEXTMODE
 70
     0
  9
$MIRRTEXT
 70
     1
  9
$LTSCALE
 40
1.0
  9
$ATTMODE
 70
     1
  9
$TEXTSIZE
 40
30.0
  9
$TRACEWID
 40
0.05
  9
$TEXTSTYLE
  7
SUNPOU
  9
$CLAYER
  8
0
  9
$CELTYPE
  6
BYLAYER
  9
$CECOLOR
 62
   256
  9
$CELTSCALE
 40
1.0
  9
$DISPSILH
 70
     0
  9
$DIMSCALE
 40
1.0
  9
$DIMASZ
 40
2.0
  9
$DIMEXO
 40
10.0
  9
$DIMDLI
 40
0.38
  9
$DIMRND
 40
0.0
  9
$DIMDLE
 40
0.0
  9
$DIMEXE
 40
0.0
  9
$DIMTP
 40
0.0
  9
$DIMTM
 40
0.0
  9
$DIMTXT
 40
5.0
  9
$DIMCEN
 40
0.0
  9
$DIMTSZ
 40
0.0
  9
$DIMTOL
 70
     0
  9
$DIMLIM
 70
     0
  9
$DIMTIH
 70
     0
  9
$DIMTOH
 70
     0
  9
$DIMSE1
 70
     0
  9
$DIMSE2
 70
     0
  9
$DIMTAD
 70
     1
  9
$DIMZIN
 70
     0
  9
$DIMBLK
  1
Dot
  9
$DIMASO
 70
     1
  9
$DIMSHO
 70
     1
  9
$DIMPOST
  1

  9
$DIMAPOST
  1

  9
$DIMALT
 70
     0
  9
$DIMALTD
 70
     2
  9
$DIMALTF
 40
25.4
  9
$DIMLFAC
 40
1.0
  9
$DIMTOFL
 70
     0
  9
$DIMTVP
 40
0.0
  9
$DIMTIX
 70
     0
  9
$DIMSOXD
 70
     0
  9
$DIMSAH
 70
     0
  9
$DIMBLK1
  1

  9
$DIMBLK2
  1

  9
$DIMSTYLE
  2
STANDARD
  9
$DIMCLRD
 70
    60
  9
$DIMCLRE
 70
    70
  9
$DIMCLRT
 70
    60
  9
$DIMTFAC
 40
0.064286
  9
$DIMGAP
 40
3.0
  9
$DIMJUST
 70
     0
  9
$DIMSD1
 70
     0
  9
$DIMSD2
 70
     0
  9
$DIMTOLJ
 70
     1
  9
$DIMTZIN
 70
     0
  9
$DIMALTZ
 70
     0
  9
$DIMALTTZ
 70
     0
  9
$DIMUPT
 70
     0
  9
$DIMDEC
 70
     0
  9
$DIMTDEC
 70
     0
  9
$DIMALTU
 70
     2
  9
$DIMALTTD
 70
     2
  9
$DIMTXSTY
  7
SUNPOU
  9
$DIMAUNIT
 70
     0
  9
$DIMADEC
 70
     0
  9
$DIMALTRND
 40
0.0
  9
$DIMAZIN
 70
     0
  9
$DIMDSEP
 70
    46
  9
$DIMATFIT
 70
     3
  9
$DIMFRAC
 70
     0
  9
$DIMLDRBLK
  1

  9
$DIMLUNIT
 70
     2
  9
$DIMLWD
 70
    -2
  9
$DIMLWE
 70
    -2
  9
$DIMTMOVE
 70
     0
  9
$LUNITS
 70
     2
  9
$LUPREC
 70
     5
  9
$SKETCHINC
 40
0.1
  9
$FILLETRAD
 40
2.0
  9
$AUNITS
 70
     0
  9
$AUPREC
 70
     0
  9
$MENU
  1
acad
  9
$ELEVATION
 40
0.0
  9
$PELEVATION
 40
0.0
  9
$THICKNESS
 40
0.0
  9
$LIMCHECK
 70
     0
  9
$CHAMFERA
 40
0.0
  9
$CHAMFERB
 40
0.0
  9
$CHAMFERC
 40
0.0
  9
$CHAMFERD
 40
0.0
  9
$SKPOLY
 70
     0
  9
$TDCREATE
 40
2450623.654673033
  9
$TDUCREATE
 40
2450623.279673032
  9
$TDUPDATE
 40
2453874.765493877
  9
$TDUUPDATE
 40
2453874.390493877
  9
$TDINDWG
 40
1.4936618750
  9
$TDUSRTIMER
 40
1.4936617014
  9
$USRTIMER
 70
     1
  9
$ANGBASE
 50
0.0
  9
$ANGDIR
 70
     0
  9
$PDMODE
 70
     0
  9
$PDSIZE
 40
0.0
  9
$PLINEWID
 40
0.0
  9
$SPLFRAME
 70
     0
  9
$SPLINETYPE
 70
     6
  9
$SPLINESEGS
 70
     8
  9
$HANDSEED
  5
8C76
  9
$SURFTAB1
 70
     6
  9
$SURFTAB2
 70
     6
  9
$SURFTYPE
 70
     6
  9
$SURFU
 70
     6
  9
$SURFV
 70
     6
  9
$UCSBASE
  2

  9
$UCSNAME
  2

  9
$UCSORG
 10
0.0
 20
0.0
 30
0.0
  9
$UCSXDIR
 10
1.0
 20
0.0
 30
0.0
  9
$UCSYDIR
 10
0.0
 20
1.0
 30
0.0
  9
$UCSORTHOREF
  2

  9
$UCSORTHOVIEW
 70
     0
  9
$UCSORGTOP
 10
0.0
 20
0.0
 30
0.0
  9
$UCSORGBOTTOM
 10
0.0
 20
0.0
 30
0.0
  9
$UCSORGLEFT
 10
0.0
 20
0.0
 30
0.0
  9
$UCSORGRIGHT
 10
0.0
 20
0.0
 30
0.0
  9
$UCSORGFRONT
 10
0.0
 20
0.0
 30
0.0
  9
$UCSORGBACK
 10
0.0
 20
0.0
 30
0.0
  9
$PUCSBASE
  2

  9
$PUCSNAME
  2

  9
$PUCSORG
 10
0.0
 20
0.0
 30
0.0
  9
$PUCSXDIR
 10
1.0
 20
0.0
 30
0.0
  9
$PUCSYDIR
 10
0.0
 20
1.0
 30
0.0
  9
$PUCSORTHOREF
  2

  9
$PUCSORTHOVIEW
 70
     0
  9
$PUCSORGTOP
 10
0.0
 20
0.0
 30
0.0
  9
$PUCSORGBOTTOM
 10
0.0
 20
0.0
 30
0.0
  9
$PUCSORGLEFT
 10
0.0
 20
0.0
 30
0.0
  9
$PUCSORGRIGHT
 10
0.0
 20
0.0
 30
0.0
  9
$PUCSORGFRONT
 10
0.0
 20
0.0
 30
0.0
  9
$PUCSORGBACK
 10
0.0
 20
0.0
 30
0.0
  9
$USERI1
 70
     0
  9
$USERI2
 70
     0
  9
$USERI3
 70
     0
  9
$USERI4
 70
     0
  9
$USERI5
 70
     0
  9
$USERR1
 40
0.0
  9
$USERR2
 40
0.0
  9
$USERR3
 40
0.0
  9
$USERR4
 40
0.0
  9
$USERR5
 40
0.0
  9
$WORLDVIEW
 70
     1
  9
$SHADEDGE
 70
     3
  9
$SHADEDIF
 70
    70
  9
$TILEMODE
 70
     1
  9
$MAXACTVP
 70
    16
  9
$PINSBASE
 10
0.0
 20
0.0
 30
0.0
  9
$PLIMCHECK
 70
     0
  9
$PEXTMIN
 10
1.000000000000000E+20
 20
1.000000000000000E+20
 30
1.000000000000000E+20
  9
$PEXTMAX
 10
-1.000000000000000E+20
 20
-1.000000000000000E+20
 30
-1.000000000000000E+20
  9
$PLIMMIN
 10
0.0
 20
0.0
  9
$PLIMMAX
 10
12.0
 20
9.0
  9
$UNITMODE
 70
     0
  9
$VISRETAIN
 70
     0
  9
$PLINEGEN
 70
     0
  9
$PSLTSCALE
 70
     1
  9
$TREEDEPTH
 70
  3020
  9
$CMLSTYLE
  2
STANDARD
  9
$CMLJUST
 70
     0
  9
$CMLSCALE
 40
1.0
  9
$PROXYGRAPHICS
 70
     1
  9
$MEASUREMENT
 70
     0
  9
$CELWEIGHT
370
    -1
  9
$ENDCAPS
280
     0
  9
$JOINSTYLE
280
     0
  9
$LWDISPLAY
290
     0
  9
$INSUNITS
 70
     0
  9
$HYPERLINKBASE
  1

  9
$STYLESHEET
  1

  9
$XEDIT
290
     1
  9
$CEPSNTYPE
380
     0
  9
$PSTYLEMODE
290
     1
  9
$FINGERPRINTGUID
  2
{FB88A696-E29C-4009-92AF-A3599A8169D5}
  9
$VERSIONGUID
  2
{8E5D5D87-DB6C-4A91-83AB-844F93EB92A9}
  9
$EXTNAMES
290
     1
  9
$PSVPSCALE
 40
0.0
  9
$OLESTARTUP
290
     0
  0
ENDSEC
  0
SECTION
  2
CLASSES
  0
CLASS
  1
DICTIONARYVAR
  2
AcDbDictionaryVar
  3
ObjectDBX Classes
 90
        0
280
     0
281
     0
  0
CLASS
  1
ACDBDICTIONARYWDFLT
  2
AcDbDictionaryWithDefault
  3
ObjectDBX Classes
 90
        0
280
     0
281
     0
  0
CLASS
  1
ACDBPLACEHOLDER
  2
AcDbPlaceHolder
  3
ObjectDBX Classes
 90
        0
280
     0
281
     0
  0
CLASS
  1
LAYOUT
  2
AcDbLayout
  3
ObjectDBX Classes
 90
        0
280
     0
281
     0
  0
CLASS
  1
TABLESTYLE
  2
AcDbTableStyle
  3
ObjectDBX Classes
 90
     2047
280
     0
281
     0
  0
CLASS
  1
SORTENTSTABLE
  2
AcDbSortentsTable
  3
ObjectDBX Classes
 90
        0
280
     0
281
     0
  0
ENDSEC
  0
SECTION
  2
TABLES
  0
TABLE
  2
VPORT
  5
12
330
0
100
AcDbSymbolTable
 70
     9
  0
VPORT
  5
8C70
330
12
100
AcDbSymbolTableRecord
100
AcDbViewportTableRecord
  2
*Active
 70
     0
 10
0.0
 20
0.0
 11
1.0
 21
1.0
 12
35.87291040826827
 22
92.69045761325385
 13
0.0
 23
0.0
 14
1.0
 24
1.0
 15
0.0
 25
0.0
 16
0.0
 26
0.0
 36
1.0
 17
0.0
 27
0.0
 37
0.0
 40
332.5609075639769
 41
1.556122448979591
 42
50.0
 43
0.0
 44
0.0
 50
0.0
 51
0.0
 71
     0
 72
 20000
 73
     1
 74
     1
 75
     0
 76
     0
 77
     0
 78
     0
281
     0
 65
     1
110
0.0
120
0.0
130
0.0
111
1.0
121
0.0
131
0.0
112
0.0
122
1.0
132
0.0
 79
     0
146
0.0
  0
ENDTAB
  0
TABLE
  2
LTYPE
  5
D
330
0
100
AcDbSymbolTable
 70
     2
  0
LTYPE
  5
E
330
D
100
AcDbSymbolTableRecord
100
AcDbLinetypeTableRecord
  2
BYBLOCK
 70
     0
  3

 72
    65
 73
     0
 40
0.0
  0
LTYPE
  5
F
330
D
100
AcDbSymbolTableRecord
100
AcDbLinetypeTableRecord
  2
BYLAYER
 70
     0
  3

 72
    65
 73
     0
 40
0.0
  0
LTYPE
  5
5
330
D
100
AcDbSymbolTableRecord
100
AcDbLinetypeTableRecord
  2
CONTINUOUS
 70
     0
  3
Solid line
 72
    65
 73
     0
 40
0.0
  0
ENDTAB
  0
TABLE
  2
LAYER
  5
A
102
{ACAD_XDICTIONARY
360
1B4
102
}
330
0
100
AcDbSymbolTable
 70
     6
  0
LAYER
  5
4
330
A
100
AcDbSymbolTableRecord
100
AcDbLayerTableRecord
  2
0
 70
     0
 62
     7
  6
CONTINUOUS
370
    -3
390
57
  0
LAYER
  5
25
330
A
100
AcDbSymbolTableRecord
100
AcDbLayerTableRecord
  2
KIJUN
 70
     0
 62
     7
  6
CONTINUOUS
370
    -3
390
57
  0
LAYER
  5
22
330
A
100
AcDbSymbolTableRecord
100
AcDbLayerTableRecord
  2
HOJO
 70
     0
 62
     3
  6
CONTINUOUS
370
    -3
390
57
  0
LAYER
  5
1B
330
A
100
AcDbSymbolTableRecord
100
AcDbLayerTableRecord
  2
WAKU
 70
     0
 62
     1
  6
CONTINUOUS
370
    -3
390
57
  0
LAYER
  5
31
330
A
100
AcDbSymbolTableRecord
100
AcDbLayerTableRecord
  2
DEFPOINTS
 70
     0
 62
     7
  6
CONTINUOUS
290
     0
370
    -3
390
57
  0
LAYER
  5
28
330
A
100
AcDbSymbolTableRecord
100
AcDbLayerTableRecord
  2
SUNPOU
 70
     0
 62
    70
  6
CONTINUOUS
370
    -3
390
57
  0
ENDTAB
  0
TABLE
  2
STYLE
  5
B
330
0
100
AcDbSymbolTable
 70
     2
  0
STYLE
  5
C
330
B
100
AcDbSymbolTableRecord
100
AcDbTextStyleTableRecord
  2
STANDARD
 70
     0
 40
0.0
 41
1.0
 50
0.0
 71
     0
 42
0.2
  3
txt
  4

  0
STYLE
  5
1C
330
B
100
AcDbSymbolTableRecord
100
AcDbTextStyleTableRecord
  2
SUNPOU
 70
     0
 40
0.0
 41
1.0
 50
0.0
 71
     0
 42
30.0
  3
txt
  4
bigfont
  0
ENDTAB
  0
TABLE
  2
VIEW
  5
10
330
0
100
AcDbSymbolTable
 70
     0
  0
ENDTAB
  0
TABLE
  2
UCS
  5
11
330
0
100
AcDbSymbolTable
 70
     0
  0
ENDTAB
  0
TABLE
  2
APPID
  5
14
330
0
100
AcDbSymbolTable
 70
    10
  0
APPID
  5
15
330
14
100
AcDbSymbolTableRecord
100
AcDbRegAppTableRecord
  2
ACAD
 70
     0
  0
APPID
  5
1D3
330
14
100
AcDbSymbolTableRecord
100
AcDbRegAppTableRecord
  2
ACAD_DSTYLE_DIMTEXT_FILL
 70
     0
  0
APPID
  5
1D4
330
14
100
AcDbSymbolTableRecord
100
AcDbRegAppTableRecord
  2
ACAD_DSTYLE_DIMEXT_LENGTH
 70
     0
  0
APPID
  5
1D5
330
14
100
AcDbSymbolTableRecord
100
AcDbRegAppTableRecord
  2
ACAD_DSTYLE_DIMEXT_ENABLED
 70
     0
  0
APPID
  5
1D6
330
14
100
AcDbSymbolTableRecord
100
AcDbRegAppTableRecord
  2
ACAD_DSTYLE_DIM_LINETYPE
 70
     0
  0
APPID
  5
1D7
330
14
100
AcDbSymbolTableRecord
100
AcDbRegAppTableRecord
  2
ACAD_DSTYLE_DIM_EXT1_LINETYPE
 70
     0
  0
APPID
  5
1D8
330
14
100
AcDbSymbolTableRecord
100
AcDbRegAppTableRecord
  2
ACAD_DSTYLE_DIM_EXT2_LINETYPE
 70
     0
  0
APPID
  5
294
330
14
100
AcDbSymbolTableRecord
100
AcDbRegAppTableRecord
  2
ACAD_DSTYLE_DIMJOGGED_JOGANGLE_SYMBOL
 70
     0
  0
APPID
  5
478
330
14
100
AcDbSymbolTableRecord
100
AcDbRegAppTableRecord
  2
ACAD_DSTYLE_DIMARC_LENGTH_SYMBOL
 70
     0
  0
APPID
  5
F55
330
14
100
AcDbSymbolTableRecord
100
AcDbRegAppTableRecord
  2
ACAD_EXEMPT_FROM_CAD_STANDARDS
 70
     0
  0
ENDTAB
  0
TABLE
  2
DIMSTYLE
  5
16
330
0
100
AcDbSymbolTable
 70
     2
100
AcDbDimStyleTable
 71
     1
340
1E
  0
DIMSTYLE
105
1E
102
{ACAD_REACTORS
330
8A48
330
8A55
102
}
330
16
100
AcDbSymbolTableRecord
100
AcDbDimStyleTableRecord
  2
STANDARD
 70
     0
340
C
  0
ENDTAB
  0
TABLE
  2
BLOCK_RECORD
  5
1
330
0
100
AcDbSymbolTable
 70
    12
  0
BLOCK_RECORD
  5
2
102
{ACAD_XDICTIONARY
360
D13
102
}
330
1
100
AcDbSymbolTableRecord
100
AcDbBlockTableRecord
  2
*MODEL_SPACE
340
5A
  0
BLOCK_RECORD
  5
7
330
1
100
AcDbSymbolTableRecord
100
AcDbBlockTableRecord
  2
*PAPER_SPACE
340
5B
  0
BLOCK_RECORD
  5
109
330
1
100
AcDbSymbolTableRecord
100
AcDbBlockTableRecord
  2
_Dot
340
0
102
{BLKREFS
331
87A6
331
87A7
331
87C2
331
87C3
331
8901
331
8902
331
8913
331
8914
331
8B0E
331
8B0F
331
8B17
331
8B18
102
}
  0
BLOCK_RECORD
  5
8A49
330
1
100
AcDbSymbolTableRecord
100
AcDbBlockTableRecord
  2
*D8
340
0
  0
BLOCK_RECORD
  5
8A56
330
1
100
AcDbSymbolTableRecord
100
AcDbBlockTableRecord
  2
*D9
340
0
  0
ENDTAB
  0
ENDSEC
  0
SECTION
  2
BLOCKS
  0
BLOCK
  5
3
330
2
100
AcDbEntity
  8
0
100
AcDbBlockBegin
  2
*MODEL_SPACE
 70
     0
 10
0.0
 20
0.0
 30
0.0
  3
*MODEL_SPACE
  1

  0
ENDBLK
  5
6
330
2
100
AcDbEntity
  8
0
100
AcDbBlockEnd
  0
BLOCK
  5
8
330
7
100
AcDbEntity
 67
     1
  8
0
100
AcDbBlockBegin
  2
*PAPER_SPACE
 70
     0
 10
0.0
 20
0.0
 30
0.0
  3
*PAPER_SPACE
  1

  0
ENDBLK
  5
9
330
7
100
AcDbEntity
 67
     1
  8
0
100
AcDbBlockEnd
  0
BLOCK
  5
10C
330
109
100
AcDbEntity
  8
0
100
AcDbBlockBegin
  2
_Dot
 70
     0
 10
0.0
 20
0.0
 30
0.0
  3
_Dot
  1

  0
LWPOLYLINE
  5
10A
330
109
100
AcDbEntity
  8
0
  6
ByBlock
 62
     0
100
AcDbPolyline
 90
        2
 70
     1
 43
0.5
 10
-0.25
 20
0.0
 42
1.0
 10
0.25
 20
0.0
 42
1.0
  0
LINE
  5
10B
330
109
100
AcDbEntity
  8
0
  6
ByBlock
 62
     0
370
    -2
100
AcDbLine
 10
-0.5
 20
0.0
 30
0.0
 11
-1.0
 21
0.0
 31
0.0
  0
ENDBLK
  5
10D
330
109
100
AcDbEntity
  8
0
100
AcDbBlockEnd
  0
BLOCK
  5
8A53
330
8A49
100
AcDbEntity
  8
0
100
AcDbBlockBegin
  2
*D8
 70
     1
 10
0.0
 20
0.0
 30
0.0
  3
*D8
  1

  0
LINE
  5
8B0B
330
8A49
100
AcDbEntity
  8
SUNPOU
 62
    70
370
    -2
100
AcDbLine
 10
-172.6743584309507
 20
155.6183079226745
 30
0.0
 11
-172.6743584309507
 21
177.3825828770684
 31
0.0
  0
LINE
  5
8B0C
330
8A49
100
AcDbEntity
  8
SUNPOU
 62
    70
370
    -2
100
AcDbLine
 10
292.3256415690492
 20
152.039691898058
 30
0.0
 11
292.3256415690492
 21
177.3825828770684
 31
0.0
  0
LINE
  5
8B0D
330
8A49
100
AcDbEntity
  8
SUNPOU
 62
    60
370
    -2
100
AcDbLine
 10
-170.6743584309507
 20
177.3825828770684
 30
0.0
 11
290.3256415690492
 21
177.3825828770684
 31
0.0
  0
INSERT
  5
8B0E
330
8A49
100
AcDbEntity
  8
SUNPOU
 62
    60
370
    -2
100
AcDbBlockReference
  2
_Dot
 10
-172.6743584309507
 20
177.3825828770684
 30
0.0
 41
2.0
 42
2.0
 43
2.0
 50
180.0
  0
INSERT
  5
8B0F
330
8A49
100
AcDbEntity
  8
SUNPOU
 62
    60
370
    -2
100
AcDbBlockReference
  2
_Dot
 10
292.3256415690492
 20
177.3825828770684
 30
0.0
 41
2.0
 42
2.0
 43
2.0
  0
MTEXT
  5
8B10
330
8A49
100
AcDbEntity
  8
SUNPOU
 62
    60
100
AcDbMText
 10
59.82564156904922
 20
182.8825828770684
 30
0.0
 40
5.0
 41
0.0
 71
     5
 72
     1
  1
\A1;465
  7
SUNPOU
 73
     1
 44
1.0
1001
ACAD
1000
MTEXTBEGIN
1070
    73
1070
     1
1070
    44
1040
1.0
1070
    74
1070
     0
1000
MTEXTEND
  0
POINT
  5
8B11
330
8A49
100
AcDbEntity
  8
DEFPOINTS
 62
     0
100
AcDbPoint
 10
-172.6743584309507
 20
145.6183079226746
 30
0.0
  0
POINT
  5
8B12
330
8A49
100
AcDbEntity
  8
DEFPOINTS
 62
     0
100
AcDbPoint
 10
292.3256415690492
 20
142.039691898058
 30
0.0
  0
POINT
  5
8B13
330
8A49
100
AcDbEntity
  8
DEFPOINTS
 62
     0
100
AcDbPoint
 10
292.3256415690492
 20
177.3825828770684
 30
0.0
  0
ENDBLK
  5
8A54
330
8A49
100
AcDbEntity
  8
0
100
AcDbBlockEnd
  0
BLOCK
  5
8A60
330
8A56
100
AcDbEntity
  8
0
100
AcDbBlockBegin
  2
*D9
 70
     1
 10
0.0
 20
0.0
 30
0.0
  3
*D9
  1

  0
LINE
  5
8B14
330
8A56
100
AcDbEntity
  8
SUNPOU
 62
    70
370
    -2
100
AcDbLine
 10
-182.6743584309507
 20
145.6183079226746
 30
0.0
 11
-213.6133470174404
 21
145.6183079226746
 31
0.0
  0
LINE
  5
8B15
330
8A56
100
AcDbEntity
  8
SUNPOU
 62
    70
370
    -2
100
AcDbLine
 10
-183.5399692092919
 20
50.6183079226745
 30
0.0
 11
-213.6133470174405
 21
50.61830792267451
 31
0.0
  0
LINE
  5
8B16
330
8A56
100
AcDbEntity
  8
SUNPOU
 62
    60
370
    -2
100
AcDbLine
 10
-213.6133470174404
 20
143.6183079226746
 30
0.0
 11
-213.6133470174405
 21
52.61830792267451
 31
0.0
  0
INSERT
  5
8B17
330
8A56
100
AcDbEntity
  8
SUNPOU
 62
    60
370
    -2
100
AcDbBlockReference
  2
_Dot
 10
-213.6133470174404
 20
145.6183079226746
 30
0.0
 41
2.0
 42
2.0
 43
2.0
 50
90.0
  0
INSERT
  5
8B18
330
8A56
100
AcDbEntity
  8
SUNPOU
 62
    60
370
    -2
100
AcDbBlockReference
  2
_Dot
 10
-213.6133470174405
 20
50.61830792267451
 30
0.0
 41
2.0
 42
2.0
 43
2.0
 50
270.0
  0
MTEXT
  5
8B19
330
8A56
100
AcDbEntity
  8
SUNPOU
 62
    60
100
AcDbMText
 10
-219.1133470174405
 20
98.11830792267452
 30
0.0
 40
5.0
 41
0.0
 71
     5
 72
     1
  1
\A1;95
  7
SUNPOU
 11
0.0000000000000001
 21
1.0
 31
0.0
 73
     1
 44
1.0
1001
ACAD
1000
MTEXTBEGIN
1070
    73
1070
     1
1070
    44
1040
1.0
1070
    74
1070
     0
1000
MTEXTEND
  0
POINT
  5
8B1A
330
8A56
100
AcDbEntity
  8
DEFPOINTS
 62
     0
100
AcDbPoint
 10
-172.6743584309507
 20
145.6183079226746
 30
0.0
  0
POINT
  5
8B1B
330
8A56
100
AcDbEntity
  8
DEFPOINTS
 62
     0
100
AcDbPoint
 10
-173.5399692092919
 20
50.6183079226745
 30
0.0
  0
POINT
  5
8B1C
330
8A56
100
AcDbEntity
  8
DEFPOINTS
 62
     0
100
AcDbPoint
 10
-213.6133470174405
 20
50.61830792267451
 30
0.0
  0
ENDBLK
  5
8A61
330
8A56
100
AcDbEntity
  8
0
100
AcDbBlockEnd
  0
ENDSEC
  0
SECTION
  2
ENTITIES
  0
LINE
  5
1F
330
2
100
AcDbEntity
  8
WAKU
100
AcDbLine
 10
0.0
 20
14.0
 30
0.0
 11
133.4211017667494
 21
13.99999999999999
 31
0.0
  0
LINE
  5
20
330
2
100
AcDbEntity
  8
WAKU
100
AcDbLine
 10
0.0
 20
0.0
 30
0.0
 11
133.4211017667494
 21
0.0
 31
0.0
  0
TEXT
  5
21
330
2
100
AcDbEntity
  8
HOJO
100
AcDbText
 10
9.653966000000025
 20
2.366626000000024
 30
0.0
 40
9.0
  1
TC394
  7
SUNPOU
100
AcDbText
  0
TEXT
  5
23
330
2
100
AcDbEntity
  8
HOJO
100
AcDbText
 10
75.8077226877416
 20
5.044386000000031
 30
0.0
 40
6.0
  1
465×95×6
  7
SUNPOU
100
AcDbText
  0
SPLINE
  5
89C3
102
{ACAD_REACTORS
330
8B1F
102
}
330
2
100
AcDbEntity
  8
KIJUN
100
AcDbSpline
210
0.0
220
0.0
230
1.0
 70
     8
 71
     3
 72
    14
 73
    10
 74
     0
 42
0.0000000001
 43
0.0000000001
 40
0.0
 40
0.0
 40
0.0
 40
0.0
 40
2.360804937749884
 40
4.888519026478916
 40
8.32072882437896
 40
11.61083366616766
 40
15.20348331780696
 40
29.23153594141169
 40
41.54243384795475
 40
41.54243384795475
 40
41.54243384795475
 40
41.54243384795475
 10
1.865303671775109
 20
101.670937922679
 30
0.0
 10
2.682858613756593
 20
102.1431613443388
 30
0.0
 10
4.375769715881574
 20
103.1209944319525
 30
0.0
 10
5.263786822479232
 20
106.9950836451399
 30
0.0
 10
-0.3278682162249424
 20
105.9715192190248
 30
0.0
 10
-4.473598656858257
 20
108.1156703445774
 30
0.0
 10
-4.613116664529115
 20
115.7343735138425
 30
0.0
 10
-1.00544561786387
 20
126.3192715362942
 30
0.0
 10
9.599143224374302
 20
130.7258931444377
 30
0.0
 10
14.55575721050218
 20
132.7855602017307
 30
0.0
  0
ELLIPSE
  5
89C4
102
{ACAD_REACTORS
330
8B1F
102
}
330
2
100
AcDbEntity
  8
KIJUN
100
AcDbEllipse
 10
33.74042607246781
 20
110.5161028877896
 30
0.0
 11
21.34150239916996
 21
0.0000000000001672
 31
0.0
210
0.0
220
0.0
230
1.0
 40
0.7751216785455542
 41
2.174525286539903
 42
3.859950031546555
  0
ELLIPSE
  5
89C5
102
{ACAD_REACTORS
330
8B1F
102
}
330
2
100
AcDbEntity
  8
KIJUN
100
AcDbEllipse
 10
30.03435703670846
 20
113.1372732196237
 30
0.0
 11
31.81708505485226
 21
0.0000000000002351
 31
0.0
210
0.0
220
0.0
230
0.9999999999999998
 40
0.7751216785455553
 41
3.625156414100071
 42
4.989837974099123
  0
SPLINE
  5
89C7
102
{ACAD_REACTORS
330
8B1F
102
}
330
2
100
AcDbEntity
  8
KIJUN
100
AcDbSpline
210
0.0
220
0.0
230
1.0
 70
     8
 71
     3
 72
    15
 73
    11
 74
     0
 42
0.0000000001
 43
0.0000000001
 40
0.0
 40
0.0
 40
0.0
 40
0.0
 40
3.944153969757755
 40
8.057646281266809
 40
9.682256321609862
 40
11.30679795393234
 40
19.11314146445586
 40
37.90580864985403
 40
51.28201847232601
 40
66.72834797736396
 40
66.72834797736396
 40
66.72834797736396
 40
66.72834797736396
 10
-2.99039480679562
 20
107.5726723802482
 30
0.0
 10
-1.34266027948604
 20
107.4679244327102
 30
0.0
 10
2.023552624040007
 20
107.2539312883195
 30
0.0
 10
7.17281345938295
 20
110.8160464908062
 30
0.0
 10
3.928177098469518
 20
112.3348492048345
 30
0.0
 10
0.6440778877937419
 20
115.1030679314058
 30
0.0
 10
4.821799143824478
 20
126.4693765275202
 30
0.0
 10
20.53253645055622
 20
133.3802902159513
 30
0.0
 10
40.3112687174705
 20
138.841981229207
 30
0.0
 10
53.01667081603932
 20
139.4746011740552
 30
0.0
 10
59.82564156904925
 20
139.8136294605137
 30
0.0
  0
SPLINE
  5
89C8
102
{ACAD_REACTORS
330
8B1F
102
}
330
2
100
AcDbEntity
  8
KIJUN
100
AcDbSpline
210
0.0
220
0.0
230
1.0
 70
     8
 71
     3
 72
    20
 73
    16
 74
     0
 42
0.0000000001
 43
0.0000000001
 40
0.0
 40
0.0
 40
0.0
 40
0.0
 40
8.396930361839379
 40
13.8027856282323
 40
20.3581764476462
 40
24.03130348473588
 40
25.69956916377005
 40
28.63149017518021
 40
31.46611901997476
 40
35.12920939222963
 40
44.97794332285411
 40
57.34165276897241
 40
73.82262125100462
 40
86.6632845017574
 40
99.97407878127228
 40
99.97407878127228
 40
99.97407878127228
 40
99.97407878127228
 10
-4.59430138210871
 20
131.3353237770137
 30
0.0
 10
-7.061453522996089
 20
129.1141111505554
 30
0.0
 10
-11.11693220931011
 20
125.4629052459479
 30
0.0
 10
-12.84973282412181
 20
118.6252453394142
 30
0.0
 10
-13.57633931550163
 20
112.9978727874816
 30
0.0
 10
-11.14801780544962
 20
109.5616015277149
 30
0.0
 10
-7.726423161965726
 20
107.3077873825903
 30
0.0
 10
-5.743955340319644
 20
111.1750569825573
 30
0.0
 10
-8.872602673563619
 20
113.4436374812297
 30
0.0
 10
-10.86183552242073
 20
119.0996905361459
 30
0.0
 10
-5.377886522821427
 20
127.6653614737172
 30
0.0
 10
6.833785383057829
 20
136.8767976717192
 30
0.0
 10
24.12911846260738
 20
141.2032246387969
 30
0.0
 10
42.49452085687301
 20
143.5541375269638
 30
0.0
 10
53.26104355800907
 20
143.8747150186748
 30
0.0
 10
59.82564156904913
 20
143.9947060982888
 30
0.0
  0
SPLINE
  5
89CA
102
{ACAD_REACTORS
330
8B1F
102
}
330
2
100
AcDbEntity
  8
KIJUN
100
AcDbSpline
210
0.0
220
0.0
230
1.0
 70
     8
 71
     3
 72
    10
 73
     6
 74
     0
 42
0.0000000001
 43
0.0000000001
 40
0.0
 40
0.0
 40
0.0
 40
0.0
 40
4.36524115624772
 40
9.479951262949473
 40
14.52387293684771
 40
14.52387293684771
 40
14.52387293684771
 40
14.52387293684771
 10
-170.0397894099004
 20
83.2919911226744
 30
0.0
 10
-168.0765494352109
 20
83.10722173720614
 30
0.0
 10
-163.8130005014037
 20
82.70595988100501
 30
0.0
 10
-158.2928807603177
 20
86.55034185741374
 30
0.0
 10
-158.1674605878207
 20
90.10228231905569
 30
0.0
 10
-158.1051874845068
 20
91.86587704970486
 30
0.0
  0
SPLINE
  5
89CC
102
{ACAD_REACTORS
330
8B1F
102
}
330
2
100
AcDbEntity
  8
KIJUN
100
AcDbSpline
210
0.0
220
0.0
230
1.0
 70
     8
 71
     3
 72
     9
 73
     5
 74
     0
 42
0.0000000001
 43
0.0000000001
 40
0.0
 40
0.0
 40
0.0
 40
0.0
 40
8.124091228860605
 40
19.6539772698336
 40
19.6539772698336
 40
19.6539772698336
 40
19.6539772698336
 10
-154.2324245288265
 20
77.16567552267463
 30
0.0
 10
-153.1280012196311
 20
79.83369016211156
 30
0.0
 10
-150.4561564552482
 20
86.28820890173313
 30
0.0
 10
-152.0226083904178
 20
93.00408283569186
 30
0.0
 10
-152.9415578759698
 20
96.94390936856041
 30
0.0
  0
ELLIPSE
  5
89CE
102
{ACAD_REACTORS
330
8B1F
102
}
330
2
100
AcDbEntity
  8
KIJUN
100
AcDbEllipse
 10
-124.0340227901814
 20
121.2183269158493
 30
0.0
 11
13.79464990376628
 21
0.0000000000000499
 31
0.0
210
0.0
220
0.0
230
1.0
 40
0.7751216785455471
 41
0.2761899897195208
 42
2.293299780435623
  0
ELLIPSE
  5
89CF
102
{ACAD_REACTORS
330
8B1F
102
}
330
2
100
AcDbEntity
  8
KIJUN
100
AcDbEllipse
 10
-108.3852164918809
 20
99.84511941997959
 30
0.0
 11
23.51659656487652
 21
0.0000000000019596
 31
0.0
210
0.0
220
0.0
230
1.0
 40
0.7751216785454915
 41
1.602155044711427
 42
2.145831999426742
  0
ELLIPSE
  5
89D0
102
{ACAD_REACTORS
330
8B1F
102
}
330
2
100
AcDbEntity
  8
KIJUN
100
AcDbEllipse
 10
-113.8640057825284
 20
113.8407666272336
 30
0.0
 11
10.97776094638873
 21
0.0000000000002103
 31
0.0
210
0.0
220
0.0
230
1.0
 40
0.7751216785455638
 41
4.121124464482773
 42
5.793610822540294
  0
ELLIPSE
  5
89D2
102
{ACAD_REACTORS
330
8B1F
102
}
330
2
100
AcDbEntity
  8
KIJUN
100
AcDbEllipse
 10
-136.3770465006158
 20
109.2589818123097
 30
0.0
 11
-6.046394610829177
 21
0.0000000000002461
 31
0.0
210
0.0
220
0.0
230
1.0
 40
0.7751216785455503
 41
4.61522834581608
 42
6.159031499400481
  0
ELLIPSE
  5
89D6
102
{ACAD_REACTORS
330
8B1F
102
}
330
2
100
AcDbEntity
  8
KIJUN
100
AcDbEllipse
 10
-154.8704388477817
 20
108.6667316190477
 30
0.0
 11
12.91028715663775
 21
0.0000000000000954
 31
0.0
210
0.0
220
0.0
230
1.0
 40
0.7751216785455572
 41
1.937686710738565
 42
3.659450715599632
  0
ELLIPSE
  5
89D7
102
{ACAD_REACTORS
330
8B1F
102
}
330
2
100
AcDbEntity
  8
KIJUN
100
AcDbEllipse
 10
-139.2535578254416
 20
113.6524257284241
 30
0.0
 11
-21.01317196948841
 21
0.0000000000000293
 31
0.0
210
0.0
220
0.0
230
1.0
 40
0.775121678545554
 41
4.417973181367207
 42
6.012491201257888
  0
SPLINE
  5
89D8
102
{ACAD_REACTORS
330
8B1F
102
}
330
2
100
AcDbEntity
  8
KIJUN
100
AcDbSpline
210
0.0
220
0.0
230
1.0
 70
     8
 71
     3
 72
    16
 73
    12
 74
     0
 42
0.0000000001
 43
0.0000000001
 40
0.0
 40
0.0
 40
0.0
 40
0.0
 40
1.978621764947526
 40
7.43979617017302
 40
13.77932884406209
 40
19.54589812849894
 40
25.59057848587732
 40
32.86935037507756
 40
36.76461965386518
 40
40.91269384697146
 40
44.26793709050119
 40
44.26793709050119
 40
44.26793709050119
 40
44.26793709050119
 10
-119.9831339531664
 20
106.7762009226744
 30
0.0
 10
-119.5994577358399
 20
107.3870524409312
 30
0.0
 10
-118.1568005778024
 20
109.6839092058674
 30
0.0
 10
-119.6599391502635
 20
114.875556657514
 30
0.0
 10
-126.3670575493212
 20
118.6420680184607
 30
0.0
 10
-134.2301883226489
 20
119.4184630011643
 30
0.0
 10
-143.317686986774
 20
119.1595737096797
 30
0.0
 10
-147.5089816974623
 20
113.2377305356191
 30
0.0
 10
-149.2650937811417
 20
108.550326786513
 30
0.0
 10
-149.6326651348648
 20
103.8021178173693
 30
0.0
 10
-146.0795561512404
 20
103.0841479707532
 30
0.0
 10
-144.4907196117358
 20
102.763094850282
 30
0.0
  0
SPLINE
  5
89D9
102
{ACAD_REACTORS
330
8B1F
102
}
330
2
100
AcDbEntity
  8
KIJUN
100
AcDbSpline
210
0.0
220
0.0
230
1.0
 70
     8
 71
     3
 72
    10
 73
     6
 74
     0
 42
0.0000000001
 43
0.0000000001
 40
0.0
 40
0.0
 40
0.0
 40
0.0
 40
4.548082061862656
 40
10.23394251137264
 40
15.37230316540551
 40
15.37230316540551
 40
15.37230316540551
 40
15.37230316540551
 10
-148.9633029018018
 20
97.58672752267433
 30
0.0
 10
-150.990167854718
 20
97.16575445424689
 30
0.0
 10
-155.5509517465474
 20
96.21849490120348
 30
0.0
 10
-161.3411499916286
 20
99.84974185983913
 30
0.0
 10
-164.5599521885038
 20
102.4694450941658
 30
0.0
 10
-166.0879481896319
 20
103.7130431226743
 30
0.0
  0
ELLIPSE
  5
89DA
102
{ACAD_REACTORS
330
8B1F
102
}
330
2
100
AcDbEntity
  8
KIJUN
100
AcDbEllipse
 10
-177.2676831043922
 20
123.7775691382186
 30
0.0
 11
44.67098936369327
 21
0.0000000000001813
 31
0.0
210
0.0
220
0.0
230
1.0
 40
0.7751216785455998
 41
-0.1328047223092379
 42
0.1584007069241418
  0
ELLIPSE
  5
89DB
102
{ACAD_REACTORS
330
8B1F
102
}
330
2
100
AcDbEntity
  8
KIJUN
100
AcDbEllipse
 10
-109.8796883449743
 20
183.9800066927601
 30
0.0
 11
-98.52104790037628
 21
0.0000000000011436
 31
0.0
210
0.0
220
0.0
230
1.0
 40
0.7751216785455468
 41
1.042957391401015
 42
1.182680734347627
  0
LINE
  5
89DC
102
{ACAD_REACTORS
330
8B1F
102
}
330
2
100
AcDbEntity
  8
KIJUN
100
AcDbLine
 10
-123.6293660660018
 20
117.842548074611
 30
0.0
 11
-119.1437042002229
 21
122.8707715187437
 31
0.0
  0
LINE
  5
89DD
102
{ACAD_REACTORS
330
8B1F
102
}
330
2
100
AcDbEntity
  8
KIJUN
100
AcDbLine
 10
-126.5879941765956
 20
119.0996035151188
 30
0.0
 11
-124.392883503389
 21
124.2757162303938
 31
0.0
  0
LINE
  5
89DE
102
{ACAD_REACTORS
330
8B1F
102
}
330
2
100
AcDbEntity
  8
KIJUN
100
AcDbLine
 10
-140.1404180541186
 20
119.6172148427163
 30
0.0
 11
-141.0948142910578
 21
124.0538828843807
 31
0.0
  0
LINE
  5
89DF
102
{ACAD_REACTORS
330
8B1F
102
}
330
2
100
AcDbEntity
  8
KIJUN
100
AcDbLine
 10
-143.576244283182
 20
118.3601594022086
 30
0.0
 11
-148.0619061489609
 21
121.3918821715222
 31
0.0
  0
LINE
  5
89E0
102
{ACAD_REACTORS
330
8B1F
102
}
330
2
100
AcDbEntity
  8
KIJUN
100
AcDbLine
 10
-150.2570168221675
 20
108.5994904955278
 30
0.0
 11
-158.1785037974206
 21
110.3002131887623
 31
0.0
  0
LINE
  5
89E1
102
{ACAD_REACTORS
330
8B1F
102
}
330
2
100
AcDbEntity
  8
KIJUN
100
AcDbLine
 10
-151.1159736593307
 20
106.8248231667219
 30
0.0
 11
-160.4690549899925
 21
106.0114344182405
 31
0.0
  0
SPLINE
  5
89E3
102
{ACAD_REACTORS
330
8B1F
102
}
330
2
100
AcDbEntity
  8
KIJUN
100
AcDbSpline
210
0.0
220
0.0
230
1.0
 70
     8
 71
     3
 72
    10
 73
     6
 74
     0
 42
0.0000000001
 43
0.0000000001
 40
0.0
 40
0.0
 40
0.0
 40
0.0
 40
1.937717373376968
 40
9.479872025543626
 40
17.72847306352512
 40
17.72847306352512
 40
17.72847306352512
 40
17.72847306352512
 10
-53.46047341198039
 20
105.7551483226744
 30
0.0
 10
-52.67255410319194
 20
106.0030101116281
 30
0.0
 10
-48.81782569109532
 20
107.2156214405995
 30
0.0
 10
-41.53355530208921
 20
109.4785291930476
 30
0.0
 10
-36.04915833600774
 20
112.8134858852732
 30
0.0
 10
-33.18427945403312
 20
114.5555638309333
 30
0.0
  0
SPLINE
  5
89E4
102
{ACAD_REACTORS
330
8B1F
102
}
330
2
100
AcDbEntity
  8
KIJUN
100
AcDbSpline
210
0.0
220
0.0
230
1.0
 70
     8
 71
     3
 72
    17
 73
    13
 74
     0
 42
0.0000000001
 43
0.0000000001
 40
0.0
 40
0.0
 40
0.0
 40
0.0
 40
2.586091375433958
 40
6.382073038180353
 40
9.627837702785733
 40
12.51897287804625
 40
14.7375521544825
 40
20.88319051122983
 40
34.80960608872674
 40
46.34312256918413
 40
57.31321576094758
 40
63.85897725916173
 40
63.85897725916173
 40
63.85897725916173
 40
63.85897725916173
 10
-79.80608154710353
 20
106.7762009226744
 30
0.0
 10
-80.04735485250739
 20
107.7006696606266
 30
0.0
 10
-80.64278000719321
 20
109.982115344709
 30
0.0
 10
-76.78520992108736
 20
112.1586037831441
 30
0.0
 10
-72.59163518627406
 20
113.9353918130642
 30
0.0
 10
-69.30779172734708
 20
112.0103923675948
 30
0.0
 10
-65.82019548110134
 20
109.308419184661
 30
0.0
 10
-55.28741896364556
 20
108.9509353782317
 30
0.0
 10
-40.51131641769905
 20
111.7605455741682
 30
0.0
 10
-34.06087781803865
 20
123.9797261929913
 30
0.0
 10
-24.24595036935784
 20
130.7420498840526
 30
0.0
 10
-17.09449353101161
 20
132.9873597365867
 30
0.0
 10
-14.42195875282755
 20
133.8264431295704
 30
0.0
  0
SPLINE
  5
89E5
102
{ACAD_REACTORS
330
8B1F
102
}
330
2
100
AcDbEntity
  8
KIJUN
100
AcDbSpline
210
0.0
220
0.0
230
1.0
 70
     8
 71
     3
 72
    16
 73
    12
 74
     0
 42
0.0000000001
 43
0.0000000001
 40
0.0
 40
0.0
 40
0.0
 40
0.0
 40
2.592641565017096
 40
3.869096403543974
 40
4.964856382086089
 40
7.097626517589398
 40
9.041126544873595
 40
16.60463153276753
 40
23.76100531675317
 40
32.62687508664391
 40
40.94592603697956
 40
40.94592603697956
 40
40.94592603697956
 40
40.94592603697956
 10
-67.58299161020818
 20
110.7490706020453
 30
0.0
 10
-68.34238607078908
 20
111.5335004660207
 30
0.0
 10
-69.47565895198829
 20
112.7041346201951
 30
0.0
 10
-68.47007955676895
 20
114.3639565659862
 30
0.0
 10
-66.57866617513434
 20
115.2950866977672
 30
0.0
 10
-64.64071229002707
 20
113.7338092327857
 30
0.0
 10
-60.73639866127132
 20
111.3166556375915
 30
0.0
 10
-52.33629502238909
 20
112.8428257474312
 30
0.0
 10
-43.39563772379927
 20
116.6865835061867
 30
0.0
 10
-37.41546493361045
 20
123.8960764837526
 30
0.0
 10
-31.61212993433844
 20
127.6437492661073
 30
0.0
 10
-28.80279258988469
 20
129.4579607675256
 30
0.0
  0
ELLIPSE
  5
89E6
102
{ACAD_REACTORS
330
8B1F
102
}
330
2
100
AcDbEntity
  8
KIJUN
100
AcDbEllipse
 10
-65.26125879972198
 20
127.5353030646334
 30
0.0
 11
30.47643536058141
 21
0.0000000000001846
 31
0.0
210
0.0
220
0.0
230
1.0
 40
0.7751216785455445
 41
4.21486841160242
 42
5.10999275772306
  0
LINE
  5
89E8
102
{ACAD_REACTORS
330
8B1F
102
}
330
2
100
AcDbEntity
  8
KIJUN
100
AcDbLine
 10
-98.90664744506786
 20
107.7972535226745
 30
0.0
 11
-104.1757690720925
 21
109.8393587226745
 31
0.0
  0
ELLIPSE
  5
89E9
102
{ACAD_REACTORS
330
8B1F
102
}
330
2
100
AcDbEntity
  8
KIJUN
100
AcDbEllipse
 10
-94.88185296094185
 20
119.4820120698525
 30
0.0
 11
-5.247561663307985
 21
0.0000000000004722
 31
0.0
210
0.0
220
0.0
230
1.0
 40
0.7751216785455469
 41
3.28166247061077
 42
5.586516172148597
  0
ELLIPSE
  5
89EA
102
{ACAD_REACTORS
330
8B1F
102
}
330
2
100
AcDbEntity
  8
KIJUN
100
AcDbEllipse
 10
-92.02978867455602
 20
169.4110660067101
 30
0.0
 11
-79.78612803466996
 21
0.0000000000006427
 31
0.0
210
0.0
220
0.0
230
0.9999999999999998
 40
0.7751216785455798
 41
1.48449809260625
 42
1.72067496785524
  0
SPLINE
  5
89EB
102
{ACAD_REACTORS
330
8B1F
102
}
330
2
100
AcDbEntity
  8
KIJUN
100
AcDbSpline
210
0.0
220
0.0
230
1.0
 70
     8
 71
     3
 72
    11
 73
     7
 74
     0
 42
0.0000000001
 43
0.0000000001
 40
0.0
 40
0.0
 40
0.0
 40
0.0
 40
3.538989019227944
 40
8.259645460392107
 40
13.68058026058861
 40
19.37739701543096
 40
19.37739701543096
 40
19.37739701543096
 40
19.37739701543096
 10
-98.90664744506786
 20
122.0919899226745
 30
0.0
 10
-99.27521151455472
 20
120.8037253104258
 30
0.0
 10
-100.13540309098
 20
117.7970449001361
 30
0.0
 10
-93.8219818672926
 20
115.1304492995995
 30
0.0
 10
-87.39653536353035
 20
113.7443535412892
 30
0.0
 10
-82.45243302698805
 20
113.6287710475333
 30
0.0
 10
-79.9190390318953
 20
113.5695457371154
 30
0.0
  0
ELLIPSE
  5
89EC
102
{ACAD_REACTORS
330
8B1F
102
}
330
2
100
AcDbEntity
  8
KIJUN
100
AcDbEllipse
 10
-105.9657374929036
 20
119.1669159017022
 30
0.0
 11
8.004469883675042
 21
0.0000000000000058
 31
0.0
210
0.0
220
0.0
230
1.0
 40
0.7751216785455622
 41
0.4909327240126058
 42
2.213322037829321
  0
ELLIPSE
  5
89ED
102
{ACAD_REACTORS
330
8B1F
102
}
330
2
100
AcDbEntity
  8
KIJUN
100
AcDbEllipse
 10
-113.5912742166482
 20
111.443353962583
 30
0.0
 11
9.640224663847156
 21
0.000000000000129
 31
0.0
210
0.0
220
0.0
230
1.0
 40
0.7751216785455619
 41
-0.2163411264490578
 42
1.088798607097573
  0
ELLIPSE
  5
89EE
102
{ACAD_REACTORS
330
8B1F
102
}
330
2
100
AcDbEntity
  8
KIJUN
100
AcDbEllipse
 10
-137.9725896635008
 20
116.5499567655504
 30
0.0
 11
-28.91612553379752
 21
0.0000000000014593
 31
0.0
210
0.0
220
0.0
230
1.0
 40
0.7751216785455661
 41
3.209211645700362
 42
3.486780487037332
  0
ELLIPSE
  5
89EF
102
{ACAD_REACTORS
330
8B1F
102
}
330
2
100
AcDbEntity
  8
KIJUN
100
AcDbEllipse
 10
-4.364434583912156
 20
106.0881252859567
 30
0.0
 11
8.443035105958358
 21
0.000000000000218
 31
0.0
210
0.0
220
0.0
230
1.0
 40
0.7751216785455678
 41
3.349997584231235
 42
5.542276278236231
  0
ELLIPSE
  5
89F0
102
{ACAD_REACTORS
330
8B1F
102
}
330
2
100
AcDbEntity
  8
KIJUN
100
AcDbEllipse
 10
-18.97249594393111
 20
113.5226536597656
 30
0.0
 11
12.99424533412006
 21
0.0000000000001451
 31
0.0
210
0.0
220
0.0
230
1.0
 40
0.7751216785455427
 41
3.515968928110724
 42
5.222761151817207
  0
ELLIPSE
  5
89F1
102
{ACAD_REACTORS
330
8B1F
102
}
330
2
100
AcDbEntity
  8
KIJUN
100
AcDbEllipse
 10
-30.97727282515848
 20
111.9507859006083
 30
0.0
 11
2.725462224762132
 21
0.0000000000000413
 31
0.0
210
0.0
220
0.0
230
0.9999999999999998
 40
0.7751216785455394
 41
3.174412675386339
 42
4.679568958588206
  0
SPLINE
  5
89F2
102
{ACAD_REACTORS
330
8B1F
102
}
330
2
100
AcDbEntity
  8
KIJUN
100
AcDbSpline
210
0.0
220
0.0
230
1.0
 70
     8
 71
     3
 72
    12
 73
     8
 74
     0
 42
0.0000000001
 43
0.0000000001
 40
0.0
 40
0.0
 40
0.0
 40
0.0
 40
2.877957777216571
 40
6.907897244444624
 40
13.66158431967779
 40
23.03592971397494
 40
30.48014214844654
 40
30.48014214844654
 40
30.48014214844654
 40
30.48014214844654
 10
-12.62478080253515
 20
104.7340957226763
 30
0.0
 10
-12.02348844960511
 20
105.7352491130226
 30
0.0
 10
-10.58021995526019
 20
108.1382950510798
 30
0.0
 10
-17.16794345925154
 20
111.0244108038157
 30
0.0
 10
-16.85903971150787
 20
118.6070138845926
 30
0.0
 10
-13.54635017410044
 20
126.4826537421257
 30
0.0
 10
-7.340935513674025
 20
129.8464457048823
 30
0.0
 10
-4.59430138210871
 20
131.3353237770137
 30
0.0
  0
SPLINE
  5
89F3
102
{ACAD_REACTORS
330
8B1F
102
}
330
2
100
AcDbEntity
  8
KIJUN
100
AcDbSpline
210
0.0
220
0.0
230
1.0
 70
     8
 71
     3
 72
    11
 73
     7
 74
     0
 42
0.0000000001
 43
0.0000000001
 40
0.0
 40
0.0
 40
0.0
 40
0.0
 40
5.563486307153691
 40
16.77855928428098
 40
31.05277454289031
 40
43.13439870509305
 40
43.13439870509305
 40
43.13439870509305
 40
43.13439870509305
 10
-31.06670649712567
 20
109.8393587226745
 30
0.0
 10
-30.8712191053836
 20
111.7347448316367
 30
0.0
 10
-30.28166129745796
 20
117.4509174687351
 30
0.0
 10
-23.46494923789351
 20
127.1693377089711
 30
0.0
 10
-9.717931296802248
 20
134.8012779833803
 30
0.0
 10
1.092593405130287
 20
138.0166976890528
 30
0.0
 10
6.048181969758616
 20
139.4906591815105
 30
0.0
  0
SPLINE
  5
89F4
102
{ACAD_REACTORS
330
8B1F
102
}
330
2
100
AcDbEntity
  8
KIJUN
100
AcDbSpline
210
0.0
220
0.0
230
1.0
 70
     8
 71
     3
 72
    10
 73
     6
 74
     0
 42
0.0000000001
 43
0.0000000001
 40
0.0
 40
0.0
 40
0.0
 40
0.0
 40
8.257460148326003
 40
19.84264596165218
 40
27.10752454210181
 40
27.10752454210181
 40
27.10752454210181
 40
27.10752454210181
 10
-33.70126731063817
 20
111.8814639226744
 30
0.0
 10
-33.18532512635511
 20
114.69092846267
 30
0.0
 10
-31.94551798039106
 20
121.4420612816702
 30
0.0
 10
-24.17361140149615
 20
129.1596795051664
 30
0.0
 10
-17.13475703545134
 20
132.5282028413027
 30
0.0
 10
-14.42195875282755
 20
133.8264431295704
 30
0.0
  0
ELLIPSE
  5
89F5
102
{ACAD_REACTORS
330
8B1F
102
}
330
2
100
AcDbEntity
  8
KIJUN
100
AcDbEllipse
 10
48.00413342332831
 20
89.44467288582336
 30
0.0
 11
-9.255040872051667
 21
0.0000000000006828
 31
0.0
210
0.0
220
0.0
230
1.0
 40
0.7751216785455551
 41
0.0036753583411935
 42
1.567120968453856
  0
SPLINE
  5
89F6
102
{ACAD_REACTORS
330
8B1F
102
}
330
2
100
AcDbEntity
  8
KIJUN
100
AcDbSpline
210
0.0
220
0.0
230
1.0
 70
     8
 71
     3
 72
    12
 73
     8
 74
     0
 42
0.0000000001
 43
0.0000000001
 40
0.0
 40
0.0
 40
0.0
 40
0.0
 40
1.408177426012061
 40
3.145591137751147
 40
9.568925748718875
 40
16.20645375088058
 40
22.33085300362851
 40
22.33085300362851
 40
22.33085300362851
 40
22.33085300362851
 10
47.94894398082215
 20
82.1028122295562
 30
0.0
 10
48.2536708492679
 20
82.53880048407324
 30
0.0
 10
48.93437068091611
 20
83.51271241039626
 30
0.0
 10
53.42311161964755
 20
84.4205748746133
 30
0.0
 10
53.28088909628082
 20
90.83978879463064
 30
0.0
 10
54.41341035111202
 20
96.92486795630827
 30
0.0
 10
52.85960234393042
 20
101.207840294976
 30
0.0
 10
52.11393592474303
 20
103.2632220618941
 30
0.0
  0
SPLINE
  5
89F7
102
{ACAD_REACTORS
330
8B1F
102
}
330
2
100
AcDbEntity
  8
KIJUN
100
AcDbSpline
210
0.0
220
0.0
230
1.0
 70
     8
 71
     3
 72
    10
 73
     6
 74
     0
 42
0.0000000001
 43
0.0000000001
 40
0.0
 40
0.0
 40
0.0
 40
0.0
 40
4.365241156247777
 40
9.47995126294953
 40
14.52387293684777
 40
14.52387293684777
 40
14.52387293684777
 40
14.52387293684777
 10
289.691072547999
 20
83.2919911226744
 30
0.0
 10
287.7278325733095
 20
83.10722173720614
 30
0.0
 10
283.4642836395023
 20
82.70595988100479
 30
0.0
 10
277.9441638984163
 20
86.55034185741385
 30
0.0
 10
277.8187437259192
 20
90.10228231905569
 30
0.0
 10
277.7564706226053
 20
91.86587704970486
 30
0.0
  0
SPLINE
  5
89F8
102
{ACAD_REACTORS
330
8B1F
102
}
330
2
100
AcDbEntity
  8
KIJUN
100
AcDbSpline
210
0.0
220
0.0
230
1.0
 70
     8
 71
     3
 72
     9
 73
     5
 74
     0
 42
0.0000000001
 43
0.0000000001
 40
0.0
 40
0.0
 40
0.0
 40
0.0
 40
8.124091228860605
 40
19.6539772698336
 40
19.6539772698336
 40
19.6539772698336
 40
19.6539772698336
 10
273.883707666925
 20
77.16567552267463
 30
0.0
 10
272.7792843577297
 20
79.83369016211156
 30
0.0
 10
270.1074395933468
 20
86.28820890173313
 30
0.0
 10
271.6738915285163
 20
93.00408283569186
 30
0.0
 10
272.5928410140684
 20
96.94390936856041
 30
0.0
  0
SPLINE
  5
89F9
102
{ACAD_REACTORS
330
8B1F
102
}
330
2
100
AcDbEntity
  8
KIJUN
100
AcDbSpline
210
0.0
220
0.0
230
1.0
 70
     8
 71
     3
 72
    11
 73
     7
 74
     0
 42
0.0000000001
 43
0.0000000001
 40
0.0
 40
0.0
 40
0.0
 40
0.0
 40
12.49899328928814
 40
31.37488809789289
 40
38.00320729114293
 40
43.71469187340102
 40
43.71469187340102
 40
43.71469187340102
 40
43.71469187340102
 10
66.04842652107357
 20
69.23148740444196
 30
0.0
 10
64.10250087315706
 20
73.23086698054908
 30
0.0
 10
59.21785152283451
 20
83.2700824403172
 30
0.0
 10
60.20068814185538
 20
96.78510696663398
 30
0.0
 10
64.79224135419645
 20
106.8159808611351
 30
0.0
 10
65.42706468936092
 20
111.001871536219
 30
0.0
 10
65.72089299953574
 20
112.9393132077966
 30
0.0
  0
SPLINE
  5
89FA
102
{ACAD_REACTORS
330
8B1F
102
}
330
2
100
AcDbEntity
  8
KIJUN
100
AcDbSpline
210
0.0
220
0.0
230
1.0
 70
     8
 71
     3
 72
    12
 73
     8
 74
     0
 42
0.0000000001
 43
0.0000000001
 40
0.0
 40
0.0
 40
0.0
 40
0.0
 40
1.408177426012061
 40
3.145591137751147
 40
9.568925748718875
 40
16.20645375088058
 40
22.33085300362851
 40
22.33085300362851
 40
22.33085300362851
 40
22.33085300362851
 10
71.70233915727635
 20
82.1028122295562
 30
0.0
 10
71.39761228883094
 20
82.53880048407324
 30
0.0
 10
70.71691245718262
 20
83.51271241039626
 30
0.0
 10
66.22817151845106
 20
84.4205748746133
 30
0.0
 10
66.37039404181769
 20
90.83978879463064
 30
0.0
 10
65.23787278698614
 20
96.92486795630827
 30
0.0
 10
66.7916807941682
 20
101.207840294976
 30
0.0
 10
67.53734721335547
 20
103.2632220618941
 30
0.0
  0
ELLIPSE
  5
89FD
102
{ACAD_REACTORS
330
8B1F
102
}
330
2
100
AcDbEntity
  8
KIJUN
100
AcDbEllipse
 10
71.64714971477019
 20
89.44467288582336
 30
0.0
 11
9.255040872051669
 21
0.0000000000003725
 31
0.0
210
0.0
220
0.0
230
1.0
 40
0.7751216785455549
 41
-1.567120968453818
 42
-0.00367535834115
  0
SPLINE
  5
89FE
102
{ACAD_REACTORS
330
8B1F
102
}
330
2
100
AcDbEntity
  8
KIJUN
100
AcDbSpline
210
0.0
220
0.0
230
1.0
 70
     8
 71
     3
 72
    15
 73
    11
 74
     0
 42
0.0000000001
 43
0.0000000001
 40
0.0
 40
0.0
 40
0.0
 40
0.0
 40
5.834616377839282
 40
13.43347371549321
 40
20.10113881575493
 40
25.02804923818675
 40
29.01737269355729
 40
30.56430356616341
 40
34.83009038555389
 40
38.21666540612456
 40
38.21666540612456
 40
38.21666540612456
 40
38.21666540612456
 10
66.57791282404367
 20
82.862437679241
 30
0.0
 10
65.97042649005221
 20
80.92223739500139
 30
0.0
 10
64.57176526337957
 20
76.45516915378516
 30
0.0
 10
67.65418925424069
 20
69.23612973803404
 30
0.0
 10
62.305521141354
 20
63.90695268841489
 30
0.0
 10
55.97311550692279
 20
59.84500241172963
 30
0.0
 10
58.7105126541353
 20
56.65265971381234
 30
0.0
 10
60.01077626229039
 20
52.58581825192698
 30
0.0
 10
63.74909304047765
 20
58.15627916058701
 30
0.0
 10
61.96405193711496
 20
60.25270422568747
 30
0.0
 10
61.17407679770486
 20
61.18048324430276
 30
0.0
  0
ELLIPSE
  5
89FF
102
{ACAD_REACTORS
330
8B1F
102
}
330
2
100
AcDbEntity
  8
KIJUN
100
AcDbEllipse
 10
49.07049521736803
 20
82.1028122295562
 30
0.0
 11
-1.121551236545905
 21
0.0000000000000337
 31
0.0
210
0.0
220
0.0
230
1.0
 40
0.7751216785456348
 41
-0.1946219344362814
 42
1.76541826123126
  0
SPLINE
  5
8A00
102
{ACAD_REACTORS
330
8B1F
102
}
330
2
100
AcDbEntity
  8
KIJUN
100
AcDbSpline
210
0.0
220
0.0
230
1.0
 70
     8
 71
     3
 72
     9
 73
     5
 74
     0
 42
0.0000000001
 43
0.0000000001
 40
0.0
 40
0.0
 40
0.0
 40
0.0
 40
1.482286856470368
 40
3.570460444622455
 40
3.570460444622455
 40
3.570460444622455
 40
3.570460444622455
 10
48.94623057469368
 20
81.23882603120966
 30
0.0
 10
49.5964285853629
 20
81.33282622476214
 30
0.0
 10
51.16259391168455
 20
81.55924931648758
 30
0.0
 10
52.36824734741958
 20
82.38152947706238
 30
0.0
 10
53.07337031405495
 20
82.8624376792411
 30
0.0
  0
ELLIPSE
  5
8A01
102
{ACAD_REACTORS
330
8B1F
102
}
330
2
100
AcDbEntity
  8
KIJUN
100
AcDbEllipse
 10
78.43992819227913
 20
62.31174783960478
 30
0.0
 11
-23.95990990390041
 21
0.0000000000000919
 31
0.0
210
0.0
220
0.0
230
1.0
 40
0.7751216785455437
 41
0.0799325083369755
 42
0.6810802458877619
  0
ELLIPSE
  5
8A02
102
{ACAD_REACTORS
330
8B1F
102
}
330
2
100
AcDbEntity
  8
KIJUN
100
AcDbEllipse
 10
63.08982166711325
 20
67.5488889773984
 30
0.0
 11
12.16472556373084
 21
0.0000000000003168
 31
0.0
210
0.0
220
0.0
230
1.0
 40
0.7751216785455566
 41
2.514549663187375
 42
3.934918107769051
  0
ELLIPSE
  5
8A03
102
{ACAD_REACTORS
330
8B1F
102
}
330
2
100
AcDbEntity
  8
KIJUN
100
AcDbEllipse
 10
61.01101297090633
 20
79.99904388668972
 30
0.0
 11
11.83415758046666
 21
0.0000000000004054
 31
0.0
210
0.0
220
0.0
230
0.9999999999999998
 40
0.775121678545543
 41
3.004803884454748
 42
3.995922763265905
  0
SPLINE
  5
8A04
102
{ACAD_REACTORS
330
8B1F
102
}
330
2
100
AcDbEntity
  8
KIJUN
100
AcDbSpline
210
0.0
220
0.0
230
1.0
 70
     8
 71
     3
 72
     9
 73
     5
 74
     0
 42
0.0000000001
 43
0.0000000001
 40
0.0
 40
0.0
 40
0.0
 40
0.0
 40
1.482286856470368
 40
3.570460444622455
 40
3.570460444622455
 40
3.570460444622455
 40
3.570460444622455
 10
70.70505256340481
 20
81.23882603120966
 30
0.0
 10
70.05485455273583
 20
81.33282622476214
 30
0.0
 10
68.48868922641407
 20
81.55924931648758
 30
0.0
 10
67.28303579067915
 20
82.38152947706238
 30
0.0
 10
66.57791282404367
 20
82.8624376792411
 30
0.0
  0
ELLIPSE
  5
8A05
102
{ACAD_REACTORS
330
8B1F
102
}
330
2
100
AcDbEntity
  8
KIJUN
100
AcDbEllipse
 10
70.58078792073047
 20
82.1028122295562
 30
0.0
 11
1.121551236546006
 21
0.0000000000001906
 31
0.0
210
0.0
220
0.0
230
1.0
 40
0.7751216785455514
 41
4.517767045948235
 42
6.477807241615691
  0
ELLIPSE
  5
8A06
102
{ACAD_REACTORS
330
8B1F
102
}
330
2
100
AcDbEntity
  8
KIJUN
100
AcDbEllipse
 10
58.64027016719217
 20
79.99904388668972
 30
0.0
 11
-11.83415758046666
 21
0.000000000000408
 31
0.0
210
0.0
220
0.0
230
0.9999999999999998
 40
0.7751216785455427
 41
2.28726254391368
 42
3.278381422724838
  0
ELLIPSE
  5
8A07
102
{ACAD_REACTORS
330
8B1F
102
}
330
2
100
AcDbEntity
  8
KIJUN
100
AcDbEllipse
 10
56.56146147098536
 20
67.5488889773984
 30
0.0
 11
-12.16472556373072
 21
0.0000000000003195
 31
0.0
210
0.0
220
0.0
230
1.0
 40
0.7751216785455607
 41
2.348267199410531
 42
3.768635643992213
  0
ELLIPSE
  5
8A08
102
{ACAD_REACTORS
330
8B1F
102
}
330
2
100
AcDbEntity
  8
KIJUN
100
AcDbEllipse
 10
41.21135494581937
 20
62.31174783960478
 30
0.0
 11
-23.95990990390034
 21
0.0000000000015071
 31
0.0
210
0.0
220
0.0
230
0.9999999999999998
 40
0.775121678545516
 41
2.460512407702085
 42
3.0616601452529
  0
LINE
  5
8A0A
102
{ACAD_REACTORS
330
8B1F
102
}
330
2
100
AcDbEntity
  8
KIJUN
100
AcDbLine
 10
263.2275274212806
 20
118.3601594022086
 30
0.0
 11
267.7131892870595
 21
121.3918821715222
 31
0.0
  0
ELLIPSE
  5
8A0B
102
{ACAD_REACTORS
330
8B1F
102
}
330
2
100
AcDbEntity
  8
KIJUN
100
AcDbEllipse
 10
229.5309714830728
 20
183.9800066927601
 30
0.0
 11
98.52104790037982
 21
0.0000000000078377
 31
0.0
210
0.0
220
0.0
230
0.9999999999999998
 40
0.7751216785455255
 41
-1.182680734347694
 42
-1.042957391401087
  0
SPLINE
  5
8A0C
102
{ACAD_REACTORS
330
8B1F
102
}
330
2
100
AcDbEntity
  8
KIJUN
100
AcDbSpline
210
0.0
220
0.0
230
1.0
 70
     8
 71
     3
 72
    16
 73
    12
 74
     0
 42
0.0000000001
 43
0.0000000001
 40
0.0
 40
0.0
 40
0.0
 40
0.0
 40
1.978621764947526
 40
7.43979617017302
 40
13.77932884406209
 40
19.54589812849894
 40
25.59057848587732
 40
32.86935037507756
 40
36.76461965386518
 40
40.91269384697146
 40
44.26793709050119
 40
44.26793709050119
 40
44.26793709050119
 40
44.26793709050119
 10
239.6344170912649
 20
106.7762009226744
 30
0.0
 10
239.2507408739385
 20
107.3870524409312
 30
0.0
 10
237.8080837159004
 20
109.6839092058674
 30
0.0
 10
239.3112222883625
 20
114.875556657514
 30
0.0
 10
246.0183406874196
 20
118.6420680184607
 30
0.0
 10
253.8814714607477
 20
119.4184630011643
 30
0.0
 10
262.968970124872
 20
119.1595737096797
 30
0.0
 10
267.1602648355607
 20
113.2377305356191
 30
0.0
 10
268.9163769192404
 20
108.550326786513
 30
0.0
 10
269.2839482729632
 20
103.8021178173693
 30
0.0
 10
265.730839289339
 20
103.0841479707532
 30
0.0
 10
264.1420027498344
 20
102.763094850282
 30
0.0
  0
ELLIPSE
  5
8A0D
102
{ACAD_REACTORS
330
8B1F
102
}
330
2
100
AcDbEntity
  8
KIJUN
100
AcDbEllipse
 10
258.9048409635402
 20
113.6524257284241
 30
0.0
 11
-21.01317196948844
 21
0.0000000000002392
 31
0.0
210
0.0
220
0.0
230
1.0
 40
0.7751216785455507
 41
3.412286759511507
 42
5.00680477940218
  0
SPLINE
  5
8A0F
102
{ACAD_REACTORS
330
8B1F
102
}
330
2
100
AcDbEntity
  8
KIJUN
100
AcDbSpline
210
0.0
220
0.0
230
1.0
 70
     8
 71
     3
 72
    17
 73
    13
 74
     0
 42
0.0000000001
 43
0.0000000001
 40
0.0
 40
0.0
 40
0.0
 40
0.0
 40
2.586091375433958
 40
6.382073038180353
 40
9.627837702785733
 40
12.51897287804625
 40
14.7375521544825
 40
20.88319051122983
 40
34.80960608872674
 40
46.34312256918413
 40
57.31321576094758
 40
63.85897725916173
 40
63.85897725916173
 40
63.85897725916173
 40
63.85897725916173
 10
199.457364685202
 20
106.7762009226744
 30
0.0
 10
199.6986379906055
 20
107.7006696606266
 30
0.0
 10
200.2940631452914
 20
109.982115344709
 30
0.0
 10
196.4364930591857
 20
112.1586037831441
 30
0.0
 10
192.2429183243728
 20
113.9353918130642
 30
0.0
 10
188.9590748654456
 20
112.0103923675948
 30
0.0
 10
185.4714786191997
 20
109.308419184661
 30
0.0
 10
174.9387021017444
 20
108.9509353782317
 30
0.0
 10
160.1625995557971
 20
111.7605455741682
 30
0.0
 10
153.7121609561375
 20
123.9797261929913
 30
0.0
 10
143.897233507456
 20
130.7420498840526
 30
0.0
 10
136.7457766691102
 20
132.9873597365867
 30
0.0
 10
134.073241890926
 20
133.8264431295704
 30
0.0
  0
SPLINE
  5
8A10
102
{ACAD_REACTORS
330
8B1F
102
}
330
2
100
AcDbEntity
  8
KIJUN
100
AcDbSpline
210
0.0
220
0.0
230
1.0
 70
     8
 71
     3
 72
    10
 73
     6
 74
     0
 42
0.0000000001
 43
0.0000000001
 40
0.0
 40
0.0
 40
0.0
 40
0.0
 40
8.257460148326003
 40
19.84264596165218
 40
27.10752454210181
 40
27.10752454210181
 40
27.10752454210181
 40
27.10752454210181
 10
153.3525504487367
 20
111.8814639226744
 30
0.0
 10
152.8366082644537
 20
114.69092846267
 30
0.0
 10
151.5968011184896
 20
121.4420612816702
 30
0.0
 10
143.8248945395946
 20
129.1596795051664
 30
0.0
 10
136.7860401735499
 20
132.5282028413027
 30
0.0
 10
134.073241890926
 20
133.8264431295704
 30
0.0
  0
SPLINE
  5
8A11
102
{ACAD_REACTORS
330
8B1F
102
}
330
2
100
AcDbEntity
  8
KIJUN
100
AcDbSpline
210
0.0
220
0.0
230
1.0
 70
     8
 71
     3
 72
    11
 73
     7
 74
     0
 42
0.0000000001
 43
0.0000000001
 40
0.0
 40
0.0
 40
0.0
 40
0.0
 40
5.563486307153683
 40
16.77855928428098
 40
31.0527745428903
 40
43.13439870509305
 40
43.13439870509305
 40
43.13439870509305
 40
43.13439870509305
 10
150.7179896352242
 20
109.8393587226745
 30
0.0
 10
150.5225022434822
 20
111.7347448316367
 30
0.0
 10
149.9329444355564
 20
117.4509174687353
 30
0.0
 10
143.1162323759921
 20
127.1693377089709
 30
0.0
 10
129.3692144349011
 20
134.8012779833803
 30
0.0
 10
118.5586897329683
 20
138.0166976890528
 30
0.0
 10
113.6031011683399
 20
139.4906591815105
 30
0.0
  0
ELLIPSE
  5
8A13
102
{ACAD_REACTORS
330
8B1F
102
}
330
2
100
AcDbEntity
  8
KIJUN
100
AcDbEllipse
 10
138.6237790820296
 20
113.5226536597656
 30
0.0
 11
-12.99424533412008
 21
0.0000000000000008
 31
0.0
210
0.0
220
0.0
230
1.0
 40
0.7751216785455427
 41
1.06042415536236
 42
2.767216379068847
  0
SPLINE
  5
8A15
102
{ACAD_REACTORS
330
8B1F
102
}
330
2
100
AcDbEntity
  8
KIJUN
100
AcDbSpline
210
0.0
220
0.0
230
1.0
 70
     8
 71
     3
 72
    15
 73
    11
 74
     0
 42
0.0000000001
 43
0.0000000001
 40
0.0
 40
0.0
 40
0.0
 40
0.0
 40
3.944153969757699
 40
8.057646281266753
 40
9.682256321609807
 40
11.30679795393228
 40
19.1131414644558
 40
37.90580864985397
 40
51.28201847232595
 40
66.72834797736391
 40
66.72834797736391
 40
66.72834797736391
 40
66.72834797736391
 10
122.6416779448941
 20
107.5726723802482
 30
0.0
 10
120.9939434175844
 20
107.4679244327102
 30
0.0
 10
117.6277305140586
 20
107.2539312883197
 30
0.0
 10
112.4784696787153
 20
110.8160464908062
 30
0.0
 10
115.7231060396291
 20
112.3348492048344
 30
0.0
 10
119.0072052503049
 20
115.1030679314057
 30
0.0
 10
114.8294839942737
 20
126.4693765275204
 30
0.0
 10
99.11874668754263
 20
133.3802902159511
 30
0.0
 10
79.340014420628
 20
138.8419812292069
 30
0.0
 10
66.63461232205918
 20
139.4746011740552
 30
0.0
 10
59.82564156904925
 20
139.8136294605137
 30
0.0
  0
SPLINE
  5
8A16
102
{ACAD_REACTORS
330
8B1F
102
}
330
2
100
AcDbEntity
  8
KIJUN
100
AcDbSpline
210
0.0
220
0.0
230
1.0
 70
     8
 71
     3
 72
     9
 73
     5
 74
     0
 42
0.0000000001
 43
0.0000000001
 40
0.0
 40
0.0
 40
0.0
 40
0.0
 40
3.805237203731056
 40
7.13689358606175
 40
7.13689358606175
 40
7.13689358606175
 40
7.13689358606175
 10
80.36920061964782
 20
87.04534767031679
 30
0.0
 10
78.54361485057802
 20
87.1744280458364
 30
0.0
 10
75.11964660142258
 20
87.41652409788503
 30
0.0
 10
73.94766575630171
 20
89.88631738669392
 30
0.0
 10
73.40055973383812
 20
91.03927034507467
 30
0.0
  0
SPLINE
  5
8A17
102
{ACAD_REACTORS
330
8B1F
102
}
330
2
100
AcDbEntity
  8
KIJUN
100
AcDbSpline
210
0.0
220
0.0
230
1.0
 70
     8
 71
     3
 72
    10
 73
     6
 74
     0
 42
0.0000000001
 43
0.0000000001
 40
0.0
 40
0.0
 40
0.0
 40
0.0
 40
4.835437932009344
 40
8.044111472610222
 40
11.65418574625073
 40
11.65418574625073
 40
11.65418574625073
 40
11.65418574625073
 10
71.90810561735919
 20
97.23384020664504
 30
0.0
 10
72.44719127673511
 20
95.69036746018388
 30
0.0
 10
73.34400045891891
 20
93.12268548348436
 30
0.0
 10
75.85259580733225
 20
89.09211224808927
 30
0.0
 10
79.15416590197935
 20
89.30539020430058
 30
0.0
 10
80.90212807714795
 20
89.41830672267451
 30
0.0
  0
ELLIPSE
  5
8A18
102
{ACAD_REACTORS
330
8B1F
102
}
330
2
100
AcDbEntity
  8
KIJUN
100
AcDbEllipse
 10
86.05732050553957
 20
98.5668107277246
 30
0.0
 11
11.79623138537723
 21
0.0000000000001264
 31
0.0
210
0.0
220
0.0
230
0.9999999999999998
 40
0.77512167854555
 41
2.259687871976745
 42
4.018972784172755
  0
ELLIPSE
  5
8A19
102
{ACAD_REACTORS
330
8B1F
102
}
330
2
100
AcDbEntity
  8
KIJUN
100
AcDbEllipse
 10
57.74243232488004
 20
75.81993215191426
 30
0.0
 11
-74.2158360361567
 21
0.0000000000003671
 31
0.0
210
0.0
220
0.0
230
0.9999999999999998
 40
0.7751216785455456
 41
4.138621804555445
 42
4.684315687492817
  0
SPLINE
  5
8A1A
102
{ACAD_REACTORS
330
8B1F
102
}
330
2
100
AcDbEntity
  8
KIJUN
100
AcDbSpline
210
0.0
220
0.0
230
1.0
 70
     8
 71
     3
 72
    13
 73
     9
 74
     0
 42
0.0000000001
 43
0.0000000001
 40
0.0
 40
0.0
 40
0.0
 40
0.0
 40
4.038930249682135
 40
7.545747106173172
 40
11.68326936901122
 40
17.06249284905636
 40
20.81934850256704
 40
25.8815349550998
 40
25.8815349550998
 40
25.8815349550998
 40
25.8815349550998
 10
59.82564156904925
 20
114.9446217226745
 30
0.0
 10
61.72796854207331
 20
114.7585578244985
 30
0.0
 10
65.28199828864342
 20
114.4109432249805
 30
0.0
 10
67.32433097674823
 20
110.0886662687988
 30
0.0
 10
73.7721277365639
 20
109.6292618276072
 30
0.0
 10
77.20644087041717
 20
105.5535364716279
 30
0.0
 10
83.75515841381821
 20
104.3308559532714
 30
0.0
 10
85.29015300970469
 20
101.34355978714
 30
0.0
 10
86.1712497041724
 20
99.62883272267447
 30
0.0
  0
SPLINE
  5
8A1B
102
{ACAD_REACTORS
330
8B1F
102
}
330
2
100
AcDbEntity
  8
KIJUN
100
AcDbSpline
210
0.0
220
0.0
230
1.0
 70
     8
 71
     3
 72
    13
 73
     9
 74
     0
 42
0.0000000001
 43
0.0000000001
 40
0.0
 40
0.0
 40
0.0
 40
0.0
 40
4.038930249682135
 40
7.545747106173172
 40
11.68326936901122
 40
17.06249284905636
 40
20.81934850256704
 40
25.8815349550998
 40
25.8815349550998
 40
25.8815349550998
 40
25.8815349550998
 10
59.82564156904925
 20
114.9446217226745
 30
0.0
 10
57.92331459602531
 20
114.7585578244985
 30
0.0
 10
54.36928484945543
 20
114.4109432249805
 30
0.0
 10
52.32695216135005
 20
110.0886662687988
 30
0.0
 10
45.87915540153495
 20
109.6292618276072
 30
0.0
 10
42.4448422676811
 20
105.5535364716279
 30
0.0
 10
35.89612472428041
 20
104.3308559532714
 30
0.0
 10
34.36113012839394
 20
101.34355978714
 30
0.0
 10
33.48003343392611
 20
99.62883272267447
 30
0.0
  0
ELLIPSE
  5
8A1C
102
{ACAD_REACTORS
330
8B1F
102
}
330
2
100
AcDbEntity
  8
KIJUN
100
AcDbEllipse
 10
61.90885081321846
 20
75.81993215191426
 30
0.0
 11
74.21583603615679
 21
0.0000000000004495
 31
0.0
210
0.0
220
0.0
230
1.0
 40
0.7751216785455446
 41
1.598869619686766
 42
2.144563502624139
  0
SPLINE
  5
8A1D
102
{ACAD_REACTORS
330
8B1F
102
}
330
2
100
AcDbEntity
  8
KIJUN
100
AcDbSpline
210
0.0
220
0.0
230
1.0
 70
     8
 71
     3
 72
    11
 73
     7
 74
     0
 42
0.0000000001
 43
0.0000000001
 40
0.0
 40
0.0
 40
0.0
 40
0.0
 40
1.878258510243963
 40
5.05096209488344
 40
7.205162610208729
 40
8.259858756911274
 40
8.259858756911274
 40
8.259858756911274
 40
8.259858756911274
 10
33.48003343392611
 20
99.62883272267447
 30
0.0
 10
33.80447859586536
 20
99.01472971119176
 30
0.0
 10
34.67696776915284
 20
97.36330046626278
 30
0.0
 10
38.85271172119349
 20
96.97442712593749
 30
0.0
 10
40.70074921178298
 20
99.08636171019839
 30
0.0
 10
40.46499747134987
 20
100.1786116428333
 30
0.0
 10
40.3875108837775
 20
100.5376109863828
 30
0.0
  0
SPLINE
  5
8A1E
102
{ACAD_REACTORS
330
8B1F
102
}
330
2
100
AcDbEntity
  8
KIJUN
100
AcDbSpline
210
0.0
220
0.0
230
1.0
 70
     8
 71
     3
 72
    11
 73
     7
 74
     0
 42
0.0000000001
 43
0.0000000001
 40
0.0
 40
0.0
 40
0.0
 40
0.0
 40
1.739426392505433
 40
3.948969685542656
 40
5.83821017073888
 40
6.822307278383127
 40
6.822307278383127
 40
6.822307278383127
 40
6.822307278383127
 10
38.74915506095056
 20
89.41830672267451
 30
0.0
 10
38.12033935823661
 20
89.82197311679795
 30
0.0
 10
36.69275716303161
 20
90.73840531555891
 30
0.0
 10
37.88385736933822
 20
93.32908252160018
 30
0.0
 10
41.13748544318172
 20
92.96070504741647
 30
0.0
 10
41.13469441019413
 20
91.89859902799378
 30
0.0
 10
41.13373850181187
 20
91.53483548543977
 30
0.0
  0
ELLIPSE
  5
8A1F
102
{ACAD_REACTORS
330
8B1F
102
}
330
2
100
AcDbEntity
  8
KIJUN
100
AcDbEllipse
 10
33.59396263255894
 20
98.5668107277246
 30
0.0
 11
-11.79623138537723
 21
0.0000000000001317
 31
0.0
210
0.0
220
0.0
230
1.0
 40
0.77512167854555
 41
2.264212523006829
 42
4.02349743520284
  0
SPLINE
  5
8A20
102
{ACAD_REACTORS
330
8B1F
102
}
330
2
100
AcDbEntity
  8
KIJUN
100
AcDbSpline
210
0.0
220
0.0
230
1.0
 70
     8
 71
     3
 72
    10
 73
     6
 74
     0
 42
0.0000000001
 43
0.0000000001
 40
0.0
 40
0.0
 40
0.0
 40
0.0
 40
4.835437932009344
 40
8.044111472610222
 40
11.65418574625073
 40
11.65418574625073
 40
11.65418574625073
 40
11.65418574625073
 10
47.74317752073943
 20
97.23384020664504
 30
0.0
 10
47.20409186136339
 20
95.69036746018388
 30
0.0
 10
46.30728267917937
 20
93.12268548348436
 30
0.0
 10
43.79868733076648
 20
89.09211224808927
 30
0.0
 10
40.49711723611892
 20
89.30539020430058
 30
0.0
 10
38.74915506095056
 20
89.41830672267451
 30
0.0
  0
SPLINE
  5
8A21
102
{ACAD_REACTORS
330
8B1F
102
}
330
2
100
AcDbEntity
  8
KIJUN
100
AcDbSpline
210
0.0
220
0.0
230
1.0
 70
     8
 71
     3
 72
     9
 73
     5
 74
     0
 42
0.0000000001
 43
0.0000000001
 40
0.0
 40
0.0
 40
0.0
 40
0.0
 40
3.805237203731056
 40
7.13689358606175
 40
7.13689358606175
 40
7.13689358606175
 40
7.13689358606175
 10
39.28208251845069
 20
87.04534767031679
 30
0.0
 10
41.10766828752048
 20
87.1744280458364
 30
0.0
 10
44.53163653667593
 20
87.41652409788503
 30
0.0
 10
45.70361738179679
 20
89.88631738669392
 30
0.0
 10
46.25072340426038
 20
91.03927034507467
 30
0.0
  0
ELLIPSE
  5
8A22
102
{ACAD_REACTORS
330
8B1F
102
}
330
2
100
AcDbEntity
  8
KIJUN
100
AcDbEllipse
 10
25.57635099338916
 20
115.5012930433763
 30
0.0
 11
-21.94974358745681
 21
0.0000000000000452
 31
0.0
210
0.0
220
0.0
230
1.0
 40
0.7751216785455321
 41
1.202441766047028
 42
1.93915088754275
  0
SPLINE
  5
8A23
102
{ACAD_REACTORS
330
8B1F
102
}
330
2
100
AcDbEntity
  8
KIJUN
100
AcDbSpline
210
0.0
220
0.0
230
1.0
 70
     8
 71
     3
 72
    12
 73
     8
 74
     0
 42
0.0000000001
 43
0.0000000001
 40
0.0
 40
0.0
 40
0.0
 40
0.0
 40
2.877957777216571
 40
6.907897244444624
 40
13.66158431967779
 40
23.03592971397494
 40
30.48014214844654
 40
30.48014214844654
 40
30.48014214844654
 40
30.48014214844654
 10
132.2760639406336
 20
104.7340957226763
 30
0.0
 10
131.6747715877037
 20
105.7352491130226
 30
0.0
 10
130.2315030933592
 20
108.1382950510798
 30
0.0
 10
136.8192265973496
 20
111.0244108038157
 30
0.0
 10
136.5103228496067
 20
118.6070138845926
 30
0.0
 10
133.197633312199
 20
126.4826537421257
 30
0.0
 10
126.9922186517724
 20
129.8464457048823
 30
0.0
 10
124.2455845202072
 20
131.3353237770137
 30
0.0
  0
SPLINE
  5
8A24
102
{ACAD_REACTORS
330
8B1F
102
}
330
2
100
AcDbEntity
  8
KIJUN
100
AcDbSpline
210
0.0
220
0.0
230
1.0
 70
     8
 71
     3
 72
    14
 73
    10
 74
     0
 42
0.0000000001
 43
0.0000000001
 40
0.0
 40
0.0
 40
0.0
 40
0.0
 40
2.360804937749884
 40
4.888519026478916
 40
8.32072882437896
 40
11.61083366616766
 40
15.20348331780696
 40
29.23153594141169
 40
41.54243384795475
 40
41.54243384795475
 40
41.54243384795475
 40
41.54243384795475
 10
117.7859794663234
 20
101.670937922679
 30
0.0
 10
116.968424524342
 20
102.1431613443388
 30
0.0
 10
115.2755134222172
 20
103.1209944319525
 30
0.0
 10
114.3874963156191
 20
106.9950836451399
 30
0.0
 10
119.9791513543235
 20
105.9715192190248
 30
0.0
 10
124.1248817949567
 20
108.1156703445774
 30
0.0
 10
124.2643998026275
 20
115.7343735138425
 30
0.0
 10
120.6567287559619
 20
126.3192715362942
 30
0.0
 10
110.0521399137242
 20
130.7258931444377
 30
0.0
 10
105.0955259275963
 20
132.7855602017307
 30
0.0
  0
SPLINE
  5
8A25
102
{ACAD_REACTORS
330
8B1F
102
}
330
2
100
AcDbEntity
  8
KIJUN
100
AcDbSpline
210
0.0
220
0.0
230
1.0
 70
     8
 71
     3
 72
    11
 73
     7
 74
     0
 42
0.0000000001
 43
0.0000000001
 40
0.0
 40
0.0
 40
0.0
 40
0.0
 40
1.739426392505433
 40
3.948969685542656
 40
5.83821017073888
 40
6.822307278383127
 40
6.822307278383127
 40
6.822307278383127
 40
6.822307278383127
 10
80.90212807714795
 20
89.41830672267451
 30
0.0
 10
81.53094377986201
 20
89.82197311679795
 30
0.0
 10
82.95852597506723
 20
90.73840531555891
 30
0.0
 10
81.76742576876018
 20
93.32908252160018
 30
0.0
 10
78.51379769491723
 20
92.96070504741647
 30
0.0
 10
78.51658872790427
 20
91.89859902799378
 30
0.0
 10
78.51754463628663
 20
91.53483548543977
 30
0.0
  0
SPLINE
  5
8A26
102
{ACAD_REACTORS
330
8B1F
102
}
330
2
100
AcDbEntity
  8
KIJUN
100
AcDbSpline
210
0.0
220
0.0
230
1.0
 70
     8
 71
     3
 72
    11
 73
     7
 74
     0
 42
0.0000000001
 43
0.0000000001
 40
0.0
 40
0.0
 40
0.0
 40
0.0
 40
1.878258510243963
 40
5.05096209488344
 40
7.205162610208729
 40
8.259858756911274
 40
8.259858756911274
 40
8.259858756911274
 40
8.259858756911274
 10
86.1712497041724
 20
99.62883272267447
 30
0.0
 10
85.84680454223315
 20
99.01472971119176
 30
0.0
 10
84.97431536894533
 20
97.36330046626278
 30
0.0
 10
80.79857141690514
 20
96.97442712593749
 30
0.0
 10
78.95053392631576
 20
99.08636171019839
 30
0.0
 10
79.18628566674851
 20
100.1786116428333
 30
0.0
 10
79.263772254321
 20
100.5376109863828
 30
0.0
  0
ELLIPSE
  5
8A27
102
{ACAD_REACTORS
330
8B1F
102
}
330
2
100
AcDbEntity
  8
KIJUN
100
AcDbEllipse
 10
124.0157177220108
 20
106.0881252859567
 30
0.0
 11
8.443035105958379
 21
0.000000000000008
 31
0.0
210
0.0
220
0.0
230
1.0
 40
0.7751216785455684
 41
3.882501682533108
 42
6.074780376538109
  0
ELLIPSE
  5
8A28
102
{ACAD_REACTORS
330
8B1F
102
}
330
2
100
AcDbEntity
  8
KIJUN
100
AcDbEllipse
 10
89.61692610139005
 20
113.1372732196237
 30
0.0
 11
-31.81708505485232
 21
0.0000000000000726
 31
0.0
210
0.0
220
0.0
230
1.0
 40
0.7751216785455534
 41
1.293347333080459
 42
2.658028893079507
  0
ELLIPSE
  5
8A29
102
{ACAD_REACTORS
330
8B1F
102
}
330
2
100
AcDbEntity
  8
KIJUN
100
AcDbEllipse
 10
94.07493214470946
 20
115.5012930433763
 30
0.0
 11
21.94974358745664
 21
0.0000000000001573
 31
0.0
210
0.0
220
0.0
230
1.0
 40
0.7751216785455375
 41
4.344034419636828
 42
5.08074354113255
  0
ELLIPSE
  5
8A2A
102
{ACAD_REACTORS
330
8B1F
102
}
330
2
100
AcDbEntity
  8
KIJUN
100
AcDbEllipse
 10
85.91085706563069
 20
110.5161028877896
 30
0.0
 11
-21.34150239916994
 21
0.0000000000000771
 31
0.0
210
0.0
220
0.0
230
0.9999999999999998
 40
0.7751216785455567
 41
2.423235275633027
 42
4.108660020639672
  0
SPLINE
  5
8A2B
102
{ACAD_REACTORS
330
8B1F
102
}
330
2
100
AcDbEntity
  8
KIJUN
100
AcDbSpline
210
0.0
220
0.0
230
1.0
 70
     8
 71
     3
 72
    11
 73
     7
 74
     0
 42
0.0000000001
 43
0.0000000001
 40
0.0
 40
0.0
 40
0.0
 40
0.0
 40
3.538989019227948
 40
8.259645460392111
 40
13.68058026058861
 40
19.37739701543096
 40
19.37739701543096
 40
19.37739701543096
 40
19.37739701543096
 10
218.5579305831662
 20
122.0919899226745
 30
0.0
 10
218.9264946526532
 20
120.8037253104258
 30
0.0
 10
219.7866862290784
 20
117.7970449001361
 30
0.0
 10
213.4732650053912
 20
115.1304492995995
 30
0.0
 10
207.0478185016288
 20
113.7443535412892
 30
0.0
 10
202.1037161650868
 20
113.6287710475333
 30
0.0
 10
199.5703221699938
 20
113.5695457371154
 30
0.0
  0
ELLIPSE
  5
8A2C
102
{ACAD_REACTORS
330
8B1F
102
}
330
2
100
AcDbEntity
  8
KIJUN
100
AcDbEllipse
 10
211.6810718126545
 20
169.4110660067101
 30
0.0
 11
79.78612803467072
 21
0.0000000000006781
 31
0.0
210
0.0
220
0.0
230
1.0
 40
0.7751216785455726
 41
4.562510339324345
 42
4.798687214573335
  0
SPLINE
  5
8A2E
102
{ACAD_REACTORS
330
8B1F
102
}
330
2
100
AcDbEntity
  8
KIJUN
100
AcDbSpline
210
0.0
220
0.0
230
1.0
 70
     8
 71
     3
 72
    16
 73
    12
 74
     0
 42
0.0000000001
 43
0.0000000001
 40
0.0
 40
0.0
 40
0.0
 40
0.0
 40
2.592641565017096
 40
3.869096403543974
 40
4.964856382086089
 40
7.097626517589398
 40
9.041126544873595
 40
16.60463153276753
 40
23.76100531675317
 40
32.62687508664391
 40
40.94592603697956
 40
40.94592603697956
 40
40.94592603697956
 40
40.94592603697956
 10
187.2342747483067
 20
110.7490706020453
 30
0.0
 10
187.9936692088874
 20
111.5335004660207
 30
0.0
 10
189.1269420900868
 20
112.7041346201951
 30
0.0
 10
188.1213626948673
 20
114.3639565659862
 30
0.0
 10
186.2299493132332
 20
115.2950866977672
 30
0.0
 10
184.2919954281252
 20
113.7338092327857
 30
0.0
 10
180.3876817993702
 20
111.3166556375915
 30
0.0
 10
171.9875781604875
 20
112.8428257474312
 30
0.0
 10
163.0469208618977
 20
116.6865835061867
 30
0.0
 10
157.0667480717091
 20
123.8960764837526
 30
0.0
 10
151.2634130724369
 20
127.6437492661073
 30
0.0
 10
148.4540757279832
 20
129.4579607675256
 30
0.0
  0
SPLINE
  5
8A2F
102
{ACAD_REACTORS
330
8B1F
102
}
330
2
100
AcDbEntity
  8
KIJUN
100
AcDbSpline
210
0.0
220
0.0
230
1.0
 70
     8
 71
     3
 72
    10
 73
     6
 74
     0
 42
0.0000000001
 43
0.0000000001
 40
0.0
 40
0.0
 40
0.0
 40
0.0
 40
1.937717373376968
 40
9.479872025543626
 40
17.72847306352516
 40
17.72847306352516
 40
17.72847306352516
 40
17.72847306352516
 10
173.1117565500789
 20
105.7551483226744
 30
0.0
 10
172.3238372412904
 20
106.0030101116281
 30
0.0
 10
168.4691088291936
 20
107.2156214405995
 30
0.0
 10
161.1848384401879
 20
109.4785291930477
 30
0.0
 10
155.7004414741062
 20
112.8134858852733
 30
0.0
 10
152.8355625921316
 20
114.5555638309333
 30
0.0
  0
ELLIPSE
  5
8A30
102
{ACAD_REACTORS
330
8B1F
102
}
330
2
100
AcDbEntity
  8
KIJUN
100
AcDbEllipse
 10
184.9125419378205
 20
127.5353030646334
 30
0.0
 11
30.4764353605814
 21
0.000000000000056
 31
0.0
210
0.0
220
0.0
230
0.9999999999999998
 40
0.7751216785455447
 41
4.314785203046308
 42
5.209909549166948
  0
ELLIPSE
  5
8A32
102
{ACAD_REACTORS
330
8B1F
102
}
330
2
100
AcDbEntity
  8
KIJUN
100
AcDbEllipse
 10
150.628555963257
 20
111.9507859006083
 30
0.0
 11
-2.725462224762132
 21
0.0000000000000407
 31
0.0
210
0.0
220
0.0
230
0.9999999999999998
 40
0.7751216785455395
 41
1.603616348591379
 42
3.108772631793245
  0
LINE
  5
8A33
102
{ACAD_REACTORS
330
8B1F
102
}
330
2
100
AcDbEntity
  8
KIJUN
100
AcDbLine
 10
259.7917011922172
 20
119.6172148427163
 30
0.0
 11
260.7460974291563
 21
124.0538828843807
 31
0.0
  0
LINE
  5
8A34
102
{ACAD_REACTORS
330
8B1F
102
}
330
2
100
AcDbEntity
  8
KIJUN
100
AcDbLine
 10
246.2392773146941
 20
119.0996035151188
 30
0.0
 11
244.0441666414876
 21
124.2757162303938
 31
0.0
  0
LINE
  5
8A35
102
{ACAD_REACTORS
330
8B1F
102
}
330
2
100
AcDbEntity
  8
KIJUN
100
AcDbLine
 10
243.2806492041003
 20
117.842548074611
 30
0.0
 11
238.7949873383214
 21
122.8707715187437
 31
0.0
  0
ELLIPSE
  5
8A36
102
{ACAD_REACTORS
330
8B1F
102
}
330
2
100
AcDbEntity
  8
KIJUN
100
AcDbEllipse
 10
296.9189662424907
 20
123.7775691382186
 30
0.0
 11
44.67098936369333
 21
0.0000000000001317
 31
0.0
210
0.0
220
0.0
230
1.0
 40
0.7751216785455744
 41
2.983191946665637
 42
3.274397375899025
  0
ELLIPSE
  5
8A37
102
{ACAD_REACTORS
330
8B1F
102
}
330
2
100
AcDbEntity
  8
KIJUN
100
AcDbEllipse
 10
228.0364996299794
 20
99.84511941997959
 30
0.0
 11
-23.51659656487612
 21
0.0000000000017246
 31
0.0
210
0.0
220
0.0
230
1.0
 40
0.7751216785455048
 41
4.137353307752831
 42
4.681030262468145
  0
ELLIPSE
  5
8A38
102
{ACAD_REACTORS
330
8B1F
102
}
330
2
100
AcDbEntity
  8
KIJUN
100
AcDbEllipse
 10
257.6238728015993
 20
116.5499567655504
 30
0.0
 11
28.9161255337974
 21
0.0000000000012602
 31
0.0
210
0.0
220
0.0
230
0.9999999999999998
 40
0.7751216785456131
 41
2.796404820142282
 42
3.073973661479236
  0
ELLIPSE
  5
8A39
102
{ACAD_REACTORS
330
8B1F
102
}
330
2
100
AcDbEntity
  8
KIJUN
100
AcDbEllipse
 10
233.2425573547468
 20
111.443353962583
 30
0.0
 11
9.640224663847225
 21
0.0000000000002403
 31
0.0
210
0.0
220
0.0
230
1.0
 40
0.7751216785455626
 41
2.052794046492185
 42
3.357933780038799
  0
ELLIPSE
  5
8A3A
102
{ACAD_REACTORS
330
8B1F
102
}
330
2
100
AcDbEntity
  8
KIJUN
100
AcDbEllipse
 10
214.5331360990403
 20
119.4820120698525
 30
0.0
 11
5.247561663307968
 21
0.0000000000002252
 31
0.0
210
0.0
220
0.0
230
1.0
 40
0.7751216785455442
 41
0.6966691350310548
 42
3.001522836568875
  0
ELLIPSE
  5
8A3B
102
{ACAD_REACTORS
330
8B1F
102
}
330
2
100
AcDbEntity
  8
KIJUN
100
AcDbEllipse
 10
225.6170206310022
 20
119.1669159017022
 30
0.0
 11
-8.004469883675216
 21
0.0000000000002902
 31
0.0
210
0.0
220
0.0
230
1.0
 40
0.7751216785455461
 41
4.069863269350308
 42
5.792252583167027
  0
ELLIPSE
  5
8A3C
102
{ACAD_REACTORS
330
8B1F
102
}
330
2
100
AcDbEntity
  8
KIJUN
100
AcDbEllipse
 10
243.6853059282801
 20
121.2183269158493
 30
0.0
 11
-13.79464990376616
 21
0.0000000000000774
 31
0.0
210
0.0
220
0.0
230
1.0
 40
0.7751216785455565
 41
3.989885526743961
 42
6.006995317460068
  0
ELLIPSE
  5
8A3E
102
{ACAD_REACTORS
330
8B1F
102
}
330
2
100
AcDbEntity
  8
KIJUN
100
AcDbEllipse
 10
256.0283296387144
 20
109.2589818123097
 30
0.0
 11
6.04639461082912
 21
0.0000000000002219
 31
0.0
210
0.0
220
0.0
230
1.0
 40
0.7751216785455557
 41
0.1241538077791102
 42
1.66795696136349
  0
ELLIPSE
  5
8A40
102
{ACAD_REACTORS
330
8B1F
102
}
330
2
100
AcDbEntity
  8
KIJUN
100
AcDbEllipse
 10
233.5152889206271
 20
113.8407666272336
 30
0.0
 11
10.97776094638878
 21
0.0000000000000884
 31
0.0
210
0.0
220
0.0
230
1.0
 40
0.7751216785455594
 41
3.631167138229049
 42
5.303653496286568
  0
LINE
  5
8A41
102
{ACAD_REACTORS
330
8B1F
102
}
330
2
100
AcDbEntity
  8
KIJUN
100
AcDbLine
 10
218.5579305831664
 20
107.7972535226745
 30
0.0
 11
223.827052210191
 21
109.8393587226745
 31
0.0
  0
LINE
  5
8A42
102
{ACAD_REACTORS
330
8B1F
102
}
330
2
100
AcDbEntity
  8
KIJUN
100
AcDbLine
 10
270.7672567974293
 20
106.8248231667219
 30
0.0
 11
280.1203381280911
 21
106.0114344182405
 31
0.0
  0
LINE
  5
8A43
102
{ACAD_REACTORS
330
8B1F
102
}
330
2
100
AcDbEntity
  8
KIJUN
100
AcDbLine
 10
269.9082999602661
 20
108.5994904955278
 30
0.0
 11
277.8297869355191
 21
110.3002131887623
 31
0.0
  0
SPLINE
  5
8A44
102
{ACAD_REACTORS
330
8B1F
102
}
330
2
100
AcDbEntity
  8
KIJUN
100
AcDbSpline
210
0.0
220
0.0
230
1.0
 70
     8
 71
     3
 72
    10
 73
     6
 74
     0
 42
0.0000000001
 43
0.0000000001
 40
0.0
 40
0.0
 40
0.0
 40
0.0
 40
4.548082061862599
 40
10.23394251137258
 40
15.37230316540545
 40
15.37230316540545
 40
15.37230316540545
 40
15.37230316540545
 10
268.6145860399005
 20
97.58672752267433
 30
0.0
 10
270.6414509928167
 20
97.16575445424689
 30
0.0
 10
275.2022348846459
 20
96.21849490120371
 30
0.0
 10
280.9924331297271
 20
99.84974185983913
 30
0.0
 10
284.2112353266024
 20
102.4694450941658
 30
0.0
 10
285.7392313277305
 20
103.7130431226743
 30
0.0
  0
ELLIPSE
  5
8A45
102
{ACAD_REACTORS
330
8B1F
102
}
330
2
100
AcDbEntity
  8
KIJUN
100
AcDbEllipse
 10
274.5217219858803
 20
108.6667316190477
 30
0.0
 11
-12.91028715663778
 21
0.000000000000233
 31
0.0
210
0.0
220
0.0
230
1.0
 40
0.7751216785455557
 41
2.623734591579966
 42
4.345498596441034
  0
DIMENSION
  5
8A48
330
2
100
AcDbEntity
  8
SUNPOU
100
AcDbDimension
  2
*D8
 10
292.3256415690492
 20
177.3825828770684
 30
0.0
 11
59.82564156904922
 21
182.8825828770684
 31
0.0
 70
    32
 71
     5
 42
464.9999999999999
  3
STANDARD
100
AcDbAlignedDimension
 13
-172.6743584309507
 23
145.6183079226746
 33
0.0
 14
292.3256415690492
 24
142.039691898058
 34
0.0
100
AcDbRotatedDimension
1001
ACAD
1000
DSTYLE
1002
{
1070
    41
1040
2.0
1070
    42
1040
10.0
1070
    44
1040
0.0
1070
    73
1070
     0
1070
    74
1070
     0
1070
    77
1070
     1
1070
   140
1040
5.0
1070
   141
1040
0.0
1070
   146
1040
0.064286
1070
   147
1040
3.0
1070
   176
1070
    60
1070
   177
1070
    70
1070
   178
1070
    60
1070
   271
1070
     0
1070
   272
1070
     0
1070
   340
1005
1C
1070
   342
1005
109
1002
}
  0
DIMENSION
  5
8A55
330
2
100
AcDbEntity
  8
SUNPOU
100
AcDbDimension
  2
*D9
 10
-213.6133470174405
 20
50.61830792267451
 30
0.0
 11
-219.1133470174405
 21
98.11830792267452
 31
0.0
 70
    32
 71
     5
 42
95.00000000000008
  3
STANDARD
100
AcDbAlignedDimension
 13
-172.6743584309507
 23
145.6183079226746
 33
0.0
 14
-173.5399692092919
 24
50.6183079226745
 34
0.0
 50
90.0
100
AcDbRotatedDimension
1001
ACAD
1000
DSTYLE
1002
{
1070
    41
1040
2.0
1070
    42
1040
10.0
1070
    44
1040
0.0
1070
    73
1070
     0
1070
    74
1070
     0
1070
    77
1070
     1
1070
   140
1040
5.0
1070
   141
1040
0.0
1070
   146
1040
0.064286
1070
   147
1040
3.0
1070
   176
1070
    60
1070
   177
1070
    70
1070
   178
1070
    60
1070
   271
1070
     0
1070
   272
1070
     0
1070
   340
1005
1C
1070
   342
1005
109
1002
}
  0
ARC
  5
8A7F
102
{ACAD_REACTORS
330
8B1F
102
}
330
2
100
AcDbEntity
  8
KIJUN
100
AcDbCircle
 10
-167.7113678282625
 20
100.4523145480808
 30
0.0
 40
3.445997075370994
100
AcDbArc
 50
176.5721047222625
 51
248.0061804974555
  0
ARC
  5
8A80
102
{ACAD_REACTORS
330
8B1F
102
}
330
2
100
AcDbEntity
  8
KIJUN
100
AcDbCircle
 10
-163.2868254668999
 20
90.29741620624784
 30
0.0
 40
13.70493830954929
100
AcDbArc
 50
101.7936660717147
 51
119.7458225386632
  0
ARC
  5
8A81
102
{ACAD_REACTORS
330
8B1F
102
}
330
2
100
AcDbEntity
  8
KIJUN
100
AcDbCircle
 10
-169.070397535323
 20
100.3556696581447
 30
0.0
 40
2.102702397537301
100
AcDbArc
 50
118.8993129365035
 51
171.7233753588538
  0
ARC
  5
8A82
102
{ACAD_REACTORS
330
8B1F
102
}
330
2
100
AcDbEntity
  8
KIJUN
100
AcDbCircle
 10
-168.8676502160146
 20
79.67561735744553
 30
0.0
 40
3.806708214936102
100
AcDbArc
 50
108.1948260140685
 51
221.9940376270663
  0
ARC
  5
8A85
102
{ACAD_REACTORS
330
8B1F
102
}
330
2
100
AcDbEntity
  8
KIJUN
100
AcDbCircle
 10
-162.9797080159705
 20
84.27045390766153
 30
0.0
 40
11.26911018245182
100
AcDbArc
 50
219.326866191959
 51
320.9155699082233
  0
ARC
  5
8A87
102
{ACAD_REACTORS
330
8B1F
102
}
330
2
100
AcDbEntity
  8
KIJUN
100
AcDbCircle
 10
-165.5178698557716
 20
92.04865315690105
 30
0.0
 40
3.451542798665527
100
AcDbArc
 50
271.7546610476759
 51
61.64442062462877
  0
ARC
  5
8A88
102
{ACAD_REACTORS
330
8B1F
102
}
330
2
100
AcDbEntity
  8
KIJUN
100
AcDbCircle
 10
-242.1134462377164
 20
-82.40642104291714
 30
0.0
 40
193.9697849565648
100
AcDbArc
 50
66.21315020987463
 51
67.85682979149162
  0
ARC
  5
8A89
102
{ACAD_REACTORS
330
8B1F
102
}
330
2
100
AcDbEntity
  8
KIJUN
100
AcDbCircle
 10
-162.832502076369
 20
89.47206882339939
 30
0.0
 40
9.494121923331281
100
AcDbArc
 50
198.0393578689023
 51
220.6123045070535
  0
ARC
  5
8A8A
102
{ACAD_REACTORS
330
8B1F
102
}
330
2
100
AcDbEntity
  8
KIJUN
100
AcDbCircle
 10
-166.4336763732152
 20
65.07598034606885
 30
0.0
 40
23.5449174962499
100
AcDbArc
 50
87.51345209169333
 51
98.17677314981748
  0
ARC
  5
8A8B
102
{ACAD_REACTORS
330
8B1F
102
}
330
2
100
AcDbEntity
  8
KIJUN
100
AcDbCircle
 10
-169.0993034938519
 20
83.83547257989439
 30
0.0
 40
4.597104109468189
100
AcDbArc
 50
98.5455793447087
 51
119.3256025999279
  0
ARC
  5
8A8C
102
{ACAD_REACTORS
330
8B1F
102
}
330
2
100
AcDbEntity
  8
KIJUN
100
AcDbCircle
 10
-170.7252394457419
 20
86.8460729135514
 30
0.0
 40
1.177350094825945
100
AcDbArc
 50
122.097423675939
 51
195.4706018941364
  0
ARC
  5
8A8D
102
{ACAD_REACTORS
330
8B1F
102
}
330
2
100
AcDbEntity
  8
KIJUN
100
AcDbCircle
 10
-175.4876597857457
 20
89.05869025567277
 30
0.0
 40
27.86160310775723
100
AcDbArc
 50
339.4522575111565
 51
17.82349192924763
  0
ARC
  5
8A8E
102
{ACAD_REACTORS
330
8B1F
102
}
330
2
100
AcDbEntity
  8
KIJUN
100
AcDbCircle
 10
-152.6106611747222
 20
91.58423786021241
 30
0.0
 40
14.50948159853349
100
AcDbArc
 50
263.5824882436149
 51
270.2389210172762
  0
ARC
  5
8A8F
102
{ACAD_REACTORS
330
8B1F
102
}
330
2
100
AcDbEntity
  8
KIJUN
100
AcDbCircle
 10
-152.6372821483903
 20
80.55427604056289
 30
0.0
 40
3.480484269316185
100
AcDbArc
 50
271.4343983739034
 51
338.5165325831727
  0
ARC
  5
8A90
102
{ACAD_REACTORS
330
8B1F
102
}
330
2
100
AcDbEntity
  8
KIJUN
100
AcDbCircle
 10
-197.2163489658922
 20
100.3477839062812
 30
0.0
 40
52.7809219107443
100
AcDbArc
 50
0.8114399085657112
 51
2.622831559002431
  0
ARC
  5
8A91
102
{ACAD_REACTORS
330
8B1F
102
}
330
2
100
AcDbEntity
  8
KIJUN
100
AcDbCircle
 10
-153.6715460707575
 20
114.3344539706468
 30
0.0
 40
17.39695073609536
100
AcDbArc
 50
285.7021229271773
 51
296.4949683492191
  0
ARC
  5
8A92
102
{ACAD_REACTORS
330
8B1F
102
}
330
2
100
AcDbEntity
  8
KIJUN
100
AcDbCircle
 10
-147.3162722260957
 20
101.2798977934903
 30
0.0
 40
2.88147388423735
100
AcDbArc
 50
299.2019446129128
 51
356.3260711449996
  0
ARC
  5
8A93
102
{ACAD_REACTORS
330
8B1F
102
}
330
2
100
AcDbEntity
  8
KIJUN
100
AcDbCircle
 10
-152.8579547460907
 20
101.6151265116395
 30
0.0
 40
13.32255553022872
100
AcDbArc
 50
23.01742998394214
 51
38.1204285800146
  0
ARC
  5
8A94
102
{ACAD_REACTORS
330
8B1F
102
}
330
2
100
AcDbEntity
  8
KIJUN
100
AcDbCircle
 10
-163.1814487503928
 20
143.4502103523078
 30
0.0
 40
44.77482242968506
100
AcDbArc
 50
294.6729667387138
 51
299.0106744060069
  0
ARC
  5
8A96
102
{ACAD_REACTORS
330
8B1F
102
}
330
2
100
AcDbEntity
  8
KIJUN
100
AcDbCircle
 10
-142.4368337597952
 20
106.0423718317121
 30
0.0
 40
2.0
100
AcDbArc
 50
299.0106744060072
 51
23.01742998394197
  0
ARC
  5
8A97
102
{ACAD_REACTORS
330
8B1F
102
}
330
2
100
AcDbEntity
  8
KIJUN
100
AcDbCircle
 10
-138.8450489030829
 20
89.01611802215828
 30
0.0
 40
25.09405101707723
100
AcDbArc
 50
69.22649394396092
 51
83.00838587969179
  0
ARC
  5
8A98
102
{ACAD_REACTORS
330
8B1F
102
}
330
2
100
AcDbEntity
  8
KIJUN
100
AcDbCircle
 10
-127.2263084749783
 20
126.9673989024716
 30
0.0
 40
21.45106181550905
100
AcDbArc
 50
280.4214407767706
 51
289.7343981039365
  0
ARC
  5
8A99
102
{ACAD_REACTORS
330
8B1F
102
}
330
2
100
AcDbEntity
  8
KIJUN
100
AcDbCircle
 10
-124.2418036327878
 20
109.1909906347584
 30
0.0
 40
3.439473823124652
100
AcDbArc
 50
185.8600756860163
 51
285.0951545000098
  0
ARC
  5
8A9A
102
{ACAD_REACTORS
330
8B1F
102
}
330
2
100
AcDbEntity
  8
KIJUN
100
AcDbCircle
 10
-129.2025224378086
 20
110.2249834697203
 30
0.0
 40
1.534281155740444
100
AcDbArc
 50
356.436942372675
 51
51.66917791483757
  0
ARC
  5
8A9B
102
{ACAD_REACTORS
330
8B1F
102
}
330
2
100
AcDbEntity
  8
KIJUN
100
AcDbCircle
 10
-118.7884545213405
 20
109.5391341367832
 30
0.0
 40
8.902358146351472
100
AcDbArc
 50
176.1967468644445
 51
184.5054276394143
  0
ARC
  5
8A9C
102
{ACAD_REACTORS
330
8B1F
102
}
330
2
100
AcDbEntity
  8
KIJUN
100
AcDbCircle
 10
-133.6139018746391
 20
104.6702221291693
 30
0.0
 40
8.627630144675045
100
AcDbArc
 50
51.56686781680932
 51
64.83221162718276
  0
ARC
  5
8A9D
102
{ACAD_REACTORS
330
8B1F
102
}
330
2
100
AcDbEntity
  8
KIJUN
100
AcDbCircle
 10
-105.693068269354
 20
234.3718750705544
 30
0.0
 40
130.1952078335064
100
AcDbArc
 50
274.058811283733
 51
281.4686717934714
  0
ARC
  5
8A9E
102
{ACAD_REACTORS
330
8B1F
102
}
330
2
100
AcDbEntity
  8
KIJUN
100
AcDbCircle
 10
-84.54517693931524
 20
109.6637262605996
 30
0.0
 40
14.48224967223736
100
AcDbArc
 50
187.404878199538
 51
194.6908203534042
  0
ARC
  5
8A9F
102
{ACAD_REACTORS
330
8B1F
102
}
330
2
100
AcDbEntity
  8
KIJUN
100
AcDbCircle
 10
-96.61936185079747
 20
106.4981906655692
 30
0.0
 40
2.0
100
AcDbArc
 50
194.6908203534042
 51
274.0588112837311
  0
ARC
  5
8AA0
102
{ACAD_REACTORS
330
8B1F
102
}
330
2
100
AcDbEntity
  8
KIJUN
100
AcDbCircle
 10
-48.43236558796025
 20
109.6735520545014
 30
0.0
 40
6.374618113704391
100
AcDbArc
 50
217.9292814889755
 51
289.1958493762845
  0
ARC
  5
8AA1
102
{ACAD_REACTORS
330
8B1F
102
}
330
2
100
AcDbEntity
  8
KIJUN
100
AcDbCircle
 10
-63.63801477096877
 20
144.0372004851968
 30
0.0
 40
43.93404422975361
100
AcDbArc
 50
293.1917014079468
 51
312.9533009524419
  0
ARC
  5
8AA3
102
{ACAD_REACTORS
330
8B1F
102
}
330
2
100
AcDbEntity
  8
KIJUN
100
AcDbCircle
 10
287.362650966361
 20
100.4523145480808
 30
0.0
 40
3.445997075370993
100
AcDbArc
 50
291.9938195025447
 51
3.427895277737524
  0
ARC
  5
8AA4
102
{ACAD_REACTORS
330
8B1F
102
}
330
2
100
AcDbEntity
  8
KIJUN
100
AcDbCircle
 10
282.9381086049984
 20
90.29741620624784
 30
0.0
 40
13.70493830954929
100
AcDbArc
 50
60.25417746133699
 51
78.2063339282851
  0
ARC
  5
8AA5
102
{ACAD_REACTORS
330
8B1F
102
}
330
2
100
AcDbEntity
  8
KIJUN
100
AcDbCircle
 10
288.7216806734215
 20
100.3556696581447
 30
0.0
 40
2.1027023975373
100
AcDbArc
 50
8.276624641146208
 51
61.10068706349636
  0
ARC
  5
8AA6
102
{ACAD_REACTORS
330
8B1F
102
}
330
2
100
AcDbEntity
  8
KIJUN
100
AcDbCircle
 10
288.5189333541131
 20
79.67561735744553
 30
0.0
 40
3.806708214936101
100
AcDbArc
 50
318.0059623729337
 51
71.8051739859317
  0
ARC
  5
8AA7
102
{ACAD_REACTORS
330
8B1F
102
}
330
2
100
AcDbEntity
  8
KIJUN
100
AcDbCircle
 10
282.630991154069
 20
84.27045390766153
 30
0.0
 40
11.26911018245181
100
AcDbArc
 50
219.084430091777
 51
320.673133808041
  0
ARC
  5
8AA8
102
{ACAD_REACTORS
330
8B1F
102
}
330
2
100
AcDbEntity
  8
KIJUN
100
AcDbCircle
 10
285.1691529938701
 20
92.04865315690105
 30
0.0
 40
3.451542798665526
100
AcDbArc
 50
118.3555793753713
 51
268.2453389523238
  0
ARC
  5
8AA9
102
{ACAD_REACTORS
330
8B1F
102
}
330
2
100
AcDbEntity
  8
KIJUN
100
AcDbCircle
 10
361.7647293758149
 20
-82.40642104291714
 30
0.0
 40
193.9697849565648
100
AcDbArc
 50
112.1431702085081
 51
113.7868497901251
  0
ARC
  5
8AAA
102
{ACAD_REACTORS
330
8B1F
102
}
330
2
100
AcDbEntity
  8
KIJUN
100
AcDbCircle
 10
282.4837852144674
 20
89.47206882339939
 30
0.0
 40
9.494121923331279
100
AcDbArc
 50
319.3876954929463
 51
341.9606421310975
  0
ARC
  5
8AAB
102
{ACAD_REACTORS
330
8B1F
102
}
330
2
100
AcDbEntity
  8
KIJUN
100
AcDbCircle
 10
286.0849595113137
 20
65.07598034606885
 30
0.0
 40
23.54491749624989
100
AcDbArc
 50
81.82322685018235
 51
92.48654790830661
  0
ARC
  5
8AAC
102
{ACAD_REACTORS
330
8B1F
102
}
330
2
100
AcDbEntity
  8
KIJUN
100
AcDbCircle
 10
288.7505866319504
 20
83.83547257989439
 30
0.0
 40
4.597104109468188
100
AcDbArc
 50
60.67439740007205
 51
81.45442065529094
  0
ARC
  5
8AAD
102
{ACAD_REACTORS
330
8B1F
102
}
330
2
100
AcDbEntity
  8
KIJUN
100
AcDbCircle
 10
290.3765225838404
 20
86.8460729135514
 30
0.0
 40
1.177350094825945
100
AcDbArc
 50
344.5293981058636
 51
57.90257632406127
  0
ARC
  5
8AAE
102
{ACAD_REACTORS
330
8B1F
102
}
330
2
100
AcDbEntity
  8
KIJUN
100
AcDbCircle
 10
295.1389429238441
 20
89.05869025567277
 30
0.0
 40
27.86160310775722
100
AcDbArc
 50
162.1765080707524
 51
200.5477424888436
  0
ARC
  5
8AAF
102
{ACAD_REACTORS
330
8B1F
102
}
330
2
100
AcDbEntity
  8
KIJUN
100
AcDbCircle
 10
272.2619443128207
 20
91.58423786021241
 30
0.0
 40
14.50948159853348
100
AcDbArc
 50
269.7610789827239
 51
276.4175117563854
  0
ARC
  5
8AB0
102
{ACAD_REACTORS
330
8B1F
102
}
330
2
100
AcDbEntity
  8
KIJUN
100
AcDbCircle
 10
272.2885652864888
 20
80.55427604056289
 30
0.0
 40
3.480484269316185
100
AcDbArc
 50
201.4834674168273
 51
268.5656016260967
  0
ARC
  5
8AB1
102
{ACAD_REACTORS
330
8B1F
102
}
330
2
100
AcDbEntity
  8
KIJUN
100
AcDbCircle
 10
316.8676321039906
 20
100.3477839062812
 30
0.0
 40
52.78092191074428
100
AcDbArc
 50
177.3771684409975
 51
179.1885600914343
  0
ARC
  5
8AB2
102
{ACAD_REACTORS
330
8B1F
102
}
330
2
100
AcDbEntity
  8
KIJUN
100
AcDbCircle
 10
273.322829208856
 20
114.3344539706468
 30
0.0
 40
17.39695073609536
100
AcDbArc
 50
243.5050316507812
 51
254.2978770728223
  0
ARC
  5
8AB3
102
{ACAD_REACTORS
330
8B1F
102
}
330
2
100
AcDbEntity
  8
KIJUN
100
AcDbCircle
 10
266.9675553641941
 20
101.2798977934903
 30
0.0
 40
2.88147388423735
100
AcDbArc
 50
183.6739288550004
 51
240.7980553870875
  0
ARC
  5
8AB4
102
{ACAD_REACTORS
330
8B1F
102
}
330
2
100
AcDbEntity
  8
KIJUN
100
AcDbCircle
 10
272.5092378841892
 20
101.6151265116395
 30
0.0
 40
13.32255553022872
100
AcDbArc
 50
141.8795714199853
 51
156.9825700160578
  0
ARC
  5
8AB5
102
{ACAD_REACTORS
330
8B1F
102
}
330
2
100
AcDbEntity
  8
KIJUN
100
AcDbCircle
 10
262.0881168978937
 20
106.0423718317121
 30
0.0
 40
1.999999999999999
100
AcDbArc
 50
156.9825700160579
 51
240.9893255939929
  0
ARC
  5
8AB6
102
{ACAD_REACTORS
330
8B1F
102
}
330
2
100
AcDbEntity
  8
KIJUN
100
AcDbCircle
 10
282.8327318884912
 20
143.4502103523078
 30
0.0
 40
44.77482242968505
100
AcDbArc
 50
240.9893255939929
 51
245.327033261286
  0
ARC
  5
8AB7
102
{ACAD_REACTORS
330
8B1F
102
}
330
2
100
AcDbEntity
  8
KIJUN
100
AcDbCircle
 10
258.4963320411814
 20
89.01611802215828
 30
0.0
 40
25.09405101707722
100
AcDbArc
 50
96.99161412030862
 51
110.773506056039
  0
ARC
  5
8AB8
102
{ACAD_REACTORS
330
8B1F
102
}
330
2
100
AcDbEntity
  8
KIJUN
100
AcDbCircle
 10
246.8775916130767
 20
126.9673989024716
 30
0.0
 40
21.45106181550904
100
AcDbArc
 50
250.2656018960632
 51
259.5785592232298
  0
ARC
  5
8AB9
102
{ACAD_REACTORS
330
8B1F
102
}
330
2
100
AcDbEntity
  8
KIJUN
100
AcDbCircle
 10
243.8930867708863
 20
109.1909906347584
 30
0.0
 40
3.439473823124651
100
AcDbArc
 50
254.9048454999904
 51
354.1399243139836
  0
ARC
  5
8ABA
102
{ACAD_REACTORS
330
8B1F
102
}
330
2
100
AcDbEntity
  8
KIJUN
100
AcDbCircle
 10
248.8538055759071
 20
110.2249834697203
 30
0.0
 40
1.534281155740444
100
AcDbArc
 50
128.3308220851621
 51
183.563057627325
  0
ARC
  5
8ABB
102
{ACAD_REACTORS
330
8B1F
102
}
330
2
100
AcDbEntity
  8
KIJUN
100
AcDbCircle
 10
238.439737659439
 20
109.5391341367832
 30
0.0
 40
8.90235814635147
100
AcDbArc
 50
355.4945723605857
 51
3.803253135555444
  0
ARC
  5
8ABC
102
{ACAD_REACTORS
330
8B1F
102
}
330
2
100
AcDbEntity
  8
KIJUN
100
AcDbCircle
 10
253.2651850127375
 20
104.6702221291693
 30
0.0
 40
8.627630144675043
100
AcDbArc
 50
115.1677883728174
 51
128.4331321831908
  0
ARC
  5
8ABD
102
{ACAD_REACTORS
330
8B1F
102
}
330
2
100
AcDbEntity
  8
KIJUN
100
AcDbCircle
 10
225.3443514074525
 20
234.3718750705544
 30
0.0
 40
130.1952078335064
100
AcDbArc
 50
258.5313282065289
 51
265.9411887162672
  0
ARC
  5
8ABE
102
{ACAD_REACTORS
330
8B1F
102
}
330
2
100
AcDbEntity
  8
KIJUN
100
AcDbCircle
 10
204.1964600774137
 20
109.6637262605996
 30
0.0
 40
14.48224967223736
100
AcDbArc
 50
345.3091796465959
 51
352.595121800462
  0
ARC
  5
8ABF
102
{ACAD_REACTORS
330
8B1F
102
}
330
2
100
AcDbEntity
  8
KIJUN
100
AcDbCircle
 10
216.2706449888959
 20
106.4981906655692
 30
0.0
 40
1.999999999999999
100
AcDbArc
 50
265.9411887162689
 51
345.3091796465959
  0
ARC
  5
8AC0
102
{ACAD_REACTORS
330
8B1F
102
}
330
2
100
AcDbEntity
  8
KIJUN
100
AcDbCircle
 10
168.0836487260587
 20
109.6735520545014
 30
0.0
 40
6.374618113704389
100
AcDbArc
 50
250.8041506237153
 51
322.0707185110246
  0
ARC
  5
8AC1
102
{ACAD_REACTORS
330
8B1F
102
}
330
2
100
AcDbEntity
  8
KIJUN
100
AcDbCircle
 10
183.2892979090672
 20
144.0372004851968
 30
0.0
 40
43.9340442297536
100
AcDbArc
 50
227.046699047558
 51
246.808298592053
  0
ARC
  5
8AC2
102
{ACAD_REACTORS
330
8B1F
102
}
330
2
100
AcDbEntity
  8
KIJUN
100
AcDbCircle
 10
59.82564156904915
 20
-127.5652840049888
 30
0.0
 40
273.1835919276633
100
AcDbArc
 50
75.82245027943725
 51
104.1775497205621
  0
ARC
  5
8AC3
102
{ACAD_REACTORS
330
8B1F
102
}
330
2
100
AcDbEntity
  8
KIJUN
100
AcDbCircle
 10
-77.30512660077332
 20
141.6403244814605
 30
0.0
 40
24.88825637313484
100
AcDbArc
 50
240.1688427327579
 51
277.8731823603481
  0
ARC
  5
8AC4
102
{ACAD_REACTORS
330
8B1F
102
}
330
2
100
AcDbEntity
  8
KIJUN
100
AcDbCircle
 10
-89.80826025762992
 20
209.1763964392786
 30
0.0
 40
93.55291580734242
100
AcDbArc
 50
279.7930111081829
 51
288.8123717847122
  0
ARC
  5
8AC5
102
{ACAD_REACTORS
330
8B1F
102
}
330
2
100
AcDbEntity
  8
KIJUN
100
AcDbCircle
 10
133.6272552228939
 20
-397.308668596176
 30
0.0
 40
552.8142375226305
100
AcDbArc
 50
104.7461640217756
 51
110.4632539903963
  0
ARC
  5
8AC7
102
{ACAD_REACTORS
330
8B1F
102
}
330
2
100
AcDbEntity
  8
KIJUN
100
AcDbCircle
 10
196.9564097388717
 20
141.6403244814605
 30
0.0
 40
24.88825637313484
100
AcDbArc
 50
262.126817639652
 51
299.8311572672422
  0
ARC
  5
8AC8
102
{ACAD_REACTORS
330
8B1F
102
}
330
2
100
AcDbEntity
  8
KIJUN
100
AcDbCircle
 10
209.4595433957283
 20
209.1763964392786
 30
0.0
 40
93.5529158073424
100
AcDbArc
 50
251.1876282152881
 51
260.2069888918174
  0
ARC
  5
8ACA
102
{ACAD_REACTORS
330
8B1F
102
}
330
2
100
AcDbEntity
  8
KIJUN
100
AcDbCircle
 10
-13.97597208479541
 20
-397.308668596176
 30
0.0
 40
552.8142375226305
100
AcDbArc
 50
69.53674600960351
 51
75.25383597822404
  0
SPLINE
  5
8B1E
102
{ACAD_REACTORS
330
8B1F
102
}
330
2
100
AcDbEntity
  8
KIJUN
100
AcDbSpline
210
0.0
220
0.0
230
1.0
 70
     8
 71
     3
 72
    20
 73
    16
 74
     0
 42
0.0000000001
 43
0.0000000001
 40
0.0
 40
0.0
 40
0.0
 40
0.0
 40
8.396930361839379
 40
13.8027856282323
 40
20.3581764476462
 40
24.03130348473588
 40
25.69956916377005
 40
28.63149017518021
 40
31.46611901997476
 40
35.12920939222963
 40
44.97794332285411
 40
57.34165276897241
 40
73.82262125100462
 40
86.6632845017574
 40
99.97407878127228
 40
99.97407878127228
 40
99.97407878127228
 40
99.97407878127228
 10
124.2455845202102
 20
131.3353237770137
 30
0.0
 10
126.7127366610976
 20
129.1141111505554
 30
0.0
 10
130.7682153474116
 20
125.4629052459479
 30
0.0
 10
132.5010159622233
 20
118.6252453394142
 30
0.0
 10
133.2276224536031
 20
112.9978727874816
 30
0.0
 10
130.7993009435511
 20
109.5616015277149
 30
0.0
 10
127.3777063000672
 20
107.3077873825903
 30
0.0
 10
125.3952384784211
 20
111.1750569825573
 30
0.0
 10
128.5238858116651
 20
113.4436374812297
 30
0.0
 10
130.5131186605222
 20
119.0996905361459
 30
0.0
 10
125.0291696609229
 20
127.6653614737172
 30
0.0
 10
112.8174977550437
 20
136.8767976717192
 30
0.0
 10
95.52216467549412
 20
141.2032246387969
 30
0.0
 10
77.15676228122848
 20
143.5541375269638
 30
0.0
 10
66.39023958009241
 20
143.8747150186748
 30
0.0
 10
59.82564156905235
 20
143.9947060982888
 30
0.0
  0
ENDSEC
  0
SECTION
  2
OBJECTS
  0
DICTIONARY
  5
1A
330
0
100
AcDbDictionary
281
     1
  3
ACAD_COLOR
350
144
  3
ACAD_GROUP
350
18
  3
ACAD_LAYOUT
350
58
  3
ACAD_MATERIAL
350
143
  3
ACAD_MLINESTYLE
350
19
  3
ACAD_PLOTSETTINGS
350
59
  3
ACAD_PLOTSTYLENAME
350
56
  3
ACAD_TABLESTYLE
350
145
  3
ACDBHEADERROUNDTRIPXREC
350
8C71
  3
AcDbVariableDictionary
350
1D1
  0
DICTIONARY
  5
1B4
330
A
100
AcDbDictionary
280
     1
281
     1
  3
ACAD_LAYERFILTERS
360
7795
  3
ACLYDICTIONARY
360
7794
  0
DICTIONARY
  5
D13
330
2
100
AcDbDictionary
280
     1
281
     1
  3
ACAD_SORTENTS
360
D14
  0
DICTIONARY
  5
144
102
{ACAD_REACTORS
330
1A
102
}
330
1A
100
AcDbDictionary
281
     1
  0
DICTIONARY
  5
18
102
{ACAD_REACTORS
330
1A
102
}
330
1A
100
AcDbDictionary
281
     1
  3
*A1
350
E0D
  3
*A10
350
4781
  3
*A11
350
48BA
  3
*A12
350
422E
  3
*A13
350
4A53
  3
*A14
350
1A98
  3
*A15
350
3695
  3
*A16
350
32E4
  3
*A17
350
4B49
  3
*A18
350
4C3E
  3
*A19
350
4CEC
  3
*A2
350
1555
  3
*A20
350
4D76
  3
*A21
350
3988
  3
*A22
350
3C81
  3
*A23
350
4407
  3
*A24
350
4E16
  3
*A25
350
4EE5
  3
*A26
350
4F64
  3
*A27
350
5011
  3
*A28
350
2C6B
  3
*A29
350
22C8
  3
*A3
350
2A17
  3
*A30
350
519C
  3
*A31
350
52B0
  3
*A32
350
36C9
  3
*A33
350
5396
  3
*A34
350
265A
  3
*A35
350
275E
  3
*A36
350
5464
  3
*A37
350
556A
  3
*A38
350
213E
  3
*A39
350
57BF
  3
*A4
350
31DF
  3
*A40
350
3349
  3
*A41
350
58EE
  3
*A42
350
382B
  3
*A43
350
1EFE
  3
*A44
350
2573
  3
*A45
350
4516
  3
*A46
350
3878
  3
*A47
350
5D92
  3
*A48
350
2905
  3
*A49
350
3E5C
  3
*A5
350
17BC
  3
*A50
350
3181
  3
*A51
350
2B84
  3
*A52
350
24D6
  3
*A53
350
5F6F
  3
*A54
350
626B
  3
*A55
350
6417
  3
*A56
350
307D
  3
*A57
350
668C
  3
*A58
350
241A
  3
*A59
350
68C5
  3
*A6
350
34BB
  3
*A60
350
6A30
  3
*A61
350
2EE1
  3
*A62
350
6A98
  3
*A63
350
6C32
  3
*A64
350
2037
  3
*A65
350
6D00
  3
*A66
350
6DE3
  3
*A67
350
FF8
  3
*A68
350
6EB7
  3
*A69
350
706D
  3
*A7
350
45E5
  3
*A70
350
7170
  3
*A71
350
35A5
  3
*A72
350
401B
  3
*A73
350
1CBC
  3
*A74
350
7453
  3
*A75
350
76E3
  3
*A76
350
3A25
  3
*A77
350
7793
  3
*A78
350
2D78
  3
*A79
350
7ADA
  3
*A8
350
26DD
  3
*A80
350
7D2B
  3
*A81
350
2F81
  3
*A82
350
7E5C
  3
*A83
350
8108
  3
*A84
350
8393
  3
*A85
350
84B0
  3
*A86
350
8635
  3
*A87
350
3467
  3
*A88
350
87B5
  3
*A89
350
136A
  3
*A9
350
46A5
  3
*A90
350
8919
  3
*A92
350
8B1F
  3
*A93
350
8BB8
  0
DICTIONARY
  5
58
102
{ACAD_REACTORS
330
1A
102
}
330
1A
100
AcDbDictionary
281
     1
  3
Model
350
5A
  3
ﾚｲｱｳﾄ1
350
5B
  0
DICTIONARY
  5
143
102
{ACAD_REACTORS
330
1A
102
}
330
1A
100
AcDbDictionary
281
     1
  0
DICTIONARY
  5
19
102
{ACAD_REACTORS
330
1A
102
}
330
1A
100
AcDbDictionary
281
     1
  3
STANDARD
350
1D
  0
DICTIONARY
  5
59
102
{ACAD_REACTORS
330
1A
102
}
330
1A
100
AcDbDictionary
281
     1
  0
ACDBDICTIONARYWDFLT
  5
56
102
{ACAD_REACTORS
330
1A
102
}
330
1A
100
AcDbDictionary
281
     1
  3
Normal
350
57
100
AcDbDictionaryWithDefault
340
57
  0
DICTIONARY
  5
145
102
{ACAD_REACTORS
330
1A
102
}
330
1A
100
AcDbDictionary
281
     1
  3
Standard
350
146
  0
DICTIONARY
  5
8C71
102
{ACAD_REACTORS
330
1A
102
}
330
1A
100
AcDbDictionary
281
     1
  0
DICTIONARY
  5
1D1
102
{ACAD_REACTORS
330
1A
102
}
330
1A
100
AcDbDictionary
281
     1
  3
CTABLESTYLE
350
1D2
  3
DIMASSOC
350
D03
  3
PROJECTNAME
350
D04
  0
DICTIONARY
  5
7795
102
{ACAD_REACTORS
330
1B4
102
}
330
1B4
100
AcDbDictionary
281
     1
  0
DICTIONARY
  5
7794
102
{ACAD_REACTORS
330
1B4
102
}
330
1B4
100
AcDbDictionary
281
     1
1001
ACAD
1000
<All
  0
SORTENTSTABLE
  5
D14
102
{ACAD_REACTORS
330
D13
102
}
330
D13
100
AcDbSortentsTable
330
2
331
89F0
  5
89F0
331
8A89
  5
8A89
331
8A17
  5
8A17
331
8AB0
  5
8AB0
331
8A3E
  5
8A3E
331
8A01
  5
8A01
331
89CC
  5
89CC
331
8A9A
  5
8A9A
331
89D2
  5
89D2
331
8AA0
  5
8AA0
331
8A2E
  5
8A2E
331
89F1
  5
89F1
331
8AC7
  5
8AC7
331
8A8A
  5
8A8A
331
8A55
  5
8A55
331
8A18
  5
8A18
331
89E3
  5
89E3
331
8AB1
  5
8AB1
331
8A02
  5
8A02
331
8A9B
  5
8A9B
331
8A08
  5
8A08
331
8AA1
  5
8AA1
331
8A2F
  5
8A2F
331
89F2
  5
89F2
331
8AC8
  5
8AC8
331
8A8B
  5
8A8B
331
8A19
  5
8A19
331
89E4
  5
89E4
331
20
  5
20
331
8AB2
  5
8AB2
331
8A40
  5
8A40
331
8A03
  5
8A03
331
89CE
  5
89CE
331
8A9C
  5
8A9C
331
8A30
  5
8A30
331
89F3
  5
89F3
331
8A8C
  5
8A8C
331
8A1A
  5
8A1A
331
89E5
  5
89E5
331
21
  5
21
331
8B1E
  5
8B1E
331
8AB3
  5
8AB3
331
8A41
  5
8A41
331
8A04
  5
8A04
331
89CF
  5
89CF
331
8A9D
  5
8A9D
331
8A0A
  5
8A0A
331
8AA3
  5
8AA3
331
89F4
  5
89F4
331
8ACA
  5
8ACA
331
8A8D
  5
8A8D
331
8A1B
  5
8A1B
331
89E6
  5
89E6
331
8AB4
  5
8AB4
331
8A42
  5
8A42
331
8A05
  5
8A05
331
8A9E
  5
8A9E
331
8A48
  5
8A48
331
8A0B
  5
8A0B
331
89D6
  5
89D6
331
8AA4
  5
8AA4
331
8A32
  5
8A32
331
89F5
  5
89F5
331
8A8E
  5
8A8E
331
8A1C
  5
8A1C
331
23
  5
23
331
8AB5
  5
8AB5
331
8A43
  5
8A43
331
8A06
  5
8A06
331
8A9F
  5
8A9F
331
8A0C
  5
8A0C
331
89D7
  5
89D7
331
8AA5
  5
8AA5
331
8A33
  5
8A33
331
89F6
  5
89F6
331
8A8F
  5
8A8F
331
8A1D
  5
8A1D
331
8AB6
  5
8AB6
331
8A44
  5
8A44
331
8A07
  5
8A07
331
8A0D
  5
8A0D
331
89D8
  5
89D8
331
1F
  5
1F
331
8AA6
  5
8AA6
331
8A34
  5
8A34
331
89F7
  5
89F7
331
8A90
  5
8A90
331
8A1E
  5
8A1E
331
8AB7
  5
8AB7
331
8A45
  5
8A45
331
8A80
  5
8A80
331
89D9
  5
89D9
331
8AA7
  5
8AA7
331
8A35
  5
8A35
331
89F8
  5
89F8
331
89C3
  5
89C3
331
8A91
  5
8A91
331
8A1F
  5
8A1F
331
8AB8
  5
8AB8
331
89E8
  5
89E8
331
8A81
  5
8A81
331
8A0F
  5
8A0F
331
89DA
  5
89DA
331
8AA8
  5
8AA8
331
8A36
  5
8A36
331
89F9
  5
89F9
331
89C4
  5
89C4
331
8A92
  5
8A92
331
8A20
  5
8A20
331
8AB9
  5
8AB9
331
89E9
  5
89E9
331
8A82
  5
8A82
331
8A10
  5
8A10
331
89DB
  5
89DB
331
8AA9
  5
8AA9
331
8A37
  5
8A37
331
89FA
  5
89FA
331
89C5
  5
89C5
331
8A93
  5
8A93
331
8A21
  5
8A21
331
8ABA
  5
8ABA
331
89EA
  5
89EA
331
8AC0
  5
8AC0
331
8A11
  5
8A11
331
89DC
  5
89DC
331
8AAA
  5
8AAA
331
8A38
  5
8A38
331
8A94
  5
8A96
331
8A22
  5
8A22
331
8ABB
  5
8ABB
331
8A28
  5
8A28
331
89EB
  5
89EB
331
8AC1
  5
8AC1
331
89DD
  5
89DD
331
8AAB
  5
8AAB
331
8A39
  5
8A39
331
89C7
  5
89C7
331
8A23
  5
8A23
331
8ABC
  5
8ABC
331
8A7F
  5
8A7F
331
8A29
  5
8A29
331
89EC
  5
89EC
331
8AC2
  5
8AC2
331
8A85
  5
8A85
331
8A13
  5
8A13
331
89DE
  5
89DE
331
8AAC
  5
8AAC
331
8A3A
  5
8A3A
331
89FD
  5
89FD
331
89C8
  5
89C8
331
8A96
  5
8A94
331
8A24
  5
8A24
331
8ABD
  5
8ABD
331
8A2A
  5
8A2A
331
89ED
  5
89ED
331
8AC3
  5
8AC3
331
89DF
  5
89DF
331
8AAD
  5
8AAD
331
8A3B
  5
8A3B
331
89FE
  5
89FE
331
8A97
  5
8A97
331
8A25
  5
8A25
331
8ABE
  5
8ABE
331
8A2B
  5
8A2B
331
89EE
  5
89EE
331
8AC4
  5
8AC4
331
8A87
  5
8A87
331
8A15
  5
8A15
331
89E0
  5
89E0
331
8AAE
  5
8AAE
331
8A3C
  5
8A3C
331
89FF
  5
89FF
331
89CA
  5
89CA
331
8A98
  5
8A98
331
8A26
  5
8A26
331
8ABF
  5
8ABF
331
89D0
  5
89D0
331
8A2C
  5
8A2C
331
89EF
  5
89EF
331
8AC5
  5
8AC5
331
8A88
  5
8A88
331
8A16
  5
8A16
331
89E1
  5
89E1
331
8AAF
  5
8AAF
331
8A00
  5
8A00
331
8A99
  5
8A99
331
8A27
  5
8A27
  0
GROUP
  5
E0D
102
{ACAD_REACTORS
330
18
102
}
330
18
100
AcDbGroup
300

 70
     1
 71
     1
  0
GROUP
  5
4781
102
{ACAD_REACTORS
330
18
102
}
330
18
100
AcDbGroup
300

 70
     1
 71
     1
  0
GROUP
  5
48BA
102
{ACAD_REACTORS
330
18
102
}
330
18
100
AcDbGroup
300

 70
     1
 71
     1
  0
GROUP
  5
422E
102
{ACAD_REACTORS
330
18
102
}
330
18
100
AcDbGroup
300

 70
     1
 71
     1
  0
GROUP
  5
4A53
102
{ACAD_REACTORS
330
18
102
}
330
18
100
AcDbGroup
300

 70
     1
 71
     1
  0
GROUP
  5
1A98
102
{ACAD_REACTORS
330
18
102
}
330
18
100
AcDbGroup
300

 70
     1
 71
     1
  0
GROUP
  5
3695
102
{ACAD_REACTORS
330
18
102
}
330
18
100
AcDbGroup
300

 70
     1
 71
     1
  0
GROUP
  5
32E4
102
{ACAD_REACTORS
330
18
102
}
330
18
100
AcDbGroup
300

 70
     1
 71
     1
  0
GROUP
  5
4B49
102
{ACAD_REACTORS
330
18
102
}
330
18
100
AcDbGroup
300

 70
     1
 71
     1
  0
GROUP
  5
4C3E
102
{ACAD_REACTORS
330
18
102
}
330
18
100
AcDbGroup
300

 70
     1
 71
     1
  0
GROUP
  5
4CEC
102
{ACAD_REACTORS
330
18
102
}
330
18
100
AcDbGroup
300

 70
     1
 71
     1
  0
GROUP
  5
1555
102
{ACAD_REACTORS
330
18
102
}
330
18
100
AcDbGroup
300

 70
     1
 71
     1
  0
GROUP
  5
4D76
102
{ACAD_REACTORS
330
18
102
}
330
18
100
AcDbGroup
300

 70
     1
 71
     1
  0
GROUP
  5
3988
102
{ACAD_REACTORS
330
18
102
}
330
18
100
AcDbGroup
300

 70
     1
 71
     1
  0
GROUP
  5
3C81
102
{ACAD_REACTORS
330
18
102
}
330
18
100
AcDbGroup
300

 70
     1
 71
     1
  0
GROUP
  5
4407
102
{ACAD_REACTORS
330
18
102
}
330
18
100
AcDbGroup
300

 70
     1
 71
     1
  0
GROUP
  5
4E16
102
{ACAD_REACTORS
330
18
102
}
330
18
100
AcDbGroup
300

 70
     1
 71
     1
  0
GROUP
  5
4EE5
102
{ACAD_REACTORS
330
18
102
}
330
18
100
AcDbGroup
300

 70
     1
 71
     1
  0
GROUP
  5
4F64
102
{ACAD_REACTORS
330
18
102
}
330
18
100
AcDbGroup
300

 70
     1
 71
     1
  0
GROUP
  5
5011
102
{ACAD_REACTORS
330
18
102
}
330
18
100
AcDbGroup
300

 70
     1
 71
     1
  0
GROUP
  5
2C6B
102
{ACAD_REACTORS
330
18
102
}
330
18
100
AcDbGroup
300

 70
     1
 71
     1
  0
GROUP
  5
22C8
102
{ACAD_REACTORS
330
18
102
}
330
18
100
AcDbGroup
300

 70
     1
 71
     1
  0
GROUP
  5
2A17
102
{ACAD_REACTORS
330
18
102
}
330
18
100
AcDbGroup
300

 70
     1
 71
     1
  0
GROUP
  5
519C
102
{ACAD_REACTORS
330
18
102
}
330
18
100
AcDbGroup
300

 70
     1
 71
     1
  0
GROUP
  5
52B0
102
{ACAD_REACTORS
330
18
102
}
330
18
100
AcDbGroup
300

 70
     1
 71
     1
  0
GROUP
  5
36C9
102
{ACAD_REACTORS
330
18
102
}
330
18
100
AcDbGroup
300

 70
     1
 71
     1
  0
GROUP
  5
5396
102
{ACAD_REACTORS
330
18
102
}
330
18
100
AcDbGroup
300

 70
     1
 71
     1
  0
GROUP
  5
265A
102
{ACAD_REACTORS
330
18
102
}
330
18
100
AcDbGroup
300

 70
     1
 71
     1
  0
GROUP
  5
275E
102
{ACAD_REACTORS
330
18
102
}
330
18
100
AcDbGroup
300

 70
     1
 71
     1
  0
GROUP
  5
5464
102
{ACAD_REACTORS
330
18
102
}
330
18
100
AcDbGroup
300

 70
     1
 71
     1
  0
GROUP
  5
556A
102
{ACAD_REACTORS
330
18
102
}
330
18
100
AcDbGroup
300

 70
     1
 71
     1
  0
GROUP
  5
213E
102
{ACAD_REACTORS
330
18
102
}
330
18
100
AcDbGroup
300

 70
     1
 71
     1
  0
GROUP
  5
57BF
102
{ACAD_REACTORS
330
18
102
}
330
18
100
AcDbGroup
300

 70
     1
 71
     1
  0
GROUP
  5
31DF
102
{ACAD_REACTORS
330
18
102
}
330
18
100
AcDbGroup
300

 70
     1
 71
     1
  0
GROUP
  5
3349
102
{ACAD_REACTORS
330
18
102
}
330
18
100
AcDbGroup
300

 70
     1
 71
     1
  0
GROUP
  5
58EE
102
{ACAD_REACTORS
330
18
102
}
330
18
100
AcDbGroup
300

 70
     1
 71
     1
  0
GROUP
  5
382B
102
{ACAD_REACTORS
330
18
102
}
330
18
100
AcDbGroup
300

 70
     1
 71
     1
  0
GROUP
  5
1EFE
102
{ACAD_REACTORS
330
18
102
}
330
18
100
AcDbGroup
300

 70
     1
 71
     1
  0
GROUP
  5
2573
102
{ACAD_REACTORS
330
18
102
}
330
18
100
AcDbGroup
300

 70
     1
 71
     1
  0
GROUP
  5
4516
102
{ACAD_REACTORS
330
18
102
}
330
18
100
AcDbGroup
300

 70
     1
 71
     1
  0
GROUP
  5
3878
102
{ACAD_REACTORS
330
18
102
}
330
18
100
AcDbGroup
300

 70
     1
 71
     1
  0
GROUP
  5
5D92
102
{ACAD_REACTORS
330
18
102
}
330
18
100
AcDbGroup
300

 70
     1
 71
     1
  0
GROUP
  5
2905
102
{ACAD_REACTORS
330
18
102
}
330
18
100
AcDbGroup
300

 70
     1
 71
     1
  0
GROUP
  5
3E5C
102
{ACAD_REACTORS
330
18
102
}
330
18
100
AcDbGroup
300

 70
     1
 71
     1
  0
GROUP
  5
17BC
102
{ACAD_REACTORS
330
18
102
}
330
18
100
AcDbGroup
300

 70
     1
 71
     1
  0
GROUP
  5
3181
102
{ACAD_REACTORS
330
18
102
}
330
18
100
AcDbGroup
300

 70
     1
 71
     1
  0
GROUP
  5
2B84
102
{ACAD_REACTORS
330
18
102
}
330
18
100
AcDbGroup
300

 70
     1
 71
     1
  0
GROUP
  5
24D6
102
{ACAD_REACTORS
330
18
102
}
330
18
100
AcDbGroup
300

 70
     1
 71
     1
  0
GROUP
  5
5F6F
102
{ACAD_REACTORS
330
18
102
}
330
18
100
AcDbGroup
300

 70
     1
 71
     1
  0
GROUP
  5
626B
102
{ACAD_REACTORS
330
18
102
}
330
18
100
AcDbGroup
300

 70
     1
 71
     1
  0
GROUP
  5
6417
102
{ACAD_REACTORS
330
18
102
}
330
18
100
AcDbGroup
300

 70
     1
 71
     1
  0
GROUP
  5
307D
102
{ACAD_REACTORS
330
18
102
}
330
18
100
AcDbGroup
300

 70
     1
 71
     1
  0
GROUP
  5
668C
102
{ACAD_REACTORS
330
18
102
}
330
18
100
AcDbGroup
300

 70
     1
 71
     1
  0
GROUP
  5
241A
102
{ACAD_REACTORS
330
18
102
}
330
18
100
AcDbGroup
300

 70
     1
 71
     1
  0
GROUP
  5
68C5
102
{ACAD_REACTORS
330
18
102
}
330
18
100
AcDbGroup
300

 70
     1
 71
     1
  0
GROUP
  5
34BB
102
{ACAD_REACTORS
330
18
102
}
330
18
100
AcDbGroup
300

 70
     1
 71
     1
  0
GROUP
  5
6A30
102
{ACAD_REACTORS
330
18
102
}
330
18
100
AcDbGroup
300

 70
     1
 71
     1
  0
GROUP
  5
2EE1
102
{ACAD_REACTORS
330
18
102
}
330
18
100
AcDbGroup
300

 70
     1
 71
     1
  0
GROUP
  5
6A98
102
{ACAD_REACTORS
330
18
102
}
330
18
100
AcDbGroup
300

 70
     1
 71
     1
  0
GROUP
  5
6C32
102
{ACAD_REACTORS
330
18
102
}
330
18
100
AcDbGroup
300

 70
     1
 71
     1
  0
GROUP
  5
2037
102
{ACAD_REACTORS
330
18
102
}
330
18
100
AcDbGroup
300

 70
     1
 71
     1
  0
GROUP
  5
6D00
102
{ACAD_REACTORS
330
18
102
}
330
18
100
AcDbGroup
300

 70
     1
 71
     1
  0
GROUP
  5
6DE3
102
{ACAD_REACTORS
330
18
102
}
330
18
100
AcDbGroup
300

 70
     1
 71
     1
  0
GROUP
  5
FF8
102
{ACAD_REACTORS
330
18
102
}
330
18
100
AcDbGroup
300

 70
     1
 71
     1
  0
GROUP
  5
6EB7
102
{ACAD_REACTORS
330
18
102
}
330
18
100
AcDbGroup
300

 70
     1
 71
     1
  0
GROUP
  5
706D
102
{ACAD_REACTORS
330
18
102
}
330
18
100
AcDbGroup
300

 70
     1
 71
     1
  0
GROUP
  5
45E5
102
{ACAD_REACTORS
330
18
102
}
330
18
100
AcDbGroup
300

 70
     1
 71
     1
  0
GROUP
  5
7170
102
{ACAD_REACTORS
330
18
102
}
330
18
100
AcDbGroup
300

 70
     1
 71
     1
  0
GROUP
  5
35A5
102
{ACAD_REACTORS
330
18
102
}
330
18
100
AcDbGroup
300

 70
     1
 71
     1
  0
GROUP
  5
401B
102
{ACAD_REACTORS
330
18
102
}
330
18
100
AcDbGroup
300

 70
     1
 71
     1
  0
GROUP
  5
1CBC
102
{ACAD_REACTORS
330
18
102
}
330
18
100
AcDbGroup
300

 70
     1
 71
     1
  0
GROUP
  5
7453
102
{ACAD_REACTORS
330
18
102
}
330
18
100
AcDbGroup
300

 70
     1
 71
     1
  0
GROUP
  5
76E3
102
{ACAD_REACTORS
330
18
102
}
330
18
100
AcDbGroup
300

 70
     1
 71
     1
  0
GROUP
  5
3A25
102
{ACAD_REACTORS
330
18
102
}
330
18
100
AcDbGroup
300

 70
     1
 71
     1
  0
GROUP
  5
7793
102
{ACAD_REACTORS
330
18
102
}
330
18
100
AcDbGroup
300

 70
     1
 71
     1
  0
GROUP
  5
2D78
102
{ACAD_REACTORS
330
18
102
}
330
18
100
AcDbGroup
300

 70
     1
 71
     1
  0
GROUP
  5
7ADA
102
{ACAD_REACTORS
330
18
102
}
330
18
100
AcDbGroup
300

 70
     1
 71
     1
  0
GROUP
  5
26DD
102
{ACAD_REACTORS
330
18
102
}
330
18
100
AcDbGroup
300

 70
     1
 71
     1
  0
GROUP
  5
7D2B
102
{ACAD_REACTORS
330
18
102
}
330
18
100
AcDbGroup
300

 70
     1
 71
     1
  0
GROUP
  5
2F81
102
{ACAD_REACTORS
330
18
102
}
330
18
100
AcDbGroup
300

 70
     1
 71
     1
  0
GROUP
  5
7E5C
102
{ACAD_REACTORS
330
18
102
}
330
18
100
AcDbGroup
300

 70
     1
 71
     1
  0
GROUP
  5
8108
102
{ACAD_REACTORS
330
18
102
}
330
18
100
AcDbGroup
300

 70
     1
 71
     1
  0
GROUP
  5
8393
102
{ACAD_REACTORS
330
18
102
}
330
18
100
AcDbGroup
300

 70
     1
 71
     1
  0
GROUP
  5
84B0
102
{ACAD_REACTORS
330
18
102
}
330
18
100
AcDbGroup
300

 70
     1
 71
     1
  0
GROUP
  5
8635
102
{ACAD_REACTORS
330
18
102
}
330
18
100
AcDbGroup
300

 70
     1
 71
     1
  0
GROUP
  5
3467
102
{ACAD_REACTORS
330
18
102
}
330
18
100
AcDbGroup
300

 70
     1
 71
     1
  0
GROUP
  5
87B5
102
{ACAD_REACTORS
330
18
102
}
330
18
100
AcDbGroup
300

 70
     1
 71
     1
  0
GROUP
  5
136A
102
{ACAD_REACTORS
330
18
102
}
330
18
100
AcDbGroup
300

 70
     1
 71
     1
  0
GROUP
  5
46A5
102
{ACAD_REACTORS
330
18
102
}
330
18
100
AcDbGroup
300

 70
     1
 71
     1
  0
GROUP
  5
8919
102
{ACAD_REACTORS
330
18
102
}
330
18
100
AcDbGroup
300

 70
     1
 71
     1
  0
GROUP
  5
8B1F
102
{ACAD_REACTORS
330
18
102
}
330
18
100
AcDbGroup
300

 70
     1
 71
     1
340
8B1E
340
8ACA
340
8AC8
340
8AC7
340
8AC5
340
8AC4
340
8AC3
340
8AC2
340
8AC1
340
8AC0
340
8ABF
340
8ABE
340
8ABD
340
8ABC
340
8ABB
340
8ABA
340
8AB9
340
8AB8
340
8AB7
340
8AB6
340
8AB5
340
8AB4
340
8AB3
340
8AB2
340
8AB1
340
8AB0
340
8AAF
340
8AAE
340
8AAD
340
8AAC
340
8AAB
340
8AAA
340
8AA9
340
8AA8
340
8AA7
340
8AA6
340
8AA5
340
8AA4
340
8AA3
340
8AA1
340
8AA0
340
8A9F
340
8A9E
340
8A9D
340
8A9C
340
8A9B
340
8A9A
340
8A99
340
8A98
340
8A97
340
8A94
340
8A96
340
8A93
340
8A92
340
8A91
340
8A90
340
8A8F
340
8A8E
340
8A8D
340
8A8C
340
8A8B
340
8A8A
340
8A89
340
8A88
340
8A87
340
8A85
340
8A82
340
8A81
340
8A80
340
8A7F
340
8A45
340
8A44
340
8A43
340
8A42
340
8A41
340
8A40
340
8A3E
340
8A3C
340
8A3B
340
8A3A
340
8A39
340
8A38
340
8A37
340
8A36
340
8A35
340
8A34
340
8A33
340
8A32
340
8A30
340
8A2F
340
8A2E
340
8A2C
340
8A2B
340
8A2A
340
8A29
340
8A28
340
8A27
340
8A26
340
8A25
340
8A24
340
8A23
340
8A22
340
8A21
340
8A20
340
8A1F
340
8A1E
340
8A1D
340
8A1C
340
8A1B
340
8A1A
340
8A19
340
8A18
340
8A17
340
8A16
340
8A15
340
8A13
340
8A11
340
8A10
340
8A0F
340
8A0D
340
8A0C
340
8A0B
340
8A0A
340
8A08
340
8A07
340
8A06
340
8A05
340
8A04
340
8A03
340
8A02
340
8A01
340
8A00
340
89FF
340
89FE
340
89FD
340
89FA
340
89F9
340
89F8
340
89F7
340
89F6
340
89F5
340
89F4
340
89F3
340
89F2
340
89F1
340
89F0
340
89EF
340
89EE
340
89ED
340
89EC
340
89EB
340
89EA
340
89E9
340
89E8
340
89E6
340
89E5
340
89E4
340
89E3
340
89E1
340
89E0
340
89DF
340
89DE
340
89DD
340
89DC
340
89DB
340
89DA
340
89D9
340
89D8
340
89D7
340
89D6
340
89D2
340
89D0
340
89CF
340
89CE
340
89CC
340
89CA
340
89C8
340
89C7
340
89C5
340
89C4
340
89C3
  0
GROUP
  5
8BB8
102
{ACAD_REACTORS
330
18
102
}
330
18
100
AcDbGroup
300

 70
     1
 71
     1
  0
LAYOUT
  5
5A
102
{ACAD_XDICTIONARY
360
8C72
102
}
102
{ACAD_REACTORS
330
58
102
}
330
58
100
AcDbPlotSettings
  1

  2
なし
  4

  6

 40
0.0
 41
0.0
 42
0.0
 43
0.0
 44
0.0
 45
0.0
 46
0.0
 47
0.0
 48
0.0
 49
0.0
140
0.0
141
0.0
142
1.0
143
1.0
 70
  1712
 72
     0
 73
     0
 74
     0
  7
monochrome.ctb
 75
     0
147
1.0
148
0.0
149
0.0
100
AcDbLayout
  1
Model
 70
     1
 71
     0
 10
0.0
 20
0.0
 11
12.0
 21
9.0
 12
0.0
 22
0.0
 32
0.0
 14
0.0
 24
0.0
 34
0.0
 15
0.0
 25
0.0
 35
0.0
146
0.0
 13
0.0
 23
0.0
 33
0.0
 16
1.0
 26
0.0
 36
0.0
 17
0.0
 27
1.0
 37
0.0
 76
     0
330
2
  0
LAYOUT
  5
5B
102
{ACAD_XDICTIONARY
360
8C74
102
}
102
{ACAD_REACTORS
330
58
102
}
330
58
100
AcDbPlotSettings
  1

  2
なし
  4

  6

 40
0.0
 41
0.0
 42
0.0
 43
0.0
 44
0.0
 45
0.0
 46
0.0
 47
0.0
 48
0.0
 49
0.0
140
0.0
141
0.0
142
1.0
143
1.0
 70
   688
 72
     0
 73
     0
 74
     5
  7
monochrome.ctb
 75
    16
147
1.0
148
0.0
149
0.0
100
AcDbLayout
  1
ﾚｲｱｳﾄ1
 70
     1
 71
     1
 10
0.0
 20
0.0
 11
12.0
 21
9.0
 12
0.0
 22
0.0
 32
0.0
 14
1.000000000000000E+20
 24
1.000000000000000E+20
 34
1.000000000000000E+20
 15
-1.000000000000000E+20
 25
-1.000000000000000E+20
 35
-1.000000000000000E+20
146
0.0
 13
0.0
 23
0.0
 33
0.0
 16
1.0
 26
0.0
 36
0.0
 17
0.0
 27
1.0
 37
0.0
 76
     0
330
7
  0
MLINESTYLE
  5
1D
102
{ACAD_REACTORS
330
19
102
}
330
19
100
AcDbMlineStyle
  2
STANDARD
 70
     0
  3

 62
   256
 51
90.0
 52
90.0
 71
     2
 49
0.5
 62
   256
  6
BYLAYER
 49
-0.5
 62
   256
  6
BYLAYER
  0
ACDBPLACEHOLDER
  5
57
102
{ACAD_REACTORS
330
56
102
}
330
56
  0
TABLESTYLE
  5
146
102
{ACAD_REACTORS
330
145
102
}
330
145
100
AcDbTableStyle
  3
Standard
 70
     0
 71
     0
 40
0.06
 41
0.06
280
     0
281
     0
  7
STANDARD
140
0.18
170
     2
 62
     0
 63
     7
283
     0
274
    -2
284
     1
 64
     0
275
    -2
285
     1
 65
     0
276
    -2
286
     1
 66
     0
277
    -2
287
     1
 67
     0
278
    -2
288
     1
 68
     0
279
    -2
289
     1
 69
     0
  7
STANDARD
140
0.25
170
     5
 62
     0
 63
     7
283
     0
274
    -2
284
     1
 64
     0
275
    -2
285
     1
 65
     0
276
    -2
286
     1
 66
     0
277
    -2
287
     1
 67
     0
278
    -2
288
     1
 68
     0
279
    -2
289
     1
 69
     0
  7
STANDARD
140
0.18
170
     5
 62
     0
 63
     7
283
     0
274
    -2
284
     1
 64
     0
275
    -2
285
     1
 65
     0
276
    -2
286
     1
 66
     0
277
    -2
287
     1
 67
     0
278
    -2
288
     1
 68
     0
279
    -2
289
     1
 69
     0
  0
DICTIONARYVAR
  5
1D2
102
{ACAD_REACTORS
330
1D1
102
}
330
1D1
100
DictionaryVariables
280
     0
  1
STANDARD
  0
DICTIONARYVAR
  5
D03
102
{ACAD_REACTORS
330
1D1
102
}
330
1D1
100
DictionaryVariables
280
     0
  1
1
  0
DICTIONARYVAR
  5
D04
102
{ACAD_REACTORS
330
1D1
102
}
330
1D1
100
DictionaryVariables
280
     0
  1

  0
DICTIONARY
  5
8C72
330
5A
100
AcDbDictionary
280
     1
281
     1
  3
ACAD_XREC_ROUNDTRIP
360
8C73
  0
DICTIONARY
  5
8C74
330
5B
100
AcDbDictionary
280
     1
281
     1
  3
ACAD_XREC_ROUNDTRIP
360
8C75
  0
XRECORD
  5
8C73
102
{ACAD_REACTORS
330
8C72
102
}
330
8C72
100
AcDbXrecord
280
     1
102
SHADEPLOT
 70
     0
102
SHADEPLOTRESLEVEL
 70
     2
102
SHADEPLOTCUSTOMDPI
 70
   300
  0
XRECORD
  5
8C75
102
{ACAD_REACTORS
330
8C74
102
}
330
8C74
100
AcDbXrecord
280
     1
102
SHADEPLOT
 70
     0
102
SHADEPLOTRESLEVEL
 70
     2
102
SHADEPLOTCUSTOMDPI
 70
   300
  0
ENDSEC
  0
EOF
