  0
SECTION
  2
HEADER
  9
$ACADVER
  1
AC1015
  9
$ACADMAINTVER
 70
    20
  9
$DWGCODEPAGE
  3
ANSI_932
  9
$INSBASE
 10
922.019522
 20
-675.4306699999999
 30
0.0
  9
$EXTMIN
 10
-183.0593215870863
 20
-0.0115011554229341
 30
-0.0015258207003583
  9
$EXTMAX
 10
280.73409284025
 20
112.1317250208143
 30
0.0000000349246037
  9
$LIMMIN
 10
0.0
 20
0.0
  9
$LIMMAX
 10
420.0
 20
297.0
  9
$ORTHOMODE
 70
     1
  9
$REGENMODE
 70
     1
  9
$FILLMODE
 70
     1
  9
$QTEXTMODE
 70
     0
  9
$MIRRTEXT
 70
     1
  9
$LTSCALE
 40
1.0
  9
$ATTMODE
 70
     1
  9
$TEXTSIZE
 40
30.0
  9
$TRACEWID
 40
0.05
  9
$TEXTSTYLE
  7
SUNPOU
  9
$CLAYER
  8
0
  9
$CELTYPE
  6
BYLAYER
  9
$CECOLOR
 62
   256
  9
$CELTSCALE
 40
1.0
  9
$DISPSILH
 70
     0
  9
$DIMSCALE
 40
1.0
  9
$DIMASZ
 40
2.0
  9
$DIMEXO
 40
10.0
  9
$DIMDLI
 40
0.38
  9
$DIMRND
 40
0.0
  9
$DIMDLE
 40
0.0
  9
$DIMEXE
 40
0.0
  9
$DIMTP
 40
0.0
  9
$DIMTM
 40
0.0
  9
$DIMTXT
 40
5.0
  9
$DIMCEN
 40
0.0
  9
$DIMTSZ
 40
0.0
  9
$DIMTOL
 70
     0
  9
$DIMLIM
 70
     0
  9
$DIMTIH
 70
     0
  9
$DIMTOH
 70
     0
  9
$DIMSE1
 70
     0
  9
$DIMSE2
 70
     0
  9
$DIMTAD
 70
     1
  9
$DIMZIN
 70
     0
  9
$DIMBLK
  1
Dot
  9
$DIMASO
 70
     1
  9
$DIMSHO
 70
     1
  9
$DIMPOST
  1

  9
$DIMAPOST
  1

  9
$DIMALT
 70
     0
  9
$DIMALTD
 70
     2
  9
$DIMALTF
 40
25.4
  9
$DIMLFAC
 40
1.0
  9
$DIMTOFL
 70
     0
  9
$DIMTVP
 40
0.0
  9
$DIMTIX
 70
     0
  9
$DIMSOXD
 70
     0
  9
$DIMSAH
 70
     0
  9
$DIMBLK1
  1

  9
$DIMBLK2
  1

  9
$DIMSTYLE
  2
STANDARD
  9
$DIMCLRD
 70
    60
  9
$DIMCLRE
 70
    70
  9
$DIMCLRT
 70
    60
  9
$DIMTFAC
 40
0.064286
  9
$DIMGAP
 40
3.0
  9
$DIMJUST
 70
     0
  9
$DIMSD1
 70
     0
  9
$DIMSD2
 70
     0
  9
$DIMTOLJ
 70
     1
  9
$DIMTZIN
 70
     0
  9
$DIMALTZ
 70
     0
  9
$DIMALTTZ
 70
     0
  9
$DIMUPT
 70
     0
  9
$DIMDEC
 70
     0
  9
$DIMTDEC
 70
     0
  9
$DIMALTU
 70
     2
  9
$DIMALTTD
 70
     2
  9
$DIMTXSTY
  7
SUNPOU
  9
$DIMAUNIT
 70
     0
  9
$DIMADEC
 70
     0
  9
$DIMALTRND
 40
0.0
  9
$DIMAZIN
 70
     0
  9
$DIMDSEP
 70
    46
  9
$DIMATFIT
 70
     3
  9
$DIMFRAC
 70
     0
  9
$DIMLDRBLK
  1

  9
$DIMLUNIT
 70
     2
  9
$DIMLWD
 70
    -2
  9
$DIMLWE
 70
    -2
  9
$DIMTMOVE
 70
     0
  9
$LUNITS
 70
     2
  9
$LUPREC
 70
     5
  9
$SKETCHINC
 40
0.1
  9
$FILLETRAD
 40
2.0
  9
$AUNITS
 70
     0
  9
$AUPREC
 70
     0
  9
$MENU
  1
acad
  9
$ELEVATION
 40
0.0
  9
$PELEVATION
 40
0.0
  9
$THICKNESS
 40
0.0
  9
$LIMCHECK
 70
     0
  9
$CHAMFERA
 40
0.0
  9
$CHAMFERB
 40
0.0
  9
$CHAMFERC
 40
0.0
  9
$CHAMFERD
 40
0.0
  9
$SKPOLY
 70
     0
  9
$TDCREATE
 40
2450623.654673033
  9
$TDUCREATE
 40
2450623.279673032
  9
$TDUPDATE
 40
2453873.710944410
  9
$TDUUPDATE
 40
2453873.335944410
  9
$TDINDWG
 40
1.3803375579
  9
$TDUSRTIMER
 40
1.3803373843
  9
$USRTIMER
 70
     1
  9
$ANGBASE
 50
0.0
  9
$ANGDIR
 70
     0
  9
$PDMODE
 70
     0
  9
$PDSIZE
 40
0.0
  9
$PLINEWID
 40
0.0
  9
$SPLFRAME
 70
     0
  9
$SPLINETYPE
 70
     6
  9
$SPLINESEGS
 70
     8
  9
$HANDSEED
  5
8660
  9
$SURFTAB1
 70
     6
  9
$SURFTAB2
 70
     6
  9
$SURFTYPE
 70
     6
  9
$SURFU
 70
     6
  9
$SURFV
 70
     6
  9
$UCSBASE
  2

  9
$UCSNAME
  2

  9
$UCSORG
 10
0.0
 20
0.0
 30
0.0
  9
$UCSXDIR
 10
1.0
 20
0.0
 30
0.0
  9
$UCSYDIR
 10
0.0
 20
1.0
 30
0.0
  9
$UCSORTHOREF
  2

  9
$UCSORTHOVIEW
 70
     0
  9
$UCSORGTOP
 10
0.0
 20
0.0
 30
0.0
  9
$UCSORGBOTTOM
 10
0.0
 20
0.0
 30
0.0
  9
$UCSORGLEFT
 10
0.0
 20
0.0
 30
0.0
  9
$UCSORGRIGHT
 10
0.0
 20
0.0
 30
0.0
  9
$UCSORGFRONT
 10
0.0
 20
0.0
 30
0.0
  9
$UCSORGBACK
 10
0.0
 20
0.0
 30
0.0
  9
$PUCSBASE
  2

  9
$PUCSNAME
  2

  9
$PUCSORG
 10
0.0
 20
0.0
 30
0.0
  9
$PUCSXDIR
 10
1.0
 20
0.0
 30
0.0
  9
$PUCSYDIR
 10
0.0
 20
1.0
 30
0.0
  9
$PUCSORTHOREF
  2

  9
$PUCSORTHOVIEW
 70
     0
  9
$PUCSORGTOP
 10
0.0
 20
0.0
 30
0.0
  9
$PUCSORGBOTTOM
 10
0.0
 20
0.0
 30
0.0
  9
$PUCSORGLEFT
 10
0.0
 20
0.0
 30
0.0
  9
$PUCSORGRIGHT
 10
0.0
 20
0.0
 30
0.0
  9
$PUCSORGFRONT
 10
0.0
 20
0.0
 30
0.0
  9
$PUCSORGBACK
 10
0.0
 20
0.0
 30
0.0
  9
$USERI1
 70
     0
  9
$USERI2
 70
     0
  9
$USERI3
 70
     0
  9
$USERI4
 70
     0
  9
$USERI5
 70
     0
  9
$USERR1
 40
0.0
  9
$USERR2
 40
0.0
  9
$USERR3
 40
0.0
  9
$USERR4
 40
0.0
  9
$USERR5
 40
0.0
  9
$WORLDVIEW
 70
     1
  9
$SHADEDGE
 70
     3
  9
$SHADEDIF
 70
    70
  9
$TILEMODE
 70
     1
  9
$MAXACTVP
 70
    16
  9
$PINSBASE
 10
0.0
 20
0.0
 30
0.0
  9
$PLIMCHECK
 70
     0
  9
$PEXTMIN
 10
1.000000000000000E+20
 20
1.000000000000000E+20
 30
1.000000000000000E+20
  9
$PEXTMAX
 10
-1.000000000000000E+20
 20
-1.000000000000000E+20
 30
-1.000000000000000E+20
  9
$PLIMMIN
 10
0.0
 20
0.0
  9
$PLIMMAX
 10
12.0
 20
9.0
  9
$UNITMODE
 70
     0
  9
$VISRETAIN
 70
     0
  9
$PLINEGEN
 70
     0
  9
$PSLTSCALE
 70
     1
  9
$TREEDEPTH
 70
  3020
  9
$CMLSTYLE
  2
STANDARD
  9
$CMLJUST
 70
     0
  9
$CMLSCALE
 40
1.0
  9
$PROXYGRAPHICS
 70
     1
  9
$MEASUREMENT
 70
     0
  9
$CELWEIGHT
370
    -1
  9
$ENDCAPS
280
     0
  9
$JOINSTYLE
280
     0
  9
$LWDISPLAY
290
     0
  9
$INSUNITS
 70
     0
  9
$HYPERLINKBASE
  1

  9
$STYLESHEET
  1

  9
$XEDIT
290
     1
  9
$CEPSNTYPE
380
     0
  9
$PSTYLEMODE
290
     1
  9
$FINGERPRINTGUID
  2
{FB88A696-E29C-4009-92AF-A3599A8169D5}
  9
$VERSIONGUID
  2
{541AA265-5055-4778-8DCB-D2030470C98E}
  9
$EXTNAMES
290
     1
  9
$PSVPSCALE
 40
0.0
  9
$OLESTARTUP
290
     0
  0
ENDSEC
  0
SECTION
  2
CLASSES
  0
CLASS
  1
DICTIONARYVAR
  2
AcDbDictionaryVar
  3
ObjectDBX Classes
 90
        0
280
     0
281
     0
  0
CLASS
  1
ACDBDICTIONARYWDFLT
  2
AcDbDictionaryWithDefault
  3
ObjectDBX Classes
 90
        0
280
     0
281
     0
  0
CLASS
  1
ACDBPLACEHOLDER
  2
AcDbPlaceHolder
  3
ObjectDBX Classes
 90
        0
280
     0
281
     0
  0
CLASS
  1
LAYOUT
  2
AcDbLayout
  3
ObjectDBX Classes
 90
        0
280
     0
281
     0
  0
CLASS
  1
TABLESTYLE
  2
AcDbTableStyle
  3
ObjectDBX Classes
 90
     2047
280
     0
281
     0
  0
CLASS
  1
SORTENTSTABLE
  2
AcDbSortentsTable
  3
ObjectDBX Classes
 90
        0
280
     0
281
     0
  0
ENDSEC
  0
SECTION
  2
TABLES
  0
TABLE
  2
VPORT
  5
12
330
0
100
AcDbSymbolTable
 70
    62
  0
VPORT
  5
865A
330
12
100
AcDbSymbolTableRecord
100
AcDbViewportTableRecord
  2
*Active
 70
     0
 10
0.0
 20
0.0
 11
1.0
 21
1.0
 12
48.83738562658189
 22
56.0601119326957
 13
0.0
 23
0.0
 14
1.0
 24
1.0
 15
0.0
 25
0.0
 16
0.0
 26
0.0
 36
1.0
 17
0.0
 27
0.0
 37
0.0
 40
298.7441605712409
 41
1.560102301790281
 42
50.0
 43
0.0
 44
0.0
 50
0.0
 51
0.0
 71
     0
 72
 20000
 73
     1
 74
     1
 75
     0
 76
     0
 77
     0
 78
     0
281
     0
 65
     1
110
0.0
120
0.0
130
0.0
111
1.0
121
0.0
131
0.0
112
0.0
122
1.0
132
0.0
 79
     0
146
0.0
  0
ENDTAB
  0
TABLE
  2
LTYPE
  5
D
330
0
100
AcDbSymbolTable
 70
     2
  0
LTYPE
  5
E
330
D
100
AcDbSymbolTableRecord
100
AcDbLinetypeTableRecord
  2
BYBLOCK
 70
     0
  3

 72
    65
 73
     0
 40
0.0
  0
LTYPE
  5
F
330
D
100
AcDbSymbolTableRecord
100
AcDbLinetypeTableRecord
  2
BYLAYER
 70
     0
  3

 72
    65
 73
     0
 40
0.0
  0
LTYPE
  5
5
330
D
100
AcDbSymbolTableRecord
100
AcDbLinetypeTableRecord
  2
CONTINUOUS
 70
     0
  3
Solid line
 72
    65
 73
     0
 40
0.0
  0
ENDTAB
  0
TABLE
  2
LAYER
  5
A
102
{ACAD_XDICTIONARY
360
1B4
102
}
330
0
100
AcDbSymbolTable
 70
     6
  0
LAYER
  5
4
330
A
100
AcDbSymbolTableRecord
100
AcDbLayerTableRecord
  2
0
 70
     0
 62
     7
  6
CONTINUOUS
370
    -3
390
57
  0
LAYER
  5
25
330
A
100
AcDbSymbolTableRecord
100
AcDbLayerTableRecord
  2
KIJUN
 70
     0
 62
     7
  6
CONTINUOUS
370
    -3
390
57
  0
LAYER
  5
22
330
A
100
AcDbSymbolTableRecord
100
AcDbLayerTableRecord
  2
HOJO
 70
     0
 62
     3
  6
CONTINUOUS
370
    -3
390
57
  0
LAYER
  5
1B
330
A
100
AcDbSymbolTableRecord
100
AcDbLayerTableRecord
  2
WAKU
 70
     0
 62
     1
  6
CONTINUOUS
370
    -3
390
57
  0
LAYER
  5
31
330
A
100
AcDbSymbolTableRecord
100
AcDbLayerTableRecord
  2
DEFPOINTS
 70
     0
 62
     7
  6
CONTINUOUS
290
     0
370
    -3
390
57
  0
LAYER
  5
28
330
A
100
AcDbSymbolTableRecord
100
AcDbLayerTableRecord
  2
SUNPOU
 70
     0
 62
    70
  6
CONTINUOUS
370
    -3
390
57
  0
ENDTAB
  0
TABLE
  2
STYLE
  5
B
330
0
100
AcDbSymbolTable
 70
     2
  0
STYLE
  5
C
330
B
100
AcDbSymbolTableRecord
100
AcDbTextStyleTableRecord
  2
STANDARD
 70
     0
 40
0.0
 41
1.0
 50
0.0
 71
     0
 42
0.2
  3
txt
  4

  0
STYLE
  5
1C
330
B
100
AcDbSymbolTableRecord
100
AcDbTextStyleTableRecord
  2
SUNPOU
 70
     0
 40
0.0
 41
1.0
 50
0.0
 71
     0
 42
30.0
  3
txt
  4
bigfont
  0
ENDTAB
  0
TABLE
  2
VIEW
  5
10
330
0
100
AcDbSymbolTable
 70
     0
  0
ENDTAB
  0
TABLE
  2
UCS
  5
11
330
0
100
AcDbSymbolTable
 70
     0
  0
ENDTAB
  0
TABLE
  2
APPID
  5
14
330
0
100
AcDbSymbolTable
 70
    10
  0
APPID
  5
15
330
14
100
AcDbSymbolTableRecord
100
AcDbRegAppTableRecord
  2
ACAD
 70
     0
  0
APPID
  5
1D3
330
14
100
AcDbSymbolTableRecord
100
AcDbRegAppTableRecord
  2
ACAD_DSTYLE_DIMTEXT_FILL
 70
     0
  0
APPID
  5
1D4
330
14
100
AcDbSymbolTableRecord
100
AcDbRegAppTableRecord
  2
ACAD_DSTYLE_DIMEXT_LENGTH
 70
     0
  0
APPID
  5
1D5
330
14
100
AcDbSymbolTableRecord
100
AcDbRegAppTableRecord
  2
ACAD_DSTYLE_DIMEXT_ENABLED
 70
     0
  0
APPID
  5
1D6
330
14
100
AcDbSymbolTableRecord
100
AcDbRegAppTableRecord
  2
ACAD_DSTYLE_DIM_LINETYPE
 70
     0
  0
APPID
  5
1D7
330
14
100
AcDbSymbolTableRecord
100
AcDbRegAppTableRecord
  2
ACAD_DSTYLE_DIM_EXT1_LINETYPE
 70
     0
  0
APPID
  5
1D8
330
14
100
AcDbSymbolTableRecord
100
AcDbRegAppTableRecord
  2
ACAD_DSTYLE_DIM_EXT2_LINETYPE
 70
     0
  0
APPID
  5
294
330
14
100
AcDbSymbolTableRecord
100
AcDbRegAppTableRecord
  2
ACAD_DSTYLE_DIMJOGGED_JOGANGLE_SYMBOL
 70
     0
  0
APPID
  5
478
330
14
100
AcDbSymbolTableRecord
100
AcDbRegAppTableRecord
  2
ACAD_DSTYLE_DIMARC_LENGTH_SYMBOL
 70
     0
  0
APPID
  5
F55
330
14
100
AcDbSymbolTableRecord
100
AcDbRegAppTableRecord
  2
ACAD_EXEMPT_FROM_CAD_STANDARDS
 70
     0
  0
ENDTAB
  0
TABLE
  2
DIMSTYLE
  5
16
330
0
100
AcDbSymbolTable
 70
     3
100
AcDbDimStyleTable
 71
     1
340
1E
  0
DIMSTYLE
105
1E
102
{ACAD_REACTORS
330
851F
330
852C
102
}
330
16
100
AcDbSymbolTableRecord
100
AcDbDimStyleTableRecord
  2
STANDARD
 70
     0
340
C
  0
ENDTAB
  0
TABLE
  2
BLOCK_RECORD
  5
1
330
0
100
AcDbSymbolTable
 70
    43
  0
BLOCK_RECORD
  5
2
102
{ACAD_XDICTIONARY
360
D13
102
}
330
1
100
AcDbSymbolTableRecord
100
AcDbBlockTableRecord
  2
*MODEL_SPACE
340
5A
  0
BLOCK_RECORD
  5
7
330
1
100
AcDbSymbolTableRecord
100
AcDbBlockTableRecord
  2
*PAPER_SPACE
340
5B
  0
BLOCK_RECORD
  5
109
330
1
100
AcDbSymbolTableRecord
100
AcDbBlockTableRecord
  2
_Dot
340
0
102
{BLKREFS
331
6DC2
331
6DC3
331
6DDD
331
6DDE
331
6EC4
331
6EC5
331
6EDF
331
6EE0
331
705E
331
705F
331
7067
331
7068
331
7161
331
7162
331
716A
331
716B
331
750E
331
750F
331
777A
331
777B
331
778C
331
778D
331
7BAE
331
7BAF
331
7BB7
331
7BB8
331
7D13
331
7D14
331
7D25
331
7D26
331
7E4D
331
7E4E
331
7E56
331
7E57
331
7FC9
331
7FCA
331
7FD7
331
7FD8
331
80F0
331
80F1
331
8102
331
8103
331
8330
331
8331
331
837B
331
837C
331
838D
331
838E
331
8498
331
8499
331
84AA
331
84AB
331
8642
331
8643
331
8654
331
8655
102
}
  0
BLOCK_RECORD
  5
8520
330
1
100
AcDbSymbolTableRecord
100
AcDbBlockTableRecord
  2
*D41
340
0
  0
BLOCK_RECORD
  5
852D
330
1
100
AcDbSymbolTableRecord
100
AcDbBlockTableRecord
  2
*D42
340
0
  0
ENDTAB
  0
ENDSEC
  0
SECTION
  2
BLOCKS
  0
BLOCK
  5
3
330
2
100
AcDbEntity
  8
0
100
AcDbBlockBegin
  2
*MODEL_SPACE
 70
     0
 10
0.0
 20
0.0
 30
0.0
  3
*MODEL_SPACE
  1

  0
ENDBLK
  5
6
330
2
100
AcDbEntity
  8
0
100
AcDbBlockEnd
  0
BLOCK
  5
8
330
7
100
AcDbEntity
 67
     1
  8
0
100
AcDbBlockBegin
  2
*PAPER_SPACE
 70
     0
 10
0.0
 20
0.0
 30
0.0
  3
*PAPER_SPACE
  1

  0
ENDBLK
  5
9
330
7
100
AcDbEntity
 67
     1
  8
0
100
AcDbBlockEnd
  0
BLOCK
  5
10C
330
109
100
AcDbEntity
  8
0
100
AcDbBlockBegin
  2
_Dot
 70
     0
 10
0.0
 20
0.0
 30
0.0
  3
_Dot
  1

  0
LWPOLYLINE
  5
10A
330
109
100
AcDbEntity
  8
0
  6
ByBlock
 62
     0
100
AcDbPolyline
 90
        2
 70
     1
 43
0.5
 10
-0.25
 20
0.0
 42
1.0
 10
0.25
 20
0.0
 42
1.0
  0
LINE
  5
10B
330
109
100
AcDbEntity
  8
0
  6
ByBlock
 62
     0
370
    -2
100
AcDbLine
 10
-0.5
 20
0.0
 30
0.0
 11
-1.0
 21
0.0
 31
0.0
  0
ENDBLK
  5
10D
330
109
100
AcDbEntity
  8
0
100
AcDbBlockEnd
  0
BLOCK
  5
852A
330
8520
100
AcDbEntity
  8
0
100
AcDbBlockBegin
  2
*D41
 70
     1
 10
0.0
 20
0.0
 30
0.0
  3
*D41
  1

  0
LINE
  5
8651
330
8520
100
AcDbEntity
  8
SUNPOU
 62
    70
370
    -2
100
AcDbLine
 10
-155.3016433328858
 20
82.9525705632585
 30
0.0
 11
-155.3016433328858
 21
104.1150912278167
 31
0.0
  0
LINE
  5
8652
330
8520
100
AcDbEntity
  8
SUNPOU
 62
    70
370
    -2
100
AcDbLine
 10
279.6983566671142
 20
84.77202280865867
 30
0.0
 11
279.6983566671142
 21
104.1150912278167
 31
0.0
  0
LINE
  5
8653
330
8520
100
AcDbEntity
  8
SUNPOU
 62
    60
370
    -2
100
AcDbLine
 10
-153.3016433328858
 20
104.1150912278167
 30
0.0
 11
277.6983566671142
 21
104.1150912278167
 31
0.0
  0
INSERT
  5
8654
330
8520
100
AcDbEntity
  8
SUNPOU
 62
    60
370
    -2
100
AcDbBlockReference
  2
_Dot
 10
-155.3016433328858
 20
104.1150912278167
 30
0.0
 41
2.0
 42
2.0
 43
2.0
 50
180.0
  0
INSERT
  5
8655
330
8520
100
AcDbEntity
  8
SUNPOU
 62
    60
370
    -2
100
AcDbBlockReference
  2
_Dot
 10
279.6983566671142
 20
104.1150912278167
 30
0.0
 41
2.0
 42
2.0
 43
2.0
  0
MTEXT
  5
8656
330
8520
100
AcDbEntity
  8
SUNPOU
 62
    60
100
AcDbMText
 10
62.19835666711421
 20
109.6150912278167
 30
0.0
 40
5.0
 41
0.0
 71
     5
 72
     1
  1
\A1;435
  7
SUNPOU
 73
     1
 44
1.0
1001
ACAD
1000
MTEXTBEGIN
1070
    73
1070
     1
1070
    44
1040
1.0
1070
    74
1070
     0
1000
MTEXTEND
  0
POINT
  5
8657
330
8520
100
AcDbEntity
  8
DEFPOINTS
 62
     0
100
AcDbPoint
 10
-155.3016433328858
 20
72.9525705632585
 30
0.0
  0
POINT
  5
8658
330
8520
100
AcDbEntity
  8
DEFPOINTS
 62
     0
100
AcDbPoint
 10
279.6983566671142
 20
74.77202280865867
 30
0.0
  0
POINT
  5
8659
330
8520
100
AcDbEntity
  8
DEFPOINTS
 62
     0
100
AcDbPoint
 10
279.6983566671142
 20
104.1150912278167
 30
0.0
  0
ENDBLK
  5
852B
330
8520
100
AcDbEntity
  8
0
100
AcDbBlockEnd
  0
BLOCK
  5
8537
330
852D
100
AcDbEntity
  8
0
100
AcDbBlockBegin
  2
*D42
 70
     1
 10
0.0
 20
0.0
 30
0.0
  3
*D42
  1

  0
LINE
  5
863F
330
852D
100
AcDbEntity
  8
SUNPOU
 62
    70
370
    -2
100
AcDbLine
 10
-165.3016433328858
 20
72.95257056325851
 30
0.0
 11
-175.0295255221362
 21
72.95257056325851
 31
0.0
  0
LINE
  5
8640
330
852D
100
AcDbEntity
  8
SUNPOU
 62
    70
370
    -2
100
AcDbLine
 10
-163.6802702179325
 20
32.95257056325843
 30
0.0
 11
-175.0295255221363
 21
32.95257056325843
 31
0.0
  0
LINE
  5
8641
330
852D
100
AcDbEntity
  8
SUNPOU
 62
    60
370
    -2
100
AcDbLine
 10
-175.0295255221362
 20
70.95257056325852
 30
0.0
 11
-175.0295255221363
 21
34.95257056325844
 31
0.0
  0
INSERT
  5
8642
330
852D
100
AcDbEntity
  8
SUNPOU
 62
    60
370
    -2
100
AcDbBlockReference
  2
_Dot
 10
-175.0295255221362
 20
72.95257056325851
 30
0.0
 41
2.0
 42
2.0
 43
2.0
 50
90.0
  0
INSERT
  5
8643
330
852D
100
AcDbEntity
  8
SUNPOU
 62
    60
370
    -2
100
AcDbBlockReference
  2
_Dot
 10
-175.0295255221363
 20
32.95257056325843
 30
0.0
 41
2.0
 42
2.0
 43
2.0
 50
270.0
  0
MTEXT
  5
8644
330
852D
100
AcDbEntity
  8
SUNPOU
 62
    60
100
AcDbMText
 10
-180.5295255221363
 20
52.95257056325844
 30
0.0
 40
5.0
 41
0.0
 71
     5
 72
     1
  1
\A1;40
  7
SUNPOU
 11
0.0000000000000001
 21
1.0
 31
0.0
 73
     1
 44
1.0
1001
ACAD
1000
MTEXTBEGIN
1070
    73
1070
     1
1070
    44
1040
1.0
1070
    74
1070
     0
1000
MTEXTEND
  0
POINT
  5
8645
330
852D
100
AcDbEntity
  8
DEFPOINTS
 62
     0
100
AcDbPoint
 10
-155.3016433328858
 20
72.9525705632585
 30
0.0
  0
POINT
  5
8646
330
852D
100
AcDbEntity
  8
DEFPOINTS
 62
     0
100
AcDbPoint
 10
-153.6802702179325
 20
32.95257056325843
 30
0.0
  0
POINT
  5
8647
330
852D
100
AcDbEntity
  8
DEFPOINTS
 62
     0
100
AcDbPoint
 10
-175.0295255221363
 20
32.95257056325843
 30
0.0
  0
ENDBLK
  5
8538
330
852D
100
AcDbEntity
  8
0
100
AcDbBlockEnd
  0
ENDSEC
  0
SECTION
  2
ENTITIES
  0
LINE
  5
1F
330
2
100
AcDbEntity
  8
WAKU
100
AcDbLine
 10
0.0
 20
14.0
 30
0.0
 11
133.4211017667494
 21
13.99999999999999
 31
0.0
  0
LINE
  5
20
330
2
100
AcDbEntity
  8
WAKU
100
AcDbLine
 10
0.0
 20
0.0
 30
0.0
 11
133.4211017667494
 21
0.0
 31
0.0
  0
TEXT
  5
21
330
2
100
AcDbEntity
  8
HOJO
100
AcDbText
 10
9.653966000000025
 20
2.366626000000024
 30
0.0
 40
9.0
  1
TC390
  7
SUNPOU
100
AcDbText
  0
TEXT
  5
23
330
2
100
AcDbEntity
  8
HOJO
100
AcDbText
 10
75.8077226877416
 20
5.044386000000031
 30
0.0
 40
6.0
  1
435×40×7
  7
SUNPOU
100
AcDbText
  0
ARC
  5
84F0
102
{ACAD_REACTORS
330
8635
102
}
330
2
100
AcDbEntity
  8
KIJUN
100
AcDbCircle
 10
62.19835666711437
 20
-140.3507603587187
 30
0.0
 40
213.3033309219772
100
AcDbArc
 50
74.22185239775112
 51
105.778147602251
  0
SPLINE
  5
84FE
102
{ACAD_REACTORS
330
8635
102
}
330
2
100
AcDbEntity
  8
KIJUN
100
AcDbSpline
210
0.0
220
0.0
230
1.0
 70
     8
 71
     3
 72
    11
 73
     7
 74
     5
 42
0.0000000001
 43
0.0000000001
 44
0.0000000001
 40
0.0
 40
0.0
 40
0.0
 40
0.0
 40
3.447898161293425
 40
9.759499267799732
 40
31.03783172471105
 40
51.9682865571151
 40
51.9682865571151
 40
51.9682865571151
 40
51.9682865571151
 10
13.19835666711435
 20
54.91567864778449
 30
0.0
 10
13.67089854091318
 20
56.00146324901147
 30
0.0
 10
15.00845894890801
 20
59.07484695263217
 30
0.0
 10
25.52699148624265
 20
62.80283542240891
 30
0.0
 10
40.99978842296173
 20
65.60513511329043
 30
0.0
 10
55.17109976259655
 20
65.92218111636626
 30
0.0
 10
62.19835666711424
 20
66.07939759836767
 30
0.0
 11
13.19835666711435
 21
54.91567864778449
 31
0.0
 11
14.86184482847011
 21
57.93574634035031
 31
0.0
 11
20.42597798356746
 21
60.91513063244793
 31
0.0
 11
41.2914765380699
 21
65.0862698316239
 31
0.0
 11
62.19835666711424
 21
66.07939759836767
 31
0.0
  0
SPLINE
  5
84FF
102
{ACAD_REACTORS
330
8635
102
}
330
2
100
AcDbEntity
  8
KIJUN
100
AcDbSpline
210
0.0
220
0.0
230
1.0
 70
     8
 71
     3
 72
    11
 73
     7
 74
     5
 42
0.0000000001
 43
0.0000000001
 44
0.0000000001
 40
0.0
 40
0.0
 40
0.0
 40
0.0
 40
8.267746807267263
 40
21.66391347171723
 40
44.8593055220783
 40
65.38413178188704
 40
65.38413178188704
 40
65.38413178188704
 40
65.38413178188704
 10
-0.8016433328857601
 20
55.91567864778449
 30
0.0
 10
1.535254573985412
 20
57.38620708438113
 30
0.0
 10
7.658610214508144
 20
61.23942145472529
 30
0.0
 10
21.87189901197303
 20
66.28045246089581
 30
0.0
 10
40.77380487435767
 20
69.30253305852424
 30
0.0
 10
55.35370108030668
 20
69.54216302807265
 30
0.0
 10
62.19835666711424
 20
69.65465934400436
 30
0.0
 11
-0.8016433328857601
 21
55.91567864778449
 31
0.0
 11
6.316926609650863
 21
60.12062802230639
 31
0.0
 11
18.8362254315075
 21
64.88764368315537
 31
0.0
 11
41.68891351041657
 21
68.86015673386282
 31
0.0
 11
62.19835666711424
 21
69.65465934400436
 31
0.0
  0
SPLINE
  5
8500
102
{ACAD_REACTORS
330
8635
102
}
330
2
100
AcDbEntity
  8
KIJUN
100
AcDbSpline
210
0.0
220
0.0
230
1.0
 70
     8
 71
     3
 72
    10
 73
     6
 74
     4
 42
0.0000000001
 43
0.0000000001
 44
0.0000000001
 40
0.0
 40
0.0
 40
0.0
 40
0.0
 40
6.560160116580036
 40
17.31449423491958
 40
32.2954088694414
 40
32.2954088694414
 40
32.2954088694414
 40
32.2954088694414
 10
4.198356667114239
 20
64.91567864778449
 30
0.0
 10
2.289905509965478
 20
63.82412753314831
 30
0.0
 10
-2.747146325791277
 20
60.94315280911354
 30
0.0
 10
-13.50457186224116
 20
59.04176050416221
 30
0.0
 10
-21.32383445212088
 20
55.45516973755446
 30
0.0
 10
-25.8755567412195
 20
53.3673558361038
 30
0.0
 11
4.198356667114239
 21
64.91567864778449
 31
0.0
 11
-1.631834596423914
 21
61.90825939105775
 31
0.0
 11
-11.96522540770093
 21
58.92887410709431
 31
0.0
 11
-25.8755567412195
 21
53.3673558361038
 31
0.0
  0
SPLINE
  5
8501
102
{ACAD_REACTORS
330
8635
102
}
330
2
100
AcDbEntity
  8
KIJUN
100
AcDbSpline
210
0.0
220
0.0
230
1.0
 70
     8
 71
     3
 72
    11
 73
     7
 74
     5
 42
0.0000000001
 43
0.0000000001
 44
0.0000000001
 40
0.0
 40
0.0
 40
0.0
 40
0.0
 40
9.816181907174373
 40
26.69986776548386
 40
46.4125669283198
 40
60.78773578178907
 40
60.78773578178907
 40
60.78773578178907
 40
60.78773578178907
 10
-24.80164333288553
 20
59.91567864778449
 30
0.0
 10
-26.16726720837471
 20
56.81948756120841
 30
0.0
 10
-29.88174369605054
 20
48.39789417897582
 30
0.0
 10
-46.0188294172795
 20
43.45535515790436
 30
0.0
 10
-61.89991439364991
 20
38.52925921666109
 30
0.0
 10
-73.32190443039849
 20
37.78933606281766
 30
0.0
 10
-78.13866314767484
 20
37.47730363327401
 30
0.0
 11
-24.80164333288553
 21
59.91567864778449
 31
0.0
 11
-29.65121885808367
 21
51.38109931074996
 31
0.0
 11
-44.75386577131553
 21
43.83332451440582
 31
0.0
 11
-63.83089173336043
 21
38.8676836969546
 31
0.0
 11
-78.13866314767484
 21
37.47730363327401
 31
0.0
  0
SPLINE
  5
8502
102
{ACAD_REACTORS
330
8635
102
}
330
2
100
AcDbEntity
  8
KIJUN
100
AcDbSpline
210
0.0
220
0.0
230
1.0
 70
     8
 71
     3
 72
    10
 73
     6
 74
     4
 42
0.0000000001
 43
0.0000000001
 44
0.0000000001
 40
0.0
 40
0.0
 40
0.0
 40
0.0
 40
6.861291118848014
 40
21.13648364374615
 40
37.04375284055914
 40
37.04375284055914
 40
37.04375284055914
 40
37.04375284055914
 10
-47.80164333288576
 20
57.91567864778449
 30
0.0
 10
-49.16581129471911
 20
56.0634674003163
 30
0.0
 10
-53.36818564572235
 20
50.35765605100177
 30
0.0
 10
-64.26454049076756
 20
43.91365491435005
 30
0.0
 10
-73.35019075751984
 20
39.69872628931688
 30
0.0
 10
-78.13866314767484
 20
37.47730363327401
 30
0.0
 11
-47.80164333288576
 21
57.91567864778449
 31
0.0
 11
-52.10646996464607
 21
52.57285322596226
 31
0.0
 11
-63.83089173336043
 21
44.42920196794512
 31
0.0
 11
-78.13866314767484
 21
37.47730363327401
 31
0.0
  0
SPLINE
  5
8503
102
{ACAD_REACTORS
330
8635
102
}
330
2
100
AcDbEntity
  8
KIJUN
100
AcDbSpline
210
0.0
220
0.0
230
1.0
 70
     8
 71
     3
 72
    10
 73
     6
 74
     4
 42
0.0000000001
 43
0.0000000001
 44
0.0000000001
 40
0.0
 40
0.0
 40
0.0
 40
0.0
 40
8.809275278818601
 40
25.47238708188409
 40
43.68733216452131
 40
43.68733216452131
 40
43.68733216452131
 40
43.68733216452131
 10
-65.80164333288576
 20
56.91567864778438
 30
0.0
 10
-67.16214162440667
 20
54.27247142845487
 30
0.0
 10
-71.09607920826102
 20
46.62952745208947
 30
0.0
 10
-85.09166266820136
 20
39.38315161062125
 30
0.0
 10
-96.71143577845107
 20
38.91404622201006
 30
0.0
 10
-102.7798222648171
 20
38.66905754848608
 30
0.0
 11
-65.80164333288576
 21
56.91567864778438
 31
0.0
 11
-70.38862042777328
 21
49.39484278539635
 31
0.0
 11
-84.69639028786309
 21
40.85394022230821
 31
0.0
 11
-102.7798222648171
 21
38.66905754848608
 31
0.0
  0
SPLINE
  5
8504
102
{ACAD_REACTORS
330
8635
102
}
330
2
100
AcDbEntity
  8
KIJUN
100
AcDbSpline
210
0.0
220
0.0
230
1.0
 70
     8
 71
     3
 72
    10
 73
     6
 74
     4
 42
0.0000000001
 43
0.0000000001
 44
0.0000000001
 40
0.0
 40
0.0
 40
0.0
 40
0.0
 40
7.650710552894707
 40
18.97743270086981
 40
26.07020954886151
 40
26.07020954886151
 40
26.07020954886151
 40
26.07020954886151
 10
-98.30164333288577
 20
53.91567864778437
 30
0.0
 10
-99.38830842449045
 20
51.60443572878568
 30
0.0
 10
-102.0837591936363
 20
45.87144444027533
 30
0.0
 10
-109.3645858728629
 20
39.92299418668802
 30
0.0
 10
-115.5143760345584
 20
39.16107507664982
 30
0.0
 10
-117.8824691780489
 20
38.8676836969546
 30
0.0
 11
-98.30164333288577
 21
53.91567864778437
 31
0.0
 11
-101.9849467658994
 21
47.20996110344026
 31
0.0
 11
-110.9273035112896
 21
40.25806276876915
 31
0.0
 11
-117.8824691780489
 21
38.8676836969546
 31
0.0
  0
SPLINE
  5
8505
102
{ACAD_REACTORS
330
8635
102
}
330
2
100
AcDbEntity
  8
KIJUN
100
AcDbSpline
210
0.0
220
0.0
230
1.0
 70
     8
 71
     3
 72
    12
 73
     8
 74
     6
 42
0.0000000001
 43
0.0000000001
 44
0.0000000001
 40
0.0
 40
0.0
 40
0.0
 40
0.0
 40
5.737855743004929
 40
12.9150485230666
 40
21.96484967465592
 40
29.83862379395726
 40
34.75758532810858
 40
34.75758532810858
 40
34.75758532810858
 40
34.75758532810858
 10
-113.3016433328856
 20
52.91567864778449
 30
0.0
 10
-113.2355192609634
 20
50.91386324457227
 30
0.0
 10
-113.0866839406508
 20
46.40807846630798
 30
0.0
 10
-119.7681730675415
 20
41.32758838467005
 30
0.0
 10
-127.6684692540186
 20
40.93252243409717
 30
0.0
 10
-135.5591825153733
 20
41.20330319773692
 30
0.0
 10
-138.4364854601033
 20
44.53753037598944
 30
0.0
 10
-139.5428432314693
 20
45.81958103975966
 30
0.0
 11
-113.3016433328856
 21
52.91567864778449
 31
0.0
 11
-113.9080885750115
 21
47.20996110344026
 31
0.0
 11
-119.2735016897111
 21
42.44294544259128
 31
0.0
 11
-128.2158584351014
 21
41.05256537891068
 31
0.0
 11
-135.9659011550029
 21
42.44294544259128
 31
0.0
 11
-139.5428432314693
 21
45.81958103975966
 31
0.0
  0
SPLINE
  5
8506
102
{ACAD_REACTORS
330
8635
102
}
330
2
100
AcDbEntity
  8
KIJUN
100
AcDbSpline
210
0.0
220
0.0
230
1.0
 70
     8
 71
     3
 72
    10
 73
     6
 74
     4
 42
0.0000000001
 43
0.0000000001
 44
0.0000000001
 40
0.0
 40
0.0
 40
0.0
 40
0.0
 40
4.061710006547502
 40
7.658994250559364
 40
13.565815874989
 40
13.565815874989
 40
13.565815874989
 40
13.565815874989
 10
-144.3016433328857
 20
54.91567864778449
 30
0.0
 10
-144.9845859116865
 20
53.71742931210594
 30
0.0
 10
-146.2723817602491
 20
51.45794137281323
 30
0.0
 10
-145.7279847971481
 20
46.58388249152058
 30
0.0
 10
-143.1390578245286
 20
44.5200957919368
 30
0.0
 10
-141.5300343101003
 20
43.23744805273281
 30
0.0
 11
-144.3016433328857
 21
54.91567864778449
 31
0.0
 11
-145.9018534397087
 21
51.18247415414771
 31
0.0
 11
-145.5044149131377
 21
47.60721240851103
 31
0.0
 11
-141.5300343101003
 21
43.23744805273281
 31
0.0
  0
DIMENSION
  5
851F
330
2
100
AcDbEntity
  8
SUNPOU
100
AcDbDimension
  2
*D41
 10
279.6983566671142
 20
104.1150912278167
 30
0.0
 11
62.19835666711421
 21
109.6150912278167
 31
0.0
 70
    32
 71
     5
 42
435.0
  3
STANDARD
100
AcDbAlignedDimension
 13
-155.3016433328858
 23
72.9525705632585
 33
0.0
 14
279.6983566671142
 24
74.77202280865867
 34
0.0
100
AcDbRotatedDimension
1001
ACAD
1000
DSTYLE
1002
{
1070
    41
1040
2.0
1070
    42
1040
10.0
1070
    44
1040
0.0
1070
    73
1070
     0
1070
    74
1070
     0
1070
    77
1070
     1
1070
   140
1040
5.0
1070
   141
1040
0.0
1070
   146
1040
0.064286
1070
   147
1040
3.0
1070
   176
1070
    60
1070
   177
1070
    70
1070
   178
1070
    60
1070
   271
1070
     0
1070
   272
1070
     0
1070
   340
1005
1C
1070
   342
1005
109
1002
}
  0
DIMENSION
  5
852C
330
2
100
AcDbEntity
  8
SUNPOU
100
AcDbDimension
  2
*D42
 10
-175.0295255221363
 20
32.95257056325843
 30
0.0
 11
-180.5295255221363
 21
52.95257056325844
 31
0.0
 70
    32
 71
     5
 42
40.00000000000007
  3
STANDARD
100
AcDbAlignedDimension
 13
-155.3016433328858
 23
72.9525705632585
 33
0.0
 14
-153.6802702179325
 24
32.95257056325843
 34
0.0
 50
90.0
100
AcDbRotatedDimension
1001
ACAD
1000
DSTYLE
1002
{
1070
    41
1040
2.0
1070
    42
1040
10.0
1070
    44
1040
0.0
1070
    73
1070
     0
1070
    74
1070
     0
1070
    77
1070
     1
1070
   140
1040
5.0
1070
   141
1040
0.0
1070
   146
1040
0.064286
1070
   147
1040
3.0
1070
   176
1070
    60
1070
   177
1070
    70
1070
   178
1070
    60
1070
   271
1070
     0
1070
   272
1070
     0
1070
   340
1005
1C
1070
   342
1005
109
1002
}
  0
ARC
  5
855B
102
{ACAD_REACTORS
330
8635
102
}
330
2
100
AcDbEntity
  8
KIJUN
100
AcDbCircle
 10
-98.1046400625825
 20
230.6427470937724
 30
0.0
 40
197.6901765305139
100
AcDbArc
 50
264.7651015682424
 51
287.1786735570202
  0
ARC
  5
855C
102
{ACAD_REACTORS
330
8635
102
}
330
2
100
AcDbEntity
  8
KIJUN
100
AcDbCircle
 10
-165.2451065211016
 20
447.7523297771173
 30
0.0
 40
424.9442478179751
100
AcDbArc
 50
287.1815550684461
 51
292.7665024563055
  0
ARC
  5
855D
102
{ACAD_REACTORS
330
8635
102
}
330
2
100
AcDbEntity
  8
KIJUN
100
AcDbCircle
 10
-140.9371573420673
 20
53.43933395881744
 30
0.0
 40
14.36448599081849
100
AcDbArc
 50
136.4534868141786
 51
225.3881115955468
  0
ARC
  5
855F
102
{ACAD_REACTORS
330
8635
102
}
330
2
100
AcDbEntity
  8
KIJUN
100
AcDbCircle
 10
-136.3552624624589
 20
57.96410643526175
 30
0.0
 40
20.80362051991754
100
AcDbArc
 50
225.1567378420915
 51
247.8561301507485
  0
ARC
  5
8561
102
{ACAD_REACTORS
330
8635
102
}
330
2
100
AcDbEntity
  8
KIJUN
100
AcDbCircle
 10
-113.623422336681
 20
130.6266739195564
 30
0.0
 40
96.88227481310468
100
AcDbArc
 50
251.6045956311478
 51
268.5105192377249
  0
ARC
  5
8562
102
{ACAD_REACTORS
330
8635
102
}
330
2
100
AcDbEntity
  8
KIJUN
100
AcDbCircle
 10
6.696137222834879
 20
51.9776263258451
 30
0.0
 40
8.469059531735192
100
AcDbArc
 50
152.2902392070799
 51
205.7099881548647
  0
ARC
  5
8563
102
{ACAD_REACTORS
330
8635
102
}
330
2
100
AcDbEntity
  8
KIJUN
100
AcDbCircle
 10
23.39337729495837
 20
42.12549899179678
 30
0.0
 40
16.3562569445032
100
AcDbArc
 50
128.5582626305134
 51
158.5366869126719
  0
ARC
  5
8564
102
{ACAD_REACTORS
330
8635
102
}
330
2
100
AcDbEntity
  8
KIJUN
100
AcDbCircle
 10
3.651107637352905
 20
49.74573607028148
 30
0.0
 40
4.807025748996292
100
AcDbArc
 50
197.4578142697177
 51
340.1103800674639
  0
ARC
  5
8565
102
{ACAD_REACTORS
330
8635
102
}
330
2
100
AcDbEntity
  8
KIJUN
100
AcDbCircle
 10
16.50656182585829
 20
54.94176074654834
 30
0.0
 40
3.308307973604623
100
AcDbArc
 50
180.4517141913464
 51
315.0652718442787
  0
ARC
  5
8566
102
{ACAD_REACTORS
330
8635
102
}
330
2
100
AcDbEntity
  8
KIJUN
100
AcDbCircle
 10
27.91440105742621
 20
47.17642826284984
 30
0.0
 40
10.5669339603176
100
AcDbArc
 50
107.6931112684824
 51
149.086631166353
  0
ARC
  5
8567
102
{ACAD_REACTORS
330
8635
102
}
330
2
100
AcDbEntity
  8
KIJUN
100
AcDbCircle
 10
62.19835666711499
 20
-256.4674058188072
 30
0.0
 40
317.0710855958123
100
AcDbArc
 50
85.58917548544314
 51
94.41082451455709
  0
ARC
  5
8568
102
{ACAD_REACTORS
330
8635
102
}
330
2
100
AcDbEntity
  8
KIJUN
100
AcDbCircle
 10
41.44636843371015
 20
3.283385854361185
 30
0.0
 40
56.4981408830945
100
AcDbArc
 50
93.68695876739002
 51
107.2387514267078
  0
ARC
  5
8569
102
{ACAD_REACTORS
330
8635
102
}
330
2
100
AcDbEntity
  8
KIJUN
100
AcDbCircle
 10
-147.9523141007932
 20
60.37911366798616
 30
0.0
 40
4.502990688374106
100
AcDbArc
 50
36.73313956740785
 51
138.961081534076
  0
ARC
  5
856A
102
{ACAD_REACTORS
330
8635
102
}
330
2
100
AcDbEntity
  8
KIJUN
100
AcDbCircle
 10
-150.3466754269978
 20
58.96308942914806
 30
0.0
 40
7.274884676195391
100
AcDbArc
 50
326.1959782011687
 51
34.39181728171665
  0
ARC
  5
856B
102
{ACAD_REACTORS
330
8635
102
}
330
2
100
AcDbEntity
  8
KIJUN
100
AcDbCircle
 10
-142.545718566606
 20
52.43595798191786
 30
0.0
 40
3.038467766088792
100
AcDbArc
 50
29.84296039149486
 51
125.3028419838061
  0
ARC
  5
856C
102
{ACAD_REACTORS
330
8635
102
}
330
2
100
AcDbEntity
  8
KIJUN
100
AcDbCircle
 10
-128.9822879394158
 20
57.32628267273766
 30
0.0
 40
11.43816715155757
100
AcDbArc
 50
197.1787678147682
 51
341.9936993040235
  0
ARC
  5
856D
102
{ACAD_REACTORS
330
8635
102
}
330
2
100
AcDbEntity
  8
KIJUN
100
AcDbCircle
 10
-107.8164105794525
 20
51.48535138284859
 30
0.0
 40
10.54300983962999
100
AcDbArc
 50
160.1645094937091
 51
167.3707038215135
  0
ARC
  5
856E
102
{ACAD_REACTORS
330
8635
102
}
330
2
100
AcDbEntity
  8
KIJUN
100
AcDbCircle
 10
-116.0599234024813
 20
53.89071401970806
 30
0.0
 40
2.043538991391711
100
AcDbArc
 50
40.13433698702817
 51
145.0009370422602
  0
ARC
  5
856F
102
{ACAD_REACTORS
330
8635
102
}
330
2
100
AcDbEntity
  8
KIJUN
100
AcDbCircle
 10
-120.6174284282086
 20
50.55697955693581
 30
0.0
 40
7.68662298816061
100
AcDbArc
 50
17.86995973399834
 51
37.23404575603791
  0
ARC
  5
8571
102
{ACAD_REACTORS
330
8635
102
}
330
2
100
AcDbEntity
  8
KIJUN
100
AcDbCircle
 10
-106.6709193467278
 20
58.71277073119504
 30
0.0
 40
9.646599061461637
100
AcDbArc
 50
330.1795768901787
 51
55.12000933593106
  0
ARC
  5
8572
102
{ACAD_REACTORS
330
8635
102
}
330
2
100
AcDbEntity
  8
KIJUN
100
AcDbCircle
 10
-97.71031627080416
 20
49.49889547784673
 30
0.0
 40
15.9613247190565
100
AcDbArc
 50
148.0587009232483
 51
167.6392397401008
  0
ARC
  5
8573
102
{ACAD_REACTORS
330
8635
102
}
330
2
100
AcDbEntity
  8
KIJUN
100
AcDbCircle
 10
-102.2674684934586
 20
63.69248944129587
 30
0.0
 40
3.137921926092905
100
AcDbArc
 50
69.22441813518325
 51
168.2405063126999
  0
ARC
  5
8574
102
{ACAD_REACTORS
330
8635
102
}
330
2
100
AcDbEntity
  8
KIJUN
100
AcDbCircle
 10
-109.3608213370373
 20
64.78374638840638
 30
0.0
 40
4.046584089837801
100
AcDbArc
 50
311.7717765299543
 51
353.5904882510739
  0
ARC
  5
8575
102
{ACAD_REACTORS
330
8635
102
}
330
2
100
AcDbEntity
  8
KIJUN
100
AcDbCircle
 10
-127.7390117344928
 20
88.03779957301236
 30
0.0
 40
33.67977481893813
100
AcDbArc
 50
303.4589822388407
 51
308.7345625717369
  0
ARC
  5
8576
102
{ACAD_REACTORS
330
8635
102
}
330
2
100
AcDbEntity
  8
KIJUN
100
AcDbCircle
 10
-104.3748673610092
 20
52.8441415308815
 30
0.0
 40
8.563658689486324
100
AcDbArc
 50
124.0517024018645
 51
143.456410504388
  0
ARC
  5
8577
102
{ACAD_REACTORS
330
8635
102
}
330
2
100
AcDbEntity
  8
KIJUN
100
AcDbCircle
 10
-104.029438961555
 20
52.05894858903618
 30
0.0
 40
9.955927284783486
100
AcDbArc
 50
305.1217041297182
 51
4.179031659322912
  0
ARC
  5
8578
102
{ACAD_REACTORS
330
8635
102
}
330
2
100
AcDbEntity
  8
KIJUN
100
AcDbCircle
 10
-93.74392951341611
 20
44.67315024546967
 30
0.0
 40
10.30519706399536
100
AcDbArc
 50
106.4419578521217
 51
116.249018718133
  0
ARC
  5
8579
102
{ACAD_REACTORS
330
8635
102
}
330
2
100
AcDbEntity
  8
KIJUN
100
AcDbCircle
 10
-96.09466479145114
 20
52.63872253654824
 30
0.0
 40
2.0
100
AcDbArc
 50
4.17903165932293
 51
106.4419578521217
  0
ARC
  5
857A
102
{ACAD_REACTORS
330
8635
102
}
330
2
100
AcDbEntity
  8
KIJUN
100
AcDbCircle
 10
-106.8044951580412
 20
99.85968417432193
 30
0.0
 40
56.58648463647306
100
AcDbArc
 50
278.642164904694
 51
305.3712645735801
  0
ARC
  5
857B
102
{ACAD_REACTORS
330
8635
102
}
330
2
100
AcDbEntity
  8
KIJUN
100
AcDbCircle
 10
-68.17844471884924
 20
57.76929641017328
 30
0.0
 40
2.525440181945266
100
AcDbArc
 50
340.2444724208544
 51
124.6557412637033
  0
ARC
  5
857C
102
{ACAD_REACTORS
330
8635
102
}
330
2
100
AcDbEntity
  8
KIJUN
100
AcDbCircle
 10
-80.06238498131455
 20
61.31902848504632
 30
0.0
 40
9.692583679565924
100
AcDbArc
 50
308.352577995834
 51
339.9228713869042
  0
ARC
  5
857D
102
{ACAD_REACTORS
330
8635
102
}
330
2
100
AcDbEntity
  8
KIJUN
100
AcDbCircle
 10
-67.42237956398469
 20
56.84346874246541
 30
0.0
 40
3.718168531735094
100
AcDbArc
 50
126.1269130131508
 51
162.0118949411863
  0
ARC
  5
857E
102
{ACAD_REACTORS
330
8635
102
}
330
2
100
AcDbEntity
  8
KIJUN
100
AcDbCircle
 10
-38.41490352334156
 20
42.13874885075781
 30
0.0
 40
31.11898410330788
100
AcDbArc
 50
141.2413596820108
 51
151.6502482293599
  0
ARC
  5
857F
102
{ACAD_REACTORS
330
8635
102
}
330
2
100
AcDbEntity
  8
KIJUN
100
AcDbCircle
 10
-57.98406307548695
 20
57.78745737465972
 30
0.0
 40
6.062606379360623
100
AcDbArc
 50
90.42470823937074
 51
140.7840369846727
  0
ARC
  5
8580
102
{ACAD_REACTORS
330
8635
102
}
330
2
100
AcDbEntity
  8
KIJUN
100
AcDbCircle
 10
-55.63063748647724
 20
67.05095991808562
 30
0.0
 40
3.026784184910007
100
AcDbArc
 50
278.6165269196691
 51
340.5544125382965
  0
ARC
  5
8581
102
{ACAD_REACTORS
330
8635
102
}
330
2
100
AcDbEntity
  8
KIJUN
100
AcDbCircle
 10
-57.71931659246567
 20
79.22614383770262
 30
0.0
 40
15.37936493693792
100
AcDbArc
 50
268.8461896303015
 51
279.5144529902297
  0
ARC
  5
8582
102
{ACAD_REACTORS
330
8635
102
}
330
2
100
AcDbEntity
  8
KIJUN
100
AcDbCircle
 10
-107.0021245919362
 20
69.8568193248671
 30
0.0
 40
60.39277955164063
100
AcDbArc
 50
348.5960663044253
 51
355.5828087159798
  0
ARC
  5
8583
102
{ACAD_REACTORS
330
8635
102
}
330
2
100
AcDbEntity
  8
KIJUN
100
AcDbCircle
 10
-49.77027308701213
 20
65.71262364188889
 30
0.0
 40
3.024366759958233
100
AcDbArc
 50
350.3466444158509
 51
173.7227149800916
  0
ARC
  5
8585
102
{ACAD_REACTORS
330
8635
102
}
330
2
100
AcDbEntity
  8
KIJUN
100
AcDbCircle
 10
-33.69865172921337
 20
27.31524807067369
 30
0.0
 40
33.69392710382439
100
AcDbArc
 50
96.63321682700804
 51
114.7438227102627
  0
ARC
  5
8586
102
{ACAD_REACTORS
330
8635
102
}
330
2
100
AcDbEntity
  8
KIJUN
100
AcDbCircle
 10
-33.99409350676015
 20
65.37414382520819
 30
0.0
 40
4.289796781593887
100
AcDbArc
 50
316.8734705208076
 51
359.4441258404503
  0
ARC
  5
8587
102
{ACAD_REACTORS
330
8635
102
}
330
2
100
AcDbEntity
  8
KIJUN
100
AcDbCircle
 10
-37.54752044057696
 20
75.08645250649616
 30
0.0
 40
14.3028909682367
100
AcDbArc
 50
269.8268693821709
 51
297.8617870007076
  0
ARC
  5
8588
102
{ACAD_REACTORS
330
8635
102
}
330
2
100
AcDbEntity
  8
KIJUN
100
AcDbCircle
 10
-29.39530845530859
 20
63.8209510835813
 30
0.0
 40
6.029337613267345
100
AcDbArc
 50
319.6307057733784
 51
22.862324992465
  0
ARC
  5
8589
102
{ACAD_REACTORS
330
8635
102
}
330
2
100
AcDbEntity
  8
KIJUN
100
AcDbCircle
 10
-26.65924200928723
 20
64.95167512394033
 30
0.0
 40
3.068979448481171
100
AcDbArc
 50
23.25654707056268
 51
172.871401236298
  0
ARC
  5
858A
102
{ACAD_REACTORS
330
8635
102
}
330
2
100
AcDbEntity
  8
KIJUN
100
AcDbCircle
 10
-140.3406853559979
 20
415.517900576424
 30
0.0
 40
373.9013378850147
100
AcDbArc
 50
287.9995447291412
 51
291.1131833240249
  0
ARC
  5
858B
102
{ACAD_REACTORS
330
8635
102
}
330
2
100
AcDbEntity
  8
KIJUN
100
AcDbCircle
 10
-12.43922729660775
 20
82.82872717613967
 30
0.0
 40
17.48161491723799
100
AcDbArc
 50
292.827350147052
 51
311.0790569594564
  0
ARC
  5
858D
102
{ACAD_REACTORS
330
8635
102
}
330
2
100
AcDbEntity
  8
KIJUN
100
AcDbCircle
 10
-6.474374271392397
 20
64.15117085481535
 30
0.0
 40
10.70007746939744
100
AcDbArc
 50
4.097206264205541
 51
23.44485432319551
  0
ARC
  5
858E
102
{ACAD_REACTORS
330
8635
102
}
330
2
100
AcDbEntity
  8
KIJUN
100
AcDbCircle
 10
0.7124245925109301
 20
67.36151163044246
 30
0.0
 40
2.83061417005185
100
AcDbArc
 50
21.70541126225596
 51
126.0173590443791
  0
SPLINE
  5
8590
102
{ACAD_REACTORS
330
8635
102
}
330
2
100
AcDbEntity
  8
KIJUN
100
AcDbSpline
210
0.0
220
0.0
230
1.0
 70
     8
 71
     3
 72
    11
 73
     7
 74
     5
 42
0.0000000001
 43
0.0000000001
 44
0.0000000001
 40
0.0
 40
0.0
 40
0.0
 40
0.0
 40
3.447898161293425
 40
9.759499267799732
 40
31.03783172471105
 40
51.9682865571151
 40
51.9682865571151
 40
51.9682865571151
 40
51.9682865571151
 10
111.1983566671141
 20
54.91567864778449
 30
0.0
 10
110.7258147933153
 20
56.00146324901148
 30
0.0
 10
109.3882543853205
 20
59.07484695263217
 30
0.0
 10
98.86972184798587
 20
62.80283542240892
 30
0.0
 10
83.39692491126683
 20
65.60513511329041
 30
0.0
 10
69.22561357163198
 20
65.92218111636626
 30
0.0
 10
62.19835666711422
 20
66.07939759836767
 30
0.0
 11
111.1983566671141
 21
54.91567864778449
 31
0.0
 11
109.5348685057583
 21
57.93574634035031
 31
0.0
 11
103.970735350661
 21
60.91513063244793
 31
0.0
 11
83.10523679615856
 21
65.0862698316239
 31
0.0
 11
62.19835666711422
 21
66.07939759836767
 31
0.0
  0
SPLINE
  5
8591
102
{ACAD_REACTORS
330
8635
102
}
330
2
100
AcDbEntity
  8
KIJUN
100
AcDbSpline
210
0.0
220
0.0
230
1.0
 70
     8
 71
     3
 72
    11
 73
     7
 74
     5
 42
0.0000000001
 43
0.0000000001
 44
0.0000000001
 40
0.0
 40
0.0
 40
0.0
 40
0.0
 40
8.267746807267263
 40
21.66391347171723
 40
44.8593055220783
 40
65.38413178188704
 40
65.38413178188704
 40
65.38413178188704
 40
65.38413178188704
 10
125.1983566671142
 20
55.91567864778449
 30
0.0
 10
122.8614587602431
 20
57.38620708438113
 30
0.0
 10
116.7381031197203
 20
61.23942145472529
 30
0.0
 10
102.5248143222554
 20
66.28045246089581
 30
0.0
 10
83.62290845987081
 20
69.30253305852426
 30
0.0
 10
69.04301225392178
 20
69.54216302807264
 30
0.0
 10
62.19835666711422
 20
69.65465934400436
 30
0.0
 11
125.1983566671142
 21
55.91567864778449
 31
0.0
 11
118.0797867245776
 21
60.12062802230639
 31
0.0
 11
105.5604879027209
 21
64.88764368315537
 31
0.0
 11
82.7077998238119
 21
68.86015673386282
 31
0.0
 11
62.19835666711422
 21
69.65465934400436
 31
0.0
  0
SPLINE
  5
8592
102
{ACAD_REACTORS
330
8635
102
}
330
2
100
AcDbEntity
  8
KIJUN
100
AcDbSpline
210
0.0
220
0.0
230
1.0
 70
     8
 71
     3
 72
    10
 73
     6
 74
     4
 42
0.0000000001
 43
0.0000000001
 44
0.0000000001
 40
0.0
 40
0.0
 40
0.0
 40
0.0
 40
6.560160116580036
 40
17.31449423491958
 40
32.2954088694414
 40
32.2954088694414
 40
32.2954088694414
 40
32.2954088694414
 10
120.1983566671142
 20
64.91567864778449
 30
0.0
 10
122.106807824263
 20
63.82412753314831
 30
0.0
 10
127.1438596600197
 20
60.94315280911353
 30
0.0
 10
137.9012851964697
 20
59.04176050416221
 30
0.0
 10
145.7205477863493
 20
55.45516973755446
 30
0.0
 10
150.272270075448
 20
53.3673558361038
 30
0.0
 11
120.1983566671142
 21
64.91567864778449
 31
0.0
 11
126.0285479306524
 21
61.90825939105775
 31
0.0
 11
136.3619387419294
 21
58.92887410709431
 31
0.0
 11
150.272270075448
 21
53.3673558361038
 31
0.0
  0
SPLINE
  5
8593
102
{ACAD_REACTORS
330
8635
102
}
330
2
100
AcDbEntity
  8
KIJUN
100
AcDbSpline
210
0.0
220
0.0
230
1.0
 70
     8
 71
     3
 72
    11
 73
     7
 74
     5
 42
0.0000000001
 43
0.0000000001
 44
0.0000000001
 40
0.0
 40
0.0
 40
0.0
 40
0.0
 40
9.816181907174373
 40
26.69986776548386
 40
46.4125669283198
 40
60.78773578178907
 40
60.78773578178907
 40
60.78773578178907
 40
60.78773578178907
 10
149.198356667114
 20
59.91567864778449
 30
0.0
 10
150.5639805426032
 20
56.81948756120841
 30
0.0
 10
154.278457030279
 20
48.39789417897584
 30
0.0
 10
170.4155427515079
 20
43.45535515790435
 30
0.0
 10
186.2966277278784
 20
38.52925921666111
 30
0.0
 10
197.7186177646269
 20
37.78933606281766
 30
0.0
 10
202.5353764819033
 20
37.47730363327401
 30
0.0
 11
149.198356667114
 21
59.91567864778449
 31
0.0
 11
154.0479321923121
 21
51.38109931074996
 31
0.0
 11
169.150579105544
 21
43.83332451440582
 31
0.0
 11
188.2276050675889
 21
38.8676836969546
 31
0.0
 11
202.5353764819033
 21
37.47730363327401
 31
0.0
  0
SPLINE
  5
8594
102
{ACAD_REACTORS
330
8635
102
}
330
2
100
AcDbEntity
  8
KIJUN
100
AcDbSpline
210
0.0
220
0.0
230
1.0
 70
     8
 71
     3
 72
    10
 73
     6
 74
     4
 42
0.0000000001
 43
0.0000000001
 44
0.0000000001
 40
0.0
 40
0.0
 40
0.0
 40
0.0
 40
6.861291118848014
 40
21.13648364374615
 40
37.04375284055914
 40
37.04375284055914
 40
37.04375284055914
 40
37.04375284055914
 10
172.1983566671142
 20
57.91567864778449
 30
0.0
 10
173.5625246289476
 20
56.06346740031629
 30
0.0
 10
177.7648989799508
 20
50.35765605100175
 30
0.0
 10
188.661253824996
 20
43.91365491435007
 30
0.0
 10
197.7469040917483
 20
39.69872628931688
 30
0.0
 10
202.5353764819033
 20
37.47730363327401
 30
0.0
 11
172.1983566671142
 21
57.91567864778449
 31
0.0
 11
176.5031832988745
 21
52.57285322596226
 31
0.0
 11
188.2276050675889
 21
44.42920196794512
 31
0.0
 11
202.5353764819033
 21
37.47730363327401
 31
0.0
  0
SPLINE
  5
8595
102
{ACAD_REACTORS
330
8635
102
}
330
2
100
AcDbEntity
  8
KIJUN
100
AcDbSpline
210
0.0
220
0.0
230
1.0
 70
     8
 71
     3
 72
    10
 73
     6
 74
     4
 42
0.0000000001
 43
0.0000000001
 44
0.0000000001
 40
0.0
 40
0.0
 40
0.0
 40
0.0
 40
8.809275278818601
 40
25.47238708188409
 40
43.68733216452131
 40
43.68733216452131
 40
43.68733216452131
 40
43.68733216452131
 10
190.1983566671142
 20
56.91567864778438
 30
0.0
 10
191.5588549586351
 20
54.27247142845487
 30
0.0
 10
195.4927925424895
 20
46.62952745208948
 30
0.0
 10
209.4883760024298
 20
39.38315161062124
 30
0.0
 10
221.1081491126795
 20
38.91404622201006
 30
0.0
 10
227.1765355990456
 20
38.66905754848608
 30
0.0
 11
190.1983566671142
 21
56.91567864778438
 31
0.0
 11
194.7853337620017
 21
49.39484278539635
 31
0.0
 11
209.0931036220916
 21
40.85394022230821
 31
0.0
 11
227.1765355990456
 21
38.66905754848608
 31
0.0
  0
SPLINE
  5
8596
102
{ACAD_REACTORS
330
8635
102
}
330
2
100
AcDbEntity
  8
KIJUN
100
AcDbSpline
210
0.0
220
0.0
230
1.0
 70
     8
 71
     3
 72
    10
 73
     6
 74
     4
 42
0.0000000001
 43
0.0000000001
 44
0.0000000001
 40
0.0
 40
0.0
 40
0.0
 40
0.0
 40
7.650710552894707
 40
18.97743270086981
 40
26.07020954886151
 40
26.07020954886151
 40
26.07020954886151
 40
26.07020954886151
 10
222.6983566671143
 20
53.91567864778437
 30
0.0
 10
223.7850217587189
 20
51.60443572878569
 30
0.0
 10
226.4804725278648
 20
45.87144444027534
 30
0.0
 10
233.7612992070912
 20
39.922994186688
 30
0.0
 10
239.9110893687868
 20
39.16107507664982
 30
0.0
 10
242.2791825122774
 20
38.8676836969546
 30
0.0
 11
222.6983566671143
 21
53.91567864778437
 31
0.0
 11
226.3816601001279
 21
47.20996110344026
 31
0.0
 11
235.3240168455181
 21
40.25806276876915
 31
0.0
 11
242.2791825122774
 21
38.8676836969546
 31
0.0
  0
SPLINE
  5
8597
102
{ACAD_REACTORS
330
8635
102
}
330
2
100
AcDbEntity
  8
KIJUN
100
AcDbSpline
210
0.0
220
0.0
230
1.0
 70
     8
 71
     3
 72
    12
 73
     8
 74
     6
 42
0.0000000001
 43
0.0000000001
 44
0.0000000001
 40
0.0
 40
0.0
 40
0.0
 40
0.0
 40
5.737855743004929
 40
12.9150485230666
 40
21.96484967465592
 40
29.83862379395726
 40
34.75758532810858
 40
34.75758532810858
 40
34.75758532810858
 40
34.75758532810858
 10
237.6983566671141
 20
52.91567864778449
 30
0.0
 10
237.6322325951919
 20
50.91386324457228
 30
0.0
 10
237.4833972748793
 20
46.40807846630797
 30
0.0
 10
244.1648864017699
 20
41.32758838467005
 30
0.0
 10
252.065182588247
 20
40.93252243409717
 30
0.0
 10
259.9558958496019
 20
41.20330319773692
 30
0.0
 10
262.8331987943318
 20
44.53753037598943
 30
0.0
 10
263.9395565656978
 20
45.81958103975966
 30
0.0
 11
237.6983566671141
 21
52.91567864778449
 31
0.0
 11
238.3048019092401
 21
47.20996110344026
 31
0.0
 11
243.6702150239396
 21
42.44294544259128
 31
0.0
 11
252.6125717693298
 21
41.05256537891068
 31
0.0
 11
260.3626144892314
 21
42.44294544259128
 31
0.0
 11
263.9395565656978
 21
45.81958103975966
 31
0.0
  0
SPLINE
  5
8598
102
{ACAD_REACTORS
330
8635
102
}
330
2
100
AcDbEntity
  8
KIJUN
100
AcDbSpline
210
0.0
220
0.0
230
1.0
 70
     8
 71
     3
 72
    10
 73
     6
 74
     4
 42
0.0000000001
 43
0.0000000001
 44
0.0000000001
 40
0.0
 40
0.0
 40
0.0
 40
0.0
 40
4.061710006547502
 40
7.658994250559364
 40
13.565815874989
 40
13.565815874989
 40
13.565815874989
 40
13.565815874989
 10
268.6983566671143
 20
54.91567864778449
 30
0.0
 10
269.381299245915
 20
53.71742931210594
 30
0.0
 10
270.6690950944776
 20
51.45794137281322
 30
0.0
 10
270.1246981313766
 20
46.58388249152059
 30
0.0
 10
267.535771158757
 20
44.5200957919368
 30
0.0
 10
265.9267476443288
 20
43.23744805273281
 30
0.0
 11
268.6983566671143
 21
54.91567864778449
 31
0.0
 11
270.2985667739372
 21
51.18247415414771
 31
0.0
 11
269.9011282473662
 21
47.60721240851103
 31
0.0
 11
265.9267476443288
 21
43.23744805273281
 31
0.0
  0
ARC
  5
8599
102
{ACAD_REACTORS
330
8635
102
}
330
2
100
AcDbEntity
  8
KIJUN
100
AcDbCircle
 10
222.5013533968109
 20
230.6427470937724
 30
0.0
 40
197.6901765305139
100
AcDbArc
 50
252.82132644298
 51
275.2348984317572
  0
ARC
  5
859A
102
{ACAD_REACTORS
330
8635
102
}
330
2
100
AcDbEntity
  8
KIJUN
100
AcDbCircle
 10
289.6418198553302
 20
447.7523297771173
 30
0.0
 40
424.9442478179751
100
AcDbArc
 50
247.2334975436943
 51
252.8184449315538
  0
ARC
  5
859B
102
{ACAD_REACTORS
330
8635
102
}
330
2
100
AcDbEntity
  8
KIJUN
100
AcDbCircle
 10
265.3338706762958
 20
53.43933395881744
 30
0.0
 40
14.36448599081849
100
AcDbArc
 50
314.6118884044532
 51
43.54651318582139
  0
ARC
  5
859C
102
{ACAD_REACTORS
330
8635
102
}
330
2
100
AcDbEntity
  8
KIJUN
100
AcDbCircle
 10
260.7519757966874
 20
57.96410643526175
 30
0.0
 40
20.80362051991754
100
AcDbArc
 50
292.1438698492517
 51
314.8432621579083
  0
ARC
  5
859D
102
{ACAD_REACTORS
330
8635
102
}
330
2
100
AcDbEntity
  8
KIJUN
100
AcDbCircle
 10
238.0201356709095
 20
130.6266739195564
 30
0.0
 40
96.88227481310468
100
AcDbArc
 50
271.4894807622755
 51
288.3954043688519
  0
ARC
  5
859E
102
{ACAD_REACTORS
330
8635
102
}
330
2
100
AcDbEntity
  8
KIJUN
100
AcDbCircle
 10
117.7005761113936
 20
51.9776263258451
 30
0.0
 40
8.469059531735192
100
AcDbArc
 50
334.2900118451354
 51
27.70976079292008
  0
ARC
  5
859F
102
{ACAD_REACTORS
330
8635
102
}
330
2
100
AcDbEntity
  8
KIJUN
100
AcDbCircle
 10
101.0033360392701
 20
42.12549899179678
 30
0.0
 40
16.3562569445032
100
AcDbArc
 50
21.46331308732817
 51
51.44173736948667
  0
ARC
  5
85A0
102
{ACAD_REACTORS
330
8635
102
}
330
2
100
AcDbEntity
  8
KIJUN
100
AcDbCircle
 10
120.7456056968755
 20
49.74573607028148
 30
0.0
 40
4.807025748996292
100
AcDbArc
 50
199.889619932536
 51
342.5421857302823
  0
ARC
  5
85A1
102
{ACAD_REACTORS
330
8635
102
}
330
2
100
AcDbEntity
  8
KIJUN
100
AcDbCircle
 10
107.8901515083702
 20
54.94176074654834
 30
0.0
 40
3.308307973604623
100
AcDbArc
 50
224.9347281557211
 51
359.5482858086536
  0
ARC
  5
85A2
102
{ACAD_REACTORS
330
8635
102
}
330
2
100
AcDbEntity
  8
KIJUN
100
AcDbCircle
 10
96.48231227680227
 20
47.17642826284984
 30
0.0
 40
10.5669339603176
100
AcDbArc
 50
30.91336883364685
 51
72.30688873151748
  0
ARC
  5
85A4
102
{ACAD_REACTORS
330
8635
102
}
330
2
100
AcDbEntity
  8
KIJUN
100
AcDbCircle
 10
82.95034490051831
 20
3.283385854361185
 30
0.0
 40
56.4981408830945
100
AcDbArc
 50
72.76124857329214
 51
86.31304123260978
  0
ARC
  5
85A5
102
{ACAD_REACTORS
330
8635
102
}
330
2
100
AcDbEntity
  8
KIJUN
100
AcDbCircle
 10
272.3490274350218
 20
60.37911366798616
 30
0.0
 40
4.502990688374106
100
AcDbArc
 50
41.03891846592385
 51
143.2668604325923
  0
ARC
  5
85A6
102
{ACAD_REACTORS
330
8635
102
}
330
2
100
AcDbEntity
  8
KIJUN
100
AcDbCircle
 10
274.7433887612263
 20
58.96308942914806
 30
0.0
 40
7.274884676195391
100
AcDbArc
 50
145.6081827182834
 51
213.8040217988315
  0
ARC
  5
85A7
102
{ACAD_REACTORS
330
8635
102
}
330
2
100
AcDbEntity
  8
KIJUN
100
AcDbCircle
 10
266.9424319008345
 20
52.43595798191786
 30
0.0
 40
3.038467766088792
100
AcDbArc
 50
54.69715801619358
 51
150.1570396085053
  0
ARC
  5
85A8
102
{ACAD_REACTORS
330
8635
102
}
330
2
100
AcDbEntity
  8
KIJUN
100
AcDbCircle
 10
253.3790012736443
 20
57.32628267273766
 30
0.0
 40
11.43816715155757
100
AcDbArc
 50
198.0063006959764
 51
342.8212321852319
  0
ARC
  5
85A9
102
{ACAD_REACTORS
330
8635
102
}
330
2
100
AcDbEntity
  8
KIJUN
100
AcDbCircle
 10
232.213123913681
 20
51.48535138284859
 30
0.0
 40
10.54300983962999
100
AcDbArc
 50
12.62929617848641
 51
19.83549050629098
  0
ARC
  5
85AA
102
{ACAD_REACTORS
330
8635
102
}
330
2
100
AcDbEntity
  8
KIJUN
100
AcDbCircle
 10
240.4566367367098
 20
53.89071401970806
 30
0.0
 40
2.043538991391711
100
AcDbArc
 50
34.9990629577398
 51
139.8656630129719
  0
ARC
  5
85AB
102
{ACAD_REACTORS
330
8635
102
}
330
2
100
AcDbEntity
  8
KIJUN
100
AcDbCircle
 10
245.0141417624371
 20
50.55697955693581
 30
0.0
 40
7.68662298816061
100
AcDbArc
 50
142.765954243962
 51
162.1300402660017
  0
ARC
  5
85AC
102
{ACAD_REACTORS
330
8635
102
}
330
2
100
AcDbEntity
  8
KIJUN
100
AcDbCircle
 10
231.0676326809563
 20
58.71277073119504
 30
0.0
 40
9.646599061461637
100
AcDbArc
 50
124.8799906640688
 51
209.8204231098215
  0
ARC
  5
85AD
102
{ACAD_REACTORS
330
8635
102
}
330
2
100
AcDbEntity
  8
KIJUN
100
AcDbCircle
 10
222.1070296050326
 20
49.49889547784673
 30
0.0
 40
15.9613247190565
100
AcDbArc
 50
12.36076025989908
 51
31.94129907675158
  0
ARC
  5
85AE
102
{ACAD_REACTORS
330
8635
102
}
330
2
100
AcDbEntity
  8
KIJUN
100
AcDbCircle
 10
226.6641818276871
 20
63.69248944129587
 30
0.0
 40
3.137921926092905
100
AcDbArc
 50
11.75949368730001
 51
110.7755818648166
  0
ARC
  5
85AF
102
{ACAD_REACTORS
330
8635
102
}
330
2
100
AcDbEntity
  8
KIJUN
100
AcDbCircle
 10
233.7575346712658
 20
64.78374638840638
 30
0.0
 40
4.046584089837801
100
AcDbArc
 50
186.4095117489261
 51
228.2282234700458
  0
ARC
  5
85B0
102
{ACAD_REACTORS
330
8635
102
}
330
2
100
AcDbEntity
  8
KIJUN
100
AcDbCircle
 10
252.1357250687213
 20
88.03779957301236
 30
0.0
 40
33.67977481893813
100
AcDbArc
 50
231.2654374282634
 51
236.5410177611592
  0
ARC
  5
85B1
102
{ACAD_REACTORS
330
8635
102
}
330
2
100
AcDbEntity
  8
KIJUN
100
AcDbCircle
 10
228.7715806952377
 20
52.8441415308815
 30
0.0
 40
8.563658689486324
100
AcDbArc
 50
36.54358949561182
 51
55.94829759813565
  0
ARC
  5
85B2
102
{ACAD_REACTORS
330
8635
102
}
330
2
100
AcDbEntity
  8
KIJUN
100
AcDbCircle
 10
228.4261522957836
 20
52.05894858903618
 30
0.0
 40
9.955927284783486
100
AcDbArc
 50
175.8209683406771
 51
234.8782958702815
  0
ARC
  5
85B3
102
{ACAD_REACTORS
330
8635
102
}
330
2
100
AcDbEntity
  8
KIJUN
100
AcDbCircle
 10
218.1406428476446
 20
44.67315024546967
 30
0.0
 40
10.30519706399536
100
AcDbArc
 50
63.75098128186726
 51
73.55804214787794
  0
ARC
  5
85B4
102
{ACAD_REACTORS
330
8635
102
}
330
2
100
AcDbEntity
  8
KIJUN
100
AcDbCircle
 10
220.4913781256796
 20
52.63872253654824
 30
0.0
 40
2.0
100
AcDbArc
 50
73.55804214787795
 51
175.820968340677
  0
ARC
  5
85B5
102
{ACAD_REACTORS
330
8635
102
}
330
2
100
AcDbEntity
  8
KIJUN
100
AcDbCircle
 10
231.2012084922697
 20
99.85968417432193
 30
0.0
 40
56.58648463647306
100
AcDbArc
 50
234.6287354264202
 51
261.357835095306
  0
ARC
  5
85B6
102
{ACAD_REACTORS
330
8635
102
}
330
2
100
AcDbEntity
  8
KIJUN
100
AcDbCircle
 10
192.5751580530777
 20
57.76929641017328
 30
0.0
 40
2.525440181945266
100
AcDbArc
 50
55.34425873629697
 51
199.7555275791454
  0
ARC
  5
85B7
102
{ACAD_REACTORS
330
8635
102
}
330
2
100
AcDbEntity
  8
KIJUN
100
AcDbCircle
 10
204.459098315543
 20
61.31902848504632
 30
0.0
 40
9.692583679565924
100
AcDbArc
 50
200.0771286130959
 51
231.647422004166
  0
ARC
  5
85B8
102
{ACAD_REACTORS
330
8635
102
}
330
2
100
AcDbEntity
  8
KIJUN
100
AcDbCircle
 10
191.8190928982131
 20
56.84346874246541
 30
0.0
 40
3.718168531735094
100
AcDbArc
 50
17.98810505881357
 51
53.87308698684926
  0
ARC
  5
85B9
102
{ACAD_REACTORS
330
8635
102
}
330
2
100
AcDbEntity
  8
KIJUN
100
AcDbCircle
 10
162.81161685757
 20
42.13874885075781
 30
0.0
 40
31.11898410330788
100
AcDbArc
 50
28.34975177063997
 51
38.75864031798937
  0
ARC
  5
85BA
102
{ACAD_REACTORS
330
8635
102
}
330
2
100
AcDbEntity
  8
KIJUN
100
AcDbCircle
 10
182.3807764097154
 20
57.78745737465972
 30
0.0
 40
6.062606379360623
100
AcDbArc
 50
39.21596301532711
 51
89.57529176062898
  0
ARC
  5
85BB
102
{ACAD_REACTORS
330
8635
102
}
330
2
100
AcDbEntity
  8
KIJUN
100
AcDbCircle
 10
180.0273508207057
 20
67.05095991808562
 30
0.0
 40
3.026784184910007
100
AcDbArc
 50
199.4455874617036
 51
261.3834730803309
  0
ARC
  5
85BC
102
{ACAD_REACTORS
330
8635
102
}
330
2
100
AcDbEntity
  8
KIJUN
100
AcDbCircle
 10
182.1160299266941
 20
79.22614383770262
 30
0.0
 40
15.37936493693792
100
AcDbArc
 50
260.4855470097706
 51
271.1538103696987
  0
ARC
  5
85BD
102
{ACAD_REACTORS
330
8635
102
}
330
2
100
AcDbEntity
  8
KIJUN
100
AcDbCircle
 10
231.3988379261647
 20
69.8568193248671
 30
0.0
 40
60.39277955164063
100
AcDbArc
 50
184.4171912840203
 51
191.4039336955747
  0
ARC
  5
85BE
102
{ACAD_REACTORS
330
8635
102
}
330
2
100
AcDbEntity
  8
KIJUN
100
AcDbCircle
 10
174.1669864212406
 20
65.71262364188889
 30
0.0
 40
3.024366759958233
100
AcDbArc
 50
6.27728501990834
 51
189.653355584149
  0
ARC
  5
85BF
102
{ACAD_REACTORS
330
8635
102
}
330
2
100
AcDbEntity
  8
KIJUN
100
AcDbCircle
 10
158.0953650634418
 20
27.31524807067369
 30
0.0
 40
33.69392710382439
100
AcDbArc
 50
65.25617728973688
 51
83.36678317299162
  0
ARC
  5
85C0
102
{ACAD_REACTORS
330
8635
102
}
330
2
100
AcDbEntity
  8
KIJUN
100
AcDbCircle
 10
158.3908068409886
 20
65.37414382520819
 30
0.0
 40
4.289796781593887
100
AcDbArc
 50
180.5558741595496
 51
223.1265294791924
  0
ARC
  5
85C1
102
{ACAD_REACTORS
330
8635
102
}
330
2
100
AcDbEntity
  8
KIJUN
100
AcDbCircle
 10
161.9442337748054
 20
75.08645250649616
 30
0.0
 40
14.3028909682367
100
AcDbArc
 50
242.1382129992925
 51
270.1731306178294
  0
ARC
  5
85C2
102
{ACAD_REACTORS
330
8635
102
}
330
2
100
AcDbEntity
  8
KIJUN
100
AcDbCircle
 10
153.792021789537
 20
63.8209510835813
 30
0.0
 40
6.029337613267345
100
AcDbArc
 50
157.137675007535
 51
220.3692942266216
  0
ARC
  5
85C3
102
{ACAD_REACTORS
330
8635
102
}
330
2
100
AcDbEntity
  8
KIJUN
100
AcDbCircle
 10
151.0559553435157
 20
64.95167512394033
 30
0.0
 40
3.068979448481171
100
AcDbArc
 50
7.128598763701954
 51
156.7434529294374
  0
ARC
  5
85C4
102
{ACAD_REACTORS
330
8635
102
}
330
2
100
AcDbEntity
  8
KIJUN
100
AcDbCircle
 10
264.7373986902264
 20
415.517900576424
 30
0.0
 40
373.9013378850147
100
AcDbArc
 50
248.886816675975
 51
252.0004552708587
  0
ARC
  5
85C5
102
{ACAD_REACTORS
330
8635
102
}
330
2
100
AcDbEntity
  8
KIJUN
100
AcDbCircle
 10
136.8359406308362
 20
82.82872717613967
 30
0.0
 40
17.48161491723799
100
AcDbArc
 50
228.9209430405439
 51
247.172649852948
  0
ARC
  5
85C6
102
{ACAD_REACTORS
330
8635
102
}
330
2
100
AcDbEntity
  8
KIJUN
100
AcDbCircle
 10
130.8710876056208
 20
64.15117085481535
 30
0.0
 40
10.70007746939744
100
AcDbArc
 50
156.5551456768045
 51
175.9027937357944
  0
ARC
  5
85C7
102
{ACAD_REACTORS
330
8635
102
}
330
2
100
AcDbEntity
  8
KIJUN
100
AcDbCircle
 10
123.6842887417175
 20
67.36151163044246
 30
0.0
 40
2.83061417005185
100
AcDbArc
 50
53.98264095562105
 51
158.2945887377441
  0
ENDSEC
  0
SECTION
  2
OBJECTS
  0
DICTIONARY
  5
1A
330
0
100
AcDbDictionary
281
     1
  3
ACAD_COLOR
350
144
  3
ACAD_GROUP
350
18
  3
ACAD_LAYOUT
350
58
  3
ACAD_MATERIAL
350
143
  3
ACAD_MLINESTYLE
350
19
  3
ACAD_PLOTSETTINGS
350
59
  3
ACAD_PLOTSTYLENAME
350
56
  3
ACAD_TABLESTYLE
350
145
  3
ACDBHEADERROUNDTRIPXREC
350
865B
  3
AcDbVariableDictionary
350
1D1
  0
DICTIONARY
  5
1B4
330
A
100
AcDbDictionary
280
     1
281
     1
  3
ACAD_LAYERFILTERS
360
7795
  3
ACLYDICTIONARY
360
7794
  0
DICTIONARY
  5
D13
330
2
100
AcDbDictionary
280
     1
281
     1
  3
ACAD_SORTENTS
360
D14
  0
DICTIONARY
  5
144
102
{ACAD_REACTORS
330
1A
102
}
330
1A
100
AcDbDictionary
281
     1
  0
DICTIONARY
  5
18
102
{ACAD_REACTORS
330
1A
102
}
330
1A
100
AcDbDictionary
281
     1
  3
*A1
350
E0D
  3
*A10
350
31DF
  3
*A11
350
32E4
  3
*A12
350
2C6B
  3
*A13
350
3349
  3
*A14
350
24D6
  3
*A15
350
2037
  3
*A16
350
3A25
  3
*A17
350
3467
  3
*A18
350
422E
  3
*A19
350
4407
  3
*A2
350
265A
  3
*A20
350
4516
  3
*A21
350
307D
  3
*A22
350
FF8
  3
*A23
350
2D78
  3
*A24
350
136A
  3
*A25
350
1555
  3
*A26
350
2A17
  3
*A27
350
17BC
  3
*A28
350
34BB
  3
*A29
350
45E5
  3
*A3
350
26DD
  3
*A30
350
46A5
  3
*A31
350
4781
  3
*A32
350
48BA
  3
*A33
350
4A53
  3
*A34
350
1A98
  3
*A35
350
3695
  3
*A36
350
4B49
  3
*A37
350
4C3E
  3
*A38
350
4CEC
  3
*A39
350
4D76
  3
*A4
350
3988
  3
*A40
350
3C81
  3
*A41
350
4E16
  3
*A42
350
4EE5
  3
*A43
350
4F64
  3
*A44
350
5011
  3
*A45
350
22C8
  3
*A46
350
519C
  3
*A47
350
52B0
  3
*A48
350
36C9
  3
*A49
350
5396
  3
*A5
350
275E
  3
*A50
350
5464
  3
*A51
350
556A
  3
*A52
350
213E
  3
*A53
350
57BF
  3
*A54
350
58EE
  3
*A55
350
382B
  3
*A56
350
1EFE
  3
*A57
350
2573
  3
*A58
350
3878
  3
*A59
350
5D92
  3
*A6
350
2905
  3
*A60
350
3E5C
  3
*A61
350
3181
  3
*A62
350
2B84
  3
*A63
350
5F6F
  3
*A64
350
626B
  3
*A65
350
6417
  3
*A66
350
668C
  3
*A67
350
241A
  3
*A68
350
68C5
  3
*A69
350
6A30
  3
*A7
350
2EE1
  3
*A70
350
6A98
  3
*A71
350
6C32
  3
*A72
350
6D00
  3
*A73
350
6DE3
  3
*A74
350
6EB7
  3
*A75
350
706D
  3
*A76
350
7170
  3
*A77
350
35A5
  3
*A78
350
401B
  3
*A8
350
1CBC
  3
*A80
350
7453
  3
*A84
350
76E3
  3
*A85
350
7793
  3
*A88
350
7ADA
  3
*A89
350
7D2B
  3
*A9
350
2F81
  3
*A90
350
7E5C
  3
*A93
350
8108
  3
*A95
350
8393
  3
*A96
350
84B0
  3
*A97
350
8635
  0
DICTIONARY
  5
58
102
{ACAD_REACTORS
330
1A
102
}
330
1A
100
AcDbDictionary
281
     1
  3
Model
350
5A
  3
ﾚｲｱｳﾄ1
350
5B
  0
DICTIONARY
  5
143
102
{ACAD_REACTORS
330
1A
102
}
330
1A
100
AcDbDictionary
281
     1
  0
DICTIONARY
  5
19
102
{ACAD_REACTORS
330
1A
102
}
330
1A
100
AcDbDictionary
281
     1
  3
STANDARD
350
1D
  0
DICTIONARY
  5
59
102
{ACAD_REACTORS
330
1A
102
}
330
1A
100
AcDbDictionary
281
     1
  0
ACDBDICTIONARYWDFLT
  5
56
102
{ACAD_REACTORS
330
1A
102
}
330
1A
100
AcDbDictionary
281
     1
  3
Normal
350
57
100
AcDbDictionaryWithDefault
340
57
  0
DICTIONARY
  5
145
102
{ACAD_REACTORS
330
1A
102
}
330
1A
100
AcDbDictionary
281
     1
  3
Standard
350
146
  0
DICTIONARY
  5
865B
102
{ACAD_REACTORS
330
1A
102
}
330
1A
100
AcDbDictionary
281
     1
  0
DICTIONARY
  5
1D1
102
{ACAD_REACTORS
330
1A
102
}
330
1A
100
AcDbDictionary
281
     1
  3
CTABLESTYLE
350
1D2
  3
DIMASSOC
350
D03
  3
PROJECTNAME
350
D04
  0
DICTIONARY
  5
7795
102
{ACAD_REACTORS
330
1B4
102
}
330
1B4
100
AcDbDictionary
281
     1
  0
DICTIONARY
  5
7794
102
{ACAD_REACTORS
330
1B4
102
}
330
1B4
100
AcDbDictionary
281
     1
1001
ACAD
1000
<All
  0
SORTENTSTABLE
  5
D14
102
{ACAD_REACTORS
330
D13
102
}
330
D13
100
AcDbSortentsTable
330
2
331
855C
  5
855C
331
8564
  5
8564
331
20
  5
20
331
856C
  5
856C
331
8574
  5
8574
331
84FE
  5
84FE
331
8506
  5
8506
331
855D
  5
855D
331
8565
  5
8565
331
21
  5
21
331
856D
  5
856D
331
8575
  5
8575
331
84FF
  5
84FF
331
851F
  5
851F
331
8566
  5
8566
331
84F0
  5
84F0
331
856E
  5
856E
331
8576
  5
8576
331
8500
  5
8500
331
855F
  5
855F
331
8567
  5
8567
331
23
  5
23
331
856F
  5
856F
331
8577
  5
8577
331
8501
  5
8501
331
8568
  5
8568
331
8578
  5
8578
331
8502
  5
8502
331
8561
  5
8561
331
8569
  5
8569
331
8571
  5
8571
331
8579
  5
8579
331
8503
  5
8503
331
8562
  5
8562
331
856A
  5
856A
331
8572
  5
8572
331
8504
  5
8504
331
1F
  5
1F
331
855B
  5
855B
331
8563
  5
8563
331
856B
  5
856B
331
852C
  5
852C
331
8573
  5
8573
331
8505
  5
8505
  0
GROUP
  5
E0D
102
{ACAD_REACTORS
330
18
102
}
330
18
100
AcDbGroup
300

 70
     1
 71
     1
  0
GROUP
  5
31DF
102
{ACAD_REACTORS
330
18
102
}
330
18
100
AcDbGroup
300

 70
     1
 71
     1
  0
GROUP
  5
32E4
102
{ACAD_REACTORS
330
18
102
}
330
18
100
AcDbGroup
300

 70
     1
 71
     1
  0
GROUP
  5
2C6B
102
{ACAD_REACTORS
330
18
102
}
330
18
100
AcDbGroup
300

 70
     1
 71
     1
  0
GROUP
  5
3349
102
{ACAD_REACTORS
330
18
102
}
330
18
100
AcDbGroup
300

 70
     1
 71
     1
  0
GROUP
  5
24D6
102
{ACAD_REACTORS
330
18
102
}
330
18
100
AcDbGroup
300

 70
     1
 71
     1
  0
GROUP
  5
2037
102
{ACAD_REACTORS
330
18
102
}
330
18
100
AcDbGroup
300

 70
     1
 71
     1
  0
GROUP
  5
3A25
102
{ACAD_REACTORS
330
18
102
}
330
18
100
AcDbGroup
300

 70
     1
 71
     1
  0
GROUP
  5
3467
102
{ACAD_REACTORS
330
18
102
}
330
18
100
AcDbGroup
300

 70
     1
 71
     1
  0
GROUP
  5
422E
102
{ACAD_REACTORS
330
18
102
}
330
18
100
AcDbGroup
300

 70
     1
 71
     1
  0
GROUP
  5
4407
102
{ACAD_REACTORS
330
18
102
}
330
18
100
AcDbGroup
300

 70
     1
 71
     1
  0
GROUP
  5
265A
102
{ACAD_REACTORS
330
18
102
}
330
18
100
AcDbGroup
300

 70
     1
 71
     1
  0
GROUP
  5
4516
102
{ACAD_REACTORS
330
18
102
}
330
18
100
AcDbGroup
300

 70
     1
 71
     1
  0
GROUP
  5
307D
102
{ACAD_REACTORS
330
18
102
}
330
18
100
AcDbGroup
300

 70
     1
 71
     1
  0
GROUP
  5
FF8
102
{ACAD_REACTORS
330
18
102
}
330
18
100
AcDbGroup
300

 70
     1
 71
     1
  0
GROUP
  5
2D78
102
{ACAD_REACTORS
330
18
102
}
330
18
100
AcDbGroup
300

 70
     1
 71
     1
  0
GROUP
  5
136A
102
{ACAD_REACTORS
330
18
102
}
330
18
100
AcDbGroup
300

 70
     1
 71
     1
  0
GROUP
  5
1555
102
{ACAD_REACTORS
330
18
102
}
330
18
100
AcDbGroup
300

 70
     1
 71
     1
  0
GROUP
  5
2A17
102
{ACAD_REACTORS
330
18
102
}
330
18
100
AcDbGroup
300

 70
     1
 71
     1
  0
GROUP
  5
17BC
102
{ACAD_REACTORS
330
18
102
}
330
18
100
AcDbGroup
300

 70
     1
 71
     1
  0
GROUP
  5
34BB
102
{ACAD_REACTORS
330
18
102
}
330
18
100
AcDbGroup
300

 70
     1
 71
     1
  0
GROUP
  5
45E5
102
{ACAD_REACTORS
330
18
102
}
330
18
100
AcDbGroup
300

 70
     1
 71
     1
  0
GROUP
  5
26DD
102
{ACAD_REACTORS
330
18
102
}
330
18
100
AcDbGroup
300

 70
     1
 71
     1
  0
GROUP
  5
46A5
102
{ACAD_REACTORS
330
18
102
}
330
18
100
AcDbGroup
300

 70
     1
 71
     1
  0
GROUP
  5
4781
102
{ACAD_REACTORS
330
18
102
}
330
18
100
AcDbGroup
300

 70
     1
 71
     1
  0
GROUP
  5
48BA
102
{ACAD_REACTORS
330
18
102
}
330
18
100
AcDbGroup
300

 70
     1
 71
     1
  0
GROUP
  5
4A53
102
{ACAD_REACTORS
330
18
102
}
330
18
100
AcDbGroup
300

 70
     1
 71
     1
  0
GROUP
  5
1A98
102
{ACAD_REACTORS
330
18
102
}
330
18
100
AcDbGroup
300

 70
     1
 71
     1
  0
GROUP
  5
3695
102
{ACAD_REACTORS
330
18
102
}
330
18
100
AcDbGroup
300

 70
     1
 71
     1
  0
GROUP
  5
4B49
102
{ACAD_REACTORS
330
18
102
}
330
18
100
AcDbGroup
300

 70
     1
 71
     1
  0
GROUP
  5
4C3E
102
{ACAD_REACTORS
330
18
102
}
330
18
100
AcDbGroup
300

 70
     1
 71
     1
  0
GROUP
  5
4CEC
102
{ACAD_REACTORS
330
18
102
}
330
18
100
AcDbGroup
300

 70
     1
 71
     1
  0
GROUP
  5
4D76
102
{ACAD_REACTORS
330
18
102
}
330
18
100
AcDbGroup
300

 70
     1
 71
     1
  0
GROUP
  5
3988
102
{ACAD_REACTORS
330
18
102
}
330
18
100
AcDbGroup
300

 70
     1
 71
     1
  0
GROUP
  5
3C81
102
{ACAD_REACTORS
330
18
102
}
330
18
100
AcDbGroup
300

 70
     1
 71
     1
  0
GROUP
  5
4E16
102
{ACAD_REACTORS
330
18
102
}
330
18
100
AcDbGroup
300

 70
     1
 71
     1
  0
GROUP
  5
4EE5
102
{ACAD_REACTORS
330
18
102
}
330
18
100
AcDbGroup
300

 70
     1
 71
     1
  0
GROUP
  5
4F64
102
{ACAD_REACTORS
330
18
102
}
330
18
100
AcDbGroup
300

 70
     1
 71
     1
  0
GROUP
  5
5011
102
{ACAD_REACTORS
330
18
102
}
330
18
100
AcDbGroup
300

 70
     1
 71
     1
  0
GROUP
  5
22C8
102
{ACAD_REACTORS
330
18
102
}
330
18
100
AcDbGroup
300

 70
     1
 71
     1
  0
GROUP
  5
519C
102
{ACAD_REACTORS
330
18
102
}
330
18
100
AcDbGroup
300

 70
     1
 71
     1
  0
GROUP
  5
52B0
102
{ACAD_REACTORS
330
18
102
}
330
18
100
AcDbGroup
300

 70
     1
 71
     1
  0
GROUP
  5
36C9
102
{ACAD_REACTORS
330
18
102
}
330
18
100
AcDbGroup
300

 70
     1
 71
     1
  0
GROUP
  5
5396
102
{ACAD_REACTORS
330
18
102
}
330
18
100
AcDbGroup
300

 70
     1
 71
     1
  0
GROUP
  5
275E
102
{ACAD_REACTORS
330
18
102
}
330
18
100
AcDbGroup
300

 70
     1
 71
     1
  0
GROUP
  5
5464
102
{ACAD_REACTORS
330
18
102
}
330
18
100
AcDbGroup
300

 70
     1
 71
     1
  0
GROUP
  5
556A
102
{ACAD_REACTORS
330
18
102
}
330
18
100
AcDbGroup
300

 70
     1
 71
     1
  0
GROUP
  5
213E
102
{ACAD_REACTORS
330
18
102
}
330
18
100
AcDbGroup
300

 70
     1
 71
     1
  0
GROUP
  5
57BF
102
{ACAD_REACTORS
330
18
102
}
330
18
100
AcDbGroup
300

 70
     1
 71
     1
  0
GROUP
  5
58EE
102
{ACAD_REACTORS
330
18
102
}
330
18
100
AcDbGroup
300

 70
     1
 71
     1
  0
GROUP
  5
382B
102
{ACAD_REACTORS
330
18
102
}
330
18
100
AcDbGroup
300

 70
     1
 71
     1
  0
GROUP
  5
1EFE
102
{ACAD_REACTORS
330
18
102
}
330
18
100
AcDbGroup
300

 70
     1
 71
     1
  0
GROUP
  5
2573
102
{ACAD_REACTORS
330
18
102
}
330
18
100
AcDbGroup
300

 70
     1
 71
     1
  0
GROUP
  5
3878
102
{ACAD_REACTORS
330
18
102
}
330
18
100
AcDbGroup
300

 70
     1
 71
     1
  0
GROUP
  5
5D92
102
{ACAD_REACTORS
330
18
102
}
330
18
100
AcDbGroup
300

 70
     1
 71
     1
  0
GROUP
  5
2905
102
{ACAD_REACTORS
330
18
102
}
330
18
100
AcDbGroup
300

 70
     1
 71
     1
  0
GROUP
  5
3E5C
102
{ACAD_REACTORS
330
18
102
}
330
18
100
AcDbGroup
300

 70
     1
 71
     1
  0
GROUP
  5
3181
102
{ACAD_REACTORS
330
18
102
}
330
18
100
AcDbGroup
300

 70
     1
 71
     1
  0
GROUP
  5
2B84
102
{ACAD_REACTORS
330
18
102
}
330
18
100
AcDbGroup
300

 70
     1
 71
     1
  0
GROUP
  5
5F6F
102
{ACAD_REACTORS
330
18
102
}
330
18
100
AcDbGroup
300

 70
     1
 71
     1
  0
GROUP
  5
626B
102
{ACAD_REACTORS
330
18
102
}
330
18
100
AcDbGroup
300

 70
     1
 71
     1
  0
GROUP
  5
6417
102
{ACAD_REACTORS
330
18
102
}
330
18
100
AcDbGroup
300

 70
     1
 71
     1
  0
GROUP
  5
668C
102
{ACAD_REACTORS
330
18
102
}
330
18
100
AcDbGroup
300

 70
     1
 71
     1
  0
GROUP
  5
241A
102
{ACAD_REACTORS
330
18
102
}
330
18
100
AcDbGroup
300

 70
     1
 71
     1
  0
GROUP
  5
68C5
102
{ACAD_REACTORS
330
18
102
}
330
18
100
AcDbGroup
300

 70
     1
 71
     1
  0
GROUP
  5
6A30
102
{ACAD_REACTORS
330
18
102
}
330
18
100
AcDbGroup
300

 70
     1
 71
     1
  0
GROUP
  5
2EE1
102
{ACAD_REACTORS
330
18
102
}
330
18
100
AcDbGroup
300

 70
     1
 71
     1
  0
GROUP
  5
6A98
102
{ACAD_REACTORS
330
18
102
}
330
18
100
AcDbGroup
300

 70
     1
 71
     1
  0
GROUP
  5
6C32
102
{ACAD_REACTORS
330
18
102
}
330
18
100
AcDbGroup
300

 70
     1
 71
     1
  0
GROUP
  5
6D00
102
{ACAD_REACTORS
330
18
102
}
330
18
100
AcDbGroup
300

 70
     1
 71
     1
  0
GROUP
  5
6DE3
102
{ACAD_REACTORS
330
18
102
}
330
18
100
AcDbGroup
300

 70
     1
 71
     1
  0
GROUP
  5
6EB7
102
{ACAD_REACTORS
330
18
102
}
330
18
100
AcDbGroup
300

 70
     1
 71
     1
  0
GROUP
  5
706D
102
{ACAD_REACTORS
330
18
102
}
330
18
100
AcDbGroup
300

 70
     1
 71
     1
  0
GROUP
  5
7170
102
{ACAD_REACTORS
330
18
102
}
330
18
100
AcDbGroup
300

 70
     1
 71
     1
  0
GROUP
  5
35A5
102
{ACAD_REACTORS
330
18
102
}
330
18
100
AcDbGroup
300

 70
     1
 71
     1
  0
GROUP
  5
401B
102
{ACAD_REACTORS
330
18
102
}
330
18
100
AcDbGroup
300

 70
     1
 71
     1
  0
GROUP
  5
1CBC
102
{ACAD_REACTORS
330
18
102
}
330
18
100
AcDbGroup
300

 70
     1
 71
     1
  0
GROUP
  5
7453
102
{ACAD_REACTORS
330
18
102
}
330
18
100
AcDbGroup
300

 70
     1
 71
     1
  0
GROUP
  5
76E3
102
{ACAD_REACTORS
330
18
102
}
330
18
100
AcDbGroup
300

 70
     1
 71
     1
  0
GROUP
  5
7793
102
{ACAD_REACTORS
330
18
102
}
330
18
100
AcDbGroup
300

 70
     1
 71
     1
  0
GROUP
  5
7ADA
102
{ACAD_REACTORS
330
18
102
}
330
18
100
AcDbGroup
300

 70
     1
 71
     1
  0
GROUP
  5
7D2B
102
{ACAD_REACTORS
330
18
102
}
330
18
100
AcDbGroup
300

 70
     1
 71
     1
  0
GROUP
  5
2F81
102
{ACAD_REACTORS
330
18
102
}
330
18
100
AcDbGroup
300

 70
     1
 71
     1
  0
GROUP
  5
7E5C
102
{ACAD_REACTORS
330
18
102
}
330
18
100
AcDbGroup
300

 70
     1
 71
     1
  0
GROUP
  5
8108
102
{ACAD_REACTORS
330
18
102
}
330
18
100
AcDbGroup
300

 70
     1
 71
     1
  0
GROUP
  5
8393
102
{ACAD_REACTORS
330
18
102
}
330
18
100
AcDbGroup
300

 70
     1
 71
     1
  0
GROUP
  5
84B0
102
{ACAD_REACTORS
330
18
102
}
330
18
100
AcDbGroup
300

 70
     1
 71
     1
  0
GROUP
  5
8635
102
{ACAD_REACTORS
330
18
102
}
330
18
100
AcDbGroup
300

 70
     1
 71
     1
340
85C7
340
85C6
340
85C5
340
85C4
340
85C3
340
85C2
340
85C1
340
85C0
340
85BF
340
85BE
340
85BD
340
85BC
340
85BB
340
85BA
340
85B9
340
85B8
340
85B7
340
85B6
340
85B5
340
85B4
340
85B3
340
85B2
340
85B1
340
85B0
340
85AF
340
85AE
340
85AD
340
85AC
340
85AB
340
85AA
340
85A9
340
85A8
340
85A7
340
85A6
340
85A5
340
85A4
340
85A2
340
85A1
340
85A0
340
859F
340
859E
340
859D
340
859C
340
859B
340
859A
340
8599
340
8598
340
8597
340
8596
340
8595
340
8594
340
8593
340
8592
340
8591
340
8590
340
858E
340
858D
340
858B
340
858A
340
8589
340
8588
340
8587
340
8586
340
8585
340
8583
340
8582
340
8581
340
8580
340
857F
340
857E
340
857D
340
857C
340
857B
340
857A
340
8579
340
8578
340
8577
340
8576
340
8575
340
8574
340
8573
340
8572
340
8571
340
856F
340
856E
340
856D
340
856C
340
856B
340
856A
340
8569
340
8568
340
8567
340
8566
340
8565
340
8564
340
8563
340
8562
340
8561
340
855F
340
855D
340
855C
340
855B
340
8506
340
8505
340
8504
340
8503
340
8502
340
8501
340
8500
340
84FF
340
84FE
340
84F0
  0
LAYOUT
  5
5A
102
{ACAD_XDICTIONARY
360
865C
102
}
102
{ACAD_REACTORS
330
58
102
}
330
58
100
AcDbPlotSettings
  1

  2
なし
  4

  6

 40
0.0
 41
0.0
 42
0.0
 43
0.0
 44
0.0
 45
0.0
 46
0.0
 47
0.0
 48
0.0
 49
0.0
140
0.0
141
0.0
142
1.0
143
1.0
 70
  1712
 72
     0
 73
     0
 74
     0
  7
monochrome.ctb
 75
     0
147
1.0
148
0.0
149
0.0
100
AcDbLayout
  1
Model
 70
     1
 71
     0
 10
0.0
 20
0.0
 11
12.0
 21
9.0
 12
0.0
 22
0.0
 32
0.0
 14
0.0
 24
0.0
 34
0.0
 15
0.0
 25
0.0
 35
0.0
146
0.0
 13
0.0
 23
0.0
 33
0.0
 16
1.0
 26
0.0
 36
0.0
 17
0.0
 27
1.0
 37
0.0
 76
     0
330
2
  0
LAYOUT
  5
5B
102
{ACAD_XDICTIONARY
360
865E
102
}
102
{ACAD_REACTORS
330
58
102
}
330
58
100
AcDbPlotSettings
  1

  2
なし
  4

  6

 40
0.0
 41
0.0
 42
0.0
 43
0.0
 44
0.0
 45
0.0
 46
0.0
 47
0.0
 48
0.0
 49
0.0
140
0.0
141
0.0
142
1.0
143
1.0
 70
   688
 72
     0
 73
     0
 74
     5
  7
monochrome.ctb
 75
    16
147
1.0
148
0.0
149
0.0
100
AcDbLayout
  1
ﾚｲｱｳﾄ1
 70
     1
 71
     1
 10
0.0
 20
0.0
 11
12.0
 21
9.0
 12
0.0
 22
0.0
 32
0.0
 14
1.000000000000000E+20
 24
1.000000000000000E+20
 34
1.000000000000000E+20
 15
-1.000000000000000E+20
 25
-1.000000000000000E+20
 35
-1.000000000000000E+20
146
0.0
 13
0.0
 23
0.0
 33
0.0
 16
1.0
 26
0.0
 36
0.0
 17
0.0
 27
1.0
 37
0.0
 76
     0
330
7
  0
MLINESTYLE
  5
1D
102
{ACAD_REACTORS
330
19
102
}
330
19
100
AcDbMlineStyle
  2
STANDARD
 70
     0
  3

 62
   256
 51
90.0
 52
90.0
 71
     2
 49
0.5
 62
   256
  6
BYLAYER
 49
-0.5
 62
   256
  6
BYLAYER
  0
ACDBPLACEHOLDER
  5
57
102
{ACAD_REACTORS
330
56
102
}
330
56
  0
TABLESTYLE
  5
146
102
{ACAD_REACTORS
330
145
102
}
330
145
100
AcDbTableStyle
  3
Standard
 70
     0
 71
     0
 40
0.06
 41
0.06
280
     0
281
     0
  7
STANDARD
140
0.18
170
     2
 62
     0
 63
     7
283
     0
274
    -2
284
     1
 64
     0
275
    -2
285
     1
 65
     0
276
    -2
286
     1
 66
     0
277
    -2
287
     1
 67
     0
278
    -2
288
     1
 68
     0
279
    -2
289
     1
 69
     0
  7
STANDARD
140
0.25
170
     5
 62
     0
 63
     7
283
     0
274
    -2
284
     1
 64
     0
275
    -2
285
     1
 65
     0
276
    -2
286
     1
 66
     0
277
    -2
287
     1
 67
     0
278
    -2
288
     1
 68
     0
279
    -2
289
     1
 69
     0
  7
STANDARD
140
0.18
170
     5
 62
     0
 63
     7
283
     0
274
    -2
284
     1
 64
     0
275
    -2
285
     1
 65
     0
276
    -2
286
     1
 66
     0
277
    -2
287
     1
 67
     0
278
    -2
288
     1
 68
     0
279
    -2
289
     1
 69
     0
  0
DICTIONARYVAR
  5
1D2
102
{ACAD_REACTORS
330
1D1
102
}
330
1D1
100
DictionaryVariables
280
     0
  1
STANDARD
  0
DICTIONARYVAR
  5
D03
102
{ACAD_REACTORS
330
1D1
102
}
330
1D1
100
DictionaryVariables
280
     0
  1
1
  0
DICTIONARYVAR
  5
D04
102
{ACAD_REACTORS
330
1D1
102
}
330
1D1
100
DictionaryVariables
280
     0
  1

  0
DICTIONARY
  5
865C
330
5A
100
AcDbDictionary
280
     1
281
     1
  3
ACAD_XREC_ROUNDTRIP
360
865D
  0
DICTIONARY
  5
865E
330
5B
100
AcDbDictionary
280
     1
281
     1
  3
ACAD_XREC_ROUNDTRIP
360
865F
  0
XRECORD
  5
865D
102
{ACAD_REACTORS
330
865C
102
}
330
865C
100
AcDbXrecord
280
     1
102
SHADEPLOT
 70
     0
102
SHADEPLOTRESLEVEL
 70
     2
102
SHADEPLOTCUSTOMDPI
 70
   300
  0
XRECORD
  5
865F
102
{ACAD_REACTORS
330
865E
102
}
330
865E
100
AcDbXrecord
280
     1
102
SHADEPLOT
 70
     0
102
SHADEPLOTRESLEVEL
 70
     2
102
SHADEPLOTCUSTOMDPI
 70
   300
  0
ENDSEC
  0
EOF
