  0
SECTION
  2
HEADER
  9
$ACADVER
  1
AC1015
  9
$ACADMAINTVER
 70
    20
  9
$DWGCODEPAGE
  3
ANSI_932
  9
$INSBASE
 10
922.019522
 20
-675.4306699999999
 30
0.0
  9
$EXTMIN
 10
-191.7629999765876
 20
-0.0045292325963828
 30
-0.0000000000112498
  9
$EXTMAX
 10
279.3175744174903
 20
149.3973647397271
 30
0.0000000000002956
  9
$LIMMIN
 10
0.0
 20
0.0
  9
$LIMMAX
 10
420.0
 20
297.0
  9
$ORTHOMODE
 70
     1
  9
$REGENMODE
 70
     1
  9
$FILLMODE
 70
     1
  9
$QTEXTMODE
 70
     0
  9
$MIRRTEXT
 70
     1
  9
$LTSCALE
 40
1.0
  9
$ATTMODE
 70
     1
  9
$TEXTSIZE
 40
30.0
  9
$TRACEWID
 40
0.05
  9
$TEXTSTYLE
  7
SUNPOU
  9
$CLAYER
  8
0
  9
$CELTYPE
  6
BYLAYER
  9
$CECOLOR
 62
   256
  9
$CELTSCALE
 40
1.0
  9
$DISPSILH
 70
     0
  9
$DIMSCALE
 40
1.0
  9
$DIMASZ
 40
2.0
  9
$DIMEXO
 40
10.0
  9
$DIMDLI
 40
0.38
  9
$DIMRND
 40
0.0
  9
$DIMDLE
 40
0.0
  9
$DIMEXE
 40
0.0
  9
$DIMTP
 40
0.0
  9
$DIMTM
 40
0.0
  9
$DIMTXT
 40
5.0
  9
$DIMCEN
 40
0.0
  9
$DIMTSZ
 40
0.0
  9
$DIMTOL
 70
     0
  9
$DIMLIM
 70
     0
  9
$DIMTIH
 70
     0
  9
$DIMTOH
 70
     0
  9
$DIMSE1
 70
     0
  9
$DIMSE2
 70
     0
  9
$DIMTAD
 70
     1
  9
$DIMZIN
 70
     0
  9
$DIMBLK
  1
Dot
  9
$DIMASO
 70
     1
  9
$DIMSHO
 70
     1
  9
$DIMPOST
  1

  9
$DIMAPOST
  1

  9
$DIMALT
 70
     0
  9
$DIMALTD
 70
     2
  9
$DIMALTF
 40
25.4
  9
$DIMLFAC
 40
1.0
  9
$DIMTOFL
 70
     0
  9
$DIMTVP
 40
0.0
  9
$DIMTIX
 70
     0
  9
$DIMSOXD
 70
     0
  9
$DIMSAH
 70
     0
  9
$DIMBLK1
  1

  9
$DIMBLK2
  1

  9
$DIMSTYLE
  2
STANDARD
  9
$DIMCLRD
 70
    60
  9
$DIMCLRE
 70
    70
  9
$DIMCLRT
 70
    60
  9
$DIMTFAC
 40
0.064286
  9
$DIMGAP
 40
3.0
  9
$DIMJUST
 70
     0
  9
$DIMSD1
 70
     0
  9
$DIMSD2
 70
     0
  9
$DIMTOLJ
 70
     1
  9
$DIMTZIN
 70
     0
  9
$DIMALTZ
 70
     0
  9
$DIMALTTZ
 70
     0
  9
$DIMUPT
 70
     0
  9
$DIMDEC
 70
     0
  9
$DIMTDEC
 70
     0
  9
$DIMALTU
 70
     2
  9
$DIMALTTD
 70
     2
  9
$DIMTXSTY
  7
SUNPOU
  9
$DIMAUNIT
 70
     0
  9
$DIMADEC
 70
     0
  9
$DIMALTRND
 40
0.0
  9
$DIMAZIN
 70
     0
  9
$DIMDSEP
 70
    46
  9
$DIMATFIT
 70
     3
  9
$DIMFRAC
 70
     0
  9
$DIMLDRBLK
  1

  9
$DIMLUNIT
 70
     2
  9
$DIMLWD
 70
    -2
  9
$DIMLWE
 70
    -2
  9
$DIMTMOVE
 70
     0
  9
$LUNITS
 70
     2
  9
$LUPREC
 70
     5
  9
$SKETCHINC
 40
0.1
  9
$FILLETRAD
 40
0.5
  9
$AUNITS
 70
     0
  9
$AUPREC
 70
     0
  9
$MENU
  1
acad
  9
$ELEVATION
 40
0.0
  9
$PELEVATION
 40
0.0
  9
$THICKNESS
 40
0.0
  9
$LIMCHECK
 70
     0
  9
$CHAMFERA
 40
0.0
  9
$CHAMFERB
 40
0.0
  9
$CHAMFERC
 40
0.0
  9
$CHAMFERD
 40
0.0
  9
$SKPOLY
 70
     0
  9
$TDCREATE
 40
2450623.654673033
  9
$TDUCREATE
 40
2450623.279673032
  9
$TDUPDATE
 40
2453873.658811632
  9
$TDUUPDATE
 40
2453873.283811632
  9
$TDINDWG
 40
1.3282045949
  9
$TDUSRTIMER
 40
1.3282044213
  9
$USRTIMER
 70
     1
  9
$ANGBASE
 50
0.0
  9
$ANGDIR
 70
     0
  9
$PDMODE
 70
     0
  9
$PDSIZE
 40
0.0
  9
$PLINEWID
 40
0.0
  9
$SPLFRAME
 70
     0
  9
$SPLINETYPE
 70
     6
  9
$SPLINESEGS
 70
     8
  9
$HANDSEED
  5
8303
  9
$SURFTAB1
 70
     6
  9
$SURFTAB2
 70
     6
  9
$SURFTYPE
 70
     6
  9
$SURFU
 70
     6
  9
$SURFV
 70
     6
  9
$UCSBASE
  2

  9
$UCSNAME
  2

  9
$UCSORG
 10
0.0
 20
0.0
 30
0.0
  9
$UCSXDIR
 10
1.0
 20
0.0
 30
0.0
  9
$UCSYDIR
 10
0.0
 20
1.0
 30
0.0
  9
$UCSORTHOREF
  2

  9
$UCSORTHOVIEW
 70
     0
  9
$UCSORGTOP
 10
0.0
 20
0.0
 30
0.0
  9
$UCSORGBOTTOM
 10
0.0
 20
0.0
 30
0.0
  9
$UCSORGLEFT
 10
0.0
 20
0.0
 30
0.0
  9
$UCSORGRIGHT
 10
0.0
 20
0.0
 30
0.0
  9
$UCSORGFRONT
 10
0.0
 20
0.0
 30
0.0
  9
$UCSORGBACK
 10
0.0
 20
0.0
 30
0.0
  9
$PUCSBASE
  2

  9
$PUCSNAME
  2

  9
$PUCSORG
 10
0.0
 20
0.0
 30
0.0
  9
$PUCSXDIR
 10
1.0
 20
0.0
 30
0.0
  9
$PUCSYDIR
 10
0.0
 20
1.0
 30
0.0
  9
$PUCSORTHOREF
  2

  9
$PUCSORTHOVIEW
 70
     0
  9
$PUCSORGTOP
 10
0.0
 20
0.0
 30
0.0
  9
$PUCSORGBOTTOM
 10
0.0
 20
0.0
 30
0.0
  9
$PUCSORGLEFT
 10
0.0
 20
0.0
 30
0.0
  9
$PUCSORGRIGHT
 10
0.0
 20
0.0
 30
0.0
  9
$PUCSORGFRONT
 10
0.0
 20
0.0
 30
0.0
  9
$PUCSORGBACK
 10
0.0
 20
0.0
 30
0.0
  9
$USERI1
 70
     0
  9
$USERI2
 70
     0
  9
$USERI3
 70
     0
  9
$USERI4
 70
     0
  9
$USERI5
 70
     0
  9
$USERR1
 40
0.0
  9
$USERR2
 40
0.0
  9
$USERR3
 40
0.0
  9
$USERR4
 40
0.0
  9
$USERR5
 40
0.0
  9
$WORLDVIEW
 70
     1
  9
$SHADEDGE
 70
     3
  9
$SHADEDIF
 70
    70
  9
$TILEMODE
 70
     1
  9
$MAXACTVP
 70
    16
  9
$PINSBASE
 10
0.0
 20
0.0
 30
0.0
  9
$PLIMCHECK
 70
     0
  9
$PEXTMIN
 10
1.000000000000000E+20
 20
1.000000000000000E+20
 30
1.000000000000000E+20
  9
$PEXTMAX
 10
-1.000000000000000E+20
 20
-1.000000000000000E+20
 30
-1.000000000000000E+20
  9
$PLIMMIN
 10
0.0
 20
0.0
  9
$PLIMMAX
 10
12.0
 20
9.0
  9
$UNITMODE
 70
     0
  9
$VISRETAIN
 70
     0
  9
$PLINEGEN
 70
     0
  9
$PSLTSCALE
 70
     1
  9
$TREEDEPTH
 70
  3020
  9
$CMLSTYLE
  2
STANDARD
  9
$CMLJUST
 70
     0
  9
$CMLSCALE
 40
1.0
  9
$PROXYGRAPHICS
 70
     1
  9
$MEASUREMENT
 70
     0
  9
$CELWEIGHT
370
    -1
  9
$ENDCAPS
280
     0
  9
$JOINSTYLE
280
     0
  9
$LWDISPLAY
290
     0
  9
$INSUNITS
 70
     0
  9
$HYPERLINKBASE
  1

  9
$STYLESHEET
  1

  9
$XEDIT
290
     1
  9
$CEPSNTYPE
380
     0
  9
$PSTYLEMODE
290
     1
  9
$FINGERPRINTGUID
  2
{FB88A696-E29C-4009-92AF-A3599A8169D5}
  9
$VERSIONGUID
  2
{BE97EEA2-7ED5-4366-B76F-385AB06DDCDD}
  9
$EXTNAMES
290
     1
  9
$PSVPSCALE
 40
0.0
  9
$OLESTARTUP
290
     0
  0
ENDSEC
  0
SECTION
  2
CLASSES
  0
CLASS
  1
DICTIONARYVAR
  2
AcDbDictionaryVar
  3
ObjectDBX Classes
 90
        0
280
     0
281
     0
  0
CLASS
  1
ACDBDICTIONARYWDFLT
  2
AcDbDictionaryWithDefault
  3
ObjectDBX Classes
 90
        0
280
     0
281
     0
  0
CLASS
  1
ACDBPLACEHOLDER
  2
AcDbPlaceHolder
  3
ObjectDBX Classes
 90
        0
280
     0
281
     0
  0
CLASS
  1
LAYOUT
  2
AcDbLayout
  3
ObjectDBX Classes
 90
        0
280
     0
281
     0
  0
CLASS
  1
TABLESTYLE
  2
AcDbTableStyle
  3
ObjectDBX Classes
 90
     2047
280
     0
281
     0
  0
CLASS
  1
SORTENTSTABLE
  2
AcDbSortentsTable
  3
ObjectDBX Classes
 90
        0
280
     0
281
     0
  0
ENDSEC
  0
SECTION
  2
TABLES
  0
TABLE
  2
VPORT
  5
12
330
0
100
AcDbSymbolTable
 70
    52
  0
VPORT
  5
82FD
330
12
100
AcDbSymbolTableRecord
100
AcDbViewportTableRecord
  2
*Active
 70
     0
 10
0.0
 20
0.0
 11
1.0
 21
1.0
 12
43.77728722045134
 22
74.69641775356535
 13
0.0
 23
0.0
 14
1.0
 24
1.0
 15
0.0
 25
0.0
 16
0.0
 26
0.0
 36
1.0
 17
0.0
 27
0.0
 37
0.0
 40
303.4380531956125
 41
1.560102301790281
 42
50.0
 43
0.0
 44
0.0
 50
0.0
 51
0.0
 71
     0
 72
 20000
 73
     1
 74
     1
 75
     0
 76
     0
 77
     0
 78
     0
281
     0
 65
     1
110
0.0
120
0.0
130
0.0
111
1.0
121
0.0
131
0.0
112
0.0
122
1.0
132
0.0
 79
     0
146
0.0
  0
ENDTAB
  0
TABLE
  2
LTYPE
  5
D
330
0
100
AcDbSymbolTable
 70
     2
  0
LTYPE
  5
E
330
D
100
AcDbSymbolTableRecord
100
AcDbLinetypeTableRecord
  2
BYBLOCK
 70
     0
  3

 72
    65
 73
     0
 40
0.0
  0
LTYPE
  5
F
330
D
100
AcDbSymbolTableRecord
100
AcDbLinetypeTableRecord
  2
BYLAYER
 70
     0
  3

 72
    65
 73
     0
 40
0.0
  0
LTYPE
  5
5
330
D
100
AcDbSymbolTableRecord
100
AcDbLinetypeTableRecord
  2
CONTINUOUS
 70
     0
  3
Solid line
 72
    65
 73
     0
 40
0.0
  0
ENDTAB
  0
TABLE
  2
LAYER
  5
A
102
{ACAD_XDICTIONARY
360
1B4
102
}
330
0
100
AcDbSymbolTable
 70
     6
  0
LAYER
  5
4
330
A
100
AcDbSymbolTableRecord
100
AcDbLayerTableRecord
  2
0
 70
     0
 62
     7
  6
CONTINUOUS
370
    -3
390
57
  0
LAYER
  5
25
330
A
100
AcDbSymbolTableRecord
100
AcDbLayerTableRecord
  2
KIJUN
 70
     0
 62
     7
  6
CONTINUOUS
370
    -3
390
57
  0
LAYER
  5
22
330
A
100
AcDbSymbolTableRecord
100
AcDbLayerTableRecord
  2
HOJO
 70
     0
 62
     3
  6
CONTINUOUS
370
    -3
390
57
  0
LAYER
  5
1B
330
A
100
AcDbSymbolTableRecord
100
AcDbLayerTableRecord
  2
WAKU
 70
     0
 62
     1
  6
CONTINUOUS
370
    -3
390
57
  0
LAYER
  5
31
330
A
100
AcDbSymbolTableRecord
100
AcDbLayerTableRecord
  2
DEFPOINTS
 70
     0
 62
     7
  6
CONTINUOUS
290
     0
370
    -3
390
57
  0
LAYER
  5
28
330
A
100
AcDbSymbolTableRecord
100
AcDbLayerTableRecord
  2
SUNPOU
 70
     0
 62
    70
  6
CONTINUOUS
370
    -3
390
57
  0
ENDTAB
  0
TABLE
  2
STYLE
  5
B
330
0
100
AcDbSymbolTable
 70
     2
  0
STYLE
  5
C
330
B
100
AcDbSymbolTableRecord
100
AcDbTextStyleTableRecord
  2
STANDARD
 70
     0
 40
0.0
 41
1.0
 50
0.0
 71
     0
 42
0.2
  3
txt
  4

  0
STYLE
  5
1C
330
B
100
AcDbSymbolTableRecord
100
AcDbTextStyleTableRecord
  2
SUNPOU
 70
     0
 40
0.0
 41
1.0
 50
0.0
 71
     0
 42
30.0
  3
txt
  4
bigfont
  0
ENDTAB
  0
TABLE
  2
VIEW
  5
10
330
0
100
AcDbSymbolTable
 70
     0
  0
ENDTAB
  0
TABLE
  2
UCS
  5
11
330
0
100
AcDbSymbolTable
 70
     0
  0
ENDTAB
  0
TABLE
  2
APPID
  5
14
330
0
100
AcDbSymbolTable
 70
    10
  0
APPID
  5
15
330
14
100
AcDbSymbolTableRecord
100
AcDbRegAppTableRecord
  2
ACAD
 70
     0
  0
APPID
  5
1D3
330
14
100
AcDbSymbolTableRecord
100
AcDbRegAppTableRecord
  2
ACAD_DSTYLE_DIMTEXT_FILL
 70
     0
  0
APPID
  5
1D4
330
14
100
AcDbSymbolTableRecord
100
AcDbRegAppTableRecord
  2
ACAD_DSTYLE_DIMEXT_LENGTH
 70
     0
  0
APPID
  5
1D5
330
14
100
AcDbSymbolTableRecord
100
AcDbRegAppTableRecord
  2
ACAD_DSTYLE_DIMEXT_ENABLED
 70
     0
  0
APPID
  5
1D6
330
14
100
AcDbSymbolTableRecord
100
AcDbRegAppTableRecord
  2
ACAD_DSTYLE_DIM_LINETYPE
 70
     0
  0
APPID
  5
1D7
330
14
100
AcDbSymbolTableRecord
100
AcDbRegAppTableRecord
  2
ACAD_DSTYLE_DIM_EXT1_LINETYPE
 70
     0
  0
APPID
  5
1D8
330
14
100
AcDbSymbolTableRecord
100
AcDbRegAppTableRecord
  2
ACAD_DSTYLE_DIM_EXT2_LINETYPE
 70
     0
  0
APPID
  5
294
330
14
100
AcDbSymbolTableRecord
100
AcDbRegAppTableRecord
  2
ACAD_DSTYLE_DIMJOGGED_JOGANGLE_SYMBOL
 70
     0
  0
APPID
  5
478
330
14
100
AcDbSymbolTableRecord
100
AcDbRegAppTableRecord
  2
ACAD_DSTYLE_DIMARC_LENGTH_SYMBOL
 70
     0
  0
APPID
  5
F55
330
14
100
AcDbSymbolTableRecord
100
AcDbRegAppTableRecord
  2
ACAD_EXEMPT_FROM_CAD_STANDARDS
 70
     0
  0
ENDTAB
  0
TABLE
  2
DIMSTYLE
  5
16
330
0
100
AcDbSymbolTable
 70
     3
100
AcDbDimStyleTable
 71
     1
340
1E
  0
DIMSTYLE
105
1E
102
{ACAD_REACTORS
330
81C1
330
81CE
102
}
330
16
100
AcDbSymbolTableRecord
100
AcDbDimStyleTableRecord
  2
STANDARD
 70
     0
340
C
  0
ENDTAB
  0
TABLE
  2
BLOCK_RECORD
  5
1
330
0
100
AcDbSymbolTable
 70
    36
  0
BLOCK_RECORD
  5
2
102
{ACAD_XDICTIONARY
360
D13
102
}
330
1
100
AcDbSymbolTableRecord
100
AcDbBlockTableRecord
  2
*MODEL_SPACE
340
5A
  0
BLOCK_RECORD
  5
7
330
1
100
AcDbSymbolTableRecord
100
AcDbBlockTableRecord
  2
*PAPER_SPACE
340
5B
  0
BLOCK_RECORD
  5
109
330
1
100
AcDbSymbolTableRecord
100
AcDbBlockTableRecord
  2
_Dot
340
0
102
{BLKREFS
331
6DC2
331
6DC3
331
6DDD
331
6DDE
331
6EC4
331
6EC5
331
6EDF
331
6EE0
331
705E
331
705F
331
7067
331
7068
331
7161
331
7162
331
716A
331
716B
331
750E
331
750F
331
777A
331
777B
331
778C
331
778D
331
7BAE
331
7BAF
331
7BB7
331
7BB8
331
7D13
331
7D14
331
7D25
331
7D26
331
7E4D
331
7E4E
331
7E56
331
7E57
331
7FC9
331
7FCA
331
7FD7
331
7FD8
331
80F0
331
80F1
331
8102
331
8103
331
82DE
331
82DF
331
82F0
331
82F1
102
}
  0
BLOCK_RECORD
  5
81C2
330
1
100
AcDbSymbolTableRecord
100
AcDbBlockTableRecord
  2
*D34
340
0
  0
BLOCK_RECORD
  5
81CF
330
1
100
AcDbSymbolTableRecord
100
AcDbBlockTableRecord
  2
*D35
340
0
  0
ENDTAB
  0
ENDSEC
  0
SECTION
  2
BLOCKS
  0
BLOCK
  5
3
330
2
100
AcDbEntity
  8
0
100
AcDbBlockBegin
  2
*MODEL_SPACE
 70
     0
 10
0.0
 20
0.0
 30
0.0
  3
*MODEL_SPACE
  1

  0
ENDBLK
  5
6
330
2
100
AcDbEntity
  8
0
100
AcDbBlockEnd
  0
BLOCK
  5
8
330
7
100
AcDbEntity
 67
     1
  8
0
100
AcDbBlockBegin
  2
*PAPER_SPACE
 70
     0
 10
0.0
 20
0.0
 30
0.0
  3
*PAPER_SPACE
  1

  0
ENDBLK
  5
9
330
7
100
AcDbEntity
 67
     1
  8
0
100
AcDbBlockEnd
  0
BLOCK
  5
10C
330
109
100
AcDbEntity
  8
0
100
AcDbBlockBegin
  2
_Dot
 70
     0
 10
0.0
 20
0.0
 30
0.0
  3
_Dot
  1

  0
LWPOLYLINE
  5
10A
330
109
100
AcDbEntity
  8
0
  6
ByBlock
 62
     0
100
AcDbPolyline
 90
        2
 70
     1
 43
0.5
 10
-0.25
 20
0.0
 42
1.0
 10
0.25
 20
0.0
 42
1.0
  0
LINE
  5
10B
330
109
100
AcDbEntity
  8
0
  6
ByBlock
 62
     0
370
    -2
100
AcDbLine
 10
-0.5
 20
0.0
 30
0.0
 11
-1.0
 21
0.0
 31
0.0
  0
ENDBLK
  5
10D
330
109
100
AcDbEntity
  8
0
100
AcDbBlockEnd
  0
BLOCK
  5
81CC
330
81C2
100
AcDbEntity
  8
0
100
AcDbBlockBegin
  2
*D34
 70
     1
 10
0.0
 20
0.0
 30
0.0
  3
*D34
  1

  0
LINE
  5
82ED
330
81C2
100
AcDbEntity
  8
SUNPOU
 62
    70
370
    -2
100
AcDbLine
 10
-156.7129210134772
 20
116.3708460136025
 30
0.0
 11
-156.7129210134772
 21
141.3948457682563
 31
0.0
  0
LINE
  5
82EE
330
81C2
100
AcDbEntity
  8
SUNPOU
 62
    70
370
    -2
100
AcDbLine
 10
278.2870789865228
 20
115.5161649183196
 30
0.0
 11
278.2870789865228
 21
141.3948457682563
 31
0.0
  0
LINE
  5
82EF
330
81C2
100
AcDbEntity
  8
SUNPOU
 62
    60
370
    -2
100
AcDbLine
 10
-154.7129210134771
 20
141.3948457682563
 30
0.0
 11
276.2870789865228
 21
141.3948457682563
 31
0.0
  0
INSERT
  5
82F0
330
81C2
100
AcDbEntity
  8
SUNPOU
 62
    60
370
    -2
100
AcDbBlockReference
  2
_Dot
 10
-156.7129210134772
 20
141.3948457682563
 30
0.0
 41
2.0
 42
2.0
 43
2.0
 50
180.0
  0
INSERT
  5
82F1
330
81C2
100
AcDbEntity
  8
SUNPOU
 62
    60
370
    -2
100
AcDbBlockReference
  2
_Dot
 10
278.2870789865228
 20
141.3948457682563
 30
0.0
 41
2.0
 42
2.0
 43
2.0
  0
MTEXT
  5
82F2
330
81C2
100
AcDbEntity
  8
SUNPOU
 62
    60
100
AcDbMText
 10
60.78707898652282
 20
146.8948457682563
 30
0.0
 40
5.0
 41
0.0
 71
     5
 72
     1
  1
\A1;435
  7
SUNPOU
 73
     1
 44
1.0
1001
ACAD
1000
MTEXTBEGIN
1070
    73
1070
     1
1070
    44
1040
1.0
1070
    74
1070
     0
1000
MTEXTEND
  0
POINT
  5
82F3
330
81C2
100
AcDbEntity
  8
DEFPOINTS
 62
     0
100
AcDbPoint
 10
-156.7129210134772
 20
106.3708460136025
 30
0.0
  0
POINT
  5
82F4
330
81C2
100
AcDbEntity
  8
DEFPOINTS
 62
     0
100
AcDbPoint
 10
278.2870789865228
 20
105.5161649183196
 30
0.0
  0
POINT
  5
82F5
330
81C2
100
AcDbEntity
  8
DEFPOINTS
 62
     0
100
AcDbPoint
 10
278.2870789865228
 20
141.3948457682563
 30
0.0
  0
ENDBLK
  5
81CD
330
81C2
100
AcDbEntity
  8
0
100
AcDbBlockEnd
  0
BLOCK
  5
81D9
330
81CF
100
AcDbEntity
  8
0
100
AcDbBlockBegin
  2
*D35
 70
     1
 10
0.0
 20
0.0
 30
0.0
  3
*D35
  1

  0
LINE
  5
82DB
330
81CF
100
AcDbEntity
  8
SUNPOU
 62
    70
370
    -2
100
AcDbLine
 10
-166.7129210134771
 20
106.3708460136025
 30
0.0
 11
-183.7522550305266
 21
106.3708460136025
 31
0.0
  0
LINE
  5
82DC
330
81CF
100
AcDbEntity
  8
SUNPOU
 62
    70
370
    -2
100
AcDbLine
 10
-165.7543815371464
 20
21.37084601360243
 30
0.0
 11
-183.7522550305266
 21
21.37084601360244
 31
0.0
  0
LINE
  5
82DD
330
81CF
100
AcDbEntity
  8
SUNPOU
 62
    60
370
    -2
100
AcDbLine
 10
-183.7522550305266
 20
104.3708460136025
 30
0.0
 11
-183.7522550305266
 21
23.37084601360244
 31
0.0
  0
INSERT
  5
82DE
330
81CF
100
AcDbEntity
  8
SUNPOU
 62
    60
370
    -2
100
AcDbBlockReference
  2
_Dot
 10
-183.7522550305266
 20
106.3708460136025
 30
0.0
 41
2.0
 42
2.0
 43
2.0
 50
90.0
  0
INSERT
  5
82DF
330
81CF
100
AcDbEntity
  8
SUNPOU
 62
    60
370
    -2
100
AcDbBlockReference
  2
_Dot
 10
-183.7522550305266
 20
21.37084601360244
 30
0.0
 41
2.0
 42
2.0
 43
2.0
 50
270.0
  0
MTEXT
  5
82E0
330
81CF
100
AcDbEntity
  8
SUNPOU
 62
    60
100
AcDbMText
 10
-189.2522550305266
 20
63.87084601360244
 30
0.0
 40
5.0
 41
0.0
 71
     5
 72
     1
  1
\A1;85
  7
SUNPOU
 11
0.0000000000000001
 21
1.0
 31
0.0
 73
     1
 44
1.0
1001
ACAD
1000
MTEXTBEGIN
1070
    73
1070
     1
1070
    44
1040
1.0
1070
    74
1070
     0
1000
MTEXTEND
  0
POINT
  5
82E1
330
81CF
100
AcDbEntity
  8
DEFPOINTS
 62
     0
100
AcDbPoint
 10
-156.7129210134772
 20
106.3708460136025
 30
0.0
  0
POINT
  5
82E2
330
81CF
100
AcDbEntity
  8
DEFPOINTS
 62
     0
100
AcDbPoint
 10
-155.7543815371464
 20
21.37084601360243
 30
0.0
  0
POINT
  5
82E3
330
81CF
100
AcDbEntity
  8
DEFPOINTS
 62
     0
100
AcDbPoint
 10
-183.7522550305266
 20
21.37084601360244
 30
0.0
  0
ENDBLK
  5
81DA
330
81CF
100
AcDbEntity
  8
0
100
AcDbBlockEnd
  0
ENDSEC
  0
SECTION
  2
ENTITIES
  0
LINE
  5
1F
330
2
100
AcDbEntity
  8
WAKU
100
AcDbLine
 10
0.0
 20
14.0
 30
0.0
 11
133.4211017667494
 21
13.99999999999999
 31
0.0
  0
LINE
  5
20
330
2
100
AcDbEntity
  8
WAKU
100
AcDbLine
 10
0.0
 20
0.0
 30
0.0
 11
133.4211017667494
 21
0.0
 31
0.0
  0
TEXT
  5
21
330
2
100
AcDbEntity
  8
HOJO
100
AcDbText
 10
9.653966000000025
 20
2.366626000000024
 30
0.0
 40
9.0
  1
TC386
  7
SUNPOU
100
AcDbText
  0
TEXT
  5
23
330
2
100
AcDbEntity
  8
HOJO
100
AcDbText
 10
75.8077226877416
 20
5.044386000000031
 30
0.0
 40
6.0
  1
435×85×7
  7
SUNPOU
100
AcDbText
  0
SPLINE
  5
8170
102
{ACAD_REACTORS
330
82F6
102
}
330
2
100
AcDbEntity
  8
KIJUN
100
AcDbSpline
210
0.0
220
0.0
230
1.0
 70
     8
 71
     3
 72
    14
 73
    10
 74
     0
 42
0.0000000001
 43
0.0000000001
 40
0.0
 40
0.0
 40
0.0
 40
0.0
 40
1.692238264261909
 40
4.234694941471283
 40
8.544491976098184
 40
16.18650238340602
 40
22.18576867024569
 40
29.15878711970386
 40
41.16885735514956
 40
41.16885735514956
 40
41.16885735514956
 40
41.16885735514956
 10
31.79710401850841
 20
69.81288390688
 30
0.0
 10
32.44800881479837
 20
69.83838297041511
 30
0.0
 10
34.07684755839618
 20
69.90219239822732
 30
0.0
 10
35.54243859821948
 20
73.2590160213842
 30
0.0
 10
31.20478166997792
 20
77.29816365520466
 30
0.0
 10
24.52471266634634
 20
77.34397086341783
 30
0.0
 10
16.76772239091655
 20
76.13363266507722
 30
0.0
 10
11.42992390174896
 20
68.35348076992582
 30
0.0
 10
11.16524933130103
 20
61.9885692364199
 30
0.0
 10
10.99779711984169
 20
57.96166740665629
 30
0.0
  0
ELLIPSE
  5
8172
102
{ACAD_REACTORS
330
82F6
102
}
330
2
100
AcDbEntity
  8
KIJUN
100
AcDbEllipse
 10
59.12018837105944
 20
-80.236511781168
 30
0.0
 11
183.8662402875124
 21
16.02948510327059
 31
0.0
210
0.0
220
0.0
230
1.0
 40
0.9195402298849788
 41
1.671407986024032
 42
2.13007885185892
  0
SPLINE
  5
8173
102
{ACAD_REACTORS
330
82F6
102
}
330
2
100
AcDbEntity
  8
KIJUN
100
AcDbSpline
210
0.0
220
0.0
230
1.0
 70
     8
 71
     3
 72
    11
 73
     7
 74
     0
 42
0.0000000001
 43
0.0000000001
 40
0.0
 40
0.0
 40
0.0
 40
0.0
 40
5.300363784956605
 40
11.97924881087559
 40
30.91608535984071
 40
46.3503536259342
 40
46.3503536259342
 40
46.3503536259342
 40
46.3503536259342
 10
-121.3871712836718
 20
23.62010772524168
 30
0.0
 10
-119.9951769152029
 20
24.91314782604014
 30
0.0
 10
-116.8491575928021
 20
27.8355225381055
 30
0.0
 10
-105.4097342177397
 20
29.74574798319699
 30
0.0
 10
-90.98035712660779
 20
32.43682811148254
 30
0.0
 10
-79.23770589081373
 20
36.55298290678961
 30
0.0
 10
-73.9646944382108
 20
38.40133307409942
 30
0.0
  0
SPLINE
  5
8176
102
{ACAD_REACTORS
330
82F6
102
}
330
2
100
AcDbEntity
  8
KIJUN
100
AcDbSpline
210
0.0
220
0.0
230
1.0
 70
     8
 71
     3
 72
    14
 73
    10
 74
     0
 42
0.0000000001
 43
0.0000000001
 40
0.0
 40
0.0
 40
0.0
 40
0.0
 40
3.396955981980203
 40
4.964372657452779
 40
7.43769721288535
 40
12.31752151476384
 40
21.47521447850836
 40
31.39373782938124
 40
43.5448057082453
 40
43.5448057082453
 40
43.5448057082453
 40
43.5448057082453
 10
-146.995747850774
 20
39.93230586360621
 30
0.0
 10
-147.8451336425322
 20
40.66032691030476
 30
0.0
 10
-149.0864413375984
 20
41.72426998093989
 30
0.0
 10
-152.0165203466425
 20
43.00169732723167
 30
0.0
 10
-153.2723542816193
 20
38.86405183805698
 30
0.0
 10
-148.5321518361457
 20
35.08675171511387
 30
0.0
 10
-142.686819615644
 20
29.16569879404903
 30
0.0
 10
-131.1933380486321
 20
26.87200044351986
 30
0.0
 10
-123.3175307350492
 20
26.13909792155694
 30
0.0
 10
-118.9812714780471
 20
25.73557670540673
 30
0.0
  0
SPLINE
  5
8178
102
{ACAD_REACTORS
330
82F6
102
}
330
2
100
AcDbEntity
  8
KIJUN
100
AcDbSpline
210
0.0
220
0.0
230
1.0
 70
     8
 71
     3
 72
    11
 73
     7
 74
     0
 42
0.0000000001
 43
0.0000000001
 40
0.0
 40
0.0
 40
0.0
 40
0.0
 40
6.133382321458243
 40
13.81751988640962
 40
30.45785489507254
 40
40.64980508499819
 40
40.64980508499819
 40
40.64980508499819
 40
40.64980508499819
 10
-142.5383676115859
 20
40.84821031659251
 30
0.0
 10
-141.1970791120018
 20
39.16044778595217
 30
0.0
 10
-138.1753727279771
 20
35.35819136227048
 30
0.0
 10
-126.9017271145948
 20
33.03950732693144
 30
0.0
 10
-114.679882305277
 20
31.506340499257
 30
0.0
 10
-104.9416706509211
 20
32.35472441783962
 30
0.0
 10
-101.2427174165774
 20
32.67697377439399
 30
0.0
  0
SPLINE
  5
8179
102
{ACAD_REACTORS
330
82F6
102
}
330
2
100
AcDbEntity
  8
KIJUN
100
AcDbSpline
210
0.0
220
0.0
230
1.0
 70
     8
 71
     3
 72
    11
 73
     7
 74
     0
 42
0.0000000001
 43
0.0000000001
 40
0.0
 40
0.0
 40
0.0
 40
0.0
 40
9.340562530652318
 40
21.27973405718933
 40
34.31697502931749
 40
53.62060574238146
 40
53.62060574238146
 40
53.62060574238146
 40
53.62060574238146
 10
-57.27565474357023
 20
36.03883418755625
 30
0.0
 10
-55.48026487498026
 20
38.70653174611724
 30
0.0
 10
-51.38999527856248
 20
44.78409874541728
 30
0.0
 10
-43.44394189284054
 20
53.73460602396153
 30
0.0
 10
-31.35302069004368
 20
63.81550812882327
 30
0.0
 10
-20.62008578170559
 20
68.46146056981496
 30
0.0
 10
-14.21380786951266
 20
71.23453827484246
 30
0.0
  0
SPLINE
  5
817B
102
{ACAD_REACTORS
330
82F6
102
}
330
2
100
AcDbEntity
  8
KIJUN
100
AcDbSpline
210
0.0
220
0.0
230
1.0
 70
     8
 71
     3
 72
    13
 73
     9
 74
     0
 42
0.0000000001
 43
0.0000000001
 40
0.0
 40
0.0
 40
0.0
 40
0.0
 40
1.909725420741786
 40
5.343603249662459
 40
9.155949714095251
 40
20.42083524664826
 40
30.32607382304991
 40
36.28002503794569
 40
36.28002503794569
 40
36.28002503794569
 40
36.28002503794569
 10
-85.76689187331538
 20
28.4460550919989
 30
0.0
 10
-85.6935311817849
 20
29.08174082353973
 30
0.0
 10
-85.48826060969002
 20
30.86045325200299
 30
0.0
 10
-83.61788304413533
 20
33.6860923867997
 30
0.0
 10
-77.23134623774905
 20
36.13746562498651
 30
0.0
 10
-68.92469602109298
 20
39.02273144579512
 30
0.0
 10
-59.27434895643518
 20
42.25487907726823
 30
0.0
 10
-55.58417981844626
 20
46.45081088703746
 30
0.0
 10
-54.19879460574415
 20
48.0260725255673
 30
0.0
  0
SPLINE
  5
817C
102
{ACAD_REACTORS
330
82F6
102
}
330
2
100
AcDbEntity
  8
KIJUN
100
AcDbSpline
210
0.0
220
0.0
230
1.0
 70
     8
 71
     3
 72
    13
 73
     9
 74
     0
 42
0.0000000001
 43
0.0000000001
 40
0.0
 40
0.0
 40
0.0
 40
0.0
 40
3.568695458155922
 40
6.554902227559037
 40
11.24498810861282
 40
16.65148350971873
 40
23.68307129013725
 40
30.69652055486169
 40
30.69652055486169
 40
30.69652055486169
 40
30.69652055486169
 10
-66.11194596163709
 20
54.72823956387405
 30
0.0
 10
-67.52386026890248
 20
54.93879042547434
 30
0.0
 10
-70.11723377088206
 20
55.3255256703
 30
0.0
 10
-72.48243756745123
 20
51.22273950133873
 30
0.0
 10
-69.1763761963763
 20
47.23951624200933
 30
0.0
 10
-63.32454539912069
 20
44.85742083626437
 30
0.0
 10
-56.11577350517059
 20
46.89182393595479
 30
0.0
 10
-51.72327451278762
 20
49.23548142118142
 30
0.0
 10
-49.52986137123346
 20
50.40579680117631
 30
0.0
  0
SPLINE
  5
817D
102
{ACAD_REACTORS
330
82F6
102
}
330
2
100
AcDbEntity
  8
KIJUN
100
AcDbSpline
210
0.0
220
0.0
230
1.0
 70
     8
 71
     3
 72
    10
 73
     6
 74
     0
 42
0.0000000001
 43
0.0000000001
 40
0.0
 40
0.0
 40
0.0
 40
0.0
 40
5.026110118235721
 40
16.17986844127536
 40
20.01078818477934
 40
20.01078818477934
 40
20.01078818477934
 40
20.01078818477934
 10
-44.38316159478776
 20
42.09182456405055
 30
0.0
 10
-43.99196412907203
 20
43.73748601301749
 30
0.0
 10
-42.73263566611688
 20
49.03513869407543
 30
0.0
 10
-38.55750262049615
 20
54.91930007124611
 30
0.0
 10
-34.46959863264384
 20
58.25462714202881
 30
0.0
 10
-33.42450229977186
 20
59.1073228268986
 30
0.0
  0
SPLINE
  5
8183
102
{ACAD_REACTORS
330
82F6
102
}
330
2
100
AcDbEntity
  8
KIJUN
100
AcDbSpline
210
0.0
220
0.0
230
1.0
 70
     8
 71
     3
 72
    10
 73
     6
 74
     0
 42
0.0000000001
 43
0.0000000001
 40
0.0
 40
0.0
 40
0.0
 40
0.0
 40
7.906705075166833
 40
20.93624789032286
 40
26.00795571918587
 40
26.00795571918587
 40
26.00795571918587
 40
26.00795571918587
 10
-29.82364676572109
 20
50.38767611420682
 30
0.0
 10
-29.17977150329902
 20
52.96648965838232
 30
0.0
 10
-27.47484739441153
 20
59.79495728307631
 30
0.0
 10
-21.60060206336653
 20
67.42005979264286
 30
0.0
 10
-15.83050527942732
 20
70.3996893105274
 30
0.0
 10
-14.21380786951266
 20
71.23453827484246
 30
0.0
  0
SPLINE
  5
8184
102
{ACAD_REACTORS
330
82F6
102
}
330
2
100
AcDbEntity
  8
KIJUN
100
AcDbSpline
210
0.0
220
0.0
230
1.0
 70
     8
 71
     3
 72
    10
 73
     6
 74
     0
 42
0.0000000001
 43
0.0000000001
 40
0.0
 40
0.0
 40
0.0
 40
0.0
 40
5.716866315732391
 40
19.78951524017643
 40
29.52850966684874
 40
29.52850966684874
 40
29.52850966684874
 40
29.52850966684874
 10
-18.16690117510555
 20
54.41529184633385
 30
0.0
 10
-18.06896690976524
 20
56.33792237934853
 30
0.0
 10
-17.72995747182306
 20
62.99330386511416
 30
0.0
 10
-10.4453818138527
 20
71.6306531229517
 30
0.0
 10
-2.850904577154866
 20
75.44200576212507
 30
0.0
 10
0.2552469131504971
 20
77.000854160938
 30
0.0
  0
SPLINE
  5
8185
102
{ACAD_REACTORS
330
82F6
102
}
330
2
100
AcDbEntity
  8
KIJUN
100
AcDbSpline
210
0.0
220
0.0
230
1.0
 70
     8
 71
     3
 72
    10
 73
     6
 74
     0
 42
0.0000000001
 43
0.0000000001
 40
0.0
 40
0.0
 40
0.0
 40
0.0
 40
5.217632678068873
 40
18.56884542425823
 40
32.09439286884504
 40
32.09439286884504
 40
32.09439286884504
 40
32.09439286884504
 10
-7.680397007232144
 20
59.34467875924734
 30
0.0
 10
-7.534520763402817
 20
61.0998663960852
 30
0.0
 10
-7.015367041807227
 20
67.34634059807409
 30
0.0
 10
1.894043885907338
 20
76.2420773731304
 30
0.0
 10
11.31334058738389
 20
78.74554612931655
 30
0.0
 10
16.05353782567244
 20
80.00539981694432
 30
0.0
  0
SPLINE
  5
8186
102
{ACAD_REACTORS
330
82F6
102
}
330
2
100
AcDbEntity
  8
KIJUN
100
AcDbSpline
210
0.0
220
0.0
230
1.0
 70
     8
 71
     3
 72
    10
 73
     6
 74
     0
 42
0.0000000001
 43
0.0000000001
 40
0.0
 40
0.0
 40
0.0
 40
0.0
 40
4.766064951926527
 40
16.59954280283152
 40
26.580379091262
 40
26.580379091262
 40
26.580379091262
 40
26.580379091262
 10
-2.176592767676146
 20
58.82070820410906
 30
0.0
 10
-1.646574622190124
 20
60.33430985484119
 30
0.0
 10
0.1994050237054416
 20
65.6059743498054
 30
0.0
 10
5.79405693135786
 20
73.6326496140492
 30
0.0
 10
13.32230280570377
 20
76.37292864862157
 30
0.0
 10
16.7667470880665
 20
77.62670524017469
 30
0.0
  0
ELLIPSE
  5
8189
102
{ACAD_REACTORS
330
82F6
102
}
330
2
100
AcDbEntity
  8
KIJUN
100
AcDbEllipse
 10
-4.72277007749893
 20
60.69124111871034
 30
0.0
 11
-3.270225647240811
 21
-0.2850987392508618
 31
0.0
210
0.0
220
0.0
230
1.0
 40
0.9195402298849819
 41
0.3675359766742716
 42
2.379265557215747
  0
SPLINE
  5
8191
102
{ACAD_REACTORS
330
82F6
102
}
330
2
100
AcDbEntity
  8
KIJUN
100
AcDbSpline
210
0.0
220
0.0
230
1.0
 70
     8
 71
     3
 72
    11
 73
     7
 74
     0
 42
0.0000000001
 43
0.0000000001
 40
0.0
 40
0.0
 40
0.0
 40
0.0
 40
7.387846072408844
 40
13.92622529317573
 40
20.73918869755014
 40
23.81708970701497
 40
23.81708970701497
 40
23.81708970701497
 40
23.81708970701497
 10
43.38707898652155
 20
64.37084601360357
 30
0.0
 10
43.8961278215189
 20
66.90219744244481
 30
0.0
 10
44.85569420824656
 20
71.67384129489329
 30
0.0
 10
40.8324559252152
 20
77.61387393914766
 30
0.0
 10
38.80787706942512
 20
83.50243927814887
 30
0.0
 10
35.18482707095717
 20
84.33765170871941
 30
0.0
 10
34.0573837271759
 20
84.59755833321764
 30
0.0
  0
SPLINE
  5
8192
102
{ACAD_REACTORS
330
82F6
102
}
330
2
100
AcDbEntity
  8
KIJUN
100
AcDbSpline
210
0.0
220
0.0
230
1.0
 70
     8
 71
     3
 72
    17
 73
    13
 74
     0
 42
0.0000000001
 43
0.0000000001
 40
0.0
 40
0.0
 40
0.0
 40
0.0
 40
6.34696176207462
 40
12.9758565571364
 40
18.96845918699012
 40
25.02876845758829
 40
32.56876485765125
 40
37.66692929816396
 40
41.04305451911799
 40
49.65040781005646
 40
56.53629030469761
 40
64.60206765033283
 40
64.60206765033283
 40
64.60206765033283
 40
64.60206765033283
 10
43.38707898652081
 20
91.37084601360243
 30
0.0
 10
43.88666458532009
 20
89.32807675442726
 30
0.0
 10
44.90802745326204
 20
85.15179810646506
 30
0.0
 10
46.43702497024111
 20
78.64345087461257
 30
0.0
 10
52.21977617411639
 20
74.90881973495207
 30
0.0
 10
58.28308371826638
 20
71.41554033850626
 30
0.0
 10
57.38576777164286
 20
61.31728473085359
 30
0.0
 10
49.78037801414
 20
64.39214565322948
 30
0.0
 10
48.46462859702037
 20
70.01984553606455
 30
0.0
 10
45.61343145099782
 20
75.72865422762375
 30
0.0
 10
43.50349886606551
 20
83.48096669847489
 30
0.0
 10
39.89578528143
 20
87.30691271100353
 30
0.0
 10
37.94957898652036
 20
89.37084601360243
 30
0.0
  0
SPLINE
  5
8193
102
{ACAD_REACTORS
330
82F6
102
}
330
2
100
AcDbEntity
  8
KIJUN
100
AcDbSpline
210
0.0
220
0.0
230
1.0
 70
     8
 71
     3
 72
    11
 73
     7
 74
     0
 42
0.0000000001
 43
0.0000000001
 40
0.0
 40
0.0
 40
0.0
 40
0.0
 40
4.71167605684988
 40
17.04604238578736
 40
24.59522831550184
 40
31.22078612871209
 40
31.22078612871209
 40
31.22078612871209
 40
31.22078612871209
 10
49.91207898652149
 20
94.37084601360243
 30
0.0
 10
50.29539121981827
 20
92.83504585603381
 30
0.0
 10
51.68214966775283
 20
87.27878216851777
 30
0.0
 10
56.1142387804793
 20
80.10769241883959
 30
0.0
 10
60.05056927658193
 20
71.90679405725794
 30
0.0
 10
60.1942137380286
 20
67.14059494372637
 30
0.0
 10
60.26135602300552
 20
64.91277845909064
 30
0.0
  0
SPLINE
  5
8194
102
{ACAD_REACTORS
330
82F6
102
}
330
2
100
AcDbEntity
  8
KIJUN
100
AcDbSpline
210
0.0
220
0.0
230
1.0
 70
     8
 71
     3
 72
     9
 73
     5
 74
     0
 42
0.0000000001
 43
0.0000000001
 40
0.0
 40
0.0
 40
0.0
 40
0.0
 40
9.284508772820526
 40
18.18287849923448
 40
18.18287849923448
 40
18.18287849923448
 40
18.18287849923448
 10
53.17457898652151
 20
97.37084601360232
 30
0.0
 10
54.02644541049972
 20
94.37553359240908
 30
0.0
 10
55.69474947092741
 20
88.50948260851206
 30
0.0
 10
57.83041378481591
 20
82.77311778321731
 30
0.0
 10
58.87556902122627
 20
79.96584526565539
 30
0.0
  0
ELLIPSE
  5
819E
102
{ACAD_REACTORS
330
82F6
102
}
330
2
100
AcDbEntity
  8
KIJUN
100
AcDbEllipse
 10
62.18181440129175
 20
82.0880238968615
 30
0.0
 11
-24.74109137019992
 21
0.0000000000001169
 31
0.0
210
0.0
220
0.0
230
1.0
 40
0.9195402298849803
 41
0.7978165641091346
 42
1.514393188239691
  0
ELLIPSE
  5
819F
102
{ACAD_REACTORS
330
82F6
102
}
330
2
100
AcDbEntity
  8
KIJUN
100
AcDbEllipse
 10
37.39775038850048
 20
66.67797430184217
 30
0.0
 11
-4.538441251876163
 21
4.538441251876166
 31
0.0
210
0.0
220
0.0
230
1.0
 40
0.9999999999999984
 41
0.2751072753430066
 42
3.559302147127194
  0
ELLIPSE
  5
81A0
102
{ACAD_REACTORS
330
82F6
102
}
330
2
100
AcDbEntity
  8
KIJUN
100
AcDbEllipse
 10
62.18181440129175
 20
82.0880238968615
 30
0.0
 11
26.91609137020008
 21
0.0000000000000674
 31
0.0
210
0.0
220
0.0
230
1.0
 40
0.9195402298849806
 41
3.93940921769892
 42
4.660547859875727
  0
SPLINE
  5
81B7
102
{ACAD_REACTORS
330
82F6
102
}
330
2
100
AcDbEntity
  8
KIJUN
100
AcDbSpline
210
0.0
220
0.0
230
1.0
 70
     8
 71
     3
 72
    11
 73
     7
 74
     0
 42
0.0000000001
 43
0.0000000001
 40
0.0
 40
0.0
 40
0.0
 40
0.0
 40
5.067858546951941
 40
8.496679306228745
 40
13.49176702270591
 40
15.55302803210321
 40
15.55302803210321
 40
15.55302803210321
 40
15.55302803210321
 10
62.07940348160738
 20
104.5600542870556
 30
0.0
 10
60.59774345187594
 20
103.4835683150231
 30
0.0
 10
58.11361924105773
 20
101.6787515472948
 30
0.0
 10
57.22910890842893
 20
96.68685569192568
 30
0.0
 10
60.6912228639004
 20
94.17912446124777
 30
0.0
 10
62.98840554271946
 20
93.22162095915363
 30
0.0
 10
63.65944566152052
 20
92.94192040694156
 30
0.0
  0
ELLIPSE
  5
81BA
102
{ACAD_REACTORS
330
82F6
102
}
330
2
100
AcDbEntity
  8
KIJUN
100
AcDbEllipse
 10
37.26664029728514
 20
70.0068078776901
 30
0.0
 11
-21.06946265748648
 21
0.0000000000003568
 31
0.0
210
0.0
220
0.0
230
1.0
 40
0.9195402298849833
 41
4.679969628038513
 42
5.277312431032831
  0
ELLIPSE
  5
81BB
102
{ACAD_REACTORS
330
82F6
102
}
330
2
100
AcDbEntity
  8
KIJUN
100
AcDbEllipse
 10
43.0703807519393
 20
84.84888793218066
 30
0.0
 11
7.099696456165984
 21
0.0000000000000761
 31
0.0
210
0.0
220
0.0
230
1.0
 40
0.9195402298849783
 41
1.526174227957371
 42
2.376431179857091
  0
ELLIPSE
  5
81BD
102
{ACAD_REACTORS
330
82F6
102
}
330
2
100
AcDbEntity
  8
KIJUN
100
AcDbEllipse
 10
53.49306998150694
 20
94.07798073085746
 30
0.0
 11
3.59512628708001
 21
0.0000000000000689
 31
0.0
210
0.0
220
0.0
230
1.0
 40
0.919540229884982
 41
1.659502269409436
 42
3.052886710975329
  0
DIMENSION
  5
81C1
330
2
100
AcDbEntity
  8
SUNPOU
100
AcDbDimension
  2
*D34
 10
278.2870789865228
 20
141.3948457682563
 30
0.0
 11
60.78707898652282
 21
146.8948457682563
 31
0.0
 70
    32
 71
     5
 42
435.0
  3
STANDARD
100
AcDbAlignedDimension
 13
-156.7129210134772
 23
106.3708460136025
 33
0.0
 14
278.2870789865228
 24
105.5161649183196
 34
0.0
100
AcDbRotatedDimension
1001
ACAD
1000
DSTYLE
1002
{
1070
    41
1040
2.0
1070
    42
1040
10.0
1070
    44
1040
0.0
1070
    73
1070
     0
1070
    74
1070
     0
1070
    77
1070
     1
1070
   140
1040
5.0
1070
   141
1040
0.0
1070
   146
1040
0.064286
1070
   147
1040
3.0
1070
   176
1070
    60
1070
   177
1070
    70
1070
   178
1070
    60
1070
   271
1070
     0
1070
   272
1070
     0
1070
   340
1005
1C
1070
   342
1005
109
1002
}
  0
DIMENSION
  5
81CE
330
2
100
AcDbEntity
  8
SUNPOU
100
AcDbDimension
  2
*D35
 10
-183.7522550305266
 20
21.37084601360244
 30
0.0
 11
-189.2522550305266
 21
63.87084601360244
 31
0.0
 70
    32
 71
     5
 42
85.00000000000005
  3
STANDARD
100
AcDbAlignedDimension
 13
-156.7129210134772
 23
106.3708460136025
 33
0.0
 14
-155.7543815371464
 24
21.37084601360243
 34
0.0
 50
90.0
100
AcDbRotatedDimension
1001
ACAD
1000
DSTYLE
1002
{
1070
    41
1040
2.0
1070
    42
1040
10.0
1070
    44
1040
0.0
1070
    73
1070
     0
1070
    74
1070
     0
1070
    77
1070
     1
1070
   140
1040
5.0
1070
   141
1040
0.0
1070
   146
1040
0.064286
1070
   147
1040
3.0
1070
   176
1070
    60
1070
   177
1070
    70
1070
   178
1070
    60
1070
   271
1070
     0
1070
   272
1070
     0
1070
   340
1005
1C
1070
   342
1005
109
1002
}
  0
ARC
  5
81F3
102
{ACAD_REACTORS
330
82F6
102
}
330
2
100
AcDbEntity
  8
KIJUN
100
AcDbCircle
 10
-151.359866454762
 20
33.99057803221599
 30
0.0
 40
11.1734489924947
100
AcDbArc
 50
37.86068124289878
 51
88.78136834996519
  0
ARC
  5
81F4
102
{ACAD_REACTORS
330
82F6
102
}
330
2
100
AcDbEntity
  8
KIJUN
100
AcDbCircle
 10
-115.7069462013871
 20
201.3920660911777
 30
0.0
 40
177.8785309755159
100
AcDbArc
 50
262.9737666739085
 51
268.1700531271919
  0
ARC
  5
81F5
102
{ACAD_REACTORS
330
82F6
102
}
330
2
100
AcDbEntity
  8
KIJUN
100
AcDbCircle
 10
-132.3996080984795
 20
53.26257783491509
 30
0.0
 40
28.86133247897009
100
AcDbArc
 50
216.7239964269255
 51
259.8903324622563
  0
ARC
  5
81F6
102
{ACAD_REACTORS
330
82F6
102
}
330
2
100
AcDbEntity
  8
KIJUN
100
AcDbCircle
 10
-151.0243193140955
 20
39.47374087096367
 30
0.0
 40
5.688601699381623
100
AcDbArc
 50
90.98625643944004
 51
217.57760790319
  0
ARC
  5
81F9
102
{ACAD_REACTORS
330
82F6
102
}
330
2
100
AcDbEntity
  8
KIJUN
100
AcDbCircle
 10
-117.8902352225452
 20
25.22519763847299
 30
0.0
 40
3.854351624870553
100
AcDbArc
 50
204.8692837536346
 51
308.9077720120983
  0
ARC
  5
81FB
102
{ACAD_REACTORS
330
82F6
102
}
330
2
100
AcDbEntity
  8
KIJUN
100
AcDbCircle
 10
-97.38009662780594
 20
-34.35197060571386
 30
0.0
 40
59.3993272480594
100
AcDbArc
 50
94.52452182281316
 51
107.7303598804998
  0
ARC
  5
81FC
102
{ACAD_REACTORS
330
82F6
102
}
330
2
100
AcDbEntity
  8
KIJUN
100
AcDbCircle
 10
-104.7439963921928
 20
75.89760848762101
 30
0.0
 40
51.10558106095631
100
AcDbArc
 50
273.0039063060739
 51
291.7977486708624
  0
ARC
  5
81FD
102
{ACAD_REACTORS
330
82F6
102
}
330
2
100
AcDbEntity
  8
KIJUN
100
AcDbCircle
 10
-78.68472382669827
 20
32.66616436639893
 30
0.0
 40
8.24417530917444
100
AcDbArc
 50
210.7897907491633
 51
236.5778009558574
  0
ARC
  5
81FE
102
{ACAD_REACTORS
330
82F6
102
}
330
2
100
AcDbEntity
  8
KIJUN
100
AcDbCircle
 10
-81.02577487915658
 20
29.04103860019628
 30
0.0
 40
3.929292798528418
100
AcDbArc
 50
235.9535120066851
 51
2.342732915374126
  0
ARC
  5
81FF
102
{ACAD_REACTORS
330
82F6
102
}
330
2
100
AcDbEntity
  8
KIJUN
100
AcDbCircle
 10
-98.67267470520259
 20
96.76045412042292
 30
0.0
 40
70.91954269982467
100
AcDbArc
 50
287.7093480728216
 51
303.7323260736148
  0
ARC
  5
8200
102
{ACAD_REACTORS
330
82F6
102
}
330
2
100
AcDbEntity
  8
KIJUN
100
AcDbCircle
 10
-59.65295410756958
 20
52.73015274236147
 30
0.0
 40
18.6102280967444
100
AcDbArc
 50
276.3057823003868
 51
325.1354175437045
  0
ARC
  5
8201
102
{ACAD_REACTORS
330
82F6
102
}
330
2
100
AcDbEntity
  8
KIJUN
100
AcDbCircle
 10
-52.39497904250266
 20
36.43721870620275
 30
0.0
 40
7.024797154368335
100
AcDbArc
 50
168.9730350616157
 51
184.9123088925466
  0
ARC
  5
8202
102
{ACAD_REACTORS
330
82F6
102
}
330
2
100
AcDbEntity
  8
KIJUN
100
AcDbCircle
 10
-57.65027359365737
 20
35.98184531571597
 30
0.0
 40
1.749815520800527
100
AcDbArc
 50
184.7916535627339
 51
271.3546377722479
  0
ARC
  5
8203
102
{ACAD_REACTORS
330
82F6
102
}
330
2
100
AcDbEntity
  8
KIJUN
100
AcDbCircle
 10
9.690190835352344
 20
19.18367166530971
 30
0.0
 40
50.34911375198965
100
AcDbArc
 50
141.7019148090411
 51
152.1836026297545
  0
ARC
  5
8204
102
{ACAD_REACTORS
330
82F6
102
}
330
2
100
AcDbEntity
  8
KIJUN
100
AcDbCircle
 10
-35.02738054949625
 20
41.75391871741536
 30
0.0
 40
9.361881185350849
100
AcDbArc
 50
177.9315284318299
 51
198.9792081634261
  0
ARC
  5
8205
102
{ACAD_REACTORS
330
82F6
102
}
330
2
100
AcDbEntity
  8
KIJUN
100
AcDbCircle
 10
-42.14769491223467
 20
44.94262841910088
 30
0.0
 40
7.64947070079896
100
AcDbArc
 50
274.863226636025
 51
342.7839457323498
  0
ARC
  5
8206
102
{ACAD_REACTORS
330
82F6
102
}
330
2
100
AcDbEntity
  8
KIJUN
100
AcDbCircle
 10
-41.75948571225072
 20
39.61025500098764
 30
0.0
 40
2.304307017603432
100
AcDbArc
 50
203.0186334708052
 51
276.4859444891036
  0
ARC
  5
8207
102
{ACAD_REACTORS
330
82F6
102
}
330
2
100
AcDbEntity
  8
KIJUN
100
AcDbCircle
 10
-12.25385026051001
 20
51.98312838339688
 30
0.0
 40
17.64208653129756
100
AcDbArc
 50
185.1886007640061
 51
209.3698218973669
  0
ARC
  5
8208
102
{ACAD_REACTORS
330
82F6
102
}
330
2
100
AcDbEntity
  8
KIJUN
100
AcDbCircle
 10
-38.68883606316724
 20
55.18924542198095
 30
0.0
 40
20.53652394362593
100
AcDbArc
 50
323.3180054479241
 51
357.840200357735
  0
ARC
  5
820A
102
{ACAD_REACTORS
330
82F6
102
}
330
2
100
AcDbEntity
  8
KIJUN
100
AcDbCircle
 10
-24.76274661627471
 20
45.25485002719922
 30
0.0
 40
3.451768591462077
100
AcDbArc
 50
213.879691737076
 51
317.4641551443317
  0
ARC
  5
820B
102
{ACAD_REACTORS
330
82F6
102
}
330
2
100
AcDbEntity
  8
KIJUN
100
AcDbCircle
 10
-14.25168131553149
 20
56.76020583288208
 30
0.0
 40
4.563723058327441
100
AcDbArc
 50
210.9183484428888
 51
310.7703485511501
  0
ARC
  5
820D
102
{ACAD_REACTORS
330
82F6
102
}
330
2
100
AcDbEntity
  8
KIJUN
100
AcDbCircle
 10
-20.55927296716424
 20
62.91305018686847
 30
0.0
 40
13.36408323218558
100
AcDbArc
 50
314.0260020947745
 51
344.5134557693882
  0
ARC
  5
820E
102
{ACAD_REACTORS
330
82F6
102
}
330
2
100
AcDbEntity
  8
KIJUN
100
AcDbCircle
 10
10.47089118107151
 20
59.94203185146331
 30
0.0
 40
12.69709482346043
100
AcDbArc
 50
185.0665857913905
 51
223.9713826063762
  0
ARC
  5
820F
102
{ACAD_REACTORS
330
82F6
102
}
330
2
100
AcDbEntity
  8
KIJUN
100
AcDbCircle
 10
-15.50045931317675
 20
73.16955748012619
 30
0.0
 40
30.55220964965954
100
AcDbArc
 50
313.576854625289
 51
330.1476064364125
  0
ARC
  5
8210
102
{ACAD_REACTORS
330
82F6
102
}
330
2
100
AcDbEntity
  8
KIJUN
100
AcDbCircle
 10
3.492021298456012
 20
53.2093486436549
 30
0.0
 40
3.0
100
AcDbArc
 50
223.9713826063762
 51
313.576854625289
  0
ARC
  5
8211
102
{ACAD_REACTORS
330
82F6
102
}
330
2
100
AcDbEntity
  8
KIJUN
100
AcDbCircle
 10
-11.98477535515098
 20
65.13032544588566
 30
0.0
 40
28.87735258427337
100
AcDbArc
 50
344.3302273014769
 51
0.7372994364418674
  0
ARC
  5
8212
102
{ACAD_REACTORS
330
82F6
102
}
330
2
100
AcDbEntity
  8
KIJUN
100
AcDbCircle
 10
25.35881390319217
 20
78.15963722272617
 30
0.0
 40
24.78299392209333
100
AcDbArc
 50
234.5866827192816
 51
241.3763817232266
  0
ARC
  5
8213
102
{ACAD_REACTORS
330
82F6
102
}
330
2
100
AcDbEntity
  8
KIJUN
100
AcDbCircle
 10
14.26286113630617
 20
57.85147260647896
 30
0.0
 40
1.641260290153179
100
AcDbArc
 50
241.7661559386524
 51
341.5027718381093
  0
ARC
  5
8214
102
{ACAD_REACTORS
330
82F6
102
}
330
2
100
AcDbEntity
  8
KIJUN
100
AcDbCircle
 10
25.80898186035268
 20
62.59040364672811
 30
0.0
 40
9.381994888576786
100
AcDbArc
 50
50.33804308231441
 51
161.9208837238561
  0
ARC
  5
8215
102
{ACAD_REACTORS
330
82F6
102
}
330
2
100
AcDbEntity
  8
KIJUN
100
AcDbCircle
 10
-141.0315256991582
 20
41.11878885911599
 30
0.0
 40
1.530942617057429
100
AcDbArc
 50
68.9324626913801
 51
190.179921563326
  0
ARC
  5
8216
102
{ACAD_REACTORS
330
82F6
102
}
330
2
100
AcDbEntity
  8
KIJUN
100
AcDbCircle
 10
-141.1895650741337
 20
39.36102340219944
 30
0.0
 40
3.264164686399966
100
AcDbArc
 50
35.33533115578663
 51
77.4663776876707
  0
ARC
  5
8217
102
{ACAD_REACTORS
330
82F6
102
}
330
2
100
AcDbEntity
  8
KIJUN
100
AcDbCircle
 10
-131.0998774348296
 20
45.17095335165692
 30
0.0
 40
8.398845347971187
100
AcDbArc
 50
207.8382260680113
 51
255.7348550488145
  0
ARC
  5
8218
102
{ACAD_REACTORS
330
82F6
102
}
330
2
100
AcDbEntity
  8
KIJUN
100
AcDbCircle
 10
-127.2437576046249
 20
267.7523158123577
 30
0.0
 40
231.3197154667059
100
AcDbArc
 50
270.0629044316888
 51
284.6947203837067
  0
ARC
  5
8219
102
{ACAD_REACTORS
330
82F6
102
}
330
2
100
AcDbEntity
  8
KIJUN
100
AcDbCircle
 10
-128.0545286932696
 20
57.64693186836817
 30
0.0
 40
21.2408946726863
100
AcDbArc
 50
256.0659702108083
 51
272.8732485753357
  0
ARC
  5
821A
102
{ACAD_REACTORS
330
82F6
102
}
330
2
100
AcDbEntity
  8
KIJUN
100
AcDbCircle
 10
-63.92094259444826
 20
53.51963229234709
 30
0.0
 40
10.59315247021657
100
AcDbArc
 50
198.566233737105
 51
243.9970815118828
  0
ARC
  5
821B
102
{ACAD_REACTORS
330
82F6
102
}
330
2
100
AcDbEntity
  8
KIJUN
100
AcDbCircle
 10
-67.27711500265518
 20
52.02828234318637
 30
0.0
 40
6.945381336778125
100
AcDbArc
 50
126.8093399306184
 51
195.7179443093157
  0
ARC
  5
821C
102
{ACAD_REACTORS
330
82F6
102
}
330
2
100
AcDbEntity
  8
KIJUN
100
AcDbCircle
 10
-72.13510934132688
 20
48.79780163742512
 30
0.0
 40
9.851412640831391
100
AcDbArc
 50
16.15638985486818
 51
61.94716488397446
  0
ARC
  5
821D
102
{ACAD_REACTORS
330
82F6
102
}
330
2
100
AcDbEntity
  8
KIJUN
100
AcDbCircle
 10
-69.55985774018026
 20
53.91262938799682
 30
0.0
 40
4.128534617415793
100
AcDbArc
 50
60.10477498053252
 51
117.066926792587
  0
ARC
  5
821E
102
{ACAD_REACTORS
330
82F6
102
}
330
2
100
AcDbEntity
  8
KIJUN
100
AcDbCircle
 10
-60.77303652990351
 20
51.03257047131743
 30
0.0
 40
1.966092200053024
100
AcDbArc
 50
66.28808850520312
 51
165.0716660351533
  0
ARC
  5
821F
102
{ACAD_REACTORS
330
82F6
102
}
330
2
100
AcDbEntity
  8
KIJUN
100
AcDbCircle
 10
-65.0457194354789
 20
92.36696866553675
 30
0.0
 40
40.34666748642441
100
AcDbArc
 50
283.1518135831069
 51
290.4800558362538
  0
ARC
  5
8220
102
{ACAD_REACTORS
330
82F6
102
}
330
2
100
AcDbEntity
  8
KIJUN
100
AcDbCircle
 10
-58.66114927369699
 20
65.29793491305461
 30
0.0
 40
12.5350784729679
100
AcDbArc
 50
263.9495604330724
 51
282.8865423626677
  0
ARC
  5
8221
102
{ACAD_REACTORS
330
82F6
102
}
330
2
100
AcDbEntity
  8
KIJUN
100
AcDbCircle
 10
49.19363910790131
 20
87.33751524960002
 30
0.0
 40
7.069929101133515
100
AcDbArc
 50
84.16758653645684
 51
145.2155297904948
  0
SPLINE
  5
824D
102
{ACAD_REACTORS
330
82F6
102
}
330
2
100
AcDbEntity
  8
KIJUN
100
AcDbSpline
210
0.0
220
0.0
230
1.0
 70
     8
 71
     3
 72
    14
 73
    10
 74
     0
 42
0.0000000001
 43
0.0000000001
 40
0.0
 40
0.0
 40
0.0
 40
0.0
 40
1.692238264261909
 40
4.234694941471283
 40
8.544491976098184
 40
16.18650238340602
 40
22.18576867024569
 40
29.15878711970386
 40
41.16885735514956
 40
41.16885735514956
 40
41.16885735514956
 40
41.16885735514956
 10
89.77705395453723
 20
69.81288390688
 30
0.0
 10
89.12614915824727
 20
69.83838297041511
 30
0.0
 10
87.49731041464945
 20
69.90219239822732
 30
0.0
 10
86.03171937482617
 20
73.2590160213842
 30
0.0
 10
90.36937630306772
 20
77.29816365520466
 30
0.0
 10
97.0494453066993
 20
77.34397086341783
 30
0.0
 10
104.8064355821291
 20
76.13363266507722
 30
0.0
 10
110.1442340712966
 20
68.35348076992582
 30
0.0
 10
110.4089086417446
 20
61.9885692364199
 30
0.0
 10
110.5763608532039
 20
57.96166740665629
 30
0.0
  0
ELLIPSE
  5
824E
102
{ACAD_REACTORS
330
82F6
102
}
330
2
100
AcDbEntity
  8
KIJUN
100
AcDbEllipse
 10
62.4539696019862
 20
-80.236511781168
 30
0.0
 11
-183.8662402875124
 21
16.02948510327059
 31
0.0
210
0.0
220
0.0
230
-1.0
 40
0.9195402298849788
 41
1.671407986024032
 42
2.13007885185892
  0
SPLINE
  5
824F
102
{ACAD_REACTORS
330
82F6
102
}
330
2
100
AcDbEntity
  8
KIJUN
100
AcDbSpline
210
0.0
220
0.0
230
1.0
 70
     8
 71
     3
 72
    11
 73
     7
 74
     0
 42
0.0000000001
 43
0.0000000001
 40
0.0
 40
0.0
 40
0.0
 40
0.0
 40
5.300363784956605
 40
11.97924881087559
 40
30.91608535984071
 40
46.3503536259342
 40
46.3503536259342
 40
46.3503536259342
 40
46.3503536259342
 10
242.9613292567175
 20
23.62010772524168
 30
0.0
 10
241.5693348882486
 20
24.91314782604014
 30
0.0
 10
238.4233155658477
 20
27.8355225381055
 30
0.0
 10
226.9838921907854
 20
29.74574798319699
 30
0.0
 10
212.5545150996534
 20
32.43682811148254
 30
0.0
 10
200.8118638638594
 20
36.55298290678961
 30
0.0
 10
195.5388524112564
 20
38.40133307409942
 30
0.0
  0
SPLINE
  5
8250
102
{ACAD_REACTORS
330
82F6
102
}
330
2
100
AcDbEntity
  8
KIJUN
100
AcDbSpline
210
0.0
220
0.0
230
1.0
 70
     8
 71
     3
 72
    14
 73
    10
 74
     0
 42
0.0000000001
 43
0.0000000001
 40
0.0
 40
0.0
 40
0.0
 40
0.0
 40
3.396955981980203
 40
4.964372657452779
 40
7.43769721288535
 40
12.31752151476384
 40
21.47521447850836
 40
31.39373782938124
 40
43.5448057082453
 40
43.5448057082453
 40
43.5448057082453
 40
43.5448057082453
 10
268.5699058238197
 20
39.93230586360621
 30
0.0
 10
269.4192916155778
 20
40.66032691030476
 30
0.0
 10
270.660599310644
 20
41.72426998093989
 30
0.0
 10
273.5906783196881
 20
43.00169732723167
 30
0.0
 10
274.846512254665
 20
38.86405183805698
 30
0.0
 10
270.1063098091914
 20
35.08675171511387
 30
0.0
 10
264.2609775886896
 20
29.16569879404903
 30
0.0
 10
252.7674960216778
 20
26.87200044351986
 30
0.0
 10
244.8916887080949
 20
26.13909792155694
 30
0.0
 10
240.5554294510928
 20
25.73557670540673
 30
0.0
  0
SPLINE
  5
8251
102
{ACAD_REACTORS
330
82F6
102
}
330
2
100
AcDbEntity
  8
KIJUN
100
AcDbSpline
210
0.0
220
0.0
230
1.0
 70
     8
 71
     3
 72
    11
 73
     7
 74
     0
 42
0.0000000001
 43
0.0000000001
 40
0.0
 40
0.0
 40
0.0
 40
0.0
 40
6.133382321458243
 40
13.81751988640962
 40
30.45785489507254
 40
40.64980508499819
 40
40.64980508499819
 40
40.64980508499819
 40
40.64980508499819
 10
264.1125255846315
 20
40.84821031659251
 30
0.0
 10
262.7712370850475
 20
39.16044778595217
 30
0.0
 10
259.7495307010228
 20
35.35819136227048
 30
0.0
 10
248.4758850876405
 20
33.03950732693144
 30
0.0
 10
236.2540402783227
 20
31.506340499257
 30
0.0
 10
226.5158286239667
 20
32.35472441783962
 30
0.0
 10
222.8168753896231
 20
32.67697377439399
 30
0.0
  0
SPLINE
  5
8252
102
{ACAD_REACTORS
330
82F6
102
}
330
2
100
AcDbEntity
  8
KIJUN
100
AcDbSpline
210
0.0
220
0.0
230
1.0
 70
     8
 71
     3
 72
    11
 73
     7
 74
     0
 42
0.0000000001
 43
0.0000000001
 40
0.0
 40
0.0
 40
0.0
 40
0.0
 40
9.340562530652318
 40
21.27973405718933
 40
34.31697502931749
 40
53.62060574238146
 40
53.62060574238146
 40
53.62060574238146
 40
53.62060574238146
 10
178.8498127166159
 20
36.03883418755625
 30
0.0
 10
177.0544228480259
 20
38.70653174611724
 30
0.0
 10
172.9641532516081
 20
44.78409874541728
 30
0.0
 10
165.0180998658862
 20
53.73460602396153
 30
0.0
 10
152.9271786630893
 20
63.81550812882327
 30
0.0
 10
142.1942437547512
 20
68.46146056981496
 30
0.0
 10
135.7879658425583
 20
71.23453827484246
 30
0.0
  0
SPLINE
  5
8253
102
{ACAD_REACTORS
330
82F6
102
}
330
2
100
AcDbEntity
  8
KIJUN
100
AcDbSpline
210
0.0
220
0.0
230
1.0
 70
     8
 71
     3
 72
    13
 73
     9
 74
     0
 42
0.0000000001
 43
0.0000000001
 40
0.0
 40
0.0
 40
0.0
 40
0.0
 40
1.909725420741786
 40
5.343603249662459
 40
9.155949714095251
 40
20.42083524664826
 40
30.32607382304991
 40
36.28002503794569
 40
36.28002503794569
 40
36.28002503794569
 40
36.28002503794569
 10
207.341049846361
 20
28.4460550919989
 30
0.0
 10
207.2676891548305
 20
29.08174082353973
 30
0.0
 10
207.0624185827357
 20
30.86045325200299
 30
0.0
 10
205.192041017181
 20
33.6860923867997
 30
0.0
 10
198.8055042107947
 20
36.13746562498651
 30
0.0
 10
190.4988539941386
 20
39.02273144579512
 30
0.0
 10
180.8485069294808
 20
42.25487907726823
 30
0.0
 10
177.1583377914919
 20
46.45081088703746
 30
0.0
 10
175.7729525787898
 20
48.0260725255673
 30
0.0
  0
SPLINE
  5
8254
102
{ACAD_REACTORS
330
82F6
102
}
330
2
100
AcDbEntity
  8
KIJUN
100
AcDbSpline
210
0.0
220
0.0
230
1.0
 70
     8
 71
     3
 72
    13
 73
     9
 74
     0
 42
0.0000000001
 43
0.0000000001
 40
0.0
 40
0.0
 40
0.0
 40
0.0
 40
3.568695458155922
 40
6.554902227559037
 40
11.24498810861282
 40
16.65148350971873
 40
23.68307129013725
 40
30.69652055486169
 40
30.69652055486169
 40
30.69652055486169
 40
30.69652055486169
 10
187.6861039346827
 20
54.72823956387405
 30
0.0
 10
189.0980182419481
 20
54.93879042547434
 30
0.0
 10
191.6913917439277
 20
55.3255256703
 30
0.0
 10
194.0565955404968
 20
51.22273950133873
 30
0.0
 10
190.7505341694219
 20
47.23951624200933
 30
0.0
 10
184.8987033721663
 20
44.85742083626437
 30
0.0
 10
177.6899314782162
 20
46.89182393595479
 30
0.0
 10
173.2974324858332
 20
49.23548142118142
 30
0.0
 10
171.1040193442791
 20
50.40579680117631
 30
0.0
  0
SPLINE
  5
8255
102
{ACAD_REACTORS
330
82F6
102
}
330
2
100
AcDbEntity
  8
KIJUN
100
AcDbSpline
210
0.0
220
0.0
230
1.0
 70
     8
 71
     3
 72
    10
 73
     6
 74
     0
 42
0.0000000001
 43
0.0000000001
 40
0.0
 40
0.0
 40
0.0
 40
0.0
 40
5.026110118235721
 40
16.17986844127536
 40
20.01078818477934
 40
20.01078818477934
 40
20.01078818477934
 40
20.01078818477934
 10
165.9573195678334
 20
42.09182456405055
 30
0.0
 10
165.5661221021176
 20
43.73748601301749
 30
0.0
 10
164.3067936391625
 20
49.03513869407543
 30
0.0
 10
160.1316605935418
 20
54.91930007124611
 30
0.0
 10
156.0437566056894
 20
58.25462714202881
 30
0.0
 10
154.9986602728175
 20
59.1073228268986
 30
0.0
  0
SPLINE
  5
8256
102
{ACAD_REACTORS
330
82F6
102
}
330
2
100
AcDbEntity
  8
KIJUN
100
AcDbSpline
210
0.0
220
0.0
230
1.0
 70
     8
 71
     3
 72
    10
 73
     6
 74
     0
 42
0.0000000001
 43
0.0000000001
 40
0.0
 40
0.0
 40
0.0
 40
0.0
 40
7.906705075166833
 40
20.93624789032286
 40
26.00795571918587
 40
26.00795571918587
 40
26.00795571918587
 40
26.00795571918587
 10
151.3978047387667
 20
50.38767611420682
 30
0.0
 10
150.7539294763446
 20
52.96648965838232
 30
0.0
 10
149.0490053674571
 20
59.79495728307631
 30
0.0
 10
143.1747600364122
 20
67.42005979264286
 30
0.0
 10
137.404663252473
 20
70.3996893105274
 30
0.0
 10
135.7879658425583
 20
71.23453827484246
 30
0.0
  0
SPLINE
  5
8257
102
{ACAD_REACTORS
330
82F6
102
}
330
2
100
AcDbEntity
  8
KIJUN
100
AcDbSpline
210
0.0
220
0.0
230
1.0
 70
     8
 71
     3
 72
    10
 73
     6
 74
     0
 42
0.0000000001
 43
0.0000000001
 40
0.0
 40
0.0
 40
0.0
 40
0.0
 40
5.716866315732391
 40
19.78951524017643
 40
29.52850966684874
 40
29.52850966684874
 40
29.52850966684874
 40
29.52850966684874
 10
139.7410591481512
 20
54.41529184633385
 30
0.0
 10
139.6431248828108
 20
56.33792237934853
 30
0.0
 10
139.3041154448687
 20
62.99330386511416
 30
0.0
 10
132.0195397868983
 20
71.6306531229517
 30
0.0
 10
124.4250625502005
 20
75.44200576212507
 30
0.0
 10
121.3189110598951
 20
77.000854160938
 30
0.0
  0
SPLINE
  5
8258
102
{ACAD_REACTORS
330
82F6
102
}
330
2
100
AcDbEntity
  8
KIJUN
100
AcDbSpline
210
0.0
220
0.0
230
1.0
 70
     8
 71
     3
 72
    10
 73
     6
 74
     0
 42
0.0000000001
 43
0.0000000001
 40
0.0
 40
0.0
 40
0.0
 40
0.0
 40
5.217632678068873
 40
18.56884542425823
 40
32.09439286884504
 40
32.09439286884504
 40
32.09439286884504
 40
32.09439286884504
 10
129.2545549802778
 20
59.34467875924734
 30
0.0
 10
129.1086787364484
 20
61.0998663960852
 30
0.0
 10
128.5895250148529
 20
67.34634059807409
 30
0.0
 10
119.6801140871383
 20
76.2420773731304
 30
0.0
 10
110.2608173856617
 20
78.74554612931655
 30
0.0
 10
105.5206201473732
 20
80.00539981694432
 30
0.0
  0
SPLINE
  5
8259
102
{ACAD_REACTORS
330
82F6
102
}
330
2
100
AcDbEntity
  8
KIJUN
100
AcDbSpline
210
0.0
220
0.0
230
1.0
 70
     8
 71
     3
 72
    10
 73
     6
 74
     0
 42
0.0000000001
 43
0.0000000001
 40
0.0
 40
0.0
 40
0.0
 40
0.0
 40
4.766064951926527
 40
16.59954280283152
 40
26.580379091262
 40
26.580379091262
 40
26.580379091262
 40
26.580379091262
 10
123.7507507407218
 20
58.82070820410906
 30
0.0
 10
123.2207325952358
 20
60.33430985484119
 30
0.0
 10
121.3747529493402
 20
65.6059743498054
 30
0.0
 10
115.7801010416878
 20
73.6326496140492
 30
0.0
 10
108.2518551673419
 20
76.37292864862157
 30
0.0
 10
104.8074108849791
 20
77.62670524017469
 30
0.0
  0
ELLIPSE
  5
825A
102
{ACAD_REACTORS
330
82F6
102
}
330
2
100
AcDbEntity
  8
KIJUN
100
AcDbEllipse
 10
126.2969280505445
 20
60.69124111871034
 30
0.0
 11
3.270225647240811
 21
-0.2850987392508618
 31
0.0
210
0.0
220
0.0
230
-1.0
 40
0.9195402298849819
 41
0.3675359766742716
 42
2.379265557215747
  0
SPLINE
  5
825B
102
{ACAD_REACTORS
330
82F6
102
}
330
2
100
AcDbEntity
  8
KIJUN
100
AcDbSpline
210
0.0
220
0.0
230
1.0
 70
     8
 71
     3
 72
    11
 73
     7
 74
     0
 42
0.0000000001
 43
0.0000000001
 40
0.0
 40
0.0
 40
0.0
 40
0.0
 40
7.387846072408844
 40
13.92622529317573
 40
20.73918869755014
 40
23.81708970701497
 40
23.81708970701497
 40
23.81708970701497
 40
23.81708970701497
 10
78.18707898652409
 20
64.37084601360357
 30
0.0
 10
77.67803015152674
 20
66.90219744244481
 30
0.0
 10
76.71846376479908
 20
71.67384129489329
 30
0.0
 10
80.74170204783044
 20
77.61387393914766
 30
0.0
 10
82.76628090362052
 20
83.50243927814887
 30
0.0
 10
86.38933090208848
 20
84.33765170871941
 30
0.0
 10
87.51677424586974
 20
84.59755833321764
 30
0.0
  0
SPLINE
  5
825C
102
{ACAD_REACTORS
330
82F6
102
}
330
2
100
AcDbEntity
  8
KIJUN
100
AcDbSpline
210
0.0
220
0.0
230
1.0
 70
     8
 71
     3
 72
    17
 73
    13
 74
     0
 42
0.0000000001
 43
0.0000000001
 40
0.0
 40
0.0
 40
0.0
 40
0.0
 40
6.34696176207462
 40
12.9758565571364
 40
18.96845918699012
 40
25.02876845758829
 40
32.56876485765125
 40
37.66692929816396
 40
41.04305451911799
 40
49.65040781005646
 40
56.53629030469761
 40
64.60206765033283
 40
64.60206765033283
 40
64.60206765033283
 40
64.60206765033283
 10
78.18707898652482
 20
91.37084601360243
 30
0.0
 10
77.68749338772555
 20
89.32807675442726
 30
0.0
 10
76.66613051978359
 20
85.15179810646506
 30
0.0
 10
75.13713300280452
 20
78.64345087461257
 30
0.0
 10
69.35438179892924
 20
74.90881973495207
 30
0.0
 10
63.29107425477926
 20
71.41554033850626
 30
0.0
 10
64.18839020140278
 20
61.31728473085359
 30
0.0
 10
71.79377995890565
 20
64.39214565322948
 30
0.0
 10
73.10952937602528
 20
70.01984553606455
 30
0.0
 10
75.96072652204782
 20
75.72865422762375
 30
0.0
 10
78.07065910698013
 20
83.48096669847489
 30
0.0
 10
81.67837269161564
 20
87.30691271100353
 30
0.0
 10
83.62457898652527
 20
89.37084601360243
 30
0.0
  0
SPLINE
  5
825D
102
{ACAD_REACTORS
330
82F6
102
}
330
2
100
AcDbEntity
  8
KIJUN
100
AcDbSpline
210
0.0
220
0.0
230
1.0
 70
     8
 71
     3
 72
    11
 73
     7
 74
     0
 42
0.0000000001
 43
0.0000000001
 40
0.0
 40
0.0
 40
0.0
 40
0.0
 40
4.71167605684988
 40
17.04604238578736
 40
24.59522831550184
 40
31.22078612871209
 40
31.22078612871209
 40
31.22078612871209
 40
31.22078612871209
 10
71.66207898652416
 20
94.37084601360243
 30
0.0
 10
71.27876675322738
 20
92.83504585603381
 30
0.0
 10
69.89200830529282
 20
87.27878216851777
 30
0.0
 10
65.45991919256633
 20
80.10769241883959
 30
0.0
 10
61.52358869646371
 20
71.90679405725794
 30
0.0
 10
61.37994423501705
 20
67.14059494372637
 30
0.0
 10
61.31280195004013
 20
64.91277845909064
 30
0.0
  0
SPLINE
  5
825E
102
{ACAD_REACTORS
330
82F6
102
}
330
2
100
AcDbEntity
  8
KIJUN
100
AcDbSpline
210
0.0
220
0.0
230
1.0
 70
     8
 71
     3
 72
     9
 73
     5
 74
     0
 42
0.0000000001
 43
0.0000000001
 40
0.0
 40
0.0
 40
0.0
 40
0.0
 40
9.284508772820526
 40
18.18287849923448
 40
18.18287849923448
 40
18.18287849923448
 40
18.18287849923448
 10
68.39957898652413
 20
97.37084601360232
 30
0.0
 10
67.54771256254592
 20
94.37553359240908
 30
0.0
 10
65.87940850211822
 20
88.50948260851206
 30
0.0
 10
63.74374418822973
 20
82.77311778321731
 30
0.0
 10
62.69858895181937
 20
79.96584526565539
 30
0.0
  0
ELLIPSE
  5
825F
102
{ACAD_REACTORS
330
82F6
102
}
330
2
100
AcDbEntity
  8
KIJUN
100
AcDbEllipse
 10
59.39234357175389
 20
82.0880238968615
 30
0.0
 11
24.74109137019992
 21
0.0000000000001169
 31
0.0
210
0.0
220
0.0
230
-1.0
 40
0.9195402298849803
 41
0.7978165641091346
 42
1.514393188239691
  0
ELLIPSE
  5
8260
102
{ACAD_REACTORS
330
82F6
102
}
330
2
100
AcDbEntity
  8
KIJUN
100
AcDbEllipse
 10
84.17640758454515
 20
66.67797430184217
 30
0.0
 11
4.538441251876163
 21
4.538441251876166
 31
0.0
210
0.0
220
0.0
230
-1.0
 40
0.9999999999999984
 41
0.2751072753430066
 42
3.559302147127194
  0
ELLIPSE
  5
8261
102
{ACAD_REACTORS
330
82F6
102
}
330
2
100
AcDbEntity
  8
KIJUN
100
AcDbEllipse
 10
59.39234357175389
 20
82.0880238968615
 30
0.0
 11
-26.91609137020008
 21
0.0000000000000674
 31
0.0
210
0.0
220
0.0
230
-1.0
 40
0.9195402298849806
 41
3.93940921769892
 42
4.660547859875727
  0
ELLIPSE
  5
8262
102
{ACAD_REACTORS
330
82F6
102
}
330
2
100
AcDbEntity
  8
KIJUN
100
AcDbEllipse
 10
84.30751767576051
 20
70.0068078776901
 30
0.0
 11
21.06946265748648
 21
0.0000000000003568
 31
0.0
210
0.0
220
0.0
230
-1.0
 40
0.9195402298849833
 41
4.679969628038513
 42
5.277312431032831
  0
ELLIPSE
  5
8263
102
{ACAD_REACTORS
330
82F6
102
}
330
2
100
AcDbEntity
  8
KIJUN
100
AcDbEllipse
 10
78.50377722110633
 20
84.84888793218066
 30
0.0
 11
-7.099696456165984
 21
0.0000000000000761
 31
0.0
210
0.0
220
0.0
230
-1.0
 40
0.9195402298849783
 41
1.526174227957371
 42
2.376431179857091
  0
ELLIPSE
  5
8264
102
{ACAD_REACTORS
330
82F6
102
}
330
2
100
AcDbEntity
  8
KIJUN
100
AcDbEllipse
 10
68.0810879915387
 20
94.07798073085746
 30
0.0
 11
-3.59512628708001
 21
0.0000000000000689
 31
0.0
210
0.0
220
0.0
230
-1.0
 40
0.919540229884982
 41
1.659502269409436
 42
3.052886710975329
  0
ARC
  5
8265
102
{ACAD_REACTORS
330
82F6
102
}
330
2
100
AcDbEntity
  8
KIJUN
100
AcDbCircle
 10
272.9340244278077
 20
33.99057803221599
 30
0.0
 40
11.1734489924947
100
AcDbArc
 50
91.2186316500351
 51
142.1393187571012
  0
ARC
  5
8266
102
{ACAD_REACTORS
330
82F6
102
}
330
2
100
AcDbEntity
  8
KIJUN
100
AcDbCircle
 10
237.2811041744327
 20
201.3920660911777
 30
0.0
 40
177.8785309755159
100
AcDbArc
 50
271.8299468728083
 51
277.0262333260918
  0
ARC
  5
8267
102
{ACAD_REACTORS
330
82F6
102
}
330
2
100
AcDbEntity
  8
KIJUN
100
AcDbCircle
 10
253.9737660715252
 20
53.26257783491509
 30
0.0
 40
28.86133247897009
100
AcDbArc
 50
280.1096675377438
 51
323.2760035730744
  0
ARC
  5
8268
102
{ACAD_REACTORS
330
82F6
102
}
330
2
100
AcDbEntity
  8
KIJUN
100
AcDbCircle
 10
272.5984772871412
 20
39.47374087096367
 30
0.0
 40
5.688601699381623
100
AcDbArc
 50
322.4223920968098
 51
89.01374356056006
  0
ARC
  5
8269
102
{ACAD_REACTORS
330
82F6
102
}
330
2
100
AcDbEntity
  8
KIJUN
100
AcDbCircle
 10
239.4643931955909
 20
25.22519763847299
 30
0.0
 40
3.854351624870553
100
AcDbArc
 50
231.0922279879016
 51
335.1307162463653
  0
ARC
  5
826A
102
{ACAD_REACTORS
330
82F6
102
}
330
2
100
AcDbEntity
  8
KIJUN
100
AcDbCircle
 10
218.9542546008516
 20
-34.35197060571386
 30
0.0
 40
59.3993272480594
100
AcDbArc
 50
72.26964011949994
 51
85.47547817718667
  0
ARC
  5
826B
102
{ACAD_REACTORS
330
82F6
102
}
330
2
100
AcDbEntity
  8
KIJUN
100
AcDbCircle
 10
226.3181543652385
 20
75.89760848762101
 30
0.0
 40
51.10558106095631
100
AcDbArc
 50
248.2022513291372
 51
266.9960936939264
  0
ARC
  5
826C
102
{ACAD_REACTORS
330
82F6
102
}
330
2
100
AcDbEntity
  8
KIJUN
100
AcDbCircle
 10
200.2588817997439
 20
32.66616436639893
 30
0.0
 40
8.24417530917444
100
AcDbArc
 50
303.4221990441427
 51
329.2102092508366
  0
ARC
  5
826D
102
{ACAD_REACTORS
330
82F6
102
}
330
2
100
AcDbEntity
  8
KIJUN
100
AcDbCircle
 10
202.5999328522023
 20
29.04103860019628
 30
0.0
 40
3.929292798528418
100
AcDbArc
 50
177.6572670846259
 51
304.0464879933148
  0
ARC
  5
826E
102
{ACAD_REACTORS
330
82F6
102
}
330
2
100
AcDbEntity
  8
KIJUN
100
AcDbCircle
 10
220.2468326782482
 20
96.76045412042292
 30
0.0
 40
70.91954269982467
100
AcDbArc
 50
236.2676739263851
 51
252.2906519271782
  0
ARC
  5
826F
102
{ACAD_REACTORS
330
82F6
102
}
330
2
100
AcDbEntity
  8
KIJUN
100
AcDbCircle
 10
181.2271120806152
 20
52.73015274236147
 30
0.0
 40
18.6102280967444
100
AcDbArc
 50
214.8645824562954
 51
263.6942176996133
  0
ARC
  5
8270
102
{ACAD_REACTORS
330
82F6
102
}
330
2
100
AcDbEntity
  8
KIJUN
100
AcDbCircle
 10
173.9691370155483
 20
36.43721870620275
 30
0.0
 40
7.024797154368335
100
AcDbArc
 50
355.0876911074533
 51
11.02696493838423
  0
ARC
  5
8271
102
{ACAD_REACTORS
330
82F6
102
}
330
2
100
AcDbEntity
  8
KIJUN
100
AcDbCircle
 10
179.224431566703
 20
35.98184531571597
 30
0.0
 40
1.749815520800527
100
AcDbArc
 50
268.6453622277522
 51
355.208346437266
  0
ARC
  5
8272
102
{ACAD_REACTORS
330
82F6
102
}
330
2
100
AcDbEntity
  8
KIJUN
100
AcDbCircle
 10
111.8839671376933
 20
19.18367166530971
 30
0.0
 40
50.34911375198965
100
AcDbArc
 50
27.81639737024534
 51
38.29808519095881
  0
ARC
  5
8273
102
{ACAD_REACTORS
330
82F6
102
}
330
2
100
AcDbEntity
  8
KIJUN
100
AcDbCircle
 10
156.6015385225419
 20
41.75391871741536
 30
0.0
 40
9.361881185350849
100
AcDbArc
 50
341.020791836574
 51
2.068471568170057
  0
ARC
  5
8274
102
{ACAD_REACTORS
330
82F6
102
}
330
2
100
AcDbEntity
  8
KIJUN
100
AcDbCircle
 10
163.3336436852963
 20
39.61025500098764
 30
0.0
 40
2.304307017603432
100
AcDbArc
 50
263.5140555108967
 51
336.9813665291947
  0
ARC
  5
8275
102
{ACAD_REACTORS
330
82F6
102
}
330
2
100
AcDbEntity
  8
KIJUN
100
AcDbCircle
 10
163.7218528852803
 20
44.94262841910088
 30
0.0
 40
7.64947070079896
100
AcDbArc
 50
197.2160542676503
 51
265.1367733639749
  0
ARC
  5
8276
102
{ACAD_REACTORS
330
82F6
102
}
330
2
100
AcDbEntity
  8
KIJUN
100
AcDbCircle
 10
133.8280082335556
 20
51.98312838339688
 30
0.0
 40
17.64208653129756
100
AcDbArc
 50
330.6301781026329
 51
354.8113992359939
  0
ARC
  5
8277
102
{ACAD_REACTORS
330
82F6
102
}
330
2
100
AcDbEntity
  8
KIJUN
100
AcDbCircle
 10
160.2629940362129
 20
55.18924542198095
 30
0.0
 40
20.53652394362593
100
AcDbArc
 50
182.159799642265
 51
216.6819945520757
  0
ARC
  5
8278
102
{ACAD_REACTORS
330
82F6
102
}
330
2
100
AcDbEntity
  8
KIJUN
100
AcDbCircle
 10
146.3369045893203
 20
45.25485002719922
 30
0.0
 40
3.451768591462077
100
AcDbArc
 50
222.5358448556683
 51
326.120308262924
  0
ARC
  5
8279
102
{ACAD_REACTORS
330
82F6
102
}
330
2
100
AcDbEntity
  8
KIJUN
100
AcDbCircle
 10
135.8258392885771
 20
56.76020583288208
 30
0.0
 40
4.563723058327441
100
AcDbArc
 50
229.2296514488502
 51
329.0816515571112
  0
ARC
  5
827A
102
{ACAD_REACTORS
330
82F6
102
}
330
2
100
AcDbEntity
  8
KIJUN
100
AcDbCircle
 10
142.1334309402098
 20
62.91305018686847
 30
0.0
 40
13.36408323218558
100
AcDbArc
 50
195.4865442306118
 51
225.9739979052256
  0
ARC
  5
827B
102
{ACAD_REACTORS
330
82F6
102
}
330
2
100
AcDbEntity
  8
KIJUN
100
AcDbCircle
 10
111.1032667919741
 20
59.94203185146331
 30
0.0
 40
12.69709482346043
100
AcDbArc
 50
316.0286173936236
 51
354.9334142086095
  0
ARC
  5
827C
102
{ACAD_REACTORS
330
82F6
102
}
330
2
100
AcDbEntity
  8
KIJUN
100
AcDbCircle
 10
118.0821366745896
 20
53.2093486436549
 30
0.0
 40
3.0
100
AcDbArc
 50
226.4231453747109
 51
316.0286173936236
  0
ARC
  5
827D
102
{ACAD_REACTORS
330
82F6
102
}
330
2
100
AcDbEntity
  8
KIJUN
100
AcDbCircle
 10
137.0746172862224
 20
73.16955748012619
 30
0.0
 40
30.55220964965954
100
AcDbArc
 50
209.8523935635875
 51
226.4231453747109
  0
ARC
  5
827E
102
{ACAD_REACTORS
330
82F6
102
}
330
2
100
AcDbEntity
  8
KIJUN
100
AcDbCircle
 10
133.5589333281966
 20
65.13032544588566
 30
0.0
 40
28.87735258427337
100
AcDbArc
 50
179.2627005635581
 51
195.669772698523
  0
ARC
  5
827F
102
{ACAD_REACTORS
330
82F6
102
}
330
2
100
AcDbEntity
  8
KIJUN
100
AcDbCircle
 10
96.21534406985347
 20
78.15963722272617
 30
0.0
 40
24.78299392209333
100
AcDbArc
 50
298.6236182767731
 51
305.4133172807186
  0
ARC
  5
8280
102
{ACAD_REACTORS
330
82F6
102
}
330
2
100
AcDbEntity
  8
KIJUN
100
AcDbCircle
 10
107.3112968367395
 20
57.85147260647896
 30
0.0
 40
1.641260290153179
100
AcDbArc
 50
198.4972281618907
 51
298.2338440613473
  0
ARC
  5
8281
102
{ACAD_REACTORS
330
82F6
102
}
330
2
100
AcDbEntity
  8
KIJUN
100
AcDbCircle
 10
95.76517611269295
 20
62.59040364672811
 30
0.0
 40
9.381994888576786
100
AcDbArc
 50
18.07911627614401
 51
129.6619569176858
  0
ARC
  5
8282
102
{ACAD_REACTORS
330
82F6
102
}
330
2
100
AcDbEntity
  8
KIJUN
100
AcDbCircle
 10
262.6056836722038
 20
41.11878885911599
 30
0.0
 40
1.530942617057429
100
AcDbArc
 50
349.8200784366741
 51
111.0675373086195
  0
ARC
  5
8283
102
{ACAD_REACTORS
330
82F6
102
}
330
2
100
AcDbEntity
  8
KIJUN
100
AcDbCircle
 10
262.7637230471794
 20
39.36102340219944
 30
0.0
 40
3.264164686399966
100
AcDbArc
 50
102.5336223123294
 51
144.6646688442135
  0
ARC
  5
8284
102
{ACAD_REACTORS
330
82F6
102
}
330
2
100
AcDbEntity
  8
KIJUN
100
AcDbCircle
 10
252.6740354078753
 20
45.17095335165692
 30
0.0
 40
8.398845347971187
100
AcDbArc
 50
284.2651449511854
 51
332.1617739319888
  0
ARC
  5
8285
102
{ACAD_REACTORS
330
82F6
102
}
330
2
100
AcDbEntity
  8
KIJUN
100
AcDbCircle
 10
248.8179155776705
 20
267.7523158123577
 30
0.0
 40
231.3197154667059
100
AcDbArc
 50
255.3052796162935
 51
269.9370955683116
  0
ARC
  5
8286
102
{ACAD_REACTORS
330
82F6
102
}
330
2
100
AcDbEntity
  8
KIJUN
100
AcDbCircle
 10
249.6286866663153
 20
57.64693186836817
 30
0.0
 40
21.2408946726863
100
AcDbArc
 50
267.1267514246646
 51
283.9340297891919
  0
ARC
  5
8287
102
{ACAD_REACTORS
330
82F6
102
}
330
2
100
AcDbEntity
  8
KIJUN
100
AcDbCircle
 10
185.4951005674939
 20
53.51963229234709
 30
0.0
 40
10.59315247021657
100
AcDbArc
 50
296.0029184881171
 51
341.4337662628949
  0
ARC
  5
8288
102
{ACAD_REACTORS
330
82F6
102
}
330
2
100
AcDbEntity
  8
KIJUN
100
AcDbCircle
 10
188.8512729757008
 20
52.02828234318637
 30
0.0
 40
6.945381336778125
100
AcDbArc
 50
344.2820556906843
 51
53.19066006938123
  0
ARC
  5
8289
102
{ACAD_REACTORS
330
82F6
102
}
330
2
100
AcDbEntity
  8
KIJUN
100
AcDbCircle
 10
193.7092673143725
 20
48.79780163742512
 30
0.0
 40
9.851412640831391
100
AcDbArc
 50
118.0528351160253
 51
163.8436101451319
  0
ARC
  5
828A
102
{ACAD_REACTORS
330
82F6
102
}
330
2
100
AcDbEntity
  8
KIJUN
100
AcDbCircle
 10
191.1340157132259
 20
53.91262938799682
 30
0.0
 40
4.128534617415793
100
AcDbArc
 50
62.93307320741267
 51
119.8952250194674
  0
ARC
  5
828B
102
{ACAD_REACTORS
330
82F6
102
}
330
2
100
AcDbEntity
  8
KIJUN
100
AcDbCircle
 10
182.3471945029491
 20
51.03257047131743
 30
0.0
 40
1.966092200053024
100
AcDbArc
 50
14.92833396484661
 51
113.7119114947969
  0
ARC
  5
828C
102
{ACAD_REACTORS
330
82F6
102
}
330
2
100
AcDbEntity
  8
KIJUN
100
AcDbCircle
 10
186.6198774085245
 20
92.36696866553675
 30
0.0
 40
40.34666748642441
100
AcDbArc
 50
249.5199441637464
 51
256.848186416893
  0
ARC
  5
828D
102
{ACAD_REACTORS
330
82F6
102
}
330
2
100
AcDbEntity
  8
KIJUN
100
AcDbCircle
 10
180.2353072467426
 20
65.29793491305461
 30
0.0
 40
12.5350784729679
100
AcDbArc
 50
257.1134576373326
 51
276.0504395669273
  0
ARC
  5
828E
102
{ACAD_REACTORS
330
82F6
102
}
330
2
100
AcDbEntity
  8
KIJUN
100
AcDbCircle
 10
72.38051886514432
 20
87.33751524960002
 30
0.0
 40
7.069929101133515
100
AcDbArc
 50
34.78447020950532
 51
95.83241346354274
  0
ARC
  5
8293
102
{ACAD_REACTORS
330
82F6
102
}
330
2
100
AcDbEntity
  8
KIJUN
100
AcDbCircle
 10
61.9627397702145
 20
99.7588297946085
 30
0.0
 40
6.612016218993933
100
AcDbArc
 50
68.89394290586507
 51
112.797557174562
  0
ARC
  5
8294
102
{ACAD_REACTORS
330
82F6
102
}
330
2
100
AcDbEntity
  8
KIJUN
100
AcDbCircle
 10
62.06409282453509
 20
99.07597862365047
 30
0.0
 40
7.282806153352118
100
AcDbArc
 50
111.4509244148282
 51
145.6123754163447
  0
ARC
  5
8295
102
{ACAD_REACTORS
330
82F6
102
}
330
2
100
AcDbEntity
  8
KIJUN
100
AcDbCircle
 10
76.56023802401607
 20
89.4191241676622
 30
0.0
 40
24.70058559899234
100
AcDbArc
 50
146.118245029469
 51
161.2206539805873
  0
ARC
  5
8296
102
{ACAD_REACTORS
330
82F6
102
}
330
2
100
AcDbEntity
  8
KIJUN
100
AcDbCircle
 10
64.38262841398405
 20
97.27916249058703
 30
0.0
 40
4.01799673601481
100
AcDbArc
 50
1.307501032483806
 51
60.19656351038757
  0
ARC
  5
8297
102
{ACAD_REACTORS
330
82F6
102
}
330
2
100
AcDbEntity
  8
KIJUN
100
AcDbCircle
 10
59.60585715116215
 20
87.18747567937532
 30
0.0
 40
15.17410287911225
100
AcDbArc
 50
63.48663024870162
 51
75.11241401589095
  0
ARC
  5
8298
102
{ACAD_REACTORS
330
82F6
102
}
330
2
100
AcDbEntity
  8
KIJUN
100
AcDbCircle
 10
58.97311516482405
 20
108.0801417536858
 30
0.0
 40
6.896982918868059
100
AcDbArc
 50
309.04699730226
 51
328.0567196509437
  0
ARC
  5
8299
102
{ACAD_REACTORS
330
82F6
102
}
330
2
100
AcDbEntity
  8
KIJUN
100
AcDbCircle
 10
63.94993532226003
 20
104.9746926752961
 30
0.0
 40
1.030764005616471
100
AcDbArc
 50
328.1714785315857
 51
67.54180916269601
  0
ARC
  5
829A
102
{ACAD_REACTORS
330
82F6
102
}
330
2
100
AcDbEntity
  8
KIJUN
100
AcDbCircle
 10
63.63290106158795
 20
102.3354266434
 30
0.0
 40
0.5
100
AcDbArc
 50
129.0469973022605
 51
255.1124140158909
  0
ENDSEC
  0
SECTION
  2
OBJECTS
  0
DICTIONARY
  5
1A
330
0
100
AcDbDictionary
281
     1
  3
ACAD_COLOR
350
144
  3
ACAD_GROUP
350
18
  3
ACAD_LAYOUT
350
58
  3
ACAD_MATERIAL
350
143
  3
ACAD_MLINESTYLE
350
19
  3
ACAD_PLOTSETTINGS
350
59
  3
ACAD_PLOTSTYLENAME
350
56
  3
ACAD_TABLESTYLE
350
145
  3
ACDBHEADERROUNDTRIPXREC
350
82FE
  3
AcDbVariableDictionary
350
1D1
  0
DICTIONARY
  5
1B4
330
A
100
AcDbDictionary
280
     1
281
     1
  3
ACAD_LAYERFILTERS
360
7795
  3
ACLYDICTIONARY
360
7794
  0
DICTIONARY
  5
D13
330
2
100
AcDbDictionary
280
     1
281
     1
  3
ACAD_SORTENTS
360
D14
  0
DICTIONARY
  5
144
102
{ACAD_REACTORS
330
1A
102
}
330
1A
100
AcDbDictionary
281
     1
  0
DICTIONARY
  5
18
102
{ACAD_REACTORS
330
1A
102
}
330
1A
100
AcDbDictionary
281
     1
  3
*A1
350
E0D
  3
*A10
350
31DF
  3
*A11
350
32E4
  3
*A12
350
2C6B
  3
*A13
350
3349
  3
*A14
350
24D6
  3
*A15
350
2037
  3
*A16
350
3A25
  3
*A17
350
3467
  3
*A18
350
422E
  3
*A19
350
4407
  3
*A2
350
265A
  3
*A20
350
4516
  3
*A21
350
307D
  3
*A22
350
FF8
  3
*A23
350
2D78
  3
*A24
350
136A
  3
*A25
350
1555
  3
*A26
350
2A17
  3
*A27
350
17BC
  3
*A28
350
34BB
  3
*A29
350
45E5
  3
*A3
350
26DD
  3
*A30
350
46A5
  3
*A31
350
4781
  3
*A32
350
48BA
  3
*A33
350
4A53
  3
*A34
350
1A98
  3
*A35
350
3695
  3
*A36
350
4B49
  3
*A37
350
4C3E
  3
*A38
350
4CEC
  3
*A39
350
4D76
  3
*A4
350
3988
  3
*A40
350
3C81
  3
*A41
350
4E16
  3
*A42
350
4EE5
  3
*A43
350
4F64
  3
*A44
350
5011
  3
*A45
350
22C8
  3
*A46
350
519C
  3
*A47
350
52B0
  3
*A48
350
36C9
  3
*A49
350
5396
  3
*A5
350
275E
  3
*A50
350
5464
  3
*A51
350
556A
  3
*A52
350
213E
  3
*A53
350
57BF
  3
*A54
350
58EE
  3
*A55
350
382B
  3
*A56
350
1EFE
  3
*A57
350
2573
  3
*A58
350
3878
  3
*A59
350
5D92
  3
*A6
350
2905
  3
*A60
350
3E5C
  3
*A61
350
3181
  3
*A62
350
2B84
  3
*A63
350
5F6F
  3
*A64
350
626B
  3
*A65
350
6417
  3
*A66
350
668C
  3
*A67
350
241A
  3
*A68
350
68C5
  3
*A69
350
6A30
  3
*A7
350
2EE1
  3
*A70
350
6A98
  3
*A71
350
6C32
  3
*A72
350
6D00
  3
*A73
350
6DE3
  3
*A74
350
6EB7
  3
*A75
350
706D
  3
*A76
350
7170
  3
*A77
350
35A5
  3
*A78
350
401B
  3
*A8
350
1CBC
  3
*A80
350
7453
  3
*A84
350
76E3
  3
*A85
350
7793
  3
*A88
350
7ADA
  3
*A89
350
7D2B
  3
*A9
350
2F81
  3
*A90
350
7E5C
  3
*A93
350
8108
  3
*A94
350
82F6
  0
DICTIONARY
  5
58
102
{ACAD_REACTORS
330
1A
102
}
330
1A
100
AcDbDictionary
281
     1
  3
Model
350
5A
  3
ﾚｲｱｳﾄ1
350
5B
  0
DICTIONARY
  5
143
102
{ACAD_REACTORS
330
1A
102
}
330
1A
100
AcDbDictionary
281
     1
  0
DICTIONARY
  5
19
102
{ACAD_REACTORS
330
1A
102
}
330
1A
100
AcDbDictionary
281
     1
  3
STANDARD
350
1D
  0
DICTIONARY
  5
59
102
{ACAD_REACTORS
330
1A
102
}
330
1A
100
AcDbDictionary
281
     1
  0
ACDBDICTIONARYWDFLT
  5
56
102
{ACAD_REACTORS
330
1A
102
}
330
1A
100
AcDbDictionary
281
     1
  3
Normal
350
57
100
AcDbDictionaryWithDefault
340
57
  0
DICTIONARY
  5
145
102
{ACAD_REACTORS
330
1A
102
}
330
1A
100
AcDbDictionary
281
     1
  3
Standard
350
146
  0
DICTIONARY
  5
82FE
102
{ACAD_REACTORS
330
1A
102
}
330
1A
100
AcDbDictionary
281
     1
  0
DICTIONARY
  5
1D1
102
{ACAD_REACTORS
330
1A
102
}
330
1A
100
AcDbDictionary
281
     1
  3
CTABLESTYLE
350
1D2
  3
DIMASSOC
350
D03
  3
PROJECTNAME
350
D04
  0
DICTIONARY
  5
7795
102
{ACAD_REACTORS
330
1B4
102
}
330
1B4
100
AcDbDictionary
281
     1
  0
DICTIONARY
  5
7794
102
{ACAD_REACTORS
330
1B4
102
}
330
1B4
100
AcDbDictionary
281
     1
1001
ACAD
1000
<All
  0
SORTENTSTABLE
  5
D14
102
{ACAD_REACTORS
330
D13
102
}
330
D13
100
AcDbSortentsTable
330
2
331
827E
  5
827E
331
8286
  5
8286
331
828E
  5
828E
331
8296
  5
8297
331
20
  5
20
331
8179
  5
8179
331
81FF
  5
81FF
331
825F
  5
825F
331
8267
  5
8267
331
826F
  5
826F
331
8277
  5
8277
331
8189
  5
8189
331
8207
  5
8207
331
8191
  5
8191
331
824E
  5
824E
331
820F
  5
8210
331
8256
  5
8256
331
8217
  5
8217
331
821F
  5
821F
331
827F
  5
827F
331
8287
  5
8287
331
8297
  5
8298
331
21
  5
21
331
8172
  5
8172
331
81C1
  5
81C1
331
8258
  5
8258
331
8260
  5
8260
331
8268
  5
8268
331
8270
  5
8270
331
8200
  5
8200
331
8208
  5
8209
331
8192
  5
8192
331
824F
  5
824F
331
8210
  5
820F
331
8257
  5
8257
331
8218
  5
8218
331
8278
  5
8278
331
8280
  5
8280
331
8288
  5
8288
331
8220
  5
8220
331
8173
  5
8173
331
81BA
  5
81BA
331
817B
  5
817B
331
81F9
  5
81F9
331
8183
  5
8183
331
8298
  5
8299
331
8259
  5
8259
331
8261
  5
8261
331
8269
  5
8269
331
8271
  5
8271
331
8201
  5
8201
331
8193
  5
8193
331
8250
  5
8250
331
8211
  5
8211
331
8219
  5
8219
331
8279
  5
8279
331
8281
  5
8281
331
8289
  5
8289
331
23
  5
23
331
8221
  5
8221
331
81BB
  5
81BB
331
817C
  5
817C
331
8184
  5
8184
331
8299
  5
8294
331
825A
  5
825A
331
8262
  5
8262
331
826A
  5
826A
331
8272
  5
8272
331
8202
  5
8202
331
820A
  5
820A
331
8194
  5
8194
331
8251
  5
8251
331
8212
  5
8212
331
821A
  5
821A
331
827A
  5
827A
331
8282
  5
8282
331
828A
  5
828A
331
81F3
  5
81F3
331
817D
  5
817D
331
81FB
  5
81FB
331
8185
  5
8185
331
829A
  5
829A
331
825B
  5
825B
331
8263
  5
8263
331
826B
  5
826B
331
8273
  5
8273
331
8203
  5
8203
331
820B
  5
820B
331
8252
  5
8252
331
8213
  5
8213
331
821B
  5
821B
331
827B
  5
827B
331
8283
  5
8283
331
828B
  5
828B
331
8293
  5
8293
331
8176
  5
8176
331
81F4
  5
81F4
331
81BD
  5
81BD
331
81FC
  5
81FC
331
8186
  5
8186
331
825C
  5
825C
331
8264
  5
8264
331
826C
  5
826C
331
8274
  5
8274
331
8204
  5
8204
331
8253
  5
8253
331
8214
  5
8214
331
819E
  5
819E
331
821C
  5
821C
331
827C
  5
827C
331
8284
  5
8284
331
828C
  5
828C
331
8294
  5
8295
331
81F5
  5
81F5
331
81FD
  5
81FD
331
825D
  5
825D
331
8265
  5
8265
331
826D
  5
826D
331
8275
  5
8275
331
1F
  5
1F
331
8205
  5
8206
331
81CE
  5
81CE
331
820D
  5
820D
331
8254
  5
8254
331
8215
  5
8215
331
819F
  5
819F
331
821D
  5
821D
331
827D
  5
827D
331
8285
  5
8285
331
828D
  5
828D
331
8295
  5
8296
331
8170
  5
8170
331
81B7
  5
81B7
331
8178
  5
8178
331
81F6
  5
81F6
331
81FE
  5
81FE
331
825E
  5
825E
331
8266
  5
8266
331
826E
  5
826E
331
8276
  5
8276
331
8206
  5
8205
331
824D
  5
824D
331
820E
  5
820E
331
8255
  5
8255
331
8216
  5
8216
331
81A0
  5
81A0
331
821E
  5
821E
  0
GROUP
  5
E0D
102
{ACAD_REACTORS
330
18
102
}
330
18
100
AcDbGroup
300

 70
     1
 71
     1
  0
GROUP
  5
31DF
102
{ACAD_REACTORS
330
18
102
}
330
18
100
AcDbGroup
300

 70
     1
 71
     1
  0
GROUP
  5
32E4
102
{ACAD_REACTORS
330
18
102
}
330
18
100
AcDbGroup
300

 70
     1
 71
     1
  0
GROUP
  5
2C6B
102
{ACAD_REACTORS
330
18
102
}
330
18
100
AcDbGroup
300

 70
     1
 71
     1
  0
GROUP
  5
3349
102
{ACAD_REACTORS
330
18
102
}
330
18
100
AcDbGroup
300

 70
     1
 71
     1
  0
GROUP
  5
24D6
102
{ACAD_REACTORS
330
18
102
}
330
18
100
AcDbGroup
300

 70
     1
 71
     1
  0
GROUP
  5
2037
102
{ACAD_REACTORS
330
18
102
}
330
18
100
AcDbGroup
300

 70
     1
 71
     1
  0
GROUP
  5
3A25
102
{ACAD_REACTORS
330
18
102
}
330
18
100
AcDbGroup
300

 70
     1
 71
     1
  0
GROUP
  5
3467
102
{ACAD_REACTORS
330
18
102
}
330
18
100
AcDbGroup
300

 70
     1
 71
     1
  0
GROUP
  5
422E
102
{ACAD_REACTORS
330
18
102
}
330
18
100
AcDbGroup
300

 70
     1
 71
     1
  0
GROUP
  5
4407
102
{ACAD_REACTORS
330
18
102
}
330
18
100
AcDbGroup
300

 70
     1
 71
     1
  0
GROUP
  5
265A
102
{ACAD_REACTORS
330
18
102
}
330
18
100
AcDbGroup
300

 70
     1
 71
     1
  0
GROUP
  5
4516
102
{ACAD_REACTORS
330
18
102
}
330
18
100
AcDbGroup
300

 70
     1
 71
     1
  0
GROUP
  5
307D
102
{ACAD_REACTORS
330
18
102
}
330
18
100
AcDbGroup
300

 70
     1
 71
     1
  0
GROUP
  5
FF8
102
{ACAD_REACTORS
330
18
102
}
330
18
100
AcDbGroup
300

 70
     1
 71
     1
  0
GROUP
  5
2D78
102
{ACAD_REACTORS
330
18
102
}
330
18
100
AcDbGroup
300

 70
     1
 71
     1
  0
GROUP
  5
136A
102
{ACAD_REACTORS
330
18
102
}
330
18
100
AcDbGroup
300

 70
     1
 71
     1
  0
GROUP
  5
1555
102
{ACAD_REACTORS
330
18
102
}
330
18
100
AcDbGroup
300

 70
     1
 71
     1
  0
GROUP
  5
2A17
102
{ACAD_REACTORS
330
18
102
}
330
18
100
AcDbGroup
300

 70
     1
 71
     1
  0
GROUP
  5
17BC
102
{ACAD_REACTORS
330
18
102
}
330
18
100
AcDbGroup
300

 70
     1
 71
     1
  0
GROUP
  5
34BB
102
{ACAD_REACTORS
330
18
102
}
330
18
100
AcDbGroup
300

 70
     1
 71
     1
  0
GROUP
  5
45E5
102
{ACAD_REACTORS
330
18
102
}
330
18
100
AcDbGroup
300

 70
     1
 71
     1
  0
GROUP
  5
26DD
102
{ACAD_REACTORS
330
18
102
}
330
18
100
AcDbGroup
300

 70
     1
 71
     1
  0
GROUP
  5
46A5
102
{ACAD_REACTORS
330
18
102
}
330
18
100
AcDbGroup
300

 70
     1
 71
     1
  0
GROUP
  5
4781
102
{ACAD_REACTORS
330
18
102
}
330
18
100
AcDbGroup
300

 70
     1
 71
     1
  0
GROUP
  5
48BA
102
{ACAD_REACTORS
330
18
102
}
330
18
100
AcDbGroup
300

 70
     1
 71
     1
  0
GROUP
  5
4A53
102
{ACAD_REACTORS
330
18
102
}
330
18
100
AcDbGroup
300

 70
     1
 71
     1
  0
GROUP
  5
1A98
102
{ACAD_REACTORS
330
18
102
}
330
18
100
AcDbGroup
300

 70
     1
 71
     1
  0
GROUP
  5
3695
102
{ACAD_REACTORS
330
18
102
}
330
18
100
AcDbGroup
300

 70
     1
 71
     1
  0
GROUP
  5
4B49
102
{ACAD_REACTORS
330
18
102
}
330
18
100
AcDbGroup
300

 70
     1
 71
     1
  0
GROUP
  5
4C3E
102
{ACAD_REACTORS
330
18
102
}
330
18
100
AcDbGroup
300

 70
     1
 71
     1
  0
GROUP
  5
4CEC
102
{ACAD_REACTORS
330
18
102
}
330
18
100
AcDbGroup
300

 70
     1
 71
     1
  0
GROUP
  5
4D76
102
{ACAD_REACTORS
330
18
102
}
330
18
100
AcDbGroup
300

 70
     1
 71
     1
  0
GROUP
  5
3988
102
{ACAD_REACTORS
330
18
102
}
330
18
100
AcDbGroup
300

 70
     1
 71
     1
  0
GROUP
  5
3C81
102
{ACAD_REACTORS
330
18
102
}
330
18
100
AcDbGroup
300

 70
     1
 71
     1
  0
GROUP
  5
4E16
102
{ACAD_REACTORS
330
18
102
}
330
18
100
AcDbGroup
300

 70
     1
 71
     1
  0
GROUP
  5
4EE5
102
{ACAD_REACTORS
330
18
102
}
330
18
100
AcDbGroup
300

 70
     1
 71
     1
  0
GROUP
  5
4F64
102
{ACAD_REACTORS
330
18
102
}
330
18
100
AcDbGroup
300

 70
     1
 71
     1
  0
GROUP
  5
5011
102
{ACAD_REACTORS
330
18
102
}
330
18
100
AcDbGroup
300

 70
     1
 71
     1
  0
GROUP
  5
22C8
102
{ACAD_REACTORS
330
18
102
}
330
18
100
AcDbGroup
300

 70
     1
 71
     1
  0
GROUP
  5
519C
102
{ACAD_REACTORS
330
18
102
}
330
18
100
AcDbGroup
300

 70
     1
 71
     1
  0
GROUP
  5
52B0
102
{ACAD_REACTORS
330
18
102
}
330
18
100
AcDbGroup
300

 70
     1
 71
     1
  0
GROUP
  5
36C9
102
{ACAD_REACTORS
330
18
102
}
330
18
100
AcDbGroup
300

 70
     1
 71
     1
  0
GROUP
  5
5396
102
{ACAD_REACTORS
330
18
102
}
330
18
100
AcDbGroup
300

 70
     1
 71
     1
  0
GROUP
  5
275E
102
{ACAD_REACTORS
330
18
102
}
330
18
100
AcDbGroup
300

 70
     1
 71
     1
  0
GROUP
  5
5464
102
{ACAD_REACTORS
330
18
102
}
330
18
100
AcDbGroup
300

 70
     1
 71
     1
  0
GROUP
  5
556A
102
{ACAD_REACTORS
330
18
102
}
330
18
100
AcDbGroup
300

 70
     1
 71
     1
  0
GROUP
  5
213E
102
{ACAD_REACTORS
330
18
102
}
330
18
100
AcDbGroup
300

 70
     1
 71
     1
  0
GROUP
  5
57BF
102
{ACAD_REACTORS
330
18
102
}
330
18
100
AcDbGroup
300

 70
     1
 71
     1
  0
GROUP
  5
58EE
102
{ACAD_REACTORS
330
18
102
}
330
18
100
AcDbGroup
300

 70
     1
 71
     1
  0
GROUP
  5
382B
102
{ACAD_REACTORS
330
18
102
}
330
18
100
AcDbGroup
300

 70
     1
 71
     1
  0
GROUP
  5
1EFE
102
{ACAD_REACTORS
330
18
102
}
330
18
100
AcDbGroup
300

 70
     1
 71
     1
  0
GROUP
  5
2573
102
{ACAD_REACTORS
330
18
102
}
330
18
100
AcDbGroup
300

 70
     1
 71
     1
  0
GROUP
  5
3878
102
{ACAD_REACTORS
330
18
102
}
330
18
100
AcDbGroup
300

 70
     1
 71
     1
  0
GROUP
  5
5D92
102
{ACAD_REACTORS
330
18
102
}
330
18
100
AcDbGroup
300

 70
     1
 71
     1
  0
GROUP
  5
2905
102
{ACAD_REACTORS
330
18
102
}
330
18
100
AcDbGroup
300

 70
     1
 71
     1
  0
GROUP
  5
3E5C
102
{ACAD_REACTORS
330
18
102
}
330
18
100
AcDbGroup
300

 70
     1
 71
     1
  0
GROUP
  5
3181
102
{ACAD_REACTORS
330
18
102
}
330
18
100
AcDbGroup
300

 70
     1
 71
     1
  0
GROUP
  5
2B84
102
{ACAD_REACTORS
330
18
102
}
330
18
100
AcDbGroup
300

 70
     1
 71
     1
  0
GROUP
  5
5F6F
102
{ACAD_REACTORS
330
18
102
}
330
18
100
AcDbGroup
300

 70
     1
 71
     1
  0
GROUP
  5
626B
102
{ACAD_REACTORS
330
18
102
}
330
18
100
AcDbGroup
300

 70
     1
 71
     1
  0
GROUP
  5
6417
102
{ACAD_REACTORS
330
18
102
}
330
18
100
AcDbGroup
300

 70
     1
 71
     1
  0
GROUP
  5
668C
102
{ACAD_REACTORS
330
18
102
}
330
18
100
AcDbGroup
300

 70
     1
 71
     1
  0
GROUP
  5
241A
102
{ACAD_REACTORS
330
18
102
}
330
18
100
AcDbGroup
300

 70
     1
 71
     1
  0
GROUP
  5
68C5
102
{ACAD_REACTORS
330
18
102
}
330
18
100
AcDbGroup
300

 70
     1
 71
     1
  0
GROUP
  5
6A30
102
{ACAD_REACTORS
330
18
102
}
330
18
100
AcDbGroup
300

 70
     1
 71
     1
  0
GROUP
  5
2EE1
102
{ACAD_REACTORS
330
18
102
}
330
18
100
AcDbGroup
300

 70
     1
 71
     1
  0
GROUP
  5
6A98
102
{ACAD_REACTORS
330
18
102
}
330
18
100
AcDbGroup
300

 70
     1
 71
     1
  0
GROUP
  5
6C32
102
{ACAD_REACTORS
330
18
102
}
330
18
100
AcDbGroup
300

 70
     1
 71
     1
  0
GROUP
  5
6D00
102
{ACAD_REACTORS
330
18
102
}
330
18
100
AcDbGroup
300

 70
     1
 71
     1
  0
GROUP
  5
6DE3
102
{ACAD_REACTORS
330
18
102
}
330
18
100
AcDbGroup
300

 70
     1
 71
     1
  0
GROUP
  5
6EB7
102
{ACAD_REACTORS
330
18
102
}
330
18
100
AcDbGroup
300

 70
     1
 71
     1
  0
GROUP
  5
706D
102
{ACAD_REACTORS
330
18
102
}
330
18
100
AcDbGroup
300

 70
     1
 71
     1
  0
GROUP
  5
7170
102
{ACAD_REACTORS
330
18
102
}
330
18
100
AcDbGroup
300

 70
     1
 71
     1
  0
GROUP
  5
35A5
102
{ACAD_REACTORS
330
18
102
}
330
18
100
AcDbGroup
300

 70
     1
 71
     1
  0
GROUP
  5
401B
102
{ACAD_REACTORS
330
18
102
}
330
18
100
AcDbGroup
300

 70
     1
 71
     1
  0
GROUP
  5
1CBC
102
{ACAD_REACTORS
330
18
102
}
330
18
100
AcDbGroup
300

 70
     1
 71
     1
  0
GROUP
  5
7453
102
{ACAD_REACTORS
330
18
102
}
330
18
100
AcDbGroup
300

 70
     1
 71
     1
  0
GROUP
  5
76E3
102
{ACAD_REACTORS
330
18
102
}
330
18
100
AcDbGroup
300

 70
     1
 71
     1
  0
GROUP
  5
7793
102
{ACAD_REACTORS
330
18
102
}
330
18
100
AcDbGroup
300

 70
     1
 71
     1
  0
GROUP
  5
7ADA
102
{ACAD_REACTORS
330
18
102
}
330
18
100
AcDbGroup
300

 70
     1
 71
     1
  0
GROUP
  5
7D2B
102
{ACAD_REACTORS
330
18
102
}
330
18
100
AcDbGroup
300

 70
     1
 71
     1
  0
GROUP
  5
2F81
102
{ACAD_REACTORS
330
18
102
}
330
18
100
AcDbGroup
300

 70
     1
 71
     1
  0
GROUP
  5
7E5C
102
{ACAD_REACTORS
330
18
102
}
330
18
100
AcDbGroup
300

 70
     1
 71
     1
  0
GROUP
  5
8108
102
{ACAD_REACTORS
330
18
102
}
330
18
100
AcDbGroup
300

 70
     1
 71
     1
  0
GROUP
  5
82F6
102
{ACAD_REACTORS
330
18
102
}
330
18
100
AcDbGroup
300

 70
     1
 71
     1
340
829A
340
8298
340
8297
340
8296
340
8295
340
8294
340
8299
340
8293
340
828E
340
828D
340
828C
340
828B
340
828A
340
8289
340
8288
340
8287
340
8286
340
8285
340
8284
340
8283
340
8282
340
8281
340
8280
340
827F
340
827E
340
827D
340
827C
340
827B
340
827A
340
8279
340
8278
340
8277
340
8276
340
8275
340
8274
340
8273
340
8272
340
8271
340
8270
340
826F
340
826E
340
826D
340
826C
340
826B
340
826A
340
8269
340
8268
340
8267
340
8266
340
8265
340
8264
340
8263
340
8262
340
8261
340
8260
340
825F
340
825E
340
825D
340
825C
340
825B
340
825A
340
8259
340
8258
340
8257
340
8256
340
8255
340
8254
340
8253
340
8252
340
8251
340
8250
340
824F
340
824E
340
824D
340
8221
340
8220
340
821F
340
821E
340
821D
340
821C
340
821B
340
821A
340
8219
340
8218
340
8217
340
8216
340
8215
340
8214
340
8213
340
8212
340
8211
340
820F
340
8210
340
820E
340
820D
340
820B
340
820A
340
8208
340
8207
340
8205
340
8206
340
8204
340
8203
340
8202
340
8201
340
8200
340
81FF
340
81FE
340
81FD
340
81FC
340
81FB
340
81F9
340
81F6
340
81F5
340
81F4
340
81F3
340
81BD
340
81BB
340
81BA
340
81B7
340
81A0
340
819F
340
819E
340
8194
340
8193
340
8192
340
8191
340
8189
340
8186
340
8185
340
8184
340
8183
340
817D
340
817C
340
817B
340
8179
340
8178
340
8176
340
8173
340
8172
340
8170
  0
LAYOUT
  5
5A
102
{ACAD_XDICTIONARY
360
82FF
102
}
102
{ACAD_REACTORS
330
58
102
}
330
58
100
AcDbPlotSettings
  1

  2
なし
  4

  6

 40
0.0
 41
0.0
 42
0.0
 43
0.0
 44
0.0
 45
0.0
 46
0.0
 47
0.0
 48
0.0
 49
0.0
140
0.0
141
0.0
142
1.0
143
1.0
 70
  1712
 72
     0
 73
     0
 74
     0
  7
monochrome.ctb
 75
     0
147
1.0
148
0.0
149
0.0
100
AcDbLayout
  1
Model
 70
     1
 71
     0
 10
0.0
 20
0.0
 11
12.0
 21
9.0
 12
0.0
 22
0.0
 32
0.0
 14
0.0
 24
0.0
 34
0.0
 15
0.0
 25
0.0
 35
0.0
146
0.0
 13
0.0
 23
0.0
 33
0.0
 16
1.0
 26
0.0
 36
0.0
 17
0.0
 27
1.0
 37
0.0
 76
     0
330
2
  0
LAYOUT
  5
5B
102
{ACAD_XDICTIONARY
360
8301
102
}
102
{ACAD_REACTORS
330
58
102
}
330
58
100
AcDbPlotSettings
  1

  2
なし
  4

  6

 40
0.0
 41
0.0
 42
0.0
 43
0.0
 44
0.0
 45
0.0
 46
0.0
 47
0.0
 48
0.0
 49
0.0
140
0.0
141
0.0
142
1.0
143
1.0
 70
   688
 72
     0
 73
     0
 74
     5
  7
monochrome.ctb
 75
    16
147
1.0
148
0.0
149
0.0
100
AcDbLayout
  1
ﾚｲｱｳﾄ1
 70
     1
 71
     1
 10
0.0
 20
0.0
 11
12.0
 21
9.0
 12
0.0
 22
0.0
 32
0.0
 14
1.000000000000000E+20
 24
1.000000000000000E+20
 34
1.000000000000000E+20
 15
-1.000000000000000E+20
 25
-1.000000000000000E+20
 35
-1.000000000000000E+20
146
0.0
 13
0.0
 23
0.0
 33
0.0
 16
1.0
 26
0.0
 36
0.0
 17
0.0
 27
1.0
 37
0.0
 76
     0
330
7
  0
MLINESTYLE
  5
1D
102
{ACAD_REACTORS
330
19
102
}
330
19
100
AcDbMlineStyle
  2
STANDARD
 70
     0
  3

 62
   256
 51
90.0
 52
90.0
 71
     2
 49
0.5
 62
   256
  6
BYLAYER
 49
-0.5
 62
   256
  6
BYLAYER
  0
ACDBPLACEHOLDER
  5
57
102
{ACAD_REACTORS
330
56
102
}
330
56
  0
TABLESTYLE
  5
146
102
{ACAD_REACTORS
330
145
102
}
330
145
100
AcDbTableStyle
  3
Standard
 70
     0
 71
     0
 40
0.06
 41
0.06
280
     0
281
     0
  7
STANDARD
140
0.18
170
     2
 62
     0
 63
     7
283
     0
274
    -2
284
     1
 64
     0
275
    -2
285
     1
 65
     0
276
    -2
286
     1
 66
     0
277
    -2
287
     1
 67
     0
278
    -2
288
     1
 68
     0
279
    -2
289
     1
 69
     0
  7
STANDARD
140
0.25
170
     5
 62
     0
 63
     7
283
     0
274
    -2
284
     1
 64
     0
275
    -2
285
     1
 65
     0
276
    -2
286
     1
 66
     0
277
    -2
287
     1
 67
     0
278
    -2
288
     1
 68
     0
279
    -2
289
     1
 69
     0
  7
STANDARD
140
0.18
170
     5
 62
     0
 63
     7
283
     0
274
    -2
284
     1
 64
     0
275
    -2
285
     1
 65
     0
276
    -2
286
     1
 66
     0
277
    -2
287
     1
 67
     0
278
    -2
288
     1
 68
     0
279
    -2
289
     1
 69
     0
  0
DICTIONARYVAR
  5
1D2
102
{ACAD_REACTORS
330
1D1
102
}
330
1D1
100
DictionaryVariables
280
     0
  1
STANDARD
  0
DICTIONARYVAR
  5
D03
102
{ACAD_REACTORS
330
1D1
102
}
330
1D1
100
DictionaryVariables
280
     0
  1
1
  0
DICTIONARYVAR
  5
D04
102
{ACAD_REACTORS
330
1D1
102
}
330
1D1
100
DictionaryVariables
280
     0
  1

  0
DICTIONARY
  5
82FF
330
5A
100
AcDbDictionary
280
     1
281
     1
  3
ACAD_XREC_ROUNDTRIP
360
8300
  0
DICTIONARY
  5
8301
330
5B
100
AcDbDictionary
280
     1
281
     1
  3
ACAD_XREC_ROUNDTRIP
360
8302
  0
XRECORD
  5
8300
102
{ACAD_REACTORS
330
82FF
102
}
330
82FF
100
AcDbXrecord
280
     1
102
SHADEPLOT
 70
     0
102
SHADEPLOTRESLEVEL
 70
     2
102
SHADEPLOTCUSTOMDPI
 70
   300
  0
XRECORD
  5
8302
102
{ACAD_REACTORS
330
8301
102
}
330
8301
100
AcDbXrecord
280
     1
102
SHADEPLOT
 70
     0
102
SHADEPLOTRESLEVEL
 70
     2
102
SHADEPLOTCUSTOMDPI
 70
   300
  0
ENDSEC
  0
EOF
