  0
SECTION
  2
HEADER
  9
$ACADVER
  1
AC1015
  9
$ACADMAINTVER
 70
    20
  9
$DWGCODEPAGE
  3
ANSI_932
  9
$INSBASE
 10
922.019522
 20
-675.4306699999999
 30
0.0
  9
$EXTMIN
 10
-70.48553513431989
 20
-0.0167891672346059
 30
-0.0000000000000053
  9
$EXTMAX
 10
170.8099015013585
 20
148.1568868693314
 30
0.0000000000000099
  9
$LIMMIN
 10
0.0
 20
0.0
  9
$LIMMAX
 10
420.0
 20
297.0
  9
$ORTHOMODE
 70
     1
  9
$REGENMODE
 70
     1
  9
$FILLMODE
 70
     1
  9
$QTEXTMODE
 70
     0
  9
$MIRRTEXT
 70
     1
  9
$LTSCALE
 40
1.0
  9
$ATTMODE
 70
     1
  9
$TEXTSIZE
 40
30.0
  9
$TRACEWID
 40
0.05
  9
$TEXTSTYLE
  7
SUNPOU
  9
$CLAYER
  8
0
  9
$CELTYPE
  6
BYLAYER
  9
$CECOLOR
 62
   256
  9
$CELTSCALE
 40
1.0
  9
$DISPSILH
 70
     0
  9
$DIMSCALE
 40
1.0
  9
$DIMASZ
 40
2.0
  9
$DIMEXO
 40
10.0
  9
$DIMDLI
 40
0.38
  9
$DIMRND
 40
0.0
  9
$DIMDLE
 40
0.0
  9
$DIMEXE
 40
0.0
  9
$DIMTP
 40
0.0
  9
$DIMTM
 40
0.0
  9
$DIMTXT
 40
10.0
  9
$DIMCEN
 40
0.0
  9
$DIMTSZ
 40
0.0
  9
$DIMTOL
 70
     0
  9
$DIMLIM
 70
     0
  9
$DIMTIH
 70
     0
  9
$DIMTOH
 70
     0
  9
$DIMSE1
 70
     0
  9
$DIMSE2
 70
     0
  9
$DIMTAD
 70
     1
  9
$DIMZIN
 70
     0
  9
$DIMBLK
  1
Dot
  9
$DIMASO
 70
     1
  9
$DIMSHO
 70
     1
  9
$DIMPOST
  1

  9
$DIMAPOST
  1

  9
$DIMALT
 70
     0
  9
$DIMALTD
 70
     2
  9
$DIMALTF
 40
25.4
  9
$DIMLFAC
 40
1.0
  9
$DIMTOFL
 70
     0
  9
$DIMTVP
 40
0.0
  9
$DIMTIX
 70
     0
  9
$DIMSOXD
 70
     0
  9
$DIMSAH
 70
     0
  9
$DIMBLK1
  1

  9
$DIMBLK2
  1

  9
$DIMSTYLE
  2
STANDARD
  9
$DIMCLRD
 70
    60
  9
$DIMCLRE
 70
    70
  9
$DIMCLRT
 70
    60
  9
$DIMTFAC
 40
0.064286
  9
$DIMGAP
 40
3.0
  9
$DIMJUST
 70
     0
  9
$DIMSD1
 70
     0
  9
$DIMSD2
 70
     0
  9
$DIMTOLJ
 70
     1
  9
$DIMTZIN
 70
     0
  9
$DIMALTZ
 70
     0
  9
$DIMALTTZ
 70
     0
  9
$DIMUPT
 70
     0
  9
$DIMDEC
 70
     0
  9
$DIMTDEC
 70
     0
  9
$DIMALTU
 70
     2
  9
$DIMALTTD
 70
     2
  9
$DIMTXSTY
  7
SUNPOU
  9
$DIMAUNIT
 70
     0
  9
$DIMADEC
 70
     0
  9
$DIMALTRND
 40
0.0
  9
$DIMAZIN
 70
     0
  9
$DIMDSEP
 70
    46
  9
$DIMATFIT
 70
     3
  9
$DIMFRAC
 70
     0
  9
$DIMLDRBLK
  1

  9
$DIMLUNIT
 70
     2
  9
$DIMLWD
 70
    -2
  9
$DIMLWE
 70
    -2
  9
$DIMTMOVE
 70
     0
  9
$LUNITS
 70
     2
  9
$LUPREC
 70
     5
  9
$SKETCHINC
 40
0.1
  9
$FILLETRAD
 40
0.0
  9
$AUNITS
 70
     0
  9
$AUPREC
 70
     0
  9
$MENU
  1
acad
  9
$ELEVATION
 40
0.0
  9
$PELEVATION
 40
0.0
  9
$THICKNESS
 40
0.0
  9
$LIMCHECK
 70
     0
  9
$CHAMFERA
 40
0.0
  9
$CHAMFERB
 40
0.0
  9
$CHAMFERC
 40
0.0
  9
$CHAMFERD
 40
0.0
  9
$SKPOLY
 70
     0
  9
$TDCREATE
 40
2450623.654673033
  9
$TDUCREATE
 40
2450623.279673032
  9
$TDUPDATE
 40
2453858.607899051
  9
$TDUUPDATE
 40
2453858.232899051
  9
$TDINDWG
 40
0.1741690046
  9
$TDUSRTIMER
 40
0.1741688310
  9
$USRTIMER
 70
     1
  9
$ANGBASE
 50
0.0
  9
$ANGDIR
 70
     0
  9
$PDMODE
 70
     0
  9
$PDSIZE
 40
0.0
  9
$PLINEWID
 40
0.0
  9
$SPLFRAME
 70
     0
  9
$SPLINETYPE
 70
     6
  9
$SPLINESEGS
 70
     8
  9
$HANDSEED
  5
4597
  9
$SURFTAB1
 70
     6
  9
$SURFTAB2
 70
     6
  9
$SURFTYPE
 70
     6
  9
$SURFU
 70
     6
  9
$SURFV
 70
     6
  9
$UCSBASE
  2

  9
$UCSNAME
  2

  9
$UCSORG
 10
0.0
 20
0.0
 30
0.0
  9
$UCSXDIR
 10
1.0
 20
0.0
 30
0.0
  9
$UCSYDIR
 10
0.0
 20
1.0
 30
0.0
  9
$UCSORTHOREF
  2

  9
$UCSORTHOVIEW
 70
     0
  9
$UCSORGTOP
 10
0.0
 20
0.0
 30
0.0
  9
$UCSORGBOTTOM
 10
0.0
 20
0.0
 30
0.0
  9
$UCSORGLEFT
 10
0.0
 20
0.0
 30
0.0
  9
$UCSORGRIGHT
 10
0.0
 20
0.0
 30
0.0
  9
$UCSORGFRONT
 10
0.0
 20
0.0
 30
0.0
  9
$UCSORGBACK
 10
0.0
 20
0.0
 30
0.0
  9
$PUCSBASE
  2

  9
$PUCSNAME
  2

  9
$PUCSORG
 10
0.0
 20
0.0
 30
0.0
  9
$PUCSXDIR
 10
1.0
 20
0.0
 30
0.0
  9
$PUCSYDIR
 10
0.0
 20
1.0
 30
0.0
  9
$PUCSORTHOREF
  2

  9
$PUCSORTHOVIEW
 70
     0
  9
$PUCSORGTOP
 10
0.0
 20
0.0
 30
0.0
  9
$PUCSORGBOTTOM
 10
0.0
 20
0.0
 30
0.0
  9
$PUCSORGLEFT
 10
0.0
 20
0.0
 30
0.0
  9
$PUCSORGRIGHT
 10
0.0
 20
0.0
 30
0.0
  9
$PUCSORGFRONT
 10
0.0
 20
0.0
 30
0.0
  9
$PUCSORGBACK
 10
0.0
 20
0.0
 30
0.0
  9
$USERI1
 70
     0
  9
$USERI2
 70
     0
  9
$USERI3
 70
     0
  9
$USERI4
 70
     0
  9
$USERI5
 70
     0
  9
$USERR1
 40
0.0
  9
$USERR2
 40
0.0
  9
$USERR3
 40
0.0
  9
$USERR4
 40
0.0
  9
$USERR5
 40
0.0
  9
$WORLDVIEW
 70
     1
  9
$SHADEDGE
 70
     3
  9
$SHADEDIF
 70
    70
  9
$TILEMODE
 70
     1
  9
$MAXACTVP
 70
    16
  9
$PINSBASE
 10
0.0
 20
0.0
 30
0.0
  9
$PLIMCHECK
 70
     0
  9
$PEXTMIN
 10
1.000000000000000E+20
 20
1.000000000000000E+20
 30
1.000000000000000E+20
  9
$PEXTMAX
 10
-1.000000000000000E+20
 20
-1.000000000000000E+20
 30
-1.000000000000000E+20
  9
$PLIMMIN
 10
0.0
 20
0.0
  9
$PLIMMAX
 10
12.0
 20
9.0
  9
$UNITMODE
 70
     0
  9
$VISRETAIN
 70
     0
  9
$PLINEGEN
 70
     0
  9
$PSLTSCALE
 70
     1
  9
$TREEDEPTH
 70
  3020
  9
$CMLSTYLE
  2
STANDARD
  9
$CMLJUST
 70
     0
  9
$CMLSCALE
 40
1.0
  9
$PROXYGRAPHICS
 70
     1
  9
$MEASUREMENT
 70
     0
  9
$CELWEIGHT
370
    -1
  9
$ENDCAPS
280
     0
  9
$JOINSTYLE
280
     0
  9
$LWDISPLAY
290
     0
  9
$INSUNITS
 70
     0
  9
$HYPERLINKBASE
  1

  9
$STYLESHEET
  1

  9
$XEDIT
290
     1
  9
$CEPSNTYPE
380
     0
  9
$PSTYLEMODE
290
     1
  9
$FINGERPRINTGUID
  2
{FB88A696-E29C-4009-92AF-A3599A8169D5}
  9
$VERSIONGUID
  2
{BD26F9FF-75D6-454E-A186-00C72B2BD698}
  9
$EXTNAMES
290
     1
  9
$PSVPSCALE
 40
0.0
  9
$OLESTARTUP
290
     0
  0
ENDSEC
  0
SECTION
  2
CLASSES
  0
CLASS
  1
DICTIONARYVAR
  2
AcDbDictionaryVar
  3
ObjectDBX Classes
 90
        0
280
     0
281
     0
  0
CLASS
  1
ACDBDICTIONARYWDFLT
  2
AcDbDictionaryWithDefault
  3
ObjectDBX Classes
 90
        0
280
     0
281
     0
  0
CLASS
  1
ACDBPLACEHOLDER
  2
AcDbPlaceHolder
  3
ObjectDBX Classes
 90
        0
280
     0
281
     0
  0
CLASS
  1
LAYOUT
  2
AcDbLayout
  3
ObjectDBX Classes
 90
        0
280
     0
281
     0
  0
CLASS
  1
TABLESTYLE
  2
AcDbTableStyle
  3
ObjectDBX Classes
 90
     2047
280
     0
281
     0
  0
CLASS
  1
SORTENTSTABLE
  2
AcDbSortentsTable
  3
ObjectDBX Classes
 90
        0
280
     0
281
     0
  0
ENDSEC
  0
SECTION
  2
TABLES
  0
TABLE
  2
VPORT
  5
12
330
0
100
AcDbSymbolTable
 70
    24
  0
VPORT
  5
4591
330
12
100
AcDbSymbolTableRecord
100
AcDbViewportTableRecord
  2
*Active
 70
     0
 10
0.0
 20
0.0
 11
1.0
 21
1.0
 12
50.16218318351936
 22
74.07004885104839
 13
0.0
 23
0.0
 14
1.0
 24
1.0
 15
0.0
 25
0.0
 16
0.0
 26
0.0
 36
1.0
 17
0.0
 27
0.0
 37
0.0
 40
155.6825670296445
 41
1.557544757033248
 42
50.0
 43
0.0
 44
0.0
 50
0.0
 51
0.0
 71
     0
 72
 20000
 73
     1
 74
     1
 75
     0
 76
     0
 77
     0
 78
     0
281
     0
 65
     1
110
0.0
120
0.0
130
0.0
111
1.0
121
0.0
131
0.0
112
0.0
122
1.0
132
0.0
 79
     0
146
0.0
  0
ENDTAB
  0
TABLE
  2
LTYPE
  5
D
330
0
100
AcDbSymbolTable
 70
     2
  0
LTYPE
  5
E
330
D
100
AcDbSymbolTableRecord
100
AcDbLinetypeTableRecord
  2
BYBLOCK
 70
     0
  3

 72
    65
 73
     0
 40
0.0
  0
LTYPE
  5
F
330
D
100
AcDbSymbolTableRecord
100
AcDbLinetypeTableRecord
  2
BYLAYER
 70
     0
  3

 72
    65
 73
     0
 40
0.0
  0
LTYPE
  5
5
330
D
100
AcDbSymbolTableRecord
100
AcDbLinetypeTableRecord
  2
CONTINUOUS
 70
     0
  3
Solid line
 72
    65
 73
     0
 40
0.0
  0
ENDTAB
  0
TABLE
  2
LAYER
  5
A
102
{ACAD_XDICTIONARY
360
1B4
102
}
330
0
100
AcDbSymbolTable
 70
     6
  0
LAYER
  5
4
330
A
100
AcDbSymbolTableRecord
100
AcDbLayerTableRecord
  2
0
 70
     0
 62
     7
  6
CONTINUOUS
370
    -3
390
57
  0
LAYER
  5
25
330
A
100
AcDbSymbolTableRecord
100
AcDbLayerTableRecord
  2
KIJUN
 70
     0
 62
     7
  6
CONTINUOUS
370
    -3
390
57
  0
LAYER
  5
22
330
A
100
AcDbSymbolTableRecord
100
AcDbLayerTableRecord
  2
HOJO
 70
     0
 62
     3
  6
CONTINUOUS
370
    -3
390
57
  0
LAYER
  5
1B
330
A
100
AcDbSymbolTableRecord
100
AcDbLayerTableRecord
  2
WAKU
 70
     0
 62
     1
  6
CONTINUOUS
370
    -3
390
57
  0
LAYER
  5
31
330
A
100
AcDbSymbolTableRecord
100
AcDbLayerTableRecord
  2
DEFPOINTS
 70
     0
 62
     7
  6
CONTINUOUS
290
     0
370
    -3
390
57
  0
LAYER
  5
28
330
A
100
AcDbSymbolTableRecord
100
AcDbLayerTableRecord
  2
SUNPOU
 70
     0
 62
    70
  6
CONTINUOUS
370
    -3
390
57
  0
ENDTAB
  0
TABLE
  2
STYLE
  5
B
330
0
100
AcDbSymbolTable
 70
     3
  0
STYLE
  5
C
330
B
100
AcDbSymbolTableRecord
100
AcDbTextStyleTableRecord
  2
STANDARD
 70
     0
 40
0.0
 41
1.0
 50
0.0
 71
     0
 42
0.2
  3
txt
  4

  0
STYLE
  5
1C
330
B
100
AcDbSymbolTableRecord
100
AcDbTextStyleTableRecord
  2
SUNPOU
 70
     0
 40
0.0
 41
1.0
 50
0.0
 71
     0
 42
30.0
  3
txt
  4
bigfont
  0
STYLE
  5
14A
330
B
100
AcDbSymbolTableRecord
100
AcDbTextStyleTableRecord
  2
LIFE
 70
     0
 40
0.0
 41
0.7
 50
0.0
 71
     0
 42
10.0
  3
romans
  4
extfont
  0
ENDTAB
  0
TABLE
  2
VIEW
  5
10
330
0
100
AcDbSymbolTable
 70
     0
  0
ENDTAB
  0
TABLE
  2
UCS
  5
11
330
0
100
AcDbSymbolTable
 70
     0
  0
ENDTAB
  0
TABLE
  2
APPID
  5
14
330
0
100
AcDbSymbolTable
 70
    10
  0
APPID
  5
15
330
14
100
AcDbSymbolTableRecord
100
AcDbRegAppTableRecord
  2
ACAD
 70
     0
  0
APPID
  5
1D3
330
14
100
AcDbSymbolTableRecord
100
AcDbRegAppTableRecord
  2
ACAD_DSTYLE_DIMTEXT_FILL
 70
     0
  0
APPID
  5
1D4
330
14
100
AcDbSymbolTableRecord
100
AcDbRegAppTableRecord
  2
ACAD_DSTYLE_DIMEXT_LENGTH
 70
     0
  0
APPID
  5
1D5
330
14
100
AcDbSymbolTableRecord
100
AcDbRegAppTableRecord
  2
ACAD_DSTYLE_DIMEXT_ENABLED
 70
     0
  0
APPID
  5
1D6
330
14
100
AcDbSymbolTableRecord
100
AcDbRegAppTableRecord
  2
ACAD_DSTYLE_DIM_LINETYPE
 70
     0
  0
APPID
  5
1D7
330
14
100
AcDbSymbolTableRecord
100
AcDbRegAppTableRecord
  2
ACAD_DSTYLE_DIM_EXT1_LINETYPE
 70
     0
  0
APPID
  5
1D8
330
14
100
AcDbSymbolTableRecord
100
AcDbRegAppTableRecord
  2
ACAD_DSTYLE_DIM_EXT2_LINETYPE
 70
     0
  0
APPID
  5
294
330
14
100
AcDbSymbolTableRecord
100
AcDbRegAppTableRecord
  2
ACAD_DSTYLE_DIMJOGGED_JOGANGLE_SYMBOL
 70
     0
  0
APPID
  5
478
330
14
100
AcDbSymbolTableRecord
100
AcDbRegAppTableRecord
  2
ACAD_DSTYLE_DIMARC_LENGTH_SYMBOL
 70
     0
  0
APPID
  5
157B
330
14
100
AcDbSymbolTableRecord
100
AcDbRegAppTableRecord
  2
ACAD_EXEMPT_FROM_CAD_STANDARDS
 70
     0
  0
ENDTAB
  0
TABLE
  2
DIMSTYLE
  5
16
330
0
100
AcDbSymbolTable
 70
     2
100
AcDbDimStyleTable
 71
     1
340
1E
  0
DIMSTYLE
105
1E
102
{ACAD_REACTORS
330
450A
330
4517
102
}
330
16
100
AcDbSymbolTableRecord
100
AcDbDimStyleTableRecord
  2
STANDARD
 70
     0
340
C
  0
ENDTAB
  0
TABLE
  2
BLOCK_RECORD
  5
1
330
0
100
AcDbSymbolTable
 70
   100
  0
BLOCK_RECORD
  5
2
102
{ACAD_XDICTIONARY
360
1578
102
}
330
1
100
AcDbSymbolTableRecord
100
AcDbBlockTableRecord
  2
*MODEL_SPACE
340
5A
  0
BLOCK_RECORD
  5
7
330
1
100
AcDbSymbolTableRecord
100
AcDbBlockTableRecord
  2
*PAPER_SPACE
340
5B
  0
BLOCK_RECORD
  5
109
330
1
100
AcDbSymbolTableRecord
100
AcDbBlockTableRecord
  2
_Dot
340
0
102
{BLKREFS
331
CF6
331
CF7
331
15B9
331
15BA
331
15CB
331
15CC
331
1664
331
1665
331
1686
331
1687
331
1818
331
1819
331
1821
331
1822
331
18DE
331
18DF
331
18E7
331
18E8
331
19C4
331
19C5
331
19DF
331
19E0
331
1F7B
331
1F7C
331
1F84
331
1F85
331
20F9
331
20FA
331
2102
331
2103
331
2165
331
2166
331
2172
331
2173
331
2314
331
2315
331
2326
331
2327
331
232F
331
2330
331
2834
331
2835
331
2848
331
2849
331
298C
331
298D
331
2995
331
2996
331
2BF8
331
2BF9
331
2C01
331
2C02
331
2DA5
331
2DA6
331
2DAE
331
2DAF
331
2E70
331
2E71
331
2E82
331
2E83
331
2FAC
331
2FAD
331
2FB5
331
2FB6
331
311A
331
311B
331
3123
331
3124
331
32AE
331
32AF
331
32B7
331
32B8
331
3692
331
3693
331
369B
331
369C
331
371A
331
371B
331
3743
331
3744
331
39C7
331
39C8
331
3A9C
331
3A9D
331
3AAE
331
3AAF
331
3BA4
331
3BA5
331
3BB6
331
3BB7
331
3D99
331
3D9A
331
3DAB
331
3DAC
331
3F8B
331
3F8C
331
3F9D
331
3F9E
331
4187
331
4188
331
4199
331
419A
331
4383
331
4384
331
4395
331
4396
331
4578
331
4579
331
458A
331
458B
102
}
  0
BLOCK_RECORD
  5
35E9
330
1
100
AcDbSymbolTableRecord
100
AcDbBlockTableRecord
  2
*D68
340
0
  0
BLOCK_RECORD
  5
35F6
330
1
100
AcDbSymbolTableRecord
100
AcDbBlockTableRecord
  2
*D69
340
0
  0
BLOCK_RECORD
  5
370A
330
1
100
AcDbSymbolTableRecord
100
AcDbBlockTableRecord
  2
*D71
340
0
  0
BLOCK_RECORD
  5
3734
330
1
100
AcDbSymbolTableRecord
100
AcDbBlockTableRecord
  2
*D73
340
0
  0
BLOCK_RECORD
  5
37B1
330
1
100
AcDbSymbolTableRecord
100
AcDbBlockTableRecord
  2
*D75
340
0
  0
BLOCK_RECORD
  5
3A45
330
1
100
AcDbSymbolTableRecord
100
AcDbBlockTableRecord
  2
*D80
340
0
  0
BLOCK_RECORD
  5
3A52
330
1
100
AcDbSymbolTableRecord
100
AcDbBlockTableRecord
  2
*D81
340
0
  0
BLOCK_RECORD
  5
3B2D
330
1
100
AcDbSymbolTableRecord
100
AcDbBlockTableRecord
  2
*D83
340
0
  0
BLOCK_RECORD
  5
3B3A
330
1
100
AcDbSymbolTableRecord
100
AcDbBlockTableRecord
  2
*D84
340
0
  0
BLOCK_RECORD
  5
3D2D
330
1
100
AcDbSymbolTableRecord
100
AcDbBlockTableRecord
  2
*D86
340
0
  0
BLOCK_RECORD
  5
3D3A
330
1
100
AcDbSymbolTableRecord
100
AcDbBlockTableRecord
  2
*D87
340
0
  0
BLOCK_RECORD
  5
3F20
330
1
100
AcDbSymbolTableRecord
100
AcDbBlockTableRecord
  2
*D89
340
0
  0
BLOCK_RECORD
  5
3F2D
330
1
100
AcDbSymbolTableRecord
100
AcDbBlockTableRecord
  2
*D90
340
0
  0
BLOCK_RECORD
  5
4113
330
1
100
AcDbSymbolTableRecord
100
AcDbBlockTableRecord
  2
*D92
340
0
  0
BLOCK_RECORD
  5
4120
330
1
100
AcDbSymbolTableRecord
100
AcDbBlockTableRecord
  2
*D93
340
0
  0
BLOCK_RECORD
  5
430F
330
1
100
AcDbSymbolTableRecord
100
AcDbBlockTableRecord
  2
*D95
340
0
  0
BLOCK_RECORD
  5
431C
330
1
100
AcDbSymbolTableRecord
100
AcDbBlockTableRecord
  2
*D96
340
0
  0
BLOCK_RECORD
  5
450B
330
1
100
AcDbSymbolTableRecord
100
AcDbBlockTableRecord
  2
*D98
340
0
  0
BLOCK_RECORD
  5
4518
330
1
100
AcDbSymbolTableRecord
100
AcDbBlockTableRecord
  2
*D99
340
0
  0
ENDTAB
  0
ENDSEC
  0
SECTION
  2
BLOCKS
  0
BLOCK
  5
3
330
2
100
AcDbEntity
  8
0
100
AcDbBlockBegin
  2
*MODEL_SPACE
 70
     0
 10
0.0
 20
0.0
 30
0.0
  3
*MODEL_SPACE
  1

  0
ENDBLK
  5
6
330
2
100
AcDbEntity
  8
0
100
AcDbBlockEnd
  0
BLOCK
  5
8
330
7
100
AcDbEntity
 67
     1
  8
0
100
AcDbBlockBegin
  2
*PAPER_SPACE
 70
     0
 10
0.0
 20
0.0
 30
0.0
  3
*PAPER_SPACE
  1

  0
ENDBLK
  5
9
330
7
100
AcDbEntity
 67
     1
  8
0
100
AcDbBlockEnd
  0
BLOCK
  5
10C
330
109
100
AcDbEntity
  8
0
100
AcDbBlockBegin
  2
_Dot
 70
     0
 10
0.0
 20
0.0
 30
0.0
  3
_Dot
  1

  0
LWPOLYLINE
  5
10A
330
109
100
AcDbEntity
  8
0
  6
ByBlock
 62
     0
100
AcDbPolyline
 90
        2
 70
     1
 43
0.5
 10
-0.25
 20
0.0
 42
1.0
 10
0.25
 20
0.0
 42
1.0
  0
LINE
  5
10B
330
109
100
AcDbEntity
  8
0
  6
ByBlock
 62
     0
370
    -2
100
AcDbLine
 10
-0.5
 20
0.0
 30
0.0
 11
-1.0
 21
0.0
 31
0.0
  0
ENDBLK
  5
10D
330
109
100
AcDbEntity
  8
0
100
AcDbBlockEnd
  0
BLOCK
  5
35F3
330
35E9
100
AcDbEntity
  8
0
100
AcDbBlockBegin
  2
*D68
 70
     1
 10
0.0
 20
0.0
 30
0.0
  3
*D68
  1

  0
LINE
  5
368F
330
35E9
100
AcDbEntity
  8
SUNPOU
 62
    70
370
    -2
100
AcDbLine
 10
-57.31304931990838
 20
149.8921824087356
 30
0.0
 11
-57.31304931990837
 21
205.1481820578692
 31
0.0
  0
LINE
  5
3690
330
35E9
100
AcDbEntity
  8
SUNPOU
 62
    70
370
    -2
100
AcDbLine
 10
248.6869506800916
 20
150.5513573235502
 30
0.0
 11
248.6869506800916
 21
205.1481820578692
 31
0.0
  0
LINE
  5
3691
330
35E9
100
AcDbEntity
  8
SUNPOU
 62
    60
370
    -2
100
AcDbLine
 10
-55.31304931990836
 20
205.1481820578692
 30
0.0
 11
246.6869506800916
 21
205.1481820578692
 31
0.0
  0
INSERT
  5
3692
330
35E9
100
AcDbEntity
  8
SUNPOU
 62
    60
370
    -2
100
AcDbBlockReference
  2
_Dot
 10
-57.31304931990837
 20
205.1481820578692
 30
0.0
 41
2.0
 42
2.0
 43
2.0
 50
180.0
  0
INSERT
  5
3693
330
35E9
100
AcDbEntity
  8
SUNPOU
 62
    60
370
    -2
100
AcDbBlockReference
  2
_Dot
 10
248.6869506800916
 20
205.1481820578692
 30
0.0
 41
2.0
 42
2.0
 43
2.0
  0
MTEXT
  5
3694
330
35E9
100
AcDbEntity
  8
SUNPOU
 62
    60
100
AcDbMText
 10
95.68695068009162
 20
213.1481820578692
 30
0.0
 40
10.0
 41
0.0
 71
     5
 72
     1
  1
\A1;306
  7
SUNPOU
 73
     1
 44
1.0
1001
ACAD
1000
MTEXTBEGIN
1070
    73
1070
     1
1070
    44
1040
1.0
1070
    74
1070
     0
1000
MTEXTEND
  0
POINT
  5
3695
330
35E9
100
AcDbEntity
  8
DEFPOINTS
 62
     0
100
AcDbPoint
 10
-57.31304931990838
 20
139.8921824087356
 30
0.0
  0
POINT
  5
3696
330
35E9
100
AcDbEntity
  8
DEFPOINTS
 62
     0
100
AcDbPoint
 10
248.6869506800916
 20
140.5513573235502
 30
0.0
  0
POINT
  5
3697
330
35E9
100
AcDbEntity
  8
DEFPOINTS
 62
     0
100
AcDbPoint
 10
248.6869506800916
 20
205.1481820578692
 30
0.0
  0
ENDBLK
  5
35F4
330
35E9
100
AcDbEntity
  8
0
100
AcDbBlockEnd
  0
BLOCK
  5
3600
330
35F6
100
AcDbEntity
  8
0
100
AcDbBlockBegin
  2
*D69
 70
     1
 10
0.0
 20
0.0
 30
0.0
  3
*D69
  1

  0
LINE
  5
3698
330
35F6
100
AcDbEntity
  8
SUNPOU
 62
    70
370
    -2
100
AcDbLine
 10
-67.31304931990836
 20
163.7291678152901
 30
0.0
 11
-98.37628952802333
 21
163.7291678152901
 31
0.0
  0
LINE
  5
3699
330
35F6
100
AcDbEntity
  8
SUNPOU
 62
    70
370
    -2
100
AcDbLine
 10
-67.49508426752891
 20
117.7291678152901
 30
0.0
 11
-98.37628952802333
 21
117.7291678152901
 31
0.0
  0
LINE
  5
369A
330
35F6
100
AcDbEntity
  8
SUNPOU
 62
    60
370
    -2
100
AcDbLine
 10
-98.37628952802333
 20
161.7291678152901
 30
0.0
 11
-98.37628952802333
 21
119.7291678152901
 31
0.0
  0
INSERT
  5
369B
330
35F6
100
AcDbEntity
  8
SUNPOU
 62
    60
370
    -2
100
AcDbBlockReference
  2
_Dot
 10
-98.37628952802333
 20
163.7291678152901
 30
0.0
 41
2.0
 42
2.0
 43
2.0
 50
90.0
  0
INSERT
  5
369C
330
35F6
100
AcDbEntity
  8
SUNPOU
 62
    60
370
    -2
100
AcDbBlockReference
  2
_Dot
 10
-98.37628952802333
 20
117.7291678152901
 30
0.0
 41
2.0
 42
2.0
 43
2.0
 50
270.0
  0
MTEXT
  5
369D
330
35F6
100
AcDbEntity
  8
SUNPOU
 62
    60
100
AcDbMText
 10
-106.3762895280233
 20
140.7291678152901
 30
0.0
 40
10.0
 41
0.0
 71
     5
 72
     1
  1
\A1;46
  7
SUNPOU
 11
0.0000000000000001
 21
1.0
 31
0.0
 73
     1
 44
1.0
1001
ACAD
1000
MTEXTBEGIN
1070
    73
1070
     1
1070
    44
1040
1.0
1070
    74
1070
     0
1000
MTEXTEND
  0
POINT
  5
369E
330
35F6
100
AcDbEntity
  8
DEFPOINTS
 62
     0
100
AcDbPoint
 10
-57.31304931990838
 20
163.7291678152901
 30
0.0
  0
POINT
  5
369F
330
35F6
100
AcDbEntity
  8
DEFPOINTS
 62
     0
100
AcDbPoint
 10
-57.49508426752891
 20
117.7291678152901
 30
0.0
  0
POINT
  5
36A0
330
35F6
100
AcDbEntity
  8
DEFPOINTS
 62
     0
100
AcDbPoint
 10
-98.37628952802333
 20
117.7291678152901
 30
0.0
  0
ENDBLK
  5
3601
330
35F6
100
AcDbEntity
  8
0
100
AcDbBlockEnd
  0
BLOCK
  5
3714
330
370A
100
AcDbEntity
  8
0
100
AcDbBlockBegin
  2
*D71
 70
     1
 10
0.0
 20
0.0
 30
0.0
  3
*D71
  1

  0
LINE
  5
3716
330
370A
100
AcDbEntity
  8
SUNPOU
 62
    70
370
    -2
100
AcDbLine
 10
28.04651099485443
 20
67.73890226967478
 30
0.0
 11
28.04651099485444
 21
96.76277591141218
 31
0.0
  0
LINE
  5
3717
330
370A
100
AcDbEntity
  8
SUNPOU
 62
    70
370
    -2
100
AcDbLine
 10
67.88324783326004
 20
68.05244005182112
 30
0.0
 11
67.88324783326004
 21
96.76277591141218
 31
0.0
  0
LINE
  5
3718
330
370A
100
AcDbEntity
  8
SUNPOU
 62
    60
370
    -2
100
AcDbLine
 10
30.04651099485443
 20
96.76277591141218
 30
0.0
 11
65.88324783326005
 21
96.76277591141218
 31
0.0
  0
LINE
  5
3719
330
370A
100
AcDbEntity
  8
SUNPOU
 62
    60
370
    -2
100
AcDbLine
 10
67.88324783326004
 20
96.76277591141218
 30
0.0
 11
155.88324783326
 21
96.76277591141218
 31
0.0
  0
INSERT
  5
371A
330
370A
100
AcDbEntity
  8
SUNPOU
 62
    60
370
    -2
100
AcDbBlockReference
  2
_Dot
 10
28.04651099485444
 20
96.76277591141218
 30
0.0
 41
2.0
 42
2.0
 43
2.0
 50
180.0
  0
INSERT
  5
371B
330
370A
100
AcDbEntity
  8
SUNPOU
 62
    60
370
    -2
100
AcDbBlockReference
  2
_Dot
 10
67.88324783326004
 20
96.76277591141218
 30
0.0
 41
2.0
 42
2.0
 43
2.0
  0
MTEXT
  5
371C
330
370A
100
AcDbEntity
  8
SUNPOU
 62
    60
100
AcDbMText
 10
112.88324783326
 20
104.7627759114122
 30
0.0
 40
10.0
 41
0.0
 71
     5
 72
     1
  1
\A1;39.836737
  7
SUNPOU
 73
     1
 44
1.0
1001
ACAD
1000
MTEXTBEGIN
1070
    73
1070
     1
1070
    44
1040
1.0
1070
    74
1070
     0
1000
MTEXTEND
  0
POINT
  5
371D
330
370A
100
AcDbEntity
  8
DEFPOINTS
 62
     0
100
AcDbPoint
 10
28.04651099485443
 20
57.73890226967478
 30
0.0
  0
POINT
  5
371E
330
370A
100
AcDbEntity
  8
DEFPOINTS
 62
     0
100
AcDbPoint
 10
67.88324783326004
 20
58.05244005182112
 30
0.0
  0
POINT
  5
371F
330
370A
100
AcDbEntity
  8
DEFPOINTS
 62
     0
100
AcDbPoint
 10
67.88324783326004
 20
96.76277591141218
 30
0.0
  0
ENDBLK
  5
3715
330
370A
100
AcDbEntity
  8
0
100
AcDbBlockEnd
  0
BLOCK
  5
373E
330
3734
100
AcDbEntity
  8
0
100
AcDbBlockBegin
  2
*D73
 70
     1
 10
0.0
 20
0.0
 30
0.0
  3
*D73
  1

  0
LINE
  5
3740
330
3734
100
AcDbEntity
  8
SUNPOU
 62
    70
370
    -2
100
AcDbLine
 10
27.89994361320522
 20
69.85225236533939
 30
0.0
 11
27.89994361320522
 21
98.69576219890257
 31
0.0
  0
LINE
  5
3741
330
3734
100
AcDbEntity
  8
SUNPOU
 62
    70
370
    -2
100
AcDbLine
 10
67.89994361320521
 20
69.85225236533939
 30
0.0
 11
67.89994361320521
 21
98.69576219890257
 31
0.0
  0
LINE
  5
3742
330
3734
100
AcDbEntity
  8
SUNPOU
 62
    60
370
    -2
100
AcDbLine
 10
29.89994361320522
 20
98.69576219890257
 30
0.0
 11
65.8999436132052
 21
98.69576219890257
 31
0.0
  0
INSERT
  5
3743
330
3734
100
AcDbEntity
  8
SUNPOU
 62
    60
370
    -2
100
AcDbBlockReference
  2
_Dot
 10
27.89994361320522
 20
98.69576219890257
 30
0.0
 41
2.0
 42
2.0
 43
2.0
 50
180.0
  0
INSERT
  5
3744
330
3734
100
AcDbEntity
  8
SUNPOU
 62
    60
370
    -2
100
AcDbBlockReference
  2
_Dot
 10
67.89994361320521
 20
98.69576219890257
 30
0.0
 41
2.0
 42
2.0
 43
2.0
  0
MTEXT
  5
3745
330
3734
100
AcDbEntity
  8
SUNPOU
 62
    60
100
AcDbMText
 10
47.89994361320521
 20
106.6957621989025
 30
0.0
 40
10.0
 41
0.0
 71
     5
 72
     1
  1
\A1;40φ
  7
SUNPOU
 73
     1
 44
1.0
1001
ACAD
1000
MTEXTBEGIN
1070
    73
1070
     1
1070
    44
1040
1.0
1070
    74
1070
     0
1000
MTEXTEND
  0
POINT
  5
3746
330
3734
100
AcDbEntity
  8
DEFPOINTS
 62
     0
100
AcDbPoint
 10
27.89994361320522
 20
59.85225236533939
 30
0.0
  0
POINT
  5
3747
330
3734
100
AcDbEntity
  8
DEFPOINTS
 62
     0
100
AcDbPoint
 10
67.89994361320521
 20
59.85225236533939
 30
0.0
  0
POINT
  5
3748
330
3734
100
AcDbEntity
  8
DEFPOINTS
 62
     0
100
AcDbPoint
 10
67.89994361320521
 20
98.69576219890257
 30
0.0
  0
ENDBLK
  5
373F
330
3734
100
AcDbEntity
  8
0
100
AcDbBlockEnd
  0
BLOCK
  5
37BB
330
37B1
100
AcDbEntity
  8
0
100
AcDbBlockBegin
  2
*D75
 70
     1
 10
0.0
 20
0.0
 30
0.0
  3
*D75
  1

  0
LINE
  5
39C4
330
37B1
100
AcDbEntity
  8
SUNPOU
 62
    70
370
    -2
100
AcDbLine
 10
-42.54865485741496
 20
157.2140937351553
 30
0.0
 11
-42.54865485741495
 21
282.2045269340939
 31
0.0
  0
LINE
  5
39C5
330
37B1
100
AcDbEntity
  8
SUNPOU
 62
    70
370
    -2
100
AcDbLine
 10
149.451345142585
 20
157.2140937351553
 30
0.0
 11
149.451345142585
 21
282.2045269340939
 31
0.0
  0
LINE
  5
39C6
330
37B1
100
AcDbEntity
  8
SUNPOU
 62
    60
370
    -2
100
AcDbLine
 10
-40.54865485741495
 20
282.2045269340939
 30
0.0
 11
147.451345142585
 21
282.2045269340939
 31
0.0
  0
INSERT
  5
39C7
330
37B1
100
AcDbEntity
  8
SUNPOU
 62
    60
370
    -2
100
AcDbBlockReference
  2
_Dot
 10
-42.54865485741495
 20
282.2045269340939
 30
0.0
 41
2.0
 42
2.0
 43
2.0
 50
180.0
  0
INSERT
  5
39C8
330
37B1
100
AcDbEntity
  8
SUNPOU
 62
    60
370
    -2
100
AcDbBlockReference
  2
_Dot
 10
149.451345142585
 20
282.2045269340939
 30
0.0
 41
2.0
 42
2.0
 43
2.0
  0
MTEXT
  5
39C9
330
37B1
100
AcDbEntity
  8
SUNPOU
 62
    60
100
AcDbMText
 10
53.45134514258504
 20
290.2045269340939
 30
0.0
 40
10.0
 41
0.0
 71
     5
 72
     1
  1
\A1;192φ
  7
SUNPOU
 73
     1
 44
1.0
1001
ACAD
1000
MTEXTBEGIN
1070
    73
1070
     1
1070
    44
1040
1.0
1070
    74
1070
     0
1000
MTEXTEND
  0
POINT
  5
39CA
330
37B1
100
AcDbEntity
  8
DEFPOINTS
 62
     0
100
AcDbPoint
 10
-42.54865485741496
 20
147.2140937351553
 30
0.0
  0
POINT
  5
39CB
330
37B1
100
AcDbEntity
  8
DEFPOINTS
 62
     0
100
AcDbPoint
 10
149.451345142585
 20
147.2140937351553
 30
0.0
  0
POINT
  5
39CC
330
37B1
100
AcDbEntity
  8
DEFPOINTS
 62
     0
100
AcDbPoint
 10
149.451345142585
 20
282.2045269340939
 30
0.0
  0
ENDBLK
  5
37BC
330
37B1
100
AcDbEntity
  8
0
100
AcDbBlockEnd
  0
BLOCK
  5
3A4F
330
3A45
100
AcDbEntity
  8
0
100
AcDbBlockBegin
  2
*D80
 70
     1
 10
0.0
 20
0.0
 30
0.0
  3
*D80
  1

  0
LINE
  5
3AAB
330
3A45
100
AcDbEntity
  8
SUNPOU
 62
    70
370
    -2
100
AcDbLine
 10
-68.96399143244808
 20
170.0383087325503
 30
0.0
 11
-68.96399143244808
 21
206.3986443243337
 31
0.0
  0
LINE
  5
3AAC
330
3A45
100
AcDbEntity
  8
SUNPOU
 62
    70
370
    -2
100
AcDbLine
 10
181.0360085675522
 20
170.3162869883523
 30
0.0
 11
181.0360085675522
 21
206.3986443243337
 31
0.0
  0
LINE
  5
3AAD
330
3A45
100
AcDbEntity
  8
SUNPOU
 62
    60
370
    -2
100
AcDbLine
 10
-66.96399143244808
 20
206.3986443243337
 30
0.0
 11
179.0360085675522
 21
206.3986443243337
 31
0.0
  0
INSERT
  5
3AAE
330
3A45
100
AcDbEntity
  8
SUNPOU
 62
    60
370
    -2
100
AcDbBlockReference
  2
_Dot
 10
-68.96399143244808
 20
206.3986443243337
 30
0.0
 41
2.0
 42
2.0
 43
2.0
 50
180.0
  0
INSERT
  5
3AAF
330
3A45
100
AcDbEntity
  8
SUNPOU
 62
    60
370
    -2
100
AcDbBlockReference
  2
_Dot
 10
181.0360085675522
 20
206.3986443243337
 30
0.0
 41
2.0
 42
2.0
 43
2.0
  0
MTEXT
  5
3AB0
330
3A45
100
AcDbEntity
  8
SUNPOU
 62
    60
100
AcDbMText
 10
56.03600856755208
 20
214.3986443243337
 30
0.0
 40
10.0
 41
0.0
 71
     5
 72
     1
  1
\A1;250
  7
SUNPOU
 73
     1
 44
1.0
1001
ACAD
1000
MTEXTBEGIN
1070
    73
1070
     1
1070
    44
1040
1.0
1070
    74
1070
     0
1000
MTEXTEND
  0
POINT
  5
3AB1
330
3A45
100
AcDbEntity
  8
DEFPOINTS
 62
     0
100
AcDbPoint
 10
-68.96399143244808
 20
160.0383087325503
 30
0.0
  0
POINT
  5
3AB2
330
3A45
100
AcDbEntity
  8
DEFPOINTS
 62
     0
100
AcDbPoint
 10
181.0360085675522
 20
160.3162869883523
 30
0.0
  0
POINT
  5
3AB3
330
3A45
100
AcDbEntity
  8
DEFPOINTS
 62
     0
100
AcDbPoint
 10
181.0360085675522
 20
206.3986443243337
 30
0.0
  0
ENDBLK
  5
3A50
330
3A45
100
AcDbEntity
  8
0
100
AcDbBlockEnd
  0
BLOCK
  5
3A5C
330
3A52
100
AcDbEntity
  8
0
100
AcDbBlockBegin
  2
*D81
 70
     1
 10
0.0
 20
0.0
 30
0.0
  3
*D81
  1

  0
LINE
  5
3A99
330
3A52
100
AcDbEntity
  8
SUNPOU
 62
    70
370
    -2
100
AcDbLine
 10
-78.96399143244808
 20
160.0383087325503
 30
0.0
 11
-111.0858629527327
 21
160.0383087325503
 31
0.0
  0
LINE
  5
3A9A
330
3A52
100
AcDbEntity
  8
SUNPOU
 62
    70
370
    -2
100
AcDbLine
 10
-79.11309215177175
 20
46.03830873255026
 30
0.0
 11
-111.0858629527328
 21
46.03830873255026
 31
0.0
  0
LINE
  5
3A9B
330
3A52
100
AcDbEntity
  8
SUNPOU
 62
    60
370
    -2
100
AcDbLine
 10
-111.0858629527327
 20
158.0383087325503
 30
0.0
 11
-111.0858629527328
 21
48.03830873255027
 31
0.0
  0
INSERT
  5
3A9C
330
3A52
100
AcDbEntity
  8
SUNPOU
 62
    60
370
    -2
100
AcDbBlockReference
  2
_Dot
 10
-111.0858629527327
 20
160.0383087325503
 30
0.0
 41
2.0
 42
2.0
 43
2.0
 50
90.0
  0
INSERT
  5
3A9D
330
3A52
100
AcDbEntity
  8
SUNPOU
 62
    60
370
    -2
100
AcDbBlockReference
  2
_Dot
 10
-111.0858629527328
 20
46.03830873255026
 30
0.0
 41
2.0
 42
2.0
 43
2.0
 50
270.0
  0
MTEXT
  5
3A9E
330
3A52
100
AcDbEntity
  8
SUNPOU
 62
    60
100
AcDbMText
 10
-119.0858629527328
 20
103.0383087325503
 30
0.0
 40
10.0
 41
0.0
 71
     5
 72
     1
  1
\A1;114
  7
SUNPOU
 11
0.0000000000000001
 21
1.0
 31
0.0
 73
     1
 44
1.0
1001
ACAD
1000
MTEXTBEGIN
1070
    73
1070
     1
1070
    44
1040
1.0
1070
    74
1070
     0
1000
MTEXTEND
  0
POINT
  5
3A9F
330
3A52
100
AcDbEntity
  8
DEFPOINTS
 62
     0
100
AcDbPoint
 10
-68.96399143244808
 20
160.0383087325503
 30
0.0
  0
POINT
  5
3AA0
330
3A52
100
AcDbEntity
  8
DEFPOINTS
 62
     0
100
AcDbPoint
 10
-69.11309215177175
 20
46.03830873255026
 30
0.0
  0
POINT
  5
3AA1
330
3A52
100
AcDbEntity
  8
DEFPOINTS
 62
     0
100
AcDbPoint
 10
-111.0858629527328
 20
46.03830873255026
 30
0.0
  0
ENDBLK
  5
3A5D
330
3A52
100
AcDbEntity
  8
0
100
AcDbBlockEnd
  0
BLOCK
  5
3B37
330
3B2D
100
AcDbEntity
  8
0
100
AcDbBlockBegin
  2
*D83
 70
     1
 10
0.0
 20
0.0
 30
0.0
  3
*D83
  1

  0
LINE
  5
3BB3
330
3B2D
100
AcDbEntity
  8
SUNPOU
 62
    70
370
    -2
100
AcDbLine
 10
-9.274404385007244
 20
116.3927336291364
 30
0.0
 11
-9.274404385007242
 21
131.1328898609256
 31
0.0
  0
LINE
  5
3BB4
330
3B2D
100
AcDbEntity
  8
SUNPOU
 62
    70
370
    -2
100
AcDbLine
 10
130.7255956149869
 20
115.4686950255653
 30
0.0
 11
130.7255956149869
 21
131.1328898609256
 31
0.0
  0
LINE
  5
3BB5
330
3B2D
100
AcDbEntity
  8
SUNPOU
 62
    60
370
    -2
100
AcDbLine
 10
-7.274404385007242
 20
131.1328898609256
 30
0.0
 11
128.7255956149869
 21
131.1328898609256
 31
0.0
  0
INSERT
  5
3BB6
330
3B2D
100
AcDbEntity
  8
SUNPOU
 62
    60
370
    -2
100
AcDbBlockReference
  2
_Dot
 10
-9.274404385007242
 20
131.1328898609256
 30
0.0
 41
2.0
 42
2.0
 43
2.0
 50
180.0
  0
INSERT
  5
3BB7
330
3B2D
100
AcDbEntity
  8
SUNPOU
 62
    60
370
    -2
100
AcDbBlockReference
  2
_Dot
 10
130.7255956149869
 20
131.1328898609256
 30
0.0
 41
2.0
 42
2.0
 43
2.0
  0
MTEXT
  5
3BB8
330
3B2D
100
AcDbEntity
  8
SUNPOU
 62
    60
100
AcDbMText
 10
60.72559561498986
 20
139.1328898609256
 30
0.0
 40
10.0
 41
0.0
 71
     5
 72
     1
  1
\A1;140
  7
SUNPOU
 73
     1
 44
1.0
1001
ACAD
1000
MTEXTBEGIN
1070
    73
1070
     1
1070
    44
1040
1.0
1070
    74
1070
     0
1000
MTEXTEND
  0
POINT
  5
3BB9
330
3B2D
100
AcDbEntity
  8
DEFPOINTS
 62
     0
100
AcDbPoint
 10
-9.274404385007244
 20
106.3927336291364
 30
0.0
  0
POINT
  5
3BBA
330
3B2D
100
AcDbEntity
  8
DEFPOINTS
 62
     0
100
AcDbPoint
 10
130.7255956149869
 20
105.4686950255653
 30
0.0
  0
POINT
  5
3BBB
330
3B2D
100
AcDbEntity
  8
DEFPOINTS
 62
     0
100
AcDbPoint
 10
130.7255956149869
 20
131.1328898609256
 30
0.0
  0
ENDBLK
  5
3B38
330
3B2D
100
AcDbEntity
  8
0
100
AcDbBlockEnd
  0
BLOCK
  5
3B44
330
3B3A
100
AcDbEntity
  8
0
100
AcDbBlockBegin
  2
*D84
 70
     1
 10
0.0
 20
0.0
 30
0.0
  3
*D84
  1

  0
LINE
  5
3BA1
330
3B3A
100
AcDbEntity
  8
SUNPOU
 62
    70
370
    -2
100
AcDbLine
 10
-19.27440438500724
 20
106.3927336291364
 30
0.0
 11
-33.65713159452923
 21
106.3927336291365
 31
0.0
  0
LINE
  5
3BA2
330
3B3A
100
AcDbEntity
  8
SUNPOU
 62
    70
370
    -2
100
AcDbLine
 10
-19.43240988204923
 20
46.39273362913645
 30
0.0
 11
-33.65713159452924
 21
46.39273362913645
 31
0.0
  0
LINE
  5
3BA3
330
3B3A
100
AcDbEntity
  8
SUNPOU
 62
    60
370
    -2
100
AcDbLine
 10
-33.65713159452923
 20
104.3927336291365
 30
0.0
 11
-33.65713159452923
 21
48.39273362913645
 31
0.0
  0
INSERT
  5
3BA4
330
3B3A
100
AcDbEntity
  8
SUNPOU
 62
    60
370
    -2
100
AcDbBlockReference
  2
_Dot
 10
-33.65713159452923
 20
106.3927336291365
 30
0.0
 41
2.0
 42
2.0
 43
2.0
 50
90.0
  0
INSERT
  5
3BA5
330
3B3A
100
AcDbEntity
  8
SUNPOU
 62
    60
370
    -2
100
AcDbBlockReference
  2
_Dot
 10
-33.65713159452924
 20
46.39273362913645
 30
0.0
 41
2.0
 42
2.0
 43
2.0
 50
270.0
  0
MTEXT
  5
3BA6
330
3B3A
100
AcDbEntity
  8
SUNPOU
 62
    60
100
AcDbMText
 10
-41.65713159452923
 20
76.39273362913645
 30
0.0
 40
10.0
 41
0.0
 71
     5
 72
     1
  1
\A1;60
  7
SUNPOU
 11
0.0000000000000001
 21
1.0
 31
0.0
 73
     1
 44
1.0
1001
ACAD
1000
MTEXTBEGIN
1070
    73
1070
     1
1070
    44
1040
1.0
1070
    74
1070
     0
1000
MTEXTEND
  0
POINT
  5
3BA7
330
3B3A
100
AcDbEntity
  8
DEFPOINTS
 62
     0
100
AcDbPoint
 10
-9.274404385007244
 20
106.3927336291364
 30
0.0
  0
POINT
  5
3BA8
330
3B3A
100
AcDbEntity
  8
DEFPOINTS
 62
     0
100
AcDbPoint
 10
-9.432409882049228
 20
46.39273362913644
 30
0.0
  0
POINT
  5
3BA9
330
3B3A
100
AcDbEntity
  8
DEFPOINTS
 62
     0
100
AcDbPoint
 10
-33.65713159452924
 20
46.39273362913645
 30
0.0
  0
ENDBLK
  5
3B45
330
3B3A
100
AcDbEntity
  8
0
100
AcDbBlockEnd
  0
BLOCK
  5
3D37
330
3D2D
100
AcDbEntity
  8
0
100
AcDbBlockBegin
  2
*D86
 70
     1
 10
0.0
 20
0.0
 30
0.0
  3
*D86
  1

  0
LINE
  5
3DA8
330
3D2D
100
AcDbEntity
  8
SUNPOU
 62
    70
370
    -2
100
AcDbLine
 10
-216.7182434847339
 20
298.5498201292545
 30
0.0
 11
-216.7182434847339
 21
344.3264832414134
 31
0.0
  0
LINE
  5
3DA9
330
3D2D
100
AcDbEntity
  8
SUNPOU
 62
    70
370
    -2
100
AcDbLine
 10
383.2817565152661
 20
303.5155978063508
 30
0.0
 11
383.2817565152661
 21
344.3264832414134
 31
0.0
  0
LINE
  5
3DAA
330
3D2D
100
AcDbEntity
  8
SUNPOU
 62
    60
370
    -2
100
AcDbLine
 10
-214.7182434847339
 20
344.3264832414134
 30
0.0
 11
381.2817565152661
 21
344.3264832414134
 31
0.0
  0
INSERT
  5
3DAB
330
3D2D
100
AcDbEntity
  8
SUNPOU
 62
    60
370
    -2
100
AcDbBlockReference
  2
_Dot
 10
-216.7182434847339
 20
344.3264832414134
 30
0.0
 41
2.0
 42
2.0
 43
2.0
 50
180.0
  0
INSERT
  5
3DAC
330
3D2D
100
AcDbEntity
  8
SUNPOU
 62
    60
370
    -2
100
AcDbBlockReference
  2
_Dot
 10
383.2817565152661
 20
344.3264832414134
 30
0.0
 41
2.0
 42
2.0
 43
2.0
  0
MTEXT
  5
3DAD
330
3D2D
100
AcDbEntity
  8
SUNPOU
 62
    60
100
AcDbMText
 10
83.28175651526612
 20
352.3264832414134
 30
0.0
 40
10.0
 41
0.0
 71
     5
 72
     1
  1
\A1;600
  7
SUNPOU
 73
     1
 44
1.0
1001
ACAD
1000
MTEXTBEGIN
1070
    73
1070
     1
1070
    44
1040
1.0
1070
    74
1070
     0
1000
MTEXTEND
  0
POINT
  5
3DAE
330
3D2D
100
AcDbEntity
  8
DEFPOINTS
 62
     0
100
AcDbPoint
 10
-216.7182434847339
 20
288.5498201292545
 30
0.0
  0
POINT
  5
3DAF
330
3D2D
100
AcDbEntity
  8
DEFPOINTS
 62
     0
100
AcDbPoint
 10
383.2817565152661
 20
293.5155978063508
 30
0.0
  0
POINT
  5
3DB0
330
3D2D
100
AcDbEntity
  8
DEFPOINTS
 62
     0
100
AcDbPoint
 10
383.2817565152661
 20
344.3264832414134
 30
0.0
  0
ENDBLK
  5
3D38
330
3D2D
100
AcDbEntity
  8
0
100
AcDbBlockEnd
  0
BLOCK
  5
3D44
330
3D3A
100
AcDbEntity
  8
0
100
AcDbBlockBegin
  2
*D87
 70
     1
 10
0.0
 20
0.0
 30
0.0
  3
*D87
  1

  0
LINE
  5
3D96
330
3D3A
100
AcDbEntity
  8
SUNPOU
 62
    70
370
    -2
100
AcDbLine
 10
-226.7182434847339
 20
288.5498201292545
 30
0.0
 11
-304.1079869232616
 21
288.5498201292545
 31
0.0
  0
LINE
  5
3D97
330
3D3A
100
AcDbEntity
  8
SUNPOU
 62
    70
370
    -2
100
AcDbLine
 10
-227.1359776599575
 20
93.54982012925452
 30
0.0
 11
-304.1079869232617
 21
93.54982012925452
 31
0.0
  0
LINE
  5
3D98
330
3D3A
100
AcDbEntity
  8
SUNPOU
 62
    60
370
    -2
100
AcDbLine
 10
-304.1079869232616
 20
286.5498201292545
 30
0.0
 11
-304.1079869232617
 21
95.54982012925453
 31
0.0
  0
INSERT
  5
3D99
330
3D3A
100
AcDbEntity
  8
SUNPOU
 62
    60
370
    -2
100
AcDbBlockReference
  2
_Dot
 10
-304.1079869232616
 20
288.5498201292545
 30
0.0
 41
2.0
 42
2.0
 43
2.0
 50
90.0
  0
INSERT
  5
3D9A
330
3D3A
100
AcDbEntity
  8
SUNPOU
 62
    60
370
    -2
100
AcDbBlockReference
  2
_Dot
 10
-304.1079869232617
 20
93.54982012925452
 30
0.0
 41
2.0
 42
2.0
 43
2.0
 50
270.0
  0
MTEXT
  5
3D9B
330
3D3A
100
AcDbEntity
  8
SUNPOU
 62
    60
100
AcDbMText
 10
-312.1079869232617
 20
191.0498201292545
 30
0.0
 40
10.0
 41
0.0
 71
     5
 72
     1
  1
\A1;195
  7
SUNPOU
 11
0.0000000000000001
 21
1.0
 31
0.0
 73
     1
 44
1.0
1001
ACAD
1000
MTEXTBEGIN
1070
    73
1070
     1
1070
    44
1040
1.0
1070
    74
1070
     0
1000
MTEXTEND
  0
POINT
  5
3D9C
330
3D3A
100
AcDbEntity
  8
DEFPOINTS
 62
     0
100
AcDbPoint
 10
-216.7182434847339
 20
288.5498201292545
 30
0.0
  0
POINT
  5
3D9D
330
3D3A
100
AcDbEntity
  8
DEFPOINTS
 62
     0
100
AcDbPoint
 10
-217.1359776599575
 20
93.5498201292545
 30
0.0
  0
POINT
  5
3D9E
330
3D3A
100
AcDbEntity
  8
DEFPOINTS
 62
     0
100
AcDbPoint
 10
-304.1079869232617
 20
93.54982012925452
 30
0.0
  0
ENDBLK
  5
3D45
330
3D3A
100
AcDbEntity
  8
0
100
AcDbBlockEnd
  0
BLOCK
  5
3F2A
330
3F20
100
AcDbEntity
  8
0
100
AcDbBlockBegin
  2
*D89
 70
     1
 10
0.0
 20
0.0
 30
0.0
  3
*D89
  1

  0
LINE
  5
3F9A
330
3F20
100
AcDbEntity
  8
SUNPOU
 62
    70
370
    -2
100
AcDbLine
 10
-171.7799306511583
 20
243.6438293736883
 30
0.0
 11
-171.7799306511583
 21
294.8058791037634
 31
0.0
  0
LINE
  5
3F9B
330
3F20
100
AcDbEntity
  8
SUNPOU
 62
    70
370
    -2
100
AcDbLine
 10
328.2200693488416
 20
244.4171992733745
 30
0.0
 11
328.2200693488416
 21
294.8058791037634
 31
0.0
  0
LINE
  5
3F9C
330
3F20
100
AcDbEntity
  8
SUNPOU
 62
    60
370
    -2
100
AcDbLine
 10
-169.7799306511583
 20
294.8058791037634
 30
0.0
 11
326.2200693488417
 21
294.8058791037634
 31
0.0
  0
INSERT
  5
3F9D
330
3F20
100
AcDbEntity
  8
SUNPOU
 62
    60
370
    -2
100
AcDbBlockReference
  2
_Dot
 10
-171.7799306511583
 20
294.8058791037634
 30
0.0
 41
2.0
 42
2.0
 43
2.0
 50
180.0
  0
INSERT
  5
3F9E
330
3F20
100
AcDbEntity
  8
SUNPOU
 62
    60
370
    -2
100
AcDbBlockReference
  2
_Dot
 10
328.2200693488416
 20
294.8058791037634
 30
0.0
 41
2.0
 42
2.0
 43
2.0
  0
MTEXT
  5
3F9F
330
3F20
100
AcDbEntity
  8
SUNPOU
 62
    60
100
AcDbMText
 10
78.22006934884166
 20
302.8058791037633
 30
0.0
 40
10.0
 41
0.0
 71
     5
 72
     1
  1
\A1;500
  7
SUNPOU
 73
     1
 44
1.0
1001
ACAD
1000
MTEXTBEGIN
1070
    73
1070
     1
1070
    44
1040
1.0
1070
    74
1070
     0
1000
MTEXTEND
  0
POINT
  5
3FA0
330
3F20
100
AcDbEntity
  8
DEFPOINTS
 62
     0
100
AcDbPoint
 10
-171.7799306511583
 20
233.6438293736883
 30
0.0
  0
POINT
  5
3FA1
330
3F20
100
AcDbEntity
  8
DEFPOINTS
 62
     0
100
AcDbPoint
 10
328.2200693488416
 20
234.4171992733745
 30
0.0
  0
POINT
  5
3FA2
330
3F20
100
AcDbEntity
  8
DEFPOINTS
 62
     0
100
AcDbPoint
 10
328.2200693488416
 20
294.8058791037634
 30
0.0
  0
ENDBLK
  5
3F2B
330
3F20
100
AcDbEntity
  8
0
100
AcDbBlockEnd
  0
BLOCK
  5
3F37
330
3F2D
100
AcDbEntity
  8
0
100
AcDbBlockBegin
  2
*D90
 70
     1
 10
0.0
 20
0.0
 30
0.0
  3
*D90
  1

  0
LINE
  5
3F88
330
3F2D
100
AcDbEntity
  8
SUNPOU
 62
    70
370
    -2
100
AcDbLine
 10
-181.7799306511583
 20
233.6438293736883
 30
0.0
 11
-228.1049532351698
 21
233.6438293736883
 31
0.0
  0
LINE
  5
3F89
330
3F2D
100
AcDbEntity
  8
SUNPOU
 62
    70
370
    -2
100
AcDbLine
 10
-182.8189487700756
 20
66.64382937368819
 30
0.0
 11
-228.1049532351699
 21
66.6438293736882
 31
0.0
  0
LINE
  5
3F8A
330
3F2D
100
AcDbEntity
  8
SUNPOU
 62
    60
370
    -2
100
AcDbLine
 10
-228.1049532351698
 20
231.6438293736883
 30
0.0
 11
-228.1049532351699
 21
68.6438293736882
 31
0.0
  0
INSERT
  5
3F8B
330
3F2D
100
AcDbEntity
  8
SUNPOU
 62
    60
370
    -2
100
AcDbBlockReference
  2
_Dot
 10
-228.1049532351698
 20
233.6438293736883
 30
0.0
 41
2.0
 42
2.0
 43
2.0
 50
90.0
  0
INSERT
  5
3F8C
330
3F2D
100
AcDbEntity
  8
SUNPOU
 62
    60
370
    -2
100
AcDbBlockReference
  2
_Dot
 10
-228.1049532351699
 20
66.6438293736882
 30
0.0
 41
2.0
 42
2.0
 43
2.0
 50
270.0
  0
MTEXT
  5
3F8D
330
3F2D
100
AcDbEntity
  8
SUNPOU
 62
    60
100
AcDbMText
 10
-236.1049532351699
 20
150.1438293736882
 30
0.0
 40
10.0
 41
0.0
 71
     5
 72
     1
  1
\A1;167
  7
SUNPOU
 11
0.0000000000000001
 21
1.0
 31
0.0
 73
     1
 44
1.0
1001
ACAD
1000
MTEXTBEGIN
1070
    73
1070
     1
1070
    44
1040
1.0
1070
    74
1070
     0
1000
MTEXTEND
  0
POINT
  5
3F8E
330
3F2D
100
AcDbEntity
  8
DEFPOINTS
 62
     0
100
AcDbPoint
 10
-171.7799306511583
 20
233.6438293736883
 30
0.0
  0
POINT
  5
3F8F
330
3F2D
100
AcDbEntity
  8
DEFPOINTS
 62
     0
100
AcDbPoint
 10
-172.8189487700756
 20
66.64382937368819
 30
0.0
  0
POINT
  5
3F90
330
3F2D
100
AcDbEntity
  8
DEFPOINTS
 62
     0
100
AcDbPoint
 10
-228.1049532351699
 20
66.6438293736882
 30
0.0
  0
ENDBLK
  5
3F38
330
3F2D
100
AcDbEntity
  8
0
100
AcDbBlockEnd
  0
BLOCK
  5
411D
330
4113
100
AcDbEntity
  8
0
100
AcDbBlockBegin
  2
*D92
 70
     1
 10
0.0
 20
0.0
 30
0.0
  3
*D92
  1

  0
LINE
  5
4196
330
4113
100
AcDbEntity
  8
SUNPOU
 62
    70
370
    -2
100
AcDbLine
 10
-116.2914213925551
 20
214.1651106888427
 30
0.0
 11
-116.2914213925551
 21
254.7405778968164
 31
0.0
  0
LINE
  5
4197
330
4113
100
AcDbEntity
  8
SUNPOU
 62
    70
370
    -2
100
AcDbLine
 10
283.7085786074449
 20
215.8970289941608
 30
0.0
 11
283.7085786074449
 21
254.7405778968164
 31
0.0
  0
LINE
  5
4198
330
4113
100
AcDbEntity
  8
SUNPOU
 62
    60
370
    -2
100
AcDbLine
 10
-114.2914213925551
 20
254.7405778968164
 30
0.0
 11
281.7085786074449
 21
254.7405778968164
 31
0.0
  0
INSERT
  5
4199
330
4113
100
AcDbEntity
  8
SUNPOU
 62
    60
370
    -2
100
AcDbBlockReference
  2
_Dot
 10
-116.2914213925551
 20
254.7405778968164
 30
0.0
 41
2.0
 42
2.0
 43
2.0
 50
180.0
  0
INSERT
  5
419A
330
4113
100
AcDbEntity
  8
SUNPOU
 62
    60
370
    -2
100
AcDbBlockReference
  2
_Dot
 10
283.7085786074449
 20
254.7405778968164
 30
0.0
 41
2.0
 42
2.0
 43
2.0
  0
MTEXT
  5
419B
330
4113
100
AcDbEntity
  8
SUNPOU
 62
    60
100
AcDbMText
 10
83.70857860744491
 20
262.7405778968164
 30
0.0
 40
10.0
 41
0.0
 71
     5
 72
     1
  1
\A1;400
  7
SUNPOU
 73
     1
 44
1.0
1001
ACAD
1000
MTEXTBEGIN
1070
    73
1070
     1
1070
    44
1040
1.0
1070
    74
1070
     0
1000
MTEXTEND
  0
POINT
  5
419C
330
4113
100
AcDbEntity
  8
DEFPOINTS
 62
     0
100
AcDbPoint
 10
-116.2914213925551
 20
204.1651106888427
 30
0.0
  0
POINT
  5
419D
330
4113
100
AcDbEntity
  8
DEFPOINTS
 62
     0
100
AcDbPoint
 10
283.7085786074449
 20
205.8970289941608
 30
0.0
  0
POINT
  5
419E
330
4113
100
AcDbEntity
  8
DEFPOINTS
 62
     0
100
AcDbPoint
 10
283.7085786074449
 20
254.7405778968164
 30
0.0
  0
ENDBLK
  5
411E
330
4113
100
AcDbEntity
  8
0
100
AcDbBlockEnd
  0
BLOCK
  5
412A
330
4120
100
AcDbEntity
  8
0
100
AcDbBlockBegin
  2
*D93
 70
     1
 10
0.0
 20
0.0
 30
0.0
  3
*D93
  1

  0
LINE
  5
4184
330
4120
100
AcDbEntity
  8
SUNPOU
 62
    70
370
    -2
100
AcDbLine
 10
-126.2914213925551
 20
204.1651106888427
 30
0.0
 11
-176.1343835884108
 21
204.1651106888427
 31
0.0
  0
LINE
  5
4185
330
4120
100
AcDbEntity
  8
SUNPOU
 62
    70
370
    -2
100
AcDbLine
 10
-125.9948475759538
 20
64.16511068884261
 30
0.0
 11
-176.1343835884108
 21
64.16511068884263
 31
0.0
  0
LINE
  5
4186
330
4120
100
AcDbEntity
  8
SUNPOU
 62
    60
370
    -2
100
AcDbLine
 10
-176.1343835884108
 20
202.1651106888427
 30
0.0
 11
-176.1343835884108
 21
66.16511068884263
 31
0.0
  0
INSERT
  5
4187
330
4120
100
AcDbEntity
  8
SUNPOU
 62
    60
370
    -2
100
AcDbBlockReference
  2
_Dot
 10
-176.1343835884108
 20
204.1651106888427
 30
0.0
 41
2.0
 42
2.0
 43
2.0
 50
90.0
  0
INSERT
  5
4188
330
4120
100
AcDbEntity
  8
SUNPOU
 62
    60
370
    -2
100
AcDbBlockReference
  2
_Dot
 10
-176.1343835884108
 20
64.16511068884263
 30
0.0
 41
2.0
 42
2.0
 43
2.0
 50
270.0
  0
MTEXT
  5
4189
330
4120
100
AcDbEntity
  8
SUNPOU
 62
    60
100
AcDbMText
 10
-184.1343835884108
 20
134.1651106888426
 30
0.0
 40
10.0
 41
0.0
 71
     5
 72
     1
  1
\A1;140
  7
SUNPOU
 11
0.0000000000000001
 21
1.0
 31
0.0
 73
     1
 44
1.0
1001
ACAD
1000
MTEXTBEGIN
1070
    73
1070
     1
1070
    44
1040
1.0
1070
    74
1070
     0
1000
MTEXTEND
  0
POINT
  5
418A
330
4120
100
AcDbEntity
  8
DEFPOINTS
 62
     0
100
AcDbPoint
 10
-116.2914213925551
 20
204.1651106888427
 30
0.0
  0
POINT
  5
418B
330
4120
100
AcDbEntity
  8
DEFPOINTS
 62
     0
100
AcDbPoint
 10
-115.9948475759538
 20
64.16511068884261
 30
0.0
  0
POINT
  5
418C
330
4120
100
AcDbEntity
  8
DEFPOINTS
 62
     0
100
AcDbPoint
 10
-176.1343835884108
 20
64.16511068884263
 30
0.0
  0
ENDBLK
  5
412B
330
4120
100
AcDbEntity
  8
0
100
AcDbBlockEnd
  0
BLOCK
  5
4319
330
430F
100
AcDbEntity
  8
0
100
AcDbBlockBegin
  2
*D95
 70
     1
 10
0.0
 20
0.0
 30
0.0
  3
*D95
  1

  0
LINE
  5
4392
330
430F
100
AcDbEntity
  8
SUNPOU
 62
    70
370
    -2
100
AcDbLine
 10
-84.22043254813889
 20
152.5849428298555
 30
0.0
 11
-84.22043254813889
 21
195.0659752419669
 31
0.0
  0
LINE
  5
4393
330
430F
100
AcDbEntity
  8
SUNPOU
 62
    70
370
    -2
100
AcDbLine
 10
215.7795674518611
 20
154.1727972850744
 30
0.0
 11
215.7795674518611
 21
195.0659752419669
 31
0.0
  0
LINE
  5
4394
330
430F
100
AcDbEntity
  8
SUNPOU
 62
    60
370
    -2
100
AcDbLine
 10
-82.22043254813888
 20
195.0659752419669
 30
0.0
 11
213.7795674518611
 21
195.0659752419669
 31
0.0
  0
INSERT
  5
4395
330
430F
100
AcDbEntity
  8
SUNPOU
 62
    60
370
    -2
100
AcDbBlockReference
  2
_Dot
 10
-84.22043254813889
 20
195.0659752419669
 30
0.0
 41
2.0
 42
2.0
 43
2.0
 50
180.0
  0
INSERT
  5
4396
330
430F
100
AcDbEntity
  8
SUNPOU
 62
    60
370
    -2
100
AcDbBlockReference
  2
_Dot
 10
215.7795674518611
 20
195.0659752419669
 30
0.0
 41
2.0
 42
2.0
 43
2.0
  0
MTEXT
  5
4397
330
430F
100
AcDbEntity
  8
SUNPOU
 62
    60
100
AcDbMText
 10
65.77956745186111
 20
203.065975241967
 30
0.0
 40
10.0
 41
0.0
 71
     5
 72
     1
  1
\A1;300
  7
SUNPOU
 73
     1
 44
1.0
1001
ACAD
1000
MTEXTBEGIN
1070
    73
1070
     1
1070
    44
1040
1.0
1070
    74
1070
     0
1000
MTEXTEND
  0
POINT
  5
4398
330
430F
100
AcDbEntity
  8
DEFPOINTS
 62
     0
100
AcDbPoint
 10
-84.22043254813889
 20
142.5849428298555
 30
0.0
  0
POINT
  5
4399
330
430F
100
AcDbEntity
  8
DEFPOINTS
 62
     0
100
AcDbPoint
 10
215.7795674518611
 20
144.1727972850744
 30
0.0
  0
POINT
  5
439A
330
430F
100
AcDbEntity
  8
DEFPOINTS
 62
     0
100
AcDbPoint
 10
215.7795674518611
 20
195.0659752419669
 30
0.0
  0
ENDBLK
  5
431A
330
430F
100
AcDbEntity
  8
0
100
AcDbBlockEnd
  0
BLOCK
  5
4326
330
431C
100
AcDbEntity
  8
0
100
AcDbBlockBegin
  2
*D96
 70
     1
 10
0.0
 20
0.0
 30
0.0
  3
*D96
  1

  0
LINE
  5
4380
330
431C
100
AcDbEntity
  8
SUNPOU
 62
    70
370
    -2
100
AcDbLine
 10
-94.22043254813889
 20
142.5849428298555
 30
0.0
 11
-127.7379072557178
 21
142.5849428298555
 31
0.0
  0
LINE
  5
4381
330
431C
100
AcDbEntity
  8
SUNPOU
 62
    70
370
    -2
100
AcDbLine
 10
-95.39648315633803
 20
49.58494282985543
 30
0.0
 11
-127.7379072557178
 21
49.58494282985544
 31
0.0
  0
LINE
  5
4382
330
431C
100
AcDbEntity
  8
SUNPOU
 62
    60
370
    -2
100
AcDbLine
 10
-127.7379072557178
 20
140.5849428298555
 30
0.0
 11
-127.7379072557178
 21
51.58494282985543
 31
0.0
  0
INSERT
  5
4383
330
431C
100
AcDbEntity
  8
SUNPOU
 62
    60
370
    -2
100
AcDbBlockReference
  2
_Dot
 10
-127.7379072557178
 20
142.5849428298555
 30
0.0
 41
2.0
 42
2.0
 43
2.0
 50
90.0
  0
INSERT
  5
4384
330
431C
100
AcDbEntity
  8
SUNPOU
 62
    60
370
    -2
100
AcDbBlockReference
  2
_Dot
 10
-127.7379072557178
 20
49.58494282985544
 30
0.0
 41
2.0
 42
2.0
 43
2.0
 50
270.0
  0
MTEXT
  5
4385
330
431C
100
AcDbEntity
  8
SUNPOU
 62
    60
100
AcDbMText
 10
-135.7379072557178
 20
96.08494282985546
 30
0.0
 40
10.0
 41
0.0
 71
     5
 72
     1
  1
\A1;93
  7
SUNPOU
 11
0.0000000000000001
 21
1.0
 31
0.0
 73
     1
 44
1.0
1001
ACAD
1000
MTEXTBEGIN
1070
    73
1070
     1
1070
    44
1040
1.0
1070
    74
1070
     0
1000
MTEXTEND
  0
POINT
  5
4386
330
431C
100
AcDbEntity
  8
DEFPOINTS
 62
     0
100
AcDbPoint
 10
-84.22043254813889
 20
142.5849428298555
 30
0.0
  0
POINT
  5
4387
330
431C
100
AcDbEntity
  8
DEFPOINTS
 62
     0
100
AcDbPoint
 10
-85.39648315633803
 20
49.58494282985543
 30
0.0
  0
POINT
  5
4388
330
431C
100
AcDbEntity
  8
DEFPOINTS
 62
     0
100
AcDbPoint
 10
-127.7379072557178
 20
49.58494282985544
 30
0.0
  0
ENDBLK
  5
4327
330
431C
100
AcDbEntity
  8
0
100
AcDbBlockEnd
  0
BLOCK
  5
4515
330
450B
100
AcDbEntity
  8
0
100
AcDbBlockBegin
  2
*D98
 70
     1
 10
0.0
 20
0.0
 30
0.0
  3
*D98
  1

  0
LINE
  5
4587
330
450B
100
AcDbEntity
  8
SUNPOU
 62
    70
370
    -2
100
AcDbLine
 10
-30.19178240027213
 20
119.1005919951203
 30
0.0
 11
-30.19178240027213
 21
135.1431922466149
 31
0.0
  0
LINE
  5
4588
330
450B
100
AcDbEntity
  8
SUNPOU
 62
    70
370
    -2
100
AcDbLine
 10
169.8082175997278
 20
120.0650453891685
 30
0.0
 11
169.8082175997278
 21
135.1431922466149
 31
0.0
  0
LINE
  5
4589
330
450B
100
AcDbEntity
  8
SUNPOU
 62
    60
370
    -2
100
AcDbLine
 10
-28.19178240027213
 20
135.1431922466149
 30
0.0
 11
167.8082175997279
 21
135.1431922466149
 31
0.0
  0
INSERT
  5
458A
330
450B
100
AcDbEntity
  8
SUNPOU
 62
    60
370
    -2
100
AcDbBlockReference
  2
_Dot
 10
-30.19178240027213
 20
135.1431922466149
 30
0.0
 41
2.0
 42
2.0
 43
2.0
 50
180.0
  0
INSERT
  5
458B
330
450B
100
AcDbEntity
  8
SUNPOU
 62
    60
370
    -2
100
AcDbBlockReference
  2
_Dot
 10
169.8082175997278
 20
135.1431922466149
 30
0.0
 41
2.0
 42
2.0
 43
2.0
  0
MTEXT
  5
458C
330
450B
100
AcDbEntity
  8
SUNPOU
 62
    60
100
AcDbMText
 10
69.80821759972787
 20
143.1431922466149
 30
0.0
 40
10.0
 41
0.0
 71
     5
 72
     1
  1
\A1;200
  7
SUNPOU
 73
     1
 44
1.0
1001
ACAD
1000
MTEXTBEGIN
1070
    73
1070
     1
1070
    44
1040
1.0
1070
    74
1070
     0
1000
MTEXTEND
  0
POINT
  5
458D
330
450B
100
AcDbEntity
  8
DEFPOINTS
 62
     0
100
AcDbPoint
 10
-30.19178240027213
 20
109.1005919951203
 30
0.0
  0
POINT
  5
458E
330
450B
100
AcDbEntity
  8
DEFPOINTS
 62
     0
100
AcDbPoint
 10
169.8082175997278
 20
110.0650453891685
 30
0.0
  0
POINT
  5
458F
330
450B
100
AcDbEntity
  8
DEFPOINTS
 62
     0
100
AcDbPoint
 10
169.8082175997278
 20
135.1431922466149
 30
0.0
  0
ENDBLK
  5
4516
330
450B
100
AcDbEntity
  8
0
100
AcDbBlockEnd
  0
BLOCK
  5
4522
330
4518
100
AcDbEntity
  8
0
100
AcDbBlockBegin
  2
*D99
 70
     1
 10
0.0
 20
0.0
 30
0.0
  3
*D99
  1

  0
LINE
  5
4575
330
4518
100
AcDbEntity
  8
SUNPOU
 62
    70
370
    -2
100
AcDbLine
 10
-40.19178240027214
 20
109.1005919951203
 30
0.0
 11
-57.46671658807462
 21
109.1005919951203
 31
0.0
  0
LINE
  5
4576
330
4518
100
AcDbEntity
  8
SUNPOU
 62
    70
370
    -2
100
AcDbLine
 10
-40.9674180703596
 20
49.10059199512026
 30
0.0
 11
-57.46671658807463
 21
49.10059199512027
 31
0.0
  0
LINE
  5
4577
330
4518
100
AcDbEntity
  8
SUNPOU
 62
    60
370
    -2
100
AcDbLine
 10
-57.46671658807462
 20
107.1005919951203
 30
0.0
 11
-57.46671658807463
 21
51.10059199512027
 31
0.0
  0
INSERT
  5
4578
330
4518
100
AcDbEntity
  8
SUNPOU
 62
    60
370
    -2
100
AcDbBlockReference
  2
_Dot
 10
-57.46671658807462
 20
109.1005919951203
 30
0.0
 41
2.0
 42
2.0
 43
2.0
 50
90.0
  0
INSERT
  5
4579
330
4518
100
AcDbEntity
  8
SUNPOU
 62
    60
370
    -2
100
AcDbBlockReference
  2
_Dot
 10
-57.46671658807463
 20
49.10059199512027
 30
0.0
 41
2.0
 42
2.0
 43
2.0
 50
270.0
  0
MTEXT
  5
457A
330
4518
100
AcDbEntity
  8
SUNPOU
 62
    60
100
AcDbMText
 10
-65.46671658807465
 20
79.10059199512028
 30
0.0
 40
10.0
 41
0.0
 71
     5
 72
     1
  1
\A1;60
  7
SUNPOU
 11
0.0000000000000001
 21
1.0
 31
0.0
 73
     1
 44
1.0
1001
ACAD
1000
MTEXTBEGIN
1070
    73
1070
     1
1070
    44
1040
1.0
1070
    74
1070
     0
1000
MTEXTEND
  0
POINT
  5
457B
330
4518
100
AcDbEntity
  8
DEFPOINTS
 62
     0
100
AcDbPoint
 10
-30.19178240027213
 20
109.1005919951203
 30
0.0
  0
POINT
  5
457C
330
4518
100
AcDbEntity
  8
DEFPOINTS
 62
     0
100
AcDbPoint
 10
-30.9674180703596
 20
49.10059199512026
 30
0.0
  0
POINT
  5
457D
330
4518
100
AcDbEntity
  8
DEFPOINTS
 62
     0
100
AcDbPoint
 10
-57.46671658807463
 20
49.10059199512027
 30
0.0
  0
ENDBLK
  5
4523
330
4518
100
AcDbEntity
  8
0
100
AcDbBlockEnd
  0
ENDSEC
  0
SECTION
  2
ENTITIES
  0
LINE
  5
1F
330
2
100
AcDbEntity
  8
WAKU
100
AcDbLine
 10
0.0
 20
14.0
 30
0.0
 11
141.7992909508968
 21
13.99999999999999
 31
0.0
  0
LINE
  5
20
330
2
100
AcDbEntity
  8
WAKU
100
AcDbLine
 10
0.0
 20
0.0
 30
0.0
 11
141.7992909508968
 21
0.0
 31
0.0
  0
TEXT
  5
21
330
2
100
AcDbEntity
  8
HOJO
100
AcDbText
 10
9.653966000000025
 20
2.366626000000024
 30
0.0
 40
9.0
  1
TC386
  7
SUNPOU
100
AcDbText
  0
TEXT
  5
23
330
2
100
AcDbEntity
  8
HOJO
100
AcDbText
 10
75.65253479254602
 20
5.044386000000031
 30
0.0
 40
6.0
  1
200×60×10
  7
SUNPOU
100
AcDbText
  0
ARC
  5
445B
102
{ACAD_REACTORS
330
4590
102
}
330
2
100
AcDbEntity
  8
KIJUN
100
AcDbCircle
 10
160.2421166618812
 20
97.12606428182121
 30
0.0
 40
46.69220177721616
100
AcDbArc
 50
213.3001733718402
 51
267.9075283811366
  0
ARC
  5
445C
102
{ACAD_REACTORS
330
4590
102
}
330
2
100
AcDbEntity
  8
KIJUN
100
AcDbCircle
 10
147.5358646376626
 20
84.72260070123729
 30
0.0
 40
34.15556969243889
100
AcDbArc
 50
228.0372484466405
 51
264.7748972303539
  0
ARC
  5
445D
102
{ACAD_REACTORS
330
4590
102
}
330
2
100
AcDbEntity
  8
KIJUN
100
AcDbCircle
 10
148.9077871649961
 20
95.96191647525301
 30
0.0
 40
29.54768599151714
100
AcDbArc
 50
235.9286403865918
 51
279.7515201433916
  0
ARC
  5
445E
102
{ACAD_REACTORS
330
4590
102
}
330
2
100
AcDbEntity
  8
KIJUN
100
AcDbCircle
 10
135.307031428666
 20
80.95581970268904
 30
0.0
 40
3.410178049731813
100
AcDbArc
 50
321.0609042242396
 51
59.15738843691526
  0
LINE
  5
445F
102
{ACAD_REACTORS
330
4590
102
}
330
2
100
AcDbEntity
  8
KIJUN
100
AcDbLine
 10
117.444338919222
 20
65.31580162131899
 30
0.0
 11
120.1702794793946
 21
69.76990490891921
 31
0.0
  0
LINE
  5
4460
102
{ACAD_REACTORS
330
4590
102
}
330
2
100
AcDbEntity
  8
KIJUN
100
AcDbLine
 10
120.1702794793946
 20
69.76990490891921
 30
0.0
 11
120.6246037010578
 21
66.13707860811905
 31
0.0
  0
LINE
  5
4461
102
{ACAD_REACTORS
330
4590
102
}
330
2
100
AcDbEntity
  8
KIJUN
100
AcDbLine
 10
22.17209628023102
 20
65.31580162131899
 30
0.0
 11
19.44615572005932
 21
68.01990490891921
 31
0.0
  0
LINE
  5
4462
102
{ACAD_REACTORS
330
4590
102
}
330
2
100
AcDbEntity
  8
KIJUN
100
AcDbLine
 10
19.44615572005932
 20
68.01990490891921
 30
0.0
 11
18.99183149839427
 21
64.38707860811814
 31
0.0
  0
ARC
  5
4463
102
{ACAD_REACTORS
330
4590
102
}
330
2
100
AcDbEntity
  8
KIJUN
100
AcDbCircle
 10
-9.291351965541252
 20
95.96191647525301
 30
0.0
 40
29.54768599151688
100
AcDbArc
 50
260.2484798566084
 51
304.0713596134082
  0
ARC
  5
4464
102
{ACAD_REACTORS
330
4590
102
}
330
2
100
AcDbEntity
  8
KIJUN
100
AcDbCircle
 10
-20.62568146242683
 20
97.12606428182157
 30
0.0
 40
46.69220177721659
100
AcDbArc
 50
272.0924716188649
 51
326.6998266281598
  0
ARC
  5
4465
102
{ACAD_REACTORS
330
4590
102
}
330
2
100
AcDbEntity
  8
KIJUN
100
AcDbCircle
 10
41.58882467427247
 20
68.9187608821992
 30
0.0
 40
12.55954321839015
100
AcDbArc
 50
162.0367654110938
 51
196.2039847613267
  0
ARC
  5
4466
102
{ACAD_REACTORS
330
4590
102
}
330
2
100
AcDbEntity
  8
KIJUN
100
AcDbCircle
 10
98.02761052518144
 20
68.9187608821992
 30
0.0
 40
12.55954321839015
100
AcDbArc
 50
343.7960152386729
 51
17.9632345889062
  0
ARC
  5
4467
102
{ACAD_REACTORS
330
4590
102
}
330
2
100
AcDbEntity
  8
KIJUN
100
AcDbCircle
 10
93.94674151427807
 20
76.948740606613
 30
0.0
 40
11.39759257228982
100
AcDbArc
 50
169.6392465381731
 51
12.22323105117417
  0
ARC
  5
4468
102
{ACAD_REACTORS
330
4590
102
}
330
2
100
AcDbEntity
  8
KIJUN
100
AcDbCircle
 10
45.66969368517402
 20
76.948740606613
 30
0.0
 40
11.39759257228982
100
AcDbArc
 50
167.7767689488258
 51
10.36075346182691
  0
ARC
  5
4469
102
{ACAD_REACTORS
330
4590
102
}
330
2
100
AcDbEntity
  8
KIJUN
100
AcDbCircle
 10
-25.75591896662367
 20
61.60392453822601
 30
0.0
 40
4.051562989192516
100
AcDbArc
 50
27.86571121427093
 51
127.5519098606205
  0
ARC
  5
446A
102
{ACAD_REACTORS
330
4590
102
}
330
2
100
AcDbEntity
  8
KIJUN
100
AcDbCircle
 10
-20.20453452315555
 20
58.31364219759326
 30
0.0
 40
4.836835111365778
100
AcDbArc
 50
117.7085020795851
 51
215.2442317936185
  0
ARC
  5
446B
102
{ACAD_REACTORS
330
4590
102
}
330
2
100
AcDbEntity
  8
KIJUN
100
AcDbCircle
 10
-16.9150360366406
 20
60.45749444200306
 30
0.0
 40
5.936948952997174
100
AcDbArc
 50
158.8892997357547
 51
323.5384528283516
  0
ARC
  5
446C
102
{ACAD_REACTORS
330
4590
102
}
330
2
100
AcDbEntity
  8
KIJUN
100
AcDbCircle
 10
-20.89659120028149
 20
59.54778140366807
 30
0.0
 40
9.29519119999064
100
AcDbArc
 50
161.2759508348539
 51
282.2722172675929
  0
ARC
  5
446D
102
{ACAD_REACTORS
330
4590
102
}
330
2
100
AcDbEntity
  8
KIJUN
100
AcDbCircle
 10
-18.76710611654484
 20
61.32298653678595
 30
0.0
 40
10.08255858172671
100
AcDbArc
 50
159.7301460305678
 51
209.7222290073043
  0
ARC
  5
446E
102
{ACAD_REACTORS
330
4590
102
}
330
2
100
AcDbEntity
  8
KIJUN
100
AcDbCircle
 10
-28.64066149211807
 20
64.618310346827
 30
0.0
 40
0.4600423196680774
100
AcDbArc
 50
25.45116192437449
 51
162.5437259190962
  0
ARC
  5
446F
102
{ACAD_REACTORS
330
4590
102
}
330
2
100
AcDbEntity
  8
KIJUN
100
AcDbCircle
 10
-25.52179102669028
 20
62.56546275350411
 30
0.0
 40
4.178186088412356
100
AcDbArc
 50
148.3752104744911
 51
180.4638770947289
  0
ARC
  5
4470
102
{ACAD_REACTORS
330
4590
102
}
330
2
100
AcDbEntity
  8
KIJUN
100
AcDbCircle
 10
7.618578489762512
 20
51.19742387834299
 30
0.0
 40
2.586061651591844
100
AcDbArc
 50
137.4711263107429
 51
190.6234159525498
  0
ARC
  5
4471
102
{ACAD_REACTORS
330
4590
102
}
330
2
100
AcDbEntity
  8
KIJUN
100
AcDbCircle
 10
6.836130255740499
 20
60.65184559410022
 30
0.0
 40
10.05927869022471
100
AcDbArc
 50
260.84611626319
 51
356.4684600369616
  0
ARC
  5
4472
102
{ACAD_REACTORS
330
4590
102
}
330
2
100
AcDbEntity
  8
KIJUN
100
AcDbCircle
 10
24.95431456265578
 20
60.89131519985312
 30
0.0
 40
8.123562260898482
100
AcDbArc
 50
152.3513156660112
 51
186.0706211363637
  0
LINE
  5
4473
102
{ACAD_REACTORS
330
4590
102
}
330
2
100
AcDbEntity
  8
KIJUN
100
AcDbLine
 10
18.99183149839427
 20
64.38707860811814
 30
0.0
 11
17.75838515962823
 21
64.66104514154927
 31
0.0
  0
LINE
  5
4474
102
{ACAD_REACTORS
330
4590
102
}
330
2
100
AcDbEntity
  8
KIJUN
100
AcDbLine
 10
-8.690927960978115
 20
62.96258701749093
 30
0.0
 11
-14.29601054773047
 21
66.84114828605811
 31
0.0
  0
ARC
  5
4475
102
{ACAD_REACTORS
330
4590
102
}
330
2
100
AcDbEntity
  8
KIJUN
100
AcDbCircle
 10
-2.914871990572464
 20
51.53482101389409
 30
0.0
 40
2.066267216803761
100
AcDbArc
 50
126.5645888566202
 51
203.5586012855597
  0
ARC
  5
4476
102
{ACAD_REACTORS
330
4590
102
}
330
2
100
AcDbEntity
  8
KIJUN
100
AcDbCircle
 10
-26.03108240437359
 20
93.2756700020152
 30
0.0
 40
38.91037712307804
100
AcDbArc
 50
290.9158613320822
 51
312.7141683429928
  0
LINE
  5
4477
102
{ACAD_REACTORS
330
4590
102
}
330
2
100
AcDbEntity
  8
KIJUN
100
AcDbLine
 10
0.363436584530973
 20
64.68639202574332
 30
0.0
 11
-8.690927960978115
 21
62.96258701749093
 31
0.0
  0
LINE
  5
4478
102
{ACAD_REACTORS
330
4590
102
}
330
2
100
AcDbEntity
  8
KIJUN
100
AcDbLine
 10
-0.1671473290580252
 20
56.17696660062211
 30
0.0
 11
-4.145806439953958
 21
53.19441752888315
 31
0.0
  0
ARC
  5
4479
102
{ACAD_REACTORS
330
4590
102
}
330
2
100
AcDbEntity
  8
KIJUN
100
AcDbCircle
 10
-7.91942943820868
 20
84.72260070123729
 30
0.0
 40
34.15556969243889
100
AcDbArc
 50
275.225102769646
 51
311.9627515533594
  0
ARC
  5
447A
102
{ACAD_REACTORS
330
4590
102
}
330
2
100
AcDbEntity
  8
KIJUN
100
AcDbCircle
 10
-22.76351658630132
 20
63.18602791932312
 30
0.0
 40
0.6666666666666666
100
AcDbArc
 50
297.7085020795851
 51
27.86571121427093
  0
ARC
  5
447B
102
{ACAD_REACTORS
330
4590
102
}
330
2
100
AcDbEntity
  8
KIJUN
100
AcDbCircle
 10
20.0879660431101
 20
65.62427045652498
 30
0.0
 40
9.442595532907123
100
AcDbArc
 50
307.7706273465331
 51
358.7235374628376
  0
ARC
  5
447C
102
{ACAD_REACTORS
330
4590
102
}
330
2
100
AcDbEntity
  8
KIJUN
100
AcDbCircle
 10
52.50917006325835
 20
69.10956420406205
 30
0.0
 40
28.80017926315575
100
AcDbArc
 50
183.4842360265338
 51
202.3450945482214
  0
LINE
  5
447D
102
{ACAD_REACTORS
330
4590
102
}
330
2
100
AcDbEntity
  8
KIJUN
100
AcDbLine
 10
23.76222628624327
 20
67.35926449514408
 30
0.0
 11
22.17209628023102
 21
65.31580162131899
 31
0.0
  0
LINE
  5
447E
102
{ACAD_REACTORS
330
4590
102
}
330
2
100
AcDbEntity
  8
KIJUN
100
AcDbLine
 10
85.25141215199438
 20
58.78121923013714
 30
0.0
 11
80.94854781351841
 21
65.0885073209572
 31
0.0
  0
ARC
  5
447F
102
{ACAD_REACTORS
330
4590
102
}
330
2
100
AcDbEntity
  8
KIJUN
100
AcDbCircle
 10
86.90434769466264
 20
63.06799823802816
 30
0.0
 40
11.51847885367513
100
AcDbArc
 50
228.2034240821956
 51
323.4034875069582
  0
LINE
  5
4480
102
{ACAD_REACTORS
330
4590
102
}
330
2
100
AcDbEntity
  8
KIJUN
100
AcDbLine
 10
74.35084111801007
 20
65.37519847939916
 30
0.0
 11
76.64570209853173
 21
59.35460154702719
 31
0.0
  0
LINE
  5
4481
102
{ACAD_REACTORS
330
4590
102
}
330
2
100
AcDbEntity
  8
KIJUN
100
AcDbLine
 10
78.07999021135583
 20
59.35460154702719
 30
0.0
 11
74.35084111801007
 21
65.37519847939916
 31
0.0
  0
LINE
  5
4482
102
{ACAD_REACTORS
330
4590
102
}
330
2
100
AcDbEntity
  8
KIJUN
100
AcDbLine
 10
80.94854781351841
 20
65.0885073209572
 30
0.0
 11
82.38283592634434
 21
59.35460154702719
 31
0.0
  0
ARC
  5
4483
102
{ACAD_REACTORS
330
4590
102
}
330
2
100
AcDbEntity
  8
KIJUN
100
AcDbCircle
 10
43.31168048676135
 20
70.9036322509221
 30
0.0
 40
7.465771420355832
100
AcDbArc
 50
221.5827586863885
 51
315.4040049082341
  0
ARC
  5
4484
102
{ACAD_REACTORS
330
4590
102
}
330
2
100
AcDbEntity
  8
KIJUN
100
AcDbCircle
 10
47.32971633991837
 20
65.4477935796233
 30
0.0
 40
9.891591645773047
100
AcDbArc
 50
178.7597791167874
 51
315.33598607872
  0
ARC
  5
4485
102
{ACAD_REACTORS
330
4590
102
}
330
2
100
AcDbEntity
  8
KIJUN
100
AcDbCircle
 10
52.71208750479127
 20
63.06799823802816
 30
0.0
 40
11.51847885367513
100
AcDbArc
 50
216.5965124930418
 51
311.7965759178043
  0
LINE
  5
4486
102
{ACAD_REACTORS
330
4590
102
}
330
2
100
AcDbEntity
  8
KIJUN
100
AcDbLine
 10
54.36502304745954
 20
58.78121923013714
 30
0.0
 11
58.66788738593459
 21
65.0885073209572
 31
0.0
  0
LINE
  5
4487
102
{ACAD_REACTORS
330
4590
102
}
330
2
100
AcDbEntity
  8
KIJUN
100
AcDbLine
 10
58.66788738593459
 20
65.0885073209572
 30
0.0
 11
57.23359927311048
 21
59.35460154702719
 31
0.0
  0
LINE
  5
4488
102
{ACAD_REACTORS
330
4590
102
}
330
2
100
AcDbEntity
  8
KIJUN
100
AcDbLine
 10
61.53644498809717
 20
59.35460154702719
 30
0.0
 11
65.2655940814393
 21
65.37519847939916
 31
0.0
  0
LINE
  5
4489
102
{ACAD_REACTORS
330
4590
102
}
330
2
100
AcDbEntity
  8
KIJUN
100
AcDbLine
 10
65.2655940814393
 20
65.37519847939916
 30
0.0
 11
62.97073310092128
 21
59.35460154702719
 31
0.0
  0
LINE
  5
448A
102
{ACAD_REACTORS
330
4590
102
}
330
2
100
AcDbEntity
  8
KIJUN
100
AcDbLine
 10
70.16102063732524
 20
53.93627939969087
 30
0.0
 11
69.68876616787565
 21
65.09567330921209
 31
0.0
  0
ARC
  5
448B
102
{ACAD_REACTORS
330
4590
102
}
330
2
100
AcDbEntity
  8
KIJUN
100
AcDbCircle
 10
69.80821759972787
 20
55.84493356752268
 30
0.0
 40
6.744341572402422
100
AcDbArc
 50
233.9508010704416
 51
306.0491989295584
  0
ARC
  5
448C
102
{ACAD_REACTORS
330
4590
102
}
330
2
100
AcDbEntity
  8
KIJUN
100
AcDbCircle
 10
68.15455146465319
 20
53.67986403919163
 30
0.0
 40
4.021200060596825
100
AcDbArc
 50
158.818515422307
 51
234.8471970116325
  0
ARC
  5
448D
102
{ACAD_REACTORS
330
4590
102
}
330
2
100
AcDbEntity
  8
KIJUN
100
AcDbCircle
 10
63.53056129822107
 20
55.51545817589704
 30
0.0
 40
2.92126143991114
100
AcDbArc
 50
112.8321111332239
 51
264.6383052712482
  0
LINE
  5
448E
102
{ACAD_REACTORS
330
4590
102
}
330
2
100
AcDbEntity
  8
KIJUN
100
AcDbLine
 10
71.10551095274423
 20
66.98359112039907
 30
0.0
 11
70.63327510678118
 21
53.46429478407912
 31
0.0
  0
ARC
  5
448F
102
{ACAD_REACTORS
330
4590
102
}
330
2
100
AcDbEntity
  8
KIJUN
100
AcDbCircle
 10
76.08587390123194
 20
55.51545817589704
 30
0.0
 40
2.921261439911009
100
AcDbArc
 50
275.3616947287518
 51
67.16788886677605
  0
ARC
  5
4490
102
{ACAD_REACTORS
330
4590
102
}
330
2
100
AcDbEntity
  8
KIJUN
100
AcDbCircle
 10
71.4618837347989
 20
53.67986403919163
 30
0.0
 40
4.021200060597053
100
AcDbArc
 50
305.1528029883674
 51
21.181484577693
  0
LINE
  5
4491
102
{ACAD_REACTORS
330
4590
102
}
330
2
100
AcDbEntity
  8
KIJUN
100
AcDbLine
 10
120.6246037010578
 20
66.13707860811905
 30
0.0
 11
121.8580500398238
 21
66.41104514154926
 31
0.0
  0
ARC
  5
4492
102
{ACAD_REACTORS
330
4590
102
}
330
2
100
AcDbEntity
  8
KIJUN
100
AcDbCircle
 10
107.7667671350591
 20
61.21206916037113
 30
0.0
 40
15.01977380505554
100
AcDbArc
 50
355.4945780786262
 51
20.25152912516639
  0
ARC
  5
4493
102
{ACAD_REACTORS
330
4590
102
}
330
2
100
AcDbEntity
  8
KIJUN
100
AcDbCircle
 10
132.7803049437116
 20
60.65184559410022
 30
0.0
 40
10.05927869022471
100
AcDbArc
 50
183.5315399630383
 51
279.1538837368099
  0
ARC
  5
4494
102
{ACAD_REACTORS
330
4590
102
}
330
2
100
AcDbEntity
  8
KIJUN
100
AcDbCircle
 10
131.9978567096905
 20
51.19742387834299
 30
0.0
 40
2.586061651591844
100
AcDbArc
 50
349.3765840474502
 51
42.52887368925705
  0
LINE
  5
4495
102
{ACAD_REACTORS
330
4590
102
}
330
2
100
AcDbEntity
  8
KIJUN
100
AcDbLine
 10
115.8542089132106
 20
67.35926449514408
 30
0.0
 11
117.444338919222
 21
65.31580162131899
 31
0.0
  0
ARC
  5
4496
102
{ACAD_REACTORS
330
4590
102
}
330
2
100
AcDbEntity
  8
KIJUN
100
AcDbCircle
 10
87.10726513619556
 20
69.10956420406205
 30
0.0
 40
28.80017926315575
100
AcDbArc
 50
337.6549054517652
 51
356.5157639734662
  0
ARC
  5
4497
102
{ACAD_REACTORS
330
4590
102
}
330
2
100
AcDbEntity
  8
KIJUN
100
AcDbCircle
 10
119.5284691563447
 20
65.62427045652498
 30
0.0
 40
9.442595532907123
100
AcDbArc
 50
181.2764625371624
 51
232.2293726534669
  0
ARC
  5
4498
102
{ACAD_REACTORS
330
4590
102
}
330
2
100
AcDbEntity
  8
KIJUN
100
AcDbCircle
 10
92.28671885953463
 20
65.4477935796233
 30
0.0
 40
9.891591645773047
100
AcDbArc
 50
224.66401392128
 51
1.240220883212544
  0
ARC
  5
4499
102
{ACAD_REACTORS
330
4590
102
}
330
2
100
AcDbEntity
  8
KIJUN
100
AcDbCircle
 10
96.30475471269257
 20
70.9036322509221
 30
0.0
 40
7.465771420355832
100
AcDbArc
 50
224.5959950917659
 51
318.4172413136116
  0
ARC
  5
449A
102
{ACAD_REACTORS
330
4590
102
}
330
2
100
AcDbEntity
  8
KIJUN
100
AcDbCircle
 10
31.73383675027981
 20
72.80411734144422
 30
0.0
 40
2.092369353626643
100
AcDbArc
 50
180.326127342954
 51
339.6673954460179
  0
ARC
  5
449B
102
{ACAD_REACTORS
330
4590
102
}
330
2
100
AcDbEntity
  8
KIJUN
100
AcDbCircle
 10
24.55847395066849
 20
103.039127046886
 30
0.0
 40
14.78708117493066
100
AcDbArc
 50
267.6298462902991
 51
316.8559693754113
  0
ARC
  5
449C
102
{ACAD_REACTORS
330
4590
102
}
330
2
100
AcDbEntity
  8
KIJUN
100
AcDbCircle
 10
43.59273417816621
 20
74.12442223916309
 30
0.0
 40
16.26811011004491
100
AcDbArc
 50
124.3360697987738
 51
151.6916732175656
  0
ARC
  5
449D
102
{ACAD_REACTORS
330
4590
102
}
330
2
100
AcDbEntity
  8
KIJUN
100
AcDbCircle
 10
30.8823687715576
 20
88.5815946772791
 30
0.0
 40
6.942653572483525
100
AcDbArc
 50
67.21965831808972
 51
182.6161844022269
  0
LINE
  5
449E
102
{ACAD_REACTORS
330
4590
102
}
330
2
100
AcDbEntity
  8
KIJUN
100
AcDbLine
 10
7.262000502044429
 20
71.48637215981512
 30
0.0
 11
13.72940715584263
 21
75.79588468044494
 31
0.0
  0
ARC
  5
449F
102
{ACAD_REACTORS
330
4590
102
}
330
2
100
AcDbEntity
  8
KIJUN
100
AcDbCircle
 10
9.848963163562984
 20
85.93160016050706
 30
0.0
 40
10.85313659132641
100
AcDbArc
 50
220.9913160181744
 51
290.9492721614845
  0
ARC
  5
44A0
102
{ACAD_REACTORS
330
4590
102
}
330
2
100
AcDbEntity
  8
KIJUN
100
AcDbCircle
 10
4.309403770785138
 20
80.95581970268904
 30
0.0
 40
3.410178049731813
100
AcDbArc
 50
120.8426115630847
 51
218.9390957757603
  0
ARC
  5
44A1
102
{ACAD_REACTORS
330
4590
102
}
330
2
100
AcDbEntity
  8
KIJUN
100
AcDbCircle
 10
8.113438735764248
 20
85.21325924909001
 30
0.0
 40
5.709332141857557
100
AcDbArc
 50
193.4661062807859
 51
312.7757525273222
  0
ARC
  5
44A2
102
{ACAD_REACTORS
330
4590
102
}
330
2
100
AcDbEntity
  8
KIJUN
100
AcDbCircle
 10
13.67242385569625
 20
84.38881285782121
 30
0.0
 40
3.762948012755706
100
AcDbArc
 50
169.6962869392523
 51
243.4560440858152
  0
ARC
  5
44A3
102
{ACAD_REACTORS
330
4590
102
}
330
2
100
AcDbEntity
  8
KIJUN
100
AcDbCircle
 10
12.83276431950708
 20
104.6678339324921
 30
0.0
 40
19.81383571132942
100
AcDbArc
 50
261.6931177388964
 51
304.120180582414
  0
ARC
  5
44A4
102
{ACAD_REACTORS
330
4590
102
}
330
2
100
AcDbEntity
  8
KIJUN
100
AcDbCircle
 10
29.57854326393863
 20
58.99534463869122
 30
0.0
 40
23.09660713324625
100
AcDbArc
 50
98.48710890194777
 51
133.330886695704
  0
ARC
  5
44A5
102
{ACAD_REACTORS
330
4590
102
}
330
2
100
AcDbEntity
  8
KIJUN
100
AcDbCircle
 10
-206.0070568785641
 20
438.4860123409741
 30
0.0
 40
430.1673334412809
100
AcDbArc
 50
301.4445869884388
 51
302.6656766137648
  0
ARC
  5
44A6
102
{ACAD_REACTORS
330
4590
102
}
330
2
100
AcDbEntity
  8
KIJUN
100
AcDbCircle
 10
-0.6387946104641742
 20
110.417732502673
 30
0.0
 40
89.84622600435464
100
AcDbArc
 50
340.73002943771
 51
344.2029488916496
  0
ARC
  5
44A7
102
{ACAD_REACTORS
330
4590
102
}
330
2
100
AcDbEntity
  8
KIJUN
100
AcDbCircle
 10
94.56615094975678
 20
83.96484320308809
 30
0.0
 40
8.976303950197561
100
AcDbArc
 50
54.66517726557913
 51
167.1653085325161
  0
ARC
  5
44A8
102
{ACAD_REACTORS
330
4590
102
}
330
2
100
AcDbEntity
  8
KIJUN
100
AcDbCircle
 10
86.74260535645407
 20
89.66353921693917
 30
0.0
 40
11.48213946896682
100
AcDbArc
 50
87.12840659177732
 51
150.0691833444034
  0
ARC
  5
44A9
102
{ACAD_REACTORS
330
4590
102
}
330
2
100
AcDbEntity
  8
KIJUN
100
AcDbCircle
 10
88.74815300074534
 20
93.40792010642713
 30
0.0
 40
5.118848774438623
100
AcDbArc
 50
67.15661099851075
 51
166.8462560380414
  0
ARC
  5
44AA
102
{ACAD_REACTORS
330
4590
102
}
330
2
100
AcDbEntity
  8
KIJUN
100
AcDbCircle
 10
86.60402184550184
 20
90.9347194942261
 30
0.0
 40
4.615572401246355
100
AcDbArc
 50
61.28559893105888
 51
127.9808460194078
  0
ARC
  5
44AB
102
{ACAD_REACTORS
330
4590
102
}
330
2
100
AcDbEntity
  8
KIJUN
100
AcDbCircle
 10
79.66403912903479
 20
104.7372779005131
 30
0.0
 40
13.37953047028608
100
AcDbArc
 50
279.9961801342681
 51
313.1917038990693
  0
ARC
  5
44AC
102
{ACAD_REACTORS
330
4590
102
}
330
2
100
AcDbEntity
  8
KIJUN
100
AcDbCircle
 10
75.55223811180622
 20
82.11975159035024
 30
0.0
 40
11.88011184517985
100
AcDbArc
 50
257.1818773010306
 51
308.5540627550656
  0
ARC
  5
44AD
102
{ACAD_REACTORS
330
4590
102
}
330
2
100
AcDbEntity
  8
KIJUN
100
AcDbCircle
 10
79.61826253221443
 20
83.00398180345906
 30
0.0
 40
5.075184901466074
100
AcDbArc
 50
211.4391137152933
 51
333.8434119549987
  0
ARC
  5
44AE
102
{ACAD_REACTORS
330
4590
102
}
330
2
100
AcDbEntity
  8
KIJUN
100
AcDbCircle
 10
63.32818220734589
 20
76.44739714716706
 30
0.0
 40
11.43342792257306
100
AcDbArc
 50
330.4269918302594
 51
20.1382487329073
  0
ARC
  5
44AF
102
{ACAD_REACTORS
330
4590
102
}
330
2
100
AcDbEntity
  8
KIJUN
100
AcDbCircle
 10
140.2552298099153
 20
110.417732502673
 30
0.0
 40
89.84622600435464
100
AcDbArc
 50
195.7970511083504
 51
199.2699705622899
  0
ARC
  5
44B0
102
{ACAD_REACTORS
330
4590
102
}
330
2
100
AcDbEntity
  8
KIJUN
100
AcDbCircle
 10
59.99817266723948
 20
83.00398180345906
 30
0.0
 40
5.075184901466074
100
AcDbArc
 50
206.1565880450012
 51
328.5608862847066
  0
ARC
  5
44B1
102
{ACAD_REACTORS
330
4590
102
}
330
2
100
AcDbEntity
  8
KIJUN
100
AcDbCircle
 10
72.61829277613651
 20
72.61718555122502
 30
0.0
 40
11.34133048615973
100
AcDbArc
 50
103.6958363004266
 51
136.9664844655778
  0
ARC
  5
44B2
102
{ACAD_REACTORS
330
4590
102
}
330
2
100
AcDbEntity
  8
KIJUN
100
AcDbCircle
 10
40.41826810520251
 20
78.91507085273201
 30
0.0
 40
5.904712149677256
100
AcDbArc
 50
337.7518230053083
 51
175.6605642776605
  0
ARC
  5
44B3
102
{ACAD_REACTORS
330
4590
102
}
330
2
100
AcDbEntity
  8
KIJUN
100
AcDbCircle
 10
42.48392104801223
 20
77.33133134197306
 30
0.0
 40
3.461409591030163
100
AcDbArc
 50
176.388584693476
 51
349.1444833292198
  0
ARC
  5
44B4
102
{ACAD_REACTORS
330
4590
102
}
330
2
100
AcDbEntity
  8
KIJUN
100
AcDbCircle
 10
41.60931213435378
 20
78.200623895965
 30
0.0
 40
2.660857699169654
100
AcDbArc
 50
101.1125354166649
 51
194.1674077271374
  0
ARC
  5
44B5
102
{ACAD_REACTORS
330
4590
102
}
330
2
100
AcDbEntity
  8
KIJUN
100
AcDbCircle
 10
45.78544385793247
 20
77.89532727846517
 30
0.0
 40
5.340878652294422
100
AcDbArc
 50
226.8923598377485
 51
352.6876882535574
  0
ARC
  5
44B6
102
{ACAD_REACTORS
330
4590
102
}
330
2
100
AcDbEntity
  8
KIJUN
100
AcDbCircle
 10
42.23752373055686
 20
78.89068492179399
 30
0.0
 40
9.002582897642161
100
AcDbArc
 50
349.2763351722081
 51
67.89620559174089
  0
ARC
  5
44B7
102
{ACAD_REACTORS
330
4590
102
}
330
2
100
AcDbEntity
  8
KIJUN
100
AcDbCircle
 10
39.7049817602965
 20
76.53549569720621
 30
0.0
 40
12.22514995522161
100
AcDbArc
 50
61.03635600528463
 51
115.6306493340616
  0
ARC
  5
44B8
102
{ACAD_REACTORS
330
4590
102
}
330
2
100
AcDbEntity
  8
KIJUN
100
AcDbCircle
 10
64.06419708764679
 20
82.11975159035024
 30
0.0
 40
11.88011184517985
100
AcDbArc
 50
231.4459372449345
 51
282.8181226989694
  0
ARC
  5
44B9
102
{ACAD_REACTORS
330
4590
102
}
330
2
100
AcDbEntity
  8
KIJUN
100
AcDbCircle
 10
73.34896632259642
 20
76.15079006146925
 30
0.0
 40
8.249307833791963
100
AcDbArc
 50
146.6984456334454
 51
216.8834048079464
  0
ARC
  5
44BB
102
{ACAD_REACTORS
330
4590
102
}
330
2
100
AcDbEntity
  8
KIJUN
100
AcDbCircle
 10
66.9981424233174
 20
72.61718555122502
 30
0.0
 40
11.34133048615973
100
AcDbArc
 50
43.03351553442213
 51
76.30416369957337
  0
ARC
  5
44BC
102
{ACAD_REACTORS
330
4590
102
}
330
2
100
AcDbEntity
  8
KIJUN
100
AcDbCircle
 10
57.30749201686558
 20
88.0079087907311
 30
0.0
 40
3.567551099524383
100
AcDbArc
 50
298.2658127238394
 51
84.81427085570615
  0
ARC
  5
44BD
102
{ACAD_REACTORS
330
4590
102
}
330
2
100
AcDbEntity
  8
KIJUN
100
AcDbCircle
 10
33.31912617000853
 20
94.99421761624807
 30
0.0
 40
7.517082299704711
100
AcDbArc
 50
278.3963593943146
 51
330.4558460138576
  0
ARC
  5
44BE
102
{ACAD_REACTORS
330
4590
102
}
330
2
100
AcDbEntity
  8
KIJUN
100
AcDbCircle
 10
45.05028424969714
 20
83.96484320308809
 30
0.0
 40
8.976303950197561
100
AcDbArc
 50
12.83469146748386
 51
125.3348227344208
  0
ARC
  5
44BF
102
{ACAD_REACTORS
330
4590
102
}
330
2
100
AcDbEntity
  8
KIJUN
100
AcDbCircle
 10
82.30894318258833
 20
88.0079087907311
 30
0.0
 40
3.567551099524383
100
AcDbArc
 50
95.18572914429384
 51
241.7341872761607
  0
ARC
  5
44C0
102
{ACAD_REACTORS
330
4590
102
}
330
2
100
AcDbEntity
  8
KIJUN
100
AcDbCircle
 10
59.26715954755946
 20
86.05399313517228
 30
0.0
 40
7.105351494379839
100
AcDbArc
 50
316.0115992730212
 51
34.83559138433778
  0
ARC
  5
44C1
102
{ACAD_REACTORS
330
4590
102
}
330
2
100
AcDbEntity
  8
KIJUN
100
AcDbCircle
 10
80.34927565189354
 20
86.05399313517228
 30
0.0
 40
7.105351494379839
100
AcDbArc
 50
145.1644086156622
 51
223.9884007269787
  0
ARC
  5
44C2
102
{ACAD_REACTORS
330
4590
102
}
330
2
100
AcDbEntity
  8
KIJUN
100
AcDbCircle
 10
68.10069687680516
 20
85.62719783268198
 30
0.0
 40
7.828928075305116
100
AcDbArc
 50
346.6333442425873
 51
34.95579391333543
  0
ARC
  5
44C3
102
{ACAD_REACTORS
330
4590
102
}
330
2
100
AcDbEntity
  8
KIJUN
100
AcDbCircle
 10
71.7415423520415
 20
85.64886516297702
 30
0.0
 40
7.828928075305116
100
AcDbArc
 50
145.7261531411038
 51
194.0486028118252
  0
ARC
  5
44C4
102
{ACAD_REACTORS
330
4590
102
}
330
2
100
AcDbEntity
  8
KIJUN
100
AcDbCircle
 10
41.66791156967065
 20
80.68217080913404
 30
0.0
 40
10.11859155945207
100
AcDbArc
 50
156.8717523744308
 51
184.5327204322308
  0
ARC
  5
44C5
102
{ACAD_REACTORS
330
4590
102
}
330
2
100
AcDbEntity
  8
KIJUN
100
AcDbCircle
 10
44.08297086515903
 20
88.34159817350906
 30
0.0
 40
9.697932295503401
100
AcDbArc
 50
146.1253118760008
 51
184.6363231256911
  0
ARC
  5
44C6
102
{ACAD_REACTORS
330
4590
102
}
330
2
100
AcDbEntity
  8
KIJUN
100
AcDbCircle
 10
39.23549498783177
 20
83.5258460529701
 30
0.0
 40
6.282992146187963
100
AcDbArc
 50
140.0805353237558
 51
221.5092332923778
  0
ARC
  5
44C7
102
{ACAD_REACTORS
330
4590
102
}
330
2
100
AcDbEntity
  8
KIJUN
100
AcDbCircle
 10
14.54984487175079
 20
77.65303245702398
 30
0.0
 40
19.94141637465888
100
AcDbArc
 50
343.7626818483292
 51
353.4224302430861
  0
ARC
  5
44C8
102
{ACAD_REACTORS
330
4590
102
}
330
2
100
AcDbEntity
  8
KIJUN
100
AcDbCircle
 10
32.95559325113754
 20
79.05494391385514
 30
0.0
 40
1.604515493618238
100
AcDbArc
 50
148.9506539199435
 51
11.02733228554919
  0
ARC
  5
44C9
102
{ACAD_REACTORS
330
4590
102
}
330
2
100
AcDbEntity
  8
KIJUN
100
AcDbCircle
 10
36.72298044976106
 20
87.25410837987396
 30
0.0
 40
11.14801523309981
100
AcDbArc
 50
59.86674313462945
 51
102.7952106868006
  0
ARC
  5
44CA
102
{ACAD_REACTORS
330
4590
102
}
330
2
100
AcDbEntity
  8
KIJUN
100
AcDbCircle
 10
36.29638454784436
 20
96.03546718126814
 30
0.0
 40
2.922063589617741
100
AcDbArc
 50
134.3413169984186
 51
201.1176498425095
  0
ARC
  5
44CB
102
{ACAD_REACTORS
330
4590
102
}
330
2
100
AcDbEntity
  8
KIJUN
100
AcDbCircle
 10
70.25161291490076
 20
110.21301925948
 30
0.0
 40
8.615042518529918
100
AcDbArc
 50
229.9695692470568
 51
301.0443409541846
  0
ARC
  5
44CC
102
{ACAD_REACTORS
330
4590
102
}
330
2
100
AcDbEntity
  8
KIJUN
100
AcDbCircle
 10
69.80821759972787
 20
104.0619622788792
 30
0.0
 40
5.038629716241
100
AcDbArc
 50
345.870054982764
 51
185.8839428441596
  0
ARC
  5
44CD
102
{ACAD_REACTORS
330
4590
102
}
330
2
100
AcDbEntity
  8
KIJUN
100
AcDbCircle
 10
43.30550378156658
 20
99.63560886685627
 30
0.0
 40
2.912059431749653
100
AcDbArc
 50
174.7602364871756
 51
250.2072816456367
  0
ARC
  5
44CE
102
{ACAD_REACTORS
330
4590
102
}
330
2
100
AcDbEntity
  8
KIJUN
100
AcDbCircle
 10
43.32020454290159
 20
87.69844309170412
 30
0.0
 40
12.54633952046152
100
AcDbArc
 50
63.69006910117416
 51
103.4328807787951
  0
ARC
  5
44CF
102
{ACAD_REACTORS
330
4590
102
}
330
2
100
AcDbEntity
  8
KIJUN
100
AcDbCircle
 10
59.95239607041731
 20
104.7372779005131
 30
0.0
 40
13.37953047028624
100
AcDbArc
 50
226.8082961009306
 51
260.0038198657319
  0
ARC
  5
44D0
102
{ACAD_REACTORS
330
4590
102
}
330
2
100
AcDbEntity
  8
KIJUN
100
AcDbCircle
 10
53.01241335395298
 20
90.9347194942261
 30
0.0
 40
4.615572401246355
100
AcDbArc
 50
52.01915398059221
 51
118.7144010689411
  0
ARC
  5
44D1
102
{ACAD_REACTORS
330
4590
102
}
330
2
100
AcDbEntity
  8
KIJUN
100
AcDbCircle
 10
50.86828219870858
 20
93.40792010642713
 30
0.0
 40
5.118848774438623
100
AcDbArc
 50
13.15374396195862
 51
112.8433890014892
  0
ARC
  5
44D2
102
{ACAD_REACTORS
330
4590
102
}
330
2
100
AcDbEntity
  8
KIJUN
100
AcDbCircle
 10
51.60565510063498
 20
98.47338099158514
 30
0.0
 40
2.74672491136897
100
AcDbArc
 50
75.38750041273771
 51
187.2805436923689
  0
ARC
  5
44D3
102
{ACAD_REACTORS
330
4590
102
}
330
2
100
AcDbEntity
  8
KIJUN
100
AcDbCircle
 10
52.87382984300075
 20
89.66353921693917
 30
0.0
 40
11.48213946896682
100
AcDbArc
 50
29.93081665559654
 51
92.87159340822269
  0
LINE
  5
44D4
102
{ACAD_REACTORS
330
4590
102
}
330
2
100
AcDbEntity
  8
KIJUN
100
AcDbLine
 10
59.95386072722067
 20
101.5411647152232
 30
0.0
 11
62.14107531137234
 21
96.48567886111301
 31
0.0
  0
LINE
  5
44D5
102
{ACAD_REACTORS
330
4590
102
}
330
2
100
AcDbEntity
  8
KIJUN
100
AcDbLine
 10
61.0474680192965
 20
103.3174189930992
 30
0.0
 11
59.95386072722067
 21
101.5411647152232
 31
0.0
  0
LINE
  5
44D6
102
{ACAD_REACTORS
330
4590
102
}
330
2
100
AcDbEntity
  8
KIJUN
100
AcDbLine
 10
63.09798467306973
 20
102.6342419073021
 30
0.0
 11
61.0474680192965
 21
103.3174189930992
 31
0.0
  0
LINE
  5
44D7
102
{ACAD_REACTORS
330
4590
102
}
330
2
100
AcDbEntity
  8
KIJUN
100
AcDbLine
 10
63.03857671316655
 20
104.0624398208031
 30
0.0
 11
63.03857671316655
 21
104.182021543837
 31
0.0
  0
ARC
  5
44D8
102
{ACAD_REACTORS
330
4590
102
}
330
2
100
AcDbEntity
  8
KIJUN
100
AcDbCircle
 10
78.96513864512781
 20
104.1846989213431
 30
0.0
 40
15.92703118161955
100
AcDbArc
 50
180.4398182675899
 51
203.4597243740341
  0
ARC
  5
44D9
102
{ACAD_REACTORS
330
4590
102
}
330
2
100
AcDbEntity
  8
KIJUN
100
AcDbCircle
 10
64.02741704013533
 20
104.1718328816212
 30
0.0
 40
0.9888928157686171
100
AcDbArc
 50
36.83991813236731
 51
179.409665371887
  0
ARC
  5
44DA
102
{ACAD_REACTORS
330
4590
102
}
330
2
100
AcDbEntity
  8
KIJUN
100
AcDbCircle
 10
75.5890181593195
 20
104.1718328816212
 30
0.0
 40
0.9888928157686171
100
AcDbArc
 50
0.5903346281130273
 51
143.1600818676327
  0
ARC
  5
44DB
102
{ACAD_REACTORS
330
4590
102
}
330
2
100
AcDbEntity
  8
KIJUN
100
AcDbCircle
 10
60.65129655432428
 20
104.1846989213431
 30
0.0
 40
15.92703118161955
100
AcDbArc
 50
336.5402756259659
 51
359.56018173241
  0
LINE
  5
44DC
102
{ACAD_REACTORS
330
4590
102
}
330
2
100
AcDbEntity
  8
KIJUN
100
AcDbLine
 10
76.57785848628737
 20
104.0624398208031
 30
0.0
 11
76.57785848628737
 21
104.182021543837
 31
0.0
  0
LINE
  5
44DD
102
{ACAD_REACTORS
330
4590
102
}
330
2
100
AcDbEntity
  8
KIJUN
100
AcDbLine
 10
76.51845052638418
 20
102.6342419073021
 30
0.0
 11
78.56896718015559
 21
103.3174189930992
 31
0.0
  0
LINE
  5
44DE
102
{ACAD_REACTORS
330
4590
102
}
330
2
100
AcDbEntity
  8
KIJUN
100
AcDbLine
 10
78.56896718015559
 20
103.3174189930992
 30
0.0
 11
79.66257447223234
 21
101.5411647152232
 31
0.0
  0
LINE
  5
44DF
102
{ACAD_REACTORS
330
4590
102
}
330
2
100
AcDbEntity
  8
KIJUN
100
AcDbLine
 10
79.66257447223234
 20
101.5411647152232
 30
0.0
 11
77.47535988808067
 21
96.48567886111301
 31
0.0
  0
ARC
  5
44E0
102
{ACAD_REACTORS
330
4590
102
}
330
2
100
AcDbEntity
  8
KIJUN
100
AcDbCircle
 10
97.94852362978327
 20
80.68217080913404
 30
0.0
 40
10.11859155945207
100
AcDbArc
 50
355.467279567769
 51
23.12824762556905
  0
ARC
  5
44E1
102
{ACAD_REACTORS
330
4590
102
}
330
2
100
AcDbEntity
  8
KIJUN
100
AcDbCircle
 10
345.6234920780162
 20
438.4860123409741
 30
0.0
 40
430.1673334412809
100
AcDbArc
 50
237.3343233862352
 51
238.5554130115612
  0
ARC
  5
44E2
102
{ACAD_REACTORS
330
4590
102
}
330
2
100
AcDbEntity
  8
KIJUN
100
AcDbCircle
 10
110.0378919355144
 20
58.99534463869122
 30
0.0
 40
23.09660713324625
100
AcDbArc
 50
46.66911330429597
 51
81.51289109805224
  0
ARC
  5
44E3
102
{ACAD_REACTORS
330
4590
102
}
330
2
100
AcDbEntity
  8
KIJUN
100
AcDbCircle
 10
126.7836708799459
 20
104.6678339324921
 30
0.0
 40
19.81383571132942
100
AcDbArc
 50
235.879819417586
 51
278.3068822611036
  0
ARC
  5
44E4
102
{ACAD_REACTORS
330
4590
102
}
330
2
100
AcDbEntity
  8
KIJUN
100
AcDbCircle
 10
125.9440113437577
 20
84.38881285782121
 30
0.0
 40
3.762948012755706
100
AcDbArc
 50
296.5439559141848
 51
10.30371306074725
  0
ARC
  5
44E5
102
{ACAD_REACTORS
330
4590
102
}
330
2
100
AcDbEntity
  8
KIJUN
100
AcDbCircle
 10
131.5029964636878
 20
85.21325924909001
 30
0.0
 40
5.709332141857557
100
AcDbArc
 50
227.2242474726777
 51
346.5338937192141
  0
ARC
  5
44E6
102
{ACAD_REACTORS
330
4590
102
}
330
2
100
AcDbEntity
  8
KIJUN
100
AcDbCircle
 10
129.7674720358891
 20
85.93160016050706
 30
0.0
 40
10.85313659132641
100
AcDbArc
 50
249.0507278385154
 51
319.0086839818257
  0
LINE
  5
44E7
102
{ACAD_REACTORS
330
4590
102
}
330
2
100
AcDbEntity
  8
KIJUN
100
AcDbLine
 10
132.3544346974095
 20
71.48637215981512
 30
0.0
 11
125.8870280436113
 21
75.79588468044494
 31
0.0
  0
ARC
  5
44E8
102
{ACAD_REACTORS
330
4590
102
}
330
2
100
AcDbEntity
  8
KIJUN
100
AcDbCircle
 10
125.0665903277022
 20
77.65303245702398
 30
0.0
 40
19.94141637465888
100
AcDbArc
 50
186.5775697569139
 51
196.2373181516708
  0
ARC
  5
44E9
102
{ACAD_REACTORS
330
4590
102
}
330
2
100
AcDbEntity
  8
KIJUN
100
AcDbCircle
 10
99.91145343915651
 20
76.53549569720621
 30
0.0
 40
12.22514995522161
100
AcDbArc
 50
64.36935066593836
 51
118.9636439947153
  0
ARC
  5
44EA
102
{ACAD_REACTORS
330
4590
102
}
330
2
100
AcDbEntity
  8
KIJUN
100
AcDbCircle
 10
97.37891146889616
 20
78.89068492179399
 30
0.0
 40
9.002582897642161
100
AcDbArc
 50
112.1037944082591
 51
190.7236648277915
  0
ARC
  5
44EB
102
{ACAD_REACTORS
330
4590
102
}
330
2
100
AcDbEntity
  8
KIJUN
100
AcDbCircle
 10
93.83099134152145
 20
77.89532727846517
 30
0.0
 40
5.340878652294422
100
AcDbArc
 50
187.3123117464425
 51
313.1076401622514
  0
ARC
  5
44EC
102
{ACAD_REACTORS
330
4590
102
}
330
2
100
AcDbEntity
  8
KIJUN
100
AcDbCircle
 10
98.00712306509922
 20
78.200623895965
 30
0.0
 40
2.660857699169654
100
AcDbArc
 50
345.8325922728625
 51
78.88746458333504
  0
ARC
  5
44ED
102
{ACAD_REACTORS
330
4590
102
}
330
2
100
AcDbEntity
  8
KIJUN
100
AcDbCircle
 10
97.13251415144078
 20
77.33133134197306
 30
0.0
 40
3.461409591030163
100
AcDbArc
 50
190.8555166707801
 51
3.611415306523987
  0
ARC
  5
44EE
102
{ACAD_REACTORS
330
4590
102
}
330
2
100
AcDbEntity
  8
KIJUN
100
AcDbCircle
 10
99.19816709425141
 20
78.91507085273201
 30
0.0
 40
5.904712149677256
100
AcDbArc
 50
4.339435722339421
 51
202.2481769946916
  0
ARC
  5
44EF
102
{ACAD_REACTORS
330
4590
102
}
330
2
100
AcDbEntity
  8
KIJUN
100
AcDbCircle
 10
95.53346433429306
 20
88.34159817350906
 30
0.0
 40
9.697932295503401
100
AcDbArc
 50
355.3636768743089
 51
33.87468812399915
  0
ARC
  5
44F0
102
{ACAD_REACTORS
330
4590
102
}
330
2
100
AcDbEntity
  8
KIJUN
100
AcDbCircle
 10
106.2973090294454
 20
94.99421761624807
 30
0.0
 40
7.517082299704711
100
AcDbArc
 50
209.5441539861425
 51
261.6036406056855
  0
ARC
  5
44F1
102
{ACAD_REACTORS
330
4590
102
}
330
2
100
AcDbEntity
  8
KIJUN
100
AcDbCircle
 10
106.6608419483154
 20
79.05494391385514
 30
0.0
 40
1.604515493618238
100
AcDbArc
 50
168.9726677144508
 51
31.04934608005645
  0
ARC
  5
44F2
102
{ACAD_REACTORS
330
4590
102
}
330
2
100
AcDbEntity
  8
KIJUN
100
AcDbCircle
 10
100.3809402116203
 20
83.5258460529701
 30
0.0
 40
6.282992146187963
100
AcDbArc
 50
318.4907667076221
 51
39.91946467624413
  0
ARC
  5
44F3
102
{ACAD_REACTORS
330
4590
102
}
330
2
100
AcDbEntity
  8
KIJUN
100
AcDbCircle
 10
96.02370102128498
 20
74.12442223916309
 30
0.0
 40
16.26811011004491
100
AcDbArc
 50
28.30832678243441
 51
55.66393020122614
  0
ARC
  5
44F4
102
{ACAD_REACTORS
330
4590
102
}
330
2
100
AcDbEntity
  8
KIJUN
100
AcDbCircle
 10
115.0579612487854
 20
103.039127046886
 30
0.0
 40
14.78708117493066
100
AcDbArc
 50
223.1440306245887
 51
272.370153709701
  0
ARC
  5
44F5
102
{ACAD_REACTORS
330
4590
102
}
330
2
100
AcDbEntity
  8
KIJUN
100
AcDbCircle
 10
107.8825984491741
 20
72.80411734144422
 30
0.0
 40
2.092369353626643
100
AcDbArc
 50
200.3326045539821
 51
359.673872657046
  0
ARC
  5
44F6
102
{ACAD_REACTORS
330
4590
102
}
330
2
100
AcDbEntity
  8
KIJUN
100
AcDbCircle
 10
103.3200506516077
 20
96.03546718126814
 30
0.0
 40
2.922063589617741
100
AcDbArc
 50
338.8823501574906
 51
45.65868300158131
  0
ARC
  5
44F7
102
{ACAD_REACTORS
330
4590
102
}
330
2
100
AcDbEntity
  8
KIJUN
100
AcDbCircle
 10
88.01078009881804
 20
98.47338099158514
 30
0.0
 40
2.74672491136897
100
AcDbArc
 50
352.7194563076311
 51
104.6124995872623
  0
ARC
  5
44F8
102
{ACAD_REACTORS
330
4590
102
}
330
2
100
AcDbEntity
  8
KIJUN
100
AcDbCircle
 10
96.29623065655142
 20
87.69844309170412
 30
0.0
 40
12.54633952046152
100
AcDbArc
 50
76.5671192212049
 51
116.3099308988258
  0
ARC
  5
44F9
102
{ACAD_REACTORS
330
4590
102
}
330
2
100
AcDbEntity
  8
KIJUN
100
AcDbCircle
 10
96.31093141788733
 20
99.63560886685627
 30
0.0
 40
2.912059431749653
100
AcDbArc
 50
289.7927183543633
 51
5.239763512824384
  0
ARC
  5
44FA
102
{ACAD_REACTORS
330
4590
102
}
330
2
100
AcDbEntity
  8
KIJUN
100
AcDbCircle
 10
102.8934547496919
 20
87.25410837987396
 30
0.0
 40
11.14801523309981
100
AcDbArc
 50
77.20478931319934
 51
120.1332568653705
  0
ARC
  5
44FB
102
{ACAD_REACTORS
330
4590
102
}
330
2
100
AcDbEntity
  8
KIJUN
100
AcDbCircle
 10
108.7340664278954
 20
88.5815946772791
 30
0.0
 40
6.942653572483965
100
AcDbArc
 50
357.3838155977731
 51
112.7803416819102
  0
ARC
  5
44FC
102
{ACAD_REACTORS
330
4590
102
}
330
2
100
AcDbEntity
  8
KIJUN
100
AcDbCircle
 10
156.5314712360949
 20
60.45749444200496
 30
0.0
 40
5.936948952998672
100
AcDbArc
 50
216.4615471716607
 51
21.11070026422024
  0
ARC
  5
44FD
102
{ACAD_REACTORS
330
4590
102
}
330
2
100
AcDbEntity
  8
KIJUN
100
AcDbCircle
 10
142.5313071900254
 20
51.53482101389409
 30
0.0
 40
2.066267216803761
100
AcDbArc
 50
336.4413987144403
 51
53.43541114337975
  0
LINE
  5
44FE
102
{ACAD_REACTORS
330
4590
102
}
330
2
100
AcDbEntity
  8
KIJUN
100
AcDbLine
 10
148.3073631604329
 20
62.96258701749093
 30
0.0
 11
153.9124457471834
 21
66.84114828605811
 31
0.0
  0
LINE
  5
44FF
102
{ACAD_REACTORS
330
4590
102
}
330
2
100
AcDbEntity
  8
KIJUN
100
AcDbLine
 10
139.783582528511
 20
56.17696660062211
 30
0.0
 11
143.7622416394069
 21
53.19441752888315
 31
0.0
  0
LINE
  5
4500
102
{ACAD_REACTORS
330
4590
102
}
330
2
100
AcDbEntity
  8
KIJUN
100
AcDbLine
 10
139.2529986149211
 20
64.68639202574332
 30
0.0
 11
148.3073631604329
 21
62.96258701749093
 31
0.0
  0
ARC
  5
4501
102
{ACAD_REACTORS
330
4590
102
}
330
2
100
AcDbEntity
  8
KIJUN
100
AcDbCircle
 10
165.6475176038266
 20
93.2756700020152
 30
0.0
 40
38.91037712307804
100
AcDbArc
 50
227.2858316570072
 51
249.0841386679178
  0
ARC
  5
4502
102
{ACAD_REACTORS
330
4590
102
}
330
2
100
AcDbEntity
  8
KIJUN
100
AcDbCircle
 10
165.1382262261478
 20
62.56546275350411
 30
0.0
 40
4.178186088412356
100
AcDbArc
 50
359.5361229052711
 51
31.62478952550886
  0
ARC
  5
4503
102
{ACAD_REACTORS
330
4590
102
}
330
2
100
AcDbEntity
  8
KIJUN
100
AcDbCircle
 10
168.2570966915747
 20
64.618310346827
 30
0.0
 40
0.4600423196680774
100
AcDbArc
 50
17.45627408090381
 51
154.5488380756255
  0
ARC
  5
4504
102
{ACAD_REACTORS
330
4590
102
}
330
2
100
AcDbEntity
  8
KIJUN
100
AcDbCircle
 10
162.3799517857561
 20
63.18602791932312
 30
0.0
 40
0.6666666666666666
100
AcDbArc
 50
152.1342887857288
 51
242.2914979204149
  0
ARC
  5
4505
102
{ACAD_REACTORS
330
4590
102
}
330
2
100
AcDbEntity
  8
KIJUN
100
AcDbCircle
 10
159.8209697226121
 20
58.31364219759326
 30
0.0
 40
4.836835111365778
100
AcDbArc
 50
324.7557682063815
 51
62.29149792041491
  0
ARC
  5
4506
102
{ACAD_REACTORS
330
4590
102
}
330
2
100
AcDbEntity
  8
KIJUN
100
AcDbCircle
 10
158.3835413160024
 20
61.32298653678595
 30
0.0
 40
10.08255858172671
100
AcDbArc
 50
330.2777709926957
 51
20.26985396943215
  0
ARC
  5
4507
102
{ACAD_REACTORS
330
4590
102
}
330
2
100
AcDbEntity
  8
KIJUN
100
AcDbCircle
 10
160.5130263997372
 20
59.54778140366807
 30
0.0
 40
9.29519119999064
100
AcDbArc
 50
257.7277827324071
 51
18.72404916514607
  0
ARC
  5
4508
102
{ACAD_REACTORS
330
4590
102
}
330
2
100
AcDbEntity
  8
KIJUN
100
AcDbCircle
 10
165.3723541660785
 20
61.60392453822601
 30
0.0
 40
4.051562989192516
100
AcDbArc
 50
52.44809013937952
 51
152.1342887857288
  0
ELLIPSE
  5
4509
102
{ACAD_REACTORS
330
4590
102
}
330
2
100
AcDbEntity
  8
KIJUN
100
AcDbEllipse
 10
70.30724256803387
 20
76.76174515780758
 30
0.0
 11
-0.0638505832537204
 21
5.808044110006816
 31
0.0
210
0.0
220
0.0
230
1.0
 40
0.582618222231513
 41
0.0
 42
6.283185307179586
  0
DIMENSION
  5
450A
330
2
100
AcDbEntity
  8
SUNPOU
100
AcDbDimension
  2
*D98
 10
169.8082175997278
 20
135.1431922466149
 30
0.0
 11
69.80821759972787
 21
143.1431922466149
 31
0.0
 70
    32
 71
     5
 42
200.0
  3
STANDARD
100
AcDbAlignedDimension
 13
-30.19178240027213
 23
109.1005919951203
 33
0.0
 14
169.8082175997278
 24
110.0650453891685
 34
0.0
100
AcDbRotatedDimension
1001
ACAD
1000
DSTYLE
1002
{
1070
    41
1040
2.0
1070
    42
1040
10.0
1070
    44
1040
0.0
1070
    73
1070
     0
1070
    74
1070
     0
1070
    77
1070
     1
1070
   140
1040
10.0
1070
   141
1040
0.0
1070
   146
1040
0.064286
1070
   147
1040
3.0
1070
   176
1070
    60
1070
   177
1070
    70
1070
   178
1070
    60
1070
   271
1070
     0
1070
   272
1070
     0
1070
   340
1005
1C
1070
   342
1005
109
1002
}
  0
DIMENSION
  5
4517
330
2
100
AcDbEntity
  8
SUNPOU
100
AcDbDimension
  2
*D99
 10
-57.46671658807463
 20
49.10059199512027
 30
0.0
 11
-65.46671658807465
 21
79.10059199512028
 31
0.0
 70
    32
 71
     5
 42
60.00000000000003
  3
STANDARD
100
AcDbAlignedDimension
 13
-30.19178240027213
 23
109.1005919951203
 33
0.0
 14
-30.9674180703596
 24
49.10059199512026
 34
0.0
 50
90.0
100
AcDbRotatedDimension
1001
ACAD
1000
DSTYLE
1002
{
1070
    41
1040
2.0
1070
    42
1040
10.0
1070
    44
1040
0.0
1070
    73
1070
     0
1070
    74
1070
     0
1070
    77
1070
     1
1070
   140
1040
10.0
1070
   141
1040
0.0
1070
   146
1040
0.064286
1070
   147
1040
3.0
1070
   176
1070
    60
1070
   177
1070
    70
1070
   178
1070
    60
1070
   271
1070
     0
1070
   272
1070
     0
1070
   340
1005
1C
1070
   342
1005
109
1002
}
  0
ENDSEC
  0
SECTION
  2
OBJECTS
  0
DICTIONARY
  5
1A
330
0
100
AcDbDictionary
281
     1
  3
ACAD_COLOR
350
144
  3
ACAD_GROUP
350
18
  3
ACAD_LAYOUT
350
58
  3
ACAD_MATERIAL
350
143
  3
ACAD_MLINESTYLE
350
19
  3
ACAD_PLOTSETTINGS
350
59
  3
ACAD_PLOTSTYLENAME
350
56
  3
ACAD_TABLESTYLE
350
145
  3
ACDBHEADERROUNDTRIPXREC
350
4592
  3
AcDbVariableDictionary
350
1D1
  0
DICTIONARY
  5
1B4
330
A
100
AcDbDictionary
280
     1
281
     1
  3
ACAD_LAYERFILTERS
360
1C2
  3
ACLYDICTIONARY
360
1C1
  0
DICTIONARY
  5
1578
330
2
100
AcDbDictionary
280
     1
281
     1
  3
ACAD_SORTENTS
360
1579
  0
DICTIONARY
  5
144
102
{ACAD_REACTORS
330
1A
102
}
330
1A
100
AcDbDictionary
281
     1
  0
DICTIONARY
  5
18
102
{ACAD_REACTORS
330
1A
102
}
330
1A
100
AcDbDictionary
281
     1
  3
*A1
350
CFC
  3
*A10
350
2FE9
  3
*A11
350
312A
  3
*A12
350
15D1
  3
*A13
350
3154
  3
*A14
350
327B
  3
*A15
350
32AA
  3
*A16
350
3650
  3
*A17
350
367C
  3
*A18
350
1682
  3
*A19
350
1827
  3
*A2
350
218C
  3
*A20
350
18ED
  3
*A21
350
19E5
  3
*A22
350
1F8A
  3
*A23
350
2108
  3
*A24
350
3732
  3
*A25
350
37CF
  3
*A26
350
3837
  3
*A27
350
38C3
  3
*A29
350
39C3
  3
*A3
350
2335
  3
*A30
350
3AB4
  3
*A31
350
3BBC
  3
*A32
350
3D8C
  3
*A33
350
3FA3
  3
*A34
350
419F
  3
*A35
350
439B
  3
*A36
350
4590
  3
*A4
350
2862
  3
*A5
350
299B
  3
*A6
350
2C07
  3
*A7
350
2DB5
  3
*A8
350
2E88
  3
*A9
350
2FBC
  0
DICTIONARY
  5
58
102
{ACAD_REACTORS
330
1A
102
}
330
1A
100
AcDbDictionary
281
     1
  3
Model
350
5A
  3
ﾚｲｱｳﾄ1
350
5B
  0
DICTIONARY
  5
143
102
{ACAD_REACTORS
330
1A
102
}
330
1A
100
AcDbDictionary
281
     1
  0
DICTIONARY
  5
19
102
{ACAD_REACTORS
330
1A
102
}
330
1A
100
AcDbDictionary
281
     1
  3
STANDARD
350
1D
  0
DICTIONARY
  5
59
102
{ACAD_REACTORS
330
1A
102
}
330
1A
100
AcDbDictionary
281
     1
  0
ACDBDICTIONARYWDFLT
  5
56
102
{ACAD_REACTORS
330
1A
102
}
330
1A
100
AcDbDictionary
281
     1
  3
Normal
350
57
100
AcDbDictionaryWithDefault
340
57
  0
DICTIONARY
  5
145
102
{ACAD_REACTORS
330
1A
102
}
330
1A
100
AcDbDictionary
281
     1
  3
Standard
350
146
  0
DICTIONARY
  5
4592
102
{ACAD_REACTORS
330
1A
102
}
330
1A
100
AcDbDictionary
281
     1
  0
DICTIONARY
  5
1D1
102
{ACAD_REACTORS
330
1A
102
}
330
1A
100
AcDbDictionary
281
     1
  3
CTABLESTYLE
350
1D2
  3
DIMASSOC
350
D03
  3
PROJECTNAME
350
D04
  0
DICTIONARY
  5
1C2
102
{ACAD_REACTORS
330
1B4
102
}
330
1B4
100
AcDbDictionary
281
     1
  0
DICTIONARY
  5
1C1
102
{ACAD_REACTORS
330
1B4
102
}
330
1B4
100
AcDbDictionary
281
     1
1001
ACAD
1000
<All
  0
SORTENTSTABLE
  5
1579
102
{ACAD_REACTORS
330
1578
102
}
330
1578
100
AcDbSortentsTable
330
2
331
1F
  5
1F
331
20
  5
20
331
21
  5
21
331
23
  5
23
  0
GROUP
  5
CFC
102
{ACAD_REACTORS
330
18
102
}
330
18
100
AcDbGroup
300

 70
     1
 71
     1
  0
GROUP
  5
2FE9
102
{ACAD_REACTORS
330
18
102
}
330
18
100
AcDbGroup
300

 70
     1
 71
     1
  0
GROUP
  5
312A
102
{ACAD_REACTORS
330
18
102
}
330
18
100
AcDbGroup
300

 70
     1
 71
     1
  0
GROUP
  5
15D1
102
{ACAD_REACTORS
330
18
102
}
330
18
100
AcDbGroup
300

 70
     1
 71
     1
  0
GROUP
  5
3154
102
{ACAD_REACTORS
330
18
102
}
330
18
100
AcDbGroup
300

 70
     1
 71
     1
  0
GROUP
  5
327B
102
{ACAD_REACTORS
330
18
102
}
330
18
100
AcDbGroup
300

 70
     1
 71
     1
  0
GROUP
  5
32AA
102
{ACAD_REACTORS
330
18
102
}
330
18
100
AcDbGroup
300

 70
     1
 71
     1
  0
GROUP
  5
3650
102
{ACAD_REACTORS
330
18
102
}
330
18
100
AcDbGroup
300

 70
     1
 71
     1
  0
GROUP
  5
367C
102
{ACAD_REACTORS
330
18
102
}
330
18
100
AcDbGroup
300

 70
     1
 71
     1
  0
GROUP
  5
1682
102
{ACAD_REACTORS
330
18
102
}
330
18
100
AcDbGroup
300

 70
     1
 71
     1
  0
GROUP
  5
1827
102
{ACAD_REACTORS
330
18
102
}
330
18
100
AcDbGroup
300

 70
     1
 71
     1
  0
GROUP
  5
218C
102
{ACAD_REACTORS
330
18
102
}
330
18
100
AcDbGroup
300

 70
     1
 71
     1
  0
GROUP
  5
18ED
102
{ACAD_REACTORS
330
18
102
}
330
18
100
AcDbGroup
300

 70
     1
 71
     1
  0
GROUP
  5
19E5
102
{ACAD_REACTORS
330
18
102
}
330
18
100
AcDbGroup
300

 70
     1
 71
     1
  0
GROUP
  5
1F8A
102
{ACAD_REACTORS
330
18
102
}
330
18
100
AcDbGroup
300

 70
     1
 71
     1
  0
GROUP
  5
2108
102
{ACAD_REACTORS
330
18
102
}
330
18
100
AcDbGroup
300

 70
     1
 71
     1
  0
GROUP
  5
3732
102
{ACAD_REACTORS
330
18
102
}
330
18
100
AcDbGroup
300

 70
     1
 71
     1
  0
GROUP
  5
37CF
102
{ACAD_REACTORS
330
18
102
}
330
18
100
AcDbGroup
300

 70
     1
 71
     1
  0
GROUP
  5
3837
102
{ACAD_REACTORS
330
18
102
}
330
18
100
AcDbGroup
300

 70
     1
 71
     1
  0
GROUP
  5
38C3
102
{ACAD_REACTORS
330
18
102
}
330
18
100
AcDbGroup
300

 70
     1
 71
     1
  0
GROUP
  5
39C3
102
{ACAD_REACTORS
330
18
102
}
330
18
100
AcDbGroup
300

 70
     1
 71
     1
  0
GROUP
  5
2335
102
{ACAD_REACTORS
330
18
102
}
330
18
100
AcDbGroup
300

 70
     1
 71
     1
  0
GROUP
  5
3AB4
102
{ACAD_REACTORS
330
18
102
}
330
18
100
AcDbGroup
300

 70
     1
 71
     1
  0
GROUP
  5
3BBC
102
{ACAD_REACTORS
330
18
102
}
330
18
100
AcDbGroup
300

 70
     1
 71
     1
  0
GROUP
  5
3D8C
102
{ACAD_REACTORS
330
18
102
}
330
18
100
AcDbGroup
300

 70
     1
 71
     1
  0
GROUP
  5
3FA3
102
{ACAD_REACTORS
330
18
102
}
330
18
100
AcDbGroup
300

 70
     1
 71
     1
  0
GROUP
  5
419F
102
{ACAD_REACTORS
330
18
102
}
330
18
100
AcDbGroup
300

 70
     1
 71
     1
  0
GROUP
  5
439B
102
{ACAD_REACTORS
330
18
102
}
330
18
100
AcDbGroup
300

 70
     1
 71
     1
  0
GROUP
  5
4590
102
{ACAD_REACTORS
330
18
102
}
330
18
100
AcDbGroup
300

 70
     1
 71
     1
340
4509
340
4508
340
4507
340
4506
340
4505
340
4504
340
4503
340
4502
340
4501
340
4500
340
44FF
340
44FE
340
44FD
340
44FC
340
44FB
340
44FA
340
44F9
340
44F8
340
44F7
340
44F6
340
44F5
340
44F4
340
44F3
340
44F2
340
44F1
340
44F0
340
44EF
340
44EE
340
44ED
340
44EC
340
44EB
340
44EA
340
44E9
340
44E8
340
44E7
340
44E6
340
44E5
340
44E4
340
44E3
340
44E2
340
44E1
340
44E0
340
44DF
340
44DE
340
44DD
340
44DC
340
44DB
340
44DA
340
44D9
340
44D8
340
44D7
340
44D6
340
44D5
340
44D4
340
44D3
340
44D2
340
44D1
340
44D0
340
44CF
340
44CE
340
44CD
340
44CC
340
44CB
340
44CA
340
44C9
340
44C8
340
44C7
340
44C6
340
44C5
340
44C4
340
44C3
340
44C2
340
44C1
340
44C0
340
44BF
340
44BE
340
44BD
340
44BC
340
44BB
340
44B9
340
44B8
340
44B7
340
44B6
340
44B5
340
44B4
340
44B3
340
44B2
340
44B1
340
44B0
340
44AF
340
44AE
340
44AD
340
44AC
340
44AB
340
44AA
340
44A9
340
44A8
340
44A7
340
44A6
340
44A5
340
44A4
340
44A3
340
44A2
340
44A1
340
44A0
340
449F
340
449E
340
449D
340
449C
340
449B
340
449A
340
4499
340
4498
340
4497
340
4496
340
4495
340
4494
340
4493
340
4492
340
4491
340
4490
340
448F
340
448E
340
448D
340
448C
340
448B
340
448A
340
4489
340
4488
340
4487
340
4486
340
4485
340
4484
340
4483
340
4482
340
4481
340
4480
340
447F
340
447E
340
447D
340
447C
340
447B
340
447A
340
4479
340
4478
340
4477
340
4476
340
4475
340
4474
340
4473
340
4472
340
4471
340
4470
340
446F
340
446E
340
446D
340
446C
340
446B
340
446A
340
4469
340
4468
340
4467
340
4466
340
4465
340
4464
340
4463
340
4462
340
4461
340
4460
340
445F
340
445E
340
445D
340
445C
340
445B
  0
GROUP
  5
2862
102
{ACAD_REACTORS
330
18
102
}
330
18
100
AcDbGroup
300

 70
     1
 71
     1
  0
GROUP
  5
299B
102
{ACAD_REACTORS
330
18
102
}
330
18
100
AcDbGroup
300

 70
     1
 71
     1
  0
GROUP
  5
2C07
102
{ACAD_REACTORS
330
18
102
}
330
18
100
AcDbGroup
300

 70
     1
 71
     1
  0
GROUP
  5
2DB5
102
{ACAD_REACTORS
330
18
102
}
330
18
100
AcDbGroup
300

 70
     1
 71
     1
  0
GROUP
  5
2E88
102
{ACAD_REACTORS
330
18
102
}
330
18
100
AcDbGroup
300

 70
     1
 71
     1
  0
GROUP
  5
2FBC
102
{ACAD_REACTORS
330
18
102
}
330
18
100
AcDbGroup
300

 70
     1
 71
     1
  0
LAYOUT
  5
5A
102
{ACAD_XDICTIONARY
360
4593
102
}
102
{ACAD_REACTORS
330
58
102
}
330
58
100
AcDbPlotSettings
  1

  2
なし
  4

  6

 40
0.0
 41
0.0
 42
0.0
 43
0.0
 44
0.0
 45
0.0
 46
0.0
 47
0.0
 48
0.0
 49
0.0
140
0.0
141
0.0
142
1.0
143
1.0
 70
  1712
 72
     0
 73
     0
 74
     0
  7
monochrome.ctb
 75
     0
147
1.0
148
0.0
149
0.0
100
AcDbLayout
  1
Model
 70
     1
 71
     0
 10
0.0
 20
0.0
 11
12.0
 21
9.0
 12
0.0
 22
0.0
 32
0.0
 14
0.0
 24
0.0
 34
0.0
 15
0.0
 25
0.0
 35
0.0
146
0.0
 13
0.0
 23
0.0
 33
0.0
 16
1.0
 26
0.0
 36
0.0
 17
0.0
 27
1.0
 37
0.0
 76
     0
330
2
  0
LAYOUT
  5
5B
102
{ACAD_XDICTIONARY
360
4595
102
}
102
{ACAD_REACTORS
330
58
102
}
330
58
100
AcDbPlotSettings
  1

  2
なし
  4

  6

 40
0.0
 41
0.0
 42
0.0
 43
0.0
 44
0.0
 45
0.0
 46
0.0
 47
0.0
 48
0.0
 49
0.0
140
0.0
141
0.0
142
1.0
143
1.0
 70
   688
 72
     0
 73
     0
 74
     5
  7
monochrome.ctb
 75
    16
147
1.0
148
0.0
149
0.0
100
AcDbLayout
  1
ﾚｲｱｳﾄ1
 70
     1
 71
     1
 10
0.0
 20
0.0
 11
12.0
 21
9.0
 12
0.0
 22
0.0
 32
0.0
 14
1.000000000000000E+20
 24
1.000000000000000E+20
 34
1.000000000000000E+20
 15
-1.000000000000000E+20
 25
-1.000000000000000E+20
 35
-1.000000000000000E+20
146
0.0
 13
0.0
 23
0.0
 33
0.0
 16
1.0
 26
0.0
 36
0.0
 17
0.0
 27
1.0
 37
0.0
 76
     0
330
7
  0
MLINESTYLE
  5
1D
102
{ACAD_REACTORS
330
19
102
}
330
19
100
AcDbMlineStyle
  2
STANDARD
 70
     0
  3

 62
   256
 51
90.0
 52
90.0
 71
     2
 49
0.5
 62
   256
  6
BYLAYER
 49
-0.5
 62
   256
  6
BYLAYER
  0
ACDBPLACEHOLDER
  5
57
102
{ACAD_REACTORS
330
56
102
}
330
56
  0
TABLESTYLE
  5
146
102
{ACAD_REACTORS
330
145
102
}
330
145
100
AcDbTableStyle
  3
Standard
 70
     0
 71
     0
 40
0.06
 41
0.06
280
     0
281
     0
  7
STANDARD
140
0.18
170
     2
 62
     0
 63
     7
283
     0
274
    -2
284
     1
 64
     0
275
    -2
285
     1
 65
     0
276
    -2
286
     1
 66
     0
277
    -2
287
     1
 67
     0
278
    -2
288
     1
 68
     0
279
    -2
289
     1
 69
     0
  7
STANDARD
140
0.25
170
     5
 62
     0
 63
     7
283
     0
274
    -2
284
     1
 64
     0
275
    -2
285
     1
 65
     0
276
    -2
286
     1
 66
     0
277
    -2
287
     1
 67
     0
278
    -2
288
     1
 68
     0
279
    -2
289
     1
 69
     0
  7
STANDARD
140
0.18
170
     5
 62
     0
 63
     7
283
     0
274
    -2
284
     1
 64
     0
275
    -2
285
     1
 65
     0
276
    -2
286
     1
 66
     0
277
    -2
287
     1
 67
     0
278
    -2
288
     1
 68
     0
279
    -2
289
     1
 69
     0
  0
DICTIONARYVAR
  5
1D2
102
{ACAD_REACTORS
330
1D1
102
}
330
1D1
100
DictionaryVariables
280
     0
  1
STANDARD
  0
DICTIONARYVAR
  5
D03
102
{ACAD_REACTORS
330
1D1
102
}
330
1D1
100
DictionaryVariables
280
     0
  1
1
  0
DICTIONARYVAR
  5
D04
102
{ACAD_REACTORS
330
1D1
102
}
330
1D1
100
DictionaryVariables
280
     0
  1

  0
DICTIONARY
  5
4593
330
5A
100
AcDbDictionary
280
     1
281
     1
  3
ACAD_XREC_ROUNDTRIP
360
4594
  0
DICTIONARY
  5
4595
330
5B
100
AcDbDictionary
280
     1
281
     1
  3
ACAD_XREC_ROUNDTRIP
360
4596
  0
XRECORD
  5
4594
102
{ACAD_REACTORS
330
4593
102
}
330
4593
100
AcDbXrecord
280
     1
102
SHADEPLOT
 70
     0
102
SHADEPLOTRESLEVEL
 70
     2
102
SHADEPLOTCUSTOMDPI
 70
   300
  0
XRECORD
  5
4596
102
{ACAD_REACTORS
330
4595
102
}
330
4595
100
AcDbXrecord
280
     1
102
SHADEPLOT
 70
     0
102
SHADEPLOTRESLEVEL
 70
     2
102
SHADEPLOTCUSTOMDPI
 70
   300
  0
ENDSEC
  0
EOF
