  0
SECTION
  2
HEADER
  9
$ACADVER
  1
AC1015
  9
$ACADMAINTVER
 70
    20
  9
$DWGCODEPAGE
  3
ANSI_932
  9
$INSBASE
 10
922.019522
 20
-675.4306699999999
 30
0.0
  9
$EXTMIN
 10
-140.7980855481485
 20
-0.0167891672346059
 30
-0.0000000000000053
  9
$EXTMAX
 10
216.8362228028898
 20
208.0666889194982
 30
0.0000000000000099
  9
$LIMMIN
 10
0.0
 20
0.0
  9
$LIMMAX
 10
420.0
 20
297.0
  9
$ORTHOMODE
 70
     1
  9
$REGENMODE
 70
     1
  9
$FILLMODE
 70
     1
  9
$QTEXTMODE
 70
     0
  9
$MIRRTEXT
 70
     1
  9
$LTSCALE
 40
1.0
  9
$ATTMODE
 70
     1
  9
$TEXTSIZE
 40
30.0
  9
$TRACEWID
 40
0.05
  9
$TEXTSTYLE
  7
SUNPOU
  9
$CLAYER
  8
0
  9
$CELTYPE
  6
BYLAYER
  9
$CECOLOR
 62
   256
  9
$CELTSCALE
 40
1.0
  9
$DISPSILH
 70
     0
  9
$DIMSCALE
 40
1.0
  9
$DIMASZ
 40
2.0
  9
$DIMEXO
 40
10.0
  9
$DIMDLI
 40
0.38
  9
$DIMRND
 40
0.0
  9
$DIMDLE
 40
0.0
  9
$DIMEXE
 40
0.0
  9
$DIMTP
 40
0.0
  9
$DIMTM
 40
0.0
  9
$DIMTXT
 40
10.0
  9
$DIMCEN
 40
0.0
  9
$DIMTSZ
 40
0.0
  9
$DIMTOL
 70
     0
  9
$DIMLIM
 70
     0
  9
$DIMTIH
 70
     0
  9
$DIMTOH
 70
     0
  9
$DIMSE1
 70
     0
  9
$DIMSE2
 70
     0
  9
$DIMTAD
 70
     1
  9
$DIMZIN
 70
     0
  9
$DIMBLK
  1
Dot
  9
$DIMASO
 70
     1
  9
$DIMSHO
 70
     1
  9
$DIMPOST
  1

  9
$DIMAPOST
  1

  9
$DIMALT
 70
     0
  9
$DIMALTD
 70
     2
  9
$DIMALTF
 40
25.4
  9
$DIMLFAC
 40
1.0
  9
$DIMTOFL
 70
     0
  9
$DIMTVP
 40
0.0
  9
$DIMTIX
 70
     0
  9
$DIMSOXD
 70
     0
  9
$DIMSAH
 70
     0
  9
$DIMBLK1
  1

  9
$DIMBLK2
  1

  9
$DIMSTYLE
  2
STANDARD
  9
$DIMCLRD
 70
    60
  9
$DIMCLRE
 70
    70
  9
$DIMCLRT
 70
    60
  9
$DIMTFAC
 40
0.064286
  9
$DIMGAP
 40
3.0
  9
$DIMJUST
 70
     0
  9
$DIMSD1
 70
     0
  9
$DIMSD2
 70
     0
  9
$DIMTOLJ
 70
     1
  9
$DIMTZIN
 70
     0
  9
$DIMALTZ
 70
     0
  9
$DIMALTTZ
 70
     0
  9
$DIMUPT
 70
     0
  9
$DIMDEC
 70
     0
  9
$DIMTDEC
 70
     0
  9
$DIMALTU
 70
     2
  9
$DIMALTTD
 70
     2
  9
$DIMTXSTY
  7
SUNPOU
  9
$DIMAUNIT
 70
     0
  9
$DIMADEC
 70
     0
  9
$DIMALTRND
 40
0.0
  9
$DIMAZIN
 70
     0
  9
$DIMDSEP
 70
    46
  9
$DIMATFIT
 70
     3
  9
$DIMFRAC
 70
     0
  9
$DIMLDRBLK
  1

  9
$DIMLUNIT
 70
     2
  9
$DIMLWD
 70
    -2
  9
$DIMLWE
 70
    -2
  9
$DIMTMOVE
 70
     0
  9
$LUNITS
 70
     2
  9
$LUPREC
 70
     5
  9
$SKETCHINC
 40
0.1
  9
$FILLETRAD
 40
0.0
  9
$AUNITS
 70
     0
  9
$AUPREC
 70
     0
  9
$MENU
  1
acad
  9
$ELEVATION
 40
0.0
  9
$PELEVATION
 40
0.0
  9
$THICKNESS
 40
0.0
  9
$LIMCHECK
 70
     0
  9
$CHAMFERA
 40
0.0
  9
$CHAMFERB
 40
0.0
  9
$CHAMFERC
 40
0.0
  9
$CHAMFERD
 40
0.0
  9
$SKPOLY
 70
     0
  9
$TDCREATE
 40
2450623.654673033
  9
$TDUCREATE
 40
2450623.279673032
  9
$TDUPDATE
 40
2453858.604146956
  9
$TDUUPDATE
 40
2453858.229146956
  9
$TDINDWG
 40
0.1704165394
  9
$TDUSRTIMER
 40
0.1704163657
  9
$USRTIMER
 70
     1
  9
$ANGBASE
 50
0.0
  9
$ANGDIR
 70
     0
  9
$PDMODE
 70
     0
  9
$PDSIZE
 40
0.0
  9
$PLINEWID
 40
0.0
  9
$SPLFRAME
 70
     0
  9
$SPLINETYPE
 70
     6
  9
$SPLINESEGS
 70
     8
  9
$HANDSEED
  5
43A8
  9
$SURFTAB1
 70
     6
  9
$SURFTAB2
 70
     6
  9
$SURFTYPE
 70
     6
  9
$SURFU
 70
     6
  9
$SURFV
 70
     6
  9
$UCSBASE
  2

  9
$UCSNAME
  2

  9
$UCSORG
 10
0.0
 20
0.0
 30
0.0
  9
$UCSXDIR
 10
1.0
 20
0.0
 30
0.0
  9
$UCSYDIR
 10
0.0
 20
1.0
 30
0.0
  9
$UCSORTHOREF
  2

  9
$UCSORTHOVIEW
 70
     0
  9
$UCSORGTOP
 10
0.0
 20
0.0
 30
0.0
  9
$UCSORGBOTTOM
 10
0.0
 20
0.0
 30
0.0
  9
$UCSORGLEFT
 10
0.0
 20
0.0
 30
0.0
  9
$UCSORGRIGHT
 10
0.0
 20
0.0
 30
0.0
  9
$UCSORGFRONT
 10
0.0
 20
0.0
 30
0.0
  9
$UCSORGBACK
 10
0.0
 20
0.0
 30
0.0
  9
$PUCSBASE
  2

  9
$PUCSNAME
  2

  9
$PUCSORG
 10
0.0
 20
0.0
 30
0.0
  9
$PUCSXDIR
 10
1.0
 20
0.0
 30
0.0
  9
$PUCSYDIR
 10
0.0
 20
1.0
 30
0.0
  9
$PUCSORTHOREF
  2

  9
$PUCSORTHOVIEW
 70
     0
  9
$PUCSORGTOP
 10
0.0
 20
0.0
 30
0.0
  9
$PUCSORGBOTTOM
 10
0.0
 20
0.0
 30
0.0
  9
$PUCSORGLEFT
 10
0.0
 20
0.0
 30
0.0
  9
$PUCSORGRIGHT
 10
0.0
 20
0.0
 30
0.0
  9
$PUCSORGFRONT
 10
0.0
 20
0.0
 30
0.0
  9
$PUCSORGBACK
 10
0.0
 20
0.0
 30
0.0
  9
$USERI1
 70
     0
  9
$USERI2
 70
     0
  9
$USERI3
 70
     0
  9
$USERI4
 70
     0
  9
$USERI5
 70
     0
  9
$USERR1
 40
0.0
  9
$USERR2
 40
0.0
  9
$USERR3
 40
0.0
  9
$USERR4
 40
0.0
  9
$USERR5
 40
0.0
  9
$WORLDVIEW
 70
     1
  9
$SHADEDGE
 70
     3
  9
$SHADEDIF
 70
    70
  9
$TILEMODE
 70
     1
  9
$MAXACTVP
 70
    16
  9
$PINSBASE
 10
0.0
 20
0.0
 30
0.0
  9
$PLIMCHECK
 70
     0
  9
$PEXTMIN
 10
1.000000000000000E+20
 20
1.000000000000000E+20
 30
1.000000000000000E+20
  9
$PEXTMAX
 10
-1.000000000000000E+20
 20
-1.000000000000000E+20
 30
-1.000000000000000E+20
  9
$PLIMMIN
 10
0.0
 20
0.0
  9
$PLIMMAX
 10
12.0
 20
9.0
  9
$UNITMODE
 70
     0
  9
$VISRETAIN
 70
     0
  9
$PLINEGEN
 70
     0
  9
$PSLTSCALE
 70
     1
  9
$TREEDEPTH
 70
  3020
  9
$CMLSTYLE
  2
STANDARD
  9
$CMLJUST
 70
     0
  9
$CMLSCALE
 40
1.0
  9
$PROXYGRAPHICS
 70
     1
  9
$MEASUREMENT
 70
     0
  9
$CELWEIGHT
370
    -1
  9
$ENDCAPS
280
     0
  9
$JOINSTYLE
280
     0
  9
$LWDISPLAY
290
     0
  9
$INSUNITS
 70
     0
  9
$HYPERLINKBASE
  1

  9
$STYLESHEET
  1

  9
$XEDIT
290
     1
  9
$CEPSNTYPE
380
     0
  9
$PSTYLEMODE
290
     1
  9
$FINGERPRINTGUID
  2
{FB88A696-E29C-4009-92AF-A3599A8169D5}
  9
$VERSIONGUID
  2
{6C7EF1E7-6448-4DFF-8B5F-11347FBDC34D}
  9
$EXTNAMES
290
     1
  9
$PSVPSCALE
 40
0.0
  9
$OLESTARTUP
290
     0
  0
ENDSEC
  0
SECTION
  2
CLASSES
  0
CLASS
  1
DICTIONARYVAR
  2
AcDbDictionaryVar
  3
ObjectDBX Classes
 90
        0
280
     0
281
     0
  0
CLASS
  1
ACDBDICTIONARYWDFLT
  2
AcDbDictionaryWithDefault
  3
ObjectDBX Classes
 90
        0
280
     0
281
     0
  0
CLASS
  1
ACDBPLACEHOLDER
  2
AcDbPlaceHolder
  3
ObjectDBX Classes
 90
        0
280
     0
281
     0
  0
CLASS
  1
LAYOUT
  2
AcDbLayout
  3
ObjectDBX Classes
 90
        0
280
     0
281
     0
  0
CLASS
  1
TABLESTYLE
  2
AcDbTableStyle
  3
ObjectDBX Classes
 90
     2047
280
     0
281
     0
  0
CLASS
  1
SORTENTSTABLE
  2
AcDbSortentsTable
  3
ObjectDBX Classes
 90
        0
280
     0
281
     0
  0
ENDSEC
  0
SECTION
  2
TABLES
  0
TABLE
  2
VPORT
  5
12
330
0
100
AcDbSymbolTable
 70
    23
  0
VPORT
  5
43A2
330
12
100
AcDbSymbolTableRecord
100
AcDbViewportTableRecord
  2
*Active
 70
     0
 10
0.0
 20
0.0
 11
1.0
 21
1.0
 12
38.01906862737065
 22
104.0249498761318
 13
0.0
 23
0.0
 14
1.0
 24
1.0
 15
0.0
 25
0.0
 16
0.0
 26
0.0
 36
1.0
 17
0.0
 27
0.0
 37
0.0
 40
230.7438050145392
 41
1.557544757033248
 42
50.0
 43
0.0
 44
0.0
 50
0.0
 51
0.0
 71
     0
 72
 20000
 73
     1
 74
     1
 75
     0
 76
     0
 77
     0
 78
     0
281
     0
 65
     1
110
0.0
120
0.0
130
0.0
111
1.0
121
0.0
131
0.0
112
0.0
122
1.0
132
0.0
 79
     0
146
0.0
  0
ENDTAB
  0
TABLE
  2
LTYPE
  5
D
330
0
100
AcDbSymbolTable
 70
     2
  0
LTYPE
  5
E
330
D
100
AcDbSymbolTableRecord
100
AcDbLinetypeTableRecord
  2
BYBLOCK
 70
     0
  3

 72
    65
 73
     0
 40
0.0
  0
LTYPE
  5
F
330
D
100
AcDbSymbolTableRecord
100
AcDbLinetypeTableRecord
  2
BYLAYER
 70
     0
  3

 72
    65
 73
     0
 40
0.0
  0
LTYPE
  5
5
330
D
100
AcDbSymbolTableRecord
100
AcDbLinetypeTableRecord
  2
CONTINUOUS
 70
     0
  3
Solid line
 72
    65
 73
     0
 40
0.0
  0
ENDTAB
  0
TABLE
  2
LAYER
  5
A
102
{ACAD_XDICTIONARY
360
1B4
102
}
330
0
100
AcDbSymbolTable
 70
     6
  0
LAYER
  5
4
330
A
100
AcDbSymbolTableRecord
100
AcDbLayerTableRecord
  2
0
 70
     0
 62
     7
  6
CONTINUOUS
370
    -3
390
57
  0
LAYER
  5
25
330
A
100
AcDbSymbolTableRecord
100
AcDbLayerTableRecord
  2
KIJUN
 70
     0
 62
     7
  6
CONTINUOUS
370
    -3
390
57
  0
LAYER
  5
22
330
A
100
AcDbSymbolTableRecord
100
AcDbLayerTableRecord
  2
HOJO
 70
     0
 62
     3
  6
CONTINUOUS
370
    -3
390
57
  0
LAYER
  5
1B
330
A
100
AcDbSymbolTableRecord
100
AcDbLayerTableRecord
  2
WAKU
 70
     0
 62
     1
  6
CONTINUOUS
370
    -3
390
57
  0
LAYER
  5
31
330
A
100
AcDbSymbolTableRecord
100
AcDbLayerTableRecord
  2
DEFPOINTS
 70
     0
 62
     7
  6
CONTINUOUS
290
     0
370
    -3
390
57
  0
LAYER
  5
28
330
A
100
AcDbSymbolTableRecord
100
AcDbLayerTableRecord
  2
SUNPOU
 70
     0
 62
    70
  6
CONTINUOUS
370
    -3
390
57
  0
ENDTAB
  0
TABLE
  2
STYLE
  5
B
330
0
100
AcDbSymbolTable
 70
     3
  0
STYLE
  5
C
330
B
100
AcDbSymbolTableRecord
100
AcDbTextStyleTableRecord
  2
STANDARD
 70
     0
 40
0.0
 41
1.0
 50
0.0
 71
     0
 42
0.2
  3
txt
  4

  0
STYLE
  5
1C
330
B
100
AcDbSymbolTableRecord
100
AcDbTextStyleTableRecord
  2
SUNPOU
 70
     0
 40
0.0
 41
1.0
 50
0.0
 71
     0
 42
30.0
  3
txt
  4
bigfont
  0
STYLE
  5
14A
330
B
100
AcDbSymbolTableRecord
100
AcDbTextStyleTableRecord
  2
LIFE
 70
     0
 40
0.0
 41
0.7
 50
0.0
 71
     0
 42
10.0
  3
romans
  4
extfont
  0
ENDTAB
  0
TABLE
  2
VIEW
  5
10
330
0
100
AcDbSymbolTable
 70
     0
  0
ENDTAB
  0
TABLE
  2
UCS
  5
11
330
0
100
AcDbSymbolTable
 70
     0
  0
ENDTAB
  0
TABLE
  2
APPID
  5
14
330
0
100
AcDbSymbolTable
 70
    10
  0
APPID
  5
15
330
14
100
AcDbSymbolTableRecord
100
AcDbRegAppTableRecord
  2
ACAD
 70
     0
  0
APPID
  5
1D3
330
14
100
AcDbSymbolTableRecord
100
AcDbRegAppTableRecord
  2
ACAD_DSTYLE_DIMTEXT_FILL
 70
     0
  0
APPID
  5
1D4
330
14
100
AcDbSymbolTableRecord
100
AcDbRegAppTableRecord
  2
ACAD_DSTYLE_DIMEXT_LENGTH
 70
     0
  0
APPID
  5
1D5
330
14
100
AcDbSymbolTableRecord
100
AcDbRegAppTableRecord
  2
ACAD_DSTYLE_DIMEXT_ENABLED
 70
     0
  0
APPID
  5
1D6
330
14
100
AcDbSymbolTableRecord
100
AcDbRegAppTableRecord
  2
ACAD_DSTYLE_DIM_LINETYPE
 70
     0
  0
APPID
  5
1D7
330
14
100
AcDbSymbolTableRecord
100
AcDbRegAppTableRecord
  2
ACAD_DSTYLE_DIM_EXT1_LINETYPE
 70
     0
  0
APPID
  5
1D8
330
14
100
AcDbSymbolTableRecord
100
AcDbRegAppTableRecord
  2
ACAD_DSTYLE_DIM_EXT2_LINETYPE
 70
     0
  0
APPID
  5
294
330
14
100
AcDbSymbolTableRecord
100
AcDbRegAppTableRecord
  2
ACAD_DSTYLE_DIMJOGGED_JOGANGLE_SYMBOL
 70
     0
  0
APPID
  5
478
330
14
100
AcDbSymbolTableRecord
100
AcDbRegAppTableRecord
  2
ACAD_DSTYLE_DIMARC_LENGTH_SYMBOL
 70
     0
  0
APPID
  5
157B
330
14
100
AcDbSymbolTableRecord
100
AcDbRegAppTableRecord
  2
ACAD_EXEMPT_FROM_CAD_STANDARDS
 70
     0
  0
ENDTAB
  0
TABLE
  2
DIMSTYLE
  5
16
330
0
100
AcDbSymbolTable
 70
     2
100
AcDbDimStyleTable
 71
     1
340
1E
  0
DIMSTYLE
105
1E
102
{ACAD_REACTORS
330
430E
330
431B
102
}
330
16
100
AcDbSymbolTableRecord
100
AcDbDimStyleTableRecord
  2
STANDARD
 70
     0
340
C
  0
ENDTAB
  0
TABLE
  2
BLOCK_RECORD
  5
1
330
0
100
AcDbSymbolTable
 70
    97
  0
BLOCK_RECORD
  5
2
102
{ACAD_XDICTIONARY
360
1578
102
}
330
1
100
AcDbSymbolTableRecord
100
AcDbBlockTableRecord
  2
*MODEL_SPACE
340
5A
  0
BLOCK_RECORD
  5
7
330
1
100
AcDbSymbolTableRecord
100
AcDbBlockTableRecord
  2
*PAPER_SPACE
340
5B
  0
BLOCK_RECORD
  5
109
330
1
100
AcDbSymbolTableRecord
100
AcDbBlockTableRecord
  2
_Dot
340
0
102
{BLKREFS
331
CF6
331
CF7
331
15B9
331
15BA
331
15CB
331
15CC
331
1664
331
1665
331
1686
331
1687
331
1818
331
1819
331
1821
331
1822
331
18DE
331
18DF
331
18E7
331
18E8
331
19C4
331
19C5
331
19DF
331
19E0
331
1F7B
331
1F7C
331
1F84
331
1F85
331
20F9
331
20FA
331
2102
331
2103
331
2165
331
2166
331
2172
331
2173
331
2314
331
2315
331
2326
331
2327
331
232F
331
2330
331
2834
331
2835
331
2848
331
2849
331
298C
331
298D
331
2995
331
2996
331
2BF8
331
2BF9
331
2C01
331
2C02
331
2DA5
331
2DA6
331
2DAE
331
2DAF
331
2E70
331
2E71
331
2E82
331
2E83
331
2FAC
331
2FAD
331
2FB5
331
2FB6
331
311A
331
311B
331
3123
331
3124
331
32AE
331
32AF
331
32B7
331
32B8
331
3692
331
3693
331
369B
331
369C
331
371A
331
371B
331
3743
331
3744
331
39C7
331
39C8
331
3A9C
331
3A9D
331
3AAE
331
3AAF
331
3BA4
331
3BA5
331
3BB6
331
3BB7
331
3D99
331
3D9A
331
3DAB
331
3DAC
331
3F8B
331
3F8C
331
3F9D
331
3F9E
331
4187
331
4188
331
4199
331
419A
331
4383
331
4384
331
4395
331
4396
102
}
  0
BLOCK_RECORD
  5
35E9
330
1
100
AcDbSymbolTableRecord
100
AcDbBlockTableRecord
  2
*D68
340
0
  0
BLOCK_RECORD
  5
35F6
330
1
100
AcDbSymbolTableRecord
100
AcDbBlockTableRecord
  2
*D69
340
0
  0
BLOCK_RECORD
  5
370A
330
1
100
AcDbSymbolTableRecord
100
AcDbBlockTableRecord
  2
*D71
340
0
  0
BLOCK_RECORD
  5
3734
330
1
100
AcDbSymbolTableRecord
100
AcDbBlockTableRecord
  2
*D73
340
0
  0
BLOCK_RECORD
  5
37B1
330
1
100
AcDbSymbolTableRecord
100
AcDbBlockTableRecord
  2
*D75
340
0
  0
BLOCK_RECORD
  5
3A45
330
1
100
AcDbSymbolTableRecord
100
AcDbBlockTableRecord
  2
*D80
340
0
  0
BLOCK_RECORD
  5
3A52
330
1
100
AcDbSymbolTableRecord
100
AcDbBlockTableRecord
  2
*D81
340
0
  0
BLOCK_RECORD
  5
3B2D
330
1
100
AcDbSymbolTableRecord
100
AcDbBlockTableRecord
  2
*D83
340
0
  0
BLOCK_RECORD
  5
3B3A
330
1
100
AcDbSymbolTableRecord
100
AcDbBlockTableRecord
  2
*D84
340
0
  0
BLOCK_RECORD
  5
3D2D
330
1
100
AcDbSymbolTableRecord
100
AcDbBlockTableRecord
  2
*D86
340
0
  0
BLOCK_RECORD
  5
3D3A
330
1
100
AcDbSymbolTableRecord
100
AcDbBlockTableRecord
  2
*D87
340
0
  0
BLOCK_RECORD
  5
3F20
330
1
100
AcDbSymbolTableRecord
100
AcDbBlockTableRecord
  2
*D89
340
0
  0
BLOCK_RECORD
  5
3F2D
330
1
100
AcDbSymbolTableRecord
100
AcDbBlockTableRecord
  2
*D90
340
0
  0
BLOCK_RECORD
  5
4113
330
1
100
AcDbSymbolTableRecord
100
AcDbBlockTableRecord
  2
*D92
340
0
  0
BLOCK_RECORD
  5
4120
330
1
100
AcDbSymbolTableRecord
100
AcDbBlockTableRecord
  2
*D93
340
0
  0
BLOCK_RECORD
  5
430F
330
1
100
AcDbSymbolTableRecord
100
AcDbBlockTableRecord
  2
*D95
340
0
  0
BLOCK_RECORD
  5
431C
330
1
100
AcDbSymbolTableRecord
100
AcDbBlockTableRecord
  2
*D96
340
0
  0
ENDTAB
  0
ENDSEC
  0
SECTION
  2
BLOCKS
  0
BLOCK
  5
3
330
2
100
AcDbEntity
  8
0
100
AcDbBlockBegin
  2
*MODEL_SPACE
 70
     0
 10
0.0
 20
0.0
 30
0.0
  3
*MODEL_SPACE
  1

  0
ENDBLK
  5
6
330
2
100
AcDbEntity
  8
0
100
AcDbBlockEnd
  0
BLOCK
  5
8
330
7
100
AcDbEntity
 67
     1
  8
0
100
AcDbBlockBegin
  2
*PAPER_SPACE
 70
     0
 10
0.0
 20
0.0
 30
0.0
  3
*PAPER_SPACE
  1

  0
ENDBLK
  5
9
330
7
100
AcDbEntity
 67
     1
  8
0
100
AcDbBlockEnd
  0
BLOCK
  5
10C
330
109
100
AcDbEntity
  8
0
100
AcDbBlockBegin
  2
_Dot
 70
     0
 10
0.0
 20
0.0
 30
0.0
  3
_Dot
  1

  0
LWPOLYLINE
  5
10A
330
109
100
AcDbEntity
  8
0
  6
ByBlock
 62
     0
100
AcDbPolyline
 90
        2
 70
     1
 43
0.5
 10
-0.25
 20
0.0
 42
1.0
 10
0.25
 20
0.0
 42
1.0
  0
LINE
  5
10B
330
109
100
AcDbEntity
  8
0
  6
ByBlock
 62
     0
370
    -2
100
AcDbLine
 10
-0.5
 20
0.0
 30
0.0
 11
-1.0
 21
0.0
 31
0.0
  0
ENDBLK
  5
10D
330
109
100
AcDbEntity
  8
0
100
AcDbBlockEnd
  0
BLOCK
  5
35F3
330
35E9
100
AcDbEntity
  8
0
100
AcDbBlockBegin
  2
*D68
 70
     1
 10
0.0
 20
0.0
 30
0.0
  3
*D68
  1

  0
LINE
  5
368F
330
35E9
100
AcDbEntity
  8
SUNPOU
 62
    70
370
    -2
100
AcDbLine
 10
-57.31304931990838
 20
149.8921824087356
 30
0.0
 11
-57.31304931990837
 21
205.1481820578692
 31
0.0
  0
LINE
  5
3690
330
35E9
100
AcDbEntity
  8
SUNPOU
 62
    70
370
    -2
100
AcDbLine
 10
248.6869506800916
 20
150.5513573235502
 30
0.0
 11
248.6869506800916
 21
205.1481820578692
 31
0.0
  0
LINE
  5
3691
330
35E9
100
AcDbEntity
  8
SUNPOU
 62
    60
370
    -2
100
AcDbLine
 10
-55.31304931990836
 20
205.1481820578692
 30
0.0
 11
246.6869506800916
 21
205.1481820578692
 31
0.0
  0
INSERT
  5
3692
330
35E9
100
AcDbEntity
  8
SUNPOU
 62
    60
370
    -2
100
AcDbBlockReference
  2
_Dot
 10
-57.31304931990837
 20
205.1481820578692
 30
0.0
 41
2.0
 42
2.0
 43
2.0
 50
180.0
  0
INSERT
  5
3693
330
35E9
100
AcDbEntity
  8
SUNPOU
 62
    60
370
    -2
100
AcDbBlockReference
  2
_Dot
 10
248.6869506800916
 20
205.1481820578692
 30
0.0
 41
2.0
 42
2.0
 43
2.0
  0
MTEXT
  5
3694
330
35E9
100
AcDbEntity
  8
SUNPOU
 62
    60
100
AcDbMText
 10
95.68695068009162
 20
213.1481820578692
 30
0.0
 40
10.0
 41
0.0
 71
     5
 72
     1
  1
\A1;306
  7
SUNPOU
 73
     1
 44
1.0
1001
ACAD
1000
MTEXTBEGIN
1070
    73
1070
     1
1070
    44
1040
1.0
1070
    74
1070
     0
1000
MTEXTEND
  0
POINT
  5
3695
330
35E9
100
AcDbEntity
  8
DEFPOINTS
 62
     0
100
AcDbPoint
 10
-57.31304931990838
 20
139.8921824087356
 30
0.0
  0
POINT
  5
3696
330
35E9
100
AcDbEntity
  8
DEFPOINTS
 62
     0
100
AcDbPoint
 10
248.6869506800916
 20
140.5513573235502
 30
0.0
  0
POINT
  5
3697
330
35E9
100
AcDbEntity
  8
DEFPOINTS
 62
     0
100
AcDbPoint
 10
248.6869506800916
 20
205.1481820578692
 30
0.0
  0
ENDBLK
  5
35F4
330
35E9
100
AcDbEntity
  8
0
100
AcDbBlockEnd
  0
BLOCK
  5
3600
330
35F6
100
AcDbEntity
  8
0
100
AcDbBlockBegin
  2
*D69
 70
     1
 10
0.0
 20
0.0
 30
0.0
  3
*D69
  1

  0
LINE
  5
3698
330
35F6
100
AcDbEntity
  8
SUNPOU
 62
    70
370
    -2
100
AcDbLine
 10
-67.31304931990836
 20
163.7291678152901
 30
0.0
 11
-98.37628952802333
 21
163.7291678152901
 31
0.0
  0
LINE
  5
3699
330
35F6
100
AcDbEntity
  8
SUNPOU
 62
    70
370
    -2
100
AcDbLine
 10
-67.49508426752891
 20
117.7291678152901
 30
0.0
 11
-98.37628952802333
 21
117.7291678152901
 31
0.0
  0
LINE
  5
369A
330
35F6
100
AcDbEntity
  8
SUNPOU
 62
    60
370
    -2
100
AcDbLine
 10
-98.37628952802333
 20
161.7291678152901
 30
0.0
 11
-98.37628952802333
 21
119.7291678152901
 31
0.0
  0
INSERT
  5
369B
330
35F6
100
AcDbEntity
  8
SUNPOU
 62
    60
370
    -2
100
AcDbBlockReference
  2
_Dot
 10
-98.37628952802333
 20
163.7291678152901
 30
0.0
 41
2.0
 42
2.0
 43
2.0
 50
90.0
  0
INSERT
  5
369C
330
35F6
100
AcDbEntity
  8
SUNPOU
 62
    60
370
    -2
100
AcDbBlockReference
  2
_Dot
 10
-98.37628952802333
 20
117.7291678152901
 30
0.0
 41
2.0
 42
2.0
 43
2.0
 50
270.0
  0
MTEXT
  5
369D
330
35F6
100
AcDbEntity
  8
SUNPOU
 62
    60
100
AcDbMText
 10
-106.3762895280233
 20
140.7291678152901
 30
0.0
 40
10.0
 41
0.0
 71
     5
 72
     1
  1
\A1;46
  7
SUNPOU
 11
0.0000000000000001
 21
1.0
 31
0.0
 73
     1
 44
1.0
1001
ACAD
1000
MTEXTBEGIN
1070
    73
1070
     1
1070
    44
1040
1.0
1070
    74
1070
     0
1000
MTEXTEND
  0
POINT
  5
369E
330
35F6
100
AcDbEntity
  8
DEFPOINTS
 62
     0
100
AcDbPoint
 10
-57.31304931990838
 20
163.7291678152901
 30
0.0
  0
POINT
  5
369F
330
35F6
100
AcDbEntity
  8
DEFPOINTS
 62
     0
100
AcDbPoint
 10
-57.49508426752891
 20
117.7291678152901
 30
0.0
  0
POINT
  5
36A0
330
35F6
100
AcDbEntity
  8
DEFPOINTS
 62
     0
100
AcDbPoint
 10
-98.37628952802333
 20
117.7291678152901
 30
0.0
  0
ENDBLK
  5
3601
330
35F6
100
AcDbEntity
  8
0
100
AcDbBlockEnd
  0
BLOCK
  5
3714
330
370A
100
AcDbEntity
  8
0
100
AcDbBlockBegin
  2
*D71
 70
     1
 10
0.0
 20
0.0
 30
0.0
  3
*D71
  1

  0
LINE
  5
3716
330
370A
100
AcDbEntity
  8
SUNPOU
 62
    70
370
    -2
100
AcDbLine
 10
28.04651099485443
 20
67.73890226967478
 30
0.0
 11
28.04651099485444
 21
96.76277591141218
 31
0.0
  0
LINE
  5
3717
330
370A
100
AcDbEntity
  8
SUNPOU
 62
    70
370
    -2
100
AcDbLine
 10
67.88324783326004
 20
68.05244005182112
 30
0.0
 11
67.88324783326004
 21
96.76277591141218
 31
0.0
  0
LINE
  5
3718
330
370A
100
AcDbEntity
  8
SUNPOU
 62
    60
370
    -2
100
AcDbLine
 10
30.04651099485443
 20
96.76277591141218
 30
0.0
 11
65.88324783326005
 21
96.76277591141218
 31
0.0
  0
LINE
  5
3719
330
370A
100
AcDbEntity
  8
SUNPOU
 62
    60
370
    -2
100
AcDbLine
 10
67.88324783326004
 20
96.76277591141218
 30
0.0
 11
155.88324783326
 21
96.76277591141218
 31
0.0
  0
INSERT
  5
371A
330
370A
100
AcDbEntity
  8
SUNPOU
 62
    60
370
    -2
100
AcDbBlockReference
  2
_Dot
 10
28.04651099485444
 20
96.76277591141218
 30
0.0
 41
2.0
 42
2.0
 43
2.0
 50
180.0
  0
INSERT
  5
371B
330
370A
100
AcDbEntity
  8
SUNPOU
 62
    60
370
    -2
100
AcDbBlockReference
  2
_Dot
 10
67.88324783326004
 20
96.76277591141218
 30
0.0
 41
2.0
 42
2.0
 43
2.0
  0
MTEXT
  5
371C
330
370A
100
AcDbEntity
  8
SUNPOU
 62
    60
100
AcDbMText
 10
112.88324783326
 20
104.7627759114122
 30
0.0
 40
10.0
 41
0.0
 71
     5
 72
     1
  1
\A1;39.836737
  7
SUNPOU
 73
     1
 44
1.0
1001
ACAD
1000
MTEXTBEGIN
1070
    73
1070
     1
1070
    44
1040
1.0
1070
    74
1070
     0
1000
MTEXTEND
  0
POINT
  5
371D
330
370A
100
AcDbEntity
  8
DEFPOINTS
 62
     0
100
AcDbPoint
 10
28.04651099485443
 20
57.73890226967478
 30
0.0
  0
POINT
  5
371E
330
370A
100
AcDbEntity
  8
DEFPOINTS
 62
     0
100
AcDbPoint
 10
67.88324783326004
 20
58.05244005182112
 30
0.0
  0
POINT
  5
371F
330
370A
100
AcDbEntity
  8
DEFPOINTS
 62
     0
100
AcDbPoint
 10
67.88324783326004
 20
96.76277591141218
 30
0.0
  0
ENDBLK
  5
3715
330
370A
100
AcDbEntity
  8
0
100
AcDbBlockEnd
  0
BLOCK
  5
373E
330
3734
100
AcDbEntity
  8
0
100
AcDbBlockBegin
  2
*D73
 70
     1
 10
0.0
 20
0.0
 30
0.0
  3
*D73
  1

  0
LINE
  5
3740
330
3734
100
AcDbEntity
  8
SUNPOU
 62
    70
370
    -2
100
AcDbLine
 10
27.89994361320522
 20
69.85225236533939
 30
0.0
 11
27.89994361320522
 21
98.69576219890257
 31
0.0
  0
LINE
  5
3741
330
3734
100
AcDbEntity
  8
SUNPOU
 62
    70
370
    -2
100
AcDbLine
 10
67.89994361320521
 20
69.85225236533939
 30
0.0
 11
67.89994361320521
 21
98.69576219890257
 31
0.0
  0
LINE
  5
3742
330
3734
100
AcDbEntity
  8
SUNPOU
 62
    60
370
    -2
100
AcDbLine
 10
29.89994361320522
 20
98.69576219890257
 30
0.0
 11
65.8999436132052
 21
98.69576219890257
 31
0.0
  0
INSERT
  5
3743
330
3734
100
AcDbEntity
  8
SUNPOU
 62
    60
370
    -2
100
AcDbBlockReference
  2
_Dot
 10
27.89994361320522
 20
98.69576219890257
 30
0.0
 41
2.0
 42
2.0
 43
2.0
 50
180.0
  0
INSERT
  5
3744
330
3734
100
AcDbEntity
  8
SUNPOU
 62
    60
370
    -2
100
AcDbBlockReference
  2
_Dot
 10
67.89994361320521
 20
98.69576219890257
 30
0.0
 41
2.0
 42
2.0
 43
2.0
  0
MTEXT
  5
3745
330
3734
100
AcDbEntity
  8
SUNPOU
 62
    60
100
AcDbMText
 10
47.89994361320521
 20
106.6957621989025
 30
0.0
 40
10.0
 41
0.0
 71
     5
 72
     1
  1
\A1;40φ
  7
SUNPOU
 73
     1
 44
1.0
1001
ACAD
1000
MTEXTBEGIN
1070
    73
1070
     1
1070
    44
1040
1.0
1070
    74
1070
     0
1000
MTEXTEND
  0
POINT
  5
3746
330
3734
100
AcDbEntity
  8
DEFPOINTS
 62
     0
100
AcDbPoint
 10
27.89994361320522
 20
59.85225236533939
 30
0.0
  0
POINT
  5
3747
330
3734
100
AcDbEntity
  8
DEFPOINTS
 62
     0
100
AcDbPoint
 10
67.89994361320521
 20
59.85225236533939
 30
0.0
  0
POINT
  5
3748
330
3734
100
AcDbEntity
  8
DEFPOINTS
 62
     0
100
AcDbPoint
 10
67.89994361320521
 20
98.69576219890257
 30
0.0
  0
ENDBLK
  5
373F
330
3734
100
AcDbEntity
  8
0
100
AcDbBlockEnd
  0
BLOCK
  5
37BB
330
37B1
100
AcDbEntity
  8
0
100
AcDbBlockBegin
  2
*D75
 70
     1
 10
0.0
 20
0.0
 30
0.0
  3
*D75
  1

  0
LINE
  5
39C4
330
37B1
100
AcDbEntity
  8
SUNPOU
 62
    70
370
    -2
100
AcDbLine
 10
-42.54865485741496
 20
157.2140937351553
 30
0.0
 11
-42.54865485741495
 21
282.2045269340939
 31
0.0
  0
LINE
  5
39C5
330
37B1
100
AcDbEntity
  8
SUNPOU
 62
    70
370
    -2
100
AcDbLine
 10
149.451345142585
 20
157.2140937351553
 30
0.0
 11
149.451345142585
 21
282.2045269340939
 31
0.0
  0
LINE
  5
39C6
330
37B1
100
AcDbEntity
  8
SUNPOU
 62
    60
370
    -2
100
AcDbLine
 10
-40.54865485741495
 20
282.2045269340939
 30
0.0
 11
147.451345142585
 21
282.2045269340939
 31
0.0
  0
INSERT
  5
39C7
330
37B1
100
AcDbEntity
  8
SUNPOU
 62
    60
370
    -2
100
AcDbBlockReference
  2
_Dot
 10
-42.54865485741495
 20
282.2045269340939
 30
0.0
 41
2.0
 42
2.0
 43
2.0
 50
180.0
  0
INSERT
  5
39C8
330
37B1
100
AcDbEntity
  8
SUNPOU
 62
    60
370
    -2
100
AcDbBlockReference
  2
_Dot
 10
149.451345142585
 20
282.2045269340939
 30
0.0
 41
2.0
 42
2.0
 43
2.0
  0
MTEXT
  5
39C9
330
37B1
100
AcDbEntity
  8
SUNPOU
 62
    60
100
AcDbMText
 10
53.45134514258504
 20
290.2045269340939
 30
0.0
 40
10.0
 41
0.0
 71
     5
 72
     1
  1
\A1;192φ
  7
SUNPOU
 73
     1
 44
1.0
1001
ACAD
1000
MTEXTBEGIN
1070
    73
1070
     1
1070
    44
1040
1.0
1070
    74
1070
     0
1000
MTEXTEND
  0
POINT
  5
39CA
330
37B1
100
AcDbEntity
  8
DEFPOINTS
 62
     0
100
AcDbPoint
 10
-42.54865485741496
 20
147.2140937351553
 30
0.0
  0
POINT
  5
39CB
330
37B1
100
AcDbEntity
  8
DEFPOINTS
 62
     0
100
AcDbPoint
 10
149.451345142585
 20
147.2140937351553
 30
0.0
  0
POINT
  5
39CC
330
37B1
100
AcDbEntity
  8
DEFPOINTS
 62
     0
100
AcDbPoint
 10
149.451345142585
 20
282.2045269340939
 30
0.0
  0
ENDBLK
  5
37BC
330
37B1
100
AcDbEntity
  8
0
100
AcDbBlockEnd
  0
BLOCK
  5
3A4F
330
3A45
100
AcDbEntity
  8
0
100
AcDbBlockBegin
  2
*D80
 70
     1
 10
0.0
 20
0.0
 30
0.0
  3
*D80
  1

  0
LINE
  5
3AAB
330
3A45
100
AcDbEntity
  8
SUNPOU
 62
    70
370
    -2
100
AcDbLine
 10
-68.96399143244808
 20
170.0383087325503
 30
0.0
 11
-68.96399143244808
 21
206.3986443243337
 31
0.0
  0
LINE
  5
3AAC
330
3A45
100
AcDbEntity
  8
SUNPOU
 62
    70
370
    -2
100
AcDbLine
 10
181.0360085675522
 20
170.3162869883523
 30
0.0
 11
181.0360085675522
 21
206.3986443243337
 31
0.0
  0
LINE
  5
3AAD
330
3A45
100
AcDbEntity
  8
SUNPOU
 62
    60
370
    -2
100
AcDbLine
 10
-66.96399143244808
 20
206.3986443243337
 30
0.0
 11
179.0360085675522
 21
206.3986443243337
 31
0.0
  0
INSERT
  5
3AAE
330
3A45
100
AcDbEntity
  8
SUNPOU
 62
    60
370
    -2
100
AcDbBlockReference
  2
_Dot
 10
-68.96399143244808
 20
206.3986443243337
 30
0.0
 41
2.0
 42
2.0
 43
2.0
 50
180.0
  0
INSERT
  5
3AAF
330
3A45
100
AcDbEntity
  8
SUNPOU
 62
    60
370
    -2
100
AcDbBlockReference
  2
_Dot
 10
181.0360085675522
 20
206.3986443243337
 30
0.0
 41
2.0
 42
2.0
 43
2.0
  0
MTEXT
  5
3AB0
330
3A45
100
AcDbEntity
  8
SUNPOU
 62
    60
100
AcDbMText
 10
56.03600856755208
 20
214.3986443243337
 30
0.0
 40
10.0
 41
0.0
 71
     5
 72
     1
  1
\A1;250
  7
SUNPOU
 73
     1
 44
1.0
1001
ACAD
1000
MTEXTBEGIN
1070
    73
1070
     1
1070
    44
1040
1.0
1070
    74
1070
     0
1000
MTEXTEND
  0
POINT
  5
3AB1
330
3A45
100
AcDbEntity
  8
DEFPOINTS
 62
     0
100
AcDbPoint
 10
-68.96399143244808
 20
160.0383087325503
 30
0.0
  0
POINT
  5
3AB2
330
3A45
100
AcDbEntity
  8
DEFPOINTS
 62
     0
100
AcDbPoint
 10
181.0360085675522
 20
160.3162869883523
 30
0.0
  0
POINT
  5
3AB3
330
3A45
100
AcDbEntity
  8
DEFPOINTS
 62
     0
100
AcDbPoint
 10
181.0360085675522
 20
206.3986443243337
 30
0.0
  0
ENDBLK
  5
3A50
330
3A45
100
AcDbEntity
  8
0
100
AcDbBlockEnd
  0
BLOCK
  5
3A5C
330
3A52
100
AcDbEntity
  8
0
100
AcDbBlockBegin
  2
*D81
 70
     1
 10
0.0
 20
0.0
 30
0.0
  3
*D81
  1

  0
LINE
  5
3A99
330
3A52
100
AcDbEntity
  8
SUNPOU
 62
    70
370
    -2
100
AcDbLine
 10
-78.96399143244808
 20
160.0383087325503
 30
0.0
 11
-111.0858629527327
 21
160.0383087325503
 31
0.0
  0
LINE
  5
3A9A
330
3A52
100
AcDbEntity
  8
SUNPOU
 62
    70
370
    -2
100
AcDbLine
 10
-79.11309215177175
 20
46.03830873255026
 30
0.0
 11
-111.0858629527328
 21
46.03830873255026
 31
0.0
  0
LINE
  5
3A9B
330
3A52
100
AcDbEntity
  8
SUNPOU
 62
    60
370
    -2
100
AcDbLine
 10
-111.0858629527327
 20
158.0383087325503
 30
0.0
 11
-111.0858629527328
 21
48.03830873255027
 31
0.0
  0
INSERT
  5
3A9C
330
3A52
100
AcDbEntity
  8
SUNPOU
 62
    60
370
    -2
100
AcDbBlockReference
  2
_Dot
 10
-111.0858629527327
 20
160.0383087325503
 30
0.0
 41
2.0
 42
2.0
 43
2.0
 50
90.0
  0
INSERT
  5
3A9D
330
3A52
100
AcDbEntity
  8
SUNPOU
 62
    60
370
    -2
100
AcDbBlockReference
  2
_Dot
 10
-111.0858629527328
 20
46.03830873255026
 30
0.0
 41
2.0
 42
2.0
 43
2.0
 50
270.0
  0
MTEXT
  5
3A9E
330
3A52
100
AcDbEntity
  8
SUNPOU
 62
    60
100
AcDbMText
 10
-119.0858629527328
 20
103.0383087325503
 30
0.0
 40
10.0
 41
0.0
 71
     5
 72
     1
  1
\A1;114
  7
SUNPOU
 11
0.0000000000000001
 21
1.0
 31
0.0
 73
     1
 44
1.0
1001
ACAD
1000
MTEXTBEGIN
1070
    73
1070
     1
1070
    44
1040
1.0
1070
    74
1070
     0
1000
MTEXTEND
  0
POINT
  5
3A9F
330
3A52
100
AcDbEntity
  8
DEFPOINTS
 62
     0
100
AcDbPoint
 10
-68.96399143244808
 20
160.0383087325503
 30
0.0
  0
POINT
  5
3AA0
330
3A52
100
AcDbEntity
  8
DEFPOINTS
 62
     0
100
AcDbPoint
 10
-69.11309215177175
 20
46.03830873255026
 30
0.0
  0
POINT
  5
3AA1
330
3A52
100
AcDbEntity
  8
DEFPOINTS
 62
     0
100
AcDbPoint
 10
-111.0858629527328
 20
46.03830873255026
 30
0.0
  0
ENDBLK
  5
3A5D
330
3A52
100
AcDbEntity
  8
0
100
AcDbBlockEnd
  0
BLOCK
  5
3B37
330
3B2D
100
AcDbEntity
  8
0
100
AcDbBlockBegin
  2
*D83
 70
     1
 10
0.0
 20
0.0
 30
0.0
  3
*D83
  1

  0
LINE
  5
3BB3
330
3B2D
100
AcDbEntity
  8
SUNPOU
 62
    70
370
    -2
100
AcDbLine
 10
-9.274404385007244
 20
116.3927336291364
 30
0.0
 11
-9.274404385007242
 21
131.1328898609256
 31
0.0
  0
LINE
  5
3BB4
330
3B2D
100
AcDbEntity
  8
SUNPOU
 62
    70
370
    -2
100
AcDbLine
 10
130.7255956149869
 20
115.4686950255653
 30
0.0
 11
130.7255956149869
 21
131.1328898609256
 31
0.0
  0
LINE
  5
3BB5
330
3B2D
100
AcDbEntity
  8
SUNPOU
 62
    60
370
    -2
100
AcDbLine
 10
-7.274404385007242
 20
131.1328898609256
 30
0.0
 11
128.7255956149869
 21
131.1328898609256
 31
0.0
  0
INSERT
  5
3BB6
330
3B2D
100
AcDbEntity
  8
SUNPOU
 62
    60
370
    -2
100
AcDbBlockReference
  2
_Dot
 10
-9.274404385007242
 20
131.1328898609256
 30
0.0
 41
2.0
 42
2.0
 43
2.0
 50
180.0
  0
INSERT
  5
3BB7
330
3B2D
100
AcDbEntity
  8
SUNPOU
 62
    60
370
    -2
100
AcDbBlockReference
  2
_Dot
 10
130.7255956149869
 20
131.1328898609256
 30
0.0
 41
2.0
 42
2.0
 43
2.0
  0
MTEXT
  5
3BB8
330
3B2D
100
AcDbEntity
  8
SUNPOU
 62
    60
100
AcDbMText
 10
60.72559561498986
 20
139.1328898609256
 30
0.0
 40
10.0
 41
0.0
 71
     5
 72
     1
  1
\A1;140
  7
SUNPOU
 73
     1
 44
1.0
1001
ACAD
1000
MTEXTBEGIN
1070
    73
1070
     1
1070
    44
1040
1.0
1070
    74
1070
     0
1000
MTEXTEND
  0
POINT
  5
3BB9
330
3B2D
100
AcDbEntity
  8
DEFPOINTS
 62
     0
100
AcDbPoint
 10
-9.274404385007244
 20
106.3927336291364
 30
0.0
  0
POINT
  5
3BBA
330
3B2D
100
AcDbEntity
  8
DEFPOINTS
 62
     0
100
AcDbPoint
 10
130.7255956149869
 20
105.4686950255653
 30
0.0
  0
POINT
  5
3BBB
330
3B2D
100
AcDbEntity
  8
DEFPOINTS
 62
     0
100
AcDbPoint
 10
130.7255956149869
 20
131.1328898609256
 30
0.0
  0
ENDBLK
  5
3B38
330
3B2D
100
AcDbEntity
  8
0
100
AcDbBlockEnd
  0
BLOCK
  5
3B44
330
3B3A
100
AcDbEntity
  8
0
100
AcDbBlockBegin
  2
*D84
 70
     1
 10
0.0
 20
0.0
 30
0.0
  3
*D84
  1

  0
LINE
  5
3BA1
330
3B3A
100
AcDbEntity
  8
SUNPOU
 62
    70
370
    -2
100
AcDbLine
 10
-19.27440438500724
 20
106.3927336291364
 30
0.0
 11
-33.65713159452923
 21
106.3927336291365
 31
0.0
  0
LINE
  5
3BA2
330
3B3A
100
AcDbEntity
  8
SUNPOU
 62
    70
370
    -2
100
AcDbLine
 10
-19.43240988204923
 20
46.39273362913645
 30
0.0
 11
-33.65713159452924
 21
46.39273362913645
 31
0.0
  0
LINE
  5
3BA3
330
3B3A
100
AcDbEntity
  8
SUNPOU
 62
    60
370
    -2
100
AcDbLine
 10
-33.65713159452923
 20
104.3927336291365
 30
0.0
 11
-33.65713159452923
 21
48.39273362913645
 31
0.0
  0
INSERT
  5
3BA4
330
3B3A
100
AcDbEntity
  8
SUNPOU
 62
    60
370
    -2
100
AcDbBlockReference
  2
_Dot
 10
-33.65713159452923
 20
106.3927336291365
 30
0.0
 41
2.0
 42
2.0
 43
2.0
 50
90.0
  0
INSERT
  5
3BA5
330
3B3A
100
AcDbEntity
  8
SUNPOU
 62
    60
370
    -2
100
AcDbBlockReference
  2
_Dot
 10
-33.65713159452924
 20
46.39273362913645
 30
0.0
 41
2.0
 42
2.0
 43
2.0
 50
270.0
  0
MTEXT
  5
3BA6
330
3B3A
100
AcDbEntity
  8
SUNPOU
 62
    60
100
AcDbMText
 10
-41.65713159452923
 20
76.39273362913645
 30
0.0
 40
10.0
 41
0.0
 71
     5
 72
     1
  1
\A1;60
  7
SUNPOU
 11
0.0000000000000001
 21
1.0
 31
0.0
 73
     1
 44
1.0
1001
ACAD
1000
MTEXTBEGIN
1070
    73
1070
     1
1070
    44
1040
1.0
1070
    74
1070
     0
1000
MTEXTEND
  0
POINT
  5
3BA7
330
3B3A
100
AcDbEntity
  8
DEFPOINTS
 62
     0
100
AcDbPoint
 10
-9.274404385007244
 20
106.3927336291364
 30
0.0
  0
POINT
  5
3BA8
330
3B3A
100
AcDbEntity
  8
DEFPOINTS
 62
     0
100
AcDbPoint
 10
-9.432409882049228
 20
46.39273362913644
 30
0.0
  0
POINT
  5
3BA9
330
3B3A
100
AcDbEntity
  8
DEFPOINTS
 62
     0
100
AcDbPoint
 10
-33.65713159452924
 20
46.39273362913645
 30
0.0
  0
ENDBLK
  5
3B45
330
3B3A
100
AcDbEntity
  8
0
100
AcDbBlockEnd
  0
BLOCK
  5
3D37
330
3D2D
100
AcDbEntity
  8
0
100
AcDbBlockBegin
  2
*D86
 70
     1
 10
0.0
 20
0.0
 30
0.0
  3
*D86
  1

  0
LINE
  5
3DA8
330
3D2D
100
AcDbEntity
  8
SUNPOU
 62
    70
370
    -2
100
AcDbLine
 10
-216.7182434847339
 20
298.5498201292545
 30
0.0
 11
-216.7182434847339
 21
344.3264832414134
 31
0.0
  0
LINE
  5
3DA9
330
3D2D
100
AcDbEntity
  8
SUNPOU
 62
    70
370
    -2
100
AcDbLine
 10
383.2817565152661
 20
303.5155978063508
 30
0.0
 11
383.2817565152661
 21
344.3264832414134
 31
0.0
  0
LINE
  5
3DAA
330
3D2D
100
AcDbEntity
  8
SUNPOU
 62
    60
370
    -2
100
AcDbLine
 10
-214.7182434847339
 20
344.3264832414134
 30
0.0
 11
381.2817565152661
 21
344.3264832414134
 31
0.0
  0
INSERT
  5
3DAB
330
3D2D
100
AcDbEntity
  8
SUNPOU
 62
    60
370
    -2
100
AcDbBlockReference
  2
_Dot
 10
-216.7182434847339
 20
344.3264832414134
 30
0.0
 41
2.0
 42
2.0
 43
2.0
 50
180.0
  0
INSERT
  5
3DAC
330
3D2D
100
AcDbEntity
  8
SUNPOU
 62
    60
370
    -2
100
AcDbBlockReference
  2
_Dot
 10
383.2817565152661
 20
344.3264832414134
 30
0.0
 41
2.0
 42
2.0
 43
2.0
  0
MTEXT
  5
3DAD
330
3D2D
100
AcDbEntity
  8
SUNPOU
 62
    60
100
AcDbMText
 10
83.28175651526612
 20
352.3264832414134
 30
0.0
 40
10.0
 41
0.0
 71
     5
 72
     1
  1
\A1;600
  7
SUNPOU
 73
     1
 44
1.0
1001
ACAD
1000
MTEXTBEGIN
1070
    73
1070
     1
1070
    44
1040
1.0
1070
    74
1070
     0
1000
MTEXTEND
  0
POINT
  5
3DAE
330
3D2D
100
AcDbEntity
  8
DEFPOINTS
 62
     0
100
AcDbPoint
 10
-216.7182434847339
 20
288.5498201292545
 30
0.0
  0
POINT
  5
3DAF
330
3D2D
100
AcDbEntity
  8
DEFPOINTS
 62
     0
100
AcDbPoint
 10
383.2817565152661
 20
293.5155978063508
 30
0.0
  0
POINT
  5
3DB0
330
3D2D
100
AcDbEntity
  8
DEFPOINTS
 62
     0
100
AcDbPoint
 10
383.2817565152661
 20
344.3264832414134
 30
0.0
  0
ENDBLK
  5
3D38
330
3D2D
100
AcDbEntity
  8
0
100
AcDbBlockEnd
  0
BLOCK
  5
3D44
330
3D3A
100
AcDbEntity
  8
0
100
AcDbBlockBegin
  2
*D87
 70
     1
 10
0.0
 20
0.0
 30
0.0
  3
*D87
  1

  0
LINE
  5
3D96
330
3D3A
100
AcDbEntity
  8
SUNPOU
 62
    70
370
    -2
100
AcDbLine
 10
-226.7182434847339
 20
288.5498201292545
 30
0.0
 11
-304.1079869232616
 21
288.5498201292545
 31
0.0
  0
LINE
  5
3D97
330
3D3A
100
AcDbEntity
  8
SUNPOU
 62
    70
370
    -2
100
AcDbLine
 10
-227.1359776599575
 20
93.54982012925452
 30
0.0
 11
-304.1079869232617
 21
93.54982012925452
 31
0.0
  0
LINE
  5
3D98
330
3D3A
100
AcDbEntity
  8
SUNPOU
 62
    60
370
    -2
100
AcDbLine
 10
-304.1079869232616
 20
286.5498201292545
 30
0.0
 11
-304.1079869232617
 21
95.54982012925453
 31
0.0
  0
INSERT
  5
3D99
330
3D3A
100
AcDbEntity
  8
SUNPOU
 62
    60
370
    -2
100
AcDbBlockReference
  2
_Dot
 10
-304.1079869232616
 20
288.5498201292545
 30
0.0
 41
2.0
 42
2.0
 43
2.0
 50
90.0
  0
INSERT
  5
3D9A
330
3D3A
100
AcDbEntity
  8
SUNPOU
 62
    60
370
    -2
100
AcDbBlockReference
  2
_Dot
 10
-304.1079869232617
 20
93.54982012925452
 30
0.0
 41
2.0
 42
2.0
 43
2.0
 50
270.0
  0
MTEXT
  5
3D9B
330
3D3A
100
AcDbEntity
  8
SUNPOU
 62
    60
100
AcDbMText
 10
-312.1079869232617
 20
191.0498201292545
 30
0.0
 40
10.0
 41
0.0
 71
     5
 72
     1
  1
\A1;195
  7
SUNPOU
 11
0.0000000000000001
 21
1.0
 31
0.0
 73
     1
 44
1.0
1001
ACAD
1000
MTEXTBEGIN
1070
    73
1070
     1
1070
    44
1040
1.0
1070
    74
1070
     0
1000
MTEXTEND
  0
POINT
  5
3D9C
330
3D3A
100
AcDbEntity
  8
DEFPOINTS
 62
     0
100
AcDbPoint
 10
-216.7182434847339
 20
288.5498201292545
 30
0.0
  0
POINT
  5
3D9D
330
3D3A
100
AcDbEntity
  8
DEFPOINTS
 62
     0
100
AcDbPoint
 10
-217.1359776599575
 20
93.5498201292545
 30
0.0
  0
POINT
  5
3D9E
330
3D3A
100
AcDbEntity
  8
DEFPOINTS
 62
     0
100
AcDbPoint
 10
-304.1079869232617
 20
93.54982012925452
 30
0.0
  0
ENDBLK
  5
3D45
330
3D3A
100
AcDbEntity
  8
0
100
AcDbBlockEnd
  0
BLOCK
  5
3F2A
330
3F20
100
AcDbEntity
  8
0
100
AcDbBlockBegin
  2
*D89
 70
     1
 10
0.0
 20
0.0
 30
0.0
  3
*D89
  1

  0
LINE
  5
3F9A
330
3F20
100
AcDbEntity
  8
SUNPOU
 62
    70
370
    -2
100
AcDbLine
 10
-171.7799306511583
 20
243.6438293736883
 30
0.0
 11
-171.7799306511583
 21
294.8058791037634
 31
0.0
  0
LINE
  5
3F9B
330
3F20
100
AcDbEntity
  8
SUNPOU
 62
    70
370
    -2
100
AcDbLine
 10
328.2200693488416
 20
244.4171992733745
 30
0.0
 11
328.2200693488416
 21
294.8058791037634
 31
0.0
  0
LINE
  5
3F9C
330
3F20
100
AcDbEntity
  8
SUNPOU
 62
    60
370
    -2
100
AcDbLine
 10
-169.7799306511583
 20
294.8058791037634
 30
0.0
 11
326.2200693488417
 21
294.8058791037634
 31
0.0
  0
INSERT
  5
3F9D
330
3F20
100
AcDbEntity
  8
SUNPOU
 62
    60
370
    -2
100
AcDbBlockReference
  2
_Dot
 10
-171.7799306511583
 20
294.8058791037634
 30
0.0
 41
2.0
 42
2.0
 43
2.0
 50
180.0
  0
INSERT
  5
3F9E
330
3F20
100
AcDbEntity
  8
SUNPOU
 62
    60
370
    -2
100
AcDbBlockReference
  2
_Dot
 10
328.2200693488416
 20
294.8058791037634
 30
0.0
 41
2.0
 42
2.0
 43
2.0
  0
MTEXT
  5
3F9F
330
3F20
100
AcDbEntity
  8
SUNPOU
 62
    60
100
AcDbMText
 10
78.22006934884166
 20
302.8058791037633
 30
0.0
 40
10.0
 41
0.0
 71
     5
 72
     1
  1
\A1;500
  7
SUNPOU
 73
     1
 44
1.0
1001
ACAD
1000
MTEXTBEGIN
1070
    73
1070
     1
1070
    44
1040
1.0
1070
    74
1070
     0
1000
MTEXTEND
  0
POINT
  5
3FA0
330
3F20
100
AcDbEntity
  8
DEFPOINTS
 62
     0
100
AcDbPoint
 10
-171.7799306511583
 20
233.6438293736883
 30
0.0
  0
POINT
  5
3FA1
330
3F20
100
AcDbEntity
  8
DEFPOINTS
 62
     0
100
AcDbPoint
 10
328.2200693488416
 20
234.4171992733745
 30
0.0
  0
POINT
  5
3FA2
330
3F20
100
AcDbEntity
  8
DEFPOINTS
 62
     0
100
AcDbPoint
 10
328.2200693488416
 20
294.8058791037634
 30
0.0
  0
ENDBLK
  5
3F2B
330
3F20
100
AcDbEntity
  8
0
100
AcDbBlockEnd
  0
BLOCK
  5
3F37
330
3F2D
100
AcDbEntity
  8
0
100
AcDbBlockBegin
  2
*D90
 70
     1
 10
0.0
 20
0.0
 30
0.0
  3
*D90
  1

  0
LINE
  5
3F88
330
3F2D
100
AcDbEntity
  8
SUNPOU
 62
    70
370
    -2
100
AcDbLine
 10
-181.7799306511583
 20
233.6438293736883
 30
0.0
 11
-228.1049532351698
 21
233.6438293736883
 31
0.0
  0
LINE
  5
3F89
330
3F2D
100
AcDbEntity
  8
SUNPOU
 62
    70
370
    -2
100
AcDbLine
 10
-182.8189487700756
 20
66.64382937368819
 30
0.0
 11
-228.1049532351699
 21
66.6438293736882
 31
0.0
  0
LINE
  5
3F8A
330
3F2D
100
AcDbEntity
  8
SUNPOU
 62
    60
370
    -2
100
AcDbLine
 10
-228.1049532351698
 20
231.6438293736883
 30
0.0
 11
-228.1049532351699
 21
68.6438293736882
 31
0.0
  0
INSERT
  5
3F8B
330
3F2D
100
AcDbEntity
  8
SUNPOU
 62
    60
370
    -2
100
AcDbBlockReference
  2
_Dot
 10
-228.1049532351698
 20
233.6438293736883
 30
0.0
 41
2.0
 42
2.0
 43
2.0
 50
90.0
  0
INSERT
  5
3F8C
330
3F2D
100
AcDbEntity
  8
SUNPOU
 62
    60
370
    -2
100
AcDbBlockReference
  2
_Dot
 10
-228.1049532351699
 20
66.6438293736882
 30
0.0
 41
2.0
 42
2.0
 43
2.0
 50
270.0
  0
MTEXT
  5
3F8D
330
3F2D
100
AcDbEntity
  8
SUNPOU
 62
    60
100
AcDbMText
 10
-236.1049532351699
 20
150.1438293736882
 30
0.0
 40
10.0
 41
0.0
 71
     5
 72
     1
  1
\A1;167
  7
SUNPOU
 11
0.0000000000000001
 21
1.0
 31
0.0
 73
     1
 44
1.0
1001
ACAD
1000
MTEXTBEGIN
1070
    73
1070
     1
1070
    44
1040
1.0
1070
    74
1070
     0
1000
MTEXTEND
  0
POINT
  5
3F8E
330
3F2D
100
AcDbEntity
  8
DEFPOINTS
 62
     0
100
AcDbPoint
 10
-171.7799306511583
 20
233.6438293736883
 30
0.0
  0
POINT
  5
3F8F
330
3F2D
100
AcDbEntity
  8
DEFPOINTS
 62
     0
100
AcDbPoint
 10
-172.8189487700756
 20
66.64382937368819
 30
0.0
  0
POINT
  5
3F90
330
3F2D
100
AcDbEntity
  8
DEFPOINTS
 62
     0
100
AcDbPoint
 10
-228.1049532351699
 20
66.6438293736882
 30
0.0
  0
ENDBLK
  5
3F38
330
3F2D
100
AcDbEntity
  8
0
100
AcDbBlockEnd
  0
BLOCK
  5
411D
330
4113
100
AcDbEntity
  8
0
100
AcDbBlockBegin
  2
*D92
 70
     1
 10
0.0
 20
0.0
 30
0.0
  3
*D92
  1

  0
LINE
  5
4196
330
4113
100
AcDbEntity
  8
SUNPOU
 62
    70
370
    -2
100
AcDbLine
 10
-116.2914213925551
 20
214.1651106888427
 30
0.0
 11
-116.2914213925551
 21
254.7405778968164
 31
0.0
  0
LINE
  5
4197
330
4113
100
AcDbEntity
  8
SUNPOU
 62
    70
370
    -2
100
AcDbLine
 10
283.7085786074449
 20
215.8970289941608
 30
0.0
 11
283.7085786074449
 21
254.7405778968164
 31
0.0
  0
LINE
  5
4198
330
4113
100
AcDbEntity
  8
SUNPOU
 62
    60
370
    -2
100
AcDbLine
 10
-114.2914213925551
 20
254.7405778968164
 30
0.0
 11
281.7085786074449
 21
254.7405778968164
 31
0.0
  0
INSERT
  5
4199
330
4113
100
AcDbEntity
  8
SUNPOU
 62
    60
370
    -2
100
AcDbBlockReference
  2
_Dot
 10
-116.2914213925551
 20
254.7405778968164
 30
0.0
 41
2.0
 42
2.0
 43
2.0
 50
180.0
  0
INSERT
  5
419A
330
4113
100
AcDbEntity
  8
SUNPOU
 62
    60
370
    -2
100
AcDbBlockReference
  2
_Dot
 10
283.7085786074449
 20
254.7405778968164
 30
0.0
 41
2.0
 42
2.0
 43
2.0
  0
MTEXT
  5
419B
330
4113
100
AcDbEntity
  8
SUNPOU
 62
    60
100
AcDbMText
 10
83.70857860744491
 20
262.7405778968164
 30
0.0
 40
10.0
 41
0.0
 71
     5
 72
     1
  1
\A1;400
  7
SUNPOU
 73
     1
 44
1.0
1001
ACAD
1000
MTEXTBEGIN
1070
    73
1070
     1
1070
    44
1040
1.0
1070
    74
1070
     0
1000
MTEXTEND
  0
POINT
  5
419C
330
4113
100
AcDbEntity
  8
DEFPOINTS
 62
     0
100
AcDbPoint
 10
-116.2914213925551
 20
204.1651106888427
 30
0.0
  0
POINT
  5
419D
330
4113
100
AcDbEntity
  8
DEFPOINTS
 62
     0
100
AcDbPoint
 10
283.7085786074449
 20
205.8970289941608
 30
0.0
  0
POINT
  5
419E
330
4113
100
AcDbEntity
  8
DEFPOINTS
 62
     0
100
AcDbPoint
 10
283.7085786074449
 20
254.7405778968164
 30
0.0
  0
ENDBLK
  5
411E
330
4113
100
AcDbEntity
  8
0
100
AcDbBlockEnd
  0
BLOCK
  5
412A
330
4120
100
AcDbEntity
  8
0
100
AcDbBlockBegin
  2
*D93
 70
     1
 10
0.0
 20
0.0
 30
0.0
  3
*D93
  1

  0
LINE
  5
4184
330
4120
100
AcDbEntity
  8
SUNPOU
 62
    70
370
    -2
100
AcDbLine
 10
-126.2914213925551
 20
204.1651106888427
 30
0.0
 11
-176.1343835884108
 21
204.1651106888427
 31
0.0
  0
LINE
  5
4185
330
4120
100
AcDbEntity
  8
SUNPOU
 62
    70
370
    -2
100
AcDbLine
 10
-125.9948475759538
 20
64.16511068884261
 30
0.0
 11
-176.1343835884108
 21
64.16511068884263
 31
0.0
  0
LINE
  5
4186
330
4120
100
AcDbEntity
  8
SUNPOU
 62
    60
370
    -2
100
AcDbLine
 10
-176.1343835884108
 20
202.1651106888427
 30
0.0
 11
-176.1343835884108
 21
66.16511068884263
 31
0.0
  0
INSERT
  5
4187
330
4120
100
AcDbEntity
  8
SUNPOU
 62
    60
370
    -2
100
AcDbBlockReference
  2
_Dot
 10
-176.1343835884108
 20
204.1651106888427
 30
0.0
 41
2.0
 42
2.0
 43
2.0
 50
90.0
  0
INSERT
  5
4188
330
4120
100
AcDbEntity
  8
SUNPOU
 62
    60
370
    -2
100
AcDbBlockReference
  2
_Dot
 10
-176.1343835884108
 20
64.16511068884263
 30
0.0
 41
2.0
 42
2.0
 43
2.0
 50
270.0
  0
MTEXT
  5
4189
330
4120
100
AcDbEntity
  8
SUNPOU
 62
    60
100
AcDbMText
 10
-184.1343835884108
 20
134.1651106888426
 30
0.0
 40
10.0
 41
0.0
 71
     5
 72
     1
  1
\A1;140
  7
SUNPOU
 11
0.0000000000000001
 21
1.0
 31
0.0
 73
     1
 44
1.0
1001
ACAD
1000
MTEXTBEGIN
1070
    73
1070
     1
1070
    44
1040
1.0
1070
    74
1070
     0
1000
MTEXTEND
  0
POINT
  5
418A
330
4120
100
AcDbEntity
  8
DEFPOINTS
 62
     0
100
AcDbPoint
 10
-116.2914213925551
 20
204.1651106888427
 30
0.0
  0
POINT
  5
418B
330
4120
100
AcDbEntity
  8
DEFPOINTS
 62
     0
100
AcDbPoint
 10
-115.9948475759538
 20
64.16511068884261
 30
0.0
  0
POINT
  5
418C
330
4120
100
AcDbEntity
  8
DEFPOINTS
 62
     0
100
AcDbPoint
 10
-176.1343835884108
 20
64.16511068884263
 30
0.0
  0
ENDBLK
  5
412B
330
4120
100
AcDbEntity
  8
0
100
AcDbBlockEnd
  0
BLOCK
  5
4319
330
430F
100
AcDbEntity
  8
0
100
AcDbBlockBegin
  2
*D95
 70
     1
 10
0.0
 20
0.0
 30
0.0
  3
*D95
  1

  0
LINE
  5
4392
330
430F
100
AcDbEntity
  8
SUNPOU
 62
    70
370
    -2
100
AcDbLine
 10
-84.22043254813889
 20
152.5849428298555
 30
0.0
 11
-84.22043254813889
 21
195.0659752419669
 31
0.0
  0
LINE
  5
4393
330
430F
100
AcDbEntity
  8
SUNPOU
 62
    70
370
    -2
100
AcDbLine
 10
215.7795674518611
 20
154.1727972850744
 30
0.0
 11
215.7795674518611
 21
195.0659752419669
 31
0.0
  0
LINE
  5
4394
330
430F
100
AcDbEntity
  8
SUNPOU
 62
    60
370
    -2
100
AcDbLine
 10
-82.22043254813888
 20
195.0659752419669
 30
0.0
 11
213.7795674518611
 21
195.0659752419669
 31
0.0
  0
INSERT
  5
4395
330
430F
100
AcDbEntity
  8
SUNPOU
 62
    60
370
    -2
100
AcDbBlockReference
  2
_Dot
 10
-84.22043254813889
 20
195.0659752419669
 30
0.0
 41
2.0
 42
2.0
 43
2.0
 50
180.0
  0
INSERT
  5
4396
330
430F
100
AcDbEntity
  8
SUNPOU
 62
    60
370
    -2
100
AcDbBlockReference
  2
_Dot
 10
215.7795674518611
 20
195.0659752419669
 30
0.0
 41
2.0
 42
2.0
 43
2.0
  0
MTEXT
  5
4397
330
430F
100
AcDbEntity
  8
SUNPOU
 62
    60
100
AcDbMText
 10
65.77956745186111
 20
203.065975241967
 30
0.0
 40
10.0
 41
0.0
 71
     5
 72
     1
  1
\A1;300
  7
SUNPOU
 73
     1
 44
1.0
1001
ACAD
1000
MTEXTBEGIN
1070
    73
1070
     1
1070
    44
1040
1.0
1070
    74
1070
     0
1000
MTEXTEND
  0
POINT
  5
4398
330
430F
100
AcDbEntity
  8
DEFPOINTS
 62
     0
100
AcDbPoint
 10
-84.22043254813889
 20
142.5849428298555
 30
0.0
  0
POINT
  5
4399
330
430F
100
AcDbEntity
  8
DEFPOINTS
 62
     0
100
AcDbPoint
 10
215.7795674518611
 20
144.1727972850744
 30
0.0
  0
POINT
  5
439A
330
430F
100
AcDbEntity
  8
DEFPOINTS
 62
     0
100
AcDbPoint
 10
215.7795674518611
 20
195.0659752419669
 30
0.0
  0
ENDBLK
  5
431A
330
430F
100
AcDbEntity
  8
0
100
AcDbBlockEnd
  0
BLOCK
  5
4326
330
431C
100
AcDbEntity
  8
0
100
AcDbBlockBegin
  2
*D96
 70
     1
 10
0.0
 20
0.0
 30
0.0
  3
*D96
  1

  0
LINE
  5
4380
330
431C
100
AcDbEntity
  8
SUNPOU
 62
    70
370
    -2
100
AcDbLine
 10
-94.22043254813889
 20
142.5849428298555
 30
0.0
 11
-127.7379072557178
 21
142.5849428298555
 31
0.0
  0
LINE
  5
4381
330
431C
100
AcDbEntity
  8
SUNPOU
 62
    70
370
    -2
100
AcDbLine
 10
-95.39648315633803
 20
49.58494282985543
 30
0.0
 11
-127.7379072557178
 21
49.58494282985544
 31
0.0
  0
LINE
  5
4382
330
431C
100
AcDbEntity
  8
SUNPOU
 62
    60
370
    -2
100
AcDbLine
 10
-127.7379072557178
 20
140.5849428298555
 30
0.0
 11
-127.7379072557178
 21
51.58494282985543
 31
0.0
  0
INSERT
  5
4383
330
431C
100
AcDbEntity
  8
SUNPOU
 62
    60
370
    -2
100
AcDbBlockReference
  2
_Dot
 10
-127.7379072557178
 20
142.5849428298555
 30
0.0
 41
2.0
 42
2.0
 43
2.0
 50
90.0
  0
INSERT
  5
4384
330
431C
100
AcDbEntity
  8
SUNPOU
 62
    60
370
    -2
100
AcDbBlockReference
  2
_Dot
 10
-127.7379072557178
 20
49.58494282985544
 30
0.0
 41
2.0
 42
2.0
 43
2.0
 50
270.0
  0
MTEXT
  5
4385
330
431C
100
AcDbEntity
  8
SUNPOU
 62
    60
100
AcDbMText
 10
-135.7379072557178
 20
96.08494282985546
 30
0.0
 40
10.0
 41
0.0
 71
     5
 72
     1
  1
\A1;93
  7
SUNPOU
 11
0.0000000000000001
 21
1.0
 31
0.0
 73
     1
 44
1.0
1001
ACAD
1000
MTEXTBEGIN
1070
    73
1070
     1
1070
    44
1040
1.0
1070
    74
1070
     0
1000
MTEXTEND
  0
POINT
  5
4386
330
431C
100
AcDbEntity
  8
DEFPOINTS
 62
     0
100
AcDbPoint
 10
-84.22043254813889
 20
142.5849428298555
 30
0.0
  0
POINT
  5
4387
330
431C
100
AcDbEntity
  8
DEFPOINTS
 62
     0
100
AcDbPoint
 10
-85.39648315633803
 20
49.58494282985543
 30
0.0
  0
POINT
  5
4388
330
431C
100
AcDbEntity
  8
DEFPOINTS
 62
     0
100
AcDbPoint
 10
-127.7379072557178
 20
49.58494282985544
 30
0.0
  0
ENDBLK
  5
4327
330
431C
100
AcDbEntity
  8
0
100
AcDbBlockEnd
  0
ENDSEC
  0
SECTION
  2
ENTITIES
  0
LINE
  5
1F
330
2
100
AcDbEntity
  8
WAKU
100
AcDbLine
 10
0.0
 20
14.0
 30
0.0
 11
141.7992909508968
 21
13.99999999999999
 31
0.0
  0
LINE
  5
20
330
2
100
AcDbEntity
  8
WAKU
100
AcDbLine
 10
0.0
 20
0.0
 30
0.0
 11
141.7992909508968
 21
0.0
 31
0.0
  0
TEXT
  5
21
330
2
100
AcDbEntity
  8
HOJO
100
AcDbText
 10
9.653966000000025
 20
2.366626000000024
 30
0.0
 40
9.0
  1
TC384
  7
SUNPOU
100
AcDbText
  0
TEXT
  5
23
330
2
100
AcDbEntity
  8
HOJO
100
AcDbText
 10
75.65253479254602
 20
5.044386000000031
 30
0.0
 40
6.0
  1
300×93×13
  7
SUNPOU
100
AcDbText
  0
ARC
  5
425F
102
{ACAD_REACTORS
330
439B
102
}
330
2
100
AcDbEntity
  8
KIJUN
100
AcDbCircle
 10
26.04754786662352
 20
112.4371133359473
 30
0.0
 40
18.81950928069228
100
AcDbArc
 50
63.69006910117704
 51
103.4328807787951
  0
ARC
  5
4260
102
{ACAD_REACTORS
330
439B
102
}
330
2
100
AcDbEntity
  8
KIJUN
100
AcDbCircle
 10
29.57178158003308
 20
91.81255960831117
 30
0.0
 40
17.09638885843477
100
AcDbArc
 50
167.7767689488325
 51
10.3607534618317
  0
ARC
  5
4261
102
{ACAD_REACTORS
330
439B
102
}
330
2
100
AcDbEntity
  8
KIJUN
100
AcDbCircle
 10
21.6946432100749
 20
94.76205497748924
 30
0.0
 40
8.857068224515883
100
AcDbArc
 50
337.7518230053096
 51
175.6605642776585
  0
ARC
  5
4262
102
{ACAD_REACTORS
330
439B
102
}
330
2
100
AcDbEntity
  8
KIJUN
100
AcDbCircle
 10
24.79312262428903
 20
92.38644571135115
 30
0.0
 40
5.192114386545246
100
AcDbArc
 50
176.388584693478
 51
349.1444833292244
  0
ARC
  5
4263
102
{ACAD_REACTORS
330
439B
102
}
330
2
100
AcDbEntity
  8
KIJUN
100
AcDbCircle
 10
29.74540683916894
 20
93.23243961608909
 30
0.0
 40
8.011317978441637
100
AcDbArc
 50
226.892359837751
 51
352.6876882535603
  0
ARC
  5
4264
102
{ACAD_REACTORS
330
439B
102
}
330
2
100
AcDbEntity
  8
KIJUN
100
AcDbCircle
 10
20.62471369271589
 20
91.19269224419918
 30
0.0
 40
18.33772493283241
100
AcDbArc
 50
61.03635600528463
 51
115.6306493340587
  0
ARC
  5
4265
102
{ACAD_REACTORS
330
439B
102
}
330
2
100
AcDbEntity
  8
KIJUN
100
AcDbCircle
 10
26.03476178241272
 20
82.74489707477528
 30
0.0
 40
11.19865713053374
100
AcDbArc
 50
221.5827586863885
 51
315.4040049082527
  0
ARC
  5
4266
102
{ACAD_REACTORS
330
439B
102
}
330
2
100
AcDbEntity
  8
KIJUN
100
AcDbCircle
 10
32.06181556214915
 20
74.56113906782525
 30
0.0
 40
14.83738746865957
100
AcDbArc
 50
178.7597791167867
 51
315.33598607872
  0
ARC
  5
4267
102
{ACAD_REACTORS
330
439B
102
}
330
2
100
AcDbEntity
  8
KIJUN
100
AcDbCircle
 10
28.64266742681593
 20
102.3367135030241
 30
0.0
 40
13.46445592529634
100
AcDbArc
 50
12.83469146747799
 51
125.3348227344209
  0
LINE
  5
4268
102
{ACAD_REACTORS
330
439B
102
}
330
2
100
AcDbEntity
  8
KIJUN
100
AcDbLine
 10
-28.03975819466314
 20
83.61900693811344
 30
0.0
 11
-18.33864821396491
 21
90.08327571905715
 31
0.0
  0
ARC
  5
4269
102
{ACAD_REACTORS
330
439B
102
}
330
2
100
AcDbEntity
  8
KIJUN
100
AcDbCircle
 10
23.45047806367666
 20
79.76759002169024
 30
0.0
 40
18.8393148275852
100
AcDbArc
 50
162.0367654110856
 51
196.2039847613197
  0
ARC
  5
426A
102
{ACAD_REACTORS
330
439B
102
}
330
2
100
AcDbEntity
  8
KIJUN
100
AcDbCircle
 10
-347.9433442655732
 20
634.1184672098522
 30
0.0
 40
645.2510001619214
100
AcDbArc
 50
301.4445869884389
 51
302.6656766137648
  0
ARC
  5
426B
102
{ACAD_REACTORS
330
439B
102
}
330
2
100
AcDbEntity
  8
KIJUN
100
AcDbCircle
 10
8.667996177689929
 20
85.59562471055711
 30
0.0
 40
3.138554030439965
100
AcDbArc
 50
180.326127342954
 51
339.6673954460179
  0
ARC
  5
426C
102
{ACAD_REACTORS
330
439B
102
}
330
2
100
AcDbEntity
  8
KIJUN
100
AcDbCircle
 10
-17.10799164010177
 20
92.86899738392822
 30
0.0
 40
29.91212456198834
100
AcDbArc
 50
343.7626818483222
 51
353.4224302430885
  0
ARC
  5
426D
102
{ACAD_REACTORS
330
439B
102
}
330
2
100
AcDbEntity
  8
KIJUN
100
AcDbCircle
 10
-70.27764574815292
 20
65.71112080389298
 30
0.0
 40
13.94278679998596
100
AcDbArc
 50
161.2759508348451
 51
282.2722172675929
  0
ARC
  5
426E
102
{ACAD_REACTORS
330
439B
102
}
330
2
100
AcDbEntity
  8
KIJUN
100
AcDbCircle
 10
-28.6785635641163
 20
67.36721708954132
 30
0.0
 40
15.08891803533707
100
AcDbArc
 50
260.8461162631901
 51
356.4684600369632
  0
ARC
  5
426F
102
{ACAD_REACTORS
330
439B
102
}
330
2
100
AcDbEntity
  8
KIJUN
100
AcDbCircle
 10
-52.86978689604166
 20
120.3323234112722
 30
0.0
 40
44.32152898727532
100
AcDbArc
 50
260.248479856582
 51
304.0713596133911
  0
ARC
  5
4270
102
{ACAD_REACTORS
330
439B
102
}
330
2
100
AcDbEntity
  8
KIJUN
100
AcDbCircle
 10
-69.87128114137234
 20
122.0785451211239
 30
0.0
 40
70.0383026658256
100
AcDbArc
 50
272.092471618866
 51
326.6998266281596
  0
ARC
  5
4271
102
{ACAD_REACTORS
330
439B
102
}
330
2
100
AcDbEntity
  8
KIJUN
100
AcDbCircle
 10
-50.81190310504098
 20
103.4733497502461
 30
0.0
 40
51.23335453865836
100
AcDbArc
 50
275.225102769646
 51
311.9627515533619
  0
ARC
  5
4272
102
{ACAD_REACTORS
330
439B
102
}
330
2
100
AcDbEntity
  8
KIJUN
100
AcDbCircle
 10
-27.50489121308692
 20
53.1855845159032
 30
0.0
 40
3.879092477387766
100
AcDbArc
 50
137.4711263107275
 51
190.6234159525453
  0
LINE
  5
4273
102
{ACAD_REACTORS
330
439B
102
}
330
2
100
AcDbEntity
  8
KIJUN
100
AcDbLine
 10
-51.96915088919786
 20
70.83332922462727
 30
0.0
 11
-60.37677476932595
 21
76.65117112747816
 31
0.0
  0
ARC
  5
4274
102
{ACAD_REACTORS
330
439B
102
}
330
2
100
AcDbEntity
  8
KIJUN
100
AcDbCircle
 10
-43.30506693358802
 20
53.69168021923201
 30
0.0
 40
3.099400825205642
100
AcDbArc
 50
126.5645888566202
 51
203.5586012855597
  0
ARC
  5
4275
102
{ACAD_REACTORS
330
439B
102
}
330
2
100
AcDbEntity
  8
KIJUN
100
AcDbCircle
 10
-77.97938255428835
 20
116.3029537014131
 30
0.0
 40
58.36556568461707
100
AcDbArc
 50
290.9158613320822
 51
312.7141683429928
  0
LINE
  5
4276
102
{ACAD_REACTORS
330
439B
102
}
330
2
100
AcDbEntity
  8
KIJUN
100
AcDbLine
 10
-38.38760407093196
 20
73.41903673700608
 30
0.0
 11
-51.96915088919786
 21
70.83332922462727
 31
0.0
  0
LINE
  5
4277
102
{ACAD_REACTORS
330
439B
102
}
330
2
100
AcDbEntity
  8
KIJUN
100
AcDbLine
 10
-39.18347994131546
 20
60.65489859932426
 30
0.0
 11
-45.1514686076598
 21
56.18107499171628
 31
0.0
  0
ARC
  5
4278
102
{ACAD_REACTORS
330
439B
102
}
330
2
100
AcDbEntity
  8
KIJUN
100
AcDbCircle
 10
-77.56663739766391
 20
68.79533550573023
 30
0.0
 40
6.077344483788778
100
AcDbArc
 50
27.86571121427243
 51
127.5519098606205
  0
ARC
  5
4279
102
{ACAD_REACTORS
330
439B
102
}
330
2
100
AcDbEntity
  8
KIJUN
100
AcDbCircle
 10
-67.08341812254793
 20
68.37392850357014
 30
0.0
 40
15.12383787259008
100
AcDbArc
 50
159.7301460305759
 51
209.7222290073157
  0
ARC
  5
427A
102
{ACAD_REACTORS
330
439B
102
}
330
2
100
AcDbEntity
  8
KIJUN
100
AcDbCircle
 10
-69.23956073246309
 20
63.85991199478031
 30
0.0
 40
7.255252667048669
100
AcDbArc
 50
117.7085020795879
 51
215.2442317936165
  0
ARC
  5
427B
102
{ACAD_REACTORS
330
439B
102
}
330
2
100
AcDbEntity
  8
KIJUN
100
AcDbCircle
 10
-73.07803382717676
 20
71.16849057737522
 30
0.0
 40
1.0
100
AcDbArc
 50
297.7085020795822
 51
27.86571121427243
  0
ARC
  5
427C
102
{ACAD_REACTORS
330
439B
102
}
330
2
100
AcDbEntity
  8
KIJUN
100
AcDbCircle
 10
-81.89375118590596
 20
73.31691421863206
 30
0.0
 40
0.6900634795021159
100
AcDbArc
 50
25.45116192437449
 51
162.5437259190887
  0
ARC
  5
427D
102
{ACAD_REACTORS
330
439B
102
}
330
2
100
AcDbEntity
  8
KIJUN
100
AcDbCircle
 10
-77.21544548776565
 20
70.23764282864613
 30
0.0
 40
6.267279132618534
100
AcDbArc
 50
148.3752104744911
 51
180.4638770947289
  0
ARC
  5
427E
102
{ACAD_REACTORS
330
439B
102
}
330
2
100
AcDbEntity
  8
KIJUN
100
AcDbCircle
 10
-64.30531300269091
 20
67.07569036139564
 30
0.0
 40
8.905423429495561
100
AcDbArc
 50
158.8892997357597
 51
323.5384528283381
  0
ARC
  5
427F
102
{ACAD_REACTORS
330
439B
102
}
330
2
100
AcDbEntity
  8
KIJUN
100
AcDbCircle
 10
-1.501287103745653
 20
67.72642149816829
 30
0.0
 40
12.18534339134772
100
AcDbArc
 50
152.3513156660112
 51
186.0706211363639
  0
LINE
  5
4280
102
{ACAD_REACTORS
330
439B
102
}
330
2
100
AcDbEntity
  8
KIJUN
100
AcDbLine
 10
-5.674614527384164
 20
74.36315113036926
 30
0.0
 11
-9.763525367640795
 21
78.41930606177015
 31
0.0
  0
LINE
  5
4281
102
{ACAD_REACTORS
330
439B
102
}
330
2
100
AcDbEntity
  8
KIJUN
100
AcDbLine
 10
-9.763525367640795
 20
78.41930606177015
 30
0.0
 11
-10.44501170013609
 21
72.97006661057025
 31
0.0
  0
LINE
  5
4282
102
{ACAD_REACTORS
330
439B
102
}
330
2
100
AcDbEntity
  8
KIJUN
100
AcDbLine
 10
-10.44501170013609
 20
72.97006661057025
 30
0.0
 11
-12.29518120828743
 21
73.38101641071216
 31
0.0
  0
ARC
  5
4283
102
{ACAD_REACTORS
330
439B
102
}
330
2
100
AcDbEntity
  8
KIJUN
100
AcDbCircle
 10
-8.800809883065085
 20
74.82585438317915
 30
0.0
 40
14.16389329936068
100
AcDbArc
 50
307.7706273465356
 51
358.7235374628376
  0
ARC
  5
4284
102
{ACAD_REACTORS
330
439B
102
}
330
2
100
AcDbEntity
  8
KIJUN
100
AcDbCircle
 10
39.83099614715684
 20
80.05379500448521
 30
0.0
 40
43.20026889473363
100
AcDbArc
 50
183.4842360265323
 51
202.3450945482318
  0
LINE
  5
4285
102
{ACAD_REACTORS
330
439B
102
}
330
2
100
AcDbEntity
  8
KIJUN
100
AcDbLine
 10
-3.289419518364411
 20
77.42834544110838
 30
0.0
 11
-5.674614527384164
 21
74.36315113036926
 31
0.0
  0
ARC
  5
4286
102
{ACAD_REACTORS
330
439B
102
}
330
2
100
AcDbEntity
  8
KIJUN
100
AcDbCircle
 10
-24.15931420238394
 20
105.2868489391521
 30
0.0
 40
16.27970488698962
100
AcDbArc
 50
220.9913160181744
 51
290.9492721614876
  0
ARC
  5
4287
102
{ACAD_REACTORS
330
439B
102
}
330
2
100
AcDbEntity
  8
KIJUN
100
AcDbCircle
 10
-26.76260084408204
 20
104.2093375720262
 30
0.0
 40
8.563998212786341
100
AcDbArc
 50
193.4661062807865
 51
312.7757525273018
  0
ARC
  5
4288
102
{ACAD_REACTORS
330
439B
102
}
330
2
100
AcDbEntity
  8
KIJUN
100
AcDbCircle
 10
-32.46865329155071
 20
97.82317825242513
 30
0.0
 40
5.115267074597722
100
AcDbArc
 50
120.8426115630819
 51
218.9390957757445
  0
ARC
  5
4289
102
{ACAD_REACTORS
330
439B
102
}
330
2
100
AcDbEntity
  8
KIJUN
100
AcDbCircle
 10
-18.42412316418404
 20
102.9726679851223
 30
0.0
 40
5.644422019133557
100
AcDbArc
 50
169.6962869392523
 51
243.4560440858152
  0
ARC
  5
428A
102
{ACAD_REACTORS
330
439B
102
}
330
2
100
AcDbEntity
  8
KIJUN
100
AcDbCircle
 10
-19.6836124684678
 20
133.3911995971291
 30
0.0
 40
29.72075356699415
100
AcDbArc
 50
261.6931177388963
 51
304.1201805824142
  0
ARC
  5
428B
102
{ACAD_REACTORS
330
439B
102
}
330
2
100
AcDbEntity
  8
KIJUN
100
AcDbCircle
 10
5.43505594817816
 20
64.88246565642817
 30
0.0
 40
34.64491069986937
100
AcDbArc
 50
98.48710890194777
 51
133.3308866956836
  0
ARC
  5
428C
102
{ACAD_REACTORS
330
439B
102
}
330
2
100
AcDbEntity
  8
KIJUN
100
AcDbCircle
 10
26.02549672462101
 20
130.3428619986759
 30
0.0
 40
4.36808914762448
100
AcDbArc
 50
174.7602364871729
 51
250.2072816456367
  0
ARC
  5
428D
102
{ACAD_REACTORS
330
439B
102
}
330
2
100
AcDbEntity
  8
KIJUN
100
AcDbCircle
 10
23.48120925380317
 20
93.69038454234214
 30
0.0
 40
3.991286548754481
100
AcDbArc
 50
101.1125354166649
 51
194.1674077271376
  0
ARC
  5
428E
102
{ACAD_REACTORS
330
439B
102
}
330
2
100
AcDbEntity
  8
KIJUN
100
AcDbCircle
 10
11.04593030728392
 20
118.8807751227632
 30
0.0
 40
11.27562344955706
100
AcDbArc
 50
278.3963593943145
 51
330.4558460138675
  0
ARC
  5
428F
102
{ACAD_REACTORS
330
439B
102
}
330
2
100
AcDbEntity
  8
KIJUN
100
AcDbCircle
 10
15.51181787403857
 20
124.9426494702932
 30
0.0
 40
4.383095384426616
100
AcDbArc
 50
134.3413169984346
 51
201.1176498425185
  0
ARC
  5
4290
102
{ACAD_REACTORS
330
439B
102
}
330
2
100
AcDbEntity
  8
KIJUN
100
AcDbCircle
 10
23.5691084067762
 20
97.41270491209229
 30
0.0
 40
15.17788733917811
100
AcDbArc
 50
156.8717523744309
 51
184.5327204322308
  0
ARC
  5
4291
102
{ACAD_REACTORS
330
439B
102
}
330
2
100
AcDbEntity
  8
KIJUN
100
AcDbCircle
 10
10.19172104407971
 20
110.1467889729733
 30
0.0
 40
13.27393753766882
100
AcDbArc
 50
84.67729594822376
 51
185.881924161217
  0
ARC
  5
4292
102
{ACAD_REACTORS
330
439B
102
}
330
2
100
AcDbEntity
  8
KIJUN
100
AcDbCircle
 10
16.15171172691271
 20
111.7706112682012
 30
0.0
 40
16.72202284964972
100
AcDbArc
 50
59.86674313462938
 51
102.7952106868007
  0
ARC
  5
4293
102
{ACAD_REACTORS
330
439B
102
}
330
2
100
AcDbEntity
  8
KIJUN
100
AcDbCircle
 10
-2.095048021727507
 20
130.9481392687203
 30
0.0
 40
22.18062176239601
100
AcDbArc
 50
267.6298462902991
 51
316.8559693754112
  0
ARC
  5
4294
102
{ACAD_REACTORS
330
439B
102
}
330
2
100
AcDbEntity
  8
KIJUN
100
AcDbCircle
 10
27.19169735000969
 20
108.9018459586552
 30
0.0
 40
14.5468984432551
100
AcDbArc
 50
146.1253118760025
 51
184.6363231256933
  0
ARC
  5
4295
102
{ACAD_REACTORS
330
439B
102
}
330
2
100
AcDbEntity
  8
KIJUN
100
AcDbCircle
 10
26.45634231951908
 20
87.57608205713699
 30
0.0
 40
24.40216516506739
100
AcDbArc
 50
124.3360697987739
 51
151.691673217554
  0
ARC
  5
4296
102
{ACAD_REACTORS
330
439B
102
}
330
2
100
AcDbEntity
  8
KIJUN
100
AcDbCircle
 10
19.92048353401878
 20
101.6782177778464
 30
0.0
 40
9.424488219281947
100
AcDbArc
 50
140.0805353237536
 51
221.5092332923799
  0
ARC
  5
4297
102
{ACAD_REACTORS
330
439B
102
}
330
2
100
AcDbEntity
  8
KIJUN
100
AcDbCircle
 10
10.50063092897699
 20
94.97186456917416
 30
0.0
 40
2.406773240427363
100
AcDbArc
 50
148.9506539199435
 51
11.0273322855446
  0
ARC
  5
4298
102
{ACAD_REACTORS
330
439B
102
}
330
2
100
AcDbEntity
  8
KIJUN
100
AcDbCircle
 10
479.5024791692949
 20
634.1184672098522
 30
0.0
 40
645.2510001619214
100
AcDbArc
 50
237.3343233862352
 51
238.5554130115611
  0
ARC
  5
4299
102
{ACAD_REACTORS
330
439B
102
}
330
2
100
AcDbEntity
  8
KIJUN
100
AcDbCircle
 10
108.1086568400424
 20
79.76759002169024
 30
0.0
 40
18.8393148275852
100
AcDbArc
 50
343.7960152386803
 51
17.96323458891436
  0
LINE
  5
429A
102
{ACAD_REACTORS
330
439B
102
}
330
2
100
AcDbEntity
  8
KIJUN
100
AcDbLine
 10
159.5988930983849
 20
83.61900693811344
 30
0.0
 11
149.897783117688
 21
90.08327571905715
 31
0.0
  0
ARC
  5
429B
102
{ACAD_REACTORS
330
439B
102
}
330
2
100
AcDbEntity
  8
KIJUN
100
AcDbCircle
 10
148.6671265438253
 20
92.86899738392822
 30
0.0
 40
29.91212456198834
100
AcDbArc
 50
186.5775697569115
 51
196.2373181516778
  0
ARC
  5
429C
102
{ACAD_REACTORS
330
439B
102
}
330
2
100
AcDbEntity
  8
KIJUN
100
AcDbCircle
 10
74.39559821998137
 20
99.56907608391635
 30
0.0
 40
17.82016776776979
100
AcDbArc
 50
257.1818773010306
 51
308.5540627550448
  0
ARC
  5
429D
102
{ACAD_REACTORS
330
439B
102
}
330
2
100
AcDbEntity
  8
KIJUN
100
AcDbCircle
 10
101.8137280645542
 20
93.23243961608909
 30
0.0
 40
8.011317978441637
100
AcDbArc
 50
187.3123117464397
 51
313.107640162249
  0
ARC
  5
429E
102
{ACAD_REACTORS
330
439B
102
}
330
2
100
AcDbEntity
  8
KIJUN
100
AcDbCircle
 10
101.9873533236896
 20
91.81255960831117
 30
0.0
 40
17.09638885843477
100
AcDbArc
 50
169.6392465381683
 51
12.22323105116753
  0
ARC
  5
429F
102
{ACAD_REACTORS
330
439B
102
}
330
2
100
AcDbEntity
  8
KIJUN
100
AcDbCircle
 10
56.05951436328814
 20
91.06054441914125
 30
0.0
 40
17.1501418838596
100
AcDbArc
 50
330.4269918302578
 51
20.13824873291534
  0
ARC
  5
42A0
102
{ACAD_REACTORS
330
439B
102
}
330
2
100
AcDbEntity
  8
KIJUN
100
AcDbCircle
 10
57.16353668373995
 20
99.56907608391635
 30
0.0
 40
17.82016776776979
100
AcDbArc
 50
231.4459372449551
 51
282.8181226989694
  0
ARC
  5
42A1
102
{ACAD_REACTORS
330
439B
102
}
330
2
100
AcDbEntity
  8
KIJUN
100
AcDbCircle
 10
71.09069053616713
 20
90.61563379059544
 30
0.0
 40
12.37396175068794
100
AcDbArc
 50
146.6984456334614
 51
216.8834048079624
  0
ARC
  5
42A3
102
{ACAD_REACTORS
330
439B
102
}
330
2
100
AcDbEntity
  8
KIJUN
100
AcDbCircle
 10
122.8911387260323
 20
85.59562471055711
 30
0.0
 40
3.138554030439965
100
AcDbArc
 50
200.3326045539821
 51
359.673872657046
  0
ARC
  5
42A4
102
{ACAD_REACTORS
330
439B
102
}
330
2
100
AcDbEntity
  8
KIJUN
100
AcDbCircle
 10
91.72813875656357
 20
80.05379500448521
 30
0.0
 40
43.20026889473363
100
AcDbArc
 50
337.6549054517558
 51
356.5157639734672
  0
ARC
  5
42A5
102
{ACAD_REACTORS
330
439B
102
}
330
2
100
AcDbEntity
  8
KIJUN
100
AcDbCircle
 10
71.59184444541551
 20
62.30932082520512
 30
0.0
 40
7.996983974429059
100
AcDbArc
 50
300.1255928107316
 51
48.4467831102799
  0
LINE
  5
42A6
102
{ACAD_REACTORS
330
439B
102
}
330
2
100
AcDbEntity
  8
KIJUN
100
AcDbLine
 10
72.59350272928895
 20
74.45224641749018
 30
0.0
 11
76.03579420006735
 21
65.42135101893222
 31
0.0
  0
LINE
  5
42A7
102
{ACAD_REACTORS
330
439B
102
}
330
2
100
AcDbEntity
  8
KIJUN
100
AcDbLine
 10
78.18722636930579
 20
65.42135101893222
 30
0.0
 11
72.59350272928895
 21
74.45224641749018
 31
0.0
  0
ARC
  5
42A8
102
{ACAD_REACTORS
330
439B
102
}
330
2
100
AcDbEntity
  8
KIJUN
100
AcDbCircle
 10
60.04362905618927
 20
59.69294023817501
 30
0.0
 40
14.2619013849429
100
AcDbArc
 50
325.046500238097
 51
13.95890679121864
  0
LINE
  5
42A9
102
{ACAD_REACTORS
330
439B
102
}
330
2
100
AcDbEntity
  8
KIJUN
100
AcDbLine
 10
67.7255074813911
 20
76.86483537898926
 30
0.0
 11
67.01715371244427
 21
52.08589087450832
 31
0.0
  0
ARC
  5
42AA
102
{ACAD_REACTORS
330
439B
102
}
330
2
100
AcDbEntity
  8
KIJUN
100
AcDbCircle
 10
40.13537230945803
 20
70.9914460554312
 30
0.0
 40
17.2777182805127
100
AcDbArc
 50
216.5965124930418
 51
311.7965759178247
  0
ARC
  5
42AB
102
{ACAD_REACTORS
330
439B
102
}
330
2
100
AcDbEntity
  8
KIJUN
100
AcDbCircle
 10
59.9672904583058
 20
62.30932082520512
 30
0.0
 40
7.996983974429059
100
AcDbArc
 50
131.55321688972
 51
239.8744071892684
  0
ARC
  5
42AC
102
{ACAD_REACTORS
330
439B
102
}
330
2
100
AcDbEntity
  8
KIJUN
100
AcDbCircle
 10
71.51550584753204
 20
59.69294023817501
 30
0.0
 40
14.2619013849429
100
AcDbArc
 50
166.0410932087813
 51
214.9534997619027
  0
LINE
  5
42AD
102
{ACAD_REACTORS
330
439B
102
}
330
2
100
AcDbEntity
  8
KIJUN
100
AcDbLine
 10
42.61477562345999
 20
64.56127754359613
 30
0.0
 11
49.06907213117301
 21
74.02220967982725
 31
0.0
  0
LINE
  5
42AE
102
{ACAD_REACTORS
330
439B
102
}
330
2
100
AcDbEntity
  8
KIJUN
100
AcDbLine
 10
49.06907213117301
 20
74.02220967982725
 30
0.0
 11
46.91763996193595
 21
65.42135101893222
 31
0.0
  0
LINE
  5
42AF
102
{ACAD_REACTORS
330
439B
102
}
330
2
100
AcDbEntity
  8
KIJUN
100
AcDbLine
 10
53.3719085344137
 20
65.42135101893222
 30
0.0
 11
58.96563217443326
 21
74.45224641749018
 31
0.0
  0
LINE
  5
42B0
102
{ACAD_REACTORS
330
439B
102
}
330
2
100
AcDbEntity
  8
KIJUN
100
AcDbLine
 10
58.96563217443326
 20
74.45224641749018
 30
0.0
 11
55.52334070365396
 21
65.42135101893222
 31
0.0
  0
ARC
  5
42B1
102
{ACAD_REACTORS
330
439B
102
}
330
2
100
AcDbEntity
  8
KIJUN
100
AcDbCircle
 10
65.77956745186111
 20
59.70145518845907
 30
0.0
 40
10.11651235860363
100
AcDbArc
 50
233.9508010704441
 51
306.0491989295556
  0
LINE
  5
42B2
102
{ACAD_REACTORS
330
439B
102
}
330
2
100
AcDbEntity
  8
KIJUN
100
AcDbLine
 10
66.30877200826216
 20
52.79386779792616
 30
0.0
 11
65.60039030408188
 21
74.0329586622072
 31
0.0
  0
ARC
  5
42B3
102
{ACAD_REACTORS
330
439B
102
}
330
2
100
AcDbEntity
  8
KIJUN
100
AcDbCircle
 10
140.3599447867873
 20
74.82585438317915
 30
0.0
 40
14.16389329936068
100
AcDbArc
 50
181.2764625371623
 51
232.2293726534642
  0
LINE
  5
42B4
102
{ACAD_REACTORS
330
439B
102
}
330
2
100
AcDbEntity
  8
KIJUN
100
AcDbLine
 10
82.4900627725492
 20
74.02220967982725
 30
0.0
 11
84.64149494178583
 21
65.42135101893222
 31
0.0
  0
LINE
  5
42B5
102
{ACAD_REACTORS
330
439B
102
}
330
2
100
AcDbEntity
  8
KIJUN
100
AcDbLine
 10
88.94435928026087
 20
64.56127754359613
 30
0.0
 11
82.4900627725492
 21
74.02220967982725
 31
0.0
  0
ARC
  5
42B6
102
{ACAD_REACTORS
330
439B
102
}
330
2
100
AcDbEntity
  8
KIJUN
100
AcDbCircle
 10
91.42376259426418
 20
70.9914460554312
 30
0.0
 40
17.2777182805127
100
AcDbArc
 50
228.2034240821753
 51
323.4034875069582
  0
ARC
  5
42B7
102
{ACAD_REACTORS
330
439B
102
}
330
2
100
AcDbEntity
  8
KIJUN
100
AcDbCircle
 10
99.49731934157171
 20
74.56113906782525
 30
0.0
 40
14.83738746865957
100
AcDbArc
 50
224.66401392128
 51
1.240220883213333
  0
ARC
  5
42B8
102
{ACAD_REACTORS
330
439B
102
}
330
2
100
AcDbEntity
  8
KIJUN
100
AcDbCircle
 10
105.5243731213095
 20
82.74489707477528
 30
0.0
 40
11.19865713053374
100
AcDbArc
 50
224.5959950917473
 51
318.4172413136114
  0
ARC
  5
42B9
102
{ACAD_REACTORS
330
439B
102
}
330
2
100
AcDbEntity
  8
KIJUN
100
AcDbCircle
 10
201.4304160450935
 20
122.0785451211232
 30
0.0
 40
70.03830266582486
100
AcDbArc
 50
213.3001733718402
 51
267.9075283811348
  0
LINE
  5
42BA
102
{ACAD_REACTORS
330
439B
102
}
330
2
100
AcDbEntity
  8
KIJUN
100
AcDbLine
 10
183.5282857929178
 20
70.83332922462727
 30
0.0
 11
191.9359096730459
 21
76.65117112747816
 31
0.0
  0
ARC
  5
42BB
102
{ACAD_REACTORS
330
439B
102
}
330
2
100
AcDbEntity
  8
KIJUN
100
AcDbCircle
 10
184.428921799763
 20
120.3323234112722
 30
0.0
 40
44.32152898727571
100
AcDbArc
 50
235.9286403866089
 51
279.751520143418
  0
ARC
  5
42BC
102
{ACAD_REACTORS
330
439B
102
}
330
2
100
AcDbEntity
  8
KIJUN
100
AcDbCircle
 10
209.5385174580079
 20
116.3029537014131
 30
0.0
 40
58.36556568461707
100
AcDbArc
 50
227.2858316570071
 51
249.0841386679178
  0
LINE
  5
42BD
102
{ACAD_REACTORS
330
439B
102
}
330
2
100
AcDbEntity
  8
KIJUN
100
AcDbLine
 10
137.2337494311059
 20
74.36315113036926
 30
0.0
 11
141.322660271363
 21
81.04430606177016
 31
0.0
  0
LINE
  5
42BE
102
{ACAD_REACTORS
330
439B
102
}
330
2
100
AcDbEntity
  8
KIJUN
100
AcDbLine
 10
141.322660271363
 20
81.04430606177016
 30
0.0
 11
142.0041466038583
 21
75.59506661057025
 31
0.0
  0
LINE
  5
42BF
102
{ACAD_REACTORS
330
439B
102
}
330
2
100
AcDbEntity
  8
KIJUN
100
AcDbLine
 10
142.0041466038583
 20
75.59506661057025
 30
0.0
 11
143.8543161120096
 21
76.00601641071216
 31
0.0
  0
ARC
  5
42C0
102
{ACAD_REACTORS
330
439B
102
}
330
2
100
AcDbEntity
  8
KIJUN
100
AcDbCircle
 10
174.8642018373093
 20
53.69168021923201
 30
0.0
 40
3.099400825205642
100
AcDbArc
 50
336.4413987144403
 51
53.43541114337972
  0
ARC
  5
42C1
102
{ACAD_REACTORS
330
439B
102
}
330
2
100
AcDbEntity
  8
KIJUN
100
AcDbCircle
 10
122.7173917548598
 20
68.20755243894928
 30
0.0
 40
22.5296607075833
100
AcDbArc
 50
355.4945780786237
 51
20.25152912516642
  0
ARC
  5
42C2
102
{ACAD_REACTORS
330
439B
102
}
330
2
100
AcDbEntity
  8
KIJUN
100
AcDbCircle
 10
160.2376984678385
 20
67.36721708954132
 30
0.0
 40
15.08891803533707
100
AcDbArc
 50
183.5315399630367
 51
279.1538837368098
  0
ARC
  5
42C3
102
{ACAD_REACTORS
330
439B
102
}
330
2
100
AcDbEntity
  8
KIJUN
100
AcDbCircle
 10
159.0640261168082
 20
53.1855845159032
 30
0.0
 40
3.879092477387766
100
AcDbArc
 50
349.3765840474547
 51
42.52887368927242
  0
ARC
  5
42C4
102
{ACAD_REACTORS
330
439B
102
}
330
2
100
AcDbEntity
  8
KIJUN
100
AcDbCircle
 10
182.3710380087632
 20
103.4733497502461
 30
0.0
 40
51.23335453865836
100
AcDbArc
 50
228.0372484466381
 51
264.7748972303539
  0
LINE
  5
42C5
102
{ACAD_REACTORS
330
439B
102
}
330
2
100
AcDbEntity
  8
KIJUN
100
AcDbLine
 10
170.7426148450367
 20
60.65489859932426
 30
0.0
 11
176.710603511382
 21
56.18107499171628
 31
0.0
  0
LINE
  5
42C6
102
{ACAD_REACTORS
330
439B
102
}
330
2
100
AcDbEntity
  8
KIJUN
100
AcDbLine
 10
169.9467389746541
 20
73.41903673700608
 30
0.0
 11
183.5282857929178
 21
70.83332922462727
 31
0.0
  0
LINE
  5
42C7
102
{ACAD_REACTORS
330
439B
102
}
330
2
100
AcDbEntity
  8
KIJUN
100
AcDbLine
 10
134.8485544220857
 20
77.42834544110838
 30
0.0
 11
137.2337494311059
 21
74.36315113036926
 31
0.0
  0
ARC
  5
42C8
102
{ACAD_REACTORS
330
439B
102
}
330
2
100
AcDbEntity
  8
KIJUN
100
AcDbCircle
 10
195.8644479064119
 20
67.07569036139661
 30
0.0
 40
8.905423429496247
100
AcDbArc
 50
216.4615471716662
 51
21.1107002642317
  0
ARC
  5
42C9
102
{ACAD_REACTORS
330
439B
102
}
330
2
100
AcDbEntity
  8
KIJUN
100
AcDbCircle
 10
208.7745803914874
 20
70.23764282864613
 30
0.0
 40
6.267279132618534
100
AcDbArc
 50
359.5361229052711
 51
31.62478952550886
  0
ARC
  5
42CA
102
{ACAD_REACTORS
330
439B
102
}
330
2
100
AcDbEntity
  8
KIJUN
100
AcDbCircle
 10
213.4528860896296
 20
73.31691421863206
 30
0.0
 40
0.6900634795021159
100
AcDbArc
 50
17.45627408091111
 51
154.5488380756253
  0
ARC
  5
42CB
102
{ACAD_REACTORS
330
439B
102
}
330
2
100
AcDbEntity
  8
KIJUN
100
AcDbCircle
 10
204.6371687309008
 20
71.16849057737522
 30
0.0
 40
1.0
100
AcDbArc
 50
152.1342887857273
 51
242.291497920412
  0
ARC
  5
42CC
102
{ACAD_REACTORS
330
439B
102
}
330
2
100
AcDbEntity
  8
KIJUN
100
AcDbCircle
 10
200.7986956361853
 20
63.85991199478031
 30
0.0
 40
7.255252667048669
100
AcDbArc
 50
324.7557682063834
 51
62.29149792041204
  0
ARC
  5
42CD
102
{ACAD_REACTORS
330
439B
102
}
330
2
100
AcDbEntity
  8
KIJUN
100
AcDbCircle
 10
198.6425530262683
 20
68.37392850357014
 30
0.0
 40
15.12383787259008
100
AcDbArc
 50
330.2777709926842
 51
20.26985396942406
  0
ARC
  5
42CE
102
{ACAD_REACTORS
330
439B
102
}
330
2
100
AcDbEntity
  8
KIJUN
100
AcDbCircle
 10
201.8367806518752
 20
65.71112080389298
 30
0.0
 40
13.94278679998596
100
AcDbArc
 50
257.7277827324071
 51
18.7240491651549
  0
ARC
  5
42CF
102
{ACAD_REACTORS
330
439B
102
}
330
2
100
AcDbEntity
  8
KIJUN
100
AcDbCircle
 10
209.1257723013875
 20
68.79533550573023
 30
0.0
 40
6.077344483788778
100
AcDbArc
 50
52.4480901393795
 51
152.1342887857273
  0
ARC
  5
42D0
102
{ACAD_REACTORS
330
439B
102
}
330
2
100
AcDbEntity
  8
KIJUN
100
AcDbCircle
 10
126.1240789555422
 20
64.88246565642817
 30
0.0
 40
34.64491069986937
100
AcDbArc
 50
46.6691133043164
 51
81.51289109805222
  0
ARC
  5
42D1
102
{ACAD_REACTORS
330
439B
102
}
330
2
100
AcDbEntity
  8
KIJUN
100
AcDbCircle
 10
121.3674138596388
 20
110.1467889729733
 30
0.0
 40
13.27393753766882
100
AcDbArc
 50
354.118075838783
 51
95.32270405177621
  0
ARC
  5
42D2
102
{ACAD_REACTORS
330
439B
102
}
330
2
100
AcDbEntity
  8
KIJUN
100
AcDbCircle
 10
133.6541829254483
 20
130.9481392687203
 30
0.0
 40
22.18062176239601
100
AcDbArc
 50
223.1440306245887
 51
272.370153709701
  0
ARC
  5
42D3
102
{ACAD_REACTORS
330
439B
102
}
330
2
100
AcDbEntity
  8
KIJUN
100
AcDbCircle
 10
91.18114908695043
 20
115.3847575237971
 30
0.0
 40
17.22320920345024
100
AcDbArc
 50
87.12840659177732
 51
150.0691833444034
  0
LINE
  5
42D4
102
{ACAD_REACTORS
330
439B
102
}
330
2
100
AcDbEntity
  8
KIJUN
100
AcDbLine
 10
80.56110276062099
 20
133.2011957712261
 30
0.0
 11
77.28028088439168
 21
125.6179669900612
 31
0.0
  0
LINE
  5
42D5
102
{ACAD_REACTORS
330
439B
102
}
330
2
100
AcDbEntity
  8
KIJUN
100
AcDbLine
 10
78.92069182250634
 20
135.8655771880392
 30
0.0
 11
80.56110276062099
 21
133.2011957712261
 31
0.0
  0
ARC
  5
42D6
102
{ACAD_REACTORS
330
439B
102
}
330
2
100
AcDbEntity
  8
KIJUN
100
AcDbCircle
 10
80.49463485059277
 20
100.8954214035793
 30
0.0
 40
7.612777352199112
100
AcDbArc
 50
211.4391137152933
 51
333.8434119550001
  0
ARC
  5
42D7
102
{ACAD_REACTORS
330
439B
102
}
330
2
100
AcDbEntity
  8
KIJUN
100
AcDbCircle
 10
84.53065582615364
 20
108.4013118844882
 30
0.0
 40
5.351326649286574
100
AcDbArc
 50
95.18572914429384
 51
241.7341872761635
  0
LINE
  5
42D8
102
{ACAD_REACTORS
330
439B
102
}
330
2
100
AcDbEntity
  8
KIJUN
100
AcDbLine
 10
75.84491684184377
 20
134.8408115593431
 30
0.0
 11
78.92069182250634
 21
135.8655771880392
 31
0.0
  0
LINE
  5
42D9
102
{ACAD_REACTORS
330
439B
102
}
330
2
100
AcDbEntity
  8
KIJUN
100
AcDbLine
 10
75.93402878170127
 20
136.9831084295983
 30
0.0
 11
75.93402878170127
 21
137.1624810141481
 31
0.0
  0
ARC
  5
42DA
102
{ACAD_REACTORS
330
439B
102
}
330
2
100
AcDbEntity
  8
KIJUN
100
AcDbCircle
 10
52.04418588375938
 20
137.1664970804061
 30
0.0
 40
23.89054677242931
100
AcDbArc
 50
336.5402756259672
 51
359.56018173241
  0
ARC
  5
42DB
102
{ACAD_REACTORS
330
439B
102
}
330
2
100
AcDbEntity
  8
KIJUN
100
AcDbCircle
 10
74.45076829124719
 20
137.1471980208221
 30
0.0
 40
1.483339223652926
100
AcDbArc
 50
0.5903346281130193
 51
143.1600818676307
  0
ARC
  5
42DC
102
{ACAD_REACTORS
330
439B
102
}
330
2
100
AcDbEntity
  8
KIJUN
100
AcDbCircle
 10
57.10836661247412
 20
137.1471980208221
 30
0.0
 40
1.483339223652926
100
AcDbArc
 50
36.83991813236921
 51
179.409665371887
  0
ARC
  5
42DD
102
{ACAD_REACTORS
330
439B
102
}
330
2
100
AcDbEntity
  8
KIJUN
100
AcDbCircle
 10
79.51494901996284
 20
137.1664970804061
 30
0.0
 40
23.89054677242931
100
AcDbArc
 50
180.4398182675899
 51
203.4597243740328
  0
LINE
  5
42DE
102
{ACAD_REACTORS
330
439B
102
}
330
2
100
AcDbEntity
  8
KIJUN
100
AcDbLine
 10
55.62510612202004
 20
136.9831084295983
 30
0.0
 11
55.62510612202004
 21
137.1624810141481
 31
0.0
  0
LINE
  5
42DF
102
{ACAD_REACTORS
330
439B
102
}
330
2
100
AcDbEntity
  8
KIJUN
100
AcDbLine
 10
55.71421806187482
 20
134.8408115593431
 30
0.0
 11
52.63844308121497
 21
135.8655771880392
 31
0.0
  0
LINE
  5
42E0
102
{ACAD_REACTORS
330
439B
102
}
330
2
100
AcDbEntity
  8
KIJUN
100
AcDbLine
 10
52.63844308121497
 20
135.8655771880392
 30
0.0
 11
50.99803214310032
 21
133.2011957712261
 31
0.0
  0
LINE
  5
42E1
102
{ACAD_REACTORS
330
439B
102
}
330
2
100
AcDbEntity
  8
KIJUN
100
AcDbLine
 10
50.99803214310032
 20
133.2011957712261
 30
0.0
 11
54.27885401933145
 21
125.6179669900612
 31
0.0
  0
ARC
  5
42E2
102
{ACAD_REACTORS
330
439B
102
}
330
2
100
AcDbEntity
  8
KIJUN
100
AcDbCircle
 10
40.37798581676861
 20
115.3847575237971
 30
0.0
 40
17.22320920345024
100
AcDbArc
 50
29.93081665559651
 51
92.87159340822269
  0
ARC
  5
42E3
102
{ACAD_REACTORS
330
439B
102
}
330
2
100
AcDbEntity
  8
KIJUN
100
AcDbCircle
 10
38.47572370322268
 20
128.5995201857693
 30
0.0
 40
4.120087367053455
100
AcDbArc
 50
75.38750041273772
 51
187.2805436923719
  0
ARC
  5
42E4
102
{ACAD_REACTORS
330
439B
102
}
330
2
100
AcDbEntity
  8
KIJUN
100
AcDbCircle
 10
37.36966435033082
 20
121.0013288580321
 30
0.0
 40
7.678273161657934
100
AcDbArc
 50
13.15374396196381
 51
112.8433890014892
  0
ARC
  5
42E5
102
{ACAD_REACTORS
330
439B
102
}
330
2
100
AcDbEntity
  8
KIJUN
100
AcDbCircle
 10
40.58586108320014
 20
117.2915279397311
 30
0.0
 40
6.923358601869534
100
AcDbArc
 50
52.01915398059478
 51
118.7144010689216
  0
ARC
  5
42E6
102
{ACAD_REACTORS
330
439B
102
}
330
2
100
AcDbEntity
  8
KIJUN
100
AcDbCircle
 10
62.3564547058022
 20
139.802723437378
 30
0.0
 40
30.00169605294046
100
AcDbArc
 50
213.2260415865788
 51
240.3446253109868
  0
ARC
  5
42E7
102
{ACAD_REACTORS
330
439B
102
}
330
2
100
AcDbEntity
  8
KIJUN
100
AcDbCircle
 10
65.77956745186111
 20
135.0269982554939
 30
0.0
 40
7.557944574361499
100
AcDbArc
 50
345.8700549827633
 51
185.8839428441616
  0
ARC
  5
42E8
102
{ACAD_REACTORS
330
439B
102
}
330
2
100
AcDbEntity
  8
KIJUN
100
AcDbCircle
 10
66.44466042462136
 20
144.253583726396
 30
0.0
 40
12.92256377779485
100
AcDbArc
 50
229.9695692470567
 51
301.0443409541846
  0
ARC
  5
42E9
102
{ACAD_REACTORS
330
439B
102
}
330
2
100
AcDbEntity
  8
KIJUN
100
AcDbCircle
 10
171.4500857671464
 20
142.0160474524041
 30
0.0
 40
134.7693390065319
100
AcDbArc
 50
195.7970511083494
 51
199.2699705622822
  0
ARC
  5
42EA
102
{ACAD_REACTORS
330
439B
102
}
330
2
100
AcDbEntity
  8
KIJUN
100
AcDbCircle
 10
51.06450005312672
 20
100.8954214035793
 30
0.0
 40
7.612777352199112
100
AcDbArc
 50
206.1565880449999
 51
328.5608862847065
  0
ARC
  5
42EB
102
{ACAD_REACTORS
330
439B
102
}
330
2
100
AcDbEntity
  8
KIJUN
100
AcDbCircle
 10
69.9946802164759
 20
85.3152270252292
 30
0.0
 40
17.0119957292396
100
AcDbArc
 50
103.6958363004266
 51
136.9664844655801
  0
ARC
  5
42EC
102
{ACAD_REACTORS
330
439B
102
}
330
2
100
AcDbEntity
  8
KIJUN
100
AcDbCircle
 10
24.42352664810414
 20
94.72547608108106
 30
0.0
 40
13.50387434646324
100
AcDbArc
 50
349.2763351722033
 51
67.89620559174096
  0
ARC
  5
42ED
102
{ACAD_REACTORS
330
439B
102
}
330
2
100
AcDbEntity
  8
KIJUN
100
AcDbCircle
 10
61.56445468724633
 20
85.3152270252292
 30
0.0
 40
17.0119957292396
100
AcDbArc
 50
43.03351553441991
 51
76.30416369957335
  0
ARC
  5
42EE
102
{ACAD_REACTORS
330
439B
102
}
330
2
100
AcDbEntity
  8
KIJUN
100
AcDbCircle
 10
47.02847907756904
 20
108.4013118844882
 30
0.0
 40
5.351326649286574
100
AcDbArc
 50
298.2658127238364
 51
84.81427085570615
  0
ARC
  5
42EF
102
{ACAD_REACTORS
330
439B
102
}
330
2
100
AcDbEntity
  8
KIJUN
100
AcDbCircle
 10
49.96798037361077
 20
105.4704384011493
 30
0.0
 40
10.65802724156976
100
AcDbArc
 50
316.0115992730004
 51
34.83559138431994
  0
ARC
  5
42F0
102
{ACAD_REACTORS
330
439B
102
}
330
2
100
AcDbEntity
  8
KIJUN
100
AcDbCircle
 10
81.59115453011144
 20
105.4704384011493
 30
0.0
 40
10.65802724156976
100
AcDbArc
 50
145.16440861568
 51
223.9884007269996
  0
ARC
  5
42F1
102
{ACAD_REACTORS
330
439B
102
}
330
2
100
AcDbEntity
  8
KIJUN
100
AcDbCircle
 10
63.21828636747705
 20
104.8302454474142
 30
0.0
 40
11.74339211295767
100
AcDbArc
 50
346.6333442425943
 51
34.95579391333539
  0
ARC
  5
42F2
102
{ACAD_REACTORS
330
439B
102
}
330
2
100
AcDbEntity
  8
KIJUN
100
AcDbCircle
 10
68.67955458033248
 20
104.8627464428573
 30
0.0
 40
11.74339211295767
100
AcDbArc
 50
145.7261531410908
 51
194.0486028118327
  0
ARC
  5
42F3
102
{ACAD_REACTORS
330
439B
102
}
330
2
100
AcDbEntity
  8
KIJUN
100
AcDbCircle
 10
107.9900264969456
 20
97.41270491209229
 30
0.0
 40
15.17788733917811
100
AcDbArc
 50
355.4672795677692
 51
23.1282476255691
  0
ARC
  5
42F4
102
{ACAD_REACTORS
330
439B
102
}
330
2
100
AcDbEntity
  8
KIJUN
100
AcDbCircle
 10
115.4074231768099
 20
111.7706112682012
 30
0.0
 40
16.72202284964972
100
AcDbArc
 50
77.20478931319931
 51
120.1332568653706
  0
ARC
  5
42F5
102
{ACAD_REACTORS
330
439B
102
}
330
2
100
AcDbEntity
  8
KIJUN
100
AcDbCircle
 10
105.5336381791012
 20
130.3428619986759
 30
0.0
 40
4.36808914762448
100
AcDbArc
 50
289.7927183543633
 51
5.239763512827009
  0
ARC
  5
42F6
102
{ACAD_REACTORS
330
439B
102
}
330
2
100
AcDbEntity
  8
KIJUN
100
AcDbCircle
 10
105.5115870370955
 20
112.4371133359473
 30
0.0
 40
18.81950928069228
100
AcDbArc
 50
76.5671192212049
 51
116.3099308988229
  0
ARC
  5
42F7
102
{ACAD_REACTORS
330
439B
102
}
330
2
100
AcDbEntity
  8
KIJUN
100
AcDbCircle
 10
69.20268019791911
 20
139.802723437378
 30
0.0
 40
30.00169605294046
100
AcDbArc
 50
299.6553746890131
 51
326.773958413421
  0
ARC
  5
42F8
102
{ACAD_REACTORS
330
439B
102
}
330
2
100
AcDbEntity
  8
KIJUN
100
AcDbCircle
 10
90.97327382052208
 20
117.2915279397311
 30
0.0
 40
6.923358601869534
100
AcDbArc
 50
61.28559893105602
 51
127.9808460194052
  0
ARC
  5
42F9
102
{ACAD_REACTORS
330
439B
102
}
330
2
100
AcDbEntity
  8
KIJUN
100
AcDbCircle
 10
94.18947055338867
 20
121.0013288580321
 30
0.0
 40
7.678273161657934
100
AcDbArc
 50
67.15661099851073
 51
166.8462560380362
  0
ARC
  5
42FA
102
{ACAD_REACTORS
330
439B
102
}
330
2
100
AcDbEntity
  8
KIJUN
100
AcDbCircle
 10
93.08341120049863
 20
128.5995201857693
 30
0.0
 40
4.120087367053455
100
AcDbArc
 50
352.719456307628
 51
104.6124995872623
  0
ARC
  5
42FB
102
{ACAD_REACTORS
330
439B
102
}
330
2
100
AcDbEntity
  8
KIJUN
100
AcDbCircle
 10
110.9344212110027
 20
91.19269224419918
 30
0.0
 40
18.33772493283241
100
AcDbArc
 50
64.36935066594127
 51
118.9636439947153
  0
ARC
  5
42FC
102
{ACAD_REACTORS
330
439B
102
}
330
2
100
AcDbEntity
  8
KIJUN
100
AcDbCircle
 10
107.1356082556149
 20
94.72547608108106
 30
0.0
 40
13.50387434646324
100
AcDbArc
 50
112.103794408259
 51
190.7236648277967
  0
ARC
  5
42FD
102
{ACAD_REACTORS
330
439B
102
}
330
2
100
AcDbEntity
  8
KIJUN
100
AcDbCircle
 10
108.077925649919
 20
93.69038454234214
 30
0.0
 40
3.991286548754481
100
AcDbArc
 50
345.8325922728624
 51
78.88746458333502
  0
ARC
  5
42FE
102
{ACAD_REACTORS
330
439B
102
}
330
2
100
AcDbEntity
  8
KIJUN
100
AcDbCircle
 10
106.7660122794295
 20
92.38644571135115
 30
0.0
 40
5.192114386545246
100
AcDbArc
 50
190.8555166707755
 51
3.611415306521986
  0
ARC
  5
42FF
102
{ACAD_REACTORS
330
439B
102
}
330
2
100
AcDbEntity
  8
KIJUN
100
AcDbCircle
 10
109.8644916936464
 20
94.76205497748924
 30
0.0
 40
8.857068224515883
100
AcDbArc
 50
4.339435722341427
 51
202.2481769946904
  0
ARC
  5
4300
102
{ACAD_REACTORS
330
439B
102
}
330
2
100
AcDbEntity
  8
KIJUN
100
AcDbCircle
 10
-39.89095086342422
 20
142.0160474524041
 30
0.0
 40
134.7693390065319
100
AcDbArc
 50
340.7300294377177
 51
344.2029488916503
  0
ARC
  5
4301
102
{ACAD_REACTORS
330
439B
102
}
330
2
100
AcDbEntity
  8
KIJUN
100
AcDbCircle
 10
104.3674375537111
 20
108.9018459586552
 30
0.0
 40
14.5468984432551
100
AcDbArc
 50
355.3636768743065
 51
33.87468812399749
  0
ARC
  5
4302
102
{ACAD_REACTORS
330
439B
102
}
330
2
100
AcDbEntity
  8
KIJUN
100
AcDbCircle
 10
102.9164674769026
 20
102.3367135030241
 30
0.0
 40
13.46445592529634
100
AcDbArc
 50
54.66517726557909
 51
167.165308532522
  0
ARC
  5
4303
102
{ACAD_REACTORS
330
439B
102
}
330
2
100
AcDbEntity
  8
KIJUN
100
AcDbCircle
 10
120.5132045964383
 20
118.8807751227632
 30
0.0
 40
11.27562344955706
100
AcDbArc
 50
209.5441539861322
 51
261.6036406056855
  0
ARC
  5
4304
102
{ACAD_REACTORS
330
439B
102
}
330
2
100
AcDbEntity
  8
KIJUN
100
AcDbCircle
 10
121.0585039747448
 20
94.97186456917416
 30
0.0
 40
2.406773240427363
100
AcDbArc
 50
168.9726677144554
 51
31.04934608005651
  0
ARC
  5
4305
102
{ACAD_REACTORS
330
439B
102
}
330
2
100
AcDbEntity
  8
KIJUN
100
AcDbCircle
 10
111.6386513697025
 20
101.6782177778464
 30
0.0
 40
9.424488219281947
100
AcDbArc
 50
318.49076670762
 51
39.91946467624636
  0
ARC
  5
4306
102
{ACAD_REACTORS
330
439B
102
}
330
2
100
AcDbEntity
  8
KIJUN
100
AcDbCircle
 10
105.1027925842027
 20
87.57608205713699
 30
0.0
 40
24.40216516506739
100
AcDbArc
 50
28.30832678244593
 51
55.6639302012261
  0
ARC
  5
4307
102
{ACAD_REACTORS
330
439B
102
}
330
2
100
AcDbEntity
  8
KIJUN
100
AcDbCircle
 10
116.0473170296827
 20
124.9426494702932
 30
0.0
 40
4.383095384426616
100
AcDbArc
 50
338.8823501574815
 51
45.65868300156538
  0
ARC
  5
4308
102
{ACAD_REACTORS
330
439B
102
}
330
2
100
AcDbEntity
  8
KIJUN
100
AcDbCircle
 10
151.24274737219
 20
133.3911995971291
 30
0.0
 40
29.72075356699415
100
AcDbArc
 50
235.8798194175861
 51
278.3068822611036
  0
ARC
  5
4309
102
{ACAD_REACTORS
330
439B
102
}
330
2
100
AcDbEntity
  8
KIJUN
100
AcDbCircle
 10
149.9832580679058
 20
102.9726679851223
 30
0.0
 40
5.644422019133557
100
AcDbArc
 50
296.5439559141848
 51
10.30371306074722
  0
ARC
  5
430A
102
{ACAD_REACTORS
330
439B
102
}
330
2
100
AcDbEntity
  8
KIJUN
100
AcDbCircle
 10
158.3217357478024
 20
104.2093375720262
 30
0.0
 40
8.563998212786341
100
AcDbArc
 50
227.2242474726982
 51
346.5338937192133
  0
ARC
  5
430B
102
{ACAD_REACTORS
330
439B
102
}
330
2
100
AcDbEntity
  8
KIJUN
100
AcDbCircle
 10
164.0277881952706
 20
97.82317825242513
 30
0.0
 40
5.115267074597722
100
AcDbArc
 50
321.0609042242555
 51
59.15738843691805
  0
ARC
  5
430C
102
{ACAD_REACTORS
330
439B
102
}
330
2
100
AcDbEntity
  8
KIJUN
100
AcDbCircle
 10
155.7184491061043
 20
105.2868489391521
 30
0.0
 40
16.27970488698962
100
AcDbArc
 50
249.0507278385125
 51
319.0086839818256
  0
ELLIPSE
  5
430D
102
{ACAD_REACTORS
330
439B
102
}
330
2
100
AcDbEntity
  8
KIJUN
100
AcDbEllipse
 10
66.52483756264974
 20
91.71523144708089
 30
0.0
 11
0.0
 21
8.541202440922438
 31
0.0
210
0.0
220
0.0
230
-0.9999999999999998
 40
0.5812819917163731
 41
0.0
 42
6.283185307179586
  0
DIMENSION
  5
430E
330
2
100
AcDbEntity
  8
SUNPOU
100
AcDbDimension
  2
*D95
 10
215.7795674518611
 20
195.0659752419669
 30
0.0
 11
65.77956745186111
 21
203.065975241967
 31
0.0
 70
    32
 71
     5
 42
300.0
  3
STANDARD
100
AcDbAlignedDimension
 13
-84.22043254813889
 23
142.5849428298555
 33
0.0
 14
215.7795674518611
 24
144.1727972850744
 34
0.0
100
AcDbRotatedDimension
1001
ACAD
1000
DSTYLE
1002
{
1070
    41
1040
2.0
1070
    42
1040
10.0
1070
    44
1040
0.0
1070
    73
1070
     0
1070
    74
1070
     0
1070
    77
1070
     1
1070
   140
1040
10.0
1070
   141
1040
0.0
1070
   146
1040
0.064286
1070
   147
1040
3.0
1070
   176
1070
    60
1070
   177
1070
    70
1070
   178
1070
    60
1070
   271
1070
     0
1070
   272
1070
     0
1070
   340
1005
1C
1070
   342
1005
109
1002
}
  0
DIMENSION
  5
431B
330
2
100
AcDbEntity
  8
SUNPOU
100
AcDbDimension
  2
*D96
 10
-127.7379072557178
 20
49.58494282985544
 30
0.0
 11
-135.7379072557178
 21
96.08494282985546
 31
0.0
 70
    32
 71
     5
 42
93.00000000000006
  3
STANDARD
100
AcDbAlignedDimension
 13
-84.22043254813889
 23
142.5849428298555
 33
0.0
 14
-85.39648315633803
 24
49.58494282985543
 34
0.0
 50
90.0
100
AcDbRotatedDimension
1001
ACAD
1000
DSTYLE
1002
{
1070
    41
1040
2.0
1070
    42
1040
10.0
1070
    44
1040
0.0
1070
    73
1070
     0
1070
    74
1070
     0
1070
    77
1070
     1
1070
   140
1040
10.0
1070
   141
1040
0.0
1070
   146
1040
0.064286
1070
   147
1040
3.0
1070
   176
1070
    60
1070
   177
1070
    70
1070
   178
1070
    60
1070
   271
1070
     0
1070
   272
1070
     0
1070
   340
1005
1C
1070
   342
1005
109
1002
}
  0
ENDSEC
  0
SECTION
  2
OBJECTS
  0
DICTIONARY
  5
1A
330
0
100
AcDbDictionary
281
     1
  3
ACAD_COLOR
350
144
  3
ACAD_GROUP
350
18
  3
ACAD_LAYOUT
350
58
  3
ACAD_MATERIAL
350
143
  3
ACAD_MLINESTYLE
350
19
  3
ACAD_PLOTSETTINGS
350
59
  3
ACAD_PLOTSTYLENAME
350
56
  3
ACAD_TABLESTYLE
350
145
  3
ACDBHEADERROUNDTRIPXREC
350
43A3
  3
AcDbVariableDictionary
350
1D1
  0
DICTIONARY
  5
1B4
330
A
100
AcDbDictionary
280
     1
281
     1
  3
ACAD_LAYERFILTERS
360
1C2
  3
ACLYDICTIONARY
360
1C1
  0
DICTIONARY
  5
1578
330
2
100
AcDbDictionary
280
     1
281
     1
  3
ACAD_SORTENTS
360
1579
  0
DICTIONARY
  5
144
102
{ACAD_REACTORS
330
1A
102
}
330
1A
100
AcDbDictionary
281
     1
  0
DICTIONARY
  5
18
102
{ACAD_REACTORS
330
1A
102
}
330
1A
100
AcDbDictionary
281
     1
  3
*A1
350
CFC
  3
*A10
350
2FE9
  3
*A11
350
312A
  3
*A12
350
15D1
  3
*A13
350
3154
  3
*A14
350
327B
  3
*A15
350
32AA
  3
*A16
350
3650
  3
*A17
350
367C
  3
*A18
350
1682
  3
*A19
350
1827
  3
*A2
350
218C
  3
*A20
350
18ED
  3
*A21
350
19E5
  3
*A22
350
1F8A
  3
*A23
350
2108
  3
*A24
350
3732
  3
*A25
350
37CF
  3
*A26
350
3837
  3
*A27
350
38C3
  3
*A29
350
39C3
  3
*A3
350
2335
  3
*A30
350
3AB4
  3
*A31
350
3BBC
  3
*A32
350
3D8C
  3
*A33
350
3FA3
  3
*A34
350
419F
  3
*A35
350
439B
  3
*A4
350
2862
  3
*A5
350
299B
  3
*A6
350
2C07
  3
*A7
350
2DB5
  3
*A8
350
2E88
  3
*A9
350
2FBC
  0
DICTIONARY
  5
58
102
{ACAD_REACTORS
330
1A
102
}
330
1A
100
AcDbDictionary
281
     1
  3
Model
350
5A
  3
ﾚｲｱｳﾄ1
350
5B
  0
DICTIONARY
  5
143
102
{ACAD_REACTORS
330
1A
102
}
330
1A
100
AcDbDictionary
281
     1
  0
DICTIONARY
  5
19
102
{ACAD_REACTORS
330
1A
102
}
330
1A
100
AcDbDictionary
281
     1
  3
STANDARD
350
1D
  0
DICTIONARY
  5
59
102
{ACAD_REACTORS
330
1A
102
}
330
1A
100
AcDbDictionary
281
     1
  0
ACDBDICTIONARYWDFLT
  5
56
102
{ACAD_REACTORS
330
1A
102
}
330
1A
100
AcDbDictionary
281
     1
  3
Normal
350
57
100
AcDbDictionaryWithDefault
340
57
  0
DICTIONARY
  5
145
102
{ACAD_REACTORS
330
1A
102
}
330
1A
100
AcDbDictionary
281
     1
  3
Standard
350
146
  0
DICTIONARY
  5
43A3
102
{ACAD_REACTORS
330
1A
102
}
330
1A
100
AcDbDictionary
281
     1
  0
DICTIONARY
  5
1D1
102
{ACAD_REACTORS
330
1A
102
}
330
1A
100
AcDbDictionary
281
     1
  3
CTABLESTYLE
350
1D2
  3
DIMASSOC
350
D03
  3
PROJECTNAME
350
D04
  0
DICTIONARY
  5
1C2
102
{ACAD_REACTORS
330
1B4
102
}
330
1B4
100
AcDbDictionary
281
     1
  0
DICTIONARY
  5
1C1
102
{ACAD_REACTORS
330
1B4
102
}
330
1B4
100
AcDbDictionary
281
     1
1001
ACAD
1000
<All
  0
SORTENTSTABLE
  5
1579
102
{ACAD_REACTORS
330
1578
102
}
330
1578
100
AcDbSortentsTable
330
2
331
1F
  5
1F
331
20
  5
20
331
21
  5
21
331
23
  5
23
  0
GROUP
  5
CFC
102
{ACAD_REACTORS
330
18
102
}
330
18
100
AcDbGroup
300

 70
     1
 71
     1
  0
GROUP
  5
2FE9
102
{ACAD_REACTORS
330
18
102
}
330
18
100
AcDbGroup
300

 70
     1
 71
     1
  0
GROUP
  5
312A
102
{ACAD_REACTORS
330
18
102
}
330
18
100
AcDbGroup
300

 70
     1
 71
     1
  0
GROUP
  5
15D1
102
{ACAD_REACTORS
330
18
102
}
330
18
100
AcDbGroup
300

 70
     1
 71
     1
  0
GROUP
  5
3154
102
{ACAD_REACTORS
330
18
102
}
330
18
100
AcDbGroup
300

 70
     1
 71
     1
  0
GROUP
  5
327B
102
{ACAD_REACTORS
330
18
102
}
330
18
100
AcDbGroup
300

 70
     1
 71
     1
  0
GROUP
  5
32AA
102
{ACAD_REACTORS
330
18
102
}
330
18
100
AcDbGroup
300

 70
     1
 71
     1
  0
GROUP
  5
3650
102
{ACAD_REACTORS
330
18
102
}
330
18
100
AcDbGroup
300

 70
     1
 71
     1
  0
GROUP
  5
367C
102
{ACAD_REACTORS
330
18
102
}
330
18
100
AcDbGroup
300

 70
     1
 71
     1
  0
GROUP
  5
1682
102
{ACAD_REACTORS
330
18
102
}
330
18
100
AcDbGroup
300

 70
     1
 71
     1
  0
GROUP
  5
1827
102
{ACAD_REACTORS
330
18
102
}
330
18
100
AcDbGroup
300

 70
     1
 71
     1
  0
GROUP
  5
218C
102
{ACAD_REACTORS
330
18
102
}
330
18
100
AcDbGroup
300

 70
     1
 71
     1
  0
GROUP
  5
18ED
102
{ACAD_REACTORS
330
18
102
}
330
18
100
AcDbGroup
300

 70
     1
 71
     1
  0
GROUP
  5
19E5
102
{ACAD_REACTORS
330
18
102
}
330
18
100
AcDbGroup
300

 70
     1
 71
     1
  0
GROUP
  5
1F8A
102
{ACAD_REACTORS
330
18
102
}
330
18
100
AcDbGroup
300

 70
     1
 71
     1
  0
GROUP
  5
2108
102
{ACAD_REACTORS
330
18
102
}
330
18
100
AcDbGroup
300

 70
     1
 71
     1
  0
GROUP
  5
3732
102
{ACAD_REACTORS
330
18
102
}
330
18
100
AcDbGroup
300

 70
     1
 71
     1
  0
GROUP
  5
37CF
102
{ACAD_REACTORS
330
18
102
}
330
18
100
AcDbGroup
300

 70
     1
 71
     1
  0
GROUP
  5
3837
102
{ACAD_REACTORS
330
18
102
}
330
18
100
AcDbGroup
300

 70
     1
 71
     1
  0
GROUP
  5
38C3
102
{ACAD_REACTORS
330
18
102
}
330
18
100
AcDbGroup
300

 70
     1
 71
     1
  0
GROUP
  5
39C3
102
{ACAD_REACTORS
330
18
102
}
330
18
100
AcDbGroup
300

 70
     1
 71
     1
  0
GROUP
  5
2335
102
{ACAD_REACTORS
330
18
102
}
330
18
100
AcDbGroup
300

 70
     1
 71
     1
  0
GROUP
  5
3AB4
102
{ACAD_REACTORS
330
18
102
}
330
18
100
AcDbGroup
300

 70
     1
 71
     1
  0
GROUP
  5
3BBC
102
{ACAD_REACTORS
330
18
102
}
330
18
100
AcDbGroup
300

 70
     1
 71
     1
  0
GROUP
  5
3D8C
102
{ACAD_REACTORS
330
18
102
}
330
18
100
AcDbGroup
300

 70
     1
 71
     1
  0
GROUP
  5
3FA3
102
{ACAD_REACTORS
330
18
102
}
330
18
100
AcDbGroup
300

 70
     1
 71
     1
  0
GROUP
  5
419F
102
{ACAD_REACTORS
330
18
102
}
330
18
100
AcDbGroup
300

 70
     1
 71
     1
  0
GROUP
  5
439B
102
{ACAD_REACTORS
330
18
102
}
330
18
100
AcDbGroup
300

 70
     1
 71
     1
340
430D
340
430C
340
430B
340
430A
340
4309
340
4308
340
4307
340
4306
340
4305
340
4304
340
4303
340
4302
340
4301
340
4300
340
42FF
340
42FE
340
42FD
340
42FC
340
42FB
340
42FA
340
42F9
340
42F8
340
42F7
340
42F6
340
42F5
340
42F4
340
42F3
340
42F2
340
42F1
340
42F0
340
42EF
340
42EE
340
42ED
340
42EC
340
42EB
340
42EA
340
42E9
340
42E8
340
42E7
340
42E6
340
42E5
340
42E4
340
42E3
340
42E2
340
42E1
340
42E0
340
42DF
340
42DE
340
42DD
340
42DC
340
42DB
340
42DA
340
42D9
340
42D8
340
42D7
340
42D6
340
42D5
340
42D4
340
42D3
340
42D2
340
42D1
340
42D0
340
42CF
340
42CE
340
42CD
340
42CC
340
42CB
340
42CA
340
42C9
340
42C8
340
42C7
340
42C6
340
42C5
340
42C4
340
42C3
340
42C2
340
42C1
340
42C0
340
42BF
340
42BE
340
42BD
340
42BC
340
42BB
340
42BA
340
42B9
340
42B8
340
42B7
340
42B6
340
42B5
340
42B4
340
42B3
340
42B2
340
42B1
340
42B0
340
42AF
340
42AE
340
42AD
340
42AC
340
42AB
340
42AA
340
42A9
340
42A8
340
42A7
340
42A6
340
42A5
340
42A4
340
42A3
340
42A1
340
42A0
340
429F
340
429E
340
429D
340
429C
340
429B
340
429A
340
4299
340
4298
340
4297
340
4296
340
4295
340
4294
340
4293
340
4292
340
4291
340
4290
340
428F
340
428E
340
428D
340
428C
340
428B
340
428A
340
4289
340
4288
340
4287
340
4286
340
4285
340
4284
340
4283
340
4282
340
4281
340
4280
340
427F
340
427E
340
427D
340
427C
340
427B
340
427A
340
4279
340
4278
340
4277
340
4276
340
4275
340
4274
340
4273
340
4272
340
4271
340
4270
340
426F
340
426E
340
426D
340
426C
340
426B
340
426A
340
4269
340
4268
340
4267
340
4266
340
4265
340
4264
340
4263
340
4262
340
4261
340
4260
340
425F
  0
GROUP
  5
2862
102
{ACAD_REACTORS
330
18
102
}
330
18
100
AcDbGroup
300

 70
     1
 71
     1
  0
GROUP
  5
299B
102
{ACAD_REACTORS
330
18
102
}
330
18
100
AcDbGroup
300

 70
     1
 71
     1
  0
GROUP
  5
2C07
102
{ACAD_REACTORS
330
18
102
}
330
18
100
AcDbGroup
300

 70
     1
 71
     1
  0
GROUP
  5
2DB5
102
{ACAD_REACTORS
330
18
102
}
330
18
100
AcDbGroup
300

 70
     1
 71
     1
  0
GROUP
  5
2E88
102
{ACAD_REACTORS
330
18
102
}
330
18
100
AcDbGroup
300

 70
     1
 71
     1
  0
GROUP
  5
2FBC
102
{ACAD_REACTORS
330
18
102
}
330
18
100
AcDbGroup
300

 70
     1
 71
     1
  0
LAYOUT
  5
5A
102
{ACAD_XDICTIONARY
360
43A4
102
}
102
{ACAD_REACTORS
330
58
102
}
330
58
100
AcDbPlotSettings
  1

  2
なし
  4

  6

 40
0.0
 41
0.0
 42
0.0
 43
0.0
 44
0.0
 45
0.0
 46
0.0
 47
0.0
 48
0.0
 49
0.0
140
0.0
141
0.0
142
1.0
143
1.0
 70
  1712
 72
     0
 73
     0
 74
     0
  7
monochrome.ctb
 75
     0
147
1.0
148
0.0
149
0.0
100
AcDbLayout
  1
Model
 70
     1
 71
     0
 10
0.0
 20
0.0
 11
12.0
 21
9.0
 12
0.0
 22
0.0
 32
0.0
 14
0.0
 24
0.0
 34
0.0
 15
0.0
 25
0.0
 35
0.0
146
0.0
 13
0.0
 23
0.0
 33
0.0
 16
1.0
 26
0.0
 36
0.0
 17
0.0
 27
1.0
 37
0.0
 76
     0
330
2
  0
LAYOUT
  5
5B
102
{ACAD_XDICTIONARY
360
43A6
102
}
102
{ACAD_REACTORS
330
58
102
}
330
58
100
AcDbPlotSettings
  1

  2
なし
  4

  6

 40
0.0
 41
0.0
 42
0.0
 43
0.0
 44
0.0
 45
0.0
 46
0.0
 47
0.0
 48
0.0
 49
0.0
140
0.0
141
0.0
142
1.0
143
1.0
 70
   688
 72
     0
 73
     0
 74
     5
  7
monochrome.ctb
 75
    16
147
1.0
148
0.0
149
0.0
100
AcDbLayout
  1
ﾚｲｱｳﾄ1
 70
     1
 71
     1
 10
0.0
 20
0.0
 11
12.0
 21
9.0
 12
0.0
 22
0.0
 32
0.0
 14
1.000000000000000E+20
 24
1.000000000000000E+20
 34
1.000000000000000E+20
 15
-1.000000000000000E+20
 25
-1.000000000000000E+20
 35
-1.000000000000000E+20
146
0.0
 13
0.0
 23
0.0
 33
0.0
 16
1.0
 26
0.0
 36
0.0
 17
0.0
 27
1.0
 37
0.0
 76
     0
330
7
  0
MLINESTYLE
  5
1D
102
{ACAD_REACTORS
330
19
102
}
330
19
100
AcDbMlineStyle
  2
STANDARD
 70
     0
  3

 62
   256
 51
90.0
 52
90.0
 71
     2
 49
0.5
 62
   256
  6
BYLAYER
 49
-0.5
 62
   256
  6
BYLAYER
  0
ACDBPLACEHOLDER
  5
57
102
{ACAD_REACTORS
330
56
102
}
330
56
  0
TABLESTYLE
  5
146
102
{ACAD_REACTORS
330
145
102
}
330
145
100
AcDbTableStyle
  3
Standard
 70
     0
 71
     0
 40
0.06
 41
0.06
280
     0
281
     0
  7
STANDARD
140
0.18
170
     2
 62
     0
 63
     7
283
     0
274
    -2
284
     1
 64
     0
275
    -2
285
     1
 65
     0
276
    -2
286
     1
 66
     0
277
    -2
287
     1
 67
     0
278
    -2
288
     1
 68
     0
279
    -2
289
     1
 69
     0
  7
STANDARD
140
0.25
170
     5
 62
     0
 63
     7
283
     0
274
    -2
284
     1
 64
     0
275
    -2
285
     1
 65
     0
276
    -2
286
     1
 66
     0
277
    -2
287
     1
 67
     0
278
    -2
288
     1
 68
     0
279
    -2
289
     1
 69
     0
  7
STANDARD
140
0.18
170
     5
 62
     0
 63
     7
283
     0
274
    -2
284
     1
 64
     0
275
    -2
285
     1
 65
     0
276
    -2
286
     1
 66
     0
277
    -2
287
     1
 67
     0
278
    -2
288
     1
 68
     0
279
    -2
289
     1
 69
     0
  0
DICTIONARYVAR
  5
1D2
102
{ACAD_REACTORS
330
1D1
102
}
330
1D1
100
DictionaryVariables
280
     0
  1
STANDARD
  0
DICTIONARYVAR
  5
D03
102
{ACAD_REACTORS
330
1D1
102
}
330
1D1
100
DictionaryVariables
280
     0
  1
1
  0
DICTIONARYVAR
  5
D04
102
{ACAD_REACTORS
330
1D1
102
}
330
1D1
100
DictionaryVariables
280
     0
  1

  0
DICTIONARY
  5
43A4
330
5A
100
AcDbDictionary
280
     1
281
     1
  3
ACAD_XREC_ROUNDTRIP
360
43A5
  0
DICTIONARY
  5
43A6
330
5B
100
AcDbDictionary
280
     1
281
     1
  3
ACAD_XREC_ROUNDTRIP
360
43A7
  0
XRECORD
  5
43A5
102
{ACAD_REACTORS
330
43A4
102
}
330
43A4
100
AcDbXrecord
280
     1
102
SHADEPLOT
 70
     0
102
SHADEPLOTRESLEVEL
 70
     2
102
SHADEPLOTCUSTOMDPI
 70
   300
  0
XRECORD
  5
43A7
102
{ACAD_REACTORS
330
43A6
102
}
330
43A6
100
AcDbXrecord
280
     1
102
SHADEPLOT
 70
     0
102
SHADEPLOTRESLEVEL
 70
     2
102
SHADEPLOTCUSTOMDPI
 70
   300
  0
ENDSEC
  0
EOF
