  0
SECTION
  2
HEADER
  9
$ACADVER
  1
AC1015
  9
$ACADMAINTVER
 70
    20
  9
$DWGCODEPAGE
  3
ANSI_932
  9
$INSBASE
 10
922.019522
 20
-675.4306699999999
 30
0.0
  9
$EXTMIN
 10
-189.1746870863535
 20
-0.0167891672346059
 30
-0.0000000000000053
  9
$EXTMAX
 10
284.7332074179144
 20
267.7581961443812
 30
0.0000000000000099
  9
$LIMMIN
 10
0.0
 20
0.0
  9
$LIMMAX
 10
420.0
 20
297.0
  9
$ORTHOMODE
 70
     1
  9
$REGENMODE
 70
     1
  9
$FILLMODE
 70
     1
  9
$QTEXTMODE
 70
     0
  9
$MIRRTEXT
 70
     1
  9
$LTSCALE
 40
1.0
  9
$ATTMODE
 70
     1
  9
$TEXTSIZE
 40
30.0
  9
$TRACEWID
 40
0.05
  9
$TEXTSTYLE
  7
SUNPOU
  9
$CLAYER
  8
0
  9
$CELTYPE
  6
BYLAYER
  9
$CECOLOR
 62
   256
  9
$CELTSCALE
 40
1.0
  9
$DISPSILH
 70
     0
  9
$DIMSCALE
 40
1.0
  9
$DIMASZ
 40
2.0
  9
$DIMEXO
 40
10.0
  9
$DIMDLI
 40
0.38
  9
$DIMRND
 40
0.0
  9
$DIMDLE
 40
0.0
  9
$DIMEXE
 40
0.0
  9
$DIMTP
 40
0.0
  9
$DIMTM
 40
0.0
  9
$DIMTXT
 40
10.0
  9
$DIMCEN
 40
0.0
  9
$DIMTSZ
 40
0.0
  9
$DIMTOL
 70
     0
  9
$DIMLIM
 70
     0
  9
$DIMTIH
 70
     0
  9
$DIMTOH
 70
     0
  9
$DIMSE1
 70
     0
  9
$DIMSE2
 70
     0
  9
$DIMTAD
 70
     1
  9
$DIMZIN
 70
     0
  9
$DIMBLK
  1
Dot
  9
$DIMASO
 70
     1
  9
$DIMSHO
 70
     1
  9
$DIMPOST
  1

  9
$DIMAPOST
  1

  9
$DIMALT
 70
     0
  9
$DIMALTD
 70
     2
  9
$DIMALTF
 40
25.4
  9
$DIMLFAC
 40
1.0
  9
$DIMTOFL
 70
     0
  9
$DIMTVP
 40
0.0
  9
$DIMTIX
 70
     0
  9
$DIMSOXD
 70
     0
  9
$DIMSAH
 70
     0
  9
$DIMBLK1
  1

  9
$DIMBLK2
  1

  9
$DIMSTYLE
  2
STANDARD
  9
$DIMCLRD
 70
    60
  9
$DIMCLRE
 70
    70
  9
$DIMCLRT
 70
    60
  9
$DIMTFAC
 40
0.064286
  9
$DIMGAP
 40
3.0
  9
$DIMJUST
 70
     0
  9
$DIMSD1
 70
     0
  9
$DIMSD2
 70
     0
  9
$DIMTOLJ
 70
     1
  9
$DIMTZIN
 70
     0
  9
$DIMALTZ
 70
     0
  9
$DIMALTTZ
 70
     0
  9
$DIMUPT
 70
     0
  9
$DIMDEC
 70
     0
  9
$DIMTDEC
 70
     0
  9
$DIMALTU
 70
     2
  9
$DIMALTTD
 70
     2
  9
$DIMTXSTY
  7
SUNPOU
  9
$DIMAUNIT
 70
     0
  9
$DIMADEC
 70
     0
  9
$DIMALTRND
 40
0.0
  9
$DIMAZIN
 70
     0
  9
$DIMDSEP
 70
    46
  9
$DIMATFIT
 70
     3
  9
$DIMFRAC
 70
     0
  9
$DIMLDRBLK
  1

  9
$DIMLUNIT
 70
     2
  9
$DIMLWD
 70
    -2
  9
$DIMLWE
 70
    -2
  9
$DIMTMOVE
 70
     0
  9
$LUNITS
 70
     2
  9
$LUPREC
 70
     5
  9
$SKETCHINC
 40
0.1
  9
$FILLETRAD
 40
0.0
  9
$AUNITS
 70
     0
  9
$AUPREC
 70
     0
  9
$MENU
  1
acad
  9
$ELEVATION
 40
0.0
  9
$PELEVATION
 40
0.0
  9
$THICKNESS
 40
0.0
  9
$LIMCHECK
 70
     0
  9
$CHAMFERA
 40
0.0
  9
$CHAMFERB
 40
0.0
  9
$CHAMFERC
 40
0.0
  9
$CHAMFERD
 40
0.0
  9
$SKPOLY
 70
     0
  9
$TDCREATE
 40
2450623.654673033
  9
$TDUCREATE
 40
2450623.279673032
  9
$TDUPDATE
 40
2453858.599332964
  9
$TDUUPDATE
 40
2453858.224332963
  9
$TDINDWG
 40
0.1656029051
  9
$TDUSRTIMER
 40
0.1656027315
  9
$USRTIMER
 70
     1
  9
$ANGBASE
 50
0.0
  9
$ANGDIR
 70
     0
  9
$PDMODE
 70
     0
  9
$PDSIZE
 40
0.0
  9
$PLINEWID
 40
0.0
  9
$SPLFRAME
 70
     0
  9
$SPLINETYPE
 70
     6
  9
$SPLINESEGS
 70
     8
  9
$HANDSEED
  5
41A6
  9
$SURFTAB1
 70
     6
  9
$SURFTAB2
 70
     6
  9
$SURFTYPE
 70
     6
  9
$SURFU
 70
     6
  9
$SURFV
 70
     6
  9
$UCSBASE
  2

  9
$UCSNAME
  2

  9
$UCSORG
 10
0.0
 20
0.0
 30
0.0
  9
$UCSXDIR
 10
1.0
 20
0.0
 30
0.0
  9
$UCSYDIR
 10
0.0
 20
1.0
 30
0.0
  9
$UCSORTHOREF
  2

  9
$UCSORTHOVIEW
 70
     0
  9
$UCSORGTOP
 10
0.0
 20
0.0
 30
0.0
  9
$UCSORGBOTTOM
 10
0.0
 20
0.0
 30
0.0
  9
$UCSORGLEFT
 10
0.0
 20
0.0
 30
0.0
  9
$UCSORGRIGHT
 10
0.0
 20
0.0
 30
0.0
  9
$UCSORGFRONT
 10
0.0
 20
0.0
 30
0.0
  9
$UCSORGBACK
 10
0.0
 20
0.0
 30
0.0
  9
$PUCSBASE
  2

  9
$PUCSNAME
  2

  9
$PUCSORG
 10
0.0
 20
0.0
 30
0.0
  9
$PUCSXDIR
 10
1.0
 20
0.0
 30
0.0
  9
$PUCSYDIR
 10
0.0
 20
1.0
 30
0.0
  9
$PUCSORTHOREF
  2

  9
$PUCSORTHOVIEW
 70
     0
  9
$PUCSORGTOP
 10
0.0
 20
0.0
 30
0.0
  9
$PUCSORGBOTTOM
 10
0.0
 20
0.0
 30
0.0
  9
$PUCSORGLEFT
 10
0.0
 20
0.0
 30
0.0
  9
$PUCSORGRIGHT
 10
0.0
 20
0.0
 30
0.0
  9
$PUCSORGFRONT
 10
0.0
 20
0.0
 30
0.0
  9
$PUCSORGBACK
 10
0.0
 20
0.0
 30
0.0
  9
$USERI1
 70
     0
  9
$USERI2
 70
     0
  9
$USERI3
 70
     0
  9
$USERI4
 70
     0
  9
$USERI5
 70
     0
  9
$USERR1
 40
0.0
  9
$USERR2
 40
0.0
  9
$USERR3
 40
0.0
  9
$USERR4
 40
0.0
  9
$USERR5
 40
0.0
  9
$WORLDVIEW
 70
     1
  9
$SHADEDGE
 70
     3
  9
$SHADEDIF
 70
    70
  9
$TILEMODE
 70
     1
  9
$MAXACTVP
 70
    16
  9
$PINSBASE
 10
0.0
 20
0.0
 30
0.0
  9
$PLIMCHECK
 70
     0
  9
$PEXTMIN
 10
1.000000000000000E+20
 20
1.000000000000000E+20
 30
1.000000000000000E+20
  9
$PEXTMAX
 10
-1.000000000000000E+20
 20
-1.000000000000000E+20
 30
-1.000000000000000E+20
  9
$PLIMMIN
 10
0.0
 20
0.0
  9
$PLIMMAX
 10
12.0
 20
9.0
  9
$UNITMODE
 70
     0
  9
$VISRETAIN
 70
     0
  9
$PLINEGEN
 70
     0
  9
$PSLTSCALE
 70
     1
  9
$TREEDEPTH
 70
  3020
  9
$CMLSTYLE
  2
STANDARD
  9
$CMLJUST
 70
     0
  9
$CMLSCALE
 40
1.0
  9
$PROXYGRAPHICS
 70
     1
  9
$MEASUREMENT
 70
     0
  9
$CELWEIGHT
370
    -1
  9
$ENDCAPS
280
     0
  9
$JOINSTYLE
280
     0
  9
$LWDISPLAY
290
     0
  9
$INSUNITS
 70
     0
  9
$HYPERLINKBASE
  1

  9
$STYLESHEET
  1

  9
$XEDIT
290
     1
  9
$CEPSNTYPE
380
     0
  9
$PSTYLEMODE
290
     1
  9
$FINGERPRINTGUID
  2
{FB88A696-E29C-4009-92AF-A3599A8169D5}
  9
$VERSIONGUID
  2
{3DDCCB4C-73C9-4AAA-8631-17F1F7483E39}
  9
$EXTNAMES
290
     1
  9
$PSVPSCALE
 40
0.0
  9
$OLESTARTUP
290
     0
  0
ENDSEC
  0
SECTION
  2
CLASSES
  0
CLASS
  1
DICTIONARYVAR
  2
AcDbDictionaryVar
  3
ObjectDBX Classes
 90
        0
280
     0
281
     0
  0
CLASS
  1
ACDBDICTIONARYWDFLT
  2
AcDbDictionaryWithDefault
  3
ObjectDBX Classes
 90
        0
280
     0
281
     0
  0
CLASS
  1
ACDBPLACEHOLDER
  2
AcDbPlaceHolder
  3
ObjectDBX Classes
 90
        0
280
     0
281
     0
  0
CLASS
  1
LAYOUT
  2
AcDbLayout
  3
ObjectDBX Classes
 90
        0
280
     0
281
     0
  0
CLASS
  1
TABLESTYLE
  2
AcDbTableStyle
  3
ObjectDBX Classes
 90
     2047
280
     0
281
     0
  0
CLASS
  1
SORTENTSTABLE
  2
AcDbSortentsTable
  3
ObjectDBX Classes
 90
        0
280
     0
281
     0
  0
ENDSEC
  0
SECTION
  2
TABLES
  0
TABLE
  2
VPORT
  5
12
330
0
100
AcDbSymbolTable
 70
    20
  0
VPORT
  5
41A0
330
12
100
AcDbSymbolTableRecord
100
AcDbViewportTableRecord
  2
*Active
 70
     0
 10
0.0
 20
0.0
 11
1.0
 21
1.0
 12
47.77926016578047
 22
133.8707034885733
 13
0.0
 23
0.0
 14
1.0
 24
1.0
 15
0.0
 25
0.0
 16
0.0
 26
0.0
 36
1.0
 17
0.0
 27
0.0
 37
0.0
 40
305.7629210925959
 41
1.557544757033248
 42
50.0
 43
0.0
 44
0.0
 50
0.0
 51
0.0
 71
     0
 72
 20000
 73
     1
 74
     1
 75
     0
 76
     0
 77
     0
 78
     0
281
     0
 65
     1
110
0.0
120
0.0
130
0.0
111
1.0
121
0.0
131
0.0
112
0.0
122
1.0
132
0.0
 79
     0
146
0.0
  0
ENDTAB
  0
TABLE
  2
LTYPE
  5
D
330
0
100
AcDbSymbolTable
 70
     2
  0
LTYPE
  5
E
330
D
100
AcDbSymbolTableRecord
100
AcDbLinetypeTableRecord
  2
BYBLOCK
 70
     0
  3

 72
    65
 73
     0
 40
0.0
  0
LTYPE
  5
F
330
D
100
AcDbSymbolTableRecord
100
AcDbLinetypeTableRecord
  2
BYLAYER
 70
     0
  3

 72
    65
 73
     0
 40
0.0
  0
LTYPE
  5
5
330
D
100
AcDbSymbolTableRecord
100
AcDbLinetypeTableRecord
  2
CONTINUOUS
 70
     0
  3
Solid line
 72
    65
 73
     0
 40
0.0
  0
ENDTAB
  0
TABLE
  2
LAYER
  5
A
102
{ACAD_XDICTIONARY
360
1B4
102
}
330
0
100
AcDbSymbolTable
 70
     6
  0
LAYER
  5
4
330
A
100
AcDbSymbolTableRecord
100
AcDbLayerTableRecord
  2
0
 70
     0
 62
     7
  6
CONTINUOUS
370
    -3
390
57
  0
LAYER
  5
25
330
A
100
AcDbSymbolTableRecord
100
AcDbLayerTableRecord
  2
KIJUN
 70
     0
 62
     7
  6
CONTINUOUS
370
    -3
390
57
  0
LAYER
  5
22
330
A
100
AcDbSymbolTableRecord
100
AcDbLayerTableRecord
  2
HOJO
 70
     0
 62
     3
  6
CONTINUOUS
370
    -3
390
57
  0
LAYER
  5
1B
330
A
100
AcDbSymbolTableRecord
100
AcDbLayerTableRecord
  2
WAKU
 70
     0
 62
     1
  6
CONTINUOUS
370
    -3
390
57
  0
LAYER
  5
31
330
A
100
AcDbSymbolTableRecord
100
AcDbLayerTableRecord
  2
DEFPOINTS
 70
     0
 62
     7
  6
CONTINUOUS
290
     0
370
    -3
390
57
  0
LAYER
  5
28
330
A
100
AcDbSymbolTableRecord
100
AcDbLayerTableRecord
  2
SUNPOU
 70
     0
 62
    70
  6
CONTINUOUS
370
    -3
390
57
  0
ENDTAB
  0
TABLE
  2
STYLE
  5
B
330
0
100
AcDbSymbolTable
 70
     3
  0
STYLE
  5
C
330
B
100
AcDbSymbolTableRecord
100
AcDbTextStyleTableRecord
  2
STANDARD
 70
     0
 40
0.0
 41
1.0
 50
0.0
 71
     0
 42
0.2
  3
txt
  4

  0
STYLE
  5
1C
330
B
100
AcDbSymbolTableRecord
100
AcDbTextStyleTableRecord
  2
SUNPOU
 70
     0
 40
0.0
 41
1.0
 50
0.0
 71
     0
 42
30.0
  3
txt
  4
bigfont
  0
STYLE
  5
14A
330
B
100
AcDbSymbolTableRecord
100
AcDbTextStyleTableRecord
  2
LIFE
 70
     0
 40
0.0
 41
0.7
 50
0.0
 71
     0
 42
10.0
  3
romans
  4
extfont
  0
ENDTAB
  0
TABLE
  2
VIEW
  5
10
330
0
100
AcDbSymbolTable
 70
     0
  0
ENDTAB
  0
TABLE
  2
UCS
  5
11
330
0
100
AcDbSymbolTable
 70
     0
  0
ENDTAB
  0
TABLE
  2
APPID
  5
14
330
0
100
AcDbSymbolTable
 70
    10
  0
APPID
  5
15
330
14
100
AcDbSymbolTableRecord
100
AcDbRegAppTableRecord
  2
ACAD
 70
     0
  0
APPID
  5
1D3
330
14
100
AcDbSymbolTableRecord
100
AcDbRegAppTableRecord
  2
ACAD_DSTYLE_DIMTEXT_FILL
 70
     0
  0
APPID
  5
1D4
330
14
100
AcDbSymbolTableRecord
100
AcDbRegAppTableRecord
  2
ACAD_DSTYLE_DIMEXT_LENGTH
 70
     0
  0
APPID
  5
1D5
330
14
100
AcDbSymbolTableRecord
100
AcDbRegAppTableRecord
  2
ACAD_DSTYLE_DIMEXT_ENABLED
 70
     0
  0
APPID
  5
1D6
330
14
100
AcDbSymbolTableRecord
100
AcDbRegAppTableRecord
  2
ACAD_DSTYLE_DIM_LINETYPE
 70
     0
  0
APPID
  5
1D7
330
14
100
AcDbSymbolTableRecord
100
AcDbRegAppTableRecord
  2
ACAD_DSTYLE_DIM_EXT1_LINETYPE
 70
     0
  0
APPID
  5
1D8
330
14
100
AcDbSymbolTableRecord
100
AcDbRegAppTableRecord
  2
ACAD_DSTYLE_DIM_EXT2_LINETYPE
 70
     0
  0
APPID
  5
294
330
14
100
AcDbSymbolTableRecord
100
AcDbRegAppTableRecord
  2
ACAD_DSTYLE_DIMJOGGED_JOGANGLE_SYMBOL
 70
     0
  0
APPID
  5
478
330
14
100
AcDbSymbolTableRecord
100
AcDbRegAppTableRecord
  2
ACAD_DSTYLE_DIMARC_LENGTH_SYMBOL
 70
     0
  0
APPID
  5
157B
330
14
100
AcDbSymbolTableRecord
100
AcDbRegAppTableRecord
  2
ACAD_EXEMPT_FROM_CAD_STANDARDS
 70
     0
  0
ENDTAB
  0
TABLE
  2
DIMSTYLE
  5
16
330
0
100
AcDbSymbolTable
 70
     2
100
AcDbDimStyleTable
 71
     1
340
1E
  0
DIMSTYLE
105
1E
102
{ACAD_REACTORS
330
4112
330
411F
102
}
330
16
100
AcDbSymbolTableRecord
100
AcDbDimStyleTableRecord
  2
STANDARD
 70
     0
340
C
  0
ENDTAB
  0
TABLE
  2
BLOCK_RECORD
  5
1
330
0
100
AcDbSymbolTable
 70
    94
  0
BLOCK_RECORD
  5
2
102
{ACAD_XDICTIONARY
360
1578
102
}
330
1
100
AcDbSymbolTableRecord
100
AcDbBlockTableRecord
  2
*MODEL_SPACE
340
5A
  0
BLOCK_RECORD
  5
7
330
1
100
AcDbSymbolTableRecord
100
AcDbBlockTableRecord
  2
*PAPER_SPACE
340
5B
  0
BLOCK_RECORD
  5
109
330
1
100
AcDbSymbolTableRecord
100
AcDbBlockTableRecord
  2
_Dot
340
0
102
{BLKREFS
331
CF6
331
CF7
331
15B9
331
15BA
331
15CB
331
15CC
331
1664
331
1665
331
1686
331
1687
331
1818
331
1819
331
1821
331
1822
331
18DE
331
18DF
331
18E7
331
18E8
331
19C4
331
19C5
331
19DF
331
19E0
331
1F7B
331
1F7C
331
1F84
331
1F85
331
20F9
331
20FA
331
2102
331
2103
331
2165
331
2166
331
2172
331
2173
331
2314
331
2315
331
2326
331
2327
331
232F
331
2330
331
2834
331
2835
331
2848
331
2849
331
298C
331
298D
331
2995
331
2996
331
2BF8
331
2BF9
331
2C01
331
2C02
331
2DA5
331
2DA6
331
2DAE
331
2DAF
331
2E70
331
2E71
331
2E82
331
2E83
331
2FAC
331
2FAD
331
2FB5
331
2FB6
331
311A
331
311B
331
3123
331
3124
331
32AE
331
32AF
331
32B7
331
32B8
331
3692
331
3693
331
369B
331
369C
331
371A
331
371B
331
3743
331
3744
331
39C7
331
39C8
331
3A9C
331
3A9D
331
3AAE
331
3AAF
331
3BA4
331
3BA5
331
3BB6
331
3BB7
331
3D99
331
3D9A
331
3DAB
331
3DAC
331
3F8B
331
3F8C
331
3F9D
331
3F9E
331
4187
331
4188
331
4199
331
419A
102
}
  0
BLOCK_RECORD
  5
35E9
330
1
100
AcDbSymbolTableRecord
100
AcDbBlockTableRecord
  2
*D68
340
0
  0
BLOCK_RECORD
  5
35F6
330
1
100
AcDbSymbolTableRecord
100
AcDbBlockTableRecord
  2
*D69
340
0
  0
BLOCK_RECORD
  5
370A
330
1
100
AcDbSymbolTableRecord
100
AcDbBlockTableRecord
  2
*D71
340
0
  0
BLOCK_RECORD
  5
3734
330
1
100
AcDbSymbolTableRecord
100
AcDbBlockTableRecord
  2
*D73
340
0
  0
BLOCK_RECORD
  5
37B1
330
1
100
AcDbSymbolTableRecord
100
AcDbBlockTableRecord
  2
*D75
340
0
  0
BLOCK_RECORD
  5
3A45
330
1
100
AcDbSymbolTableRecord
100
AcDbBlockTableRecord
  2
*D80
340
0
  0
BLOCK_RECORD
  5
3A52
330
1
100
AcDbSymbolTableRecord
100
AcDbBlockTableRecord
  2
*D81
340
0
  0
BLOCK_RECORD
  5
3B2D
330
1
100
AcDbSymbolTableRecord
100
AcDbBlockTableRecord
  2
*D83
340
0
  0
BLOCK_RECORD
  5
3B3A
330
1
100
AcDbSymbolTableRecord
100
AcDbBlockTableRecord
  2
*D84
340
0
  0
BLOCK_RECORD
  5
3D2D
330
1
100
AcDbSymbolTableRecord
100
AcDbBlockTableRecord
  2
*D86
340
0
  0
BLOCK_RECORD
  5
3D3A
330
1
100
AcDbSymbolTableRecord
100
AcDbBlockTableRecord
  2
*D87
340
0
  0
BLOCK_RECORD
  5
3F20
330
1
100
AcDbSymbolTableRecord
100
AcDbBlockTableRecord
  2
*D89
340
0
  0
BLOCK_RECORD
  5
3F2D
330
1
100
AcDbSymbolTableRecord
100
AcDbBlockTableRecord
  2
*D90
340
0
  0
BLOCK_RECORD
  5
4113
330
1
100
AcDbSymbolTableRecord
100
AcDbBlockTableRecord
  2
*D92
340
0
  0
BLOCK_RECORD
  5
4120
330
1
100
AcDbSymbolTableRecord
100
AcDbBlockTableRecord
  2
*D93
340
0
  0
ENDTAB
  0
ENDSEC
  0
SECTION
  2
BLOCKS
  0
BLOCK
  5
3
330
2
100
AcDbEntity
  8
0
100
AcDbBlockBegin
  2
*MODEL_SPACE
 70
     0
 10
0.0
 20
0.0
 30
0.0
  3
*MODEL_SPACE
  1

  0
ENDBLK
  5
6
330
2
100
AcDbEntity
  8
0
100
AcDbBlockEnd
  0
BLOCK
  5
8
330
7
100
AcDbEntity
 67
     1
  8
0
100
AcDbBlockBegin
  2
*PAPER_SPACE
 70
     0
 10
0.0
 20
0.0
 30
0.0
  3
*PAPER_SPACE
  1

  0
ENDBLK
  5
9
330
7
100
AcDbEntity
 67
     1
  8
0
100
AcDbBlockEnd
  0
BLOCK
  5
10C
330
109
100
AcDbEntity
  8
0
100
AcDbBlockBegin
  2
_Dot
 70
     0
 10
0.0
 20
0.0
 30
0.0
  3
_Dot
  1

  0
LWPOLYLINE
  5
10A
330
109
100
AcDbEntity
  8
0
  6
ByBlock
 62
     0
100
AcDbPolyline
 90
        2
 70
     1
 43
0.5
 10
-0.25
 20
0.0
 42
1.0
 10
0.25
 20
0.0
 42
1.0
  0
LINE
  5
10B
330
109
100
AcDbEntity
  8
0
  6
ByBlock
 62
     0
370
    -2
100
AcDbLine
 10
-0.5
 20
0.0
 30
0.0
 11
-1.0
 21
0.0
 31
0.0
  0
ENDBLK
  5
10D
330
109
100
AcDbEntity
  8
0
100
AcDbBlockEnd
  0
BLOCK
  5
35F3
330
35E9
100
AcDbEntity
  8
0
100
AcDbBlockBegin
  2
*D68
 70
     1
 10
0.0
 20
0.0
 30
0.0
  3
*D68
  1

  0
LINE
  5
368F
330
35E9
100
AcDbEntity
  8
SUNPOU
 62
    70
370
    -2
100
AcDbLine
 10
-57.31304931990838
 20
149.8921824087356
 30
0.0
 11
-57.31304931990837
 21
205.1481820578692
 31
0.0
  0
LINE
  5
3690
330
35E9
100
AcDbEntity
  8
SUNPOU
 62
    70
370
    -2
100
AcDbLine
 10
248.6869506800916
 20
150.5513573235502
 30
0.0
 11
248.6869506800916
 21
205.1481820578692
 31
0.0
  0
LINE
  5
3691
330
35E9
100
AcDbEntity
  8
SUNPOU
 62
    60
370
    -2
100
AcDbLine
 10
-55.31304931990836
 20
205.1481820578692
 30
0.0
 11
246.6869506800916
 21
205.1481820578692
 31
0.0
  0
INSERT
  5
3692
330
35E9
100
AcDbEntity
  8
SUNPOU
 62
    60
370
    -2
100
AcDbBlockReference
  2
_Dot
 10
-57.31304931990837
 20
205.1481820578692
 30
0.0
 41
2.0
 42
2.0
 43
2.0
 50
180.0
  0
INSERT
  5
3693
330
35E9
100
AcDbEntity
  8
SUNPOU
 62
    60
370
    -2
100
AcDbBlockReference
  2
_Dot
 10
248.6869506800916
 20
205.1481820578692
 30
0.0
 41
2.0
 42
2.0
 43
2.0
  0
MTEXT
  5
3694
330
35E9
100
AcDbEntity
  8
SUNPOU
 62
    60
100
AcDbMText
 10
95.68695068009162
 20
213.1481820578692
 30
0.0
 40
10.0
 41
0.0
 71
     5
 72
     1
  1
\A1;306
  7
SUNPOU
 73
     1
 44
1.0
1001
ACAD
1000
MTEXTBEGIN
1070
    73
1070
     1
1070
    44
1040
1.0
1070
    74
1070
     0
1000
MTEXTEND
  0
POINT
  5
3695
330
35E9
100
AcDbEntity
  8
DEFPOINTS
 62
     0
100
AcDbPoint
 10
-57.31304931990838
 20
139.8921824087356
 30
0.0
  0
POINT
  5
3696
330
35E9
100
AcDbEntity
  8
DEFPOINTS
 62
     0
100
AcDbPoint
 10
248.6869506800916
 20
140.5513573235502
 30
0.0
  0
POINT
  5
3697
330
35E9
100
AcDbEntity
  8
DEFPOINTS
 62
     0
100
AcDbPoint
 10
248.6869506800916
 20
205.1481820578692
 30
0.0
  0
ENDBLK
  5
35F4
330
35E9
100
AcDbEntity
  8
0
100
AcDbBlockEnd
  0
BLOCK
  5
3600
330
35F6
100
AcDbEntity
  8
0
100
AcDbBlockBegin
  2
*D69
 70
     1
 10
0.0
 20
0.0
 30
0.0
  3
*D69
  1

  0
LINE
  5
3698
330
35F6
100
AcDbEntity
  8
SUNPOU
 62
    70
370
    -2
100
AcDbLine
 10
-67.31304931990836
 20
163.7291678152901
 30
0.0
 11
-98.37628952802333
 21
163.7291678152901
 31
0.0
  0
LINE
  5
3699
330
35F6
100
AcDbEntity
  8
SUNPOU
 62
    70
370
    -2
100
AcDbLine
 10
-67.49508426752891
 20
117.7291678152901
 30
0.0
 11
-98.37628952802333
 21
117.7291678152901
 31
0.0
  0
LINE
  5
369A
330
35F6
100
AcDbEntity
  8
SUNPOU
 62
    60
370
    -2
100
AcDbLine
 10
-98.37628952802333
 20
161.7291678152901
 30
0.0
 11
-98.37628952802333
 21
119.7291678152901
 31
0.0
  0
INSERT
  5
369B
330
35F6
100
AcDbEntity
  8
SUNPOU
 62
    60
370
    -2
100
AcDbBlockReference
  2
_Dot
 10
-98.37628952802333
 20
163.7291678152901
 30
0.0
 41
2.0
 42
2.0
 43
2.0
 50
90.0
  0
INSERT
  5
369C
330
35F6
100
AcDbEntity
  8
SUNPOU
 62
    60
370
    -2
100
AcDbBlockReference
  2
_Dot
 10
-98.37628952802333
 20
117.7291678152901
 30
0.0
 41
2.0
 42
2.0
 43
2.0
 50
270.0
  0
MTEXT
  5
369D
330
35F6
100
AcDbEntity
  8
SUNPOU
 62
    60
100
AcDbMText
 10
-106.3762895280233
 20
140.7291678152901
 30
0.0
 40
10.0
 41
0.0
 71
     5
 72
     1
  1
\A1;46
  7
SUNPOU
 11
0.0000000000000001
 21
1.0
 31
0.0
 73
     1
 44
1.0
1001
ACAD
1000
MTEXTBEGIN
1070
    73
1070
     1
1070
    44
1040
1.0
1070
    74
1070
     0
1000
MTEXTEND
  0
POINT
  5
369E
330
35F6
100
AcDbEntity
  8
DEFPOINTS
 62
     0
100
AcDbPoint
 10
-57.31304931990838
 20
163.7291678152901
 30
0.0
  0
POINT
  5
369F
330
35F6
100
AcDbEntity
  8
DEFPOINTS
 62
     0
100
AcDbPoint
 10
-57.49508426752891
 20
117.7291678152901
 30
0.0
  0
POINT
  5
36A0
330
35F6
100
AcDbEntity
  8
DEFPOINTS
 62
     0
100
AcDbPoint
 10
-98.37628952802333
 20
117.7291678152901
 30
0.0
  0
ENDBLK
  5
3601
330
35F6
100
AcDbEntity
  8
0
100
AcDbBlockEnd
  0
BLOCK
  5
3714
330
370A
100
AcDbEntity
  8
0
100
AcDbBlockBegin
  2
*D71
 70
     1
 10
0.0
 20
0.0
 30
0.0
  3
*D71
  1

  0
LINE
  5
3716
330
370A
100
AcDbEntity
  8
SUNPOU
 62
    70
370
    -2
100
AcDbLine
 10
28.04651099485443
 20
67.73890226967478
 30
0.0
 11
28.04651099485444
 21
96.76277591141218
 31
0.0
  0
LINE
  5
3717
330
370A
100
AcDbEntity
  8
SUNPOU
 62
    70
370
    -2
100
AcDbLine
 10
67.88324783326004
 20
68.05244005182112
 30
0.0
 11
67.88324783326004
 21
96.76277591141218
 31
0.0
  0
LINE
  5
3718
330
370A
100
AcDbEntity
  8
SUNPOU
 62
    60
370
    -2
100
AcDbLine
 10
30.04651099485443
 20
96.76277591141218
 30
0.0
 11
65.88324783326005
 21
96.76277591141218
 31
0.0
  0
LINE
  5
3719
330
370A
100
AcDbEntity
  8
SUNPOU
 62
    60
370
    -2
100
AcDbLine
 10
67.88324783326004
 20
96.76277591141218
 30
0.0
 11
155.88324783326
 21
96.76277591141218
 31
0.0
  0
INSERT
  5
371A
330
370A
100
AcDbEntity
  8
SUNPOU
 62
    60
370
    -2
100
AcDbBlockReference
  2
_Dot
 10
28.04651099485444
 20
96.76277591141218
 30
0.0
 41
2.0
 42
2.0
 43
2.0
 50
180.0
  0
INSERT
  5
371B
330
370A
100
AcDbEntity
  8
SUNPOU
 62
    60
370
    -2
100
AcDbBlockReference
  2
_Dot
 10
67.88324783326004
 20
96.76277591141218
 30
0.0
 41
2.0
 42
2.0
 43
2.0
  0
MTEXT
  5
371C
330
370A
100
AcDbEntity
  8
SUNPOU
 62
    60
100
AcDbMText
 10
112.88324783326
 20
104.7627759114122
 30
0.0
 40
10.0
 41
0.0
 71
     5
 72
     1
  1
\A1;39.836737
  7
SUNPOU
 73
     1
 44
1.0
1001
ACAD
1000
MTEXTBEGIN
1070
    73
1070
     1
1070
    44
1040
1.0
1070
    74
1070
     0
1000
MTEXTEND
  0
POINT
  5
371D
330
370A
100
AcDbEntity
  8
DEFPOINTS
 62
     0
100
AcDbPoint
 10
28.04651099485443
 20
57.73890226967478
 30
0.0
  0
POINT
  5
371E
330
370A
100
AcDbEntity
  8
DEFPOINTS
 62
     0
100
AcDbPoint
 10
67.88324783326004
 20
58.05244005182112
 30
0.0
  0
POINT
  5
371F
330
370A
100
AcDbEntity
  8
DEFPOINTS
 62
     0
100
AcDbPoint
 10
67.88324783326004
 20
96.76277591141218
 30
0.0
  0
ENDBLK
  5
3715
330
370A
100
AcDbEntity
  8
0
100
AcDbBlockEnd
  0
BLOCK
  5
373E
330
3734
100
AcDbEntity
  8
0
100
AcDbBlockBegin
  2
*D73
 70
     1
 10
0.0
 20
0.0
 30
0.0
  3
*D73
  1

  0
LINE
  5
3740
330
3734
100
AcDbEntity
  8
SUNPOU
 62
    70
370
    -2
100
AcDbLine
 10
27.89994361320522
 20
69.85225236533939
 30
0.0
 11
27.89994361320522
 21
98.69576219890257
 31
0.0
  0
LINE
  5
3741
330
3734
100
AcDbEntity
  8
SUNPOU
 62
    70
370
    -2
100
AcDbLine
 10
67.89994361320521
 20
69.85225236533939
 30
0.0
 11
67.89994361320521
 21
98.69576219890257
 31
0.0
  0
LINE
  5
3742
330
3734
100
AcDbEntity
  8
SUNPOU
 62
    60
370
    -2
100
AcDbLine
 10
29.89994361320522
 20
98.69576219890257
 30
0.0
 11
65.8999436132052
 21
98.69576219890257
 31
0.0
  0
INSERT
  5
3743
330
3734
100
AcDbEntity
  8
SUNPOU
 62
    60
370
    -2
100
AcDbBlockReference
  2
_Dot
 10
27.89994361320522
 20
98.69576219890257
 30
0.0
 41
2.0
 42
2.0
 43
2.0
 50
180.0
  0
INSERT
  5
3744
330
3734
100
AcDbEntity
  8
SUNPOU
 62
    60
370
    -2
100
AcDbBlockReference
  2
_Dot
 10
67.89994361320521
 20
98.69576219890257
 30
0.0
 41
2.0
 42
2.0
 43
2.0
  0
MTEXT
  5
3745
330
3734
100
AcDbEntity
  8
SUNPOU
 62
    60
100
AcDbMText
 10
47.89994361320521
 20
106.6957621989025
 30
0.0
 40
10.0
 41
0.0
 71
     5
 72
     1
  1
\A1;40φ
  7
SUNPOU
 73
     1
 44
1.0
1001
ACAD
1000
MTEXTBEGIN
1070
    73
1070
     1
1070
    44
1040
1.0
1070
    74
1070
     0
1000
MTEXTEND
  0
POINT
  5
3746
330
3734
100
AcDbEntity
  8
DEFPOINTS
 62
     0
100
AcDbPoint
 10
27.89994361320522
 20
59.85225236533939
 30
0.0
  0
POINT
  5
3747
330
3734
100
AcDbEntity
  8
DEFPOINTS
 62
     0
100
AcDbPoint
 10
67.89994361320521
 20
59.85225236533939
 30
0.0
  0
POINT
  5
3748
330
3734
100
AcDbEntity
  8
DEFPOINTS
 62
     0
100
AcDbPoint
 10
67.89994361320521
 20
98.69576219890257
 30
0.0
  0
ENDBLK
  5
373F
330
3734
100
AcDbEntity
  8
0
100
AcDbBlockEnd
  0
BLOCK
  5
37BB
330
37B1
100
AcDbEntity
  8
0
100
AcDbBlockBegin
  2
*D75
 70
     1
 10
0.0
 20
0.0
 30
0.0
  3
*D75
  1

  0
LINE
  5
39C4
330
37B1
100
AcDbEntity
  8
SUNPOU
 62
    70
370
    -2
100
AcDbLine
 10
-42.54865485741496
 20
157.2140937351553
 30
0.0
 11
-42.54865485741495
 21
282.2045269340939
 31
0.0
  0
LINE
  5
39C5
330
37B1
100
AcDbEntity
  8
SUNPOU
 62
    70
370
    -2
100
AcDbLine
 10
149.451345142585
 20
157.2140937351553
 30
0.0
 11
149.451345142585
 21
282.2045269340939
 31
0.0
  0
LINE
  5
39C6
330
37B1
100
AcDbEntity
  8
SUNPOU
 62
    60
370
    -2
100
AcDbLine
 10
-40.54865485741495
 20
282.2045269340939
 30
0.0
 11
147.451345142585
 21
282.2045269340939
 31
0.0
  0
INSERT
  5
39C7
330
37B1
100
AcDbEntity
  8
SUNPOU
 62
    60
370
    -2
100
AcDbBlockReference
  2
_Dot
 10
-42.54865485741495
 20
282.2045269340939
 30
0.0
 41
2.0
 42
2.0
 43
2.0
 50
180.0
  0
INSERT
  5
39C8
330
37B1
100
AcDbEntity
  8
SUNPOU
 62
    60
370
    -2
100
AcDbBlockReference
  2
_Dot
 10
149.451345142585
 20
282.2045269340939
 30
0.0
 41
2.0
 42
2.0
 43
2.0
  0
MTEXT
  5
39C9
330
37B1
100
AcDbEntity
  8
SUNPOU
 62
    60
100
AcDbMText
 10
53.45134514258504
 20
290.2045269340939
 30
0.0
 40
10.0
 41
0.0
 71
     5
 72
     1
  1
\A1;192φ
  7
SUNPOU
 73
     1
 44
1.0
1001
ACAD
1000
MTEXTBEGIN
1070
    73
1070
     1
1070
    44
1040
1.0
1070
    74
1070
     0
1000
MTEXTEND
  0
POINT
  5
39CA
330
37B1
100
AcDbEntity
  8
DEFPOINTS
 62
     0
100
AcDbPoint
 10
-42.54865485741496
 20
147.2140937351553
 30
0.0
  0
POINT
  5
39CB
330
37B1
100
AcDbEntity
  8
DEFPOINTS
 62
     0
100
AcDbPoint
 10
149.451345142585
 20
147.2140937351553
 30
0.0
  0
POINT
  5
39CC
330
37B1
100
AcDbEntity
  8
DEFPOINTS
 62
     0
100
AcDbPoint
 10
149.451345142585
 20
282.2045269340939
 30
0.0
  0
ENDBLK
  5
37BC
330
37B1
100
AcDbEntity
  8
0
100
AcDbBlockEnd
  0
BLOCK
  5
3A4F
330
3A45
100
AcDbEntity
  8
0
100
AcDbBlockBegin
  2
*D80
 70
     1
 10
0.0
 20
0.0
 30
0.0
  3
*D80
  1

  0
LINE
  5
3AAB
330
3A45
100
AcDbEntity
  8
SUNPOU
 62
    70
370
    -2
100
AcDbLine
 10
-68.96399143244808
 20
170.0383087325503
 30
0.0
 11
-68.96399143244808
 21
206.3986443243337
 31
0.0
  0
LINE
  5
3AAC
330
3A45
100
AcDbEntity
  8
SUNPOU
 62
    70
370
    -2
100
AcDbLine
 10
181.0360085675522
 20
170.3162869883523
 30
0.0
 11
181.0360085675522
 21
206.3986443243337
 31
0.0
  0
LINE
  5
3AAD
330
3A45
100
AcDbEntity
  8
SUNPOU
 62
    60
370
    -2
100
AcDbLine
 10
-66.96399143244808
 20
206.3986443243337
 30
0.0
 11
179.0360085675522
 21
206.3986443243337
 31
0.0
  0
INSERT
  5
3AAE
330
3A45
100
AcDbEntity
  8
SUNPOU
 62
    60
370
    -2
100
AcDbBlockReference
  2
_Dot
 10
-68.96399143244808
 20
206.3986443243337
 30
0.0
 41
2.0
 42
2.0
 43
2.0
 50
180.0
  0
INSERT
  5
3AAF
330
3A45
100
AcDbEntity
  8
SUNPOU
 62
    60
370
    -2
100
AcDbBlockReference
  2
_Dot
 10
181.0360085675522
 20
206.3986443243337
 30
0.0
 41
2.0
 42
2.0
 43
2.0
  0
MTEXT
  5
3AB0
330
3A45
100
AcDbEntity
  8
SUNPOU
 62
    60
100
AcDbMText
 10
56.03600856755208
 20
214.3986443243337
 30
0.0
 40
10.0
 41
0.0
 71
     5
 72
     1
  1
\A1;250
  7
SUNPOU
 73
     1
 44
1.0
1001
ACAD
1000
MTEXTBEGIN
1070
    73
1070
     1
1070
    44
1040
1.0
1070
    74
1070
     0
1000
MTEXTEND
  0
POINT
  5
3AB1
330
3A45
100
AcDbEntity
  8
DEFPOINTS
 62
     0
100
AcDbPoint
 10
-68.96399143244808
 20
160.0383087325503
 30
0.0
  0
POINT
  5
3AB2
330
3A45
100
AcDbEntity
  8
DEFPOINTS
 62
     0
100
AcDbPoint
 10
181.0360085675522
 20
160.3162869883523
 30
0.0
  0
POINT
  5
3AB3
330
3A45
100
AcDbEntity
  8
DEFPOINTS
 62
     0
100
AcDbPoint
 10
181.0360085675522
 20
206.3986443243337
 30
0.0
  0
ENDBLK
  5
3A50
330
3A45
100
AcDbEntity
  8
0
100
AcDbBlockEnd
  0
BLOCK
  5
3A5C
330
3A52
100
AcDbEntity
  8
0
100
AcDbBlockBegin
  2
*D81
 70
     1
 10
0.0
 20
0.0
 30
0.0
  3
*D81
  1

  0
LINE
  5
3A99
330
3A52
100
AcDbEntity
  8
SUNPOU
 62
    70
370
    -2
100
AcDbLine
 10
-78.96399143244808
 20
160.0383087325503
 30
0.0
 11
-111.0858629527327
 21
160.0383087325503
 31
0.0
  0
LINE
  5
3A9A
330
3A52
100
AcDbEntity
  8
SUNPOU
 62
    70
370
    -2
100
AcDbLine
 10
-79.11309215177175
 20
46.03830873255026
 30
0.0
 11
-111.0858629527328
 21
46.03830873255026
 31
0.0
  0
LINE
  5
3A9B
330
3A52
100
AcDbEntity
  8
SUNPOU
 62
    60
370
    -2
100
AcDbLine
 10
-111.0858629527327
 20
158.0383087325503
 30
0.0
 11
-111.0858629527328
 21
48.03830873255027
 31
0.0
  0
INSERT
  5
3A9C
330
3A52
100
AcDbEntity
  8
SUNPOU
 62
    60
370
    -2
100
AcDbBlockReference
  2
_Dot
 10
-111.0858629527327
 20
160.0383087325503
 30
0.0
 41
2.0
 42
2.0
 43
2.0
 50
90.0
  0
INSERT
  5
3A9D
330
3A52
100
AcDbEntity
  8
SUNPOU
 62
    60
370
    -2
100
AcDbBlockReference
  2
_Dot
 10
-111.0858629527328
 20
46.03830873255026
 30
0.0
 41
2.0
 42
2.0
 43
2.0
 50
270.0
  0
MTEXT
  5
3A9E
330
3A52
100
AcDbEntity
  8
SUNPOU
 62
    60
100
AcDbMText
 10
-119.0858629527328
 20
103.0383087325503
 30
0.0
 40
10.0
 41
0.0
 71
     5
 72
     1
  1
\A1;114
  7
SUNPOU
 11
0.0000000000000001
 21
1.0
 31
0.0
 73
     1
 44
1.0
1001
ACAD
1000
MTEXTBEGIN
1070
    73
1070
     1
1070
    44
1040
1.0
1070
    74
1070
     0
1000
MTEXTEND
  0
POINT
  5
3A9F
330
3A52
100
AcDbEntity
  8
DEFPOINTS
 62
     0
100
AcDbPoint
 10
-68.96399143244808
 20
160.0383087325503
 30
0.0
  0
POINT
  5
3AA0
330
3A52
100
AcDbEntity
  8
DEFPOINTS
 62
     0
100
AcDbPoint
 10
-69.11309215177175
 20
46.03830873255026
 30
0.0
  0
POINT
  5
3AA1
330
3A52
100
AcDbEntity
  8
DEFPOINTS
 62
     0
100
AcDbPoint
 10
-111.0858629527328
 20
46.03830873255026
 30
0.0
  0
ENDBLK
  5
3A5D
330
3A52
100
AcDbEntity
  8
0
100
AcDbBlockEnd
  0
BLOCK
  5
3B37
330
3B2D
100
AcDbEntity
  8
0
100
AcDbBlockBegin
  2
*D83
 70
     1
 10
0.0
 20
0.0
 30
0.0
  3
*D83
  1

  0
LINE
  5
3BB3
330
3B2D
100
AcDbEntity
  8
SUNPOU
 62
    70
370
    -2
100
AcDbLine
 10
-9.274404385007244
 20
116.3927336291364
 30
0.0
 11
-9.274404385007242
 21
131.1328898609256
 31
0.0
  0
LINE
  5
3BB4
330
3B2D
100
AcDbEntity
  8
SUNPOU
 62
    70
370
    -2
100
AcDbLine
 10
130.7255956149869
 20
115.4686950255653
 30
0.0
 11
130.7255956149869
 21
131.1328898609256
 31
0.0
  0
LINE
  5
3BB5
330
3B2D
100
AcDbEntity
  8
SUNPOU
 62
    60
370
    -2
100
AcDbLine
 10
-7.274404385007242
 20
131.1328898609256
 30
0.0
 11
128.7255956149869
 21
131.1328898609256
 31
0.0
  0
INSERT
  5
3BB6
330
3B2D
100
AcDbEntity
  8
SUNPOU
 62
    60
370
    -2
100
AcDbBlockReference
  2
_Dot
 10
-9.274404385007242
 20
131.1328898609256
 30
0.0
 41
2.0
 42
2.0
 43
2.0
 50
180.0
  0
INSERT
  5
3BB7
330
3B2D
100
AcDbEntity
  8
SUNPOU
 62
    60
370
    -2
100
AcDbBlockReference
  2
_Dot
 10
130.7255956149869
 20
131.1328898609256
 30
0.0
 41
2.0
 42
2.0
 43
2.0
  0
MTEXT
  5
3BB8
330
3B2D
100
AcDbEntity
  8
SUNPOU
 62
    60
100
AcDbMText
 10
60.72559561498986
 20
139.1328898609256
 30
0.0
 40
10.0
 41
0.0
 71
     5
 72
     1
  1
\A1;140
  7
SUNPOU
 73
     1
 44
1.0
1001
ACAD
1000
MTEXTBEGIN
1070
    73
1070
     1
1070
    44
1040
1.0
1070
    74
1070
     0
1000
MTEXTEND
  0
POINT
  5
3BB9
330
3B2D
100
AcDbEntity
  8
DEFPOINTS
 62
     0
100
AcDbPoint
 10
-9.274404385007244
 20
106.3927336291364
 30
0.0
  0
POINT
  5
3BBA
330
3B2D
100
AcDbEntity
  8
DEFPOINTS
 62
     0
100
AcDbPoint
 10
130.7255956149869
 20
105.4686950255653
 30
0.0
  0
POINT
  5
3BBB
330
3B2D
100
AcDbEntity
  8
DEFPOINTS
 62
     0
100
AcDbPoint
 10
130.7255956149869
 20
131.1328898609256
 30
0.0
  0
ENDBLK
  5
3B38
330
3B2D
100
AcDbEntity
  8
0
100
AcDbBlockEnd
  0
BLOCK
  5
3B44
330
3B3A
100
AcDbEntity
  8
0
100
AcDbBlockBegin
  2
*D84
 70
     1
 10
0.0
 20
0.0
 30
0.0
  3
*D84
  1

  0
LINE
  5
3BA1
330
3B3A
100
AcDbEntity
  8
SUNPOU
 62
    70
370
    -2
100
AcDbLine
 10
-19.27440438500724
 20
106.3927336291364
 30
0.0
 11
-33.65713159452923
 21
106.3927336291365
 31
0.0
  0
LINE
  5
3BA2
330
3B3A
100
AcDbEntity
  8
SUNPOU
 62
    70
370
    -2
100
AcDbLine
 10
-19.43240988204923
 20
46.39273362913645
 30
0.0
 11
-33.65713159452924
 21
46.39273362913645
 31
0.0
  0
LINE
  5
3BA3
330
3B3A
100
AcDbEntity
  8
SUNPOU
 62
    60
370
    -2
100
AcDbLine
 10
-33.65713159452923
 20
104.3927336291365
 30
0.0
 11
-33.65713159452923
 21
48.39273362913645
 31
0.0
  0
INSERT
  5
3BA4
330
3B3A
100
AcDbEntity
  8
SUNPOU
 62
    60
370
    -2
100
AcDbBlockReference
  2
_Dot
 10
-33.65713159452923
 20
106.3927336291365
 30
0.0
 41
2.0
 42
2.0
 43
2.0
 50
90.0
  0
INSERT
  5
3BA5
330
3B3A
100
AcDbEntity
  8
SUNPOU
 62
    60
370
    -2
100
AcDbBlockReference
  2
_Dot
 10
-33.65713159452924
 20
46.39273362913645
 30
0.0
 41
2.0
 42
2.0
 43
2.0
 50
270.0
  0
MTEXT
  5
3BA6
330
3B3A
100
AcDbEntity
  8
SUNPOU
 62
    60
100
AcDbMText
 10
-41.65713159452923
 20
76.39273362913645
 30
0.0
 40
10.0
 41
0.0
 71
     5
 72
     1
  1
\A1;60
  7
SUNPOU
 11
0.0000000000000001
 21
1.0
 31
0.0
 73
     1
 44
1.0
1001
ACAD
1000
MTEXTBEGIN
1070
    73
1070
     1
1070
    44
1040
1.0
1070
    74
1070
     0
1000
MTEXTEND
  0
POINT
  5
3BA7
330
3B3A
100
AcDbEntity
  8
DEFPOINTS
 62
     0
100
AcDbPoint
 10
-9.274404385007244
 20
106.3927336291364
 30
0.0
  0
POINT
  5
3BA8
330
3B3A
100
AcDbEntity
  8
DEFPOINTS
 62
     0
100
AcDbPoint
 10
-9.432409882049228
 20
46.39273362913644
 30
0.0
  0
POINT
  5
3BA9
330
3B3A
100
AcDbEntity
  8
DEFPOINTS
 62
     0
100
AcDbPoint
 10
-33.65713159452924
 20
46.39273362913645
 30
0.0
  0
ENDBLK
  5
3B45
330
3B3A
100
AcDbEntity
  8
0
100
AcDbBlockEnd
  0
BLOCK
  5
3D37
330
3D2D
100
AcDbEntity
  8
0
100
AcDbBlockBegin
  2
*D86
 70
     1
 10
0.0
 20
0.0
 30
0.0
  3
*D86
  1

  0
LINE
  5
3DA8
330
3D2D
100
AcDbEntity
  8
SUNPOU
 62
    70
370
    -2
100
AcDbLine
 10
-216.7182434847339
 20
298.5498201292545
 30
0.0
 11
-216.7182434847339
 21
344.3264832414134
 31
0.0
  0
LINE
  5
3DA9
330
3D2D
100
AcDbEntity
  8
SUNPOU
 62
    70
370
    -2
100
AcDbLine
 10
383.2817565152661
 20
303.5155978063508
 30
0.0
 11
383.2817565152661
 21
344.3264832414134
 31
0.0
  0
LINE
  5
3DAA
330
3D2D
100
AcDbEntity
  8
SUNPOU
 62
    60
370
    -2
100
AcDbLine
 10
-214.7182434847339
 20
344.3264832414134
 30
0.0
 11
381.2817565152661
 21
344.3264832414134
 31
0.0
  0
INSERT
  5
3DAB
330
3D2D
100
AcDbEntity
  8
SUNPOU
 62
    60
370
    -2
100
AcDbBlockReference
  2
_Dot
 10
-216.7182434847339
 20
344.3264832414134
 30
0.0
 41
2.0
 42
2.0
 43
2.0
 50
180.0
  0
INSERT
  5
3DAC
330
3D2D
100
AcDbEntity
  8
SUNPOU
 62
    60
370
    -2
100
AcDbBlockReference
  2
_Dot
 10
383.2817565152661
 20
344.3264832414134
 30
0.0
 41
2.0
 42
2.0
 43
2.0
  0
MTEXT
  5
3DAD
330
3D2D
100
AcDbEntity
  8
SUNPOU
 62
    60
100
AcDbMText
 10
83.28175651526612
 20
352.3264832414134
 30
0.0
 40
10.0
 41
0.0
 71
     5
 72
     1
  1
\A1;600
  7
SUNPOU
 73
     1
 44
1.0
1001
ACAD
1000
MTEXTBEGIN
1070
    73
1070
     1
1070
    44
1040
1.0
1070
    74
1070
     0
1000
MTEXTEND
  0
POINT
  5
3DAE
330
3D2D
100
AcDbEntity
  8
DEFPOINTS
 62
     0
100
AcDbPoint
 10
-216.7182434847339
 20
288.5498201292545
 30
0.0
  0
POINT
  5
3DAF
330
3D2D
100
AcDbEntity
  8
DEFPOINTS
 62
     0
100
AcDbPoint
 10
383.2817565152661
 20
293.5155978063508
 30
0.0
  0
POINT
  5
3DB0
330
3D2D
100
AcDbEntity
  8
DEFPOINTS
 62
     0
100
AcDbPoint
 10
383.2817565152661
 20
344.3264832414134
 30
0.0
  0
ENDBLK
  5
3D38
330
3D2D
100
AcDbEntity
  8
0
100
AcDbBlockEnd
  0
BLOCK
  5
3D44
330
3D3A
100
AcDbEntity
  8
0
100
AcDbBlockBegin
  2
*D87
 70
     1
 10
0.0
 20
0.0
 30
0.0
  3
*D87
  1

  0
LINE
  5
3D96
330
3D3A
100
AcDbEntity
  8
SUNPOU
 62
    70
370
    -2
100
AcDbLine
 10
-226.7182434847339
 20
288.5498201292545
 30
0.0
 11
-304.1079869232616
 21
288.5498201292545
 31
0.0
  0
LINE
  5
3D97
330
3D3A
100
AcDbEntity
  8
SUNPOU
 62
    70
370
    -2
100
AcDbLine
 10
-227.1359776599575
 20
93.54982012925452
 30
0.0
 11
-304.1079869232617
 21
93.54982012925452
 31
0.0
  0
LINE
  5
3D98
330
3D3A
100
AcDbEntity
  8
SUNPOU
 62
    60
370
    -2
100
AcDbLine
 10
-304.1079869232616
 20
286.5498201292545
 30
0.0
 11
-304.1079869232617
 21
95.54982012925453
 31
0.0
  0
INSERT
  5
3D99
330
3D3A
100
AcDbEntity
  8
SUNPOU
 62
    60
370
    -2
100
AcDbBlockReference
  2
_Dot
 10
-304.1079869232616
 20
288.5498201292545
 30
0.0
 41
2.0
 42
2.0
 43
2.0
 50
90.0
  0
INSERT
  5
3D9A
330
3D3A
100
AcDbEntity
  8
SUNPOU
 62
    60
370
    -2
100
AcDbBlockReference
  2
_Dot
 10
-304.1079869232617
 20
93.54982012925452
 30
0.0
 41
2.0
 42
2.0
 43
2.0
 50
270.0
  0
MTEXT
  5
3D9B
330
3D3A
100
AcDbEntity
  8
SUNPOU
 62
    60
100
AcDbMText
 10
-312.1079869232617
 20
191.0498201292545
 30
0.0
 40
10.0
 41
0.0
 71
     5
 72
     1
  1
\A1;195
  7
SUNPOU
 11
0.0000000000000001
 21
1.0
 31
0.0
 73
     1
 44
1.0
1001
ACAD
1000
MTEXTBEGIN
1070
    73
1070
     1
1070
    44
1040
1.0
1070
    74
1070
     0
1000
MTEXTEND
  0
POINT
  5
3D9C
330
3D3A
100
AcDbEntity
  8
DEFPOINTS
 62
     0
100
AcDbPoint
 10
-216.7182434847339
 20
288.5498201292545
 30
0.0
  0
POINT
  5
3D9D
330
3D3A
100
AcDbEntity
  8
DEFPOINTS
 62
     0
100
AcDbPoint
 10
-217.1359776599575
 20
93.5498201292545
 30
0.0
  0
POINT
  5
3D9E
330
3D3A
100
AcDbEntity
  8
DEFPOINTS
 62
     0
100
AcDbPoint
 10
-304.1079869232617
 20
93.54982012925452
 30
0.0
  0
ENDBLK
  5
3D45
330
3D3A
100
AcDbEntity
  8
0
100
AcDbBlockEnd
  0
BLOCK
  5
3F2A
330
3F20
100
AcDbEntity
  8
0
100
AcDbBlockBegin
  2
*D89
 70
     1
 10
0.0
 20
0.0
 30
0.0
  3
*D89
  1

  0
LINE
  5
3F9A
330
3F20
100
AcDbEntity
  8
SUNPOU
 62
    70
370
    -2
100
AcDbLine
 10
-171.7799306511583
 20
243.6438293736883
 30
0.0
 11
-171.7799306511583
 21
294.8058791037634
 31
0.0
  0
LINE
  5
3F9B
330
3F20
100
AcDbEntity
  8
SUNPOU
 62
    70
370
    -2
100
AcDbLine
 10
328.2200693488416
 20
244.4171992733745
 30
0.0
 11
328.2200693488416
 21
294.8058791037634
 31
0.0
  0
LINE
  5
3F9C
330
3F20
100
AcDbEntity
  8
SUNPOU
 62
    60
370
    -2
100
AcDbLine
 10
-169.7799306511583
 20
294.8058791037634
 30
0.0
 11
326.2200693488417
 21
294.8058791037634
 31
0.0
  0
INSERT
  5
3F9D
330
3F20
100
AcDbEntity
  8
SUNPOU
 62
    60
370
    -2
100
AcDbBlockReference
  2
_Dot
 10
-171.7799306511583
 20
294.8058791037634
 30
0.0
 41
2.0
 42
2.0
 43
2.0
 50
180.0
  0
INSERT
  5
3F9E
330
3F20
100
AcDbEntity
  8
SUNPOU
 62
    60
370
    -2
100
AcDbBlockReference
  2
_Dot
 10
328.2200693488416
 20
294.8058791037634
 30
0.0
 41
2.0
 42
2.0
 43
2.0
  0
MTEXT
  5
3F9F
330
3F20
100
AcDbEntity
  8
SUNPOU
 62
    60
100
AcDbMText
 10
78.22006934884166
 20
302.8058791037633
 30
0.0
 40
10.0
 41
0.0
 71
     5
 72
     1
  1
\A1;500
  7
SUNPOU
 73
     1
 44
1.0
1001
ACAD
1000
MTEXTBEGIN
1070
    73
1070
     1
1070
    44
1040
1.0
1070
    74
1070
     0
1000
MTEXTEND
  0
POINT
  5
3FA0
330
3F20
100
AcDbEntity
  8
DEFPOINTS
 62
     0
100
AcDbPoint
 10
-171.7799306511583
 20
233.6438293736883
 30
0.0
  0
POINT
  5
3FA1
330
3F20
100
AcDbEntity
  8
DEFPOINTS
 62
     0
100
AcDbPoint
 10
328.2200693488416
 20
234.4171992733745
 30
0.0
  0
POINT
  5
3FA2
330
3F20
100
AcDbEntity
  8
DEFPOINTS
 62
     0
100
AcDbPoint
 10
328.2200693488416
 20
294.8058791037634
 30
0.0
  0
ENDBLK
  5
3F2B
330
3F20
100
AcDbEntity
  8
0
100
AcDbBlockEnd
  0
BLOCK
  5
3F37
330
3F2D
100
AcDbEntity
  8
0
100
AcDbBlockBegin
  2
*D90
 70
     1
 10
0.0
 20
0.0
 30
0.0
  3
*D90
  1

  0
LINE
  5
3F88
330
3F2D
100
AcDbEntity
  8
SUNPOU
 62
    70
370
    -2
100
AcDbLine
 10
-181.7799306511583
 20
233.6438293736883
 30
0.0
 11
-228.1049532351698
 21
233.6438293736883
 31
0.0
  0
LINE
  5
3F89
330
3F2D
100
AcDbEntity
  8
SUNPOU
 62
    70
370
    -2
100
AcDbLine
 10
-182.8189487700756
 20
66.64382937368819
 30
0.0
 11
-228.1049532351699
 21
66.6438293736882
 31
0.0
  0
LINE
  5
3F8A
330
3F2D
100
AcDbEntity
  8
SUNPOU
 62
    60
370
    -2
100
AcDbLine
 10
-228.1049532351698
 20
231.6438293736883
 30
0.0
 11
-228.1049532351699
 21
68.6438293736882
 31
0.0
  0
INSERT
  5
3F8B
330
3F2D
100
AcDbEntity
  8
SUNPOU
 62
    60
370
    -2
100
AcDbBlockReference
  2
_Dot
 10
-228.1049532351698
 20
233.6438293736883
 30
0.0
 41
2.0
 42
2.0
 43
2.0
 50
90.0
  0
INSERT
  5
3F8C
330
3F2D
100
AcDbEntity
  8
SUNPOU
 62
    60
370
    -2
100
AcDbBlockReference
  2
_Dot
 10
-228.1049532351699
 20
66.6438293736882
 30
0.0
 41
2.0
 42
2.0
 43
2.0
 50
270.0
  0
MTEXT
  5
3F8D
330
3F2D
100
AcDbEntity
  8
SUNPOU
 62
    60
100
AcDbMText
 10
-236.1049532351699
 20
150.1438293736882
 30
0.0
 40
10.0
 41
0.0
 71
     5
 72
     1
  1
\A1;167
  7
SUNPOU
 11
0.0000000000000001
 21
1.0
 31
0.0
 73
     1
 44
1.0
1001
ACAD
1000
MTEXTBEGIN
1070
    73
1070
     1
1070
    44
1040
1.0
1070
    74
1070
     0
1000
MTEXTEND
  0
POINT
  5
3F8E
330
3F2D
100
AcDbEntity
  8
DEFPOINTS
 62
     0
100
AcDbPoint
 10
-171.7799306511583
 20
233.6438293736883
 30
0.0
  0
POINT
  5
3F8F
330
3F2D
100
AcDbEntity
  8
DEFPOINTS
 62
     0
100
AcDbPoint
 10
-172.8189487700756
 20
66.64382937368819
 30
0.0
  0
POINT
  5
3F90
330
3F2D
100
AcDbEntity
  8
DEFPOINTS
 62
     0
100
AcDbPoint
 10
-228.1049532351699
 20
66.6438293736882
 30
0.0
  0
ENDBLK
  5
3F38
330
3F2D
100
AcDbEntity
  8
0
100
AcDbBlockEnd
  0
BLOCK
  5
411D
330
4113
100
AcDbEntity
  8
0
100
AcDbBlockBegin
  2
*D92
 70
     1
 10
0.0
 20
0.0
 30
0.0
  3
*D92
  1

  0
LINE
  5
4196
330
4113
100
AcDbEntity
  8
SUNPOU
 62
    70
370
    -2
100
AcDbLine
 10
-116.2914213925551
 20
214.1651106888427
 30
0.0
 11
-116.2914213925551
 21
254.7405778968164
 31
0.0
  0
LINE
  5
4197
330
4113
100
AcDbEntity
  8
SUNPOU
 62
    70
370
    -2
100
AcDbLine
 10
283.7085786074449
 20
215.8970289941608
 30
0.0
 11
283.7085786074449
 21
254.7405778968164
 31
0.0
  0
LINE
  5
4198
330
4113
100
AcDbEntity
  8
SUNPOU
 62
    60
370
    -2
100
AcDbLine
 10
-114.2914213925551
 20
254.7405778968164
 30
0.0
 11
281.7085786074449
 21
254.7405778968164
 31
0.0
  0
INSERT
  5
4199
330
4113
100
AcDbEntity
  8
SUNPOU
 62
    60
370
    -2
100
AcDbBlockReference
  2
_Dot
 10
-116.2914213925551
 20
254.7405778968164
 30
0.0
 41
2.0
 42
2.0
 43
2.0
 50
180.0
  0
INSERT
  5
419A
330
4113
100
AcDbEntity
  8
SUNPOU
 62
    60
370
    -2
100
AcDbBlockReference
  2
_Dot
 10
283.7085786074449
 20
254.7405778968164
 30
0.0
 41
2.0
 42
2.0
 43
2.0
  0
MTEXT
  5
419B
330
4113
100
AcDbEntity
  8
SUNPOU
 62
    60
100
AcDbMText
 10
83.70857860744491
 20
262.7405778968164
 30
0.0
 40
10.0
 41
0.0
 71
     5
 72
     1
  1
\A1;400
  7
SUNPOU
 73
     1
 44
1.0
1001
ACAD
1000
MTEXTBEGIN
1070
    73
1070
     1
1070
    44
1040
1.0
1070
    74
1070
     0
1000
MTEXTEND
  0
POINT
  5
419C
330
4113
100
AcDbEntity
  8
DEFPOINTS
 62
     0
100
AcDbPoint
 10
-116.2914213925551
 20
204.1651106888427
 30
0.0
  0
POINT
  5
419D
330
4113
100
AcDbEntity
  8
DEFPOINTS
 62
     0
100
AcDbPoint
 10
283.7085786074449
 20
205.8970289941608
 30
0.0
  0
POINT
  5
419E
330
4113
100
AcDbEntity
  8
DEFPOINTS
 62
     0
100
AcDbPoint
 10
283.7085786074449
 20
254.7405778968164
 30
0.0
  0
ENDBLK
  5
411E
330
4113
100
AcDbEntity
  8
0
100
AcDbBlockEnd
  0
BLOCK
  5
412A
330
4120
100
AcDbEntity
  8
0
100
AcDbBlockBegin
  2
*D93
 70
     1
 10
0.0
 20
0.0
 30
0.0
  3
*D93
  1

  0
LINE
  5
4184
330
4120
100
AcDbEntity
  8
SUNPOU
 62
    70
370
    -2
100
AcDbLine
 10
-126.2914213925551
 20
204.1651106888427
 30
0.0
 11
-176.1343835884108
 21
204.1651106888427
 31
0.0
  0
LINE
  5
4185
330
4120
100
AcDbEntity
  8
SUNPOU
 62
    70
370
    -2
100
AcDbLine
 10
-125.9948475759538
 20
64.16511068884261
 30
0.0
 11
-176.1343835884108
 21
64.16511068884263
 31
0.0
  0
LINE
  5
4186
330
4120
100
AcDbEntity
  8
SUNPOU
 62
    60
370
    -2
100
AcDbLine
 10
-176.1343835884108
 20
202.1651106888427
 30
0.0
 11
-176.1343835884108
 21
66.16511068884263
 31
0.0
  0
INSERT
  5
4187
330
4120
100
AcDbEntity
  8
SUNPOU
 62
    60
370
    -2
100
AcDbBlockReference
  2
_Dot
 10
-176.1343835884108
 20
204.1651106888427
 30
0.0
 41
2.0
 42
2.0
 43
2.0
 50
90.0
  0
INSERT
  5
4188
330
4120
100
AcDbEntity
  8
SUNPOU
 62
    60
370
    -2
100
AcDbBlockReference
  2
_Dot
 10
-176.1343835884108
 20
64.16511068884263
 30
0.0
 41
2.0
 42
2.0
 43
2.0
 50
270.0
  0
MTEXT
  5
4189
330
4120
100
AcDbEntity
  8
SUNPOU
 62
    60
100
AcDbMText
 10
-184.1343835884108
 20
134.1651106888426
 30
0.0
 40
10.0
 41
0.0
 71
     5
 72
     1
  1
\A1;140
  7
SUNPOU
 11
0.0000000000000001
 21
1.0
 31
0.0
 73
     1
 44
1.0
1001
ACAD
1000
MTEXTBEGIN
1070
    73
1070
     1
1070
    44
1040
1.0
1070
    74
1070
     0
1000
MTEXTEND
  0
POINT
  5
418A
330
4120
100
AcDbEntity
  8
DEFPOINTS
 62
     0
100
AcDbPoint
 10
-116.2914213925551
 20
204.1651106888427
 30
0.0
  0
POINT
  5
418B
330
4120
100
AcDbEntity
  8
DEFPOINTS
 62
     0
100
AcDbPoint
 10
-115.9948475759538
 20
64.16511068884261
 30
0.0
  0
POINT
  5
418C
330
4120
100
AcDbEntity
  8
DEFPOINTS
 62
     0
100
AcDbPoint
 10
-176.1343835884108
 20
64.16511068884263
 30
0.0
  0
ENDBLK
  5
412B
330
4120
100
AcDbEntity
  8
0
100
AcDbBlockEnd
  0
ENDSEC
  0
SECTION
  2
ENTITIES
  0
LINE
  5
1F
330
2
100
AcDbEntity
  8
WAKU
100
AcDbLine
 10
0.0
 20
14.0
 30
0.0
 11
141.7992909508968
 21
13.99999999999999
 31
0.0
  0
LINE
  5
20
330
2
100
AcDbEntity
  8
WAKU
100
AcDbLine
 10
0.0
 20
0.0
 30
0.0
 11
141.7992909508968
 21
0.0
 31
0.0
  0
TEXT
  5
21
330
2
100
AcDbEntity
  8
HOJO
100
AcDbText
 10
9.653966000000025
 20
2.366626000000024
 30
0.0
 40
9.0
  1
TC383
  7
SUNPOU
100
AcDbText
  0
TEXT
  5
23
330
2
100
AcDbEntity
  8
HOJO
100
AcDbText
 10
75.65253479254602
 20
5.044386000000031
 30
0.0
 40
6.0
  1
400×140×16
  7
SUNPOU
100
AcDbText
  0
ARC
  5
4063
102
{ACAD_REACTORS
330
419F
102
}
330
2
100
AcDbEntity
  8
KIJUN
100
AcDbCircle
 10
268.8520469794955
 20
95.23838833779654
 30
0.0
 40
1.333333333333333
100
AcDbArc
 50
152.134288785726
 51
242.2914979204112
  0
ARC
  5
4064
102
{ACAD_REACTORS
330
419F
102
}
330
2
100
AcDbEntity
  8
KIJUN
100
AcDbCircle
 10
265.1181962074636
 20
87.96189530648872
 30
0.0
 40
18.59038239998128
100
AcDbArc
 50
257.7277827324071
 51
18.72404916515494
  0
ARC
  5
4065
102
{ACAD_REACTORS
330
419F
102
}
330
2
100
AcDbEntity
  8
KIJUN
100
AcDbCircle
 10
257.1550858801783
 20
89.78132138316034
 30
0.0
 40
11.87389790599559
100
AcDbArc
 50
216.4615471716698
 51
21.1107002642199
  0
ARC
  5
4066
102
{ACAD_REACTORS
330
419F
102
}
330
2
100
AcDbEntity
  8
KIJUN
100
AcDbCircle
 10
274.8368517401457
 20
92.07418157560368
 30
0.0
 40
8.103125978385037
100
AcDbArc
 50
52.4480901393797
 51
152.134288785726
  0
ARC
  5
4067
102
{ACAD_REACTORS
330
419F
102
}
330
2
100
AcDbEntity
  8
KIJUN
100
AcDbCircle
 10
34.19271190738391
 20
144.7960189053274
 30
0.0
 40
17.95260790039512
100
AcDbArc
 50
12.83469146747902
 51
125.3348227344209
  0
ARC
  5
4068
102
{ACAD_REACTORS
330
419F
102
}
330
2
100
AcDbEntity
  8
KIJUN
100
AcDbCircle
 10
49.51631841757216
 20
103.0023289752075
 30
0.0
 40
23.03695770735027
100
AcDbArc
 50
216.5965124930421
 51
311.7965759178257
  0
ARC
  5
4069
102
{ACAD_REACTORS
330
419F
102
}
330
2
100
AcDbEntity
  8
KIJUN
100
AcDbCircle
 10
38.7515760878282
 20
107.7619196583966
 30
0.0
 40
19.7831832915461
100
AcDbArc
 50
178.7597791167871
 51
315.33598607872
  0
ARC
  5
406A
102
{ACAD_REACTORS
330
419F
102
}
330
2
100
AcDbEntity
  8
KIJUN
100
AcDbCircle
 10
35.43153077833813
 20
130.7638137123785
 30
0.0
 40
22.79518514457969
100
AcDbArc
 50
167.776768948832
 51
10.36075346183269
  0
ARC
  5
406B
102
{ACAD_REACTORS
330
419F
102
}
330
2
100
AcDbEntity
  8
KIJUN
100
AcDbCircle
 10
79.14442827936636
 20
194.7506988178015
 30
0.0
 40
40.00226140392061
100
AcDbArc
 50
213.226041586579
 51
240.3446253109877
  0
ARC
  5
406C
102
{ACAD_REACTORS
330
419F
102
}
330
2
100
AcDbEntity
  8
KIJUN
100
AcDbCircle
 10
50.11697011589513
 20
164.7357714876034
 30
0.0
 40
9.231144802492712
100
AcDbArc
 50
52.01915398059571
 51
118.7144010689224
  0
ARC
  5
406D
102
{ACAD_REACTORS
330
419F
102
}
330
2
100
AcDbEntity
  8
KIJUN
100
AcDbCircle
 10
45.82870780540406
 20
169.6821727120057
 30
0.0
 40
10.23769754887724
100
AcDbArc
 50
13.15374396196429
 51
112.8433890014892
  0
ARC
  5
406E
102
{ACAD_REACTORS
330
419F
102
}
330
2
100
AcDbEntity
  8
KIJUN
100
AcDbCircle
 10
49.83980309399021
 20
162.1934109330295
 30
0.0
 40
22.96427893793365
100
AcDbArc
 50
29.93081665559646
 51
92.87159340822269
  0
ARC
  5
406F
102
{ACAD_REACTORS
330
419F
102
}
330
2
100
AcDbEntity
  8
KIJUN
100
AcDbCircle
 10
-26.80816684850788
 20
132.1723974132017
 30
0.0
 40
39.88283274931778
100
AcDbArc
 50
343.7626818483226
 51
353.4224302430877
  0
ARC
  5
4070
102
{ACAD_REACTORS
330
419F
102
}
330
2
100
AcDbEntity
  8
KIJUN
100
AcDbCircle
 10
35.66303112385322
 20
132.6569870560824
 30
0.0
 40
10.68175730458885
100
AcDbArc
 50
226.8923598377451
 51
352.6876882535602
  0
ARC
  5
4071
102
{ACAD_REACTORS
330
419F
102
}
330
2
100
AcDbEntity
  8
KIJUN
100
AcDbCircle
 10
29.05998550401546
 20
131.5289951830984
 30
0.0
 40
6.922819182060329
100
AcDbArc
 50
176.3885846934785
 51
349.1444833292248
  0
ARC
  5
4072
102
{ACAD_REACTORS
330
419F
102
}
330
2
100
AcDbEntity
  8
KIJUN
100
AcDbCircle
 10
24.92867961839511
 20
134.6964742046155
 30
0.0
 40
11.80942429935451
100
AcDbArc
 50
337.7518230053106
 51
175.6605642776585
  0
ARC
  5
4073
102
{ACAD_REACTORS
330
419F
102
}
330
2
100
AcDbEntity
  8
KIJUN
100
AcDbCircle
 10
-467.9219703491344
 20
853.8383571810996
 30
0.0
 40
860.3346668825619
100
AcDbArc
 50
301.4445869884388
 51
302.6656766137648
  0
ARC
  5
4074
102
{ACAD_REACTORS
330
419F
102
}
330
2
100
AcDbEntity
  8
KIJUN
100
AcDbCircle
 10
-36.20993026488304
 20
148.7295328201667
 30
0.0
 40
21.70627318265282
100
AcDbArc
 50
220.9913160181742
 51
290.949272161488
  0
LINE
  5
4075
102
{ACAD_REACTORS
330
419F
102
}
330
2
100
AcDbEntity
  8
KIJUN
100
AcDbLine
 10
-41.38385558792061
 20
119.8390768187805
 30
0.0
 11
-28.44904228032465
 21
128.4581018600406
 31
0.0
  0
ARC
  5
4076
102
{ACAD_REACTORS
330
419F
102
}
330
2
100
AcDbEntity
  8
KIJUN
100
AcDbCircle
 10
-107.9700214007544
 20
155.4176725031814
 30
0.0
 40
77.82075424615609
100
AcDbArc
 50
290.9158613320822
 51
312.7141683429926
  0
LINE
  5
4077
102
{ACAD_REACTORS
330
419F
102
}
330
2
100
AcDbEntity
  8
KIJUN
100
AcDbLine
 10
-55.18098342294798
 20
98.23911655063852
 30
0.0
 11
-73.2897125139666
 21
94.79150653413148
 31
0.0
  0
ARC
  5
4078
102
{ACAD_REACTORS
330
419F
102
}
330
2
100
AcDbEntity
  8
KIJUN
100
AcDbCircle
 10
-85.66626808395994
 20
167.8601584834075
 30
0.0
 40
65.32194379157589
100
AcDbArc
 50
271.023129363475
 51
312.6805543656201
  0
ARC
  5
4079
102
{ACAD_REACTORS
330
419F
102
}
330
2
100
AcDbEntity
  8
KIJUN
100
AcDbCircle
 10
-107.4612902266277
 20
170.9263642094794
 30
0.0
 40
102.0553620895594
100
AcDbArc
 50
277.721387432313
 51
329.9671747963251
  0
LINE
  5
407A
102
{ACAD_REACTORS
330
419F
102
}
330
2
100
AcDbEntity
  8
KIJUN
100
AcDbLine
 10
-56.24215125012597
 20
81.22026570039635
 30
0.0
 11
-64.19946947191647
 21
75.25516755691865
 31
0.0
  0
ARC
  5
407B
102
{ACAD_REACTORS
330
419F
102
}
330
2
100
AcDbEntity
  8
KIJUN
100
AcDbCircle
 10
-71.74671546842592
 20
138.3115339016253
 30
0.0
 40
68.31113938487781
100
AcDbArc
 50
275.225102769646
 51
311.962751553363
  0
ARC
  5
407C
102
{ACAD_REACTORS
330
419F
102
}
330
2
100
AcDbEntity
  8
KIJUN
100
AcDbCircle
 10
-93.44206882509913
 20
91.51230557272469
 30
0.0
 40
20.16511716345344
100
AcDbArc
 50
159.7301460305748
 51
209.7222290073145
  0
ARC
  5
407D
102
{ACAD_REACTORS
330
419F
102
}
330
2
100
AcDbEntity
  8
KIJUN
100
AcDbCircle
 10
-113.1891795762442
 20
98.10295319280635
 30
0.0
 40
0.9200846393361544
100
AcDbArc
 50
25.45116192437481
 51
162.5437259190882
  0
ARC
  5
407E
102
{ACAD_REACTORS
330
419F
102
}
330
2
100
AcDbEntity
  8
KIJUN
100
AcDbCircle
 10
-97.70103899257382
 20
87.96189530648872
 30
0.0
 40
18.59038239998128
100
AcDbArc
 50
161.275950834845
 51
282.2722172675929
  0
ARC
  5
407F
102
{ACAD_REACTORS
330
419F
102
}
330
2
100
AcDbEntity
  8
KIJUN
100
AcDbCircle
 10
-106.9514386453905
 20
93.99725800615966
 30
0.0
 40
8.356372176824713
100
AcDbArc
 50
148.3752104744914
 51
180.4638770947288
  0
LINE
  5
4080
102
{ACAD_REACTORS
330
419F
102
}
330
2
100
AcDbEntity
  8
KIJUN
100
AcDbLine
 10
-73.2897125139666
 20
94.79150653413148
 30
0.0
 11
-84.49987768747178
 21
102.5486290712665
 31
0.0
  0
ARC
  5
4081
102
{ACAD_REACTORS
330
419F
102
}
330
2
100
AcDbEntity
  8
KIJUN
100
AcDbCircle
 10
-61.73760057315485
 20
71.93597452693939
 30
0.0
 40
4.132534433607522
100
AcDbArc
 50
126.5645888566202
 51
203.5586012855597
  0
ARC
  5
4082
102
{ACAD_REACTORS
330
419F
102
}
330
2
100
AcDbEntity
  8
KIJUN
100
AcDbCircle
 10
-107.4196945252536
 20
92.07418157560368
 30
0.0
 40
8.103125978385037
100
AcDbArc
 50
27.865711214274
 51
127.5519098606203
  0
ARC
  5
4083
102
{ACAD_REACTORS
330
419F
102
}
330
2
100
AcDbEntity
  8
KIJUN
100
AcDbCircle
 10
-96.31692563831965
 20
85.49361689433657
 30
0.0
 40
9.673670222731557
100
AcDbArc
 50
117.7085020795887
 51
215.2442317936157
  0
ARC
  5
4084
102
{ACAD_REACTORS
330
419F
102
}
330
2
100
AcDbEntity
  8
KIJUN
100
AcDbCircle
 10
-101.4348897646066
 20
95.23838833779654
 30
0.0
 40
1.333333333333333
100
AcDbArc
 50
297.7085020795887
 51
27.865711214274
  0
ARC
  5
4085
102
{ACAD_REACTORS
330
419F
102
}
330
2
100
AcDbEntity
  8
KIJUN
100
AcDbCircle
 10
-89.73792866529027
 20
89.78132138315782
 30
0.0
 40
11.87389790599369
100
AcDbArc
 50
158.8892997357633
 51
323.5384528283385
  0
ARC
  5
4086
102
{ACAD_REACTORS
330
419F
102
}
330
2
100
AcDbEntity
  8
KIJUN
100
AcDbCircle
 10
-15.73192450579108
 20
108.1148734122016
 30
0.0
 40
18.88519106581425
100
AcDbArc
 50
307.7706273465366
 51
358.7235374628381
  0
LINE
  5
4087
102
{ACAD_REACTORS
330
419F
102
}
330
2
100
AcDbEntity
  8
KIJUN
100
AcDbLine
 10
-8.383404019523823
 20
111.5848614894414
 30
0.0
 11
-11.5636640315497
 21
107.4979357417896
 31
0.0
  0
ARC
  5
4088
102
{ACAD_REACTORS
330
419F
102
}
330
2
100
AcDbEntity
  8
KIJUN
100
AcDbCircle
 10
49.11048353450723
 20
115.0854609072767
 30
0.0
 40
57.60035852631151
100
AcDbArc
 50
183.4842360265325
 51
202.3450945482311
  0
ARC
  5
4089
102
{ACAD_REACTORS
330
419F
102
}
330
2
100
AcDbEntity
  8
KIJUN
100
AcDbCircle
 10
-40.6706996124858
 20
71.2611802558365
 30
0.0
 40
5.172123303183688
100
AcDbArc
 50
137.4711263107278
 51
190.6234159525456
  0
ARC
  5
408A
102
{ACAD_REACTORS
330
419F
102
}
330
2
100
AcDbEntity
  8
KIJUN
100
AcDbCircle
 10
-42.23559608052664
 20
90.17002368735257
 30
0.0
 40
20.11855738044942
100
AcDbArc
 50
260.84611626319
 51
356.4684600369632
  0
ARC
  5
408B
102
{ACAD_REACTORS
330
419F
102
}
330
2
100
AcDbEntity
  8
KIJUN
100
AcDbCircle
 10
-5.999227466698812
 20
90.64896289885746
 30
0.0
 40
16.24712452179696
100
AcDbArc
 50
152.351315666011
 51
186.0706211363639
  0
LINE
  5
408C
102
{ACAD_REACTORS
330
419F
102
}
330
2
100
AcDbEntity
  8
KIJUN
100
AcDbLine
 10
-11.5636640315497
 20
107.4979357417896
 30
0.0
 11
-17.01554515189173
 21
104.9061423169894
 31
0.0
  0
LINE
  5
408D
102
{ACAD_REACTORS
330
419F
102
}
330
2
100
AcDbEntity
  8
KIJUN
100
AcDbLine
 10
-17.01554515189173
 20
104.9061423169894
 30
0.0
 11
-17.92419359521864
 21
97.64048971538841
 31
0.0
  0
LINE
  5
408E
102
{ACAD_REACTORS
330
419F
102
}
330
2
100
AcDbEntity
  8
KIJUN
100
AcDbLine
 10
-17.92419359521864
 20
97.64048971538841
 30
0.0
 11
-20.39108627275437
 21
98.18842278224861
 31
0.0
  0
ARC
  5
408F
102
{ACAD_REACTORS
330
419F
102
}
330
2
100
AcDbEntity
  8
KIJUN
100
AcDbCircle
 10
7.559816908549237
 20
122.4745671820385
 30
0.0
 40
4.184738707253286
100
AcDbArc
 50
180.326127342954
 51
339.6673954460179
  0
ARC
  5
4090
102
{ACAD_REACTORS
330
419F
102
}
330
2
100
AcDbEntity
  8
KIJUN
100
AcDbCircle
 10
30.7155043815128
 20
118.6735970009977
 30
0.0
 40
14.93154284071166
100
AcDbArc
 50
221.5827586863885
 51
315.4040049082522
  0
ARC
  5
4091
102
{ACAD_REACTORS
330
419F
102
}
330
2
100
AcDbEntity
  8
KIJUN
100
AcDbCircle
 10
27.26979275653457
 20
114.7038542635505
 30
0.0
 40
25.1190864367803
100
AcDbArc
 50
162.0367654110856
 51
196.2039847613191
  0
ARC
  5
4092
102
{ACAD_REACTORS
330
419F
102
}
330
2
100
AcDbEntity
  8
KIJUN
100
AcDbCircle
 10
-6.790908690672495
 20
182.9445865929235
 30
0.0
 40
29.57416234986135
100
AcDbArc
 50
267.6298462902991
 51
316.8559693754114
  0
ARC
  5
4093
102
{ACAD_REACTORS
330
419F
102
}
330
2
100
AcDbEntity
  8
KIJUN
100
AcDbCircle
 10
9.591450063737283
 20
155.2094528652615
 30
0.0
 40
17.69858338355843
100
AcDbArc
 50
84.67729594822376
 51
185.8819241612174
  0
ARC
  5
4094
102
{ACAD_REACTORS
330
419F
102
}
330
2
100
AcDbEntity
  8
KIJUN
100
AcDbCircle
 10
3.249229935868697
 20
94.85702177653342
 30
0.0
 40
46.1932142664925
100
AcDbArc
 50
98.48710890194777
 51
133.3308866956825
  0
ARC
  5
4095
102
{ACAD_REACTORS
330
419F
102
}
330
2
100
AcDbEntity
  8
KIJUN
100
AcDbCircle
 10
-30.24232795299486
 20
186.2020003641355
 30
0.0
 40
39.62767142265887
100
AcDbArc
 50
261.6931177388964
 51
304.120180582414
  0
ARC
  5
4096
102
{ACAD_REACTORS
330
419F
102
}
330
2
100
AcDbEntity
  8
KIJUN
100
AcDbCircle
 10
-28.56300888061696
 20
145.6439582147934
 30
0.0
 40
7.525896025511412
100
AcDbArc
 50
169.6962869392523
 51
243.4560440858152
  0
ARC
  5
4097
102
{ACAD_REACTORS
330
419F
102
}
330
2
100
AcDbEntity
  8
KIJUN
100
AcDbCircle
 10
-39.6809791204787
 20
147.2928509973346
 30
0.0
 40
11.4186642837151
100
AcDbArc
 50
193.4661062807877
 51
312.7757525273007
  0
ARC
  5
4098
102
{ACAD_REACTORS
330
419F
102
}
330
2
100
AcDbEntity
  8
KIJUN
100
AcDbCircle
 10
-47.28904905043873
 20
138.7779719045315
 30
0.0
 40
6.820356099463626
100
AcDbArc
 50
120.842611563081
 51
218.9390957757443
  0
ARC
  5
4099
102
{ACAD_REACTORS
330
419F
102
}
330
2
100
AcDbEntity
  8
KIJUN
100
AcDbCircle
 10
10.00332991026425
 20
134.9762203268606
 30
0.0
 40
3.209030987236483
100
AcDbArc
 50
148.9506539199438
 51
11.0273322855442
  0
ARC
  5
409A
102
{ACAD_REACTORS
330
419F
102
}
330
2
100
AcDbEntity
  8
KIJUN
100
AcDbCircle
 10
22.56313338365408
 20
143.9180246050925
 30
0.0
 40
12.56598429237593
100
AcDbArc
 50
140.0805353237527
 51
221.5092332923813
  0
ARC
  5
409B
102
{ACAD_REACTORS
330
419F
102
}
330
2
100
AcDbEntity
  8
KIJUN
100
AcDbCircle
 10
31.2776117643225
 20
125.1151769774794
 30
0.0
 40
32.53622022008985
100
AcDbArc
 50
124.3360697987739
 51
151.6916732175554
  0
ARC
  5
409C
102
{ACAD_REACTORS
330
419F
102
}
330
2
100
AcDbEntity
  8
KIJUN
100
AcDbCircle
 10
32.25808513830998
 20
153.5495288461716
 30
0.0
 40
19.3958645910068
100
AcDbArc
 50
146.1253118760039
 51
184.6363231256937
  0
ARC
  5
409D
102
{ACAD_REACTORS
330
419F
102
}
330
2
100
AcDbEntity
  8
KIJUN
100
AcDbCircle
 10
17.53810430751218
 20
157.3745492588996
 30
0.0
 40
22.29603046619963
100
AcDbArc
 50
59.86674313462941
 51
102.7952106868006
  0
ARC
  5
409E
102
{ACAD_REACTORS
330
419F
102
}
330
2
100
AcDbEntity
  8
KIJUN
100
AcDbCircle
 10
27.42796654733093
 20
138.2306741174195
 30
0.0
 40
20.23718311890414
100
AcDbArc
 50
156.8717523744312
 51
184.5327204322308
  0
ARC
  5
409F
102
{ACAD_REACTORS
330
419F
102
}
330
2
100
AcDbEntity
  8
KIJUN
100
AcDbCircle
 10
16.68491250368106
 20
174.9372668616877
 30
0.0
 40
5.844127179235487
100
AcDbArc
 50
134.3413169984333
 51
201.1176498425189
  0
ARC
  5
40A0
102
{ACAD_REACTORS
330
419F
102
}
330
2
100
AcDbEntity
  8
KIJUN
100
AcDbCircle
 10
10.7303957480085
 20
166.8547677316476
 30
0.0
 40
15.03416459940942
100
AcDbArc
 50
278.3963593943146
 51
330.4558460138673
  0
ARC
  5
40A1
102
{ACAD_REACTORS
330
419F
102
}
330
2
100
AcDbEntity
  8
KIJUN
100
AcDbCircle
 10
23.50210692858218
 20
129.9373238935604
 30
0.0
 40
24.45029991044322
100
AcDbArc
 50
61.03635600528468
 51
115.630649334058
  0
ARC
  5
40A2
102
{ACAD_REACTORS
330
419F
102
}
330
2
100
AcDbEntity
  8
KIJUN
100
AcDbCircle
 10
28.56719086910334
 20
134.6477023427405
 30
0.0
 40
18.00516579528432
100
AcDbArc
 50
349.2763351722026
 51
67.89620559174089
  0
ARC
  5
40A3
102
{ACAD_REACTORS
330
419F
102
}
330
2
100
AcDbEntity
  8
KIJUN
100
AcDbCircle
 10
27.31076767669902
 20
133.2675802910864
 30
0.0
 40
5.321715398339308
100
AcDbArc
 50
101.1125354166649
 51
194.1674077271377
  0
ARC
  5
40A4
102
{ACAD_REACTORS
330
419F
102
}
330
2
100
AcDbEntity
  8
KIJUN
100
AcDbCircle
 10
30.70315097112234
 20
182.1375502328635
 30
0.0
 40
5.824118863499311
100
AcDbArc
 50
174.760236487173
 51
250.2072816456367
  0
ARC
  5
40A5
102
{ACAD_REACTORS
330
419F
102
}
330
2
100
AcDbEntity
  8
KIJUN
100
AcDbCircle
 10
30.73255249379372
 20
158.2632186825594
 30
0.0
 40
25.09267904092304
100
AcDbArc
 50
63.69006910117775
 51
103.4328807787951
  0
ARC
  5
40A6
102
{ACAD_REACTORS
330
419F
102
}
330
2
100
AcDbEntity
  8
KIJUN
100
AcDbCircle
 10
47.30345360926003
 20
179.8130944823235
 30
0.0
 40
5.493449822737941
100
AcDbArc
 50
75.38750041273772
 51
187.280543692372
  0
ARC
  5
40A8
102
{ACAD_REACTORS
330
419F
102
}
330
2
100
AcDbEntity
  8
KIJUN
100
AcDbCircle
 10
90.79007605318521
 20
129.1679126220895
 30
0.0
 40
16.49861566758393
100
AcDbArc
 50
146.6984456334616
 51
216.8834048079624
  0
ARC
  5
40A9
102
{ACAD_REACTORS
330
419F
102
}
330
2
100
AcDbEntity
  8
KIJUN
100
AcDbCircle
 10
70.74850782268232
 20
129.7611267934844
 30
0.0
 40
22.86685584514613
100
AcDbArc
 50
330.4269918302564
 51
20.13824873291444
  0
ARC
  5
40AA
102
{ACAD_REACTORS
330
419F
102
}
330
2
100
AcDbEntity
  8
KIJUN
100
AcDbCircle
 10
131.9856264365485
 20
130.7638137123785
 30
0.0
 40
22.79518514457969
100
AcDbArc
 50
169.6392465381673
 51
12.22323105116793
  0
ARC
  5
40AB
102
{ACAD_REACTORS
330
419F
102
}
330
2
100
AcDbEntity
  8
KIJUN
100
AcDbCircle
 10
142.4884775964924
 20
134.6964742046155
 30
0.0
 40
11.80942429935451
100
AcDbArc
 50
4.339435722341442
 51
202.2481769946895
  0
ARC
  5
40AC
102
{ACAD_REACTORS
330
419F
102
}
330
2
100
AcDbEntity
  8
KIJUN
100
AcDbCircle
 10
138.3571717108707
 20
131.5289951830984
 30
0.0
 40
6.922819182060329
100
AcDbArc
 50
190.8555166707752
 51
3.611415306521442
  0
ARC
  5
40AD
102
{ACAD_REACTORS
330
419F
102
}
330
2
100
AcDbEntity
  8
KIJUN
100
AcDbCircle
 10
131.7541260910338
 20
132.6569870560824
 30
0.0
 40
10.68175730458885
100
AcDbArc
 50
187.3123117464397
 51
313.107640162255
  0
ARC
  5
40AE
102
{ACAD_REACTORS
330
419F
102
}
330
2
100
AcDbEntity
  8
KIJUN
100
AcDbCircle
 10
194.225324063394
 20
132.1723974132017
 30
0.0
 40
39.88283274931778
100
AcDbArc
 50
186.5775697569123
 51
196.2373181516774
  0
LINE
  5
40AF
102
{ACAD_REACTORS
330
419F
102
}
330
2
100
AcDbEntity
  8
KIJUN
100
AcDbLine
 10
208.8010128028095
 20
119.8390768187805
 30
0.0
 11
195.8661994952094
 21
128.4581018600406
 31
0.0
  0
ARC
  5
40B0
102
{ACAD_REACTORS
330
419F
102
}
330
2
100
AcDbEntity
  8
KIJUN
100
AcDbCircle
 10
203.6270874797706
 20
148.7295328201667
 30
0.0
 40
21.70627318265282
100
AcDbArc
 50
249.050727838512
 51
319.0086839818258
  0
ARC
  5
40B1
102
{ACAD_REACTORS
330
419F
102
}
330
2
100
AcDbEntity
  8
KIJUN
100
AcDbCircle
 10
635.339127564022
 20
853.8383571810996
 30
0.0
 40
860.3346668825619
100
AcDbArc
 50
237.3343233862351
 51
238.5554130115612
  0
ARC
  5
40B2
102
{ACAD_REACTORS
330
419F
102
}
330
2
100
AcDbEntity
  8
KIJUN
100
AcDbCircle
 10
159.8573403063383
 20
122.4745671820385
 30
0.0
 40
4.184738707253286
100
AcDbArc
 50
200.332604553982
 51
359.673872657046
  0
ARC
  5
40B3
102
{ACAD_REACTORS
330
419F
102
}
330
2
100
AcDbEntity
  8
KIJUN
100
AcDbCircle
 10
117.9008387973149
 20
103.0023289752075
 30
0.0
 40
23.03695770735027
100
AcDbArc
 50
228.2034240821743
 51
323.403487506958
  0
ARC
  5
40B4
102
{ACAD_REACTORS
330
419F
102
}
330
2
100
AcDbEntity
  8
KIJUN
100
AcDbCircle
 10
95.19661963160343
 20
141.1058356798514
 30
0.0
 40
23.76022369035973
100
AcDbArc
 50
257.1818773010306
 51
308.5540627550448
  0
LINE
  5
40B5
102
{ACAD_REACTORS
330
419F
102
}
330
2
100
AcDbEntity
  8
KIJUN
100
AcDbLine
 10
84.4141846826451
 20
78.73889129853456
 30
0.0
 11
83.46967574373911
 21
107.0576791175736
 31
0.0
  0
ARC
  5
40B6
102
{ACAD_REACTORS
330
419F
102
}
330
2
100
AcDbEntity
  8
KIJUN
100
AcDbCircle
 10
83.70857860744491
 20
77.65379383364745
 30
0.0
 40
13.48868314480484
100
AcDbArc
 50
233.9508010704451
 51
306.049198929555
  0
LINE
  5
40B7
102
{ACAD_REACTORS
330
419F
102
}
330
2
100
AcDbEntity
  8
KIJUN
100
AcDbLine
 10
74.62333157087323
 20
107.6167294579504
 30
0.0
 11
70.033609609834
 21
95.57553559320558
 31
0.0
  0
LINE
  5
40B8
102
{ACAD_REACTORS
330
419F
102
}
330
2
100
AcDbEntity
  8
KIJUN
100
AcDbLine
 10
67.16503338418397
 20
95.57553559320558
 30
0.0
 11
74.62333157087323
 21
107.6167294579504
 31
0.0
  0
LINE
  5
40B9
102
{ACAD_REACTORS
330
419F
102
}
330
2
100
AcDbEntity
  8
KIJUN
100
AcDbLine
 10
61.42791817985835
 20
107.0433471410665
 30
0.0
 11
58.55934195420832
 21
95.57553559320558
 31
0.0
  0
LINE
  5
40BA
102
{ACAD_REACTORS
330
419F
102
}
330
2
100
AcDbEntity
  8
KIJUN
100
AcDbLine
 10
52.82218950291007
 20
94.42877095942662
 30
0.0
 11
61.42791817985835
 21
107.0433471410665
 31
0.0
  0
ARC
  5
40BB
102
{ACAD_REACTORS
330
419F
102
}
330
2
100
AcDbEntity
  8
KIJUN
100
AcDbCircle
 10
72.2205375832832
 20
141.1058356798514
 30
0.0
 40
23.76022369035973
100
AcDbArc
 50
231.4459372449552
 51
282.8181226989694
  0
ARC
  5
40BC
102
{ACAD_REACTORS
330
419F
102
}
330
2
100
AcDbEntity
  8
KIJUN
100
AcDbCircle
 10
91.35649646833735
 20
77.64244056660243
 30
0.0
 40
19.01586851325721
100
AcDbArc
 50
166.0410932087822
 51
214.9534997618975
  0
ARC
  5
40BD
102
{ACAD_REACTORS
330
419F
102
}
330
2
100
AcDbEntity
  8
KIJUN
100
AcDbCircle
 10
75.9588759493713
 20
85.30270222716467
 30
0.0
 40
10.66264529923873
100
AcDbArc
 50
131.5532168897189
 51
239.8744071892683
  0
LINE
  5
40BE
102
{ACAD_REACTORS
330
419F
102
}
330
2
100
AcDbEntity
  8
KIJUN
100
AcDbLine
 10
86.30316531348444
 20
110.8335147399496
 30
0.0
 11
85.35869362155336
 21
77.79492206730856
 31
0.0
  0
ARC
  5
40BF
102
{ACAD_REACTORS
330
419F
102
}
330
2
100
AcDbEntity
  8
KIJUN
100
AcDbCircle
 10
91.45828126551624
 20
85.30270222716467
 30
0.0
 40
10.66264529923873
100
AcDbArc
 50
300.1255928107317
 51
48.44678311028109
  0
ARC
  5
40C0
102
{ACAD_REACTORS
330
419F
102
}
330
2
100
AcDbEntity
  8
KIJUN
100
AcDbCircle
 10
76.06066074654837
 20
77.64244056660243
 30
0.0
 40
19.01586851325721
100
AcDbArc
 50
325.0465002381024
 51
13.95890679121777
  0
LINE
  5
40C1
102
{ACAD_REACTORS
330
419F
102
}
330
2
100
AcDbEntity
  8
KIJUN
100
AcDbLine
 10
100.2521238307031
 20
95.57553559320558
 30
0.0
 11
92.7938256440143
 21
107.6167294579504
 31
0.0
  0
LINE
  5
40C2
102
{ACAD_REACTORS
330
419F
102
}
330
2
100
AcDbEntity
  8
KIJUN
100
AcDbLine
 10
92.7938256440143
 20
107.6167294579504
 30
0.0
 11
97.38354760505309
 21
95.57553559320558
 31
0.0
  0
ARC
  5
40C3
102
{ACAD_REACTORS
330
419F
102
}
330
2
100
AcDbEntity
  8
KIJUN
100
AcDbCircle
 10
136.7016528333752
 20
118.6735970009977
 30
0.0
 40
14.93154284071166
100
AcDbArc
 50
224.5959950917474
 51
318.4172413136115
  0
ARC
  5
40C4
102
{ACAD_REACTORS
330
419F
102
}
330
2
100
AcDbEntity
  8
KIJUN
100
AcDbCircle
 10
128.6655811270593
 20
107.7619196583966
 30
0.0
 40
19.7831832915461
100
AcDbArc
 50
224.66401392128
 51
1.24022088321288
  0
LINE
  5
40C5
102
{ACAD_REACTORS
330
419F
102
}
330
2
100
AcDbEntity
  8
KIJUN
100
AcDbLine
 10
114.5949677119779
 20
94.42877095942662
 30
0.0
 11
105.9892390350278
 21
107.0433471410665
 31
0.0
  0
LINE
  5
40C6
102
{ACAD_REACTORS
330
419F
102
}
330
2
100
AcDbEntity
  8
KIJUN
100
AcDbLine
 10
105.9892390350278
 20
107.0433471410665
 30
0.0
 11
108.8578152606774
 21
95.57553559320558
 31
0.0
  0
ARC
  5
40C7
102
{ACAD_REACTORS
330
419F
102
}
330
2
100
AcDbEntity
  8
KIJUN
100
AcDbCircle
 10
208.0878568273724
 20
71.2611802558365
 30
0.0
 40
5.172123303183688
100
AcDbArc
 50
349.3765840474543
 51
42.52887368927214
  0
ARC
  5
40C8
102
{ACAD_REACTORS
330
419F
102
}
330
2
100
AcDbEntity
  8
KIJUN
100
AcDbCircle
 10
239.163872683313
 20
138.3115339016253
 30
0.0
 40
68.31113938487781
100
AcDbArc
 50
228.037248446637
 51
264.7748972303539
  0
ARC
  5
40C9
102
{ACAD_REACTORS
330
419F
102
}
330
2
100
AcDbEntity
  8
KIJUN
100
AcDbCircle
 10
274.8826048751361
 20
170.9325641389572
 30
0.0
 40
102.06206443445
100
AcDbArc
 50
210.0346703197051
 51
262.2767674516585
  0
ARC
  5
40CA
102
{ACAD_REACTORS
330
419F
102
}
330
2
100
AcDbEntity
  8
KIJUN
100
AcDbCircle
 10
253.083425298847
 20
167.8601584834075
 30
0.0
 40
65.32194379157591
100
AcDbArc
 50
227.3194456343798
 51
268.976870636525
  0
ARC
  5
40CB
102
{ACAD_REACTORS
330
419F
102
}
330
2
100
AcDbEntity
  8
KIJUN
100
AcDbCircle
 10
183.1490817206772
 20
108.1148734122016
 30
0.0
 40
18.88519106581425
100
AcDbArc
 50
181.2764625371619
 51
232.2293726534635
  0
ARC
  5
40CC
102
{ACAD_REACTORS
330
419F
102
}
330
2
100
AcDbEntity
  8
KIJUN
100
AcDbCircle
 10
140.147364458352
 20
114.7038542635505
 30
0.0
 40
25.1190864367803
100
AcDbArc
 50
343.7960152386809
 51
17.96323458891438
  0
ARC
  5
40CD
102
{ACAD_REACTORS
330
419F
102
}
330
2
100
AcDbEntity
  8
KIJUN
100
AcDbCircle
 10
118.3066736803812
 20
115.0854609072767
 30
0.0
 40
57.60035852631151
100
AcDbArc
 50
337.6549054517558
 51
356.5157639734675
  0
LINE
  5
40CE
102
{ACAD_REACTORS
330
419F
102
}
330
2
100
AcDbEntity
  8
KIJUN
100
AcDbLine
 10
175.8005612344104
 20
111.5848614894414
 30
0.0
 11
178.9808212464359
 21
107.4979357417896
 31
0.0
  0
LINE
  5
40CF
102
{ACAD_REACTORS
330
419F
102
}
330
2
100
AcDbEntity
  8
KIJUN
100
AcDbLine
 10
178.9808212464359
 20
107.4979357417896
 30
0.0
 11
184.4327023667792
 21
108.4061423169885
 31
0.0
  0
LINE
  5
40D0
102
{ACAD_REACTORS
330
419F
102
}
330
2
100
AcDbEntity
  8
KIJUN
100
AcDbLine
 10
184.4327023667792
 20
108.4061423169885
 30
0.0
 11
185.3413508101062
 21
101.1404897153893
 31
0.0
  0
LINE
  5
40D1
102
{ACAD_REACTORS
330
419F
102
}
330
2
100
AcDbEntity
  8
KIJUN
100
AcDbLine
 10
185.3413508101062
 20
101.1404897153893
 30
0.0
 11
187.808243487641
 21
101.6884227822495
 31
0.0
  0
ARC
  5
40D2
102
{ACAD_REACTORS
330
419F
102
}
330
2
100
AcDbEntity
  8
KIJUN
100
AcDbCircle
 10
159.6256776781092
 20
91.29047081989552
 30
0.0
 40
30.03954761011108
100
AcDbArc
 50
355.4945780786242
 51
20.25152912516608
  0
ARC
  5
40D3
102
{ACAD_REACTORS
330
419F
102
}
330
2
100
AcDbEntity
  8
KIJUN
100
AcDbCircle
 10
209.6527532954142
 20
90.17002368735257
 30
0.0
 40
20.11855738044942
100
AcDbArc
 50
183.5315399630367
 51
279.1538837368099
  0
ARC
  5
40D4
102
{ACAD_REACTORS
330
419F
102
}
330
2
100
AcDbEntity
  8
KIJUN
100
AcDbCircle
 10
229.1547577880415
 20
71.93597452693939
 30
0.0
 40
4.132534433607522
100
AcDbArc
 50
336.4413987144403
 51
53.43541114337972
  0
LINE
  5
40D5
102
{ACAD_REACTORS
330
419F
102
}
330
2
100
AcDbEntity
  8
KIJUN
100
AcDbLine
 10
240.7068697288541
 20
94.79150653413148
 30
0.0
 11
251.9170349023589
 21
102.5486290712665
 31
0.0
  0
LINE
  5
40D6
102
{ACAD_REACTORS
330
419F
102
}
330
2
100
AcDbEntity
  8
KIJUN
100
AcDbLine
 10
223.6593084650122
 20
81.22026570039635
 30
0.0
 11
231.6166266868031
 21
75.25516755691865
 31
0.0
  0
LINE
  5
40D7
102
{ACAD_REACTORS
330
419F
102
}
330
2
100
AcDbEntity
  8
KIJUN
100
AcDbLine
 10
222.5981406378346
 20
98.23911655063852
 30
0.0
 11
240.7068697288541
 21
94.79150653413148
 31
0.0
  0
ARC
  5
40D8
102
{ACAD_REACTORS
330
419F
102
}
330
2
100
AcDbEntity
  8
KIJUN
100
AcDbCircle
 10
275.3871786156433
 20
155.4176725031814
 30
0.0
 40
77.82075424615609
100
AcDbArc
 50
227.2858316570073
 51
249.0841386679178
  0
ARC
  5
40D9
102
{ACAD_REACTORS
330
419F
102
}
330
2
100
AcDbEntity
  8
KIJUN
100
AcDbCircle
 10
174.2080659055591
 20
182.9445865929235
 30
0.0
 40
29.57416234986135
100
AcDbArc
 50
223.1440306245886
 51
272.370153709701
  0
ARC
  5
40DA
102
{ACAD_REACTORS
330
419F
102
}
330
2
100
AcDbEntity
  8
KIJUN
100
AcDbCircle
 10
136.139545450565
 20
125.1151769774794
 30
0.0
 40
32.53622022008985
100
AcDbArc
 50
28.3083267824446
 51
55.66393020122607
  0
ARC
  5
40DB
102
{ACAD_REACTORS
330
419F
102
}
330
2
100
AcDbEntity
  8
KIJUN
100
AcDbCircle
 10
157.4138273046219
 20
134.9762203268606
 30
0.0
 40
3.209030987236483
100
AcDbArc
 50
168.9726677144558
 51
31.04934608005616
  0
ARC
  5
40DC
102
{ACAD_REACTORS
330
419F
102
}
330
2
100
AcDbEntity
  8
KIJUN
100
AcDbCircle
 10
157.8257071511502
 20
155.2094528652615
 30
0.0
 40
17.69858338355843
100
AcDbArc
 50
354.1180758387826
 51
95.32270405177623
  0
ARC
  5
40DD
102
{ACAD_REACTORS
330
419F
102
}
330
2
100
AcDbEntity
  8
KIJUN
100
AcDbCircle
 10
139.9891906675561
 20
138.2306741174195
 30
0.0
 40
20.23718311890414
100
AcDbArc
 50
355.4672795677691
 51
23.12824762556878
  0
ARC
  5
40DE
102
{ACAD_REACTORS
330
419F
102
}
330
2
100
AcDbEntity
  8
KIJUN
100
AcDbCircle
 10
83.70857860744491
 20
194.0878512563606
 30
0.0
 40
10.07725943248199
100
AcDbArc
 50
341.4643370440634
 51
196.1524483179275
  0
ARC
  5
40DF
102
{ACAD_REACTORS
330
419F
102
}
330
2
100
AcDbEntity
  8
KIJUN
100
AcDbCircle
 10
108.7100297731672
 20
152.8821500806145
 30
0.0
 40
7.135102199048767
100
AcDbArc
 50
95.18572914429384
 51
241.7341872761642
  0
ARC
  5
40E0
102
{ACAD_REACTORS
330
419F
102
}
330
2
100
AcDbEntity
  8
KIJUN
100
AcDbCircle
 10
103.3286684724194
 20
142.8742961060666
 30
0.0
 40
10.15036980293214
100
AcDbArc
 50
211.4391137152934
 51
333.843411955001
  0
ARC
  5
40E1
102
{ACAD_REACTORS
330
419F
102
}
330
2
100
AcDbEntity
  8
KIJUN
100
AcDbCircle
 10
117.5773541208973
 20
162.1934109330295
 30
0.0
 40
22.96427893793365
100
AcDbArc
 50
87.12840659177732
 51
150.0691833444035
  0
ARC
  5
40E2
102
{ACAD_REACTORS
330
419F
102
}
330
2
100
AcDbEntity
  8
KIJUN
100
AcDbCircle
 10
87.57522811207127
 20
148.1640628251066
 30
0.0
 40
15.65785615061023
100
AcDbArc
 50
145.7261531410909
 51
194.0486028118323
  0
ARC
  5
40E3
102
{ACAD_REACTORS
330
419F
102
}
330
2
100
AcDbEntity
  8
KIJUN
100
AcDbCircle
 10
80.2935371616004
 20
148.1207281645154
 30
0.0
 40
15.65785615061023
100
AcDbArc
 50
346.6333442425939
 51
34.95579391333518
  0
ARC
  5
40E4
102
{ACAD_REACTORS
330
419F
102
}
330
2
100
AcDbEntity
  8
KIJUN
100
AcDbCircle
 10
104.7906947117781
 20
148.9743187694955
 30
0.0
 40
14.21070298875967
100
AcDbArc
 50
145.1644086156816
 51
223.9884007270009
  0
ARC
  5
40E5
102
{ACAD_REACTORS
330
419F
102
}
330
2
100
AcDbEntity
  8
KIJUN
100
AcDbCircle
 10
62.626462503109
 20
148.9743187694955
 30
0.0
 40
14.21070298875967
100
AcDbArc
 50
316.011599272999
 51
34.83559138431836
  0
ARC
  5
40E6
102
{ACAD_REACTORS
330
419F
102
}
330
2
100
AcDbEntity
  8
KIJUN
100
AcDbCircle
 10
58.70712744171988
 20
152.8821500806145
 30
0.0
 40
7.135102199048767
100
AcDbArc
 50
298.2658127238358
 51
84.81427085570617
  0
ARC
  5
40E7
102
{ACAD_REACTORS
330
419F
102
}
330
2
100
AcDbEntity
  8
KIJUN
100
AcDbCircle
 10
78.08842825462352
 20
122.1007036016024
 30
0.0
 40
22.68266097231947
100
AcDbArc
 50
43.0335155344188
 51
76.30416369957337
  0
ARC
  5
40E8
102
{ACAD_REACTORS
330
419F
102
}
330
2
100
AcDbEntity
  8
KIJUN
100
AcDbCircle
 10
89.32872896026401
 20
122.1007036016024
 30
0.0
 40
22.68266097231947
100
AcDbArc
 50
103.6958363004266
 51
136.9664844655812
  0
ARC
  5
40E9
102
{ACAD_REACTORS
330
419F
102
}
330
2
100
AcDbEntity
  8
KIJUN
100
AcDbCircle
 10
64.08848874246814
 20
142.8742961060666
 30
0.0
 40
10.15036980293214
100
AcDbArc
 50
206.1565880449983
 51
328.5608862847066
  0
ARC
  5
40EA
102
{ACAD_REACTORS
330
419F
102
}
330
2
100
AcDbEntity
  8
KIJUN
100
AcDbCircle
 10
224.6026030278235
 20
197.7017975045025
 30
0.0
 40
179.6924520087091
100
AcDbArc
 50
195.7970511083482
 51
199.2699705622831
  0
ARC
  5
40EB
102
{ACAD_REACTORS
330
419F
102
}
330
2
100
AcDbEntity
  8
KIJUN
100
AcDbCircle
 10
84.59536923779069
 20
203.2923710181126
 30
0.0
 40
17.23008503705981
100
AcDbArc
 50
229.9695692470569
 51
301.0443409541846
  0
LINE
  5
40EC
102
{ACAD_REACTORS
330
419F
102
}
330
2
100
AcDbEntity
  8
KIJUN
100
AcDbLine
 10
63.99986486243051
 20
185.9486619295974
 30
0.0
 11
68.37429403073611
 21
175.8376902213776
 31
0.0
  0
LINE
  5
40ED
102
{ACAD_REACTORS
330
419F
102
}
330
2
100
AcDbEntity
  8
KIJUN
100
AcDbLine
 10
66.18707944658217
 20
189.5011704853507
 30
0.0
 11
63.99986486243051
 21
185.9486619295974
 31
0.0
  0
LINE
  5
40EE
102
{ACAD_REACTORS
330
419F
102
}
330
2
100
AcDbEntity
  8
KIJUN
100
AcDbLine
 10
70.28811275413
 20
188.1348163137545
 30
0.0
 11
66.18707944658217
 21
189.5011704853507
 31
0.0
  0
LINE
  5
40EF
102
{ACAD_REACTORS
330
419F
102
}
330
2
100
AcDbEntity
  8
KIJUN
100
AcDbLine
 10
70.16929683432227
 20
190.9912121407606
 30
0.0
 11
70.16929683432227
 21
191.2303755868274
 31
0.0
  0
ARC
  5
40F0
102
{ACAD_REACTORS
330
419F
102
}
330
2
100
AcDbEntity
  8
KIJUN
100
AcDbCircle
 10
102.0224206982466
 20
191.2357303418375
 30
0.0
 40
31.8540623632391
100
AcDbArc
 50
180.4398182675899
 51
203.4597243740314
  0
ARC
  5
40F1
102
{ACAD_REACTORS
330
419F
102
}
330
2
100
AcDbEntity
  8
KIJUN
100
AcDbCircle
 10
72.1469774882612
 20
191.2099982623935
 30
0.0
 40
1.977785631537234
100
AcDbArc
 50
36.83991813237039
 51
179.409665371887
  0
ARC
  5
40F2
102
{ACAD_REACTORS
330
419F
102
}
330
2
100
AcDbEntity
  8
KIJUN
100
AcDbCircle
 10
95.27017972662589
 20
191.2099982623935
 30
0.0
 40
1.977785631537234
100
AcDbArc
 50
0.5903346281130271
 51
143.1600818676296
  0
ARC
  5
40F3
102
{ACAD_REACTORS
330
419F
102
}
330
2
100
AcDbEntity
  8
KIJUN
100
AcDbCircle
 10
65.39473651664138
 20
191.2357303418375
 30
0.0
 40
31.8540623632391
100
AcDbArc
 50
336.5402756259685
 51
359.5601817324101
  0
LINE
  5
40F4
102
{ACAD_REACTORS
330
419F
102
}
330
2
100
AcDbEntity
  8
KIJUN
100
AcDbLine
 10
97.24786038056528
 20
190.9912121407606
 30
0.0
 11
97.24786038056528
 21
191.2303755868274
 31
0.0
  0
LINE
  5
40F5
102
{ACAD_REACTORS
330
419F
102
}
330
2
100
AcDbEntity
  8
KIJUN
100
AcDbLine
 10
97.12904446075754
 20
188.1348163137545
 30
0.0
 11
101.2300777683031
 21
189.5011704853507
 31
0.0
  0
LINE
  5
40F6
102
{ACAD_REACTORS
330
419F
102
}
330
2
100
AcDbEntity
  8
KIJUN
100
AcDbLine
 10
101.2300777683031
 20
189.5011704853507
 30
0.0
 11
103.417292352457
 21
185.9486619295974
 31
0.0
  0
LINE
  5
40F7
102
{ACAD_REACTORS
330
419F
102
}
330
2
100
AcDbEntity
  8
KIJUN
100
AcDbLine
 10
103.417292352457
 20
185.9486619295974
 30
0.0
 11
99.04286318415097
 21
175.8376902213776
 31
0.0
  0
ARC
  5
40F8
102
{ACAD_REACTORS
330
419F
102
}
330
2
100
AcDbEntity
  8
KIJUN
100
AcDbCircle
 10
150.732244711206
 20
174.9372668616877
 30
0.0
 40
5.844127179235487
100
AcDbArc
 50
338.882350157481
 51
45.65868300156665
  0
ARC
  5
40F9
102
{ACAD_REACTORS
330
419F
102
}
330
2
100
AcDbEntity
  8
KIJUN
100
AcDbCircle
 10
144.8540238312334
 20
143.9180246050925
 30
0.0
 40
12.56598429237593
100
AcDbArc
 50
318.4907667076187
 51
39.91946467624732
  0
ARC
  5
40FA
102
{ACAD_REACTORS
330
419F
102
}
330
2
100
AcDbEntity
  8
KIJUN
100
AcDbCircle
 10
156.6867614668781
 20
166.8547677316476
 30
0.0
 40
15.03416459940942
100
AcDbArc
 50
209.5441539861326
 51
261.6036406056855
  0
ARC
  5
40FB
102
{ACAD_REACTORS
330
419F
102
}
330
2
100
AcDbEntity
  8
KIJUN
100
AcDbCircle
 10
133.2244453075022
 20
144.7960189053274
 30
0.0
 40
17.95260790039512
100
AcDbArc
 50
54.665177265579
 51
167.1653085325209
  0
ARC
  5
40FC
102
{ACAD_REACTORS
330
419F
102
}
330
2
100
AcDbEntity
  8
KIJUN
100
AcDbCircle
 10
135.1590720765784
 20
153.5495288461716
 30
0.0
 40
19.3958645910068
100
AcDbArc
 50
355.3636768743063
 51
33.87468812399609
  0
ARC
  5
40FD
102
{ACAD_REACTORS
330
419F
102
}
330
2
100
AcDbEntity
  8
KIJUN
100
AcDbCircle
 10
-57.18544581293691
 20
197.7017975045025
 30
0.0
 40
179.6924520087091
100
AcDbArc
 50
340.7300294377169
 51
344.2029488916517
  0
ARC
  5
40FE
102
{ACAD_REACTORS
330
419F
102
}
330
2
100
AcDbEntity
  8
KIJUN
100
AcDbCircle
 10
140.1063895381885
 20
133.2675802910864
 30
0.0
 40
5.321715398339308
100
AcDbArc
 50
345.832592272862
 51
78.88746458333506
  0
ARC
  5
40FF
102
{ACAD_REACTORS
330
419F
102
}
330
2
100
AcDbEntity
  8
KIJUN
100
AcDbCircle
 10
138.8499663457842
 20
134.6477023427405
 30
0.0
 40
18.00516579528432
100
AcDbArc
 50
112.1037944082591
 51
190.7236648277974
  0
ARC
  5
4100
102
{ACAD_REACTORS
330
419F
102
}
330
2
100
AcDbEntity
  8
KIJUN
100
AcDbCircle
 10
143.9150502863031
 20
129.9373238935604
 30
0.0
 40
24.45029991044322
100
AcDbArc
 50
64.36935066594194
 51
118.9636439947153
  0
ARC
  5
4101
102
{ACAD_REACTORS
330
419F
102
}
330
2
100
AcDbEntity
  8
KIJUN
100
AcDbCircle
 10
120.1137036056257
 20
179.8130944823235
 30
0.0
 40
5.493449822737941
100
AcDbArc
 50
352.719456307628
 51
104.6124995872623
  0
ARC
  5
4102
102
{ACAD_REACTORS
330
419F
102
}
330
2
100
AcDbEntity
  8
KIJUN
100
AcDbCircle
 10
121.588449409483
 20
169.6821727120057
 30
0.0
 40
10.23769754887724
100
AcDbArc
 50
67.15661099851079
 51
166.8462560380357
  0
ARC
  5
4103
102
{ACAD_REACTORS
330
419F
102
}
330
2
100
AcDbEntity
  8
KIJUN
100
AcDbCircle
 10
117.3001870989924
 20
164.7357714876034
 30
0.0
 40
9.231144802492712
100
AcDbArc
 50
61.28559893105524
 51
127.9808460194043
  0
ARC
  5
4104
102
{ACAD_REACTORS
330
419F
102
}
330
2
100
AcDbEntity
  8
KIJUN
100
AcDbCircle
 10
88.27272893552118
 20
194.7506988178015
 30
0.0
 40
40.00226140392061
100
AcDbArc
 50
299.6553746890123
 51
326.7739584134209
  0
ARC
  5
4105
102
{ACAD_REACTORS
330
419F
102
}
330
2
100
AcDbEntity
  8
KIJUN
100
AcDbCircle
 10
136.6846047210924
 20
158.2632186825594
 30
0.0
 40
25.09267904092304
100
AcDbArc
 50
76.5671192212049
 51
116.3099308988222
  0
ARC
  5
4106
102
{ACAD_REACTORS
330
419F
102
}
330
2
100
AcDbEntity
  8
KIJUN
100
AcDbCircle
 10
136.7140062437633
 20
182.1375502328635
 30
0.0
 40
5.824118863499311
100
AcDbArc
 50
289.7927183543633
 51
5.239763512826918
  0
ARC
  5
4107
102
{ACAD_REACTORS
330
419F
102
}
330
2
100
AcDbEntity
  8
KIJUN
100
AcDbCircle
 10
149.8790529073731
 20
157.3745492588996
 30
0.0
 40
22.29603046619963
100
AcDbArc
 50
77.20478931319934
 51
120.1332568653706
  0
ARC
  5
4108
102
{ACAD_REACTORS
330
419F
102
}
330
2
100
AcDbEntity
  8
KIJUN
100
AcDbCircle
 10
207.0981363353662
 20
147.2928509973346
 30
0.0
 40
11.4186642837151
100
AcDbArc
 50
227.2242474726993
 51
346.5338937192123
  0
ARC
  5
4109
102
{ACAD_REACTORS
330
419F
102
}
330
2
100
AcDbEntity
  8
KIJUN
100
AcDbCircle
 10
195.9801660955022
 20
145.6439582147934
 30
0.0
 40
7.525896025511412
100
AcDbArc
 50
296.5439559141848
 51
10.30371306074764
  0
ARC
  5
410A
102
{ACAD_REACTORS
330
419F
102
}
330
2
100
AcDbEntity
  8
KIJUN
100
AcDbCircle
 10
197.6594851678815
 20
186.2020003641355
 30
0.0
 40
39.62767142265887
100
AcDbArc
 50
235.8798194175861
 51
278.3068822611036
  0
ARC
  5
410B
102
{ACAD_REACTORS
330
419F
102
}
330
2
100
AcDbEntity
  8
KIJUN
100
AcDbCircle
 10
164.1679272790193
 20
94.85702177653342
 30
0.0
 40
46.1932142664925
100
AcDbArc
 50
46.66911330431743
 51
81.51289109805224
  0
ARC
  5
410C
102
{ACAD_REACTORS
330
419F
102
}
330
2
100
AcDbEntity
  8
KIJUN
100
AcDbCircle
 10
214.7062062653254
 20
138.7779719045315
 30
0.0
 40
6.820356099463626
100
AcDbArc
 50
321.0609042242556
 51
59.15738843691891
  0
ARC
  5
410D
102
{ACAD_REACTORS
330
419F
102
}
330
2
100
AcDbEntity
  8
KIJUN
100
AcDbCircle
 10
274.3685958602816
 20
93.99725800615966
 30
0.0
 40
8.356372176824713
100
AcDbArc
 50
359.5361229052711
 51
31.62478952550856
  0
ARC
  5
410E
102
{ACAD_REACTORS
330
419F
102
}
330
2
100
AcDbEntity
  8
KIJUN
100
AcDbCircle
 10
280.6063367911354
 20
98.10295319280635
 30
0.0
 40
0.9200846393361544
100
AcDbArc
 50
17.45627408091179
 51
154.5488380756252
  0
ARC
  5
410F
102
{ACAD_REACTORS
330
419F
102
}
330
2
100
AcDbEntity
  8
KIJUN
100
AcDbCircle
 10
263.7340828532108
 20
85.49361689433657
 30
0.0
 40
9.673670222731557
100
AcDbArc
 50
324.7557682063844
 51
62.29149792041127
  0
ARC
  5
4110
102
{ACAD_REACTORS
330
419F
102
}
330
2
100
AcDbEntity
  8
KIJUN
100
AcDbCircle
 10
260.8592260399903
 20
91.51230557272469
 30
0.0
 40
20.16511716345344
100
AcDbArc
 50
330.2777709926854
 51
20.2698539694252
  0
ELLIPSE
  5
4111
102
{ACAD_REACTORS
330
419F
102
}
330
2
100
AcDbEntity
  8
KIJUN
100
AcDbEllipse
 10
84.66369503738588
 20
130.446450223907
 30
0.0
 11
-0.780570228566033
 21
11.21558237757136
 31
0.0
210
0.0
220
0.0
230
-1.0
 40
0.5937401105712946
 41
0.0
 42
6.283185307179586
  0
DIMENSION
  5
4112
330
2
100
AcDbEntity
  8
SUNPOU
100
AcDbDimension
  2
*D92
 10
283.7085786074449
 20
254.7405778968164
 30
0.0
 11
83.70857860744491
 21
262.7405778968164
 31
0.0
 70
    32
 71
     5
 42
400.0
  3
STANDARD
100
AcDbAlignedDimension
 13
-116.2914213925551
 23
204.1651106888427
 33
0.0
 14
283.7085786074449
 24
205.8970289941608
 34
0.0
100
AcDbRotatedDimension
1001
ACAD
1000
DSTYLE
1002
{
1070
    41
1040
2.0
1070
    42
1040
10.0
1070
    44
1040
0.0
1070
    73
1070
     0
1070
    74
1070
     0
1070
    77
1070
     1
1070
   140
1040
10.0
1070
   141
1040
0.0
1070
   146
1040
0.064286
1070
   147
1040
3.0
1070
   176
1070
    60
1070
   177
1070
    70
1070
   178
1070
    60
1070
   271
1070
     0
1070
   272
1070
     0
1070
   340
1005
1C
1070
   342
1005
109
1002
}
  0
DIMENSION
  5
411F
330
2
100
AcDbEntity
  8
SUNPOU
100
AcDbDimension
  2
*D93
 10
-176.1343835884108
 20
64.16511068884263
 30
0.0
 11
-184.1343835884108
 21
134.1651106888426
 31
0.0
 70
    32
 71
     5
 42
140.0
  3
STANDARD
100
AcDbAlignedDimension
 13
-116.2914213925551
 23
204.1651106888427
 33
0.0
 14
-115.9948475759538
 24
64.16511068884261
 34
0.0
 50
90.0
100
AcDbRotatedDimension
1001
ACAD
1000
DSTYLE
1002
{
1070
    41
1040
2.0
1070
    42
1040
10.0
1070
    44
1040
0.0
1070
    73
1070
     0
1070
    74
1070
     0
1070
    77
1070
     1
1070
   140
1040
10.0
1070
   141
1040
0.0
1070
   146
1040
0.064286
1070
   147
1040
3.0
1070
   176
1070
    60
1070
   177
1070
    70
1070
   178
1070
    60
1070
   271
1070
     0
1070
   272
1070
     0
1070
   340
1005
1C
1070
   342
1005
109
1002
}
  0
ENDSEC
  0
SECTION
  2
OBJECTS
  0
DICTIONARY
  5
1A
330
0
100
AcDbDictionary
281
     1
  3
ACAD_COLOR
350
144
  3
ACAD_GROUP
350
18
  3
ACAD_LAYOUT
350
58
  3
ACAD_MATERIAL
350
143
  3
ACAD_MLINESTYLE
350
19
  3
ACAD_PLOTSETTINGS
350
59
  3
ACAD_PLOTSTYLENAME
350
56
  3
ACAD_TABLESTYLE
350
145
  3
ACDBHEADERROUNDTRIPXREC
350
41A1
  3
AcDbVariableDictionary
350
1D1
  0
DICTIONARY
  5
1B4
330
A
100
AcDbDictionary
280
     1
281
     1
  3
ACAD_LAYERFILTERS
360
1C2
  3
ACLYDICTIONARY
360
1C1
  0
DICTIONARY
  5
1578
330
2
100
AcDbDictionary
280
     1
281
     1
  3
ACAD_SORTENTS
360
1579
  0
DICTIONARY
  5
144
102
{ACAD_REACTORS
330
1A
102
}
330
1A
100
AcDbDictionary
281
     1
  0
DICTIONARY
  5
18
102
{ACAD_REACTORS
330
1A
102
}
330
1A
100
AcDbDictionary
281
     1
  3
*A1
350
CFC
  3
*A10
350
2FE9
  3
*A11
350
312A
  3
*A12
350
15D1
  3
*A13
350
3154
  3
*A14
350
327B
  3
*A15
350
32AA
  3
*A16
350
3650
  3
*A17
350
367C
  3
*A18
350
1682
  3
*A19
350
1827
  3
*A2
350
218C
  3
*A20
350
18ED
  3
*A21
350
19E5
  3
*A22
350
1F8A
  3
*A23
350
2108
  3
*A24
350
3732
  3
*A25
350
37CF
  3
*A26
350
3837
  3
*A27
350
38C3
  3
*A29
350
39C3
  3
*A3
350
2335
  3
*A30
350
3AB4
  3
*A31
350
3BBC
  3
*A32
350
3D8C
  3
*A33
350
3FA3
  3
*A34
350
419F
  3
*A4
350
2862
  3
*A5
350
299B
  3
*A6
350
2C07
  3
*A7
350
2DB5
  3
*A8
350
2E88
  3
*A9
350
2FBC
  0
DICTIONARY
  5
58
102
{ACAD_REACTORS
330
1A
102
}
330
1A
100
AcDbDictionary
281
     1
  3
Model
350
5A
  3
ﾚｲｱｳﾄ1
350
5B
  0
DICTIONARY
  5
143
102
{ACAD_REACTORS
330
1A
102
}
330
1A
100
AcDbDictionary
281
     1
  0
DICTIONARY
  5
19
102
{ACAD_REACTORS
330
1A
102
}
330
1A
100
AcDbDictionary
281
     1
  3
STANDARD
350
1D
  0
DICTIONARY
  5
59
102
{ACAD_REACTORS
330
1A
102
}
330
1A
100
AcDbDictionary
281
     1
  0
ACDBDICTIONARYWDFLT
  5
56
102
{ACAD_REACTORS
330
1A
102
}
330
1A
100
AcDbDictionary
281
     1
  3
Normal
350
57
100
AcDbDictionaryWithDefault
340
57
  0
DICTIONARY
  5
145
102
{ACAD_REACTORS
330
1A
102
}
330
1A
100
AcDbDictionary
281
     1
  3
Standard
350
146
  0
DICTIONARY
  5
41A1
102
{ACAD_REACTORS
330
1A
102
}
330
1A
100
AcDbDictionary
281
     1
  0
DICTIONARY
  5
1D1
102
{ACAD_REACTORS
330
1A
102
}
330
1A
100
AcDbDictionary
281
     1
  3
CTABLESTYLE
350
1D2
  3
DIMASSOC
350
D03
  3
PROJECTNAME
350
D04
  0
DICTIONARY
  5
1C2
102
{ACAD_REACTORS
330
1B4
102
}
330
1B4
100
AcDbDictionary
281
     1
  0
DICTIONARY
  5
1C1
102
{ACAD_REACTORS
330
1B4
102
}
330
1B4
100
AcDbDictionary
281
     1
1001
ACAD
1000
<All
  0
SORTENTSTABLE
  5
1579
102
{ACAD_REACTORS
330
1578
102
}
330
1578
100
AcDbSortentsTable
330
2
331
1F
  5
1F
331
20
  5
20
331
21
  5
21
331
23
  5
23
  0
GROUP
  5
CFC
102
{ACAD_REACTORS
330
18
102
}
330
18
100
AcDbGroup
300

 70
     1
 71
     1
  0
GROUP
  5
2FE9
102
{ACAD_REACTORS
330
18
102
}
330
18
100
AcDbGroup
300

 70
     1
 71
     1
  0
GROUP
  5
312A
102
{ACAD_REACTORS
330
18
102
}
330
18
100
AcDbGroup
300

 70
     1
 71
     1
  0
GROUP
  5
15D1
102
{ACAD_REACTORS
330
18
102
}
330
18
100
AcDbGroup
300

 70
     1
 71
     1
  0
GROUP
  5
3154
102
{ACAD_REACTORS
330
18
102
}
330
18
100
AcDbGroup
300

 70
     1
 71
     1
  0
GROUP
  5
327B
102
{ACAD_REACTORS
330
18
102
}
330
18
100
AcDbGroup
300

 70
     1
 71
     1
  0
GROUP
  5
32AA
102
{ACAD_REACTORS
330
18
102
}
330
18
100
AcDbGroup
300

 70
     1
 71
     1
  0
GROUP
  5
3650
102
{ACAD_REACTORS
330
18
102
}
330
18
100
AcDbGroup
300

 70
     1
 71
     1
  0
GROUP
  5
367C
102
{ACAD_REACTORS
330
18
102
}
330
18
100
AcDbGroup
300

 70
     1
 71
     1
  0
GROUP
  5
1682
102
{ACAD_REACTORS
330
18
102
}
330
18
100
AcDbGroup
300

 70
     1
 71
     1
  0
GROUP
  5
1827
102
{ACAD_REACTORS
330
18
102
}
330
18
100
AcDbGroup
300

 70
     1
 71
     1
  0
GROUP
  5
218C
102
{ACAD_REACTORS
330
18
102
}
330
18
100
AcDbGroup
300

 70
     1
 71
     1
  0
GROUP
  5
18ED
102
{ACAD_REACTORS
330
18
102
}
330
18
100
AcDbGroup
300

 70
     1
 71
     1
  0
GROUP
  5
19E5
102
{ACAD_REACTORS
330
18
102
}
330
18
100
AcDbGroup
300

 70
     1
 71
     1
  0
GROUP
  5
1F8A
102
{ACAD_REACTORS
330
18
102
}
330
18
100
AcDbGroup
300

 70
     1
 71
     1
  0
GROUP
  5
2108
102
{ACAD_REACTORS
330
18
102
}
330
18
100
AcDbGroup
300

 70
     1
 71
     1
  0
GROUP
  5
3732
102
{ACAD_REACTORS
330
18
102
}
330
18
100
AcDbGroup
300

 70
     1
 71
     1
  0
GROUP
  5
37CF
102
{ACAD_REACTORS
330
18
102
}
330
18
100
AcDbGroup
300

 70
     1
 71
     1
  0
GROUP
  5
3837
102
{ACAD_REACTORS
330
18
102
}
330
18
100
AcDbGroup
300

 70
     1
 71
     1
  0
GROUP
  5
38C3
102
{ACAD_REACTORS
330
18
102
}
330
18
100
AcDbGroup
300

 70
     1
 71
     1
  0
GROUP
  5
39C3
102
{ACAD_REACTORS
330
18
102
}
330
18
100
AcDbGroup
300

 70
     1
 71
     1
  0
GROUP
  5
2335
102
{ACAD_REACTORS
330
18
102
}
330
18
100
AcDbGroup
300

 70
     1
 71
     1
  0
GROUP
  5
3AB4
102
{ACAD_REACTORS
330
18
102
}
330
18
100
AcDbGroup
300

 70
     1
 71
     1
  0
GROUP
  5
3BBC
102
{ACAD_REACTORS
330
18
102
}
330
18
100
AcDbGroup
300

 70
     1
 71
     1
  0
GROUP
  5
3D8C
102
{ACAD_REACTORS
330
18
102
}
330
18
100
AcDbGroup
300

 70
     1
 71
     1
  0
GROUP
  5
3FA3
102
{ACAD_REACTORS
330
18
102
}
330
18
100
AcDbGroup
300

 70
     1
 71
     1
  0
GROUP
  5
419F
102
{ACAD_REACTORS
330
18
102
}
330
18
100
AcDbGroup
300

 70
     1
 71
     1
340
4111
340
4110
340
410F
340
410E
340
410D
340
410C
340
410B
340
410A
340
4109
340
4108
340
4107
340
4106
340
4105
340
4104
340
4103
340
4102
340
4101
340
4100
340
40FF
340
40FE
340
40FD
340
40FC
340
40FB
340
40FA
340
40F9
340
40F8
340
40F7
340
40F6
340
40F5
340
40F4
340
40F3
340
40F2
340
40F1
340
40F0
340
40EF
340
40EE
340
40ED
340
40EC
340
40EB
340
40EA
340
40E9
340
40E8
340
40E7
340
40E6
340
40E5
340
40E4
340
40E3
340
40E2
340
40E1
340
40E0
340
40DF
340
40DE
340
40DD
340
40DC
340
40DB
340
40DA
340
40D9
340
40D8
340
40D7
340
40D6
340
40D5
340
40D4
340
40D3
340
40D2
340
40D1
340
40D0
340
40CF
340
40CE
340
40CD
340
40CC
340
40CB
340
40CA
340
40C9
340
40C8
340
40C7
340
40C6
340
40C5
340
40C4
340
40C3
340
40C2
340
40C1
340
40C0
340
40BF
340
40BE
340
40BD
340
40BC
340
40BB
340
40BA
340
40B9
340
40B8
340
40B7
340
40B6
340
40B5
340
40B4
340
40B3
340
40B2
340
40B1
340
40B0
340
40AF
340
40AE
340
40AD
340
40AC
340
40AB
340
40AA
340
40A9
340
40A8
340
40A6
340
40A5
340
40A4
340
40A3
340
40A2
340
40A1
340
40A0
340
409F
340
409E
340
409D
340
409C
340
409B
340
409A
340
4099
340
4098
340
4097
340
4096
340
4095
340
4094
340
4093
340
4092
340
4091
340
4090
340
408F
340
408E
340
408D
340
408C
340
408B
340
408A
340
4089
340
4088
340
4087
340
4086
340
4085
340
4084
340
4083
340
4082
340
4081
340
4080
340
407F
340
407E
340
407D
340
407C
340
407B
340
407A
340
4079
340
4078
340
4077
340
4076
340
4075
340
4074
340
4073
340
4072
340
4071
340
4070
340
406F
340
406E
340
406D
340
406C
340
406B
340
406A
340
4069
340
4068
340
4067
340
4066
340
4065
340
4064
340
4063
  0
GROUP
  5
2862
102
{ACAD_REACTORS
330
18
102
}
330
18
100
AcDbGroup
300

 70
     1
 71
     1
  0
GROUP
  5
299B
102
{ACAD_REACTORS
330
18
102
}
330
18
100
AcDbGroup
300

 70
     1
 71
     1
  0
GROUP
  5
2C07
102
{ACAD_REACTORS
330
18
102
}
330
18
100
AcDbGroup
300

 70
     1
 71
     1
  0
GROUP
  5
2DB5
102
{ACAD_REACTORS
330
18
102
}
330
18
100
AcDbGroup
300

 70
     1
 71
     1
  0
GROUP
  5
2E88
102
{ACAD_REACTORS
330
18
102
}
330
18
100
AcDbGroup
300

 70
     1
 71
     1
  0
GROUP
  5
2FBC
102
{ACAD_REACTORS
330
18
102
}
330
18
100
AcDbGroup
300

 70
     1
 71
     1
  0
LAYOUT
  5
5A
102
{ACAD_XDICTIONARY
360
41A2
102
}
102
{ACAD_REACTORS
330
58
102
}
330
58
100
AcDbPlotSettings
  1

  2
なし
  4

  6

 40
0.0
 41
0.0
 42
0.0
 43
0.0
 44
0.0
 45
0.0
 46
0.0
 47
0.0
 48
0.0
 49
0.0
140
0.0
141
0.0
142
1.0
143
1.0
 70
  1712
 72
     0
 73
     0
 74
     0
  7
monochrome.ctb
 75
     0
147
1.0
148
0.0
149
0.0
100
AcDbLayout
  1
Model
 70
     1
 71
     0
 10
0.0
 20
0.0
 11
12.0
 21
9.0
 12
0.0
 22
0.0
 32
0.0
 14
0.0
 24
0.0
 34
0.0
 15
0.0
 25
0.0
 35
0.0
146
0.0
 13
0.0
 23
0.0
 33
0.0
 16
1.0
 26
0.0
 36
0.0
 17
0.0
 27
1.0
 37
0.0
 76
     0
330
2
  0
LAYOUT
  5
5B
102
{ACAD_XDICTIONARY
360
41A4
102
}
102
{ACAD_REACTORS
330
58
102
}
330
58
100
AcDbPlotSettings
  1

  2
なし
  4

  6

 40
0.0
 41
0.0
 42
0.0
 43
0.0
 44
0.0
 45
0.0
 46
0.0
 47
0.0
 48
0.0
 49
0.0
140
0.0
141
0.0
142
1.0
143
1.0
 70
   688
 72
     0
 73
     0
 74
     5
  7
monochrome.ctb
 75
    16
147
1.0
148
0.0
149
0.0
100
AcDbLayout
  1
ﾚｲｱｳﾄ1
 70
     1
 71
     1
 10
0.0
 20
0.0
 11
12.0
 21
9.0
 12
0.0
 22
0.0
 32
0.0
 14
1.000000000000000E+20
 24
1.000000000000000E+20
 34
1.000000000000000E+20
 15
-1.000000000000000E+20
 25
-1.000000000000000E+20
 35
-1.000000000000000E+20
146
0.0
 13
0.0
 23
0.0
 33
0.0
 16
1.0
 26
0.0
 36
0.0
 17
0.0
 27
1.0
 37
0.0
 76
     0
330
7
  0
MLINESTYLE
  5
1D
102
{ACAD_REACTORS
330
19
102
}
330
19
100
AcDbMlineStyle
  2
STANDARD
 70
     0
  3

 62
   256
 51
90.0
 52
90.0
 71
     2
 49
0.5
 62
   256
  6
BYLAYER
 49
-0.5
 62
   256
  6
BYLAYER
  0
ACDBPLACEHOLDER
  5
57
102
{ACAD_REACTORS
330
56
102
}
330
56
  0
TABLESTYLE
  5
146
102
{ACAD_REACTORS
330
145
102
}
330
145
100
AcDbTableStyle
  3
Standard
 70
     0
 71
     0
 40
0.06
 41
0.06
280
     0
281
     0
  7
STANDARD
140
0.18
170
     2
 62
     0
 63
     7
283
     0
274
    -2
284
     1
 64
     0
275
    -2
285
     1
 65
     0
276
    -2
286
     1
 66
     0
277
    -2
287
     1
 67
     0
278
    -2
288
     1
 68
     0
279
    -2
289
     1
 69
     0
  7
STANDARD
140
0.25
170
     5
 62
     0
 63
     7
283
     0
274
    -2
284
     1
 64
     0
275
    -2
285
     1
 65
     0
276
    -2
286
     1
 66
     0
277
    -2
287
     1
 67
     0
278
    -2
288
     1
 68
     0
279
    -2
289
     1
 69
     0
  7
STANDARD
140
0.18
170
     5
 62
     0
 63
     7
283
     0
274
    -2
284
     1
 64
     0
275
    -2
285
     1
 65
     0
276
    -2
286
     1
 66
     0
277
    -2
287
     1
 67
     0
278
    -2
288
     1
 68
     0
279
    -2
289
     1
 69
     0
  0
DICTIONARYVAR
  5
1D2
102
{ACAD_REACTORS
330
1D1
102
}
330
1D1
100
DictionaryVariables
280
     0
  1
STANDARD
  0
DICTIONARYVAR
  5
D03
102
{ACAD_REACTORS
330
1D1
102
}
330
1D1
100
DictionaryVariables
280
     0
  1
1
  0
DICTIONARYVAR
  5
D04
102
{ACAD_REACTORS
330
1D1
102
}
330
1D1
100
DictionaryVariables
280
     0
  1

  0
DICTIONARY
  5
41A2
330
5A
100
AcDbDictionary
280
     1
281
     1
  3
ACAD_XREC_ROUNDTRIP
360
41A3
  0
DICTIONARY
  5
41A4
330
5B
100
AcDbDictionary
280
     1
281
     1
  3
ACAD_XREC_ROUNDTRIP
360
41A5
  0
XRECORD
  5
41A3
102
{ACAD_REACTORS
330
41A2
102
}
330
41A2
100
AcDbXrecord
280
     1
102
SHADEPLOT
 70
     0
102
SHADEPLOTRESLEVEL
 70
     2
102
SHADEPLOTCUSTOMDPI
 70
   300
  0
XRECORD
  5
41A5
102
{ACAD_REACTORS
330
41A4
102
}
330
41A4
100
AcDbXrecord
280
     1
102
SHADEPLOT
 70
     0
102
SHADEPLOTRESLEVEL
 70
     2
102
SHADEPLOTCUSTOMDPI
 70
   300
  0
ENDSEC
  0
EOF
