  0
SECTION
  2
HEADER
  9
$ACADVER
  1
AC1015
  9
$ACADMAINTVER
 70
    20
  9
$DWGCODEPAGE
  3
ANSI_932
  9
$INSBASE
 10
922.019522
 20
-675.4306699999999
 30
0.0
  9
$EXTMIN
 10
-241.1419945416994
 20
-0.0167891672346059
 30
-0.0000000000000053
  9
$EXTMAX
 10
329.2579607904597
 20
307.8274240742902
 30
0.0000000000000099
  9
$LIMMIN
 10
0.0
 20
0.0
  9
$LIMMAX
 10
420.0
 20
297.0
  9
$ORTHOMODE
 70
     1
  9
$REGENMODE
 70
     1
  9
$FILLMODE
 70
     1
  9
$QTEXTMODE
 70
     0
  9
$MIRRTEXT
 70
     1
  9
$LTSCALE
 40
1.0
  9
$ATTMODE
 70
     1
  9
$TEXTSIZE
 40
30.0
  9
$TRACEWID
 40
0.05
  9
$TEXTSTYLE
  7
SUNPOU
  9
$CLAYER
  8
0
  9
$CELTYPE
  6
BYLAYER
  9
$CECOLOR
 62
   256
  9
$CELTSCALE
 40
1.0
  9
$DISPSILH
 70
     0
  9
$DIMSCALE
 40
1.0
  9
$DIMASZ
 40
2.0
  9
$DIMEXO
 40
10.0
  9
$DIMDLI
 40
0.38
  9
$DIMRND
 40
0.0
  9
$DIMDLE
 40
0.0
  9
$DIMEXE
 40
0.0
  9
$DIMTP
 40
0.0
  9
$DIMTM
 40
0.0
  9
$DIMTXT
 40
10.0
  9
$DIMCEN
 40
0.0
  9
$DIMTSZ
 40
0.0
  9
$DIMTOL
 70
     0
  9
$DIMLIM
 70
     0
  9
$DIMTIH
 70
     0
  9
$DIMTOH
 70
     0
  9
$DIMSE1
 70
     0
  9
$DIMSE2
 70
     0
  9
$DIMTAD
 70
     1
  9
$DIMZIN
 70
     0
  9
$DIMBLK
  1
Dot
  9
$DIMASO
 70
     1
  9
$DIMSHO
 70
     1
  9
$DIMPOST
  1

  9
$DIMAPOST
  1

  9
$DIMALT
 70
     0
  9
$DIMALTD
 70
     2
  9
$DIMALTF
 40
25.4
  9
$DIMLFAC
 40
1.0
  9
$DIMTOFL
 70
     0
  9
$DIMTVP
 40
0.0
  9
$DIMTIX
 70
     0
  9
$DIMSOXD
 70
     0
  9
$DIMSAH
 70
     0
  9
$DIMBLK1
  1

  9
$DIMBLK2
  1

  9
$DIMSTYLE
  2
STANDARD
  9
$DIMCLRD
 70
    60
  9
$DIMCLRE
 70
    70
  9
$DIMCLRT
 70
    60
  9
$DIMTFAC
 40
0.064286
  9
$DIMGAP
 40
3.0
  9
$DIMJUST
 70
     0
  9
$DIMSD1
 70
     0
  9
$DIMSD2
 70
     0
  9
$DIMTOLJ
 70
     1
  9
$DIMTZIN
 70
     0
  9
$DIMALTZ
 70
     0
  9
$DIMALTTZ
 70
     0
  9
$DIMUPT
 70
     0
  9
$DIMDEC
 70
     0
  9
$DIMTDEC
 70
     0
  9
$DIMALTU
 70
     2
  9
$DIMALTTD
 70
     2
  9
$DIMTXSTY
  7
SUNPOU
  9
$DIMAUNIT
 70
     0
  9
$DIMADEC
 70
     0
  9
$DIMALTRND
 40
0.0
  9
$DIMAZIN
 70
     0
  9
$DIMDSEP
 70
    46
  9
$DIMATFIT
 70
     3
  9
$DIMFRAC
 70
     0
  9
$DIMLDRBLK
  1

  9
$DIMLUNIT
 70
     2
  9
$DIMLWD
 70
    -2
  9
$DIMLWE
 70
    -2
  9
$DIMTMOVE
 70
     0
  9
$LUNITS
 70
     2
  9
$LUPREC
 70
     5
  9
$SKETCHINC
 40
0.1
  9
$FILLETRAD
 40
0.0
  9
$AUNITS
 70
     0
  9
$AUPREC
 70
     0
  9
$MENU
  1
acad
  9
$ELEVATION
 40
0.0
  9
$PELEVATION
 40
0.0
  9
$THICKNESS
 40
0.0
  9
$LIMCHECK
 70
     0
  9
$CHAMFERA
 40
0.0
  9
$CHAMFERB
 40
0.0
  9
$CHAMFERC
 40
0.0
  9
$CHAMFERD
 40
0.0
  9
$SKPOLY
 70
     0
  9
$TDCREATE
 40
2450623.654673033
  9
$TDUCREATE
 40
2450623.279673032
  9
$TDUPDATE
 40
2453858.593813310
  9
$TDUUPDATE
 40
2453858.218813310
  9
$TDINDWG
 40
0.1600829051
  9
$TDUSRTIMER
 40
0.1600827315
  9
$USRTIMER
 70
     1
  9
$ANGBASE
 50
0.0
  9
$ANGDIR
 70
     0
  9
$PDMODE
 70
     0
  9
$PDSIZE
 40
0.0
  9
$PLINEWID
 40
0.0
  9
$SPLFRAME
 70
     0
  9
$SPLINETYPE
 70
     6
  9
$SPLINESEGS
 70
     8
  9
$HANDSEED
  5
3FB0
  9
$SURFTAB1
 70
     6
  9
$SURFTAB2
 70
     6
  9
$SURFTYPE
 70
     6
  9
$SURFU
 70
     6
  9
$SURFV
 70
     6
  9
$UCSBASE
  2

  9
$UCSNAME
  2

  9
$UCSORG
 10
0.0
 20
0.0
 30
0.0
  9
$UCSXDIR
 10
1.0
 20
0.0
 30
0.0
  9
$UCSYDIR
 10
0.0
 20
1.0
 30
0.0
  9
$UCSORTHOREF
  2

  9
$UCSORTHOVIEW
 70
     0
  9
$UCSORGTOP
 10
0.0
 20
0.0
 30
0.0
  9
$UCSORGBOTTOM
 10
0.0
 20
0.0
 30
0.0
  9
$UCSORGLEFT
 10
0.0
 20
0.0
 30
0.0
  9
$UCSORGRIGHT
 10
0.0
 20
0.0
 30
0.0
  9
$UCSORGFRONT
 10
0.0
 20
0.0
 30
0.0
  9
$UCSORGBACK
 10
0.0
 20
0.0
 30
0.0
  9
$PUCSBASE
  2

  9
$PUCSNAME
  2

  9
$PUCSORG
 10
0.0
 20
0.0
 30
0.0
  9
$PUCSXDIR
 10
1.0
 20
0.0
 30
0.0
  9
$PUCSYDIR
 10
0.0
 20
1.0
 30
0.0
  9
$PUCSORTHOREF
  2

  9
$PUCSORTHOVIEW
 70
     0
  9
$PUCSORGTOP
 10
0.0
 20
0.0
 30
0.0
  9
$PUCSORGBOTTOM
 10
0.0
 20
0.0
 30
0.0
  9
$PUCSORGLEFT
 10
0.0
 20
0.0
 30
0.0
  9
$PUCSORGRIGHT
 10
0.0
 20
0.0
 30
0.0
  9
$PUCSORGFRONT
 10
0.0
 20
0.0
 30
0.0
  9
$PUCSORGBACK
 10
0.0
 20
0.0
 30
0.0
  9
$USERI1
 70
     0
  9
$USERI2
 70
     0
  9
$USERI3
 70
     0
  9
$USERI4
 70
     0
  9
$USERI5
 70
     0
  9
$USERR1
 40
0.0
  9
$USERR2
 40
0.0
  9
$USERR3
 40
0.0
  9
$USERR4
 40
0.0
  9
$USERR5
 40
0.0
  9
$WORLDVIEW
 70
     1
  9
$SHADEDGE
 70
     3
  9
$SHADEDIF
 70
    70
  9
$TILEMODE
 70
     1
  9
$MAXACTVP
 70
    16
  9
$PINSBASE
 10
0.0
 20
0.0
 30
0.0
  9
$PLIMCHECK
 70
     0
  9
$PEXTMIN
 10
1.000000000000000E+20
 20
1.000000000000000E+20
 30
1.000000000000000E+20
  9
$PEXTMAX
 10
-1.000000000000000E+20
 20
-1.000000000000000E+20
 30
-1.000000000000000E+20
  9
$PLIMMIN
 10
0.0
 20
0.0
  9
$PLIMMAX
 10
12.0
 20
9.0
  9
$UNITMODE
 70
     0
  9
$VISRETAIN
 70
     0
  9
$PLINEGEN
 70
     0
  9
$PSLTSCALE
 70
     1
  9
$TREEDEPTH
 70
  3020
  9
$CMLSTYLE
  2
STANDARD
  9
$CMLJUST
 70
     0
  9
$CMLSCALE
 40
1.0
  9
$PROXYGRAPHICS
 70
     1
  9
$MEASUREMENT
 70
     0
  9
$CELWEIGHT
370
    -1
  9
$ENDCAPS
280
     0
  9
$JOINSTYLE
280
     0
  9
$LWDISPLAY
290
     0
  9
$INSUNITS
 70
     0
  9
$HYPERLINKBASE
  1

  9
$STYLESHEET
  1

  9
$XEDIT
290
     1
  9
$CEPSNTYPE
380
     0
  9
$PSTYLEMODE
290
     1
  9
$FINGERPRINTGUID
  2
{FB88A696-E29C-4009-92AF-A3599A8169D5}
  9
$VERSIONGUID
  2
{29A42BFC-9DFB-4FE0-B1E3-5189A43E301F}
  9
$EXTNAMES
290
     1
  9
$PSVPSCALE
 40
0.0
  9
$OLESTARTUP
290
     0
  0
ENDSEC
  0
SECTION
  2
CLASSES
  0
CLASS
  1
DICTIONARYVAR
  2
AcDbDictionaryVar
  3
ObjectDBX Classes
 90
        0
280
     0
281
     0
  0
CLASS
  1
ACDBDICTIONARYWDFLT
  2
AcDbDictionaryWithDefault
  3
ObjectDBX Classes
 90
        0
280
     0
281
     0
  0
CLASS
  1
ACDBPLACEHOLDER
  2
AcDbPlaceHolder
  3
ObjectDBX Classes
 90
        0
280
     0
281
     0
  0
CLASS
  1
LAYOUT
  2
AcDbLayout
  3
ObjectDBX Classes
 90
        0
280
     0
281
     0
  0
CLASS
  1
TABLESTYLE
  2
AcDbTableStyle
  3
ObjectDBX Classes
 90
     2047
280
     0
281
     0
  0
CLASS
  1
SORTENTSTABLE
  2
AcDbSortentsTable
  3
ObjectDBX Classes
 90
        0
280
     0
281
     0
  0
ENDSEC
  0
SECTION
  2
TABLES
  0
TABLE
  2
VPORT
  5
12
330
0
100
AcDbSymbolTable
 70
    19
  0
VPORT
  5
3FAA
330
12
100
AcDbSymbolTableRecord
100
AcDbViewportTableRecord
  2
*Active
 70
     0
 10
0.0
 20
0.0
 11
1.0
 21
1.0
 12
44.05798312438011
 22
153.9053174535277
 13
0.0
 23
0.0
 14
1.0
 24
1.0
 15
0.0
 25
0.0
 16
0.0
 26
0.0
 36
1.0
 17
0.0
 27
0.0
 37
0.0
 40
368.0190993988105
 41
1.557544757033248
 42
50.0
 43
0.0
 44
0.0
 50
0.0
 51
0.0
 71
     0
 72
 20000
 73
     1
 74
     1
 75
     0
 76
     0
 77
     0
 78
     0
281
     0
 65
     1
110
0.0
120
0.0
130
0.0
111
1.0
121
0.0
131
0.0
112
0.0
122
1.0
132
0.0
 79
     0
146
0.0
  0
ENDTAB
  0
TABLE
  2
LTYPE
  5
D
330
0
100
AcDbSymbolTable
 70
     2
  0
LTYPE
  5
E
330
D
100
AcDbSymbolTableRecord
100
AcDbLinetypeTableRecord
  2
BYBLOCK
 70
     0
  3

 72
    65
 73
     0
 40
0.0
  0
LTYPE
  5
F
330
D
100
AcDbSymbolTableRecord
100
AcDbLinetypeTableRecord
  2
BYLAYER
 70
     0
  3

 72
    65
 73
     0
 40
0.0
  0
LTYPE
  5
5
330
D
100
AcDbSymbolTableRecord
100
AcDbLinetypeTableRecord
  2
CONTINUOUS
 70
     0
  3
Solid line
 72
    65
 73
     0
 40
0.0
  0
ENDTAB
  0
TABLE
  2
LAYER
  5
A
102
{ACAD_XDICTIONARY
360
1B4
102
}
330
0
100
AcDbSymbolTable
 70
     6
  0
LAYER
  5
4
330
A
100
AcDbSymbolTableRecord
100
AcDbLayerTableRecord
  2
0
 70
     0
 62
     7
  6
CONTINUOUS
370
    -3
390
57
  0
LAYER
  5
25
330
A
100
AcDbSymbolTableRecord
100
AcDbLayerTableRecord
  2
KIJUN
 70
     0
 62
     7
  6
CONTINUOUS
370
    -3
390
57
  0
LAYER
  5
22
330
A
100
AcDbSymbolTableRecord
100
AcDbLayerTableRecord
  2
HOJO
 70
     0
 62
     3
  6
CONTINUOUS
370
    -3
390
57
  0
LAYER
  5
1B
330
A
100
AcDbSymbolTableRecord
100
AcDbLayerTableRecord
  2
WAKU
 70
     0
 62
     1
  6
CONTINUOUS
370
    -3
390
57
  0
LAYER
  5
31
330
A
100
AcDbSymbolTableRecord
100
AcDbLayerTableRecord
  2
DEFPOINTS
 70
     0
 62
     7
  6
CONTINUOUS
290
     0
370
    -3
390
57
  0
LAYER
  5
28
330
A
100
AcDbSymbolTableRecord
100
AcDbLayerTableRecord
  2
SUNPOU
 70
     0
 62
    70
  6
CONTINUOUS
370
    -3
390
57
  0
ENDTAB
  0
TABLE
  2
STYLE
  5
B
330
0
100
AcDbSymbolTable
 70
     3
  0
STYLE
  5
C
330
B
100
AcDbSymbolTableRecord
100
AcDbTextStyleTableRecord
  2
STANDARD
 70
     0
 40
0.0
 41
1.0
 50
0.0
 71
     0
 42
0.2
  3
txt
  4

  0
STYLE
  5
1C
330
B
100
AcDbSymbolTableRecord
100
AcDbTextStyleTableRecord
  2
SUNPOU
 70
     0
 40
0.0
 41
1.0
 50
0.0
 71
     0
 42
30.0
  3
txt
  4
bigfont
  0
STYLE
  5
14A
330
B
100
AcDbSymbolTableRecord
100
AcDbTextStyleTableRecord
  2
LIFE
 70
     0
 40
0.0
 41
0.7
 50
0.0
 71
     0
 42
10.0
  3
romans
  4
extfont
  0
ENDTAB
  0
TABLE
  2
VIEW
  5
10
330
0
100
AcDbSymbolTable
 70
     0
  0
ENDTAB
  0
TABLE
  2
UCS
  5
11
330
0
100
AcDbSymbolTable
 70
     0
  0
ENDTAB
  0
TABLE
  2
APPID
  5
14
330
0
100
AcDbSymbolTable
 70
    10
  0
APPID
  5
15
330
14
100
AcDbSymbolTableRecord
100
AcDbRegAppTableRecord
  2
ACAD
 70
     0
  0
APPID
  5
1D3
330
14
100
AcDbSymbolTableRecord
100
AcDbRegAppTableRecord
  2
ACAD_DSTYLE_DIMTEXT_FILL
 70
     0
  0
APPID
  5
1D4
330
14
100
AcDbSymbolTableRecord
100
AcDbRegAppTableRecord
  2
ACAD_DSTYLE_DIMEXT_LENGTH
 70
     0
  0
APPID
  5
1D5
330
14
100
AcDbSymbolTableRecord
100
AcDbRegAppTableRecord
  2
ACAD_DSTYLE_DIMEXT_ENABLED
 70
     0
  0
APPID
  5
1D6
330
14
100
AcDbSymbolTableRecord
100
AcDbRegAppTableRecord
  2
ACAD_DSTYLE_DIM_LINETYPE
 70
     0
  0
APPID
  5
1D7
330
14
100
AcDbSymbolTableRecord
100
AcDbRegAppTableRecord
  2
ACAD_DSTYLE_DIM_EXT1_LINETYPE
 70
     0
  0
APPID
  5
1D8
330
14
100
AcDbSymbolTableRecord
100
AcDbRegAppTableRecord
  2
ACAD_DSTYLE_DIM_EXT2_LINETYPE
 70
     0
  0
APPID
  5
294
330
14
100
AcDbSymbolTableRecord
100
AcDbRegAppTableRecord
  2
ACAD_DSTYLE_DIMJOGGED_JOGANGLE_SYMBOL
 70
     0
  0
APPID
  5
478
330
14
100
AcDbSymbolTableRecord
100
AcDbRegAppTableRecord
  2
ACAD_DSTYLE_DIMARC_LENGTH_SYMBOL
 70
     0
  0
APPID
  5
157B
330
14
100
AcDbSymbolTableRecord
100
AcDbRegAppTableRecord
  2
ACAD_EXEMPT_FROM_CAD_STANDARDS
 70
     0
  0
ENDTAB
  0
TABLE
  2
DIMSTYLE
  5
16
330
0
100
AcDbSymbolTable
 70
     2
100
AcDbDimStyleTable
 71
     1
340
1E
  0
DIMSTYLE
105
1E
102
{ACAD_REACTORS
330
3F1F
330
3F2C
102
}
330
16
100
AcDbSymbolTableRecord
100
AcDbDimStyleTableRecord
  2
STANDARD
 70
     0
340
C
  0
ENDTAB
  0
TABLE
  2
BLOCK_RECORD
  5
1
330
0
100
AcDbSymbolTable
 70
    91
  0
BLOCK_RECORD
  5
2
102
{ACAD_XDICTIONARY
360
1578
102
}
330
1
100
AcDbSymbolTableRecord
100
AcDbBlockTableRecord
  2
*MODEL_SPACE
340
5A
  0
BLOCK_RECORD
  5
7
330
1
100
AcDbSymbolTableRecord
100
AcDbBlockTableRecord
  2
*PAPER_SPACE
340
5B
  0
BLOCK_RECORD
  5
109
330
1
100
AcDbSymbolTableRecord
100
AcDbBlockTableRecord
  2
_Dot
340
0
102
{BLKREFS
331
CF6
331
CF7
331
15B9
331
15BA
331
15CB
331
15CC
331
1664
331
1665
331
1686
331
1687
331
1818
331
1819
331
1821
331
1822
331
18DE
331
18DF
331
18E7
331
18E8
331
19C4
331
19C5
331
19DF
331
19E0
331
1F7B
331
1F7C
331
1F84
331
1F85
331
20F9
331
20FA
331
2102
331
2103
331
2165
331
2166
331
2172
331
2173
331
2314
331
2315
331
2326
331
2327
331
232F
331
2330
331
2834
331
2835
331
2848
331
2849
331
298C
331
298D
331
2995
331
2996
331
2BF8
331
2BF9
331
2C01
331
2C02
331
2DA5
331
2DA6
331
2DAE
331
2DAF
331
2E70
331
2E71
331
2E82
331
2E83
331
2FAC
331
2FAD
331
2FB5
331
2FB6
331
311A
331
311B
331
3123
331
3124
331
32AE
331
32AF
331
32B7
331
32B8
331
3692
331
3693
331
369B
331
369C
331
371A
331
371B
331
3743
331
3744
331
39C7
331
39C8
331
3A9C
331
3A9D
331
3AAE
331
3AAF
331
3BA4
331
3BA5
331
3BB6
331
3BB7
331
3D99
331
3D9A
331
3DAB
331
3DAC
331
3F8B
331
3F8C
331
3F9D
331
3F9E
102
}
  0
BLOCK_RECORD
  5
35E9
330
1
100
AcDbSymbolTableRecord
100
AcDbBlockTableRecord
  2
*D68
340
0
  0
BLOCK_RECORD
  5
35F6
330
1
100
AcDbSymbolTableRecord
100
AcDbBlockTableRecord
  2
*D69
340
0
  0
BLOCK_RECORD
  5
370A
330
1
100
AcDbSymbolTableRecord
100
AcDbBlockTableRecord
  2
*D71
340
0
  0
BLOCK_RECORD
  5
3734
330
1
100
AcDbSymbolTableRecord
100
AcDbBlockTableRecord
  2
*D73
340
0
  0
BLOCK_RECORD
  5
37B1
330
1
100
AcDbSymbolTableRecord
100
AcDbBlockTableRecord
  2
*D75
340
0
  0
BLOCK_RECORD
  5
3A45
330
1
100
AcDbSymbolTableRecord
100
AcDbBlockTableRecord
  2
*D80
340
0
  0
BLOCK_RECORD
  5
3A52
330
1
100
AcDbSymbolTableRecord
100
AcDbBlockTableRecord
  2
*D81
340
0
  0
BLOCK_RECORD
  5
3B2D
330
1
100
AcDbSymbolTableRecord
100
AcDbBlockTableRecord
  2
*D83
340
0
  0
BLOCK_RECORD
  5
3B3A
330
1
100
AcDbSymbolTableRecord
100
AcDbBlockTableRecord
  2
*D84
340
0
  0
BLOCK_RECORD
  5
3D2D
330
1
100
AcDbSymbolTableRecord
100
AcDbBlockTableRecord
  2
*D86
340
0
  0
BLOCK_RECORD
  5
3D3A
330
1
100
AcDbSymbolTableRecord
100
AcDbBlockTableRecord
  2
*D87
340
0
  0
BLOCK_RECORD
  5
3F20
330
1
100
AcDbSymbolTableRecord
100
AcDbBlockTableRecord
  2
*D89
340
0
  0
BLOCK_RECORD
  5
3F2D
330
1
100
AcDbSymbolTableRecord
100
AcDbBlockTableRecord
  2
*D90
340
0
  0
ENDTAB
  0
ENDSEC
  0
SECTION
  2
BLOCKS
  0
BLOCK
  5
3
330
2
100
AcDbEntity
  8
0
100
AcDbBlockBegin
  2
*MODEL_SPACE
 70
     0
 10
0.0
 20
0.0
 30
0.0
  3
*MODEL_SPACE
  1

  0
ENDBLK
  5
6
330
2
100
AcDbEntity
  8
0
100
AcDbBlockEnd
  0
BLOCK
  5
8
330
7
100
AcDbEntity
 67
     1
  8
0
100
AcDbBlockBegin
  2
*PAPER_SPACE
 70
     0
 10
0.0
 20
0.0
 30
0.0
  3
*PAPER_SPACE
  1

  0
ENDBLK
  5
9
330
7
100
AcDbEntity
 67
     1
  8
0
100
AcDbBlockEnd
  0
BLOCK
  5
10C
330
109
100
AcDbEntity
  8
0
100
AcDbBlockBegin
  2
_Dot
 70
     0
 10
0.0
 20
0.0
 30
0.0
  3
_Dot
  1

  0
LWPOLYLINE
  5
10A
330
109
100
AcDbEntity
  8
0
  6
ByBlock
 62
     0
100
AcDbPolyline
 90
        2
 70
     1
 43
0.5
 10
-0.25
 20
0.0
 42
1.0
 10
0.25
 20
0.0
 42
1.0
  0
LINE
  5
10B
330
109
100
AcDbEntity
  8
0
  6
ByBlock
 62
     0
370
    -2
100
AcDbLine
 10
-0.5
 20
0.0
 30
0.0
 11
-1.0
 21
0.0
 31
0.0
  0
ENDBLK
  5
10D
330
109
100
AcDbEntity
  8
0
100
AcDbBlockEnd
  0
BLOCK
  5
35F3
330
35E9
100
AcDbEntity
  8
0
100
AcDbBlockBegin
  2
*D68
 70
     1
 10
0.0
 20
0.0
 30
0.0
  3
*D68
  1

  0
LINE
  5
368F
330
35E9
100
AcDbEntity
  8
SUNPOU
 62
    70
370
    -2
100
AcDbLine
 10
-57.31304931990838
 20
149.8921824087356
 30
0.0
 11
-57.31304931990837
 21
205.1481820578692
 31
0.0
  0
LINE
  5
3690
330
35E9
100
AcDbEntity
  8
SUNPOU
 62
    70
370
    -2
100
AcDbLine
 10
248.6869506800916
 20
150.5513573235502
 30
0.0
 11
248.6869506800916
 21
205.1481820578692
 31
0.0
  0
LINE
  5
3691
330
35E9
100
AcDbEntity
  8
SUNPOU
 62
    60
370
    -2
100
AcDbLine
 10
-55.31304931990836
 20
205.1481820578692
 30
0.0
 11
246.6869506800916
 21
205.1481820578692
 31
0.0
  0
INSERT
  5
3692
330
35E9
100
AcDbEntity
  8
SUNPOU
 62
    60
370
    -2
100
AcDbBlockReference
  2
_Dot
 10
-57.31304931990837
 20
205.1481820578692
 30
0.0
 41
2.0
 42
2.0
 43
2.0
 50
180.0
  0
INSERT
  5
3693
330
35E9
100
AcDbEntity
  8
SUNPOU
 62
    60
370
    -2
100
AcDbBlockReference
  2
_Dot
 10
248.6869506800916
 20
205.1481820578692
 30
0.0
 41
2.0
 42
2.0
 43
2.0
  0
MTEXT
  5
3694
330
35E9
100
AcDbEntity
  8
SUNPOU
 62
    60
100
AcDbMText
 10
95.68695068009162
 20
213.1481820578692
 30
0.0
 40
10.0
 41
0.0
 71
     5
 72
     1
  1
\A1;306
  7
SUNPOU
 73
     1
 44
1.0
1001
ACAD
1000
MTEXTBEGIN
1070
    73
1070
     1
1070
    44
1040
1.0
1070
    74
1070
     0
1000
MTEXTEND
  0
POINT
  5
3695
330
35E9
100
AcDbEntity
  8
DEFPOINTS
 62
     0
100
AcDbPoint
 10
-57.31304931990838
 20
139.8921824087356
 30
0.0
  0
POINT
  5
3696
330
35E9
100
AcDbEntity
  8
DEFPOINTS
 62
     0
100
AcDbPoint
 10
248.6869506800916
 20
140.5513573235502
 30
0.0
  0
POINT
  5
3697
330
35E9
100
AcDbEntity
  8
DEFPOINTS
 62
     0
100
AcDbPoint
 10
248.6869506800916
 20
205.1481820578692
 30
0.0
  0
ENDBLK
  5
35F4
330
35E9
100
AcDbEntity
  8
0
100
AcDbBlockEnd
  0
BLOCK
  5
3600
330
35F6
100
AcDbEntity
  8
0
100
AcDbBlockBegin
  2
*D69
 70
     1
 10
0.0
 20
0.0
 30
0.0
  3
*D69
  1

  0
LINE
  5
3698
330
35F6
100
AcDbEntity
  8
SUNPOU
 62
    70
370
    -2
100
AcDbLine
 10
-67.31304931990836
 20
163.7291678152901
 30
0.0
 11
-98.37628952802333
 21
163.7291678152901
 31
0.0
  0
LINE
  5
3699
330
35F6
100
AcDbEntity
  8
SUNPOU
 62
    70
370
    -2
100
AcDbLine
 10
-67.49508426752891
 20
117.7291678152901
 30
0.0
 11
-98.37628952802333
 21
117.7291678152901
 31
0.0
  0
LINE
  5
369A
330
35F6
100
AcDbEntity
  8
SUNPOU
 62
    60
370
    -2
100
AcDbLine
 10
-98.37628952802333
 20
161.7291678152901
 30
0.0
 11
-98.37628952802333
 21
119.7291678152901
 31
0.0
  0
INSERT
  5
369B
330
35F6
100
AcDbEntity
  8
SUNPOU
 62
    60
370
    -2
100
AcDbBlockReference
  2
_Dot
 10
-98.37628952802333
 20
163.7291678152901
 30
0.0
 41
2.0
 42
2.0
 43
2.0
 50
90.0
  0
INSERT
  5
369C
330
35F6
100
AcDbEntity
  8
SUNPOU
 62
    60
370
    -2
100
AcDbBlockReference
  2
_Dot
 10
-98.37628952802333
 20
117.7291678152901
 30
0.0
 41
2.0
 42
2.0
 43
2.0
 50
270.0
  0
MTEXT
  5
369D
330
35F6
100
AcDbEntity
  8
SUNPOU
 62
    60
100
AcDbMText
 10
-106.3762895280233
 20
140.7291678152901
 30
0.0
 40
10.0
 41
0.0
 71
     5
 72
     1
  1
\A1;46
  7
SUNPOU
 11
0.0000000000000001
 21
1.0
 31
0.0
 73
     1
 44
1.0
1001
ACAD
1000
MTEXTBEGIN
1070
    73
1070
     1
1070
    44
1040
1.0
1070
    74
1070
     0
1000
MTEXTEND
  0
POINT
  5
369E
330
35F6
100
AcDbEntity
  8
DEFPOINTS
 62
     0
100
AcDbPoint
 10
-57.31304931990838
 20
163.7291678152901
 30
0.0
  0
POINT
  5
369F
330
35F6
100
AcDbEntity
  8
DEFPOINTS
 62
     0
100
AcDbPoint
 10
-57.49508426752891
 20
117.7291678152901
 30
0.0
  0
POINT
  5
36A0
330
35F6
100
AcDbEntity
  8
DEFPOINTS
 62
     0
100
AcDbPoint
 10
-98.37628952802333
 20
117.7291678152901
 30
0.0
  0
ENDBLK
  5
3601
330
35F6
100
AcDbEntity
  8
0
100
AcDbBlockEnd
  0
BLOCK
  5
3714
330
370A
100
AcDbEntity
  8
0
100
AcDbBlockBegin
  2
*D71
 70
     1
 10
0.0
 20
0.0
 30
0.0
  3
*D71
  1

  0
LINE
  5
3716
330
370A
100
AcDbEntity
  8
SUNPOU
 62
    70
370
    -2
100
AcDbLine
 10
28.04651099485443
 20
67.73890226967478
 30
0.0
 11
28.04651099485444
 21
96.76277591141218
 31
0.0
  0
LINE
  5
3717
330
370A
100
AcDbEntity
  8
SUNPOU
 62
    70
370
    -2
100
AcDbLine
 10
67.88324783326004
 20
68.05244005182112
 30
0.0
 11
67.88324783326004
 21
96.76277591141218
 31
0.0
  0
LINE
  5
3718
330
370A
100
AcDbEntity
  8
SUNPOU
 62
    60
370
    -2
100
AcDbLine
 10
30.04651099485443
 20
96.76277591141218
 30
0.0
 11
65.88324783326005
 21
96.76277591141218
 31
0.0
  0
LINE
  5
3719
330
370A
100
AcDbEntity
  8
SUNPOU
 62
    60
370
    -2
100
AcDbLine
 10
67.88324783326004
 20
96.76277591141218
 30
0.0
 11
155.88324783326
 21
96.76277591141218
 31
0.0
  0
INSERT
  5
371A
330
370A
100
AcDbEntity
  8
SUNPOU
 62
    60
370
    -2
100
AcDbBlockReference
  2
_Dot
 10
28.04651099485444
 20
96.76277591141218
 30
0.0
 41
2.0
 42
2.0
 43
2.0
 50
180.0
  0
INSERT
  5
371B
330
370A
100
AcDbEntity
  8
SUNPOU
 62
    60
370
    -2
100
AcDbBlockReference
  2
_Dot
 10
67.88324783326004
 20
96.76277591141218
 30
0.0
 41
2.0
 42
2.0
 43
2.0
  0
MTEXT
  5
371C
330
370A
100
AcDbEntity
  8
SUNPOU
 62
    60
100
AcDbMText
 10
112.88324783326
 20
104.7627759114122
 30
0.0
 40
10.0
 41
0.0
 71
     5
 72
     1
  1
\A1;39.836737
  7
SUNPOU
 73
     1
 44
1.0
1001
ACAD
1000
MTEXTBEGIN
1070
    73
1070
     1
1070
    44
1040
1.0
1070
    74
1070
     0
1000
MTEXTEND
  0
POINT
  5
371D
330
370A
100
AcDbEntity
  8
DEFPOINTS
 62
     0
100
AcDbPoint
 10
28.04651099485443
 20
57.73890226967478
 30
0.0
  0
POINT
  5
371E
330
370A
100
AcDbEntity
  8
DEFPOINTS
 62
     0
100
AcDbPoint
 10
67.88324783326004
 20
58.05244005182112
 30
0.0
  0
POINT
  5
371F
330
370A
100
AcDbEntity
  8
DEFPOINTS
 62
     0
100
AcDbPoint
 10
67.88324783326004
 20
96.76277591141218
 30
0.0
  0
ENDBLK
  5
3715
330
370A
100
AcDbEntity
  8
0
100
AcDbBlockEnd
  0
BLOCK
  5
373E
330
3734
100
AcDbEntity
  8
0
100
AcDbBlockBegin
  2
*D73
 70
     1
 10
0.0
 20
0.0
 30
0.0
  3
*D73
  1

  0
LINE
  5
3740
330
3734
100
AcDbEntity
  8
SUNPOU
 62
    70
370
    -2
100
AcDbLine
 10
27.89994361320522
 20
69.85225236533939
 30
0.0
 11
27.89994361320522
 21
98.69576219890257
 31
0.0
  0
LINE
  5
3741
330
3734
100
AcDbEntity
  8
SUNPOU
 62
    70
370
    -2
100
AcDbLine
 10
67.89994361320521
 20
69.85225236533939
 30
0.0
 11
67.89994361320521
 21
98.69576219890257
 31
0.0
  0
LINE
  5
3742
330
3734
100
AcDbEntity
  8
SUNPOU
 62
    60
370
    -2
100
AcDbLine
 10
29.89994361320522
 20
98.69576219890257
 30
0.0
 11
65.8999436132052
 21
98.69576219890257
 31
0.0
  0
INSERT
  5
3743
330
3734
100
AcDbEntity
  8
SUNPOU
 62
    60
370
    -2
100
AcDbBlockReference
  2
_Dot
 10
27.89994361320522
 20
98.69576219890257
 30
0.0
 41
2.0
 42
2.0
 43
2.0
 50
180.0
  0
INSERT
  5
3744
330
3734
100
AcDbEntity
  8
SUNPOU
 62
    60
370
    -2
100
AcDbBlockReference
  2
_Dot
 10
67.89994361320521
 20
98.69576219890257
 30
0.0
 41
2.0
 42
2.0
 43
2.0
  0
MTEXT
  5
3745
330
3734
100
AcDbEntity
  8
SUNPOU
 62
    60
100
AcDbMText
 10
47.89994361320521
 20
106.6957621989025
 30
0.0
 40
10.0
 41
0.0
 71
     5
 72
     1
  1
\A1;40φ
  7
SUNPOU
 73
     1
 44
1.0
1001
ACAD
1000
MTEXTBEGIN
1070
    73
1070
     1
1070
    44
1040
1.0
1070
    74
1070
     0
1000
MTEXTEND
  0
POINT
  5
3746
330
3734
100
AcDbEntity
  8
DEFPOINTS
 62
     0
100
AcDbPoint
 10
27.89994361320522
 20
59.85225236533939
 30
0.0
  0
POINT
  5
3747
330
3734
100
AcDbEntity
  8
DEFPOINTS
 62
     0
100
AcDbPoint
 10
67.89994361320521
 20
59.85225236533939
 30
0.0
  0
POINT
  5
3748
330
3734
100
AcDbEntity
  8
DEFPOINTS
 62
     0
100
AcDbPoint
 10
67.89994361320521
 20
98.69576219890257
 30
0.0
  0
ENDBLK
  5
373F
330
3734
100
AcDbEntity
  8
0
100
AcDbBlockEnd
  0
BLOCK
  5
37BB
330
37B1
100
AcDbEntity
  8
0
100
AcDbBlockBegin
  2
*D75
 70
     1
 10
0.0
 20
0.0
 30
0.0
  3
*D75
  1

  0
LINE
  5
39C4
330
37B1
100
AcDbEntity
  8
SUNPOU
 62
    70
370
    -2
100
AcDbLine
 10
-42.54865485741496
 20
157.2140937351553
 30
0.0
 11
-42.54865485741495
 21
282.2045269340939
 31
0.0
  0
LINE
  5
39C5
330
37B1
100
AcDbEntity
  8
SUNPOU
 62
    70
370
    -2
100
AcDbLine
 10
149.451345142585
 20
157.2140937351553
 30
0.0
 11
149.451345142585
 21
282.2045269340939
 31
0.0
  0
LINE
  5
39C6
330
37B1
100
AcDbEntity
  8
SUNPOU
 62
    60
370
    -2
100
AcDbLine
 10
-40.54865485741495
 20
282.2045269340939
 30
0.0
 11
147.451345142585
 21
282.2045269340939
 31
0.0
  0
INSERT
  5
39C7
330
37B1
100
AcDbEntity
  8
SUNPOU
 62
    60
370
    -2
100
AcDbBlockReference
  2
_Dot
 10
-42.54865485741495
 20
282.2045269340939
 30
0.0
 41
2.0
 42
2.0
 43
2.0
 50
180.0
  0
INSERT
  5
39C8
330
37B1
100
AcDbEntity
  8
SUNPOU
 62
    60
370
    -2
100
AcDbBlockReference
  2
_Dot
 10
149.451345142585
 20
282.2045269340939
 30
0.0
 41
2.0
 42
2.0
 43
2.0
  0
MTEXT
  5
39C9
330
37B1
100
AcDbEntity
  8
SUNPOU
 62
    60
100
AcDbMText
 10
53.45134514258504
 20
290.2045269340939
 30
0.0
 40
10.0
 41
0.0
 71
     5
 72
     1
  1
\A1;192φ
  7
SUNPOU
 73
     1
 44
1.0
1001
ACAD
1000
MTEXTBEGIN
1070
    73
1070
     1
1070
    44
1040
1.0
1070
    74
1070
     0
1000
MTEXTEND
  0
POINT
  5
39CA
330
37B1
100
AcDbEntity
  8
DEFPOINTS
 62
     0
100
AcDbPoint
 10
-42.54865485741496
 20
147.2140937351553
 30
0.0
  0
POINT
  5
39CB
330
37B1
100
AcDbEntity
  8
DEFPOINTS
 62
     0
100
AcDbPoint
 10
149.451345142585
 20
147.2140937351553
 30
0.0
  0
POINT
  5
39CC
330
37B1
100
AcDbEntity
  8
DEFPOINTS
 62
     0
100
AcDbPoint
 10
149.451345142585
 20
282.2045269340939
 30
0.0
  0
ENDBLK
  5
37BC
330
37B1
100
AcDbEntity
  8
0
100
AcDbBlockEnd
  0
BLOCK
  5
3A4F
330
3A45
100
AcDbEntity
  8
0
100
AcDbBlockBegin
  2
*D80
 70
     1
 10
0.0
 20
0.0
 30
0.0
  3
*D80
  1

  0
LINE
  5
3AAB
330
3A45
100
AcDbEntity
  8
SUNPOU
 62
    70
370
    -2
100
AcDbLine
 10
-68.96399143244808
 20
170.0383087325503
 30
0.0
 11
-68.96399143244808
 21
206.3986443243337
 31
0.0
  0
LINE
  5
3AAC
330
3A45
100
AcDbEntity
  8
SUNPOU
 62
    70
370
    -2
100
AcDbLine
 10
181.0360085675522
 20
170.3162869883523
 30
0.0
 11
181.0360085675522
 21
206.3986443243337
 31
0.0
  0
LINE
  5
3AAD
330
3A45
100
AcDbEntity
  8
SUNPOU
 62
    60
370
    -2
100
AcDbLine
 10
-66.96399143244808
 20
206.3986443243337
 30
0.0
 11
179.0360085675522
 21
206.3986443243337
 31
0.0
  0
INSERT
  5
3AAE
330
3A45
100
AcDbEntity
  8
SUNPOU
 62
    60
370
    -2
100
AcDbBlockReference
  2
_Dot
 10
-68.96399143244808
 20
206.3986443243337
 30
0.0
 41
2.0
 42
2.0
 43
2.0
 50
180.0
  0
INSERT
  5
3AAF
330
3A45
100
AcDbEntity
  8
SUNPOU
 62
    60
370
    -2
100
AcDbBlockReference
  2
_Dot
 10
181.0360085675522
 20
206.3986443243337
 30
0.0
 41
2.0
 42
2.0
 43
2.0
  0
MTEXT
  5
3AB0
330
3A45
100
AcDbEntity
  8
SUNPOU
 62
    60
100
AcDbMText
 10
56.03600856755208
 20
214.3986443243337
 30
0.0
 40
10.0
 41
0.0
 71
     5
 72
     1
  1
\A1;250
  7
SUNPOU
 73
     1
 44
1.0
1001
ACAD
1000
MTEXTBEGIN
1070
    73
1070
     1
1070
    44
1040
1.0
1070
    74
1070
     0
1000
MTEXTEND
  0
POINT
  5
3AB1
330
3A45
100
AcDbEntity
  8
DEFPOINTS
 62
     0
100
AcDbPoint
 10
-68.96399143244808
 20
160.0383087325503
 30
0.0
  0
POINT
  5
3AB2
330
3A45
100
AcDbEntity
  8
DEFPOINTS
 62
     0
100
AcDbPoint
 10
181.0360085675522
 20
160.3162869883523
 30
0.0
  0
POINT
  5
3AB3
330
3A45
100
AcDbEntity
  8
DEFPOINTS
 62
     0
100
AcDbPoint
 10
181.0360085675522
 20
206.3986443243337
 30
0.0
  0
ENDBLK
  5
3A50
330
3A45
100
AcDbEntity
  8
0
100
AcDbBlockEnd
  0
BLOCK
  5
3A5C
330
3A52
100
AcDbEntity
  8
0
100
AcDbBlockBegin
  2
*D81
 70
     1
 10
0.0
 20
0.0
 30
0.0
  3
*D81
  1

  0
LINE
  5
3A99
330
3A52
100
AcDbEntity
  8
SUNPOU
 62
    70
370
    -2
100
AcDbLine
 10
-78.96399143244808
 20
160.0383087325503
 30
0.0
 11
-111.0858629527327
 21
160.0383087325503
 31
0.0
  0
LINE
  5
3A9A
330
3A52
100
AcDbEntity
  8
SUNPOU
 62
    70
370
    -2
100
AcDbLine
 10
-79.11309215177175
 20
46.03830873255026
 30
0.0
 11
-111.0858629527328
 21
46.03830873255026
 31
0.0
  0
LINE
  5
3A9B
330
3A52
100
AcDbEntity
  8
SUNPOU
 62
    60
370
    -2
100
AcDbLine
 10
-111.0858629527327
 20
158.0383087325503
 30
0.0
 11
-111.0858629527328
 21
48.03830873255027
 31
0.0
  0
INSERT
  5
3A9C
330
3A52
100
AcDbEntity
  8
SUNPOU
 62
    60
370
    -2
100
AcDbBlockReference
  2
_Dot
 10
-111.0858629527327
 20
160.0383087325503
 30
0.0
 41
2.0
 42
2.0
 43
2.0
 50
90.0
  0
INSERT
  5
3A9D
330
3A52
100
AcDbEntity
  8
SUNPOU
 62
    60
370
    -2
100
AcDbBlockReference
  2
_Dot
 10
-111.0858629527328
 20
46.03830873255026
 30
0.0
 41
2.0
 42
2.0
 43
2.0
 50
270.0
  0
MTEXT
  5
3A9E
330
3A52
100
AcDbEntity
  8
SUNPOU
 62
    60
100
AcDbMText
 10
-119.0858629527328
 20
103.0383087325503
 30
0.0
 40
10.0
 41
0.0
 71
     5
 72
     1
  1
\A1;114
  7
SUNPOU
 11
0.0000000000000001
 21
1.0
 31
0.0
 73
     1
 44
1.0
1001
ACAD
1000
MTEXTBEGIN
1070
    73
1070
     1
1070
    44
1040
1.0
1070
    74
1070
     0
1000
MTEXTEND
  0
POINT
  5
3A9F
330
3A52
100
AcDbEntity
  8
DEFPOINTS
 62
     0
100
AcDbPoint
 10
-68.96399143244808
 20
160.0383087325503
 30
0.0
  0
POINT
  5
3AA0
330
3A52
100
AcDbEntity
  8
DEFPOINTS
 62
     0
100
AcDbPoint
 10
-69.11309215177175
 20
46.03830873255026
 30
0.0
  0
POINT
  5
3AA1
330
3A52
100
AcDbEntity
  8
DEFPOINTS
 62
     0
100
AcDbPoint
 10
-111.0858629527328
 20
46.03830873255026
 30
0.0
  0
ENDBLK
  5
3A5D
330
3A52
100
AcDbEntity
  8
0
100
AcDbBlockEnd
  0
BLOCK
  5
3B37
330
3B2D
100
AcDbEntity
  8
0
100
AcDbBlockBegin
  2
*D83
 70
     1
 10
0.0
 20
0.0
 30
0.0
  3
*D83
  1

  0
LINE
  5
3BB3
330
3B2D
100
AcDbEntity
  8
SUNPOU
 62
    70
370
    -2
100
AcDbLine
 10
-9.274404385007244
 20
116.3927336291364
 30
0.0
 11
-9.274404385007242
 21
131.1328898609256
 31
0.0
  0
LINE
  5
3BB4
330
3B2D
100
AcDbEntity
  8
SUNPOU
 62
    70
370
    -2
100
AcDbLine
 10
130.7255956149869
 20
115.4686950255653
 30
0.0
 11
130.7255956149869
 21
131.1328898609256
 31
0.0
  0
LINE
  5
3BB5
330
3B2D
100
AcDbEntity
  8
SUNPOU
 62
    60
370
    -2
100
AcDbLine
 10
-7.274404385007242
 20
131.1328898609256
 30
0.0
 11
128.7255956149869
 21
131.1328898609256
 31
0.0
  0
INSERT
  5
3BB6
330
3B2D
100
AcDbEntity
  8
SUNPOU
 62
    60
370
    -2
100
AcDbBlockReference
  2
_Dot
 10
-9.274404385007242
 20
131.1328898609256
 30
0.0
 41
2.0
 42
2.0
 43
2.0
 50
180.0
  0
INSERT
  5
3BB7
330
3B2D
100
AcDbEntity
  8
SUNPOU
 62
    60
370
    -2
100
AcDbBlockReference
  2
_Dot
 10
130.7255956149869
 20
131.1328898609256
 30
0.0
 41
2.0
 42
2.0
 43
2.0
  0
MTEXT
  5
3BB8
330
3B2D
100
AcDbEntity
  8
SUNPOU
 62
    60
100
AcDbMText
 10
60.72559561498986
 20
139.1328898609256
 30
0.0
 40
10.0
 41
0.0
 71
     5
 72
     1
  1
\A1;140
  7
SUNPOU
 73
     1
 44
1.0
1001
ACAD
1000
MTEXTBEGIN
1070
    73
1070
     1
1070
    44
1040
1.0
1070
    74
1070
     0
1000
MTEXTEND
  0
POINT
  5
3BB9
330
3B2D
100
AcDbEntity
  8
DEFPOINTS
 62
     0
100
AcDbPoint
 10
-9.274404385007244
 20
106.3927336291364
 30
0.0
  0
POINT
  5
3BBA
330
3B2D
100
AcDbEntity
  8
DEFPOINTS
 62
     0
100
AcDbPoint
 10
130.7255956149869
 20
105.4686950255653
 30
0.0
  0
POINT
  5
3BBB
330
3B2D
100
AcDbEntity
  8
DEFPOINTS
 62
     0
100
AcDbPoint
 10
130.7255956149869
 20
131.1328898609256
 30
0.0
  0
ENDBLK
  5
3B38
330
3B2D
100
AcDbEntity
  8
0
100
AcDbBlockEnd
  0
BLOCK
  5
3B44
330
3B3A
100
AcDbEntity
  8
0
100
AcDbBlockBegin
  2
*D84
 70
     1
 10
0.0
 20
0.0
 30
0.0
  3
*D84
  1

  0
LINE
  5
3BA1
330
3B3A
100
AcDbEntity
  8
SUNPOU
 62
    70
370
    -2
100
AcDbLine
 10
-19.27440438500724
 20
106.3927336291364
 30
0.0
 11
-33.65713159452923
 21
106.3927336291365
 31
0.0
  0
LINE
  5
3BA2
330
3B3A
100
AcDbEntity
  8
SUNPOU
 62
    70
370
    -2
100
AcDbLine
 10
-19.43240988204923
 20
46.39273362913645
 30
0.0
 11
-33.65713159452924
 21
46.39273362913645
 31
0.0
  0
LINE
  5
3BA3
330
3B3A
100
AcDbEntity
  8
SUNPOU
 62
    60
370
    -2
100
AcDbLine
 10
-33.65713159452923
 20
104.3927336291365
 30
0.0
 11
-33.65713159452923
 21
48.39273362913645
 31
0.0
  0
INSERT
  5
3BA4
330
3B3A
100
AcDbEntity
  8
SUNPOU
 62
    60
370
    -2
100
AcDbBlockReference
  2
_Dot
 10
-33.65713159452923
 20
106.3927336291365
 30
0.0
 41
2.0
 42
2.0
 43
2.0
 50
90.0
  0
INSERT
  5
3BA5
330
3B3A
100
AcDbEntity
  8
SUNPOU
 62
    60
370
    -2
100
AcDbBlockReference
  2
_Dot
 10
-33.65713159452924
 20
46.39273362913645
 30
0.0
 41
2.0
 42
2.0
 43
2.0
 50
270.0
  0
MTEXT
  5
3BA6
330
3B3A
100
AcDbEntity
  8
SUNPOU
 62
    60
100
AcDbMText
 10
-41.65713159452923
 20
76.39273362913645
 30
0.0
 40
10.0
 41
0.0
 71
     5
 72
     1
  1
\A1;60
  7
SUNPOU
 11
0.0000000000000001
 21
1.0
 31
0.0
 73
     1
 44
1.0
1001
ACAD
1000
MTEXTBEGIN
1070
    73
1070
     1
1070
    44
1040
1.0
1070
    74
1070
     0
1000
MTEXTEND
  0
POINT
  5
3BA7
330
3B3A
100
AcDbEntity
  8
DEFPOINTS
 62
     0
100
AcDbPoint
 10
-9.274404385007244
 20
106.3927336291364
 30
0.0
  0
POINT
  5
3BA8
330
3B3A
100
AcDbEntity
  8
DEFPOINTS
 62
     0
100
AcDbPoint
 10
-9.432409882049228
 20
46.39273362913644
 30
0.0
  0
POINT
  5
3BA9
330
3B3A
100
AcDbEntity
  8
DEFPOINTS
 62
     0
100
AcDbPoint
 10
-33.65713159452924
 20
46.39273362913645
 30
0.0
  0
ENDBLK
  5
3B45
330
3B3A
100
AcDbEntity
  8
0
100
AcDbBlockEnd
  0
BLOCK
  5
3D37
330
3D2D
100
AcDbEntity
  8
0
100
AcDbBlockBegin
  2
*D86
 70
     1
 10
0.0
 20
0.0
 30
0.0
  3
*D86
  1

  0
LINE
  5
3DA8
330
3D2D
100
AcDbEntity
  8
SUNPOU
 62
    70
370
    -2
100
AcDbLine
 10
-216.7182434847339
 20
298.5498201292545
 30
0.0
 11
-216.7182434847339
 21
344.3264832414134
 31
0.0
  0
LINE
  5
3DA9
330
3D2D
100
AcDbEntity
  8
SUNPOU
 62
    70
370
    -2
100
AcDbLine
 10
383.2817565152661
 20
303.5155978063508
 30
0.0
 11
383.2817565152661
 21
344.3264832414134
 31
0.0
  0
LINE
  5
3DAA
330
3D2D
100
AcDbEntity
  8
SUNPOU
 62
    60
370
    -2
100
AcDbLine
 10
-214.7182434847339
 20
344.3264832414134
 30
0.0
 11
381.2817565152661
 21
344.3264832414134
 31
0.0
  0
INSERT
  5
3DAB
330
3D2D
100
AcDbEntity
  8
SUNPOU
 62
    60
370
    -2
100
AcDbBlockReference
  2
_Dot
 10
-216.7182434847339
 20
344.3264832414134
 30
0.0
 41
2.0
 42
2.0
 43
2.0
 50
180.0
  0
INSERT
  5
3DAC
330
3D2D
100
AcDbEntity
  8
SUNPOU
 62
    60
370
    -2
100
AcDbBlockReference
  2
_Dot
 10
383.2817565152661
 20
344.3264832414134
 30
0.0
 41
2.0
 42
2.0
 43
2.0
  0
MTEXT
  5
3DAD
330
3D2D
100
AcDbEntity
  8
SUNPOU
 62
    60
100
AcDbMText
 10
83.28175651526612
 20
352.3264832414134
 30
0.0
 40
10.0
 41
0.0
 71
     5
 72
     1
  1
\A1;600
  7
SUNPOU
 73
     1
 44
1.0
1001
ACAD
1000
MTEXTBEGIN
1070
    73
1070
     1
1070
    44
1040
1.0
1070
    74
1070
     0
1000
MTEXTEND
  0
POINT
  5
3DAE
330
3D2D
100
AcDbEntity
  8
DEFPOINTS
 62
     0
100
AcDbPoint
 10
-216.7182434847339
 20
288.5498201292545
 30
0.0
  0
POINT
  5
3DAF
330
3D2D
100
AcDbEntity
  8
DEFPOINTS
 62
     0
100
AcDbPoint
 10
383.2817565152661
 20
293.5155978063508
 30
0.0
  0
POINT
  5
3DB0
330
3D2D
100
AcDbEntity
  8
DEFPOINTS
 62
     0
100
AcDbPoint
 10
383.2817565152661
 20
344.3264832414134
 30
0.0
  0
ENDBLK
  5
3D38
330
3D2D
100
AcDbEntity
  8
0
100
AcDbBlockEnd
  0
BLOCK
  5
3D44
330
3D3A
100
AcDbEntity
  8
0
100
AcDbBlockBegin
  2
*D87
 70
     1
 10
0.0
 20
0.0
 30
0.0
  3
*D87
  1

  0
LINE
  5
3D96
330
3D3A
100
AcDbEntity
  8
SUNPOU
 62
    70
370
    -2
100
AcDbLine
 10
-226.7182434847339
 20
288.5498201292545
 30
0.0
 11
-304.1079869232616
 21
288.5498201292545
 31
0.0
  0
LINE
  5
3D97
330
3D3A
100
AcDbEntity
  8
SUNPOU
 62
    70
370
    -2
100
AcDbLine
 10
-227.1359776599575
 20
93.54982012925452
 30
0.0
 11
-304.1079869232617
 21
93.54982012925452
 31
0.0
  0
LINE
  5
3D98
330
3D3A
100
AcDbEntity
  8
SUNPOU
 62
    60
370
    -2
100
AcDbLine
 10
-304.1079869232616
 20
286.5498201292545
 30
0.0
 11
-304.1079869232617
 21
95.54982012925453
 31
0.0
  0
INSERT
  5
3D99
330
3D3A
100
AcDbEntity
  8
SUNPOU
 62
    60
370
    -2
100
AcDbBlockReference
  2
_Dot
 10
-304.1079869232616
 20
288.5498201292545
 30
0.0
 41
2.0
 42
2.0
 43
2.0
 50
90.0
  0
INSERT
  5
3D9A
330
3D3A
100
AcDbEntity
  8
SUNPOU
 62
    60
370
    -2
100
AcDbBlockReference
  2
_Dot
 10
-304.1079869232617
 20
93.54982012925452
 30
0.0
 41
2.0
 42
2.0
 43
2.0
 50
270.0
  0
MTEXT
  5
3D9B
330
3D3A
100
AcDbEntity
  8
SUNPOU
 62
    60
100
AcDbMText
 10
-312.1079869232617
 20
191.0498201292545
 30
0.0
 40
10.0
 41
0.0
 71
     5
 72
     1
  1
\A1;195
  7
SUNPOU
 11
0.0000000000000001
 21
1.0
 31
0.0
 73
     1
 44
1.0
1001
ACAD
1000
MTEXTBEGIN
1070
    73
1070
     1
1070
    44
1040
1.0
1070
    74
1070
     0
1000
MTEXTEND
  0
POINT
  5
3D9C
330
3D3A
100
AcDbEntity
  8
DEFPOINTS
 62
     0
100
AcDbPoint
 10
-216.7182434847339
 20
288.5498201292545
 30
0.0
  0
POINT
  5
3D9D
330
3D3A
100
AcDbEntity
  8
DEFPOINTS
 62
     0
100
AcDbPoint
 10
-217.1359776599575
 20
93.5498201292545
 30
0.0
  0
POINT
  5
3D9E
330
3D3A
100
AcDbEntity
  8
DEFPOINTS
 62
     0
100
AcDbPoint
 10
-304.1079869232617
 20
93.54982012925452
 30
0.0
  0
ENDBLK
  5
3D45
330
3D3A
100
AcDbEntity
  8
0
100
AcDbBlockEnd
  0
BLOCK
  5
3F2A
330
3F20
100
AcDbEntity
  8
0
100
AcDbBlockBegin
  2
*D89
 70
     1
 10
0.0
 20
0.0
 30
0.0
  3
*D89
  1

  0
LINE
  5
3F9A
330
3F20
100
AcDbEntity
  8
SUNPOU
 62
    70
370
    -2
100
AcDbLine
 10
-171.7799306511583
 20
243.6438293736883
 30
0.0
 11
-171.7799306511583
 21
294.8058791037634
 31
0.0
  0
LINE
  5
3F9B
330
3F20
100
AcDbEntity
  8
SUNPOU
 62
    70
370
    -2
100
AcDbLine
 10
328.2200693488416
 20
244.4171992733745
 30
0.0
 11
328.2200693488416
 21
294.8058791037634
 31
0.0
  0
LINE
  5
3F9C
330
3F20
100
AcDbEntity
  8
SUNPOU
 62
    60
370
    -2
100
AcDbLine
 10
-169.7799306511583
 20
294.8058791037634
 30
0.0
 11
326.2200693488417
 21
294.8058791037634
 31
0.0
  0
INSERT
  5
3F9D
330
3F20
100
AcDbEntity
  8
SUNPOU
 62
    60
370
    -2
100
AcDbBlockReference
  2
_Dot
 10
-171.7799306511583
 20
294.8058791037634
 30
0.0
 41
2.0
 42
2.0
 43
2.0
 50
180.0
  0
INSERT
  5
3F9E
330
3F20
100
AcDbEntity
  8
SUNPOU
 62
    60
370
    -2
100
AcDbBlockReference
  2
_Dot
 10
328.2200693488416
 20
294.8058791037634
 30
0.0
 41
2.0
 42
2.0
 43
2.0
  0
MTEXT
  5
3F9F
330
3F20
100
AcDbEntity
  8
SUNPOU
 62
    60
100
AcDbMText
 10
78.22006934884166
 20
302.8058791037633
 30
0.0
 40
10.0
 41
0.0
 71
     5
 72
     1
  1
\A1;500
  7
SUNPOU
 73
     1
 44
1.0
1001
ACAD
1000
MTEXTBEGIN
1070
    73
1070
     1
1070
    44
1040
1.0
1070
    74
1070
     0
1000
MTEXTEND
  0
POINT
  5
3FA0
330
3F20
100
AcDbEntity
  8
DEFPOINTS
 62
     0
100
AcDbPoint
 10
-171.7799306511583
 20
233.6438293736883
 30
0.0
  0
POINT
  5
3FA1
330
3F20
100
AcDbEntity
  8
DEFPOINTS
 62
     0
100
AcDbPoint
 10
328.2200693488416
 20
234.4171992733745
 30
0.0
  0
POINT
  5
3FA2
330
3F20
100
AcDbEntity
  8
DEFPOINTS
 62
     0
100
AcDbPoint
 10
328.2200693488416
 20
294.8058791037634
 30
0.0
  0
ENDBLK
  5
3F2B
330
3F20
100
AcDbEntity
  8
0
100
AcDbBlockEnd
  0
BLOCK
  5
3F37
330
3F2D
100
AcDbEntity
  8
0
100
AcDbBlockBegin
  2
*D90
 70
     1
 10
0.0
 20
0.0
 30
0.0
  3
*D90
  1

  0
LINE
  5
3F88
330
3F2D
100
AcDbEntity
  8
SUNPOU
 62
    70
370
    -2
100
AcDbLine
 10
-181.7799306511583
 20
233.6438293736883
 30
0.0
 11
-228.1049532351698
 21
233.6438293736883
 31
0.0
  0
LINE
  5
3F89
330
3F2D
100
AcDbEntity
  8
SUNPOU
 62
    70
370
    -2
100
AcDbLine
 10
-182.8189487700756
 20
66.64382937368819
 30
0.0
 11
-228.1049532351699
 21
66.6438293736882
 31
0.0
  0
LINE
  5
3F8A
330
3F2D
100
AcDbEntity
  8
SUNPOU
 62
    60
370
    -2
100
AcDbLine
 10
-228.1049532351698
 20
231.6438293736883
 30
0.0
 11
-228.1049532351699
 21
68.6438293736882
 31
0.0
  0
INSERT
  5
3F8B
330
3F2D
100
AcDbEntity
  8
SUNPOU
 62
    60
370
    -2
100
AcDbBlockReference
  2
_Dot
 10
-228.1049532351698
 20
233.6438293736883
 30
0.0
 41
2.0
 42
2.0
 43
2.0
 50
90.0
  0
INSERT
  5
3F8C
330
3F2D
100
AcDbEntity
  8
SUNPOU
 62
    60
370
    -2
100
AcDbBlockReference
  2
_Dot
 10
-228.1049532351699
 20
66.6438293736882
 30
0.0
 41
2.0
 42
2.0
 43
2.0
 50
270.0
  0
MTEXT
  5
3F8D
330
3F2D
100
AcDbEntity
  8
SUNPOU
 62
    60
100
AcDbMText
 10
-236.1049532351699
 20
150.1438293736882
 30
0.0
 40
10.0
 41
0.0
 71
     5
 72
     1
  1
\A1;167
  7
SUNPOU
 11
0.0000000000000001
 21
1.0
 31
0.0
 73
     1
 44
1.0
1001
ACAD
1000
MTEXTBEGIN
1070
    73
1070
     1
1070
    44
1040
1.0
1070
    74
1070
     0
1000
MTEXTEND
  0
POINT
  5
3F8E
330
3F2D
100
AcDbEntity
  8
DEFPOINTS
 62
     0
100
AcDbPoint
 10
-171.7799306511583
 20
233.6438293736883
 30
0.0
  0
POINT
  5
3F8F
330
3F2D
100
AcDbEntity
  8
DEFPOINTS
 62
     0
100
AcDbPoint
 10
-172.8189487700756
 20
66.64382937368819
 30
0.0
  0
POINT
  5
3F90
330
3F2D
100
AcDbEntity
  8
DEFPOINTS
 62
     0
100
AcDbPoint
 10
-228.1049532351699
 20
66.6438293736882
 30
0.0
  0
ENDBLK
  5
3F38
330
3F2D
100
AcDbEntity
  8
0
100
AcDbBlockEnd
  0
ENDSEC
  0
SECTION
  2
ENTITIES
  0
LINE
  5
1F
330
2
100
AcDbEntity
  8
WAKU
100
AcDbLine
 10
0.0
 20
14.0
 30
0.0
 11
141.7992909508968
 21
13.99999999999999
 31
0.0
  0
LINE
  5
20
330
2
100
AcDbEntity
  8
WAKU
100
AcDbLine
 10
0.0
 20
0.0
 30
0.0
 11
141.7992909508968
 21
0.0
 31
0.0
  0
TEXT
  5
21
330
2
100
AcDbEntity
  8
HOJO
100
AcDbText
 10
9.653966000000025
 20
2.366626000000024
 30
0.0
 40
9.0
  1
TC382
  7
SUNPOU
100
AcDbText
  0
TEXT
  5
23
330
2
100
AcDbEntity
  8
HOJO
100
AcDbText
 10
75.65253479254602
 20
5.044386000000031
 30
0.0
 40
6.0
  1
500×167×20
  7
SUNPOU
100
AcDbText
  0
ARC
  5
3E70
102
{ACAD_REACTORS
330
3FA3
102
}
330
2
100
AcDbEntity
  8
KIJUN
100
AcDbCircle
 10
160.9331622237546
 20
179.0276203355736
 30
0.0
 40
27.87003808274953
100
AcDbArc
 50
77.20478931319934
 51
120.1332568653705
  0
ARC
  5
3E71
102
{ACAD_REACTORS
330
3FA3
102
}
330
2
100
AcDbEntity
  8
KIJUN
100
AcDbCircle
 10
144.4401019909042
 20
180.1384571151475
 30
0.0
 40
31.36584880115377
100
AcDbArc
 50
76.5671192212049
 51
116.3099308988222
  0
ARC
  5
3E72
102
{ACAD_REACTORS
330
3FA3
102
}
330
2
100
AcDbEntity
  8
KIJUN
100
AcDbCircle
 10
134.4163224983617
 20
117.0118333349444
 30
0.0
 40
24.72897911443262
100
AcDbArc
 50
224.66401392128
 51
1.240220883212823
  0
ARC
  5
3E73
102
{ACAD_REACTORS
330
3FA3
102
}
330
2
100
AcDbEntity
  8
KIJUN
100
AcDbCircle
 10
144.4614121312552
 20
130.6514300131946
 30
0.0
 40
18.66442855088958
100
AcDbArc
 50
224.5959950917474
 51
318.4172413136116
  0
ARC
  5
3E74
102
{ACAD_REACTORS
330
3FA3
102
}
330
2
100
AcDbEntity
  8
KIJUN
100
AcDbCircle
 10
153.4781589474155
 20
144.7310886289006
 30
0.0
 40
30.56287488805402
100
AcDbArc
 50
64.36935066594195
 51
118.9636439947153
  0
ARC
  5
3E75
102
{ACAD_REACTORS
330
3FA3
102
}
330
2
100
AcDbEntity
  8
KIJUN
100
AcDbCircle
 10
138.2770037033288
 20
148.1306675820515
 30
0.0
 40
13.35219663073606
100
AcDbArc
 50
187.3123117464398
 51
313.107640162255
  0
ARC
  5
3E76
102
{ACAD_REACTORS
330
3FA3
102
}
330
2
100
AcDbEntity
  8
KIJUN
100
AcDbCircle
 10
146.5308107281248
 20
146.7206777408216
 30
0.0
 40
8.653523977575412
100
AcDbArc
 50
190.8555166707752
 51
3.611415306521472
  0
ARC
  5
3E77
102
{ACAD_REACTORS
330
3FA3
102
}
330
2
100
AcDbEntity
  8
KIJUN
100
AcDbCircle
 10
151.6949430851523
 20
150.6800265177176
 30
0.0
 40
14.76178037419314
100
AcDbArc
 50
4.339435722341419
 51
202.2481769946894
  0
ARC
  5
3E78
102
{ACAD_REACTORS
330
3FA3
102
}
330
2
100
AcDbEntity
  8
KIJUN
100
AcDbCircle
 10
138.5663791352212
 20
145.7642009024216
 30
0.0
 40
28.49398143072462
100
AcDbArc
 50
169.6392465381672
 51
12.22323105116787
  0
ARC
  5
3E79
102
{ACAD_REACTORS
330
3FA3
102
}
330
2
100
AcDbEntity
  8
KIJUN
100
AcDbCircle
 10
140.1149027239162
 20
163.3044573936085
 30
0.0
 40
22.44075987549388
100
AcDbArc
 50
54.66517726557902
 51
167.1653085325209
  0
LINE
  5
3E7A
102
{ACAD_REACTORS
330
3FA3
102
}
330
2
100
AcDbEntity
  8
KIJUN
100
AcDbLine
 10
-78.14547339536466
 20
132.1082797854246
 30
0.0
 11
-61.97695676086823
 21
142.8820610869995
 31
0.0
  0
ARC
  5
3E7B
102
{ACAD_REACTORS
330
3FA3
102
}
330
2
100
AcDbEntity
  8
KIJUN
100
AcDbCircle
 10
-71.67806674156555
 20
168.2213497871555
 30
0.0
 40
27.13284147831604
100
AcDbArc
 50
220.9913160181742
 51
290.949272161488
  0
ARC
  5
3E7C
102
{ACAD_REACTORS
330
3FA3
102
}
330
2
100
AcDbEntity
  8
KIJUN
100
AcDbCircle
 10
-76.01687781106147
 20
166.4254975086167
 30
0.0
 40
14.2733303546439
100
AcDbArc
 50
193.4661062807877
 51
312.7757525273007
  0
ARC
  5
3E7D
102
{ACAD_REACTORS
330
3FA3
102
}
330
2
100
AcDbEntity
  8
KIJUN
100
AcDbCircle
 10
-62.11941501123238
 20
164.3643815304403
 30
0.0
 40
9.407370031889266
100
AcDbArc
 50
169.6962869392524
 51
243.4560440858152
  0
ARC
  5
3E7E
102
{ACAD_REACTORS
330
3FA3
102
}
330
2
100
AcDbEntity
  8
KIJUN
100
AcDbCircle
 10
-64.21856385170667
 20
215.0619342171176
 30
0.0
 40
49.53458927832357
100
AcDbArc
 50
261.6931177388964
 51
304.1201805824139
  0
ARC
  5
3E7F
102
{ACAD_REACTORS
330
3FA3
102
}
330
2
100
AcDbEntity
  8
KIJUN
100
AcDbCircle
 10
-79.21014901112039
 20
99.39696337113879
 30
0.0
 40
25.14819672556178
100
AcDbArc
 50
260.84611626319
 51
356.4684600369631
  0
ARC
  5
3E80
102
{ACAD_REACTORS
330
3FA3
102
}
330
2
100
AcDbEntity
  8
KIJUN
100
AcDbCircle
 10
-154.935905609826
 20
195.997291307709
 30
0.0
 40
122.5924420507364
100
AcDbArc
 50
275.3044132978193
 51
328.5967453540484
  0
ARC
  5
3E81
102
{ACAD_REACTORS
330
3FA3
102
}
330
2
100
AcDbEntity
  8
KIJUN
100
AcDbCircle
 10
-116.0990482459956
 20
159.5738511389786
 30
0.0
 40
85.38892423109727
100
AcDbArc
 50
275.225102769646
 51
311.962751553363
  0
ARC
  5
3E82
102
{ACAD_REACTORS
330
3FA3
102
}
330
2
100
AcDbEntity
  8
KIJUN
100
AcDbCircle
 10
-148.5419526511817
 20
96.63680289505874
 30
0.0
 40
23.2379779999766
100
AcDbArc
 50
161.275950834845
 51
282.2722172675929
  0
LINE
  5
3E83
102
{ACAD_REACTORS
330
3FA3
102
}
330
2
100
AcDbEntity
  8
KIJUN
100
AcDbLine
 10
-118.0277945529205
 20
105.1738169296145
 30
0.0
 11
-132.0405010198024
 21
114.8702201010305
 31
0.0
  0
ARC
  5
3E84
102
{ACAD_REACTORS
330
3FA3
102
}
330
2
100
AcDbEntity
  8
KIJUN
100
AcDbCircle
 10
-161.3781806614088
 20
180.9565243909226
 30
0.0
 40
97.27594280769512
100
AcDbArc
 50
290.9158613320822
 51
312.7141683429926
  0
ARC
  5
3E85
102
{ACAD_REACTORS
330
3FA3
102
}
330
2
100
AcDbEntity
  8
KIJUN
100
AcDbCircle
 10
-127.1291408346756
 20
192.3855834176815
 30
0.0
 40
77.67079894645151
100
AcDbArc
 50
266.3745953667702
 51
309.0986441415478
  0
ARC
  5
3E86
102
{ACAD_REACTORS
330
3FA3
102
}
330
2
100
AcDbEntity
  8
KIJUN
100
AcDbCircle
 10
-160.6902720670326
 20
101.7771607314537
 30
0.0
 40
10.12890747298129
100
AcDbArc
 50
27.86571121427398
 51
127.5519098606206
  0
ARC
  5
3E87
102
{ACAD_REACTORS
330
3FA3
102
}
330
2
100
AcDbEntity
  8
KIJUN
100
AcDbCircle
 10
-143.2182399418387
 20
101.0748157278537
 30
0.0
 40
25.20639645431681
100
AcDbArc
 50
159.7301460305749
 51
209.7222290073144
  0
ARC
  5
3E88
102
{ACAD_REACTORS
330
3FA3
102
}
330
2
100
AcDbEntity
  8
KIJUN
100
AcDbCircle
 10
-146.8118109583646
 20
93.55145487986851
 30
0.0
 40
12.09208777841443
100
AcDbArc
 50
117.7085020795887
 51
215.2442317936154
  0
ARC
  5
3E89
102
{ACAD_REACTORS
330
3FA3
102
}
330
2
100
AcDbEntity
  8
KIJUN
100
AcDbCircle
 10
-153.2092661162217
 20
105.7324191841946
 30
0.0
 40
1.666666666666666
100
AcDbArc
 50
297.7085020795887
 51
27.86571121427398
  0
ARC
  5
3E8A
102
{ACAD_REACTORS
330
3FA3
102
}
330
2
100
AcDbEntity
  8
KIJUN
100
AcDbCircle
 10
-167.90212838077
 20
109.3131252529556
 30
0.0
 40
1.150105799170192
100
AcDbArc
 50
25.45116192437485
 51
162.5437259190882
  0
ARC
  5
3E8B
102
{ACAD_REACTORS
330
3FA3
102
}
330
2
100
AcDbEntity
  8
KIJUN
100
AcDbCircle
 10
-160.1049522172028
 20
104.1810062696477
 30
0.0
 40
10.44546522103089
100
AcDbArc
 50
148.3752104744914
 51
180.4638770947289
  0
ARC
  5
3E8C
102
{ACAD_REACTORS
330
3FA3
102
}
330
2
100
AcDbEntity
  8
KIJUN
100
AcDbCircle
 10
-138.5880647420761
 20
98.91108549089658
 30
0.0
 40
14.84237238249317
100
AcDbArc
 50
158.8892997357713
 51
323.5384528283347
  0
ARC
  5
3E8D
102
{ACAD_REACTORS
330
3FA3
102
}
330
2
100
AcDbEntity
  8
KIJUN
100
AcDbCircle
 10
-77.25402842607036
 20
75.76090908174456
 30
0.0
 40
6.46515412897961
100
AcDbArc
 50
137.4711263107275
 51
190.6234159525456
  0
ARC
  5
3E8E
102
{ACAD_REACTORS
330
3FA3
102
}
330
2
100
AcDbEntity
  8
KIJUN
100
AcDbCircle
 10
-103.5876546269064
 20
76.60440192062356
 30
0.0
 40
5.165668042009403
100
AcDbArc
 50
126.5645888566202
 51
203.5586012855597
  0
LINE
  5
3E8F
102
{ACAD_REACTORS
330
3FA3
102
}
330
2
100
AcDbEntity
  8
KIJUN
100
AcDbLine
 10
-95.39188318914648
 20
109.4833294502466
 30
0.0
 11
-118.0277945529205
 21
105.1738169296145
 31
0.0
  0
LINE
  5
3E90
102
{ACAD_REACTORS
330
3FA3
102
}
330
2
100
AcDbEntity
  8
KIJUN
100
AcDbLine
 10
-96.71834297311944
 20
88.20976588744361
 30
0.0
 11
-106.6649907503597
 21
80.75339320809666
 31
0.0
  0
ARC
  5
3E91
102
{ACAD_REACTORS
330
3FA3
102
}
330
2
100
AcDbEntity
  8
KIJUN
100
AcDbCircle
 10
-85.52696522350926
 20
155.7818986426127
 30
0.0
 40
8.525445124329534
100
AcDbArc
 50
120.842611563081
 51
218.9390957757443
  0
ARC
  5
3E92
102
{ACAD_REACTORS
330
3FA3
102
}
330
2
100
AcDbEntity
  8
KIJUN
100
AcDbCircle
 10
-611.3181168468834
 20
1049.607380238324
 30
0.0
 40
1075.418333603201
100
AcDbArc
 50
301.4445869884389
 51
302.6656766137648
  0
ARC
  5
3E93
102
{ACAD_REACTORS
330
3FA3
102
}
330
2
100
AcDbEntity
  8
KIJUN
100
AcDbCircle
 10
62.01998086788944
 20
144.5108422538046
 30
0.0
 40
28.58356980643267
100
AcDbArc
 50
330.4269918302565
 51
20.13824873291435
  0
ARC
  5
3E94
102
{ACAD_REACTORS
330
3FA3
102
}
330
2
100
AcDbEntity
  8
KIJUN
100
AcDbCircle
 10
17.8737595624616
 20
145.7642009024216
 30
0.0
 40
28.49398143072462
100
AcDbArc
 50
167.7767689488321
 51
10.36075346183263
  0
ARC
  5
3E95
102
{ACAD_REACTORS
330
3FA3
102
}
330
2
100
AcDbEntity
  8
KIJUN
100
AcDbCircle
 10
4.745195612530551
 20
150.6800265177176
 30
0.0
 40
14.76178037419314
100
AcDbArc
 50
337.7518230053106
 51
175.6605642776585
  0
ARC
  5
3E96
102
{ACAD_REACTORS
330
3FA3
102
}
330
2
100
AcDbEntity
  8
KIJUN
100
AcDbCircle
 10
9.909327969558489
 20
146.7206777408216
 30
0.0
 40
8.653523977575412
100
AcDbArc
 50
176.3885846934784
 51
349.1444833292247
  0
ARC
  5
3E97
102
{ACAD_REACTORS
330
3FA3
102
}
330
2
100
AcDbEntity
  8
KIJUN
100
AcDbCircle
 10
18.16313499435455
 20
148.1306675820515
 30
0.0
 40
13.35219663073606
100
AcDbArc
 50
226.8923598377451
 51
352.6876882535601
  0
ARC
  5
3E98
102
{ACAD_REACTORS
330
3FA3
102
}
330
2
100
AcDbEntity
  8
KIJUN
100
AcDbCircle
 10
87.07194115601941
 20
143.7693245395605
 30
0.0
 40
20.62326958447991
100
AcDbArc
 50
146.6984456334617
 51
216.8834048079624
  0
ARC
  5
3E9A
102
{ACAD_REACTORS
330
3FA3
102
}
330
2
100
AcDbEntity
  8
KIJUN
100
AcDbCircle
 10
-59.92586247109966
 20
147.5249305284508
 30
0.0
 40
49.85354093664723
100
AcDbArc
 50
343.7626818483226
 51
353.4224302430878
  0
ARC
  5
3E9B
102
{ACAD_REACTORS
330
3FA3
102
}
330
2
100
AcDbEntity
  8
KIJUN
100
AcDbCircle
 10
22.02381619932248
 20
117.0118333349444
 30
0.0
 40
24.72897911443262
100
AcDbArc
 50
178.7597791167871
 51
315.33598607872
  0
ARC
  5
3E9C
102
{ACAD_REACTORS
330
3FA3
102
}
330
2
100
AcDbEntity
  8
KIJUN
100
AcDbCircle
 10
35.47974411150244
 20
111.0623449809566
 30
0.0
 40
28.79619713418783
100
AcDbArc
 50
216.5965124930421
 51
311.7965759178257
  0
ARC
  5
3E9D
102
{ACAD_REACTORS
330
3FA3
102
}
330
2
100
AcDbEntity
  8
KIJUN
100
AcDbCircle
 10
-16.96588277477849
 20
135.4026427394956
 30
0.0
 40
5.230923384066608
100
AcDbArc
 50
180.326127342954
 51
339.6673954460179
  0
ARC
  5
3E9E
102
{ACAD_REACTORS
330
3FA3
102
}
330
2
100
AcDbEntity
  8
KIJUN
100
AcDbCircle
 10
-33.91468824383446
 20
99.99563738551955
 30
0.0
 40
20.30890565224619
100
AcDbArc
 50
152.3513156660109
 51
186.0706211363639
  0
ARC
  5
3E9F
102
{ACAD_REACTORS
330
3FA3
102
}
330
2
100
AcDbEntity
  8
KIJUN
100
AcDbCircle
 10
-46.08055954270366
 20
117.4530255272006
 30
0.0
 40
23.6064888322678
100
AcDbArc
 50
307.7706273465366
 51
358.7235374628381
  0
ARC
  5
3EA0
102
{ACAD_REACTORS
330
3FA3
102
}
330
2
100
AcDbEntity
  8
KIJUN
100
AcDbCircle
 10
7.671587035206357
 20
125.6892515913855
 30
0.0
 40
31.39885804597537
100
AcDbArc
 50
162.0367654110855
 51
196.2039847613191
  0
ARC
  5
3EA1
102
{ACAD_REACTORS
330
3FA3
102
}
330
2
100
AcDbEntity
  8
KIJUN
100
AcDbCircle
 10
34.9724505076706
 20
126.1662598960447
 30
0.0
 40
72.00044815788938
100
AcDbArc
 50
183.4842360265325
 51
202.3450945482311
  0
LINE
  5
3EA2
102
{ACAD_REACTORS
330
3FA3
102
}
330
2
100
AcDbEntity
  8
KIJUN
100
AcDbLine
 10
-36.89490893486754
 20
121.7905106237506
 30
0.0
 11
-40.87023394989955
 21
116.6818534391855
 31
0.0
  0
LINE
  5
3EA3
102
{ACAD_REACTORS
330
3FA3
102
}
330
2
100
AcDbEntity
  8
KIJUN
100
AcDbLine
 10
-40.87023394989955
 20
116.6818534391855
 30
0.0
 11
-47.68508535032879
 21
117.8171116581834
 31
0.0
  0
LINE
  5
3EA4
102
{ACAD_REACTORS
330
3FA3
102
}
330
2
100
AcDbEntity
  8
KIJUN
100
AcDbLine
 10
-47.68508535032879
 20
117.8171116581834
 30
0.0
 11
-48.8208959044864
 21
108.7350459061856
 31
0.0
  0
LINE
  5
3EA5
102
{ACAD_REACTORS
330
3FA3
102
}
330
2
100
AcDbEntity
  8
KIJUN
100
AcDbLine
 10
-48.8208959044864
 20
108.7350459061856
 30
0.0
 11
-51.90451175140561
 21
109.4199622397596
 31
0.0
  0
ARC
  5
3EA6
102
{ACAD_REACTORS
330
3FA3
102
}
330
2
100
AcDbEntity
  8
KIJUN
100
AcDbCircle
 10
11.97872656642857
 20
130.6514300131946
 30
0.0
 40
18.66442855088958
100
AcDbArc
 50
221.5827586863885
 51
315.4040049082525
  0
LINE
  5
3EA7
102
{ACAD_REACTORS
330
3FA3
102
}
330
2
100
AcDbEntity
  8
KIJUN
100
AcDbLine
 10
89.57662814455444
 20
116.8303455843866
 30
0.0
 11
95.31378059585358
 21
101.7788532534555
 31
0.0
  0
LINE
  5
3EA8
102
{ACAD_REACTORS
330
3FA3
102
}
330
2
100
AcDbEntity
  8
KIJUN
100
AcDbLine
 10
98.89950087791659
 20
101.7788532534555
 30
0.0
 11
89.57662814455444
 21
116.8303455843866
 31
0.0
  0
ARC
  5
3EA9
102
{ACAD_REACTORS
330
3FA3
102
}
330
2
100
AcDbEntity
  8
KIJUN
100
AcDbCircle
 10
92.58012062904255
 20
158.6917283617624
 30
0.0
 40
29.70027961294966
100
AcDbArc
 50
257.1818773010306
 51
308.5540627550448
  0
ARC
  5
3EAA
102
{ACAD_REACTORS
330
3FA3
102
}
330
2
100
AcDbEntity
  8
KIJUN
100
AcDbCircle
 10
68.66017202272269
 20
83.49049172088937
 30
0.0
 40
23.76983564157151
100
AcDbArc
 50
325.0465002381024
 51
13.95890679121764
  0
LINE
  5
3EAB
102
{ACAD_REACTORS
330
3FA3
102
}
330
2
100
AcDbEntity
  8
KIJUN
100
AcDbLine
 10
81.46330273139028
 20
120.8513271868835
 30
0.0
 11
80.28271311648087
 21
79.55308634608468
 31
0.0
  0
ARC
  5
3EAC
102
{ACAD_REACTORS
330
3FA3
102
}
330
2
100
AcDbEntity
  8
KIJUN
100
AcDbCircle
 10
68.53294102625068
 20
88.93781154590374
 30
0.0
 40
13.32830662404842
100
AcDbArc
 50
131.5532168897188
 51
239.8744071892683
  0
ARC
  5
3EAD
102
{ACAD_REACTORS
330
3FA3
102
}
330
2
100
AcDbEntity
  8
KIJUN
100
AcDbCircle
 10
87.77996667495882
 20
83.49049172088937
 30
0.0
 40
23.76983564157151
100
AcDbArc
 50
166.0410932087822
 51
214.9534997618976
  0
ARC
  5
3EAE
102
{ACAD_REACTORS
330
3FA3
102
}
330
2
100
AcDbEntity
  8
KIJUN
100
AcDbCircle
 10
63.86001806863942
 20
158.6917283617624
 30
0.0
 40
29.70027961294966
100
AcDbArc
 50
231.4459372449552
 51
282.8181226989694
  0
LINE
  5
3EAF
102
{ACAD_REACTORS
330
3FA3
102
}
330
2
100
AcDbEntity
  8
KIJUN
100
AcDbLine
 10
39.61208296817449
 20
100.3453974612314
 30
0.0
 11
50.36924381436165
 21
116.1136176882808
 31
0.0
  0
LINE
  5
3EB0
102
{ACAD_REACTORS
330
3FA3
102
}
330
2
100
AcDbEntity
  8
KIJUN
100
AcDbLine
 10
50.36924381436165
 20
116.1136176882808
 30
0.0
 11
46.78352353229956
 21
101.7788532534555
 31
0.0
  0
LINE
  5
3EB1
102
{ACAD_REACTORS
330
3FA3
102
}
330
2
100
AcDbEntity
  8
KIJUN
100
AcDbLine
 10
57.54063781976765
 20
101.7788532534555
 30
0.0
 11
66.86351055312844
 21
116.8303455843866
 31
0.0
  0
LINE
  5
3EB2
102
{ACAD_REACTORS
330
3FA3
102
}
330
2
100
AcDbEntity
  8
KIJUN
100
AcDbLine
 10
66.86351055312844
 20
116.8303455843866
 30
0.0
 11
61.12635810182974
 21
101.7788532534555
 31
0.0
  0
ARC
  5
3EB3
102
{ACAD_REACTORS
330
3FA3
102
}
330
2
100
AcDbEntity
  8
KIJUN
100
AcDbCircle
 10
78.22006934884166
 20
83.50468330469423
 30
0.0
 40
16.86085393100605
100
AcDbArc
 50
233.9508010704451
 51
306.049198929555
  0
LINE
  5
3EB4
102
{ACAD_REACTORS
330
3FA3
102
}
330
2
100
AcDbEntity
  8
KIJUN
100
AcDbLine
 10
79.10207694284327
 20
80.73304788511563
 30
0.0
 11
77.9214407692125
 21
116.1315326589176
 31
0.0
  0
LINE
  5
3EB5
102
{ACAD_REACTORS
330
3FA3
102
}
330
2
100
AcDbEntity
  8
KIJUN
100
AcDbLine
 10
106.0708948833225
 20
116.1136176882808
 30
0.0
 11
109.6566151653846
 21
101.7788532534555
 31
0.0
  0
LINE
  5
3EB6
102
{ACAD_REACTORS
330
3FA3
102
}
330
2
100
AcDbEntity
  8
KIJUN
100
AcDbLine
 10
116.8280557295084
 20
100.3453974612314
 30
0.0
 11
106.0708948833225
 21
116.1136176882808
 31
0.0
  0
ARC
  5
3EB7
102
{ACAD_REACTORS
330
3FA3
102
}
330
2
100
AcDbEntity
  8
KIJUN
100
AcDbCircle
 10
87.90719767143356
 20
88.93781154590374
 30
0.0
 40
13.32830662404842
100
AcDbArc
 50
300.1255928107317
 51
48.44678311028111
  0
ARC
  5
3EB8
102
{ACAD_REACTORS
330
3FA3
102
}
330
2
100
AcDbEntity
  8
KIJUN
100
AcDbCircle
 10
120.9603945861813
 20
111.0623449809566
 30
0.0
 40
28.79619713418783
100
AcDbArc
 50
228.2034240821743
 51
323.4034875069579
  0
ARC
  5
3EB9
102
{ACAD_REACTORS
330
3FA3
102
}
330
2
100
AcDbEntity
  8
KIJUN
100
AcDbCircle
 10
35.88409995702568
 20
185.0511974282347
 30
0.0
 40
28.70534867241706
100
AcDbArc
 50
29.93081665559648
 51
92.87159340822269
  0
ARC
  5
3EBA
102
{ACAD_REACTORS
330
3FA3
102
}
330
2
100
AcDbEntity
  8
KIJUN
100
AcDbCircle
 10
30.87023084629255
 20
194.4121496519556
 30
0.0
 40
12.79712193609656
100
AcDbArc
 50
13.15374396196436
 51
112.8433890014892
  0
ARC
  5
3EBB
102
{ACAD_REACTORS
330
3FA3
102
}
330
2
100
AcDbEntity
  8
KIJUN
100
AcDbCircle
 10
36.23055873440672
 20
188.2291481214545
 30
0.0
 40
11.53893100311589
100
AcDbArc
 50
52.01915398059571
 51
118.7144010689224
  0
ARC
  5
3EBC
102
{ACAD_REACTORS
330
3FA3
102
}
330
2
100
AcDbEntity
  8
KIJUN
100
AcDbCircle
 10
72.51488143874439
 20
225.7478072842018
 30
0.0
 40
50.00282675490076
100
AcDbArc
 50
213.226041586579
 51
240.3446253109877
  0
ARC
  5
3EBD
102
{ACAD_REACTORS
330
3FA3
102
}
330
2
100
AcDbEntity
  8
KIJUN
100
AcDbCircle
 10
254.3375998743172
 20
229.4366806425767
 30
0.0
 40
224.6155650108866
100
AcDbArc
 50
195.7970511083483
 51
199.269970562283
  0
ARC
  5
3EBE
102
{ACAD_REACTORS
330
3FA3
102
}
330
2
100
AcDbEntity
  8
KIJUN
100
AcDbCircle
 10
16.32523597376667
 20
163.3044573936085
 30
0.0
 40
22.44075987549388
100
AcDbArc
 50
12.83469146747904
 51
125.3348227344209
  0
ARC
  5
3EBF
102
{ACAD_REACTORS
330
3FA3
102
}
330
2
100
AcDbEntity
  8
KIJUN
100
AcDbCircle
 10
32.71366310111261
 20
207.0758018648525
 30
0.0
 40
6.866812278422425
100
AcDbArc
 50
75.38750041273772
 51
187.2805436923721
  0
ARC
  5
3EC0
102
{ACAD_REACTORS
330
3FA3
102
}
330
2
100
AcDbEntity
  8
KIJUN
100
AcDbCircle
 10
7.869304273701345
 20
155.0977764087226
 30
0.0
 40
25.29647889863018
100
AcDbArc
 50
156.8717523744312
 51
184.5327204322309
  0
ARC
  5
3EC1
102
{ACAD_REACTORS
330
3FA3
102
}
330
2
100
AcDbEntity
  8
KIJUN
100
AcDbCircle
 10
-14.42634133079082
 20
176.3212498435255
 30
0.0
 40
22.12322922944803
100
AcDbArc
 50
84.67729594822376
 51
185.8819241612174
  0
ARC
  5
3EC2
102
{ACAD_REACTORS
330
3FA3
102
}
330
2
100
AcDbEntity
  8
KIJUN
100
AcDbCircle
 10
-34.90428977380361
 20
210.9901670031015
 30
0.0
 40
36.96770293732667
100
AcDbArc
 50
267.6298462902991
 51
316.8559693754115
  0
ARC
  5
3EC3
102
{ACAD_REACTORS
330
3FA3
102
}
330
2
100
AcDbEntity
  8
KIJUN
100
AcDbCircle
 10
12.68136079493934
 20
138.7034049837987
 30
0.0
 40
40.67027527511231
100
AcDbArc
 50
124.3360697987739
 51
151.6916732175554
  0
ARC
  5
3EC4
102
{ACAD_REACTORS
330
3FA3
102
}
330
2
100
AcDbEntity
  8
KIJUN
100
AcDbCircle
 10
-13.91149152263142
 20
151.0297091705265
 30
0.0
 40
4.011288734045605
100
AcDbArc
 50
148.9506539199438
 51
11.0273322855442
  0
ARC
  5
3EC5
102
{ACAD_REACTORS
330
3FA3
102
}
330
2
100
AcDbEntity
  8
KIJUN
100
AcDbCircle
 10
-22.35411649062735
 20
100.8807109826166
 30
0.0
 40
57.74151783311562
100
AcDbArc
 50
98.48710890194777
 51
133.3308866956825
  0
ARC
  5
3EC6
102
{ACAD_REACTORS
330
3FA3
102
}
330
2
100
AcDbEntity
  8
KIJUN
100
AcDbCircle
 10
12.00003670677961
 20
180.1384571151475
 30
0.0
 40
31.36584880115377
100
AcDbArc
 50
63.69006910117775
 51
103.4328807787951
  0
ARC
  5
3EC7
102
{ACAD_REACTORS
330
3FA3
102
}
330
2
100
AcDbEntity
  8
KIJUN
100
AcDbCircle
 10
11.96328480344164
 20
209.9813715530295
 30
0.0
 40
7.280148579374138
100
AcDbArc
 50
174.7602364871732
 51
250.2072816456367
  0
ARC
  5
3EC8
102
{ACAD_REACTORS
330
3FA3
102
}
330
2
100
AcDbEntity
  8
KIJUN
100
AcDbCircle
 10
7.722805685411458
 20
148.8939091258057
 30
0.0
 40
6.652144247924132
100
AcDbArc
 50
101.1125354166649
 51
194.1674077271378
  0
ARC
  5
3EC9
102
{ACAD_REACTORS
330
3FA3
102
}
330
2
100
AcDbEntity
  8
KIJUN
100
AcDbCircle
 10
9.293334675915502
 20
150.6190616903736
 30
0.0
 40
22.50645724410539
100
AcDbArc
 50
349.2763351722025
 51
67.89620559174089
  0
ARC
  5
3ECA
102
{ACAD_REACTORS
330
3FA3
102
}
330
2
100
AcDbEntity
  8
KIJUN
100
AcDbCircle
 10
2.961979750267346
 20
144.7310886289006
 30
0.0
 40
30.56287488805402
100
AcDbArc
 50
61.03635600528471
 51
115.630649334058
  0
ARC
  5
3ECB
102
{ACAD_REACTORS
330
3FA3
102
}
330
2
100
AcDbEntity
  8
KIJUN
100
AcDbCircle
 10
-13.00265922545259
 20
190.8778934265076
 30
0.0
 40
18.79270574926177
100
AcDbArc
 50
278.3963593943146
 51
330.4558460138673
  0
ARC
  5
3ECC
102
{ACAD_REACTORS
330
3FA3
102
}
330
2
100
AcDbEntity
  8
KIJUN
100
AcDbCircle
 10
-5.55951328086121
 20
200.9810173390576
 30
0.0
 40
7.30515897404436
100
AcDbArc
 50
134.3413169984333
 51
201.1176498425189
  0
ARC
  5
3ECD
102
{ACAD_REACTORS
330
3FA3
102
}
330
2
100
AcDbEntity
  8
KIJUN
100
AcDbCircle
 10
-4.493023526071283
 20
179.0276203355736
 30
0.0
 40
27.87003808274953
100
AcDbArc
 50
59.86674313462939
 51
102.7952106868006
  0
ARC
  5
3ECE
102
{ACAD_REACTORS
330
3FA3
102
}
330
2
100
AcDbEntity
  8
KIJUN
100
AcDbCircle
 10
13.90695251242459
 20
174.2463448196615
 30
0.0
 40
24.2448307387585
100
AcDbArc
 50
146.1253118760039
 51
184.6363231256937
  0
ARC
  5
3ECF
102
{ACAD_REACTORS
330
3FA3
102
}
330
2
100
AcDbEntity
  8
KIJUN
100
AcDbCircle
 10
1.788262819105511
 20
162.2069645183137
 30
0.0
 40
15.70748036546991
100
AcDbArc
 50
140.0805353237526
 51
221.5092332923813
  0
ARC
  5
3ED0
102
{ACAD_REACTORS
330
3FA3
102
}
330
2
100
AcDbEntity
  8
KIJUN
100
AcDbCircle
 10
123.7264755965702
 20
207.0758018648525
 30
0.0
 40
6.866812278422425
100
AcDbArc
 50
352.7194563076279
 51
104.6124995872623
  0
ARC
  5
3ED1
102
{ACAD_REACTORS
330
3FA3
102
}
330
2
100
AcDbEntity
  8
KIJUN
100
AcDbCircle
 10
120.5560387406576
 20
185.0511974282347
 30
0.0
 40
28.70534867241706
100
AcDbArc
 50
87.12840659177732
 51
150.0691833444035
  0
LINE
  5
3ED2
102
{ACAD_REACTORS
330
3FA3
102
}
330
2
100
AcDbEntity
  8
KIJUN
100
AcDbLine
 10
102.8559615301074
 20
214.7452611739466
 30
0.0
 11
97.38792506972686
 21
202.1065465386707
 31
0.0
  0
ARC
  5
3ED3
102
{ACAD_REACTORS
330
3FA3
102
}
330
2
100
AcDbEntity
  8
KIJUN
100
AcDbCircle
 10
55.32776673533863
 20
221.3540966892456
 30
0.0
 40
39.81757795404885
100
AcDbArc
 50
336.5402756259685
 51
359.56018173241
  0
ARC
  5
3ED4
102
{ACAD_REACTORS
330
3FA3
102
}
330
2
100
AcDbEntity
  8
KIJUN
100
AcDbCircle
 10
101.1123719623442
 20
221.3540966892456
 30
0.0
 40
39.81757795404885
100
AcDbArc
 50
180.4398182675899
 51
203.4597243740313
  0
LINE
  5
3ED5
102
{ACAD_REACTORS
330
3FA3
102
}
330
2
100
AcDbEntity
  8
KIJUN
100
AcDbLine
 10
53.58417716757549
 20
214.7452611739466
 30
0.0
 11
59.05221362795737
 21
202.1065465386707
 31
0.0
  0
ARC
  5
3ED6
102
{ACAD_REACTORS
330
3FA3
102
}
330
2
100
AcDbEntity
  8
KIJUN
100
AcDbCircle
 10
78.22006934884166
 20
221.0472550830857
 30
0.0
 40
12.5965742906025
100
AcDbArc
 50
345.8700549827625
 51
185.8839428441617
  0
ARC
  5
3ED7
102
{ACAD_REACTORS
330
3FA3
102
}
330
2
100
AcDbEntity
  8
KIJUN
100
AcDbCircle
 10
79.32855763677344
 20
236.4248975345886
 30
0.0
 40
21.53760629632478
100
AcDbArc
 50
229.969569247057
 51
301.0443409541846
  0
ARC
  5
3ED8
102
{ACAD_REACTORS
330
3FA3
102
}
330
2
100
AcDbEntity
  8
KIJUN
100
AcDbCircle
 10
102.7451816800603
 20
160.9023038945347
 30
0.0
 40
12.68796225366518
100
AcDbArc
 50
211.4391137152933
 51
333.8434119550009
  0
ARC
  5
3ED9
102
{ACAD_REACTORS
330
3FA3
102
}
330
2
100
AcDbEntity
  8
KIJUN
100
AcDbCircle
 10
73.95126754153761
 20
167.4603439675925
 30
0.0
 40
19.57232018826278
100
AcDbArc
 50
346.633344242594
 51
34.95579391333509
  0
ARC
  5
3EDA
102
{ACAD_REACTORS
330
3FA3
102
}
330
2
100
AcDbEntity
  8
KIJUN
100
AcDbCircle
 10
53.69495701762253
 20
160.9023038945347
 30
0.0
 40
12.68796225366518
100
AcDbArc
 50
206.1565880449983
 51
328.5608862847066
  0
ARC
  5
3EDB
102
{ACAD_REACTORS
330
3FA3
102
}
330
2
100
AcDbEntity
  8
KIJUN
100
AcDbCircle
 10
85.24525728986645
 20
134.9353132639505
 30
0.0
 40
28.35332621539934
100
AcDbArc
 50
103.6958363004266
 51
136.9664844655811
  0
ARC
  5
3EDC
102
{ACAD_REACTORS
330
3FA3
102
}
330
2
100
AcDbEntity
  8
KIJUN
100
AcDbCircle
 10
71.19488140781641
 20
134.9353132639505
 30
0.0
 40
28.35332621539934
100
AcDbArc
 50
43.03351553441888
 51
76.30416369957337
  0
ARC
  5
3EDD
102
{ACAD_REACTORS
330
3FA3
102
}
330
2
100
AcDbEntity
  8
KIJUN
100
AcDbCircle
 10
46.9682553916873
 20
173.4121213627154
 30
0.0
 40
8.918877748810956
100
AcDbArc
 50
298.2658127238358
 51
84.81427085570617
  0
ARC
  5
3EDE
102
{ACAD_REACTORS
330
3FA3
102
}
330
2
100
AcDbEntity
  8
KIJUN
100
AcDbCircle
 10
51.86742421842428
 20
168.5273322238156
 30
0.0
 40
17.7633787359496
100
AcDbArc
 50
316.011599272999
 51
34.83559138431834
  0
ARC
  5
3EDF
102
{ACAD_REACTORS
330
3FA3
102
}
330
2
100
AcDbEntity
  8
KIJUN
100
AcDbCircle
 10
104.5727144792595
 20
168.5273322238156
 30
0.0
 40
17.7633787359496
100
AcDbArc
 50
145.1644086156816
 51
223.988400727001
  0
ARC
  5
3EE0
102
{ACAD_REACTORS
330
3FA3
102
}
330
2
100
AcDbEntity
  8
KIJUN
100
AcDbCircle
 10
83.05338122962757
 20
167.5145122933315
 30
0.0
 40
19.57232018826278
100
AcDbArc
 50
145.7261531410909
 51
194.0486028118323
  0
ARC
  5
3EE1
102
{ACAD_REACTORS
330
3FA3
102
}
330
2
100
AcDbEntity
  8
KIJUN
100
AcDbCircle
 10
83.92525725893847
 20
225.7478072842018
 30
0.0
 40
50.00282675490076
100
AcDbArc
 50
299.6553746890123
 51
326.7739584134209
  0
ARC
  5
3EE2
102
{ACAD_REACTORS
330
3FA3
102
}
330
2
100
AcDbEntity
  8
KIJUN
100
AcDbCircle
 10
120.2095799632775
 20
188.2291481214545
 30
0.0
 40
11.53893100311589
100
AcDbArc
 50
61.28559893105528
 51
127.9808460194043
  0
ARC
  5
3EE3
102
{ACAD_REACTORS
330
3FA3
102
}
330
2
100
AcDbEntity
  8
KIJUN
100
AcDbCircle
 10
125.5699078513912
 20
194.4121496519556
 30
0.0
 40
12.79712193609656
100
AcDbArc
 50
67.15661099851079
 51
166.8462560380356
  0
ARC
  5
3EE4
102
{ACAD_REACTORS
330
3FA3
102
}
330
2
100
AcDbEntity
  8
KIJUN
100
AcDbCircle
 10
147.1468040217687
 20
150.6190616903736
 30
0.0
 40
22.50645724410539
100
AcDbArc
 50
112.1037944082591
 51
190.7236648277974
  0
ARC
  5
3EE5
102
{ACAD_REACTORS
330
3FA3
102
}
330
2
100
AcDbEntity
  8
KIJUN
100
AcDbCircle
 10
-97.89746117663344
 20
229.4366806425767
 30
0.0
 40
224.6155650108866
100
AcDbArc
 50
340.7300294377169
 51
344.2029488916517
  0
ARC
  5
3EE6
102
{ACAD_REACTORS
330
3FA3
102
}
330
2
100
AcDbEntity
  8
KIJUN
100
AcDbCircle
 10
109.4718833059964
 20
173.4121213627154
 30
0.0
 40
8.918877748810956
100
AcDbArc
 50
95.18572914429384
 51
241.7341872761642
  0
ARC
  5
3EE7
102
{ACAD_REACTORS
330
3FA3
102
}
330
2
100
AcDbEntity
  8
KIJUN
100
AcDbCircle
 10
92.67207074781982
 20
221.3219315899396
 30
0.0
 40
2.472232039421542
100
AcDbArc
 50
0.590334628113019
 51
143.1600818676296
  0
ARC
  5
3EE8
102
{ACAD_REACTORS
330
3FA3
102
}
330
2
100
AcDbEntity
  8
KIJUN
100
AcDbCircle
 10
63.7680679498635
 20
221.3219315899396
 30
0.0
 40
2.472232039421542
100
AcDbArc
 50
36.8399181323704
 51
179.409665371887
  0
LINE
  5
3EE9
102
{ACAD_REACTORS
330
3FA3
102
}
330
2
100
AcDbEntity
  8
KIJUN
100
AcDbLine
 10
61.29596713243836
 20
221.0484489378996
 30
0.0
 11
61.29596713243836
 21
221.3474032454826
 31
0.0
  0
LINE
  5
3EEA
102
{ACAD_REACTORS
330
3FA3
102
}
330
2
100
AcDbEntity
  8
KIJUN
100
AcDbLine
 10
61.4444870321995
 20
217.4779541541416
 30
0.0
 11
56.31819539776643
 21
219.1858968686356
 31
0.0
  0
LINE
  5
3EEB
102
{ACAD_REACTORS
330
3FA3
102
}
330
2
100
AcDbEntity
  8
KIJUN
100
AcDbLine
 10
56.31819539776643
 20
219.1858968686356
 30
0.0
 11
53.58417716757549
 21
214.7452611739466
 31
0.0
  0
LINE
  5
3EEC
102
{ACAD_REACTORS
330
3FA3
102
}
330
2
100
AcDbEntity
  8
KIJUN
100
AcDbLine
 10
100.1219432999173
 20
219.1858968686356
 30
0.0
 11
102.8559615301074
 21
214.7452611739466
 31
0.0
  0
LINE
  5
3EED
102
{ACAD_REACTORS
330
3FA3
102
}
330
2
100
AcDbEntity
  8
KIJUN
100
AcDbLine
 10
94.99565166548336
 20
217.4779541541416
 30
0.0
 11
100.1219432999173
 21
219.1858968686356
 31
0.0
  0
LINE
  5
3EEE
102
{ACAD_REACTORS
330
3FA3
102
}
330
2
100
AcDbEntity
  8
KIJUN
100
AcDbLine
 10
95.14417156524359
 20
221.0484489378996
 30
0.0
 11
95.14417156524359
 21
221.3474032454826
 31
0.0
  0
ARC
  5
3EEF
102
{ACAD_REACTORS
330
3FA3
102
}
330
2
100
AcDbEntity
  8
KIJUN
100
AcDbCircle
 10
767.7582555445646
 20
1049.607380238324
 30
0.0
 40
1075.418333603201
100
AcDbArc
 50
237.3343233862352
 51
238.5554130115612
  0
ARC
  5
3EF0
102
{ACAD_REACTORS
330
3FA3
102
}
330
2
100
AcDbEntity
  8
KIJUN
100
AcDbCircle
 10
228.1182054392498
 20
168.2213497871555
 30
0.0
 40
27.13284147831604
100
AcDbArc
 50
249.050727838512
 51
319.0086839818258
  0
LINE
  5
3EF1
102
{ACAD_REACTORS
330
3FA3
102
}
330
2
100
AcDbEntity
  8
KIJUN
100
AcDbLine
 10
234.5856120930466
 20
132.1082797854246
 30
0.0
 11
218.4170954585515
 21
142.8820610869995
 31
0.0
  0
ARC
  5
3EF2
102
{ACAD_REACTORS
330
3FA3
102
}
330
2
100
AcDbEntity
  8
KIJUN
100
AcDbCircle
 10
216.3660011687816
 20
147.5249305284508
 30
0.0
 40
49.85354093664723
100
AcDbArc
 50
186.5775697569122
 51
196.2373181516773
  0
ARC
  5
3EF3
102
{ACAD_REACTORS
330
3FA3
102
}
330
2
100
AcDbEntity
  8
KIJUN
100
AcDbCircle
 10
272.5391869436785
 20
159.5738511389786
 30
0.0
 40
85.38892423109727
100
AcDbArc
 50
228.037248446637
 51
264.7748972303539
  0
LINE
  5
3EF4
102
{ACAD_REACTORS
330
3FA3
102
}
330
2
100
AcDbEntity
  8
KIJUN
100
AcDbLine
 10
253.1584816708023
 20
88.20976588744361
 30
0.0
 11
263.1051294480435
 21
80.75339320809666
 31
0.0
  0
ARC
  5
3EF5
102
{ACAD_REACTORS
330
3FA3
102
}
330
2
100
AcDbEntity
  8
KIJUN
100
AcDbCircle
 10
311.3760443075106
 20
195.9972913077095
 30
0.0
 40
122.592442050737
100
AcDbArc
 50
211.4032546459517
 51
264.6955867021801
  0
ARC
  5
3EF6
102
{ACAD_REACTORS
330
3FA3
102
}
330
2
100
AcDbEntity
  8
KIJUN
100
AcDbCircle
 10
283.5692795323589
 20
192.3855834176815
 30
0.0
 40
77.67079894645151
100
AcDbArc
 50
230.9013558584518
 51
273.6254046332298
  0
LINE
  5
3EF7
102
{ACAD_REACTORS
330
3FA3
102
}
330
2
100
AcDbEntity
  8
KIJUN
100
AcDbLine
 10
251.8320218868307
 20
109.4833294502466
 30
0.0
 11
274.4679332506048
 21
105.1738169296145
 31
0.0
  0
ARC
  5
3EF8
102
{ACAD_REACTORS
330
3FA3
102
}
330
2
100
AcDbEntity
  8
KIJUN
100
AcDbCircle
 10
317.8183193590917
 20
180.9565243909226
 30
0.0
 40
97.27594280769512
100
AcDbArc
 50
227.2858316570073
 51
249.0841386679178
  0
LINE
  5
3EF9
102
{ACAD_REACTORS
330
3FA3
102
}
330
2
100
AcDbEntity
  8
KIJUN
100
AcDbLine
 10
197.3103726475829
 20
116.6818534391855
 30
0.0
 11
204.1252240480126
 21
117.8171116581834
 31
0.0
  0
LINE
  5
3EFA
102
{ACAD_REACTORS
330
3FA3
102
}
330
2
100
AcDbEntity
  8
KIJUN
100
AcDbLine
 10
193.3350476325518
 20
121.7905106237506
 30
0.0
 11
197.3103726475829
 21
116.6818534391855
 31
0.0
  0
ARC
  5
3EFB
102
{ACAD_REACTORS
330
3FA3
102
}
330
2
100
AcDbEntity
  8
KIJUN
100
AcDbCircle
 10
121.4676881900136
 20
126.1662598960447
 30
0.0
 40
72.00044815788938
100
AcDbArc
 50
337.6549054517558
 51
356.5157639734675
  0
ARC
  5
3EFC
102
{ACAD_REACTORS
330
3FA3
102
}
330
2
100
AcDbEntity
  8
KIJUN
100
AcDbCircle
 10
148.7685516624779
 20
125.6892515913855
 30
0.0
 40
31.39885804597537
100
AcDbArc
 50
343.7960152386807
 51
17.96323458891447
  0
ARC
  5
3EFD
102
{ACAD_REACTORS
330
3FA3
102
}
330
2
100
AcDbEntity
  8
KIJUN
100
AcDbCircle
 10
202.5206982403856
 20
117.4530255272006
 30
0.0
 40
23.6064888322678
100
AcDbArc
 50
181.2764625371618
 51
232.2293726534634
  0
ARC
  5
3EFE
102
{ACAD_REACTORS
330
3FA3
102
}
330
2
100
AcDbEntity
  8
KIJUN
100
AcDbCircle
 10
173.4060214724595
 20
135.4026427394956
 30
0.0
 40
5.230923384066608
100
AcDbArc
 50
200.332604553982
 51
359.673872657046
  0
LINE
  5
3EFF
102
{ACAD_REACTORS
330
3FA3
102
}
330
2
100
AcDbEntity
  8
KIJUN
100
AcDbLine
 10
205.2610346021706
 20
108.7350459061856
 30
0.0
 11
208.3446504490898
 21
109.4199622397596
 31
0.0
  0
LINE
  5
3F00
102
{ACAD_REACTORS
330
3FA3
102
}
330
2
100
AcDbEntity
  8
KIJUN
100
AcDbLine
 10
204.1252240480126
 20
117.8171116581834
 30
0.0
 11
205.2610346021706
 21
108.7350459061856
 31
0.0
  0
ARC
  5
3F01
102
{ACAD_REACTORS
330
3FA3
102
}
330
2
100
AcDbEntity
  8
KIJUN
100
AcDbCircle
 10
190.3548269415178
 20
99.99563738551955
 30
0.0
 40
20.30890565224619
100
AcDbArc
 50
353.929378863636
 51
27.648684333989
  0
ARC
  5
3F02
102
{ACAD_REACTORS
330
3FA3
102
}
330
2
100
AcDbEntity
  8
KIJUN
100
AcDbCircle
 10
235.6502877088046
 20
99.39696337113879
 30
0.0
 40
25.14819672556178
100
AcDbArc
 50
183.5315399630367
 51
279.1538837368099
  0
ARC
  5
3F03
102
{ACAD_REACTORS
330
3FA3
102
}
330
2
100
AcDbEntity
  8
KIJUN
100
AcDbCircle
 10
233.6941671237532
 20
75.76090908174456
 30
0.0
 40
6.46515412897961
100
AcDbArc
 50
349.3765840474544
 51
42.52887368927245
  0
ARC
  5
3F04
102
{ACAD_REACTORS
330
3FA3
102
}
330
2
100
AcDbEntity
  8
KIJUN
100
AcDbCircle
 10
303.251949656048
 20
93.55145487986851
 30
0.0
 40
12.09208777841443
100
AcDbArc
 50
324.7557682063843
 51
62.29149792041126
  0
ARC
  5
3F05
102
{ACAD_REACTORS
330
3FA3
102
}
330
2
100
AcDbEntity
  8
KIJUN
100
AcDbCircle
 10
304.9820913488651
 20
96.63680289505874
 30
0.0
 40
23.2379779999766
100
AcDbArc
 50
257.7277827324071
 51
18.72404916515492
  0
ARC
  5
3F06
102
{ACAD_REACTORS
330
3FA3
102
}
330
2
100
AcDbEntity
  8
KIJUN
100
AcDbCircle
 10
295.0282034397591
 20
98.91108549089688
 30
0.0
 40
14.8423723824935
100
AcDbArc
 50
216.4615471716659
 51
21.11070026422703
  0
ARC
  5
3F07
102
{ACAD_REACTORS
330
3FA3
102
}
330
2
100
AcDbEntity
  8
KIJUN
100
AcDbCircle
 10
317.1304107647164
 20
101.7771607314537
 30
0.0
 40
10.12890747298129
100
AcDbArc
 50
52.44809013937935
 51
152.134288785726
  0
ARC
  5
3F08
102
{ACAD_REACTORS
330
3FA3
102
}
330
2
100
AcDbEntity
  8
KIJUN
100
AcDbCircle
 10
309.6494048139046
 20
105.7324191841946
 30
0.0
 40
1.666666666666666
100
AcDbArc
 50
152.134288785726
 51
242.2914979204112
  0
ARC
  5
3F09
102
{ACAD_REACTORS
330
3FA3
102
}
330
2
100
AcDbEntity
  8
KIJUN
100
AcDbCircle
 10
260.0277933245898
 20
76.60440192062356
 30
0.0
 40
5.165668042009403
100
AcDbArc
 50
336.4413987144403
 51
53.43541114337972
  0
LINE
  5
3F0A
102
{ACAD_REACTORS
330
3FA3
102
}
330
2
100
AcDbEntity
  8
KIJUN
100
AcDbLine
 10
274.4679332506048
 20
105.1738169296145
 30
0.0
 11
288.4806397174862
 21
114.8702201010305
 31
0.0
  0
ARC
  5
3F0B
102
{ACAD_REACTORS
330
3FA3
102
}
330
2
100
AcDbEntity
  8
KIJUN
100
AcDbCircle
 10
316.5450909148857
 20
104.1810062696477
 30
0.0
 40
10.44546522103089
100
AcDbArc
 50
359.5361229052711
 51
31.6247895255086
  0
ARC
  5
3F0C
102
{ACAD_REACTORS
330
3FA3
102
}
330
2
100
AcDbEntity
  8
KIJUN
100
AcDbCircle
 10
324.3422670784533
 20
109.3131252529556
 30
0.0
 40
1.150105799170192
100
AcDbArc
 50
17.45627408091176
 51
154.5488380756251
  0
ARC
  5
3F0D
102
{ACAD_REACTORS
330
3FA3
102
}
330
2
100
AcDbEntity
  8
KIJUN
100
AcDbCircle
 10
299.658378639523
 20
101.0748157278537
 30
0.0
 40
25.20639645431681
100
AcDbArc
 50
330.2777709926855
 51
20.26985396942509
  0
ARC
  5
3F0E
102
{ACAD_REACTORS
330
3FA3
102
}
330
2
100
AcDbEntity
  8
KIJUN
100
AcDbCircle
 10
178.7942551883116
 20
100.8807109826166
 30
0.0
 40
57.74151783311562
100
AcDbArc
 50
46.66911330431748
 51
81.51289109805222
  0
ARC
  5
3F0F
102
{ACAD_REACTORS
330
3FA3
102
}
330
2
100
AcDbEntity
  8
KIJUN
100
AcDbCircle
 10
220.6587025493905
 20
215.0619342171176
 30
0.0
 40
49.53458927832357
100
AcDbArc
 50
235.8798194175861
 51
278.3068822611036
  0
ARC
  5
3F10
102
{ACAD_REACTORS
330
3FA3
102
}
330
2
100
AcDbEntity
  8
KIJUN
100
AcDbCircle
 10
148.5708344239824
 20
155.0977764087226
 30
0.0
 40
25.29647889863018
100
AcDbArc
 50
355.4672795677691
 51
23.12824762556877
  0
ARC
  5
3F11
102
{ACAD_REACTORS
330
3FA3
102
}
330
2
100
AcDbEntity
  8
KIJUN
100
AcDbCircle
 10
170.8664800284746
 20
176.3212498435255
 30
0.0
 40
22.12322922944803
100
AcDbArc
 50
354.1180758387826
 51
95.32270405177623
  0
ARC
  5
3F12
102
{ACAD_REACTORS
330
3FA3
102
}
330
2
100
AcDbEntity
  8
KIJUN
100
AcDbCircle
 10
144.4768538942421
 20
209.9813715530295
 30
0.0
 40
7.280148579374138
100
AcDbArc
 50
289.7927183543633
 51
5.239763512826806
  0
ARC
  5
3F13
102
{ACAD_REACTORS
330
3FA3
102
}
330
2
100
AcDbEntity
  8
KIJUN
100
AcDbCircle
 10
148.7173330122727
 20
148.8939091258057
 30
0.0
 40
6.652144247924132
100
AcDbArc
 50
345.8325922728621
 51
78.88746458333506
  0
ARC
  5
3F14
102
{ACAD_REACTORS
330
3FA3
102
}
330
2
100
AcDbEntity
  8
KIJUN
100
AcDbCircle
 10
142.5331861852596
 20
174.2463448196615
 30
0.0
 40
24.2448307387585
100
AcDbArc
 50
355.3636768743063
 51
33.87468812399607
  0
ARC
  5
3F15
102
{ACAD_REACTORS
330
3FA3
102
}
330
2
100
AcDbEntity
  8
KIJUN
100
AcDbCircle
 10
169.4427979231363
 20
190.8778934265076
 30
0.0
 40
18.79270574926177
100
AcDbArc
 50
209.5441539861327
 51
261.6036406056855
  0
ARC
  5
3F16
102
{ACAD_REACTORS
330
3FA3
102
}
330
2
100
AcDbEntity
  8
KIJUN
100
AcDbCircle
 10
170.3516302203147
 20
151.0297091705265
 30
0.0
 40
4.011288734045605
100
AcDbArc
 50
168.9726677144558
 51
31.04934608005613
  0
ARC
  5
3F17
102
{ACAD_REACTORS
330
3FA3
102
}
330
2
100
AcDbEntity
  8
KIJUN
100
AcDbCircle
 10
154.6518758785782
 20
162.2069645183137
 30
0.0
 40
15.70748036546991
100
AcDbArc
 50
318.4907667076187
 51
39.91946467624734
  0
ARC
  5
3F18
102
{ACAD_REACTORS
330
3FA3
102
}
330
2
100
AcDbEntity
  8
KIJUN
100
AcDbCircle
 10
143.7587779027435
 20
138.7034049837987
 30
0.0
 40
40.67027527511231
100
AcDbArc
 50
28.30832678244461
 51
55.66393020122609
  0
ARC
  5
3F19
102
{ACAD_REACTORS
330
3FA3
102
}
330
2
100
AcDbEntity
  8
KIJUN
100
AcDbCircle
 10
191.3444284714865
 20
210.9901670031015
 30
0.0
 40
36.96770293732667
100
AcDbArc
 50
223.1440306245886
 51
272.370153709701
  0
ARC
  5
3F1A
102
{ACAD_REACTORS
330
3FA3
102
}
330
2
100
AcDbEntity
  8
KIJUN
100
AcDbCircle
 10
161.9996519785454
 20
200.9810173390576
 30
0.0
 40
7.30515897404436
100
AcDbArc
 50
338.882350157481
 51
45.65868300156663
  0
ARC
  5
3F1B
102
{ACAD_REACTORS
330
3FA3
102
}
330
2
100
AcDbEntity
  8
KIJUN
100
AcDbCircle
 10
218.5595537089166
 20
164.3643815304403
 30
0.0
 40
9.407370031889266
100
AcDbArc
 50
296.5439559141848
 51
10.30371306074763
  0
ARC
  5
3F1C
102
{ACAD_REACTORS
330
3FA3
102
}
330
2
100
AcDbEntity
  8
KIJUN
100
AcDbCircle
 10
232.4570165087457
 20
166.4254975086167
 30
0.0
 40
14.2733303546439
100
AcDbArc
 50
227.2242474726993
 51
346.5338937192123
  0
ARC
  5
3F1D
102
{ACAD_REACTORS
330
3FA3
102
}
330
2
100
AcDbEntity
  8
KIJUN
100
AcDbCircle
 10
241.9671039211926
 20
155.7818986426127
 30
0.0
 40
8.525445124329534
100
AcDbArc
 50
321.0609042242557
 51
59.15738843691891
  0
ELLIPSE
  5
3F1E
102
{ACAD_REACTORS
330
3FA3
102
}
330
2
100
AcDbEntity
  8
KIJUN
100
AcDbEllipse
 10
79.29733919456976
 20
145.4763104226854
 30
0.0
 11
0.0898080106355601
 21
14.36376362541738
 31
0.0
210
0.0
220
0.0
230
-1.0
 40
0.5927580339224262
 41
0.0
 42
6.283185307179586
  0
DIMENSION
  5
3F1F
330
2
100
AcDbEntity
  8
SUNPOU
100
AcDbDimension
  2
*D89
 10
328.2200693488416
 20
294.8058791037634
 30
0.0
 11
78.22006934884166
 21
302.8058791037633
 31
0.0
 70
    32
 71
     5
 42
500.0
  3
STANDARD
100
AcDbAlignedDimension
 13
-171.7799306511583
 23
233.6438293736883
 33
0.0
 14
328.2200693488416
 24
234.4171992733745
 34
0.0
100
AcDbRotatedDimension
1001
ACAD
1000
DSTYLE
1002
{
1070
    41
1040
2.0
1070
    42
1040
10.0
1070
    44
1040
0.0
1070
    73
1070
     0
1070
    74
1070
     0
1070
    77
1070
     1
1070
   140
1040
10.0
1070
   141
1040
0.0
1070
   146
1040
0.064286
1070
   147
1040
3.0
1070
   176
1070
    60
1070
   177
1070
    70
1070
   178
1070
    60
1070
   271
1070
     0
1070
   272
1070
     0
1070
   340
1005
1C
1070
   342
1005
109
1002
}
  0
DIMENSION
  5
3F2C
330
2
100
AcDbEntity
  8
SUNPOU
100
AcDbDimension
  2
*D90
 10
-228.1049532351699
 20
66.6438293736882
 30
0.0
 11
-236.1049532351699
 21
150.1438293736882
 31
0.0
 70
    32
 71
     5
 42
167.0000000000001
  3
STANDARD
100
AcDbAlignedDimension
 13
-171.7799306511583
 23
233.6438293736883
 33
0.0
 14
-172.8189487700756
 24
66.64382937368819
 34
0.0
 50
90.0
100
AcDbRotatedDimension
1001
ACAD
1000
DSTYLE
1002
{
1070
    41
1040
2.0
1070
    42
1040
10.0
1070
    44
1040
0.0
1070
    73
1070
     0
1070
    74
1070
     0
1070
    77
1070
     1
1070
   140
1040
10.0
1070
   141
1040
0.0
1070
   146
1040
0.064286
1070
   147
1040
3.0
1070
   176
1070
    60
1070
   177
1070
    70
1070
   178
1070
    60
1070
   271
1070
     0
1070
   272
1070
     0
1070
   340
1005
1C
1070
   342
1005
109
1002
}
  0
ENDSEC
  0
SECTION
  2
OBJECTS
  0
DICTIONARY
  5
1A
330
0
100
AcDbDictionary
281
     1
  3
ACAD_COLOR
350
144
  3
ACAD_GROUP
350
18
  3
ACAD_LAYOUT
350
58
  3
ACAD_MATERIAL
350
143
  3
ACAD_MLINESTYLE
350
19
  3
ACAD_PLOTSETTINGS
350
59
  3
ACAD_PLOTSTYLENAME
350
56
  3
ACAD_TABLESTYLE
350
145
  3
ACDBHEADERROUNDTRIPXREC
350
3FAB
  3
AcDbVariableDictionary
350
1D1
  0
DICTIONARY
  5
1B4
330
A
100
AcDbDictionary
280
     1
281
     1
  3
ACAD_LAYERFILTERS
360
1C2
  3
ACLYDICTIONARY
360
1C1
  0
DICTIONARY
  5
1578
330
2
100
AcDbDictionary
280
     1
281
     1
  3
ACAD_SORTENTS
360
1579
  0
DICTIONARY
  5
144
102
{ACAD_REACTORS
330
1A
102
}
330
1A
100
AcDbDictionary
281
     1
  0
DICTIONARY
  5
18
102
{ACAD_REACTORS
330
1A
102
}
330
1A
100
AcDbDictionary
281
     1
  3
*A1
350
CFC
  3
*A10
350
2FE9
  3
*A11
350
312A
  3
*A12
350
15D1
  3
*A13
350
3154
  3
*A14
350
327B
  3
*A15
350
32AA
  3
*A16
350
3650
  3
*A17
350
367C
  3
*A18
350
1682
  3
*A19
350
1827
  3
*A2
350
218C
  3
*A20
350
18ED
  3
*A21
350
19E5
  3
*A22
350
1F8A
  3
*A23
350
2108
  3
*A24
350
3732
  3
*A25
350
37CF
  3
*A26
350
3837
  3
*A27
350
38C3
  3
*A29
350
39C3
  3
*A3
350
2335
  3
*A30
350
3AB4
  3
*A31
350
3BBC
  3
*A32
350
3D8C
  3
*A33
350
3FA3
  3
*A4
350
2862
  3
*A5
350
299B
  3
*A6
350
2C07
  3
*A7
350
2DB5
  3
*A8
350
2E88
  3
*A9
350
2FBC
  0
DICTIONARY
  5
58
102
{ACAD_REACTORS
330
1A
102
}
330
1A
100
AcDbDictionary
281
     1
  3
Model
350
5A
  3
ﾚｲｱｳﾄ1
350
5B
  0
DICTIONARY
  5
143
102
{ACAD_REACTORS
330
1A
102
}
330
1A
100
AcDbDictionary
281
     1
  0
DICTIONARY
  5
19
102
{ACAD_REACTORS
330
1A
102
}
330
1A
100
AcDbDictionary
281
     1
  3
STANDARD
350
1D
  0
DICTIONARY
  5
59
102
{ACAD_REACTORS
330
1A
102
}
330
1A
100
AcDbDictionary
281
     1
  0
ACDBDICTIONARYWDFLT
  5
56
102
{ACAD_REACTORS
330
1A
102
}
330
1A
100
AcDbDictionary
281
     1
  3
Normal
350
57
100
AcDbDictionaryWithDefault
340
57
  0
DICTIONARY
  5
145
102
{ACAD_REACTORS
330
1A
102
}
330
1A
100
AcDbDictionary
281
     1
  3
Standard
350
146
  0
DICTIONARY
  5
3FAB
102
{ACAD_REACTORS
330
1A
102
}
330
1A
100
AcDbDictionary
281
     1
  0
DICTIONARY
  5
1D1
102
{ACAD_REACTORS
330
1A
102
}
330
1A
100
AcDbDictionary
281
     1
  3
CTABLESTYLE
350
1D2
  3
DIMASSOC
350
D03
  3
PROJECTNAME
350
D04
  0
DICTIONARY
  5
1C2
102
{ACAD_REACTORS
330
1B4
102
}
330
1B4
100
AcDbDictionary
281
     1
  0
DICTIONARY
  5
1C1
102
{ACAD_REACTORS
330
1B4
102
}
330
1B4
100
AcDbDictionary
281
     1
1001
ACAD
1000
<All
  0
SORTENTSTABLE
  5
1579
102
{ACAD_REACTORS
330
1578
102
}
330
1578
100
AcDbSortentsTable
330
2
331
1F
  5
1F
331
20
  5
20
331
21
  5
21
331
23
  5
23
  0
GROUP
  5
CFC
102
{ACAD_REACTORS
330
18
102
}
330
18
100
AcDbGroup
300

 70
     1
 71
     1
  0
GROUP
  5
2FE9
102
{ACAD_REACTORS
330
18
102
}
330
18
100
AcDbGroup
300

 70
     1
 71
     1
  0
GROUP
  5
312A
102
{ACAD_REACTORS
330
18
102
}
330
18
100
AcDbGroup
300

 70
     1
 71
     1
  0
GROUP
  5
15D1
102
{ACAD_REACTORS
330
18
102
}
330
18
100
AcDbGroup
300

 70
     1
 71
     1
  0
GROUP
  5
3154
102
{ACAD_REACTORS
330
18
102
}
330
18
100
AcDbGroup
300

 70
     1
 71
     1
  0
GROUP
  5
327B
102
{ACAD_REACTORS
330
18
102
}
330
18
100
AcDbGroup
300

 70
     1
 71
     1
  0
GROUP
  5
32AA
102
{ACAD_REACTORS
330
18
102
}
330
18
100
AcDbGroup
300

 70
     1
 71
     1
  0
GROUP
  5
3650
102
{ACAD_REACTORS
330
18
102
}
330
18
100
AcDbGroup
300

 70
     1
 71
     1
  0
GROUP
  5
367C
102
{ACAD_REACTORS
330
18
102
}
330
18
100
AcDbGroup
300

 70
     1
 71
     1
  0
GROUP
  5
1682
102
{ACAD_REACTORS
330
18
102
}
330
18
100
AcDbGroup
300

 70
     1
 71
     1
  0
GROUP
  5
1827
102
{ACAD_REACTORS
330
18
102
}
330
18
100
AcDbGroup
300

 70
     1
 71
     1
  0
GROUP
  5
218C
102
{ACAD_REACTORS
330
18
102
}
330
18
100
AcDbGroup
300

 70
     1
 71
     1
  0
GROUP
  5
18ED
102
{ACAD_REACTORS
330
18
102
}
330
18
100
AcDbGroup
300

 70
     1
 71
     1
  0
GROUP
  5
19E5
102
{ACAD_REACTORS
330
18
102
}
330
18
100
AcDbGroup
300

 70
     1
 71
     1
  0
GROUP
  5
1F8A
102
{ACAD_REACTORS
330
18
102
}
330
18
100
AcDbGroup
300

 70
     1
 71
     1
  0
GROUP
  5
2108
102
{ACAD_REACTORS
330
18
102
}
330
18
100
AcDbGroup
300

 70
     1
 71
     1
  0
GROUP
  5
3732
102
{ACAD_REACTORS
330
18
102
}
330
18
100
AcDbGroup
300

 70
     1
 71
     1
  0
GROUP
  5
37CF
102
{ACAD_REACTORS
330
18
102
}
330
18
100
AcDbGroup
300

 70
     1
 71
     1
  0
GROUP
  5
3837
102
{ACAD_REACTORS
330
18
102
}
330
18
100
AcDbGroup
300

 70
     1
 71
     1
  0
GROUP
  5
38C3
102
{ACAD_REACTORS
330
18
102
}
330
18
100
AcDbGroup
300

 70
     1
 71
     1
  0
GROUP
  5
39C3
102
{ACAD_REACTORS
330
18
102
}
330
18
100
AcDbGroup
300

 70
     1
 71
     1
  0
GROUP
  5
2335
102
{ACAD_REACTORS
330
18
102
}
330
18
100
AcDbGroup
300

 70
     1
 71
     1
  0
GROUP
  5
3AB4
102
{ACAD_REACTORS
330
18
102
}
330
18
100
AcDbGroup
300

 70
     1
 71
     1
  0
GROUP
  5
3BBC
102
{ACAD_REACTORS
330
18
102
}
330
18
100
AcDbGroup
300

 70
     1
 71
     1
  0
GROUP
  5
3D8C
102
{ACAD_REACTORS
330
18
102
}
330
18
100
AcDbGroup
300

 70
     1
 71
     1
  0
GROUP
  5
3FA3
102
{ACAD_REACTORS
330
18
102
}
330
18
100
AcDbGroup
300

 70
     1
 71
     1
340
3F1E
340
3F1D
340
3F1C
340
3F1B
340
3F1A
340
3F19
340
3F18
340
3F17
340
3F16
340
3F15
340
3F14
340
3F13
340
3F12
340
3F11
340
3F10
340
3F0F
340
3F0E
340
3F0D
340
3F0C
340
3F0B
340
3F0A
340
3F09
340
3F08
340
3F07
340
3F06
340
3F05
340
3F04
340
3F03
340
3F02
340
3F01
340
3F00
340
3EFF
340
3EFE
340
3EFD
340
3EFC
340
3EFB
340
3EFA
340
3EF9
340
3EF8
340
3EF7
340
3EF6
340
3EF5
340
3EF4
340
3EF3
340
3EF2
340
3EF1
340
3EF0
340
3EEF
340
3EEE
340
3EED
340
3EEC
340
3EEB
340
3EEA
340
3EE9
340
3EE8
340
3EE7
340
3EE6
340
3EE5
340
3EE4
340
3EE3
340
3EE2
340
3EE1
340
3EE0
340
3EDF
340
3EDE
340
3EDD
340
3EDC
340
3EDB
340
3EDA
340
3ED9
340
3ED8
340
3ED7
340
3ED6
340
3ED5
340
3ED4
340
3ED3
340
3ED2
340
3ED1
340
3ED0
340
3ECF
340
3ECE
340
3ECD
340
3ECC
340
3ECB
340
3ECA
340
3EC9
340
3EC8
340
3EC7
340
3EC6
340
3EC5
340
3EC4
340
3EC3
340
3EC2
340
3EC1
340
3EC0
340
3EBF
340
3EBE
340
3EBD
340
3EBC
340
3EBB
340
3EBA
340
3EB9
340
3EB8
340
3EB7
340
3EB6
340
3EB5
340
3EB4
340
3EB3
340
3EB2
340
3EB1
340
3EB0
340
3EAF
340
3EAE
340
3EAD
340
3EAC
340
3EAB
340
3EAA
340
3EA9
340
3EA8
340
3EA7
340
3EA6
340
3EA5
340
3EA4
340
3EA3
340
3EA2
340
3EA1
340
3EA0
340
3E9F
340
3E9E
340
3E9D
340
3E9C
340
3E9B
340
3E9A
340
3E98
340
3E97
340
3E96
340
3E95
340
3E94
340
3E93
340
3E92
340
3E91
340
3E90
340
3E8F
340
3E8E
340
3E8D
340
3E8C
340
3E8B
340
3E8A
340
3E89
340
3E88
340
3E87
340
3E86
340
3E85
340
3E84
340
3E83
340
3E82
340
3E81
340
3E80
340
3E7F
340
3E7E
340
3E7D
340
3E7C
340
3E7B
340
3E7A
340
3E79
340
3E78
340
3E77
340
3E76
340
3E75
340
3E74
340
3E73
340
3E72
340
3E71
340
3E70
  0
GROUP
  5
2862
102
{ACAD_REACTORS
330
18
102
}
330
18
100
AcDbGroup
300

 70
     1
 71
     1
  0
GROUP
  5
299B
102
{ACAD_REACTORS
330
18
102
}
330
18
100
AcDbGroup
300

 70
     1
 71
     1
  0
GROUP
  5
2C07
102
{ACAD_REACTORS
330
18
102
}
330
18
100
AcDbGroup
300

 70
     1
 71
     1
  0
GROUP
  5
2DB5
102
{ACAD_REACTORS
330
18
102
}
330
18
100
AcDbGroup
300

 70
     1
 71
     1
  0
GROUP
  5
2E88
102
{ACAD_REACTORS
330
18
102
}
330
18
100
AcDbGroup
300

 70
     1
 71
     1
  0
GROUP
  5
2FBC
102
{ACAD_REACTORS
330
18
102
}
330
18
100
AcDbGroup
300

 70
     1
 71
     1
  0
LAYOUT
  5
5A
102
{ACAD_XDICTIONARY
360
3FAC
102
}
102
{ACAD_REACTORS
330
58
102
}
330
58
100
AcDbPlotSettings
  1

  2
なし
  4

  6

 40
0.0
 41
0.0
 42
0.0
 43
0.0
 44
0.0
 45
0.0
 46
0.0
 47
0.0
 48
0.0
 49
0.0
140
0.0
141
0.0
142
1.0
143
1.0
 70
  1712
 72
     0
 73
     0
 74
     0
  7
monochrome.ctb
 75
     0
147
1.0
148
0.0
149
0.0
100
AcDbLayout
  1
Model
 70
     1
 71
     0
 10
0.0
 20
0.0
 11
12.0
 21
9.0
 12
0.0
 22
0.0
 32
0.0
 14
0.0
 24
0.0
 34
0.0
 15
0.0
 25
0.0
 35
0.0
146
0.0
 13
0.0
 23
0.0
 33
0.0
 16
1.0
 26
0.0
 36
0.0
 17
0.0
 27
1.0
 37
0.0
 76
     0
330
2
  0
LAYOUT
  5
5B
102
{ACAD_XDICTIONARY
360
3FAE
102
}
102
{ACAD_REACTORS
330
58
102
}
330
58
100
AcDbPlotSettings
  1

  2
なし
  4

  6

 40
0.0
 41
0.0
 42
0.0
 43
0.0
 44
0.0
 45
0.0
 46
0.0
 47
0.0
 48
0.0
 49
0.0
140
0.0
141
0.0
142
1.0
143
1.0
 70
   688
 72
     0
 73
     0
 74
     5
  7
monochrome.ctb
 75
    16
147
1.0
148
0.0
149
0.0
100
AcDbLayout
  1
ﾚｲｱｳﾄ1
 70
     1
 71
     1
 10
0.0
 20
0.0
 11
12.0
 21
9.0
 12
0.0
 22
0.0
 32
0.0
 14
1.000000000000000E+20
 24
1.000000000000000E+20
 34
1.000000000000000E+20
 15
-1.000000000000000E+20
 25
-1.000000000000000E+20
 35
-1.000000000000000E+20
146
0.0
 13
0.0
 23
0.0
 33
0.0
 16
1.0
 26
0.0
 36
0.0
 17
0.0
 27
1.0
 37
0.0
 76
     0
330
7
  0
MLINESTYLE
  5
1D
102
{ACAD_REACTORS
330
19
102
}
330
19
100
AcDbMlineStyle
  2
STANDARD
 70
     0
  3

 62
   256
 51
90.0
 52
90.0
 71
     2
 49
0.5
 62
   256
  6
BYLAYER
 49
-0.5
 62
   256
  6
BYLAYER
  0
ACDBPLACEHOLDER
  5
57
102
{ACAD_REACTORS
330
56
102
}
330
56
  0
TABLESTYLE
  5
146
102
{ACAD_REACTORS
330
145
102
}
330
145
100
AcDbTableStyle
  3
Standard
 70
     0
 71
     0
 40
0.06
 41
0.06
280
     0
281
     0
  7
STANDARD
140
0.18
170
     2
 62
     0
 63
     7
283
     0
274
    -2
284
     1
 64
     0
275
    -2
285
     1
 65
     0
276
    -2
286
     1
 66
     0
277
    -2
287
     1
 67
     0
278
    -2
288
     1
 68
     0
279
    -2
289
     1
 69
     0
  7
STANDARD
140
0.25
170
     5
 62
     0
 63
     7
283
     0
274
    -2
284
     1
 64
     0
275
    -2
285
     1
 65
     0
276
    -2
286
     1
 66
     0
277
    -2
287
     1
 67
     0
278
    -2
288
     1
 68
     0
279
    -2
289
     1
 69
     0
  7
STANDARD
140
0.18
170
     5
 62
     0
 63
     7
283
     0
274
    -2
284
     1
 64
     0
275
    -2
285
     1
 65
     0
276
    -2
286
     1
 66
     0
277
    -2
287
     1
 67
     0
278
    -2
288
     1
 68
     0
279
    -2
289
     1
 69
     0
  0
DICTIONARYVAR
  5
1D2
102
{ACAD_REACTORS
330
1D1
102
}
330
1D1
100
DictionaryVariables
280
     0
  1
STANDARD
  0
DICTIONARYVAR
  5
D03
102
{ACAD_REACTORS
330
1D1
102
}
330
1D1
100
DictionaryVariables
280
     0
  1
1
  0
DICTIONARYVAR
  5
D04
102
{ACAD_REACTORS
330
1D1
102
}
330
1D1
100
DictionaryVariables
280
     0
  1

  0
DICTIONARY
  5
3FAC
330
5A
100
AcDbDictionary
280
     1
281
     1
  3
ACAD_XREC_ROUNDTRIP
360
3FAD
  0
DICTIONARY
  5
3FAE
330
5B
100
AcDbDictionary
280
     1
281
     1
  3
ACAD_XREC_ROUNDTRIP
360
3FAF
  0
XRECORD
  5
3FAD
102
{ACAD_REACTORS
330
3FAC
102
}
330
3FAC
100
AcDbXrecord
280
     1
102
SHADEPLOT
 70
     0
102
SHADEPLOTRESLEVEL
 70
     2
102
SHADEPLOTCUSTOMDPI
 70
   300
  0
XRECORD
  5
3FAF
102
{ACAD_REACTORS
330
3FAE
102
}
330
3FAE
100
AcDbXrecord
280
     1
102
SHADEPLOT
 70
     0
102
SHADEPLOTRESLEVEL
 70
     2
102
SHADEPLOTCUSTOMDPI
 70
   300
  0
ENDSEC
  0
EOF
