  0
SECTION
  2
HEADER
  9
$ACADVER
  1
AC1015
  9
$ACADMAINTVER
 70
    20
  9
$DWGCODEPAGE
  3
ANSI_932
  9
$INSBASE
 10
922.019522
 20
-675.4306699999999
 30
0.0
  9
$EXTMIN
 10
-317.1343888608233
 20
-0.0167891672346059
 30
-0.0000000000000053
  9
$EXTMAX
 10
384.2936896659073
 20
357.331839452586
 30
0.0000000000000099
  9
$LIMMIN
 10
0.0
 20
0.0
  9
$LIMMAX
 10
420.0
 20
297.0
  9
$ORTHOMODE
 70
     1
  9
$REGENMODE
 70
     1
  9
$FILLMODE
 70
     1
  9
$QTEXTMODE
 70
     0
  9
$MIRRTEXT
 70
     1
  9
$LTSCALE
 40
1.0
  9
$ATTMODE
 70
     1
  9
$TEXTSIZE
 40
30.0
  9
$TRACEWID
 40
0.05
  9
$TEXTSTYLE
  7
SUNPOU
  9
$CLAYER
  8
0
  9
$CELTYPE
  6
BYLAYER
  9
$CECOLOR
 62
   256
  9
$CELTSCALE
 40
1.0
  9
$DISPSILH
 70
     0
  9
$DIMSCALE
 40
1.0
  9
$DIMASZ
 40
2.0
  9
$DIMEXO
 40
10.0
  9
$DIMDLI
 40
0.38
  9
$DIMRND
 40
0.0
  9
$DIMDLE
 40
0.0
  9
$DIMEXE
 40
0.0
  9
$DIMTP
 40
0.0
  9
$DIMTM
 40
0.0
  9
$DIMTXT
 40
10.0
  9
$DIMCEN
 40
0.0
  9
$DIMTSZ
 40
0.0
  9
$DIMTOL
 70
     0
  9
$DIMLIM
 70
     0
  9
$DIMTIH
 70
     0
  9
$DIMTOH
 70
     0
  9
$DIMSE1
 70
     0
  9
$DIMSE2
 70
     0
  9
$DIMTAD
 70
     1
  9
$DIMZIN
 70
     0
  9
$DIMBLK
  1
Dot
  9
$DIMASO
 70
     1
  9
$DIMSHO
 70
     1
  9
$DIMPOST
  1

  9
$DIMAPOST
  1

  9
$DIMALT
 70
     0
  9
$DIMALTD
 70
     2
  9
$DIMALTF
 40
25.4
  9
$DIMLFAC
 40
1.0
  9
$DIMTOFL
 70
     0
  9
$DIMTVP
 40
0.0
  9
$DIMTIX
 70
     0
  9
$DIMSOXD
 70
     0
  9
$DIMSAH
 70
     0
  9
$DIMBLK1
  1

  9
$DIMBLK2
  1

  9
$DIMSTYLE
  2
STANDARD
  9
$DIMCLRD
 70
    60
  9
$DIMCLRE
 70
    70
  9
$DIMCLRT
 70
    60
  9
$DIMTFAC
 40
0.064286
  9
$DIMGAP
 40
3.0
  9
$DIMJUST
 70
     0
  9
$DIMSD1
 70
     0
  9
$DIMSD2
 70
     0
  9
$DIMTOLJ
 70
     1
  9
$DIMTZIN
 70
     0
  9
$DIMALTZ
 70
     0
  9
$DIMALTTZ
 70
     0
  9
$DIMUPT
 70
     0
  9
$DIMDEC
 70
     0
  9
$DIMTDEC
 70
     0
  9
$DIMALTU
 70
     2
  9
$DIMALTTD
 70
     2
  9
$DIMTXSTY
  7
SUNPOU
  9
$DIMAUNIT
 70
     0
  9
$DIMADEC
 70
     0
  9
$DIMALTRND
 40
0.0
  9
$DIMAZIN
 70
     0
  9
$DIMDSEP
 70
    46
  9
$DIMATFIT
 70
     3
  9
$DIMFRAC
 70
     0
  9
$DIMLDRBLK
  1

  9
$DIMLUNIT
 70
     2
  9
$DIMLWD
 70
    -2
  9
$DIMLWE
 70
    -2
  9
$DIMTMOVE
 70
     0
  9
$LUNITS
 70
     2
  9
$LUPREC
 70
     5
  9
$SKETCHINC
 40
0.1
  9
$FILLETRAD
 40
0.0
  9
$AUNITS
 70
     0
  9
$AUPREC
 70
     0
  9
$MENU
  1
acad
  9
$ELEVATION
 40
0.0
  9
$PELEVATION
 40
0.0
  9
$THICKNESS
 40
0.0
  9
$LIMCHECK
 70
     0
  9
$CHAMFERA
 40
0.0
  9
$CHAMFERB
 40
0.0
  9
$CHAMFERC
 40
0.0
  9
$CHAMFERD
 40
0.0
  9
$SKPOLY
 70
     0
  9
$TDCREATE
 40
2450623.654673033
  9
$TDUCREATE
 40
2450623.279673032
  9
$TDUPDATE
 40
2453858.589693206
  9
$TDUUPDATE
 40
2453858.214693206
  9
$TDINDWG
 40
0.1559631481
  9
$TDUSRTIMER
 40
0.1559629745
  9
$USRTIMER
 70
     1
  9
$ANGBASE
 50
0.0
  9
$ANGDIR
 70
     0
  9
$PDMODE
 70
     0
  9
$PDSIZE
 40
0.0
  9
$PLINEWID
 40
0.0
  9
$SPLFRAME
 70
     0
  9
$SPLINETYPE
 70
     6
  9
$SPLINESEGS
 70
     8
  9
$HANDSEED
  5
3DB7
  9
$SURFTAB1
 70
     6
  9
$SURFTAB2
 70
     6
  9
$SURFTYPE
 70
     6
  9
$SURFU
 70
     6
  9
$SURFV
 70
     6
  9
$UCSBASE
  2

  9
$UCSNAME
  2

  9
$UCSORG
 10
0.0
 20
0.0
 30
0.0
  9
$UCSXDIR
 10
1.0
 20
0.0
 30
0.0
  9
$UCSYDIR
 10
0.0
 20
1.0
 30
0.0
  9
$UCSORTHOREF
  2

  9
$UCSORTHOVIEW
 70
     0
  9
$UCSORGTOP
 10
0.0
 20
0.0
 30
0.0
  9
$UCSORGBOTTOM
 10
0.0
 20
0.0
 30
0.0
  9
$UCSORGLEFT
 10
0.0
 20
0.0
 30
0.0
  9
$UCSORGRIGHT
 10
0.0
 20
0.0
 30
0.0
  9
$UCSORGFRONT
 10
0.0
 20
0.0
 30
0.0
  9
$UCSORGBACK
 10
0.0
 20
0.0
 30
0.0
  9
$PUCSBASE
  2

  9
$PUCSNAME
  2

  9
$PUCSORG
 10
0.0
 20
0.0
 30
0.0
  9
$PUCSXDIR
 10
1.0
 20
0.0
 30
0.0
  9
$PUCSYDIR
 10
0.0
 20
1.0
 30
0.0
  9
$PUCSORTHOREF
  2

  9
$PUCSORTHOVIEW
 70
     0
  9
$PUCSORGTOP
 10
0.0
 20
0.0
 30
0.0
  9
$PUCSORGBOTTOM
 10
0.0
 20
0.0
 30
0.0
  9
$PUCSORGLEFT
 10
0.0
 20
0.0
 30
0.0
  9
$PUCSORGRIGHT
 10
0.0
 20
0.0
 30
0.0
  9
$PUCSORGFRONT
 10
0.0
 20
0.0
 30
0.0
  9
$PUCSORGBACK
 10
0.0
 20
0.0
 30
0.0
  9
$USERI1
 70
     0
  9
$USERI2
 70
     0
  9
$USERI3
 70
     0
  9
$USERI4
 70
     0
  9
$USERI5
 70
     0
  9
$USERR1
 40
0.0
  9
$USERR2
 40
0.0
  9
$USERR3
 40
0.0
  9
$USERR4
 40
0.0
  9
$USERR5
 40
0.0
  9
$WORLDVIEW
 70
     1
  9
$SHADEDGE
 70
     3
  9
$SHADEDIF
 70
    70
  9
$TILEMODE
 70
     1
  9
$MAXACTVP
 70
    16
  9
$PINSBASE
 10
0.0
 20
0.0
 30
0.0
  9
$PLIMCHECK
 70
     0
  9
$PEXTMIN
 10
1.000000000000000E+20
 20
1.000000000000000E+20
 30
1.000000000000000E+20
  9
$PEXTMAX
 10
-1.000000000000000E+20
 20
-1.000000000000000E+20
 30
-1.000000000000000E+20
  9
$PLIMMIN
 10
0.0
 20
0.0
  9
$PLIMMAX
 10
12.0
 20
9.0
  9
$UNITMODE
 70
     0
  9
$VISRETAIN
 70
     0
  9
$PLINEGEN
 70
     0
  9
$PSLTSCALE
 70
     1
  9
$TREEDEPTH
 70
  3020
  9
$CMLSTYLE
  2
STANDARD
  9
$CMLJUST
 70
     0
  9
$CMLSCALE
 40
1.0
  9
$PROXYGRAPHICS
 70
     1
  9
$MEASUREMENT
 70
     0
  9
$CELWEIGHT
370
    -1
  9
$ENDCAPS
280
     0
  9
$JOINSTYLE
280
     0
  9
$LWDISPLAY
290
     0
  9
$INSUNITS
 70
     0
  9
$HYPERLINKBASE
  1

  9
$STYLESHEET
  1

  9
$XEDIT
290
     1
  9
$CEPSNTYPE
380
     0
  9
$PSTYLEMODE
290
     1
  9
$FINGERPRINTGUID
  2
{FB88A696-E29C-4009-92AF-A3599A8169D5}
  9
$VERSIONGUID
  2
{9C87EAC7-D85C-4786-9A41-5765DF8DA796}
  9
$EXTNAMES
290
     1
  9
$PSVPSCALE
 40
0.0
  9
$OLESTARTUP
290
     0
  0
ENDSEC
  0
SECTION
  2
CLASSES
  0
CLASS
  1
DICTIONARYVAR
  2
AcDbDictionaryVar
  3
ObjectDBX Classes
 90
        0
280
     0
281
     0
  0
CLASS
  1
ACDBDICTIONARYWDFLT
  2
AcDbDictionaryWithDefault
  3
ObjectDBX Classes
 90
        0
280
     0
281
     0
  0
CLASS
  1
ACDBPLACEHOLDER
  2
AcDbPlaceHolder
  3
ObjectDBX Classes
 90
        0
280
     0
281
     0
  0
CLASS
  1
LAYOUT
  2
AcDbLayout
  3
ObjectDBX Classes
 90
        0
280
     0
281
     0
  0
CLASS
  1
TABLESTYLE
  2
AcDbTableStyle
  3
ObjectDBX Classes
 90
     2047
280
     0
281
     0
  0
CLASS
  1
SORTENTSTABLE
  2
AcDbSortentsTable
  3
ObjectDBX Classes
 90
        0
280
     0
281
     0
  0
ENDSEC
  0
SECTION
  2
TABLES
  0
TABLE
  2
VPORT
  5
12
330
0
100
AcDbSymbolTable
 70
    16
  0
VPORT
  5
3DB1
330
12
100
AcDbSymbolTableRecord
100
AcDbViewportTableRecord
  2
*Active
 70
     0
 10
0.0
 20
0.0
 11
1.0
 21
1.0
 12
33.57965040254203
 22
178.6575251426756
 13
0.0
 23
0.0
 14
1.0
 24
1.0
 15
0.0
 25
0.0
 16
0.0
 26
0.0
 36
1.0
 17
0.0
 27
0.0
 37
0.0
 40
452.5577664222016
 41
1.557544757033248
 42
50.0
 43
0.0
 44
0.0
 50
0.0
 51
0.0
 71
     0
 72
 20000
 73
     1
 74
     1
 75
     0
 76
     0
 77
     0
 78
     0
281
     0
 65
     1
110
0.0
120
0.0
130
0.0
111
1.0
121
0.0
131
0.0
112
0.0
122
1.0
132
0.0
 79
     0
146
0.0
  0
ENDTAB
  0
TABLE
  2
LTYPE
  5
D
330
0
100
AcDbSymbolTable
 70
     2
  0
LTYPE
  5
E
330
D
100
AcDbSymbolTableRecord
100
AcDbLinetypeTableRecord
  2
BYBLOCK
 70
     0
  3

 72
    65
 73
     0
 40
0.0
  0
LTYPE
  5
F
330
D
100
AcDbSymbolTableRecord
100
AcDbLinetypeTableRecord
  2
BYLAYER
 70
     0
  3

 72
    65
 73
     0
 40
0.0
  0
LTYPE
  5
5
330
D
100
AcDbSymbolTableRecord
100
AcDbLinetypeTableRecord
  2
CONTINUOUS
 70
     0
  3
Solid line
 72
    65
 73
     0
 40
0.0
  0
ENDTAB
  0
TABLE
  2
LAYER
  5
A
102
{ACAD_XDICTIONARY
360
1B4
102
}
330
0
100
AcDbSymbolTable
 70
     6
  0
LAYER
  5
4
330
A
100
AcDbSymbolTableRecord
100
AcDbLayerTableRecord
  2
0
 70
     0
 62
     7
  6
CONTINUOUS
370
    -3
390
57
  0
LAYER
  5
25
330
A
100
AcDbSymbolTableRecord
100
AcDbLayerTableRecord
  2
KIJUN
 70
     0
 62
     7
  6
CONTINUOUS
370
    -3
390
57
  0
LAYER
  5
22
330
A
100
AcDbSymbolTableRecord
100
AcDbLayerTableRecord
  2
HOJO
 70
     0
 62
     3
  6
CONTINUOUS
370
    -3
390
57
  0
LAYER
  5
1B
330
A
100
AcDbSymbolTableRecord
100
AcDbLayerTableRecord
  2
WAKU
 70
     0
 62
     1
  6
CONTINUOUS
370
    -3
390
57
  0
LAYER
  5
31
330
A
100
AcDbSymbolTableRecord
100
AcDbLayerTableRecord
  2
DEFPOINTS
 70
     0
 62
     7
  6
CONTINUOUS
290
     0
370
    -3
390
57
  0
LAYER
  5
28
330
A
100
AcDbSymbolTableRecord
100
AcDbLayerTableRecord
  2
SUNPOU
 70
     0
 62
    70
  6
CONTINUOUS
370
    -3
390
57
  0
ENDTAB
  0
TABLE
  2
STYLE
  5
B
330
0
100
AcDbSymbolTable
 70
     3
  0
STYLE
  5
C
330
B
100
AcDbSymbolTableRecord
100
AcDbTextStyleTableRecord
  2
STANDARD
 70
     0
 40
0.0
 41
1.0
 50
0.0
 71
     0
 42
0.2
  3
txt
  4

  0
STYLE
  5
1C
330
B
100
AcDbSymbolTableRecord
100
AcDbTextStyleTableRecord
  2
SUNPOU
 70
     0
 40
0.0
 41
1.0
 50
0.0
 71
     0
 42
30.0
  3
txt
  4
bigfont
  0
STYLE
  5
14A
330
B
100
AcDbSymbolTableRecord
100
AcDbTextStyleTableRecord
  2
LIFE
 70
     0
 40
0.0
 41
0.7
 50
0.0
 71
     0
 42
10.0
  3
romans
  4
extfont
  0
ENDTAB
  0
TABLE
  2
VIEW
  5
10
330
0
100
AcDbSymbolTable
 70
     0
  0
ENDTAB
  0
TABLE
  2
UCS
  5
11
330
0
100
AcDbSymbolTable
 70
     0
  0
ENDTAB
  0
TABLE
  2
APPID
  5
14
330
0
100
AcDbSymbolTable
 70
    10
  0
APPID
  5
15
330
14
100
AcDbSymbolTableRecord
100
AcDbRegAppTableRecord
  2
ACAD
 70
     0
  0
APPID
  5
1D3
330
14
100
AcDbSymbolTableRecord
100
AcDbRegAppTableRecord
  2
ACAD_DSTYLE_DIMTEXT_FILL
 70
     0
  0
APPID
  5
1D4
330
14
100
AcDbSymbolTableRecord
100
AcDbRegAppTableRecord
  2
ACAD_DSTYLE_DIMEXT_LENGTH
 70
     0
  0
APPID
  5
1D5
330
14
100
AcDbSymbolTableRecord
100
AcDbRegAppTableRecord
  2
ACAD_DSTYLE_DIMEXT_ENABLED
 70
     0
  0
APPID
  5
1D6
330
14
100
AcDbSymbolTableRecord
100
AcDbRegAppTableRecord
  2
ACAD_DSTYLE_DIM_LINETYPE
 70
     0
  0
APPID
  5
1D7
330
14
100
AcDbSymbolTableRecord
100
AcDbRegAppTableRecord
  2
ACAD_DSTYLE_DIM_EXT1_LINETYPE
 70
     0
  0
APPID
  5
1D8
330
14
100
AcDbSymbolTableRecord
100
AcDbRegAppTableRecord
  2
ACAD_DSTYLE_DIM_EXT2_LINETYPE
 70
     0
  0
APPID
  5
294
330
14
100
AcDbSymbolTableRecord
100
AcDbRegAppTableRecord
  2
ACAD_DSTYLE_DIMJOGGED_JOGANGLE_SYMBOL
 70
     0
  0
APPID
  5
478
330
14
100
AcDbSymbolTableRecord
100
AcDbRegAppTableRecord
  2
ACAD_DSTYLE_DIMARC_LENGTH_SYMBOL
 70
     0
  0
APPID
  5
157B
330
14
100
AcDbSymbolTableRecord
100
AcDbRegAppTableRecord
  2
ACAD_EXEMPT_FROM_CAD_STANDARDS
 70
     0
  0
ENDTAB
  0
TABLE
  2
DIMSTYLE
  5
16
330
0
100
AcDbSymbolTable
 70
     2
100
AcDbDimStyleTable
 71
     1
340
1E
  0
DIMSTYLE
105
1E
102
{ACAD_REACTORS
330
3D2C
330
3D39
102
}
330
16
100
AcDbSymbolTableRecord
100
AcDbDimStyleTableRecord
  2
STANDARD
 70
     0
340
C
  0
ENDTAB
  0
TABLE
  2
BLOCK_RECORD
  5
1
330
0
100
AcDbSymbolTable
 70
    88
  0
BLOCK_RECORD
  5
2
102
{ACAD_XDICTIONARY
360
1578
102
}
330
1
100
AcDbSymbolTableRecord
100
AcDbBlockTableRecord
  2
*MODEL_SPACE
340
5A
  0
BLOCK_RECORD
  5
7
330
1
100
AcDbSymbolTableRecord
100
AcDbBlockTableRecord
  2
*PAPER_SPACE
340
5B
  0
BLOCK_RECORD
  5
109
330
1
100
AcDbSymbolTableRecord
100
AcDbBlockTableRecord
  2
_Dot
340
0
102
{BLKREFS
331
CF6
331
CF7
331
15B9
331
15BA
331
15CB
331
15CC
331
1664
331
1665
331
1686
331
1687
331
1818
331
1819
331
1821
331
1822
331
18DE
331
18DF
331
18E7
331
18E8
331
19C4
331
19C5
331
19DF
331
19E0
331
1F7B
331
1F7C
331
1F84
331
1F85
331
20F9
331
20FA
331
2102
331
2103
331
2165
331
2166
331
2172
331
2173
331
2314
331
2315
331
2326
331
2327
331
232F
331
2330
331
2834
331
2835
331
2848
331
2849
331
298C
331
298D
331
2995
331
2996
331
2BF8
331
2BF9
331
2C01
331
2C02
331
2DA5
331
2DA6
331
2DAE
331
2DAF
331
2E70
331
2E71
331
2E82
331
2E83
331
2FAC
331
2FAD
331
2FB5
331
2FB6
331
311A
331
311B
331
3123
331
3124
331
32AE
331
32AF
331
32B7
331
32B8
331
3692
331
3693
331
369B
331
369C
331
371A
331
371B
331
3743
331
3744
331
39C7
331
39C8
331
3A9C
331
3A9D
331
3AAE
331
3AAF
331
3BA4
331
3BA5
331
3BB6
331
3BB7
331
3D99
331
3D9A
331
3DAB
331
3DAC
102
}
  0
BLOCK_RECORD
  5
35E9
330
1
100
AcDbSymbolTableRecord
100
AcDbBlockTableRecord
  2
*D68
340
0
  0
BLOCK_RECORD
  5
35F6
330
1
100
AcDbSymbolTableRecord
100
AcDbBlockTableRecord
  2
*D69
340
0
  0
BLOCK_RECORD
  5
370A
330
1
100
AcDbSymbolTableRecord
100
AcDbBlockTableRecord
  2
*D71
340
0
  0
BLOCK_RECORD
  5
3734
330
1
100
AcDbSymbolTableRecord
100
AcDbBlockTableRecord
  2
*D73
340
0
  0
BLOCK_RECORD
  5
37B1
330
1
100
AcDbSymbolTableRecord
100
AcDbBlockTableRecord
  2
*D75
340
0
  0
BLOCK_RECORD
  5
3A45
330
1
100
AcDbSymbolTableRecord
100
AcDbBlockTableRecord
  2
*D80
340
0
  0
BLOCK_RECORD
  5
3A52
330
1
100
AcDbSymbolTableRecord
100
AcDbBlockTableRecord
  2
*D81
340
0
  0
BLOCK_RECORD
  5
3B2D
330
1
100
AcDbSymbolTableRecord
100
AcDbBlockTableRecord
  2
*D83
340
0
  0
BLOCK_RECORD
  5
3B3A
330
1
100
AcDbSymbolTableRecord
100
AcDbBlockTableRecord
  2
*D84
340
0
  0
BLOCK_RECORD
  5
3D2D
330
1
100
AcDbSymbolTableRecord
100
AcDbBlockTableRecord
  2
*D86
340
0
  0
BLOCK_RECORD
  5
3D3A
330
1
100
AcDbSymbolTableRecord
100
AcDbBlockTableRecord
  2
*D87
340
0
  0
ENDTAB
  0
ENDSEC
  0
SECTION
  2
BLOCKS
  0
BLOCK
  5
3
330
2
100
AcDbEntity
  8
0
100
AcDbBlockBegin
  2
*MODEL_SPACE
 70
     0
 10
0.0
 20
0.0
 30
0.0
  3
*MODEL_SPACE
  1

  0
ENDBLK
  5
6
330
2
100
AcDbEntity
  8
0
100
AcDbBlockEnd
  0
BLOCK
  5
8
330
7
100
AcDbEntity
 67
     1
  8
0
100
AcDbBlockBegin
  2
*PAPER_SPACE
 70
     0
 10
0.0
 20
0.0
 30
0.0
  3
*PAPER_SPACE
  1

  0
ENDBLK
  5
9
330
7
100
AcDbEntity
 67
     1
  8
0
100
AcDbBlockEnd
  0
BLOCK
  5
10C
330
109
100
AcDbEntity
  8
0
100
AcDbBlockBegin
  2
_Dot
 70
     0
 10
0.0
 20
0.0
 30
0.0
  3
_Dot
  1

  0
LWPOLYLINE
  5
10A
330
109
100
AcDbEntity
  8
0
  6
ByBlock
 62
     0
100
AcDbPolyline
 90
        2
 70
     1
 43
0.5
 10
-0.25
 20
0.0
 42
1.0
 10
0.25
 20
0.0
 42
1.0
  0
LINE
  5
10B
330
109
100
AcDbEntity
  8
0
  6
ByBlock
 62
     0
370
    -2
100
AcDbLine
 10
-0.5
 20
0.0
 30
0.0
 11
-1.0
 21
0.0
 31
0.0
  0
ENDBLK
  5
10D
330
109
100
AcDbEntity
  8
0
100
AcDbBlockEnd
  0
BLOCK
  5
35F3
330
35E9
100
AcDbEntity
  8
0
100
AcDbBlockBegin
  2
*D68
 70
     1
 10
0.0
 20
0.0
 30
0.0
  3
*D68
  1

  0
LINE
  5
368F
330
35E9
100
AcDbEntity
  8
SUNPOU
 62
    70
370
    -2
100
AcDbLine
 10
-57.31304931990838
 20
149.8921824087356
 30
0.0
 11
-57.31304931990837
 21
205.1481820578692
 31
0.0
  0
LINE
  5
3690
330
35E9
100
AcDbEntity
  8
SUNPOU
 62
    70
370
    -2
100
AcDbLine
 10
248.6869506800916
 20
150.5513573235502
 30
0.0
 11
248.6869506800916
 21
205.1481820578692
 31
0.0
  0
LINE
  5
3691
330
35E9
100
AcDbEntity
  8
SUNPOU
 62
    60
370
    -2
100
AcDbLine
 10
-55.31304931990836
 20
205.1481820578692
 30
0.0
 11
246.6869506800916
 21
205.1481820578692
 31
0.0
  0
INSERT
  5
3692
330
35E9
100
AcDbEntity
  8
SUNPOU
 62
    60
370
    -2
100
AcDbBlockReference
  2
_Dot
 10
-57.31304931990837
 20
205.1481820578692
 30
0.0
 41
2.0
 42
2.0
 43
2.0
 50
180.0
  0
INSERT
  5
3693
330
35E9
100
AcDbEntity
  8
SUNPOU
 62
    60
370
    -2
100
AcDbBlockReference
  2
_Dot
 10
248.6869506800916
 20
205.1481820578692
 30
0.0
 41
2.0
 42
2.0
 43
2.0
  0
MTEXT
  5
3694
330
35E9
100
AcDbEntity
  8
SUNPOU
 62
    60
100
AcDbMText
 10
95.68695068009162
 20
213.1481820578692
 30
0.0
 40
10.0
 41
0.0
 71
     5
 72
     1
  1
\A1;306
  7
SUNPOU
 73
     1
 44
1.0
1001
ACAD
1000
MTEXTBEGIN
1070
    73
1070
     1
1070
    44
1040
1.0
1070
    74
1070
     0
1000
MTEXTEND
  0
POINT
  5
3695
330
35E9
100
AcDbEntity
  8
DEFPOINTS
 62
     0
100
AcDbPoint
 10
-57.31304931990838
 20
139.8921824087356
 30
0.0
  0
POINT
  5
3696
330
35E9
100
AcDbEntity
  8
DEFPOINTS
 62
     0
100
AcDbPoint
 10
248.6869506800916
 20
140.5513573235502
 30
0.0
  0
POINT
  5
3697
330
35E9
100
AcDbEntity
  8
DEFPOINTS
 62
     0
100
AcDbPoint
 10
248.6869506800916
 20
205.1481820578692
 30
0.0
  0
ENDBLK
  5
35F4
330
35E9
100
AcDbEntity
  8
0
100
AcDbBlockEnd
  0
BLOCK
  5
3600
330
35F6
100
AcDbEntity
  8
0
100
AcDbBlockBegin
  2
*D69
 70
     1
 10
0.0
 20
0.0
 30
0.0
  3
*D69
  1

  0
LINE
  5
3698
330
35F6
100
AcDbEntity
  8
SUNPOU
 62
    70
370
    -2
100
AcDbLine
 10
-67.31304931990836
 20
163.7291678152901
 30
0.0
 11
-98.37628952802333
 21
163.7291678152901
 31
0.0
  0
LINE
  5
3699
330
35F6
100
AcDbEntity
  8
SUNPOU
 62
    70
370
    -2
100
AcDbLine
 10
-67.49508426752891
 20
117.7291678152901
 30
0.0
 11
-98.37628952802333
 21
117.7291678152901
 31
0.0
  0
LINE
  5
369A
330
35F6
100
AcDbEntity
  8
SUNPOU
 62
    60
370
    -2
100
AcDbLine
 10
-98.37628952802333
 20
161.7291678152901
 30
0.0
 11
-98.37628952802333
 21
119.7291678152901
 31
0.0
  0
INSERT
  5
369B
330
35F6
100
AcDbEntity
  8
SUNPOU
 62
    60
370
    -2
100
AcDbBlockReference
  2
_Dot
 10
-98.37628952802333
 20
163.7291678152901
 30
0.0
 41
2.0
 42
2.0
 43
2.0
 50
90.0
  0
INSERT
  5
369C
330
35F6
100
AcDbEntity
  8
SUNPOU
 62
    60
370
    -2
100
AcDbBlockReference
  2
_Dot
 10
-98.37628952802333
 20
117.7291678152901
 30
0.0
 41
2.0
 42
2.0
 43
2.0
 50
270.0
  0
MTEXT
  5
369D
330
35F6
100
AcDbEntity
  8
SUNPOU
 62
    60
100
AcDbMText
 10
-106.3762895280233
 20
140.7291678152901
 30
0.0
 40
10.0
 41
0.0
 71
     5
 72
     1
  1
\A1;46
  7
SUNPOU
 11
0.0000000000000001
 21
1.0
 31
0.0
 73
     1
 44
1.0
1001
ACAD
1000
MTEXTBEGIN
1070
    73
1070
     1
1070
    44
1040
1.0
1070
    74
1070
     0
1000
MTEXTEND
  0
POINT
  5
369E
330
35F6
100
AcDbEntity
  8
DEFPOINTS
 62
     0
100
AcDbPoint
 10
-57.31304931990838
 20
163.7291678152901
 30
0.0
  0
POINT
  5
369F
330
35F6
100
AcDbEntity
  8
DEFPOINTS
 62
     0
100
AcDbPoint
 10
-57.49508426752891
 20
117.7291678152901
 30
0.0
  0
POINT
  5
36A0
330
35F6
100
AcDbEntity
  8
DEFPOINTS
 62
     0
100
AcDbPoint
 10
-98.37628952802333
 20
117.7291678152901
 30
0.0
  0
ENDBLK
  5
3601
330
35F6
100
AcDbEntity
  8
0
100
AcDbBlockEnd
  0
BLOCK
  5
3714
330
370A
100
AcDbEntity
  8
0
100
AcDbBlockBegin
  2
*D71
 70
     1
 10
0.0
 20
0.0
 30
0.0
  3
*D71
  1

  0
LINE
  5
3716
330
370A
100
AcDbEntity
  8
SUNPOU
 62
    70
370
    -2
100
AcDbLine
 10
28.04651099485443
 20
67.73890226967478
 30
0.0
 11
28.04651099485444
 21
96.76277591141218
 31
0.0
  0
LINE
  5
3717
330
370A
100
AcDbEntity
  8
SUNPOU
 62
    70
370
    -2
100
AcDbLine
 10
67.88324783326004
 20
68.05244005182112
 30
0.0
 11
67.88324783326004
 21
96.76277591141218
 31
0.0
  0
LINE
  5
3718
330
370A
100
AcDbEntity
  8
SUNPOU
 62
    60
370
    -2
100
AcDbLine
 10
30.04651099485443
 20
96.76277591141218
 30
0.0
 11
65.88324783326005
 21
96.76277591141218
 31
0.0
  0
LINE
  5
3719
330
370A
100
AcDbEntity
  8
SUNPOU
 62
    60
370
    -2
100
AcDbLine
 10
67.88324783326004
 20
96.76277591141218
 30
0.0
 11
155.88324783326
 21
96.76277591141218
 31
0.0
  0
INSERT
  5
371A
330
370A
100
AcDbEntity
  8
SUNPOU
 62
    60
370
    -2
100
AcDbBlockReference
  2
_Dot
 10
28.04651099485444
 20
96.76277591141218
 30
0.0
 41
2.0
 42
2.0
 43
2.0
 50
180.0
  0
INSERT
  5
371B
330
370A
100
AcDbEntity
  8
SUNPOU
 62
    60
370
    -2
100
AcDbBlockReference
  2
_Dot
 10
67.88324783326004
 20
96.76277591141218
 30
0.0
 41
2.0
 42
2.0
 43
2.0
  0
MTEXT
  5
371C
330
370A
100
AcDbEntity
  8
SUNPOU
 62
    60
100
AcDbMText
 10
112.88324783326
 20
104.7627759114122
 30
0.0
 40
10.0
 41
0.0
 71
     5
 72
     1
  1
\A1;39.836737
  7
SUNPOU
 73
     1
 44
1.0
1001
ACAD
1000
MTEXTBEGIN
1070
    73
1070
     1
1070
    44
1040
1.0
1070
    74
1070
     0
1000
MTEXTEND
  0
POINT
  5
371D
330
370A
100
AcDbEntity
  8
DEFPOINTS
 62
     0
100
AcDbPoint
 10
28.04651099485443
 20
57.73890226967478
 30
0.0
  0
POINT
  5
371E
330
370A
100
AcDbEntity
  8
DEFPOINTS
 62
     0
100
AcDbPoint
 10
67.88324783326004
 20
58.05244005182112
 30
0.0
  0
POINT
  5
371F
330
370A
100
AcDbEntity
  8
DEFPOINTS
 62
     0
100
AcDbPoint
 10
67.88324783326004
 20
96.76277591141218
 30
0.0
  0
ENDBLK
  5
3715
330
370A
100
AcDbEntity
  8
0
100
AcDbBlockEnd
  0
BLOCK
  5
373E
330
3734
100
AcDbEntity
  8
0
100
AcDbBlockBegin
  2
*D73
 70
     1
 10
0.0
 20
0.0
 30
0.0
  3
*D73
  1

  0
LINE
  5
3740
330
3734
100
AcDbEntity
  8
SUNPOU
 62
    70
370
    -2
100
AcDbLine
 10
27.89994361320522
 20
69.85225236533939
 30
0.0
 11
27.89994361320522
 21
98.69576219890257
 31
0.0
  0
LINE
  5
3741
330
3734
100
AcDbEntity
  8
SUNPOU
 62
    70
370
    -2
100
AcDbLine
 10
67.89994361320521
 20
69.85225236533939
 30
0.0
 11
67.89994361320521
 21
98.69576219890257
 31
0.0
  0
LINE
  5
3742
330
3734
100
AcDbEntity
  8
SUNPOU
 62
    60
370
    -2
100
AcDbLine
 10
29.89994361320522
 20
98.69576219890257
 30
0.0
 11
65.8999436132052
 21
98.69576219890257
 31
0.0
  0
INSERT
  5
3743
330
3734
100
AcDbEntity
  8
SUNPOU
 62
    60
370
    -2
100
AcDbBlockReference
  2
_Dot
 10
27.89994361320522
 20
98.69576219890257
 30
0.0
 41
2.0
 42
2.0
 43
2.0
 50
180.0
  0
INSERT
  5
3744
330
3734
100
AcDbEntity
  8
SUNPOU
 62
    60
370
    -2
100
AcDbBlockReference
  2
_Dot
 10
67.89994361320521
 20
98.69576219890257
 30
0.0
 41
2.0
 42
2.0
 43
2.0
  0
MTEXT
  5
3745
330
3734
100
AcDbEntity
  8
SUNPOU
 62
    60
100
AcDbMText
 10
47.89994361320521
 20
106.6957621989025
 30
0.0
 40
10.0
 41
0.0
 71
     5
 72
     1
  1
\A1;40φ
  7
SUNPOU
 73
     1
 44
1.0
1001
ACAD
1000
MTEXTBEGIN
1070
    73
1070
     1
1070
    44
1040
1.0
1070
    74
1070
     0
1000
MTEXTEND
  0
POINT
  5
3746
330
3734
100
AcDbEntity
  8
DEFPOINTS
 62
     0
100
AcDbPoint
 10
27.89994361320522
 20
59.85225236533939
 30
0.0
  0
POINT
  5
3747
330
3734
100
AcDbEntity
  8
DEFPOINTS
 62
     0
100
AcDbPoint
 10
67.89994361320521
 20
59.85225236533939
 30
0.0
  0
POINT
  5
3748
330
3734
100
AcDbEntity
  8
DEFPOINTS
 62
     0
100
AcDbPoint
 10
67.89994361320521
 20
98.69576219890257
 30
0.0
  0
ENDBLK
  5
373F
330
3734
100
AcDbEntity
  8
0
100
AcDbBlockEnd
  0
BLOCK
  5
37BB
330
37B1
100
AcDbEntity
  8
0
100
AcDbBlockBegin
  2
*D75
 70
     1
 10
0.0
 20
0.0
 30
0.0
  3
*D75
  1

  0
LINE
  5
39C4
330
37B1
100
AcDbEntity
  8
SUNPOU
 62
    70
370
    -2
100
AcDbLine
 10
-42.54865485741496
 20
157.2140937351553
 30
0.0
 11
-42.54865485741495
 21
282.2045269340939
 31
0.0
  0
LINE
  5
39C5
330
37B1
100
AcDbEntity
  8
SUNPOU
 62
    70
370
    -2
100
AcDbLine
 10
149.451345142585
 20
157.2140937351553
 30
0.0
 11
149.451345142585
 21
282.2045269340939
 31
0.0
  0
LINE
  5
39C6
330
37B1
100
AcDbEntity
  8
SUNPOU
 62
    60
370
    -2
100
AcDbLine
 10
-40.54865485741495
 20
282.2045269340939
 30
0.0
 11
147.451345142585
 21
282.2045269340939
 31
0.0
  0
INSERT
  5
39C7
330
37B1
100
AcDbEntity
  8
SUNPOU
 62
    60
370
    -2
100
AcDbBlockReference
  2
_Dot
 10
-42.54865485741495
 20
282.2045269340939
 30
0.0
 41
2.0
 42
2.0
 43
2.0
 50
180.0
  0
INSERT
  5
39C8
330
37B1
100
AcDbEntity
  8
SUNPOU
 62
    60
370
    -2
100
AcDbBlockReference
  2
_Dot
 10
149.451345142585
 20
282.2045269340939
 30
0.0
 41
2.0
 42
2.0
 43
2.0
  0
MTEXT
  5
39C9
330
37B1
100
AcDbEntity
  8
SUNPOU
 62
    60
100
AcDbMText
 10
53.45134514258504
 20
290.2045269340939
 30
0.0
 40
10.0
 41
0.0
 71
     5
 72
     1
  1
\A1;192φ
  7
SUNPOU
 73
     1
 44
1.0
1001
ACAD
1000
MTEXTBEGIN
1070
    73
1070
     1
1070
    44
1040
1.0
1070
    74
1070
     0
1000
MTEXTEND
  0
POINT
  5
39CA
330
37B1
100
AcDbEntity
  8
DEFPOINTS
 62
     0
100
AcDbPoint
 10
-42.54865485741496
 20
147.2140937351553
 30
0.0
  0
POINT
  5
39CB
330
37B1
100
AcDbEntity
  8
DEFPOINTS
 62
     0
100
AcDbPoint
 10
149.451345142585
 20
147.2140937351553
 30
0.0
  0
POINT
  5
39CC
330
37B1
100
AcDbEntity
  8
DEFPOINTS
 62
     0
100
AcDbPoint
 10
149.451345142585
 20
282.2045269340939
 30
0.0
  0
ENDBLK
  5
37BC
330
37B1
100
AcDbEntity
  8
0
100
AcDbBlockEnd
  0
BLOCK
  5
3A4F
330
3A45
100
AcDbEntity
  8
0
100
AcDbBlockBegin
  2
*D80
 70
     1
 10
0.0
 20
0.0
 30
0.0
  3
*D80
  1

  0
LINE
  5
3AAB
330
3A45
100
AcDbEntity
  8
SUNPOU
 62
    70
370
    -2
100
AcDbLine
 10
-68.96399143244808
 20
170.0383087325503
 30
0.0
 11
-68.96399143244808
 21
206.3986443243337
 31
0.0
  0
LINE
  5
3AAC
330
3A45
100
AcDbEntity
  8
SUNPOU
 62
    70
370
    -2
100
AcDbLine
 10
181.0360085675522
 20
170.3162869883523
 30
0.0
 11
181.0360085675522
 21
206.3986443243337
 31
0.0
  0
LINE
  5
3AAD
330
3A45
100
AcDbEntity
  8
SUNPOU
 62
    60
370
    -2
100
AcDbLine
 10
-66.96399143244808
 20
206.3986443243337
 30
0.0
 11
179.0360085675522
 21
206.3986443243337
 31
0.0
  0
INSERT
  5
3AAE
330
3A45
100
AcDbEntity
  8
SUNPOU
 62
    60
370
    -2
100
AcDbBlockReference
  2
_Dot
 10
-68.96399143244808
 20
206.3986443243337
 30
0.0
 41
2.0
 42
2.0
 43
2.0
 50
180.0
  0
INSERT
  5
3AAF
330
3A45
100
AcDbEntity
  8
SUNPOU
 62
    60
370
    -2
100
AcDbBlockReference
  2
_Dot
 10
181.0360085675522
 20
206.3986443243337
 30
0.0
 41
2.0
 42
2.0
 43
2.0
  0
MTEXT
  5
3AB0
330
3A45
100
AcDbEntity
  8
SUNPOU
 62
    60
100
AcDbMText
 10
56.03600856755208
 20
214.3986443243337
 30
0.0
 40
10.0
 41
0.0
 71
     5
 72
     1
  1
\A1;250
  7
SUNPOU
 73
     1
 44
1.0
1001
ACAD
1000
MTEXTBEGIN
1070
    73
1070
     1
1070
    44
1040
1.0
1070
    74
1070
     0
1000
MTEXTEND
  0
POINT
  5
3AB1
330
3A45
100
AcDbEntity
  8
DEFPOINTS
 62
     0
100
AcDbPoint
 10
-68.96399143244808
 20
160.0383087325503
 30
0.0
  0
POINT
  5
3AB2
330
3A45
100
AcDbEntity
  8
DEFPOINTS
 62
     0
100
AcDbPoint
 10
181.0360085675522
 20
160.3162869883523
 30
0.0
  0
POINT
  5
3AB3
330
3A45
100
AcDbEntity
  8
DEFPOINTS
 62
     0
100
AcDbPoint
 10
181.0360085675522
 20
206.3986443243337
 30
0.0
  0
ENDBLK
  5
3A50
330
3A45
100
AcDbEntity
  8
0
100
AcDbBlockEnd
  0
BLOCK
  5
3A5C
330
3A52
100
AcDbEntity
  8
0
100
AcDbBlockBegin
  2
*D81
 70
     1
 10
0.0
 20
0.0
 30
0.0
  3
*D81
  1

  0
LINE
  5
3A99
330
3A52
100
AcDbEntity
  8
SUNPOU
 62
    70
370
    -2
100
AcDbLine
 10
-78.96399143244808
 20
160.0383087325503
 30
0.0
 11
-111.0858629527327
 21
160.0383087325503
 31
0.0
  0
LINE
  5
3A9A
330
3A52
100
AcDbEntity
  8
SUNPOU
 62
    70
370
    -2
100
AcDbLine
 10
-79.11309215177175
 20
46.03830873255026
 30
0.0
 11
-111.0858629527328
 21
46.03830873255026
 31
0.0
  0
LINE
  5
3A9B
330
3A52
100
AcDbEntity
  8
SUNPOU
 62
    60
370
    -2
100
AcDbLine
 10
-111.0858629527327
 20
158.0383087325503
 30
0.0
 11
-111.0858629527328
 21
48.03830873255027
 31
0.0
  0
INSERT
  5
3A9C
330
3A52
100
AcDbEntity
  8
SUNPOU
 62
    60
370
    -2
100
AcDbBlockReference
  2
_Dot
 10
-111.0858629527327
 20
160.0383087325503
 30
0.0
 41
2.0
 42
2.0
 43
2.0
 50
90.0
  0
INSERT
  5
3A9D
330
3A52
100
AcDbEntity
  8
SUNPOU
 62
    60
370
    -2
100
AcDbBlockReference
  2
_Dot
 10
-111.0858629527328
 20
46.03830873255026
 30
0.0
 41
2.0
 42
2.0
 43
2.0
 50
270.0
  0
MTEXT
  5
3A9E
330
3A52
100
AcDbEntity
  8
SUNPOU
 62
    60
100
AcDbMText
 10
-119.0858629527328
 20
103.0383087325503
 30
0.0
 40
10.0
 41
0.0
 71
     5
 72
     1
  1
\A1;114
  7
SUNPOU
 11
0.0000000000000001
 21
1.0
 31
0.0
 73
     1
 44
1.0
1001
ACAD
1000
MTEXTBEGIN
1070
    73
1070
     1
1070
    44
1040
1.0
1070
    74
1070
     0
1000
MTEXTEND
  0
POINT
  5
3A9F
330
3A52
100
AcDbEntity
  8
DEFPOINTS
 62
     0
100
AcDbPoint
 10
-68.96399143244808
 20
160.0383087325503
 30
0.0
  0
POINT
  5
3AA0
330
3A52
100
AcDbEntity
  8
DEFPOINTS
 62
     0
100
AcDbPoint
 10
-69.11309215177175
 20
46.03830873255026
 30
0.0
  0
POINT
  5
3AA1
330
3A52
100
AcDbEntity
  8
DEFPOINTS
 62
     0
100
AcDbPoint
 10
-111.0858629527328
 20
46.03830873255026
 30
0.0
  0
ENDBLK
  5
3A5D
330
3A52
100
AcDbEntity
  8
0
100
AcDbBlockEnd
  0
BLOCK
  5
3B37
330
3B2D
100
AcDbEntity
  8
0
100
AcDbBlockBegin
  2
*D83
 70
     1
 10
0.0
 20
0.0
 30
0.0
  3
*D83
  1

  0
LINE
  5
3BB3
330
3B2D
100
AcDbEntity
  8
SUNPOU
 62
    70
370
    -2
100
AcDbLine
 10
-9.274404385007244
 20
116.3927336291364
 30
0.0
 11
-9.274404385007242
 21
131.1328898609256
 31
0.0
  0
LINE
  5
3BB4
330
3B2D
100
AcDbEntity
  8
SUNPOU
 62
    70
370
    -2
100
AcDbLine
 10
130.7255956149869
 20
115.4686950255653
 30
0.0
 11
130.7255956149869
 21
131.1328898609256
 31
0.0
  0
LINE
  5
3BB5
330
3B2D
100
AcDbEntity
  8
SUNPOU
 62
    60
370
    -2
100
AcDbLine
 10
-7.274404385007242
 20
131.1328898609256
 30
0.0
 11
128.7255956149869
 21
131.1328898609256
 31
0.0
  0
INSERT
  5
3BB6
330
3B2D
100
AcDbEntity
  8
SUNPOU
 62
    60
370
    -2
100
AcDbBlockReference
  2
_Dot
 10
-9.274404385007242
 20
131.1328898609256
 30
0.0
 41
2.0
 42
2.0
 43
2.0
 50
180.0
  0
INSERT
  5
3BB7
330
3B2D
100
AcDbEntity
  8
SUNPOU
 62
    60
370
    -2
100
AcDbBlockReference
  2
_Dot
 10
130.7255956149869
 20
131.1328898609256
 30
0.0
 41
2.0
 42
2.0
 43
2.0
  0
MTEXT
  5
3BB8
330
3B2D
100
AcDbEntity
  8
SUNPOU
 62
    60
100
AcDbMText
 10
60.72559561498986
 20
139.1328898609256
 30
0.0
 40
10.0
 41
0.0
 71
     5
 72
     1
  1
\A1;140
  7
SUNPOU
 73
     1
 44
1.0
1001
ACAD
1000
MTEXTBEGIN
1070
    73
1070
     1
1070
    44
1040
1.0
1070
    74
1070
     0
1000
MTEXTEND
  0
POINT
  5
3BB9
330
3B2D
100
AcDbEntity
  8
DEFPOINTS
 62
     0
100
AcDbPoint
 10
-9.274404385007244
 20
106.3927336291364
 30
0.0
  0
POINT
  5
3BBA
330
3B2D
100
AcDbEntity
  8
DEFPOINTS
 62
     0
100
AcDbPoint
 10
130.7255956149869
 20
105.4686950255653
 30
0.0
  0
POINT
  5
3BBB
330
3B2D
100
AcDbEntity
  8
DEFPOINTS
 62
     0
100
AcDbPoint
 10
130.7255956149869
 20
131.1328898609256
 30
0.0
  0
ENDBLK
  5
3B38
330
3B2D
100
AcDbEntity
  8
0
100
AcDbBlockEnd
  0
BLOCK
  5
3B44
330
3B3A
100
AcDbEntity
  8
0
100
AcDbBlockBegin
  2
*D84
 70
     1
 10
0.0
 20
0.0
 30
0.0
  3
*D84
  1

  0
LINE
  5
3BA1
330
3B3A
100
AcDbEntity
  8
SUNPOU
 62
    70
370
    -2
100
AcDbLine
 10
-19.27440438500724
 20
106.3927336291364
 30
0.0
 11
-33.65713159452923
 21
106.3927336291365
 31
0.0
  0
LINE
  5
3BA2
330
3B3A
100
AcDbEntity
  8
SUNPOU
 62
    70
370
    -2
100
AcDbLine
 10
-19.43240988204923
 20
46.39273362913645
 30
0.0
 11
-33.65713159452924
 21
46.39273362913645
 31
0.0
  0
LINE
  5
3BA3
330
3B3A
100
AcDbEntity
  8
SUNPOU
 62
    60
370
    -2
100
AcDbLine
 10
-33.65713159452923
 20
104.3927336291365
 30
0.0
 11
-33.65713159452923
 21
48.39273362913645
 31
0.0
  0
INSERT
  5
3BA4
330
3B3A
100
AcDbEntity
  8
SUNPOU
 62
    60
370
    -2
100
AcDbBlockReference
  2
_Dot
 10
-33.65713159452923
 20
106.3927336291365
 30
0.0
 41
2.0
 42
2.0
 43
2.0
 50
90.0
  0
INSERT
  5
3BA5
330
3B3A
100
AcDbEntity
  8
SUNPOU
 62
    60
370
    -2
100
AcDbBlockReference
  2
_Dot
 10
-33.65713159452924
 20
46.39273362913645
 30
0.0
 41
2.0
 42
2.0
 43
2.0
 50
270.0
  0
MTEXT
  5
3BA6
330
3B3A
100
AcDbEntity
  8
SUNPOU
 62
    60
100
AcDbMText
 10
-41.65713159452923
 20
76.39273362913645
 30
0.0
 40
10.0
 41
0.0
 71
     5
 72
     1
  1
\A1;60
  7
SUNPOU
 11
0.0000000000000001
 21
1.0
 31
0.0
 73
     1
 44
1.0
1001
ACAD
1000
MTEXTBEGIN
1070
    73
1070
     1
1070
    44
1040
1.0
1070
    74
1070
     0
1000
MTEXTEND
  0
POINT
  5
3BA7
330
3B3A
100
AcDbEntity
  8
DEFPOINTS
 62
     0
100
AcDbPoint
 10
-9.274404385007244
 20
106.3927336291364
 30
0.0
  0
POINT
  5
3BA8
330
3B3A
100
AcDbEntity
  8
DEFPOINTS
 62
     0
100
AcDbPoint
 10
-9.432409882049228
 20
46.39273362913644
 30
0.0
  0
POINT
  5
3BA9
330
3B3A
100
AcDbEntity
  8
DEFPOINTS
 62
     0
100
AcDbPoint
 10
-33.65713159452924
 20
46.39273362913645
 30
0.0
  0
ENDBLK
  5
3B45
330
3B3A
100
AcDbEntity
  8
0
100
AcDbBlockEnd
  0
BLOCK
  5
3D37
330
3D2D
100
AcDbEntity
  8
0
100
AcDbBlockBegin
  2
*D86
 70
     1
 10
0.0
 20
0.0
 30
0.0
  3
*D86
  1

  0
LINE
  5
3DA8
330
3D2D
100
AcDbEntity
  8
SUNPOU
 62
    70
370
    -2
100
AcDbLine
 10
-216.7182434847339
 20
298.5498201292545
 30
0.0
 11
-216.7182434847339
 21
344.3264832414134
 31
0.0
  0
LINE
  5
3DA9
330
3D2D
100
AcDbEntity
  8
SUNPOU
 62
    70
370
    -2
100
AcDbLine
 10
383.2817565152661
 20
303.5155978063508
 30
0.0
 11
383.2817565152661
 21
344.3264832414134
 31
0.0
  0
LINE
  5
3DAA
330
3D2D
100
AcDbEntity
  8
SUNPOU
 62
    60
370
    -2
100
AcDbLine
 10
-214.7182434847339
 20
344.3264832414134
 30
0.0
 11
381.2817565152661
 21
344.3264832414134
 31
0.0
  0
INSERT
  5
3DAB
330
3D2D
100
AcDbEntity
  8
SUNPOU
 62
    60
370
    -2
100
AcDbBlockReference
  2
_Dot
 10
-216.7182434847339
 20
344.3264832414134
 30
0.0
 41
2.0
 42
2.0
 43
2.0
 50
180.0
  0
INSERT
  5
3DAC
330
3D2D
100
AcDbEntity
  8
SUNPOU
 62
    60
370
    -2
100
AcDbBlockReference
  2
_Dot
 10
383.2817565152661
 20
344.3264832414134
 30
0.0
 41
2.0
 42
2.0
 43
2.0
  0
MTEXT
  5
3DAD
330
3D2D
100
AcDbEntity
  8
SUNPOU
 62
    60
100
AcDbMText
 10
83.28175651526612
 20
352.3264832414134
 30
0.0
 40
10.0
 41
0.0
 71
     5
 72
     1
  1
\A1;600
  7
SUNPOU
 73
     1
 44
1.0
1001
ACAD
1000
MTEXTBEGIN
1070
    73
1070
     1
1070
    44
1040
1.0
1070
    74
1070
     0
1000
MTEXTEND
  0
POINT
  5
3DAE
330
3D2D
100
AcDbEntity
  8
DEFPOINTS
 62
     0
100
AcDbPoint
 10
-216.7182434847339
 20
288.5498201292545
 30
0.0
  0
POINT
  5
3DAF
330
3D2D
100
AcDbEntity
  8
DEFPOINTS
 62
     0
100
AcDbPoint
 10
383.2817565152661
 20
293.5155978063508
 30
0.0
  0
POINT
  5
3DB0
330
3D2D
100
AcDbEntity
  8
DEFPOINTS
 62
     0
100
AcDbPoint
 10
383.2817565152661
 20
344.3264832414134
 30
0.0
  0
ENDBLK
  5
3D38
330
3D2D
100
AcDbEntity
  8
0
100
AcDbBlockEnd
  0
BLOCK
  5
3D44
330
3D3A
100
AcDbEntity
  8
0
100
AcDbBlockBegin
  2
*D87
 70
     1
 10
0.0
 20
0.0
 30
0.0
  3
*D87
  1

  0
LINE
  5
3D96
330
3D3A
100
AcDbEntity
  8
SUNPOU
 62
    70
370
    -2
100
AcDbLine
 10
-226.7182434847339
 20
288.5498201292545
 30
0.0
 11
-304.1079869232616
 21
288.5498201292545
 31
0.0
  0
LINE
  5
3D97
330
3D3A
100
AcDbEntity
  8
SUNPOU
 62
    70
370
    -2
100
AcDbLine
 10
-227.1359776599575
 20
93.54982012925452
 30
0.0
 11
-304.1079869232617
 21
93.54982012925452
 31
0.0
  0
LINE
  5
3D98
330
3D3A
100
AcDbEntity
  8
SUNPOU
 62
    60
370
    -2
100
AcDbLine
 10
-304.1079869232616
 20
286.5498201292545
 30
0.0
 11
-304.1079869232617
 21
95.54982012925453
 31
0.0
  0
INSERT
  5
3D99
330
3D3A
100
AcDbEntity
  8
SUNPOU
 62
    60
370
    -2
100
AcDbBlockReference
  2
_Dot
 10
-304.1079869232616
 20
288.5498201292545
 30
0.0
 41
2.0
 42
2.0
 43
2.0
 50
90.0
  0
INSERT
  5
3D9A
330
3D3A
100
AcDbEntity
  8
SUNPOU
 62
    60
370
    -2
100
AcDbBlockReference
  2
_Dot
 10
-304.1079869232617
 20
93.54982012925452
 30
0.0
 41
2.0
 42
2.0
 43
2.0
 50
270.0
  0
MTEXT
  5
3D9B
330
3D3A
100
AcDbEntity
  8
SUNPOU
 62
    60
100
AcDbMText
 10
-312.1079869232617
 20
191.0498201292545
 30
0.0
 40
10.0
 41
0.0
 71
     5
 72
     1
  1
\A1;195
  7
SUNPOU
 11
0.0000000000000001
 21
1.0
 31
0.0
 73
     1
 44
1.0
1001
ACAD
1000
MTEXTBEGIN
1070
    73
1070
     1
1070
    44
1040
1.0
1070
    74
1070
     0
1000
MTEXTEND
  0
POINT
  5
3D9C
330
3D3A
100
AcDbEntity
  8
DEFPOINTS
 62
     0
100
AcDbPoint
 10
-216.7182434847339
 20
288.5498201292545
 30
0.0
  0
POINT
  5
3D9D
330
3D3A
100
AcDbEntity
  8
DEFPOINTS
 62
     0
100
AcDbPoint
 10
-217.1359776599575
 20
93.5498201292545
 30
0.0
  0
POINT
  5
3D9E
330
3D3A
100
AcDbEntity
  8
DEFPOINTS
 62
     0
100
AcDbPoint
 10
-304.1079869232617
 20
93.54982012925452
 30
0.0
  0
ENDBLK
  5
3D45
330
3D3A
100
AcDbEntity
  8
0
100
AcDbBlockEnd
  0
ENDSEC
  0
SECTION
  2
ENTITIES
  0
LINE
  5
1F
330
2
100
AcDbEntity
  8
WAKU
100
AcDbLine
 10
0.0
 20
14.0
 30
0.0
 11
141.7992909508968
 21
13.99999999999999
 31
0.0
  0
LINE
  5
20
330
2
100
AcDbEntity
  8
WAKU
100
AcDbLine
 10
0.0
 20
0.0
 30
0.0
 11
141.7992909508968
 21
0.0
 31
0.0
  0
TEXT
  5
21
330
2
100
AcDbEntity
  8
HOJO
100
AcDbText
 10
9.653966000000025
 20
2.366626000000024
 30
0.0
 40
9.0
  1
TC381
  7
SUNPOU
100
AcDbText
  0
TEXT
  5
23
330
2
100
AcDbEntity
  8
HOJO
100
AcDbText
 10
75.65253479254602
 20
5.044386000000031
 30
0.0
 40
6.0
  1
600×195×20
  7
SUNPOU
100
AcDbText
  0
ARC
  5
3C7C
102
{ACAD_REACTORS
330
3D8C
102
}
330
2
100
AcDbEntity
  8
KIJUN
100
AcDbCircle
 10
157.555556565356
 20
204.1425737531607
 30
0.0
 40
26.92891185059268
100
AcDbArc
 50
54.66517726557952
 51
167.1653085325221
  0
ARC
  5
3C7D
102
{ACAD_REACTORS
330
3D8C
102
}
330
2
100
AcDbEntity
  8
KIJUN
100
AcDbCircle
 10
-128.0592801153041
 20
283.5012416519218
 30
0.0
 40
269.5386780130638
100
AcDbArc
 50
340.7300294377187
 51
344.2029488916503
  0
ARC
  5
3C7E
102
{ACAD_REACTORS
330
3D8C
102
}
330
2
100
AcDbEntity
  8
KIJUN
100
AcDbCircle
 10
155.6973282589219
 20
183.0942659637365
 30
0.0
 40
34.19277771686954
100
AcDbArc
 50
169.6392465381682
 51
12.22323105116817
  0
ARC
  5
3C7F
102
{ACAD_REACTORS
330
3D8C
102
}
330
2
100
AcDbEntity
  8
KIJUN
100
AcDbCircle
 10
134.5701468000741
 20
141.4520388579784
 30
0.0
 40
34.5554365610254
100
AcDbArc
 50
228.2034240821864
 51
323.4034875069573
  0
LINE
  5
3C80
102
{ACAD_REACTORS
330
3D8C
102
}
330
2
100
AcDbEntity
  8
KIJUN
100
AcDbLine
 10
129.6113401720681
 20
128.5917018343076
 30
0.0
 11
116.702747156643
 21
147.5135661067667
 31
0.0
  0
ARC
  5
3C81
102
{ACAD_REACTORS
330
3D8C
102
}
330
2
100
AcDbEntity
  8
KIJUN
100
AcDbCircle
 10
134.084919785447
 20
230.2386617947126
 30
0.0
 40
34.44641840690047
100
AcDbArc
 50
87.12840659177732
 51
150.0691833444102
  0
ARC
  5
3C82
102
{ACAD_REACTORS
330
3D8C
102
}
330
2
100
AcDbEntity
  8
KIJUN
100
AcDbCircle
 10
140.101562718326
 20
241.4718044631755
 30
0.0
 40
15.35654632331586
100
AcDbArc
 50
67.15661099849666
 51
166.8462560380387
  0
ARC
  5
3C83
102
{ACAD_REACTORS
330
3D8C
102
}
330
2
100
AcDbEntity
  8
KIJUN
100
AcDbCircle
 10
133.669169252589
 20
234.0522026265747
 30
0.0
 40
13.84671720373906
100
AcDbArc
 50
61.28559893106963
 51
127.9808460194079
  0
ARC
  5
3C84
102
{ACAD_REACTORS
330
3D8C
102
}
330
2
100
AcDbEntity
  8
KIJUN
100
AcDbCircle
 10
90.12798200738302
 20
279.0745936218717
 30
0.0
 40
60.00339210588091
100
AcDbArc
 50
299.6553746890043
 51
326.7739584134282
  0
ARC
  5
3C85
102
{ACAD_REACTORS
330
3D8C
102
}
330
2
100
AcDbEntity
  8
KIJUN
100
AcDbCircle
 10
-149.9011845985369
 20
199.6658462476056
 30
0.0
 40
102.4667090773167
100
AcDbArc
 50
275.225102769646
 51
311.9627515533602
  0
ARC
  5
3C86
102
{ACAD_REACTORS
330
3D8C
102
}
330
2
100
AcDbEntity
  8
KIJUN
100
AcDbCircle
 10
-196.5054134351388
 20
243.3739744500845
 30
0.0
 40
147.1109304608887
100
AcDbArc
 50
275.3044132978207
 51
328.5967453540388
  0
ARC
  5
3C87
102
{ACAD_REACTORS
330
3D8C
102
}
330
2
100
AcDbEntity
  8
KIJUN
100
AcDbCircle
 10
-105.6345055166889
 20
127.4535809261957
 30
0.0
 40
30.17783607067415
100
AcDbArc
 50
260.84611626319
 51
356.4684600369624
  0
ARC
  5
3C88
102
{ACAD_REACTORS
330
3D8C
102
}
330
2
100
AcDbEntity
  8
KIJUN
100
AcDbCircle
 10
-87.64460332539101
 20
266.2515459413715
 30
0.0
 40
59.4415071339883
100
AcDbArc
 50
261.6931177388964
 51
304.1201805824252
  0
ARC
  5
3C89
102
{ACAD_REACTORS
330
3D8C
102
}
330
2
100
AcDbEntity
  8
KIJUN
100
AcDbCircle
 10
-96.59600679322217
 20
210.0428446254165
 30
0.0
 40
32.55940977397925
100
AcDbArc
 50
220.991316018184
 51
290.949272161474
  0
LINE
  5
3C8A
102
{ACAD_REACTORS
330
3D8C
102
}
330
2
100
AcDbEntity
  8
KIJUN
100
AcDbLine
 10
-104.3568947777821
 20
166.7071606233406
 30
0.0
 11
-84.95467481638502
 21
179.6356981852276
 31
0.0
  0
ARC
  5
3C8B
102
{ACAD_REACTORS
330
3D8C
102
}
330
2
100
AcDbEntity
  8
KIJUN
100
AcDbCircle
 10
-186.7564998533827
 20
120.4389707366734
 30
0.0
 40
14.51050533409733
100
AcDbArc
 50
117.7085020795741
 51
215.2442317936249
  0
ARC
  5
3C8C
102
{ACAD_REACTORS
330
3D8C
102
}
330
2
100
AcDbEntity
  8
KIJUN
100
AcDbCircle
 10
-188.8326698847619
 20
124.1413883548995
 30
0.0
 40
27.88557359997192
100
AcDbArc
 50
161.275950834845
 51
282.2722172675929
  0
ARC
  5
3C8D
102
{ACAD_REACTORS
330
3D8C
102
}
330
2
100
AcDbEntity
  8
KIJUN
100
AcDbCircle
 10
-176.888004393834
 20
126.870527469905
 30
0.0
 40
17.81084685899259
100
AcDbArc
 50
158.8892997357589
 51
323.5384528283424
  0
ARC
  5
3C8E
102
{ACAD_REACTORS
330
3D8C
102
}
330
2
100
AcDbEntity
  8
KIJUN
100
AcDbCircle
 10
-203.4106531837839
 20
130.3098177585744
 30
0.0
 40
12.15468896757755
100
AcDbArc
 50
27.86571121427062
 51
127.5519098606207
  0
ARC
  5
3C8F
102
{ACAD_REACTORS
330
3D8C
102
}
330
2
100
AcDbEntity
  8
KIJUN
100
AcDbCircle
 10
-202.7082693639908
 20
133.1944324044067
 30
0.0
 40
12.53455826523707
100
AcDbArc
 50
148.3752104744838
 51
180.4638770947289
  0
ARC
  5
3C90
102
{ACAD_REACTORS
330
3D8C
102
}
330
2
100
AcDbEntity
  8
KIJUN
100
AcDbCircle
 10
-212.0648807602696
 20
139.3529751843777
 30
0.0
 40
1.380126959004231
100
AcDbArc
 50
25.45116192438059
 51
162.5437259190931
  0
ARC
  5
3C91
102
{ACAD_REACTORS
330
3D8C
102
}
330
2
100
AcDbEntity
  8
KIJUN
100
AcDbCircle
 10
-182.4442146335538
 20
129.4670037542527
 30
0.0
 40
30.24767574518016
100
AcDbArc
 50
159.7301460305767
 51
209.7222290073108
  0
ARC
  5
3C92
102
{ACAD_REACTORS
330
3D8C
102
}
330
2
100
AcDbEntity
  8
KIJUN
100
AcDbCircle
 10
-134.887512255633
 20
100.1025071855787
 30
0.0
 40
6.198801650411285
100
AcDbArc
 50
126.5645888566202
 51
203.5586012855657
  0
ARC
  5
3C93
102
{ACAD_REACTORS
330
3D8C
102
}
330
2
100
AcDbEntity
  8
KIJUN
100
AcDbCircle
 10
-103.2871608146272
 20
99.09031577892358
 30
0.0
 40
7.758184954775531
100
AcDbArc
 50
137.4711263107268
 51
190.6234159525477
  0
ARC
  5
3C94
102
{ACAD_REACTORS
330
3D8C
102
}
330
2
100
AcDbEntity
  8
KIJUN
100
AcDbCircle
 10
-163.137295704953
 20
239.0399249820476
 30
0.0
 40
93.20495873574181
100
AcDbArc
 50
266.3745953667702
 51
309.0986441415477
  0
LINE
  5
3C95
102
{ACAD_REACTORS
330
3D8C
102
}
330
2
100
AcDbEntity
  8
KIJUN
100
AcDbLine
 10
-125.0525865303188
 20
139.5572202211257
 30
0.0
 11
-152.2156801668479
 21
134.3858051963688
 31
0.0
  0
ARC
  5
3C96
102
{ACAD_REACTORS
330
3D8C
102
}
330
2
100
AcDbEntity
  8
KIJUN
100
AcDbCircle
 10
-204.2361434970339
 20
225.3250541499395
 30
0.0
 40
116.731131369234
100
AcDbArc
 50
290.9158613320687
 51
312.7141683430015
  0
ARC
  5
3C97
102
{ACAD_REACTORS
330
3D8C
102
}
330
2
100
AcDbEntity
  8
KIJUN
100
AcDbCircle
 10
-194.4334460428109
 20
135.0561279018637
 30
0.0
 40
2.0
100
AcDbArc
 50
297.7085020795741
 51
27.86571121427062
  0
LINE
  5
3C98
102
{ACAD_REACTORS
330
3D8C
102
}
330
2
100
AcDbEntity
  8
KIJUN
100
AcDbLine
 10
-152.2156801668479
 20
134.3858051963688
 30
0.0
 11
-169.0309279271071
 21
146.0214890020685
 31
0.0
  0
LINE
  5
3C99
102
{ACAD_REACTORS
330
3D8C
102
}
330
2
100
AcDbEntity
  8
KIJUN
100
AcDbLine
 10
-126.6443382710861
 20
114.0289439457625
 30
0.0
 11
-138.580315603775
 21
105.0812967305466
 31
0.0
  0
ARC
  5
3C9A
102
{ACAD_REACTORS
330
3D8C
102
}
330
2
100
AcDbEntity
  8
KIJUN
100
AcDbCircle
 10
-85.12562471682418
 20
205.4144827173587
 30
0.0
 40
11.2888440382671
100
AcDbArc
 50
169.6962869392555
 51
243.4560440858152
  0
ARC
  5
3C9B
102
{ACAD_REACTORS
330
3D8C
102
}
330
2
100
AcDbEntity
  8
KIJUN
100
AcDbCircle
 10
-101.802580076619
 20
207.8878218911706
 30
0.0
 40
17.12799642557268
100
AcDbArc
 50
193.4661062807897
 51
312.7757525273036
  0
ARC
  5
3C9C
102
{ACAD_REACTORS
330
3D8C
102
}
330
2
100
AcDbEntity
  8
KIJUN
100
AcDbCircle
 10
-113.214684971555
 20
195.1155032519647
 30
0.0
 40
10.23053414919544
100
AcDbArc
 50
120.8426115630844
 51
218.9390957757535
  0
ARC
  5
3C9D
102
{ACAD_REACTORS
330
3D8C
102
}
330
2
100
AcDbEntity
  8
KIJUN
100
AcDbCircle
 10
-82.493361668661
 20
185.2071415149706
 30
0.0
 40
59.82424912397667
100
AcDbArc
 50
343.7626818483262
 51
353.4224302430885
  0
ARC
  5
3C9F
102
{ACAD_REACTORS
330
3D8C
102
}
330
2
100
AcDbEntity
  8
KIJUN
100
AcDbCircle
 10
93.9040026838809
 20
180.7004143283046
 30
0.0
 40
24.74792350137589
100
AcDbArc
 50
146.6984456334543
 51
216.8834048079629
  0
ARC
  5
3CA0
102
{ACAD_REACTORS
330
3D8C
102
}
330
2
100
AcDbEntity
  8
KIJUN
100
AcDbCircle
 10
11.21343528988314
 20
185.9340259792917
 30
0.0
 40
16.02263595688325
100
AcDbArc
 50
226.8923598377484
 51
352.6876882535585
  0
ARC
  5
3CA1
102
{ACAD_REACTORS
330
3D8C
102
}
330
2
100
AcDbEntity
  8
KIJUN
100
AcDbCircle
 10
1.308866860126954
 20
184.2420381698156
 30
0.0
 40
10.38422877309048
100
AcDbArc
 50
176.3885846934773
 51
349.1444833292224
  0
ARC
  5
3CA2
102
{ACAD_REACTORS
330
3D8C
102
}
330
2
100
AcDbEntity
  8
KIJUN
100
AcDbCircle
 10
-4.888091968305161
 20
188.9932567020915
 30
0.0
 40
17.71413644903176
100
AcDbArc
 50
337.7518230053027
 51
175.6605642776586
  0
ARC
  5
3CA3
102
{ACAD_REACTORS
330
3D8C
102
}
330
2
100
AcDbEntity
  8
KIJUN
100
AcDbCircle
 10
10.86618477161096
 20
183.0942659637365
 30
0.0
 40
34.19277771686954
100
AcDbArc
 50
167.7767689488318
 51
10.36075346183173
  0
ARC
  5
3CA4
102
{ACAD_REACTORS
330
3D8C
102
}
330
2
100
AcDbEntity
  8
KIJUN
100
AcDbCircle
 10
63.84165033812497
 20
181.5902355853956
 30
0.0
 40
34.3002837677192
100
AcDbArc
 50
330.4269918302655
 51
20.13824873291626
  0
ARC
  5
3CA5
102
{ACAD_REACTORS
330
3D8C
102
}
330
2
100
AcDbEntity
  8
KIJUN
100
AcDbCircle
 10
-744.1640669195999
 20
1267.706081166817
 30
0.0
 40
1290.502000323842
100
AcDbArc
 50
301.4445869884387
 51
302.6656766137764
  0
ARC
  5
3CA6
102
{ACAD_REACTORS
330
3D8C
102
}
330
2
100
AcDbEntity
  8
KIJUN
100
AcDbCircle
 10
31.99336623045792
 20
141.4520388579784
 30
0.0
 40
34.5554365610254
100
AcDbArc
 50
216.5965124930427
 51
311.7965759178136
  0
ARC
  5
3CA7
102
{ACAD_REACTORS
330
3D8C
102
}
330
2
100
AcDbEntity
  8
KIJUN
100
AcDbCircle
 10
15.84625273584402
 20
148.5914248827627
 30
0.0
 40
29.67477493731914
100
AcDbArc
 50
178.7597791167871
 51
315.3359860787229
  0
ARC
  5
3CA8
102
{ACAD_REACTORS
330
3D8C
102
}
330
2
100
AcDbEntity
  8
KIJUN
100
AcDbCircle
 10
3.792145176368876
 20
164.9589408966634
 30
0.0
 40
22.39731426106748
100
AcDbArc
 50
221.5827586863788
 51
315.4040049082533
  0
ARC
  5
3CA9
102
{ACAD_REACTORS
330
3D8C
102
}
330
2
100
AcDbEntity
  8
KIJUN
100
AcDbCircle
 10
-30.9413860330742
 20
170.6603961682266
 30
0.0
 40
6.277108060879931
100
AcDbArc
 50
180.326127342954
 51
339.6673954460131
  0
LINE
  5
3CAA
102
{ACAD_REACTORS
330
3D8C
102
}
330
2
100
AcDbEntity
  8
KIJUN
100
AcDbLine
 10
-69.16740178872714
 20
138.6592799682506
 30
0.0
 11
-72.86774080503005
 21
139.4811795685415
 31
0.0
  0
LINE
  5
3CAB
102
{ACAD_REACTORS
330
3D8C
102
}
330
2
100
AcDbEntity
  8
KIJUN
100
AcDbLine
 10
-67.804429123737
 20
149.5577588706525
 30
0.0
 11
-69.16740178872714
 21
138.6592799682506
 31
0.0
  0
LINE
  5
3CAC
102
{ACAD_REACTORS
330
3D8C
102
}
330
2
100
AcDbEntity
  8
KIJUN
100
AcDbLine
 10
-59.62660744322215
 20
148.1954490078516
 30
0.0
 11
-67.804429123737
 21
149.5577588706525
 31
0.0
  0
LINE
  5
3CAD
102
{ACAD_REACTORS
330
3D8C
102
}
330
2
100
AcDbEntity
  8
KIJUN
100
AcDbLine
 10
-54.85621742518401
 20
154.3258376293307
 30
0.0
 11
-59.62660744322215
 21
148.1954490078516
 31
0.0
  0
ARC
  5
3CAE
102
{ACAD_REACTORS
330
3D8C
102
}
330
2
100
AcDbEntity
  8
KIJUN
100
AcDbCircle
 10
31.38461390585985
 20
159.5767367560837
 30
0.0
 40
86.40053778946727
100
AcDbArc
 50
183.484236026533
 51
202.3450945482272
  0
ARC
  5
3CAF
102
{ACAD_REACTORS
330
3D8C
102
}
330
2
100
AcDbEntity
  8
KIJUN
100
AcDbCircle
 10
-1.376422261095058
 20
159.0043267904906
 30
0.0
 40
37.67862965517045
100
AcDbArc
 50
162.0367654110908
 51
196.2039847613238
  0
ARC
  5
3CB0
102
{ACAD_REACTORS
330
3D8C
102
}
330
2
100
AcDbEntity
  8
KIJUN
100
AcDbCircle
 10
-65.87899815458491
 20
149.1208555134686
 30
0.0
 40
28.32778659872137
100
AcDbArc
 50
307.7706273465334
 51
358.7235374628381
  0
ARC
  5
3CB1
102
{ACAD_REACTORS
330
3D8C
102
}
330
2
100
AcDbEntity
  8
KIJUN
100
AcDbCircle
 10
-51.27995259594399
 20
128.1719897434537
 30
0.0
 40
24.37068678269544
100
AcDbArc
 50
152.3513156660178
 51
186.0706211363642
  0
ARC
  5
3CB2
102
{ACAD_REACTORS
330
3D8C
102
}
330
2
100
AcDbEntity
  8
KIJUN
100
AcDbCircle
 10
94.75363330660798
 20
113.7658149458925
 30
0.0
 40
28.52380276988581
100
AcDbArc
 50
166.0410932087779
 51
214.9534997619007
  0
ARC
  5
3CB3
102
{ACAD_REACTORS
330
3D8C
102
}
330
2
100
AcDbEntity
  8
KIJUN
100
AcDbCircle
 10
71.65720252815709
 20
114.9025987359147
 30
0.0
 40
15.9939679488581
100
AcDbArc
 50
131.5532168897225
 51
239.8744071892575
  0
ARC
  5
3CB4
102
{ACAD_REACTORS
330
3D8C
102
}
330
2
100
AcDbEntity
  8
KIJUN
100
AcDbCircle
 10
94.90631050237698
 20
114.9025987359147
 30
0.0
 40
15.9939679488581
100
AcDbArc
 50
300.1255928107426
 51
48.4467831102775
  0
ARC
  5
3CB5
102
{ACAD_REACTORS
330
3D8C
102
}
330
2
100
AcDbEntity
  8
KIJUN
100
AcDbCircle
 10
71.80987972392518
 20
113.7658149458925
 30
0.0
 40
28.52380276988581
100
AcDbArc
 50
325.0465002380985
 51
13.9589067912221
  0
ARC
  5
3CB6
102
{ACAD_REACTORS
330
3D8C
102
}
330
2
100
AcDbEntity
  8
KIJUN
100
AcDbCircle
 10
83.28175651526612
 20
113.7828448464617
 30
0.0
 40
20.23302471720727
100
AcDbArc
 50
233.9508010704325
 51
306.0491989295672
  0
ARC
  5
3CB7
102
{ACAD_REACTORS
330
3D8C
102
}
330
2
100
AcDbEntity
  8
KIJUN
100
AcDbCircle
 10
66.04969497902698
 20
198.6072989149444
 30
0.0
 40
35.64033553553959
100
AcDbArc
 50
231.4459372449459
 51
282.8181226989694
  0
LINE
  5
3CB8
102
{ACAD_REACTORS
330
3D8C
102
}
330
2
100
AcDbEntity
  8
KIJUN
100
AcDbLine
 10
69.65388596041112
 20
148.3736395820934
 30
0.0
 11
62.76930301885318
 21
130.3118487849764
 31
0.0
  0
LINE
  5
3CB9
102
{ACAD_REACTORS
330
3D8C
102
}
330
2
100
AcDbEntity
  8
KIJUN
100
AcDbLine
 10
58.46643868037677
 20
130.3118487849764
 30
0.0
 11
69.65388596041112
 21
148.3736395820934
 31
0.0
  0
LINE
  5
3CBA
102
{ACAD_REACTORS
330
3D8C
102
}
330
2
100
AcDbEntity
  8
KIJUN
100
AcDbLine
 10
49.86076587388993
 20
147.5135661067667
 30
0.0
 11
45.55790153541579
 21
130.3118487849764
 31
0.0
  0
LINE
  5
3CBB
102
{ACAD_REACTORS
330
3D8C
102
}
330
2
100
AcDbEntity
  8
KIJUN
100
AcDbLine
 10
36.95217285846593
 20
128.5917018343076
 30
0.0
 11
49.86076587388993
 21
147.5135661067667
 31
0.0
  0
LINE
  5
3CBC
102
{ACAD_REACTORS
330
3D8C
102
}
330
2
100
AcDbEntity
  8
KIJUN
100
AcDbLine
 10
84.34016562806915
 20
105.0568823429697
 30
0.0
 11
82.92340221970993
 21
147.5350640715315
 31
0.0
  0
LINE
  5
3CBD
102
{ACAD_REACTORS
330
3D8C
102
}
330
2
100
AcDbEntity
  8
KIJUN
100
AcDbLine
 10
87.17363657432702
 20
153.1988175050907
 30
0.0
 11
85.75692903643313
 21
103.6409284961306
 31
0.0
  0
ARC
  5
3CBE
102
{ACAD_REACTORS
330
3D8C
102
}
330
2
100
AcDbEntity
  8
KIJUN
100
AcDbCircle
 10
100.5138180515059
 20
198.6072989149444
 30
0.0
 40
35.64033553553959
100
AcDbArc
 50
257.1818773010306
 51
308.5540627550541
  0
LINE
  5
3CBF
102
{ACAD_REACTORS
330
3D8C
102
}
330
2
100
AcDbEntity
  8
KIJUN
100
AcDbLine
 10
116.702747156643
 20
147.5135661067667
 30
0.0
 11
121.005611495118
 21
130.3118487849764
 31
0.0
  0
LINE
  5
3CC0
102
{ACAD_REACTORS
330
3D8C
102
}
330
2
100
AcDbEntity
  8
KIJUN
100
AcDbLine
 10
108.097074350155
 20
130.3118487849764
 30
0.0
 11
96.90962707012296
 21
148.3736395820934
 31
0.0
  0
LINE
  5
3CC1
102
{ACAD_REACTORS
330
3D8C
102
}
330
2
100
AcDbEntity
  8
KIJUN
100
AcDbLine
 10
96.90962707012296
 20
148.3736395820934
 30
0.0
 11
103.794210011682
 21
130.3118487849764
 31
0.0
  0
ARC
  5
3CC2
102
{ACAD_REACTORS
330
3D8C
102
}
330
2
100
AcDbEntity
  8
KIJUN
100
AcDbCircle
 10
9.007956465176903
 20
204.1425737531607
 30
0.0
 40
26.92891185059268
100
AcDbArc
 50
12.83469146747785
 51
125.3348227344205
  0
ARC
  5
3CC3
102
{ACAD_REACTORS
330
3D8C
102
}
330
2
100
AcDbEntity
  8
KIJUN
100
AcDbCircle
 10
0.5696749077560526
 20
188.9200989092786
 30
0.0
 40
27.00774869292648
100
AcDbArc
 50
349.2763351722061
 51
67.89620559174089
  0
ARC
  5
3CC4
102
{ACAD_REACTORS
330
3D8C
102
}
330
2
100
AcDbEntity
  8
KIJUN
100
AcDbCircle
 10
3.817717344790935
 20
224.3433734190077
 30
0.0
 40
37.63901856138454
100
AcDbArc
 50
63.69006910116328
 51
103.4328807787951
  0
ARC
  5
3CC5
102
{ACAD_REACTORS
330
3D8C
102
}
330
2
100
AcDbEntity
  8
KIJUN
100
AcDbCircle
 10
28.674069017992
 20
256.6681871186535
 30
0.0
 40
8.240174734106911
100
AcDbArc
 50
75.38750041275118
 51
187.2805436923722
  0
ARC
  5
3CC6
102
{ACAD_REACTORS
330
3D8C
102
}
330
2
100
AcDbEntity
  8
KIJUN
100
AcDbCircle
 10
-27.89393630029213
 20
219.7627246930607
 30
0.0
 40
26.54787507533765
100
AcDbArc
 50
84.67729594822376
 51
185.8819241612157
  0
ARC
  5
3CC7
102
{ACAD_REACTORS
330
3D8C
102
}
330
2
100
AcDbEntity
  8
KIJUN
100
AcDbCircle
 10
-17.25374264037691
 20
249.3544456876986
 30
0.0
 40
8.766190768853231
100
AcDbArc
 50
134.3413169984362
 51
201.1176498425127
  0
ARC
  5
3CC8
102
{ACAD_REACTORS
330
3D8C
102
}
330
2
100
AcDbEntity
  8
KIJUN
100
AcDbCircle
 10
4.635306250585017
 20
174.6213108613884
 30
0.0
 40
48.80433033013478
100
AcDbArc
 50
124.336069798774
 51
151.6916732175592
  0
ARC
  5
3CC9
102
{ACAD_REACTORS
330
3D8C
102
}
330
2
100
AcDbEntity
  8
KIJUN
100
AcDbCircle
 10
-52.46747443190702
 20
261.3654252845516
 30
0.0
 40
44.36124352479202
100
AcDbArc
 50
267.6298462902991
 51
316.855969375412
  0
ARC
  5
3CCA
102
{ACAD_REACTORS
330
3D8C
102
}
330
2
100
AcDbEntity
  8
KIJUN
100
AcDbCircle
 10
-37.40726649209591
 20
129.2340780599685
 30
0.0
 40
69.28982139973875
100
AcDbArc
 50
98.48710890194777
 51
133.3308866956949
  0
ARC
  5
3CCB
102
{ACAD_REACTORS
330
3D8C
102
}
330
2
100
AcDbEntity
  8
KIJUN
100
AcDbCircle
 10
-27.27611653049985
 20
189.4128758854616
 30
0.0
 40
4.813546480854726
100
AcDbArc
 50
148.9506539199429
 51
11.02733228554657
  0
ARC
  5
3CCC
102
{ACAD_REACTORS
330
3D8C
102
}
330
2
100
AcDbEntity
  8
KIJUN
100
AcDbCircle
 10
-8.436411320416937
 20
202.8255823028068
 30
0.0
 40
18.84897643856389
100
AcDbArc
 50
140.0805353237553
 51
221.5092332923786
  0
ARC
  5
3CCD
102
{ACAD_REACTORS
330
3D8C
102
}
330
2
100
AcDbEntity
  8
KIJUN
100
AcDbCircle
 10
6.106016311566008
 20
217.2728386644247
 30
0.0
 40
29.0937968865102
100
AcDbArc
 50
146.125311876001
 51
184.6363231256932
  0
ARC
  5
3CCE
102
{ACAD_REACTORS
330
3D8C
102
}
330
2
100
AcDbEntity
  8
KIJUN
100
AcDbCircle
 10
-1.139161574902118
 20
194.2945565712977
 30
0.0
 40
30.35577467835619
100
AcDbArc
 50
156.8717523744367
 51
184.5327204322308
  0
ARC
  5
3CCF
102
{ACAD_REACTORS
330
3D8C
102
}
330
2
100
AcDbEntity
  8
KIJUN
100
AcDbCircle
 10
-26.18551777388802
 20
237.2306969926386
 30
0.0
 40
22.55124689911412
100
AcDbArc
 50
278.3963593943146
 51
330.4558460138685
  0
ARC
  5
3CD0
102
{ACAD_REACTORS
330
3D8C
102
}
330
2
100
AcDbEntity
  8
KIJUN
100
AcDbCircle
 10
-7.02795100302319
 20
181.8545312355126
 30
0.0
 40
36.67544986566483
100
AcDbArc
 50
61.03635600528471
 51
115.6306493340725
  0
ARC
  5
3CD1
102
{ACAD_REACTORS
330
3D8C
102
}
330
2
100
AcDbEntity
  8
KIJUN
100
AcDbCircle
 10
-1.314959880849983
 20
186.8499158317946
 30
0.0
 40
7.982573097508963
100
AcDbArc
 50
101.1125354166649
 51
194.1674077271381
  0
ARC
  5
3CD2
102
{ACAD_REACTORS
330
3D8C
102
}
330
2
100
AcDbEntity
  8
KIJUN
100
AcDbCircle
 10
-15.97395493463114
 20
223.0103692835165
 30
0.0
 40
33.44404569929945
100
AcDbArc
 50
59.86674313462945
 51
102.7952106868006
  0
ARC
  5
3CD3
102
{ACAD_REACTORS
330
3D8C
102
}
330
2
100
AcDbEntity
  8
KIJUN
100
AcDbCircle
 10
3.773615060786141
 20
260.1548707444648
 30
0.0
 40
8.736178295248965
100
AcDbArc
 50
174.7602364871749
 51
250.2072816456367
  0
ARC
  5
3CD4
102
{ACAD_REACTORS
330
3D8C
102
}
330
2
100
AcDbEntity
  8
KIJUN
100
AcDbCircle
 10
26.46195031220782
 20
241.4718044631755
 30
0.0
 40
15.35654632331586
100
AcDbArc
 50
13.1537439619613
 51
112.8433890015033
  0
ARC
  5
3CD5
102
{ACAD_REACTORS
330
3D8C
102
}
330
2
100
AcDbEntity
  8
KIJUN
100
AcDbCircle
 10
32.47859324508591
 20
230.2386617947126
 30
0.0
 40
34.44641840690047
100
AcDbArc
 50
29.93081665558973
 51
92.87159340822269
  0
ARC
  5
3CD6
102
{ACAD_REACTORS
330
3D8C
102
}
330
2
100
AcDbEntity
  8
KIJUN
100
AcDbCircle
 10
51.6585823587659
 20
210.4100235494117
 30
0.0
 40
21.31605448313952
100
AcDbArc
 50
316.0115992730019
 51
34.83559138432836
  0
ARC
  5
3CD7
102
{ACAD_REACTORS
330
3D8C
102
}
330
2
100
AcDbEntity
  8
KIJUN
100
AcDbCircle
 10
91.71198204449797
 20
170.0996007975717
 30
0.0
 40
34.02399145847921
100
AcDbArc
 50
103.6958363004132
 51
136.9664844655692
  0
ARC
  5
3CD8
102
{ACAD_REACTORS
330
3D8C
102
}
330
2
100
AcDbEntity
  8
KIJUN
100
AcDbCircle
 10
89.08173077220999
 20
209.1946396328277
 30
0.0
 40
23.48678422591534
100
AcDbArc
 50
145.7261531410903
 51
194.048602811829
  0
ARC
  5
3CD9
102
{ACAD_REACTORS
330
3D8C
102
}
330
2
100
AcDbEntity
  8
KIJUN
100
AcDbCircle
 10
45.77957976667994
 20
216.2717705160886
 30
0.0
 40
10.70265329857315
100
AcDbArc
 50
298.26581272385
 51
84.81427085570617
  0
ARC
  5
3CDA
102
{ACAD_REACTORS
330
3D8C
102
}
330
2
100
AcDbEntity
  8
KIJUN
100
AcDbCircle
 10
53.85162171780393
 20
201.2599895542706
 30
0.0
 40
15.22555470439822
100
AcDbArc
 50
206.1565880450006
 51
328.5608862847127
  0
ARC
  5
3CDB
102
{ACAD_REACTORS
330
3D8C
102
}
330
2
100
AcDbEntity
  8
KIJUN
100
AcDbCircle
 10
294.6227931458373
 20
283.5012416519218
 30
0.0
 40
269.5386780130638
100
AcDbArc
 50
195.7970511083497
 51
199.2699705622814
  0
ARC
  5
3CDC
102
{ACAD_REACTORS
330
3D8C
102
}
330
2
100
AcDbEntity
  8
KIJUN
100
AcDbCircle
 10
76.4355310231499
 20
279.0745936218717
 30
0.0
 40
60.00339210588091
100
AcDbArc
 50
213.2260415865718
 51
240.3446253109957
  0
ARC
  5
3CDD
102
{ACAD_REACTORS
330
3D8C
102
}
330
2
100
AcDbEntity
  8
KIJUN
100
AcDbCircle
 10
32.89434377794487
 20
234.0522026265747
 30
0.0
 40
13.84671720373906
100
AcDbArc
 50
52.01915398059202
 51
118.7144010689303
  0
ARC
  5
3CDE
102
{ACAD_REACTORS
330
3D8C
102
}
330
2
100
AcDbEntity
  8
KIJUN
100
AcDbCircle
 10
78.159194346503
 20
209.1296376419415
 30
0.0
 40
23.48678422591534
100
AcDbArc
 50
346.6333442425938
 51
34.95579391333518
  0
ARC
  5
3CDF
102
{ACAD_REACTORS
330
3D8C
102
}
330
2
100
AcDbEntity
  8
KIJUN
100
AcDbCircle
 10
114.9049306717691
 20
210.4100235494117
 30
0.0
 40
21.31605448313952
100
AcDbArc
 50
145.1644086156715
 51
223.9884007269981
  0
ARC
  5
3CE0
102
{ACAD_REACTORS
330
3D8C
102
}
330
2
100
AcDbEntity
  8
KIJUN
100
AcDbCircle
 10
120.783933263853
 20
216.2717705160886
 30
0.0
 40
10.70265329857315
100
AcDbArc
 50
95.18572914429384
 51
241.7341872761499
  0
ARC
  5
3CE1
102
{ACAD_REACTORS
330
3D8C
102
}
330
2
100
AcDbEntity
  8
KIJUN
100
AcDbCircle
 10
74.8515309860361
 20
170.0996007975717
 30
0.0
 40
34.02399145847921
100
AcDbArc
 50
43.03351553443082
 51
76.30416369958678
  0
ARC
  5
3CE2
102
{ACAD_REACTORS
330
3D8C
102
}
330
2
100
AcDbEntity
  8
KIJUN
100
AcDbCircle
 10
112.7118913127301
 20
201.2599895542706
 30
0.0
 40
15.22555470439822
100
AcDbArc
 50
211.4391137152873
 51
333.8434119549993
  0
ARC
  5
3CE3
102
{ACAD_REACTORS
330
3D8C
102
}
330
2
100
AcDbEntity
  8
KIJUN
100
AcDbCircle
 10
84.61194246078708
 20
291.8871019223367
 30
0.0
 40
25.84512755558975
100
AcDbArc
 50
229.9695692470478
 51
301.0443409541846
  0
ARC
  5
3CE4
102
{ACAD_REACTORS
330
3D8C
102
}
330
2
100
AcDbEntity
  8
KIJUN
100
AcDbCircle
 10
83.28175651526612
 20
273.4339309805315
 30
0.0
 40
15.115889148723
100
AcDbArc
 50
345.8700549827672
 51
185.8839428441615
  0
LINE
  5
3CE5
102
{ACAD_REACTORS
330
3D8C
102
}
330
2
100
AcDbEntity
  8
KIJUN
100
AcDbLine
 10
53.71868589774681
 20
265.8715382895658
 30
0.0
 11
60.28032965020589
 21
250.7050807272345
 31
0.0
  0
LINE
  5
3CE6
102
{ACAD_REACTORS
330
3D8C
102
}
330
2
100
AcDbEntity
  8
KIJUN
100
AcDbLine
 10
56.99950777397702
 20
271.2003011231938
 30
0.0
 11
53.71868589774681
 21
265.8715382895658
 31
0.0
  0
LINE
  5
3CE7
102
{ACAD_REACTORS
330
3D8C
102
}
330
2
100
AcDbEntity
  8
KIJUN
100
AcDbLine
 10
63.15105773529603
 20
269.1507698658005
 30
0.0
 11
56.99950777397702
 21
271.2003011231938
 31
0.0
  0
LINE
  5
3CE8
102
{ACAD_REACTORS
330
3D8C
102
}
330
2
100
AcDbEntity
  8
KIJUN
100
AcDbLine
 10
62.97283385558285
 20
273.4353636063096
 30
0.0
 11
62.97283385558285
 21
273.7941087754076
 31
0.0
  0
ARC
  5
3CE9
102
{ACAD_REACTORS
330
3D8C
102
}
330
2
100
AcDbEntity
  8
KIJUN
100
AcDbCircle
 10
110.7525196514709
 20
273.8021409079246
 30
0.0
 40
47.78109354485863
100
AcDbArc
 50
180.4398182675899
 51
203.4597243740385
  0
ARC
  5
3CEA
102
{ACAD_REACTORS
330
3D8C
102
}
330
2
100
AcDbEntity
  8
KIJUN
100
AcDbCircle
 10
65.93935483649193
 20
273.7635427887577
 30
0.0
 40
2.96667844730585
100
AcDbArc
 50
36.83991813236821
 51
179.409665371887
  0
ARC
  5
3CEB
102
{ACAD_REACTORS
330
3D8C
102
}
330
2
100
AcDbEntity
  8
KIJUN
100
AcDbCircle
 10
100.624158194041
 20
273.7635427887577
 30
0.0
 40
2.96667844730585
100
AcDbArc
 50
0.590334628113019
 51
143.1600818676318
  0
ARC
  5
3CEC
102
{ACAD_REACTORS
330
3D8C
102
}
330
2
100
AcDbEntity
  8
KIJUN
100
AcDbCircle
 10
55.81099337906403
 20
273.8021409079246
 30
0.0
 40
47.78109354485863
100
AcDbArc
 50
336.5402756259615
 51
359.56018173241
  0
LINE
  5
3CED
102
{ACAD_REACTORS
330
3D8C
102
}
330
2
100
AcDbEntity
  8
KIJUN
100
AcDbLine
 10
103.5906791749469
 20
273.4353636063096
 30
0.0
 11
103.5906791749469
 21
273.7941087754076
 31
0.0
  0
LINE
  5
3CEE
102
{ACAD_REACTORS
330
3D8C
102
}
330
2
100
AcDbEntity
  8
KIJUN
100
AcDbLine
 10
103.412455295238
 20
269.1507698658005
 30
0.0
 11
109.5640052565579
 21
271.2003011231938
 31
0.0
  0
LINE
  5
3CEF
102
{ACAD_REACTORS
330
3D8C
102
}
330
2
100
AcDbEntity
  8
KIJUN
100
AcDbLine
 10
109.5640052565579
 20
271.2003011231938
 30
0.0
 11
112.844827132787
 21
265.8715382895658
 31
0.0
  0
LINE
  5
3CF0
102
{ACAD_REACTORS
330
3D8C
102
}
330
2
100
AcDbEntity
  8
KIJUN
100
AcDbLine
 10
112.844827132787
 20
265.8715382895658
 30
0.0
 11
106.283183380327
 21
250.7050807272345
 31
0.0
  0
ARC
  5
3CF1
102
{ACAD_REACTORS
330
3D8C
102
}
330
2
100
AcDbEntity
  8
KIJUN
100
AcDbCircle
 10
363.0689264656736
 20
243.3739744500851
 30
0.0
 40
147.1109304608895
100
AcDbArc
 50
211.4032546459612
 51
264.6955867021784
  0
ARC
  5
3CF2
102
{ACAD_REACTORS
330
3D8C
102
}
330
2
100
AcDbEntity
  8
KIJUN
100
AcDbCircle
 10
343.45151742437
 20
126.8705274699098
 30
0.0
 40
17.81084685899633
100
AcDbArc
 50
216.4615471716681
 51
21.11070026419716
  0
ARC
  5
3CF3
102
{ACAD_REACTORS
330
3D8C
102
}
330
2
100
AcDbEntity
  8
KIJUN
100
AcDbCircle
 10
171.4516049988399
 20
188.9932567020915
 30
0.0
 40
17.71413644903176
100
AcDbArc
 50
4.339435722341419
 51
202.2481769946965
  0
ARC
  5
3CF4
102
{ACAD_REACTORS
330
3D8C
102
}
330
2
100
AcDbEntity
  8
KIJUN
100
AcDbCircle
 10
165.2546461704071
 20
184.2420381698156
 30
0.0
 40
10.38422877309048
100
AcDbArc
 50
190.8555166707775
 51
3.611415306522691
  0
ARC
  5
3CF5
102
{ACAD_REACTORS
330
3D8C
102
}
330
2
100
AcDbEntity
  8
KIJUN
100
AcDbCircle
 10
155.3500777406521
 20
185.9340259792917
 30
0.0
 40
16.02263595688325
100
AcDbArc
 50
187.3123117464415
 51
313.1076401622515
  0
ARC
  5
3CF6
102
{ACAD_REACTORS
330
3D8C
102
}
330
2
100
AcDbEntity
  8
KIJUN
100
AcDbCircle
 10
249.0568746991948
 20
185.2071415149706
 30
0.0
 40
59.82424912397667
100
AcDbArc
 50
186.5775697569107
 51
196.2373181516737
  0
LINE
  5
3CF7
102
{ACAD_REACTORS
330
3D8C
102
}
330
2
100
AcDbEntity
  8
KIJUN
100
AcDbLine
 10
270.9204078083151
 20
166.7071606233406
 30
0.0
 11
251.5181878469189
 21
179.6356981852276
 31
0.0
  0
ARC
  5
3CF8
102
{ACAD_REACTORS
330
3D8C
102
}
330
2
100
AcDbEntity
  8
KIJUN
100
AcDbCircle
 10
263.1595198237569
 20
210.0428446254165
 30
0.0
 40
32.55940977397925
100
AcDbArc
 50
249.0507278385259
 51
319.008683981816
  0
ARC
  5
3CF9
102
{ACAD_REACTORS
330
3D8C
102
}
330
2
100
AcDbEntity
  8
KIJUN
100
AcDbCircle
 10
910.7275799501328
 20
1267.706081166817
 30
0.0
 40
1290.502000323842
100
AcDbArc
 50
237.3343233862236
 51
238.5554130115612
  0
ARC
  5
3CFA
102
{ACAD_REACTORS
330
3D8C
102
}
330
2
100
AcDbEntity
  8
KIJUN
100
AcDbCircle
 10
272.1980185472228
 20
127.4535809261957
 30
0.0
 40
30.17783607067415
100
AcDbArc
 50
183.5315399630376
 51
279.1538837368099
  0
LINE
  5
3CFB
102
{ACAD_REACTORS
330
3D8C
102
}
330
2
100
AcDbEntity
  8
KIJUN
100
AcDbLine
 10
235.7309148192621
 20
138.6592799682506
 30
0.0
 11
239.4312538355639
 21
139.4811795685415
 31
0.0
  0
ARC
  5
3CFC
102
{ACAD_REACTORS
330
3D8C
102
}
330
2
100
AcDbEntity
  8
KIJUN
100
AcDbCircle
 10
150.7172602946912
 20
148.5914248827627
 30
0.0
 40
29.67477493731914
100
AcDbArc
 50
224.6640139212771
 51
1.240220883212924
  0
ARC
  5
3CFD
102
{ACAD_REACTORS
330
3D8C
102
}
330
2
100
AcDbEntity
  8
KIJUN
100
AcDbCircle
 10
162.771367854164
 20
164.9589408966634
 30
0.0
 40
22.39731426106748
100
AcDbArc
 50
224.5959950917467
 51
318.4172413136212
  0
ARC
  5
3CFE
102
{ACAD_REACTORS
330
3D8C
102
}
330
2
100
AcDbEntity
  8
KIJUN
100
AcDbCircle
 10
197.504899063608
 20
170.6603961682266
 30
0.0
 40
6.277108060879931
100
AcDbArc
 50
200.3326045539858
 51
359.673872657046
  0
ARC
  5
3CFF
102
{ACAD_REACTORS
330
3D8C
102
}
330
2
100
AcDbEntity
  8
KIJUN
100
AcDbCircle
 10
232.4425111851199
 20
149.1208555134686
 30
0.0
 40
28.32778659872137
100
AcDbArc
 50
181.2764625371619
 51
232.2293726534666
  0
ARC
  5
3D00
102
{ACAD_REACTORS
330
3D8C
102
}
330
2
100
AcDbEntity
  8
KIJUN
100
AcDbCircle
 10
167.9399352916298
 20
159.0043267904906
 30
0.0
 40
37.67862965517045
100
AcDbArc
 50
343.796015238676
 51
17.96323458890913
  0
ARC
  5
3D01
102
{ACAD_REACTORS
330
3D8C
102
}
330
2
100
AcDbEntity
  8
KIJUN
100
AcDbCircle
 10
135.1788991246731
 20
159.5767367560837
 30
0.0
 40
86.40053778946727
100
AcDbArc
 50
337.6549054517609
 51
356.5157639734671
  0
LINE
  5
3D02
102
{ACAD_REACTORS
330
3D8C
102
}
330
2
100
AcDbEntity
  8
KIJUN
100
AcDbLine
 10
221.4197304557181
 20
154.3258376293307
 30
0.0
 11
226.190120473756
 21
148.1954490078516
 31
0.0
  0
LINE
  5
3D03
102
{ACAD_REACTORS
330
3D8C
102
}
330
2
100
AcDbEntity
  8
KIJUN
100
AcDbLine
 10
226.190120473756
 20
148.1954490078516
 30
0.0
 11
234.3679421542709
 21
149.5577588706525
 31
0.0
  0
LINE
  5
3D04
102
{ACAD_REACTORS
330
3D8C
102
}
330
2
100
AcDbEntity
  8
KIJUN
100
AcDbLine
 10
234.3679421542709
 20
149.5577588706525
 30
0.0
 11
235.7309148192621
 21
138.6592799682506
 31
0.0
  0
ARC
  5
3D05
102
{ACAD_REACTORS
330
3D8C
102
}
330
2
100
AcDbEntity
  8
KIJUN
100
AcDbCircle
 10
316.4646976290708
 20
199.6658462476056
 30
0.0
 40
102.4667090773167
100
AcDbArc
 50
228.0372484466398
 51
264.7748972303539
  0
ARC
  5
3D06
102
{ACAD_REACTORS
330
3D8C
102
}
330
2
100
AcDbEntity
  8
KIJUN
100
AcDbCircle
 10
269.8506738451622
 20
99.09031577892358
 30
0.0
 40
7.758184954775531
100
AcDbArc
 50
349.3765840474521
 51
42.52887368927317
  0
ARC
  5
3D07
102
{ACAD_REACTORS
330
3D8C
102
}
330
2
100
AcDbEntity
  8
KIJUN
100
AcDbCircle
 10
301.4510252861653
 20
100.1025071855787
 30
0.0
 40
6.198801650411285
100
AcDbArc
 50
336.4413987144343
 51
53.43541114337972
  0
ARC
  5
3D08
102
{ACAD_REACTORS
330
3D8C
102
}
330
2
100
AcDbEntity
  8
KIJUN
100
AcDbCircle
 10
329.7008087354859
 20
239.0399249820476
 30
0.0
 40
93.20495873574181
100
AcDbArc
 50
230.9013558584524
 51
273.6254046332298
  0
ARC
  5
3D09
102
{ACAD_REACTORS
330
3D8C
102
}
330
2
100
AcDbEntity
  8
KIJUN
100
AcDbCircle
 10
217.843465626476
 20
128.1719897434537
 30
0.0
 40
24.37068678269544
100
AcDbArc
 50
353.9293788636357
 51
27.64868433398217
  0
ARC
  5
3D0A
102
{ACAD_REACTORS
330
3D8C
102
}
330
2
100
AcDbEntity
  8
KIJUN
100
AcDbCircle
 10
370.799656527566
 20
225.3250541499395
 30
0.0
 40
116.731131369234
100
AcDbArc
 50
227.2858316569985
 51
249.0841386679313
  0
LINE
  5
3D0B
102
{ACAD_REACTORS
330
3D8C
102
}
330
2
100
AcDbEntity
  8
KIJUN
100
AcDbLine
 10
291.6160995608509
 20
139.5572202211257
 30
0.0
 11
318.7791931973818
 21
134.3858051963688
 31
0.0
  0
LINE
  5
3D0C
102
{ACAD_REACTORS
330
3D8C
102
}
330
2
100
AcDbEntity
  8
KIJUN
100
AcDbLine
 10
293.2078513016179
 20
114.0289439457625
 30
0.0
 11
305.1438286343089
 21
105.0812967305466
 31
0.0
  0
LINE
  5
3D0D
102
{ACAD_REACTORS
330
3D8C
102
}
330
2
100
AcDbEntity
  8
KIJUN
100
AcDbLine
 10
318.7791931973818
 20
134.3858051963688
 30
0.0
 11
335.5944409576403
 21
146.0214890020685
 31
0.0
  0
ARC
  5
3D0E
102
{ACAD_REACTORS
330
3D8C
102
}
330
2
100
AcDbEntity
  8
KIJUN
100
AcDbCircle
 10
254.2081163559239
 20
266.2515459413715
 30
0.0
 40
59.4415071339883
100
AcDbArc
 50
235.8798194175748
 51
278.3068822611036
  0
ARC
  5
3D0F
102
{ACAD_REACTORS
330
3D8C
102
}
330
2
100
AcDbEntity
  8
KIJUN
100
AcDbCircle
 10
203.9707795226309
 20
129.2340780599685
 30
0.0
 40
69.28982139973875
100
AcDbArc
 50
46.66911330430503
 51
81.51289109805222
  0
ARC
  5
3D10
102
{ACAD_REACTORS
330
3D8C
102
}
330
2
100
AcDbEntity
  8
KIJUN
100
AcDbCircle
 10
183.817255670911
 20
249.3544456876986
 30
0.0
 40
8.766190768853231
100
AcDbArc
 50
338.8823501574872
 51
45.65868300156375
  0
ARC
  5
3D11
102
{ACAD_REACTORS
330
3D8C
102
}
330
2
100
AcDbEntity
  8
KIJUN
100
AcDbCircle
 10
194.4574493308268
 20
219.7627246930607
 30
0.0
 40
26.54787507533765
100
AcDbArc
 50
354.1180758387842
 51
95.32270405177623
  0
ARC
  5
3D12
102
{ACAD_REACTORS
330
3D8C
102
}
330
2
100
AcDbEntity
  8
KIJUN
100
AcDbCircle
 10
192.7490308044209
 20
237.2306969926386
 30
0.0
 40
22.55124689911412
100
AcDbArc
 50
209.5441539861315
 51
261.6036406056855
  0
ARC
  5
3D13
102
{ACAD_REACTORS
330
3D8C
102
}
330
2
100
AcDbEntity
  8
KIJUN
100
AcDbCircle
 10
173.5914640335559
 20
181.8545312355126
 30
0.0
 40
36.67544986566483
100
AcDbArc
 50
64.36935066592752
 51
118.9636439947153
  0
ARC
  5
3D14
102
{ACAD_REACTORS
330
3D8C
102
}
330
2
100
AcDbEntity
  8
KIJUN
100
AcDbCircle
 10
167.878472911382
 20
186.8499158317946
 30
0.0
 40
7.982573097508963
100
AcDbArc
 50
345.8325922728619
 51
78.88746458333506
  0
ARC
  5
3D15
102
{ACAD_REACTORS
330
3D8C
102
}
330
2
100
AcDbEntity
  8
KIJUN
100
AcDbCircle
 10
165.9938381227789
 20
188.9200989092786
 30
0.0
 40
27.00774869292648
100
AcDbArc
 50
112.1037944082591
 51
190.7236648277939
  0
ARC
  5
3D16
102
{ACAD_REACTORS
330
3D8C
102
}
330
2
100
AcDbEntity
  8
KIJUN
100
AcDbCircle
 10
219.0309874624411
 20
261.3654252845516
 30
0.0
 40
44.36124352479202
100
AcDbArc
 50
223.144030624588
 51
272.370153709701
  0
ARC
  5
3D17
102
{ACAD_REACTORS
330
3D8C
102
}
330
2
100
AcDbEntity
  8
KIJUN
100
AcDbCircle
 10
161.928206779949
 20
174.6213108613884
 30
0.0
 40
48.80433033013478
100
AcDbArc
 50
28.30832678244079
 51
55.66393020122596
  0
ARC
  5
3D18
102
{ACAD_REACTORS
330
3D8C
102
}
330
2
100
AcDbEntity
  8
KIJUN
100
AcDbCircle
 10
174.9999243509521
 20
202.8255823028068
 30
0.0
 40
18.84897643856389
100
AcDbArc
 50
318.4907667076215
 51
39.91946467624466
  0
ARC
  5
3D19
102
{ACAD_REACTORS
330
3D8C
102
}
330
2
100
AcDbEntity
  8
KIJUN
100
AcDbCircle
 10
193.839629561035
 20
189.4128758854616
 30
0.0
 40
4.813546480854726
100
AcDbArc
 50
168.9726677144534
 51
31.04934608005712
  0
ARC
  5
3D1A
102
{ACAD_REACTORS
330
3D8C
102
}
330
2
100
AcDbEntity
  8
KIJUN
100
AcDbCircle
 10
160.457496718968
 20
217.2728386644247
 30
0.0
 40
29.0937968865102
100
AcDbArc
 50
355.3636768743067
 51
33.87468812399892
  0
ARC
  5
3D1B
102
{ACAD_REACTORS
330
3D8C
102
}
330
2
100
AcDbEntity
  8
KIJUN
100
AcDbCircle
 10
167.7026746054339
 20
194.2945565712977
 30
0.0
 40
30.35577467835619
100
AcDbArc
 50
355.4672795677691
 51
23.12824762556328
  0
ARC
  5
3D1C
102
{ACAD_REACTORS
330
3D8C
102
}
330
2
100
AcDbEntity
  8
KIJUN
100
AcDbCircle
 10
182.5374679651629
 20
223.0103692835165
 30
0.0
 40
33.44404569929945
100
AcDbArc
 50
77.20478931319934
 51
120.1332568653705
  0
ARC
  5
3D1D
102
{ACAD_REACTORS
330
3D8C
102
}
330
2
100
AcDbEntity
  8
KIJUN
100
AcDbCircle
 10
137.8894440125421
 20
256.6681871186535
 30
0.0
 40
8.240174734106911
100
AcDbArc
 50
352.7194563076278
 51
104.6124995872488
  0
ARC
  5
3D1E
102
{ACAD_REACTORS
330
3D8C
102
}
330
2
100
AcDbEntity
  8
KIJUN
100
AcDbCircle
 10
162.7457956857417
 20
224.3433734190077
 30
0.0
 40
37.63901856138454
100
AcDbArc
 50
76.5671192212049
 51
116.3099308988367
  0
ARC
  5
3D1F
102
{ACAD_REACTORS
330
3D8C
102
}
330
2
100
AcDbEntity
  8
KIJUN
100
AcDbCircle
 10
162.7898979697479
 20
260.1548707444648
 30
0.0
 40
8.736178295248965
100
AcDbArc
 50
289.7927183543633
 51
5.239763512825083
  0
ARC
  5
3D20
102
{ACAD_REACTORS
330
3D8C
102
}
330
2
100
AcDbEntity
  8
KIJUN
100
AcDbCircle
 10
279.7781980020888
 20
195.1155032519647
 30
0.0
 40
10.23053414919544
100
AcDbArc
 50
321.0609042242466
 51
59.15738843691558
  0
ARC
  5
3D21
102
{ACAD_REACTORS
330
3D8C
102
}
330
2
100
AcDbEntity
  8
KIJUN
100
AcDbCircle
 10
268.36609310715
 20
207.8878218911706
 30
0.0
 40
17.12799642557268
100
AcDbArc
 50
227.2242474726964
 51
346.5338937192103
  0
ARC
  5
3D22
102
{ACAD_REACTORS
330
3D8C
102
}
330
2
100
AcDbEntity
  8
KIJUN
100
AcDbCircle
 10
251.6891377473569
 20
205.4144827173587
 30
0.0
 40
11.2888440382671
100
AcDbArc
 50
296.5439559141848
 51
10.30371306074445
  0
ARC
  5
3D23
102
{ACAD_REACTORS
330
3D8C
102
}
330
2
100
AcDbEntity
  8
KIJUN
100
AcDbCircle
 10
355.3961829152942
 20
124.1413883548995
 30
0.0
 40
27.88557359997192
100
AcDbArc
 50
257.7277827324071
 51
18.72404916515492
  0
ARC
  5
3D24
102
{ACAD_REACTORS
330
3D8C
102
}
330
2
100
AcDbEntity
  8
KIJUN
100
AcDbCircle
 10
369.9741662143162
 20
130.3098177585744
 30
0.0
 40
12.15468896757755
100
AcDbArc
 50
52.44809013937921
 51
152.1342887857285
  0
ARC
  5
3D25
102
{ACAD_REACTORS
330
3D8C
102
}
330
2
100
AcDbEntity
  8
KIJUN
100
AcDbCircle
 10
349.0077276640842
 20
129.4670037542527
 30
0.0
 40
30.24767574518016
100
AcDbArc
 50
330.2777709926892
 51
20.26985396942328
  0
ARC
  5
3D26
102
{ACAD_REACTORS
330
3D8C
102
}
330
2
100
AcDbEntity
  8
KIJUN
100
AcDbCircle
 10
353.3200128839141
 20
120.4389707366734
 30
0.0
 40
14.51050533409733
100
AcDbArc
 50
324.7557682063751
 51
62.29149792042591
  0
ARC
  5
3D27
102
{ACAD_REACTORS
330
3D8C
102
}
330
2
100
AcDbEntity
  8
KIJUN
100
AcDbCircle
 10
360.9969590733432
 20
135.0561279018637
 30
0.0
 40
2.0
100
AcDbArc
 50
152.1342887857285
 51
242.2914979204259
  0
ARC
  5
3D28
102
{ACAD_REACTORS
330
3D8C
102
}
330
2
100
AcDbEntity
  8
KIJUN
100
AcDbCircle
 10
378.628393790799
 20
139.3529751843777
 30
0.0
 40
1.380126959004231
100
AcDbArc
 50
17.4562740809069
 51
154.5488380756194
  0
ARC
  5
3D29
102
{ACAD_REACTORS
330
3D8C
102
}
330
2
100
AcDbEntity
  8
KIJUN
100
AcDbCircle
 10
369.2717823945192
 20
133.1944324044067
 30
0.0
 40
12.53455826523707
100
AcDbArc
 50
359.5361229052711
 51
31.62478952551619
  0
ELLIPSE
  5
3D2B
102
{ACAD_REACTORS
330
3D8C
102
}
330
2
100
AcDbEntity
  8
KIJUN
100
AcDbEllipse
 10
84.91873500555357
 20
182.6916501289684
 30
0.0
 11
0.7631373622840443
 21
17.3056881103065
 31
0.0
210
0.0
220
0.0
230
1.0
 40
0.5867929577528354
 41
0.0
 42
6.283185307179586
  0
DIMENSION
  5
3D2C
330
2
100
AcDbEntity
  8
SUNPOU
100
AcDbDimension
  2
*D86
 10
383.2817565152661
 20
344.3264832414134
 30
0.0
 11
83.28175651526612
 21
352.3264832414134
 31
0.0
 70
    32
 71
     5
 42
600.0
  3
STANDARD
100
AcDbAlignedDimension
 13
-216.7182434847339
 23
288.5498201292545
 33
0.0
 14
383.2817565152661
 24
293.5155978063508
 34
0.0
100
AcDbRotatedDimension
1001
ACAD
1000
DSTYLE
1002
{
1070
    41
1040
2.0
1070
    42
1040
10.0
1070
    44
1040
0.0
1070
    73
1070
     0
1070
    74
1070
     0
1070
    77
1070
     1
1070
   140
1040
10.0
1070
   141
1040
0.0
1070
   146
1040
0.064286
1070
   147
1040
3.0
1070
   176
1070
    60
1070
   177
1070
    70
1070
   178
1070
    60
1070
   271
1070
     0
1070
   272
1070
     0
1070
   340
1005
1C
1070
   342
1005
109
1002
}
  0
DIMENSION
  5
3D39
330
2
100
AcDbEntity
  8
SUNPOU
100
AcDbDimension
  2
*D87
 10
-304.1079869232617
 20
93.54982012925452
 30
0.0
 11
-312.1079869232617
 21
191.0498201292545
 31
0.0
 70
    32
 71
     5
 42
195.0
  3
STANDARD
100
AcDbAlignedDimension
 13
-216.7182434847339
 23
288.5498201292545
 33
0.0
 14
-217.1359776599575
 24
93.5498201292545
 34
0.0
 50
90.0
100
AcDbRotatedDimension
1001
ACAD
1000
DSTYLE
1002
{
1070
    41
1040
2.0
1070
    42
1040
10.0
1070
    44
1040
0.0
1070
    73
1070
     0
1070
    74
1070
     0
1070
    77
1070
     1
1070
   140
1040
10.0
1070
   141
1040
0.0
1070
   146
1040
0.064286
1070
   147
1040
3.0
1070
   176
1070
    60
1070
   177
1070
    70
1070
   178
1070
    60
1070
   271
1070
     0
1070
   272
1070
     0
1070
   340
1005
1C
1070
   342
1005
109
1002
}
  0
ENDSEC
  0
SECTION
  2
OBJECTS
  0
DICTIONARY
  5
1A
330
0
100
AcDbDictionary
281
     1
  3
ACAD_COLOR
350
144
  3
ACAD_GROUP
350
18
  3
ACAD_LAYOUT
350
58
  3
ACAD_MATERIAL
350
143
  3
ACAD_MLINESTYLE
350
19
  3
ACAD_PLOTSETTINGS
350
59
  3
ACAD_PLOTSTYLENAME
350
56
  3
ACAD_TABLESTYLE
350
145
  3
ACDBHEADERROUNDTRIPXREC
350
3DB2
  3
AcDbVariableDictionary
350
1D1
  0
DICTIONARY
  5
1B4
330
A
100
AcDbDictionary
280
     1
281
     1
  3
ACAD_LAYERFILTERS
360
1C2
  3
ACLYDICTIONARY
360
1C1
  0
DICTIONARY
  5
1578
330
2
100
AcDbDictionary
280
     1
281
     1
  3
ACAD_SORTENTS
360
1579
  0
DICTIONARY
  5
144
102
{ACAD_REACTORS
330
1A
102
}
330
1A
100
AcDbDictionary
281
     1
  0
DICTIONARY
  5
18
102
{ACAD_REACTORS
330
1A
102
}
330
1A
100
AcDbDictionary
281
     1
  3
*A1
350
CFC
  3
*A10
350
2FE9
  3
*A11
350
312A
  3
*A12
350
15D1
  3
*A13
350
3154
  3
*A14
350
327B
  3
*A15
350
32AA
  3
*A16
350
3650
  3
*A17
350
367C
  3
*A18
350
1682
  3
*A19
350
1827
  3
*A2
350
218C
  3
*A20
350
18ED
  3
*A21
350
19E5
  3
*A22
350
1F8A
  3
*A23
350
2108
  3
*A24
350
3732
  3
*A25
350
37CF
  3
*A26
350
3837
  3
*A27
350
38C3
  3
*A29
350
39C3
  3
*A3
350
2335
  3
*A30
350
3AB4
  3
*A31
350
3BBC
  3
*A32
350
3D8C
  3
*A4
350
2862
  3
*A5
350
299B
  3
*A6
350
2C07
  3
*A7
350
2DB5
  3
*A8
350
2E88
  3
*A9
350
2FBC
  0
DICTIONARY
  5
58
102
{ACAD_REACTORS
330
1A
102
}
330
1A
100
AcDbDictionary
281
     1
  3
Model
350
5A
  3
ﾚｲｱｳﾄ1
350
5B
  0
DICTIONARY
  5
143
102
{ACAD_REACTORS
330
1A
102
}
330
1A
100
AcDbDictionary
281
     1
  0
DICTIONARY
  5
19
102
{ACAD_REACTORS
330
1A
102
}
330
1A
100
AcDbDictionary
281
     1
  3
STANDARD
350
1D
  0
DICTIONARY
  5
59
102
{ACAD_REACTORS
330
1A
102
}
330
1A
100
AcDbDictionary
281
     1
  0
ACDBDICTIONARYWDFLT
  5
56
102
{ACAD_REACTORS
330
1A
102
}
330
1A
100
AcDbDictionary
281
     1
  3
Normal
350
57
100
AcDbDictionaryWithDefault
340
57
  0
DICTIONARY
  5
145
102
{ACAD_REACTORS
330
1A
102
}
330
1A
100
AcDbDictionary
281
     1
  3
Standard
350
146
  0
DICTIONARY
  5
3DB2
102
{ACAD_REACTORS
330
1A
102
}
330
1A
100
AcDbDictionary
281
     1
  0
DICTIONARY
  5
1D1
102
{ACAD_REACTORS
330
1A
102
}
330
1A
100
AcDbDictionary
281
     1
  3
CTABLESTYLE
350
1D2
  3
DIMASSOC
350
D03
  3
PROJECTNAME
350
D04
  0
DICTIONARY
  5
1C2
102
{ACAD_REACTORS
330
1B4
102
}
330
1B4
100
AcDbDictionary
281
     1
  0
DICTIONARY
  5
1C1
102
{ACAD_REACTORS
330
1B4
102
}
330
1B4
100
AcDbDictionary
281
     1
1001
ACAD
1000
<All
  0
SORTENTSTABLE
  5
1579
102
{ACAD_REACTORS
330
1578
102
}
330
1578
100
AcDbSortentsTable
330
2
331
1F
  5
1F
331
20
  5
20
331
21
  5
21
331
23
  5
23
  0
GROUP
  5
CFC
102
{ACAD_REACTORS
330
18
102
}
330
18
100
AcDbGroup
300

 70
     1
 71
     1
  0
GROUP
  5
2FE9
102
{ACAD_REACTORS
330
18
102
}
330
18
100
AcDbGroup
300

 70
     1
 71
     1
  0
GROUP
  5
312A
102
{ACAD_REACTORS
330
18
102
}
330
18
100
AcDbGroup
300

 70
     1
 71
     1
  0
GROUP
  5
15D1
102
{ACAD_REACTORS
330
18
102
}
330
18
100
AcDbGroup
300

 70
     1
 71
     1
  0
GROUP
  5
3154
102
{ACAD_REACTORS
330
18
102
}
330
18
100
AcDbGroup
300

 70
     1
 71
     1
  0
GROUP
  5
327B
102
{ACAD_REACTORS
330
18
102
}
330
18
100
AcDbGroup
300

 70
     1
 71
     1
  0
GROUP
  5
32AA
102
{ACAD_REACTORS
330
18
102
}
330
18
100
AcDbGroup
300

 70
     1
 71
     1
  0
GROUP
  5
3650
102
{ACAD_REACTORS
330
18
102
}
330
18
100
AcDbGroup
300

 70
     1
 71
     1
  0
GROUP
  5
367C
102
{ACAD_REACTORS
330
18
102
}
330
18
100
AcDbGroup
300

 70
     1
 71
     1
  0
GROUP
  5
1682
102
{ACAD_REACTORS
330
18
102
}
330
18
100
AcDbGroup
300

 70
     1
 71
     1
  0
GROUP
  5
1827
102
{ACAD_REACTORS
330
18
102
}
330
18
100
AcDbGroup
300

 70
     1
 71
     1
  0
GROUP
  5
218C
102
{ACAD_REACTORS
330
18
102
}
330
18
100
AcDbGroup
300

 70
     1
 71
     1
  0
GROUP
  5
18ED
102
{ACAD_REACTORS
330
18
102
}
330
18
100
AcDbGroup
300

 70
     1
 71
     1
  0
GROUP
  5
19E5
102
{ACAD_REACTORS
330
18
102
}
330
18
100
AcDbGroup
300

 70
     1
 71
     1
  0
GROUP
  5
1F8A
102
{ACAD_REACTORS
330
18
102
}
330
18
100
AcDbGroup
300

 70
     1
 71
     1
  0
GROUP
  5
2108
102
{ACAD_REACTORS
330
18
102
}
330
18
100
AcDbGroup
300

 70
     1
 71
     1
  0
GROUP
  5
3732
102
{ACAD_REACTORS
330
18
102
}
330
18
100
AcDbGroup
300

 70
     1
 71
     1
  0
GROUP
  5
37CF
102
{ACAD_REACTORS
330
18
102
}
330
18
100
AcDbGroup
300

 70
     1
 71
     1
  0
GROUP
  5
3837
102
{ACAD_REACTORS
330
18
102
}
330
18
100
AcDbGroup
300

 70
     1
 71
     1
  0
GROUP
  5
38C3
102
{ACAD_REACTORS
330
18
102
}
330
18
100
AcDbGroup
300

 70
     1
 71
     1
  0
GROUP
  5
39C3
102
{ACAD_REACTORS
330
18
102
}
330
18
100
AcDbGroup
300

 70
     1
 71
     1
  0
GROUP
  5
2335
102
{ACAD_REACTORS
330
18
102
}
330
18
100
AcDbGroup
300

 70
     1
 71
     1
  0
GROUP
  5
3AB4
102
{ACAD_REACTORS
330
18
102
}
330
18
100
AcDbGroup
300

 70
     1
 71
     1
  0
GROUP
  5
3BBC
102
{ACAD_REACTORS
330
18
102
}
330
18
100
AcDbGroup
300

 70
     1
 71
     1
  0
GROUP
  5
3D8C
102
{ACAD_REACTORS
330
18
102
}
330
18
100
AcDbGroup
300

 70
     1
 71
     1
340
3D2B
340
3D29
340
3D28
340
3D27
340
3D26
340
3D25
340
3D24
340
3D23
340
3D22
340
3D21
340
3D20
340
3D1F
340
3D1E
340
3D1D
340
3D1C
340
3D1B
340
3D1A
340
3D19
340
3D18
340
3D17
340
3D16
340
3D15
340
3D14
340
3D13
340
3D12
340
3D11
340
3D10
340
3D0F
340
3D0E
340
3D0D
340
3D0C
340
3D0B
340
3D0A
340
3D09
340
3D08
340
3D07
340
3D06
340
3D05
340
3D04
340
3D03
340
3D02
340
3D01
340
3D00
340
3CFF
340
3CFE
340
3CFD
340
3CFC
340
3CFB
340
3CFA
340
3CF9
340
3CF8
340
3CF7
340
3CF6
340
3CF5
340
3CF4
340
3CF3
340
3CF2
340
3CF1
340
3CF0
340
3CEF
340
3CEE
340
3CED
340
3CEC
340
3CEB
340
3CEA
340
3CE9
340
3CE8
340
3CE7
340
3CE6
340
3CE5
340
3CE4
340
3CE3
340
3CE2
340
3CE1
340
3CE0
340
3CDF
340
3CDE
340
3CDD
340
3CDC
340
3CDB
340
3CDA
340
3CD9
340
3CD8
340
3CD7
340
3CD6
340
3CD5
340
3CD4
340
3CD3
340
3CD2
340
3CD1
340
3CD0
340
3CCF
340
3CCE
340
3CCD
340
3CCC
340
3CCB
340
3CCA
340
3CC9
340
3CC8
340
3CC7
340
3CC6
340
3CC5
340
3CC4
340
3CC3
340
3CC2
340
3CC1
340
3CC0
340
3CBF
340
3CBE
340
3CBD
340
3CBC
340
3CBB
340
3CBA
340
3CB9
340
3CB8
340
3CB7
340
3CB6
340
3CB5
340
3CB4
340
3CB3
340
3CB2
340
3CB1
340
3CB0
340
3CAF
340
3CAE
340
3CAD
340
3CAC
340
3CAB
340
3CAA
340
3CA9
340
3CA8
340
3CA7
340
3CA6
340
3CA5
340
3CA4
340
3CA3
340
3CA2
340
3CA1
340
3CA0
340
3C9F
340
3C9D
340
3C9C
340
3C9B
340
3C9A
340
3C99
340
3C98
340
3C97
340
3C96
340
3C95
340
3C94
340
3C93
340
3C92
340
3C91
340
3C90
340
3C8F
340
3C8E
340
3C8D
340
3C8C
340
3C8B
340
3C8A
340
3C89
340
3C88
340
3C87
340
3C86
340
3C85
340
3C84
340
3C83
340
3C82
340
3C81
340
3C80
340
3C7F
340
3C7E
340
3C7D
340
3C7C
  0
GROUP
  5
2862
102
{ACAD_REACTORS
330
18
102
}
330
18
100
AcDbGroup
300

 70
     1
 71
     1
  0
GROUP
  5
299B
102
{ACAD_REACTORS
330
18
102
}
330
18
100
AcDbGroup
300

 70
     1
 71
     1
  0
GROUP
  5
2C07
102
{ACAD_REACTORS
330
18
102
}
330
18
100
AcDbGroup
300

 70
     1
 71
     1
  0
GROUP
  5
2DB5
102
{ACAD_REACTORS
330
18
102
}
330
18
100
AcDbGroup
300

 70
     1
 71
     1
  0
GROUP
  5
2E88
102
{ACAD_REACTORS
330
18
102
}
330
18
100
AcDbGroup
300

 70
     1
 71
     1
  0
GROUP
  5
2FBC
102
{ACAD_REACTORS
330
18
102
}
330
18
100
AcDbGroup
300

 70
     1
 71
     1
  0
LAYOUT
  5
5A
102
{ACAD_XDICTIONARY
360
3DB3
102
}
102
{ACAD_REACTORS
330
58
102
}
330
58
100
AcDbPlotSettings
  1

  2
なし
  4

  6

 40
0.0
 41
0.0
 42
0.0
 43
0.0
 44
0.0
 45
0.0
 46
0.0
 47
0.0
 48
0.0
 49
0.0
140
0.0
141
0.0
142
1.0
143
1.0
 70
  1712
 72
     0
 73
     0
 74
     0
  7
monochrome.ctb
 75
     0
147
1.0
148
0.0
149
0.0
100
AcDbLayout
  1
Model
 70
     1
 71
     0
 10
0.0
 20
0.0
 11
12.0
 21
9.0
 12
0.0
 22
0.0
 32
0.0
 14
0.0
 24
0.0
 34
0.0
 15
0.0
 25
0.0
 35
0.0
146
0.0
 13
0.0
 23
0.0
 33
0.0
 16
1.0
 26
0.0
 36
0.0
 17
0.0
 27
1.0
 37
0.0
 76
     0
330
2
  0
LAYOUT
  5
5B
102
{ACAD_XDICTIONARY
360
3DB5
102
}
102
{ACAD_REACTORS
330
58
102
}
330
58
100
AcDbPlotSettings
  1

  2
なし
  4

  6

 40
0.0
 41
0.0
 42
0.0
 43
0.0
 44
0.0
 45
0.0
 46
0.0
 47
0.0
 48
0.0
 49
0.0
140
0.0
141
0.0
142
1.0
143
1.0
 70
   688
 72
     0
 73
     0
 74
     5
  7
monochrome.ctb
 75
    16
147
1.0
148
0.0
149
0.0
100
AcDbLayout
  1
ﾚｲｱｳﾄ1
 70
     1
 71
     1
 10
0.0
 20
0.0
 11
12.0
 21
9.0
 12
0.0
 22
0.0
 32
0.0
 14
1.000000000000000E+20
 24
1.000000000000000E+20
 34
1.000000000000000E+20
 15
-1.000000000000000E+20
 25
-1.000000000000000E+20
 35
-1.000000000000000E+20
146
0.0
 13
0.0
 23
0.0
 33
0.0
 16
1.0
 26
0.0
 36
0.0
 17
0.0
 27
1.0
 37
0.0
 76
     0
330
7
  0
MLINESTYLE
  5
1D
102
{ACAD_REACTORS
330
19
102
}
330
19
100
AcDbMlineStyle
  2
STANDARD
 70
     0
  3

 62
   256
 51
90.0
 52
90.0
 71
     2
 49
0.5
 62
   256
  6
BYLAYER
 49
-0.5
 62
   256
  6
BYLAYER
  0
ACDBPLACEHOLDER
  5
57
102
{ACAD_REACTORS
330
56
102
}
330
56
  0
TABLESTYLE
  5
146
102
{ACAD_REACTORS
330
145
102
}
330
145
100
AcDbTableStyle
  3
Standard
 70
     0
 71
     0
 40
0.06
 41
0.06
280
     0
281
     0
  7
STANDARD
140
0.18
170
     2
 62
     0
 63
     7
283
     0
274
    -2
284
     1
 64
     0
275
    -2
285
     1
 65
     0
276
    -2
286
     1
 66
     0
277
    -2
287
     1
 67
     0
278
    -2
288
     1
 68
     0
279
    -2
289
     1
 69
     0
  7
STANDARD
140
0.25
170
     5
 62
     0
 63
     7
283
     0
274
    -2
284
     1
 64
     0
275
    -2
285
     1
 65
     0
276
    -2
286
     1
 66
     0
277
    -2
287
     1
 67
     0
278
    -2
288
     1
 68
     0
279
    -2
289
     1
 69
     0
  7
STANDARD
140
0.18
170
     5
 62
     0
 63
     7
283
     0
274
    -2
284
     1
 64
     0
275
    -2
285
     1
 65
     0
276
    -2
286
     1
 66
     0
277
    -2
287
     1
 67
     0
278
    -2
288
     1
 68
     0
279
    -2
289
     1
 69
     0
  0
DICTIONARYVAR
  5
1D2
102
{ACAD_REACTORS
330
1D1
102
}
330
1D1
100
DictionaryVariables
280
     0
  1
STANDARD
  0
DICTIONARYVAR
  5
D03
102
{ACAD_REACTORS
330
1D1
102
}
330
1D1
100
DictionaryVariables
280
     0
  1
1
  0
DICTIONARYVAR
  5
D04
102
{ACAD_REACTORS
330
1D1
102
}
330
1D1
100
DictionaryVariables
280
     0
  1

  0
DICTIONARY
  5
3DB3
330
5A
100
AcDbDictionary
280
     1
281
     1
  3
ACAD_XREC_ROUNDTRIP
360
3DB4
  0
DICTIONARY
  5
3DB5
330
5B
100
AcDbDictionary
280
     1
281
     1
  3
ACAD_XREC_ROUNDTRIP
360
3DB6
  0
XRECORD
  5
3DB4
102
{ACAD_REACTORS
330
3DB3
102
}
330
3DB3
100
AcDbXrecord
280
     1
102
SHADEPLOT
 70
     0
102
SHADEPLOTRESLEVEL
 70
     2
102
SHADEPLOTCUSTOMDPI
 70
   300
  0
XRECORD
  5
3DB6
102
{ACAD_REACTORS
330
3DB5
102
}
330
3DB5
100
AcDbXrecord
280
     1
102
SHADEPLOT
 70
     0
102
SHADEPLOTRESLEVEL
 70
     2
102
SHADEPLOTCUSTOMDPI
 70
   300
  0
ENDSEC
  0
EOF
