  0
SECTION
  2
HEADER
  9
$ACADVER
  1
AC1015
  9
$ACADMAINTVER
 70
    20
  9
$DWGCODEPAGE
  3
ANSI_932
  9
$INSBASE
 10
922.019522
 20
-675.4306699999999
 30
0.0
  9
$EXTMIN
 10
-125.5380046302293
 20
-0.0104172931794437
 30
-0.0015258207003583
  9
$EXTMAX
 10
217.5889515731726
 20
155.4222078239658
 30
0.0000000349246037
  9
$LIMMIN
 10
0.0
 20
0.0
  9
$LIMMAX
 10
420.0
 20
297.0
  9
$ORTHOMODE
 70
     1
  9
$REGENMODE
 70
     1
  9
$FILLMODE
 70
     1
  9
$QTEXTMODE
 70
     0
  9
$MIRRTEXT
 70
     1
  9
$LTSCALE
 40
1.0
  9
$ATTMODE
 70
     1
  9
$TEXTSIZE
 40
30.0
  9
$TRACEWID
 40
0.05
  9
$TEXTSTYLE
  7
SUNPOU
  9
$CLAYER
  8
0
  9
$CELTYPE
  6
BYLAYER
  9
$CECOLOR
 62
   256
  9
$CELTSCALE
 40
1.0
  9
$DISPSILH
 70
     0
  9
$DIMSCALE
 40
1.0
  9
$DIMASZ
 40
2.0
  9
$DIMEXO
 40
10.0
  9
$DIMDLI
 40
0.38
  9
$DIMRND
 40
0.0
  9
$DIMDLE
 40
0.0
  9
$DIMEXE
 40
0.0
  9
$DIMTP
 40
0.0
  9
$DIMTM
 40
0.0
  9
$DIMTXT
 40
10.0
  9
$DIMCEN
 40
0.0
  9
$DIMTSZ
 40
0.0
  9
$DIMTOL
 70
     0
  9
$DIMLIM
 70
     0
  9
$DIMTIH
 70
     0
  9
$DIMTOH
 70
     0
  9
$DIMSE1
 70
     0
  9
$DIMSE2
 70
     0
  9
$DIMTAD
 70
     1
  9
$DIMZIN
 70
     0
  9
$DIMBLK
  1
Dot
  9
$DIMASO
 70
     1
  9
$DIMSHO
 70
     1
  9
$DIMPOST
  1

  9
$DIMAPOST
  1

  9
$DIMALT
 70
     0
  9
$DIMALTD
 70
     2
  9
$DIMALTF
 40
25.4
  9
$DIMLFAC
 40
1.0
  9
$DIMTOFL
 70
     0
  9
$DIMTVP
 40
0.0
  9
$DIMTIX
 70
     0
  9
$DIMSOXD
 70
     0
  9
$DIMSAH
 70
     0
  9
$DIMBLK1
  1

  9
$DIMBLK2
  1

  9
$DIMSTYLE
  2
STANDARD
  9
$DIMCLRD
 70
    60
  9
$DIMCLRE
 70
    70
  9
$DIMCLRT
 70
    60
  9
$DIMTFAC
 40
0.064286
  9
$DIMGAP
 40
3.0
  9
$DIMJUST
 70
     0
  9
$DIMSD1
 70
     0
  9
$DIMSD2
 70
     0
  9
$DIMTOLJ
 70
     1
  9
$DIMTZIN
 70
     0
  9
$DIMALTZ
 70
     0
  9
$DIMALTTZ
 70
     0
  9
$DIMUPT
 70
     0
  9
$DIMDEC
 70
     0
  9
$DIMTDEC
 70
     0
  9
$DIMALTU
 70
     2
  9
$DIMALTTD
 70
     2
  9
$DIMTXSTY
  7
SUNPOU
  9
$DIMAUNIT
 70
     0
  9
$DIMADEC
 70
     0
  9
$DIMALTRND
 40
0.0
  9
$DIMAZIN
 70
     0
  9
$DIMDSEP
 70
    46
  9
$DIMATFIT
 70
     3
  9
$DIMFRAC
 70
     0
  9
$DIMLDRBLK
  1

  9
$DIMLUNIT
 70
     2
  9
$DIMLWD
 70
    -2
  9
$DIMLWE
 70
    -2
  9
$DIMTMOVE
 70
     0
  9
$LUNITS
 70
     2
  9
$LUPREC
 70
     5
  9
$SKETCHINC
 40
0.1
  9
$FILLETRAD
 40
0.0
  9
$AUNITS
 70
     0
  9
$AUPREC
 70
     0
  9
$MENU
  1
acad
  9
$ELEVATION
 40
0.0
  9
$PELEVATION
 40
0.0
  9
$THICKNESS
 40
0.0
  9
$LIMCHECK
 70
     0
  9
$CHAMFERA
 40
0.0
  9
$CHAMFERB
 40
0.0
  9
$CHAMFERC
 40
0.0
  9
$CHAMFERD
 40
0.0
  9
$SKPOLY
 70
     0
  9
$TDCREATE
 40
2450623.654673033
  9
$TDUCREATE
 40
2450623.279673032
  9
$TDUPDATE
 40
2453865.397355197
  9
$TDUUPDATE
 40
2453865.022355197
  9
$TDINDWG
 40
0.4787734606
  9
$TDUSRTIMER
 40
0.4787732870
  9
$USRTIMER
 70
     1
  9
$ANGBASE
 50
0.0
  9
$ANGDIR
 70
     0
  9
$PDMODE
 70
     0
  9
$PDSIZE
 40
0.0
  9
$PLINEWID
 40
0.0
  9
$SPLFRAME
 70
     0
  9
$SPLINETYPE
 70
     6
  9
$SPLINESEGS
 70
     8
  9
$HANDSEED
  5
6418
  9
$SURFTAB1
 70
     6
  9
$SURFTAB2
 70
     6
  9
$SURFTYPE
 70
     6
  9
$SURFU
 70
     6
  9
$SURFV
 70
     6
  9
$UCSBASE
  2

  9
$UCSNAME
  2

  9
$UCSORG
 10
0.0
 20
0.0
 30
0.0
  9
$UCSXDIR
 10
1.0
 20
0.0
 30
0.0
  9
$UCSYDIR
 10
0.0
 20
1.0
 30
0.0
  9
$UCSORTHOREF
  2

  9
$UCSORTHOVIEW
 70
     0
  9
$UCSORGTOP
 10
0.0
 20
0.0
 30
0.0
  9
$UCSORGBOTTOM
 10
0.0
 20
0.0
 30
0.0
  9
$UCSORGLEFT
 10
0.0
 20
0.0
 30
0.0
  9
$UCSORGRIGHT
 10
0.0
 20
0.0
 30
0.0
  9
$UCSORGFRONT
 10
0.0
 20
0.0
 30
0.0
  9
$UCSORGBACK
 10
0.0
 20
0.0
 30
0.0
  9
$PUCSBASE
  2

  9
$PUCSNAME
  2

  9
$PUCSORG
 10
0.0
 20
0.0
 30
0.0
  9
$PUCSXDIR
 10
1.0
 20
0.0
 30
0.0
  9
$PUCSYDIR
 10
0.0
 20
1.0
 30
0.0
  9
$PUCSORTHOREF
  2

  9
$PUCSORTHOVIEW
 70
     0
  9
$PUCSORGTOP
 10
0.0
 20
0.0
 30
0.0
  9
$PUCSORGBOTTOM
 10
0.0
 20
0.0
 30
0.0
  9
$PUCSORGLEFT
 10
0.0
 20
0.0
 30
0.0
  9
$PUCSORGRIGHT
 10
0.0
 20
0.0
 30
0.0
  9
$PUCSORGFRONT
 10
0.0
 20
0.0
 30
0.0
  9
$PUCSORGBACK
 10
0.0
 20
0.0
 30
0.0
  9
$USERI1
 70
     0
  9
$USERI2
 70
     0
  9
$USERI3
 70
     0
  9
$USERI4
 70
     0
  9
$USERI5
 70
     0
  9
$USERR1
 40
0.0
  9
$USERR2
 40
0.0
  9
$USERR3
 40
0.0
  9
$USERR4
 40
0.0
  9
$USERR5
 40
0.0
  9
$WORLDVIEW
 70
     1
  9
$SHADEDGE
 70
     3
  9
$SHADEDIF
 70
    70
  9
$TILEMODE
 70
     1
  9
$MAXACTVP
 70
    16
  9
$PINSBASE
 10
0.0
 20
0.0
 30
0.0
  9
$PLIMCHECK
 70
     0
  9
$PEXTMIN
 10
1.000000000000000E+20
 20
1.000000000000000E+20
 30
1.000000000000000E+20
  9
$PEXTMAX
 10
-1.000000000000000E+20
 20
-1.000000000000000E+20
 30
-1.000000000000000E+20
  9
$PLIMMIN
 10
0.0
 20
0.0
  9
$PLIMMAX
 10
12.0
 20
9.0
  9
$UNITMODE
 70
     0
  9
$VISRETAIN
 70
     0
  9
$PLINEGEN
 70
     0
  9
$PSLTSCALE
 70
     1
  9
$TREEDEPTH
 70
  3020
  9
$CMLSTYLE
  2
STANDARD
  9
$CMLJUST
 70
     0
  9
$CMLSCALE
 40
1.0
  9
$PROXYGRAPHICS
 70
     1
  9
$MEASUREMENT
 70
     0
  9
$CELWEIGHT
370
    -1
  9
$ENDCAPS
280
     0
  9
$JOINSTYLE
280
     0
  9
$LWDISPLAY
290
     0
  9
$INSUNITS
 70
     0
  9
$HYPERLINKBASE
  1

  9
$STYLESHEET
  1
monochrome.ctb
  9
$XEDIT
290
     1
  9
$CEPSNTYPE
380
     0
  9
$PSTYLEMODE
290
     1
  9
$FINGERPRINTGUID
  2
{FB88A696-E29C-4009-92AF-A3599A8169D5}
  9
$VERSIONGUID
  2
{51E2D44E-0D25-4956-B271-64095C761B9E}
  9
$EXTNAMES
290
     1
  9
$PSVPSCALE
 40
0.0
  9
$OLESTARTUP
290
     0
  0
ENDSEC
  0
SECTION
  2
CLASSES
  0
CLASS
  1
DICTIONARYVAR
  2
AcDbDictionaryVar
  3
ObjectDBX Classes
 90
        0
280
     0
281
     0
  0
CLASS
  1
ACDBDICTIONARYWDFLT
  2
AcDbDictionaryWithDefault
  3
ObjectDBX Classes
 90
        0
280
     0
281
     0
  0
CLASS
  1
ACDBPLACEHOLDER
  2
AcDbPlaceHolder
  3
ObjectDBX Classes
 90
        0
280
     0
281
     0
  0
CLASS
  1
LAYOUT
  2
AcDbLayout
  3
ObjectDBX Classes
 90
        0
280
     0
281
     0
  0
CLASS
  1
TABLESTYLE
  2
AcDbTableStyle
  3
ObjectDBX Classes
 90
     2047
280
     0
281
     0
  0
CLASS
  1
SORTENTSTABLE
  2
AcDbSortentsTable
  3
ObjectDBX Classes
 90
        0
280
     0
281
     0
  0
ENDSEC
  0
SECTION
  2
TABLES
  0
TABLE
  2
VPORT
  5
12
330
0
100
AcDbSymbolTable
 70
     7
  0
VPORT
  5
6412
330
12
100
AcDbSymbolTableRecord
100
AcDbViewportTableRecord
  2
*Active
 70
     0
 10
0.0
 20
0.0
 11
1.0
 21
1.0
 12
46.02547347147164
 22
77.70589526539318
 13
0.0
 23
0.0
 14
1.0
 24
1.0
 15
0.0
 25
0.0
 16
0.0
 26
0.0
 36
1.0
 17
0.0
 27
0.0
 37
0.0
 40
221.0190384590084
 41
1.560102301790281
 42
50.0
 43
0.0
 44
0.0
 50
0.0
 51
0.0
 71
     0
 72
 20000
 73
     1
 74
     1
 75
     0
 76
     0
 77
     0
 78
     0
281
     0
 65
     1
110
0.0
120
0.0
130
0.0
111
1.0
121
0.0
131
0.0
112
0.0
122
1.0
132
0.0
 79
     0
146
0.0
  0
ENDTAB
  0
TABLE
  2
LTYPE
  5
D
330
0
100
AcDbSymbolTable
 70
     2
  0
LTYPE
  5
E
330
D
100
AcDbSymbolTableRecord
100
AcDbLinetypeTableRecord
  2
BYBLOCK
 70
     0
  3

 72
    65
 73
     0
 40
0.0
  0
LTYPE
  5
F
330
D
100
AcDbSymbolTableRecord
100
AcDbLinetypeTableRecord
  2
BYLAYER
 70
     0
  3

 72
    65
 73
     0
 40
0.0
  0
LTYPE
  5
5
330
D
100
AcDbSymbolTableRecord
100
AcDbLinetypeTableRecord
  2
CONTINUOUS
 70
     0
  3
Solid line
 72
    65
 73
     0
 40
0.0
  0
ENDTAB
  0
TABLE
  2
LAYER
  5
A
102
{ACAD_XDICTIONARY
360
1B4
102
}
330
0
100
AcDbSymbolTable
 70
     6
  0
LAYER
  5
4
330
A
100
AcDbSymbolTableRecord
100
AcDbLayerTableRecord
  2
0
 70
     0
 62
     7
  6
CONTINUOUS
370
    -3
390
57
  0
LAYER
  5
25
330
A
100
AcDbSymbolTableRecord
100
AcDbLayerTableRecord
  2
KIJUN
 70
     0
 62
     7
  6
CONTINUOUS
370
    -3
390
57
  0
LAYER
  5
22
330
A
100
AcDbSymbolTableRecord
100
AcDbLayerTableRecord
  2
HOJO
 70
     0
 62
     3
  6
CONTINUOUS
370
    -3
390
57
  0
LAYER
  5
1B
330
A
100
AcDbSymbolTableRecord
100
AcDbLayerTableRecord
  2
WAKU
 70
     0
 62
     1
  6
CONTINUOUS
370
    -3
390
57
  0
LAYER
  5
31
330
A
100
AcDbSymbolTableRecord
100
AcDbLayerTableRecord
  2
DEFPOINTS
 70
     0
 62
     7
  6
CONTINUOUS
290
     0
370
    -3
390
57
  0
LAYER
  5
28
330
A
100
AcDbSymbolTableRecord
100
AcDbLayerTableRecord
  2
SUNPOU
 70
     0
 62
    70
  6
CONTINUOUS
370
    -3
390
57
  0
ENDTAB
  0
TABLE
  2
STYLE
  5
B
330
0
100
AcDbSymbolTable
 70
     3
  0
STYLE
  5
C
330
B
100
AcDbSymbolTableRecord
100
AcDbTextStyleTableRecord
  2
STANDARD
 70
     0
 40
0.0
 41
1.0
 50
0.0
 71
     0
 42
0.2
  3
txt
  4

  0
STYLE
  5
1C
330
B
100
AcDbSymbolTableRecord
100
AcDbTextStyleTableRecord
  2
SUNPOU
 70
     0
 40
0.0
 41
1.0
 50
0.0
 71
     0
 42
30.0
  3
txt
  4
bigfont
  0
STYLE
  5
14A
330
B
100
AcDbSymbolTableRecord
100
AcDbTextStyleTableRecord
  2
LIFE
 70
     0
 40
0.0
 41
0.7
 50
0.0
 71
     0
 42
10.0
  3
romans
  4
extfont
  0
ENDTAB
  0
TABLE
  2
VIEW
  5
10
330
0
100
AcDbSymbolTable
 70
     0
  0
ENDTAB
  0
TABLE
  2
UCS
  5
11
330
0
100
AcDbSymbolTable
 70
     0
  0
ENDTAB
  0
TABLE
  2
APPID
  5
14
330
0
100
AcDbSymbolTable
 70
    11
  0
APPID
  5
15
330
14
100
AcDbSymbolTableRecord
100
AcDbRegAppTableRecord
  2
ACAD
 70
     0
  0
APPID
  5
1D3
330
14
100
AcDbSymbolTableRecord
100
AcDbRegAppTableRecord
  2
ACAD_DSTYLE_DIMTEXT_FILL
 70
     0
  0
APPID
  5
1D4
330
14
100
AcDbSymbolTableRecord
100
AcDbRegAppTableRecord
  2
ACAD_DSTYLE_DIMEXT_LENGTH
 70
     0
  0
APPID
  5
1D5
330
14
100
AcDbSymbolTableRecord
100
AcDbRegAppTableRecord
  2
ACAD_DSTYLE_DIMEXT_ENABLED
 70
     0
  0
APPID
  5
1D6
330
14
100
AcDbSymbolTableRecord
100
AcDbRegAppTableRecord
  2
ACAD_DSTYLE_DIM_LINETYPE
 70
     0
  0
APPID
  5
1D7
330
14
100
AcDbSymbolTableRecord
100
AcDbRegAppTableRecord
  2
ACAD_DSTYLE_DIM_EXT1_LINETYPE
 70
     0
  0
APPID
  5
1D8
330
14
100
AcDbSymbolTableRecord
100
AcDbRegAppTableRecord
  2
ACAD_DSTYLE_DIM_EXT2_LINETYPE
 70
     0
  0
APPID
  5
294
330
14
100
AcDbSymbolTableRecord
100
AcDbRegAppTableRecord
  2
ACAD_DSTYLE_DIMJOGGED_JOGANGLE_SYMBOL
 70
     0
  0
APPID
  5
478
330
14
100
AcDbSymbolTableRecord
100
AcDbRegAppTableRecord
  2
ACAD_DSTYLE_DIMARC_LENGTH_SYMBOL
 70
     0
  0
APPID
  5
157B
330
14
100
AcDbSymbolTableRecord
100
AcDbRegAppTableRecord
  2
ACAD_EXEMPT_FROM_CAD_STANDARDS
 70
     0
  0
APPID
  5
5228
330
14
100
AcDbSymbolTableRecord
100
AcDbRegAppTableRecord
  2
ACAD_PSEXT
 70
     0
  0
ENDTAB
  0
TABLE
  2
DIMSTYLE
  5
16
330
0
100
AcDbSymbolTable
 70
     2
100
AcDbDimStyleTable
 71
     1
340
1E
  0
DIMSTYLE
105
1E
102
{ACAD_REACTORS
330
62DA
330
62E7
102
}
330
16
100
AcDbSymbolTableRecord
100
AcDbDimStyleTableRecord
  2
STANDARD
 70
     0
340
C
  0
ENDTAB
  0
TABLE
  2
BLOCK_RECORD
  5
1
330
0
100
AcDbSymbolTable
 70
     8
  0
BLOCK_RECORD
  5
2
102
{ACAD_XDICTIONARY
360
1578
102
}
330
1
100
AcDbSymbolTableRecord
100
AcDbBlockTableRecord
  2
*MODEL_SPACE
340
5A
  0
BLOCK_RECORD
  5
7
330
1
100
AcDbSymbolTableRecord
100
AcDbBlockTableRecord
  2
*PAPER_SPACE
340
5B
  0
BLOCK_RECORD
  5
109
330
1
100
AcDbSymbolTableRecord
100
AcDbBlockTableRecord
  2
_Dot
340
0
102
{BLKREFS
331
5FA4
331
5FA5
331
5FB1
331
5FB2
331
61BD
331
61BE
331
61C6
331
61C7
331
63F3
331
63F4
331
6405
331
6406
102
}
  0
BLOCK_RECORD
  5
62DB
330
1
100
AcDbSymbolTableRecord
100
AcDbBlockTableRecord
  2
*D5
340
0
  0
BLOCK_RECORD
  5
62E8
330
1
100
AcDbSymbolTableRecord
100
AcDbBlockTableRecord
  2
*D6
340
0
  0
ENDTAB
  0
ENDSEC
  0
SECTION
  2
BLOCKS
  0
BLOCK
  5
3
330
2
100
AcDbEntity
  8
0
100
AcDbBlockBegin
  2
*MODEL_SPACE
 70
     0
 10
0.0
 20
0.0
 30
0.0
  3
*MODEL_SPACE
  1

  0
ENDBLK
  5
6
330
2
100
AcDbEntity
  8
0
100
AcDbBlockEnd
  0
BLOCK
  5
8
330
7
100
AcDbEntity
 67
     1
  8
0
100
AcDbBlockBegin
  2
*PAPER_SPACE
 70
     0
 10
0.0
 20
0.0
 30
0.0
  3
*PAPER_SPACE
  1

  0
ENDBLK
  5
9
330
7
100
AcDbEntity
 67
     1
  8
0
100
AcDbBlockEnd
  0
BLOCK
  5
10C
330
109
100
AcDbEntity
  8
0
100
AcDbBlockBegin
  2
_Dot
 70
     0
 10
0.0
 20
0.0
 30
0.0
  3
_Dot
  1

  0
LWPOLYLINE
  5
10A
330
109
100
AcDbEntity
  8
0
  6
ByBlock
 62
     0
100
AcDbPolyline
 90
        2
 70
     1
 43
0.5
 10
-0.25
 20
0.0
 42
1.0
 10
0.25
 20
0.0
 42
1.0
  0
LINE
  5
10B
330
109
100
AcDbEntity
  8
0
  6
ByBlock
 62
     0
370
    -2
100
AcDbLine
 10
-0.5
 20
0.0
 30
0.0
 11
-1.0
 21
0.0
 31
0.0
  0
ENDBLK
  5
10D
330
109
100
AcDbEntity
  8
0
100
AcDbBlockEnd
  0
BLOCK
  5
62E5
330
62DB
100
AcDbEntity
  8
0
100
AcDbBlockBegin
  2
*D5
 70
     1
 10
0.0
 20
0.0
 30
0.0
  3
*D5
  1

  0
LINE
  5
6402
330
62DB
100
AcDbEntity
  8
SUNPOU
 62
    70
370
    -2
100
AcDbLine
 10
-85.42716796114975
 20
121.4737171718616
 30
0.0
 11
-85.42716796114975
 21
142.4176355462473
 31
0.0
  0
LINE
  5
6403
330
62DB
100
AcDbEntity
  8
SUNPOU
 62
    70
370
    -2
100
AcDbLine
 10
216.5728320388502
 20
119.4224477702546
 30
0.0
 11
216.5728320388502
 21
142.4176355462473
 31
0.0
  0
LINE
  5
6404
330
62DB
100
AcDbEntity
  8
SUNPOU
 62
    60
370
    -2
100
AcDbLine
 10
-83.42716796114975
 20
142.4176355462473
 30
0.0
 11
214.5728320388503
 21
142.4176355462473
 31
0.0
  0
INSERT
  5
6405
330
62DB
100
AcDbEntity
  8
SUNPOU
 62
    60
370
    -2
100
AcDbBlockReference
  2
_Dot
 10
-85.42716796114975
 20
142.4176355462473
 30
0.0
 41
2.0
 42
2.0
 43
2.0
 50
180.0
  0
INSERT
  5
6406
330
62DB
100
AcDbEntity
  8
SUNPOU
 62
    60
370
    -2
100
AcDbBlockReference
  2
_Dot
 10
216.5728320388502
 20
142.4176355462473
 30
0.0
 41
2.0
 42
2.0
 43
2.0
  0
MTEXT
  5
6407
330
62DB
100
AcDbEntity
  8
SUNPOU
 62
    60
100
AcDbMText
 10
65.57283203885027
 20
150.4176355462473
 30
0.0
 40
10.0
 41
0.0
 71
     5
 72
     1
  1
\A1;302
  7
SUNPOU
 73
     1
 44
1.0
1001
ACAD
1000
MTEXTBEGIN
1070
    73
1070
     1
1070
    44
1040
1.0
1070
    74
1070
     0
1000
MTEXTEND
  0
POINT
  5
6408
330
62DB
100
AcDbEntity
  8
DEFPOINTS
 62
     0
100
AcDbPoint
 10
-85.42716796114975
 20
111.4737171718616
 30
0.0
  0
POINT
  5
6409
330
62DB
100
AcDbEntity
  8
DEFPOINTS
 62
     0
100
AcDbPoint
 10
216.5728320388502
 20
109.4224477702546
 30
0.0
  0
POINT
  5
640A
330
62DB
100
AcDbEntity
  8
DEFPOINTS
 62
     0
100
AcDbPoint
 10
216.5728320388502
 20
142.4176355462473
 30
0.0
  0
ENDBLK
  5
62E6
330
62DB
100
AcDbEntity
  8
0
100
AcDbBlockEnd
  0
BLOCK
  5
62F2
330
62E8
100
AcDbEntity
  8
0
100
AcDbBlockBegin
  2
*D6
 70
     1
 10
0.0
 20
0.0
 30
0.0
  3
*D6
  1

  0
LINE
  5
63F0
330
62E8
100
AcDbEntity
  8
SUNPOU
 62
    70
370
    -2
100
AcDbLine
 10
-95.42716796114975
 20
111.4737171718616
 30
0.0
 11
-112.5311197901296
 21
111.4737171718616
 31
0.0
  0
LINE
  5
63F1
330
62E8
100
AcDbEntity
  8
SUNPOU
 62
    70
370
    -2
100
AcDbLine
 10
-96.42086172002109
 20
51.47371717186161
 30
0.0
 11
-112.5311197901296
 21
51.47371717186162
 31
0.0
  0
LINE
  5
63F2
330
62E8
100
AcDbEntity
  8
SUNPOU
 62
    60
370
    -2
100
AcDbLine
 10
-112.5311197901296
 20
109.4737171718616
 30
0.0
 11
-112.5311197901296
 21
53.47371717186162
 31
0.0
  0
INSERT
  5
63F3
330
62E8
100
AcDbEntity
  8
SUNPOU
 62
    60
370
    -2
100
AcDbBlockReference
  2
_Dot
 10
-112.5311197901296
 20
111.4737171718616
 30
0.0
 41
2.0
 42
2.0
 43
2.0
 50
90.0
  0
INSERT
  5
63F4
330
62E8
100
AcDbEntity
  8
SUNPOU
 62
    60
370
    -2
100
AcDbBlockReference
  2
_Dot
 10
-112.5311197901296
 20
51.47371717186162
 30
0.0
 41
2.0
 42
2.0
 43
2.0
 50
270.0
  0
MTEXT
  5
63F5
330
62E8
100
AcDbEntity
  8
SUNPOU
 62
    60
100
AcDbMText
 10
-120.5311197901296
 20
81.47371717186162
 30
0.0
 40
10.0
 41
0.0
 71
     5
 72
     1
  1
\A1;60
  7
SUNPOU
 11
0.0000000000000001
 21
1.0
 31
0.0
 73
     1
 44
1.0
1001
ACAD
1000
MTEXTBEGIN
1070
    73
1070
     1
1070
    44
1040
1.0
1070
    74
1070
     0
1000
MTEXTEND
  0
POINT
  5
63F6
330
62E8
100
AcDbEntity
  8
DEFPOINTS
 62
     0
100
AcDbPoint
 10
-85.42716796114975
 20
111.4737171718616
 30
0.0
  0
POINT
  5
63F7
330
62E8
100
AcDbEntity
  8
DEFPOINTS
 62
     0
100
AcDbPoint
 10
-86.42086172002109
 20
51.47371717186161
 30
0.0
  0
POINT
  5
63F8
330
62E8
100
AcDbEntity
  8
DEFPOINTS
 62
     0
100
AcDbPoint
 10
-112.5311197901296
 20
51.47371717186162
 30
0.0
  0
ENDBLK
  5
62F3
330
62E8
100
AcDbEntity
  8
0
100
AcDbBlockEnd
  0
ENDSEC
  0
SECTION
  2
ENTITIES
  0
LINE
  5
1F
330
2
100
AcDbEntity
  8
WAKU
100
AcDbLine
 10
0.0
 20
14.0
 30
0.0
 11
141.2350666841796
 21
14.0
 31
0.0
  0
LINE
  5
20
330
2
100
AcDbEntity
  8
WAKU
100
AcDbLine
 10
0.0
 20
0.0
 30
0.0
 11
141.2350666841796
 21
0.0
 31
0.0
  0
TEXT
  5
21
330
2
100
AcDbEntity
  8
HOJO
100
AcDbText
 10
9.653966000000025
 20
2.366626000000024
 30
0.0
 40
9.0
  1
TC380
  7
SUNPOU
100
AcDbText
  0
TEXT
  5
23
330
2
100
AcDbEntity
  8
HOJO
100
AcDbText
 10
75.65253479254602
 20
5.044386000000031
 30
0.0
 40
6.0
  1
302×60×7
  7
SUNPOU
100
AcDbText
  0
LINE
  5
625C
102
{ACAD_REACTORS
330
640B
102
}
330
2
100
AcDbEntity
  8
KIJUN
100
AcDbLine
 10
85.59443943655606
 20
58.29844283073956
 30
0.0
 11
89.32869246624269
 21
55.23563549509166
 31
0.0
  0
ARC
  5
625D
102
{ACAD_REACTORS
330
640B
102
}
330
2
100
AcDbEntity
  8
KIJUN
100
AcDbCircle
 10
170.5076097102833
 20
4.155479512828151
 30
0.0
 40
111.8586332619595
100
AcDbArc
 50
136.5751360144061
 51
146.5117685227521
  0
ARC
  5
625F
102
{ACAD_REACTORS
330
640B
102
}
330
2
100
AcDbEntity
  8
KIJUN
100
AcDbCircle
 10
86.69541750382814
 20
33.92038408004774
 30
0.0
 40
31.19939827179206
100
AcDbArc
 50
83.10286449365484
 51
106.3323815437834
  0
ARC
  5
6260
102
{ACAD_REACTORS
330
640B
102
}
330
2
100
AcDbEntity
  8
KIJUN
100
AcDbCircle
 10
95.89813428036405
 20
88.74243491311018
 30
0.0
 40
14.90383520731208
100
AcDbArc
 50
70.93103040337301
 51
140.7431964416628
  0
ARC
  5
6261
102
{ACAD_REACTORS
330
640B
102
}
330
2
100
AcDbEntity
  8
KIJUN
100
AcDbCircle
 10
111.7156732912904
 20
74.56053241891232
 30
0.0
 40
23.36681734291008
100
AcDbArc
 50
163.8823429990046
 51
204.4366058805444
  0
ARC
  5
6262
102
{ACAD_REACTORS
330
640B
102
}
330
2
100
AcDbEntity
  8
KIJUN
100
AcDbCircle
 10
161.547912311581
 20
34.79864012423389
 30
0.0
 40
89.85038842849268
100
AcDbArc
 50
141.7655848987817
 51
161.2628134533111
  0
ARC
  5
6269
102
{ACAD_REACTORS
330
640B
102
}
330
2
100
AcDbEntity
  8
KIJUN
100
AcDbCircle
 10
-12.1564763022202
 20
74.95173520145113
 30
0.0
 40
8.474479494111763
100
AcDbArc
 50
156.6800341034662
 51
261.245752823925
  0
ARC
  5
626A
102
{ACAD_REACTORS
330
640B
102
}
330
2
100
AcDbEntity
  8
KIJUN
100
AcDbCircle
 10
-18.78923523264484
 20
79.16395620093272
 30
0.0
 40
9.386616624424917
100
AcDbArc
 50
166.8369342400691
 51
269.5186192922079
  0
ARC
  5
626B
102
{ACAD_REACTORS
330
640B
102
}
330
2
100
AcDbEntity
  8
KIJUN
100
AcDbCircle
 10
13.32629364921013
 20
74.36249376924696
 30
0.0
 40
33.49794662086728
100
AcDbArc
 50
121.5133454578784
 51
173.2384009645881
  0
ARC
  5
626C
102
{ACAD_REACTORS
330
640B
102
}
330
2
100
AcDbEntity
  8
KIJUN
100
AcDbCircle
 10
32.41228314714191
 20
14.75532473596558
 30
0.0
 40
98.48429569244769
100
AcDbArc
 50
104.445072107702
 51
123.7988356559016
  0
ARC
  5
626D
102
{ACAD_REACTORS
330
640B
102
}
330
2
100
AcDbEntity
  8
KIJUN
100
AcDbCircle
 10
-69.55041479280563
 20
78.99611434512181
 30
0.0
 40
20.56978336185626
100
AcDbArc
 50
245.3493717155311
 51
342.9972814585227
  0
ARC
  5
626F
102
{ACAD_REACTORS
330
640B
102
}
330
2
100
AcDbEntity
  8
KIJUN
100
AcDbCircle
 10
-67.19000092542732
 20
79.90095109447769
 30
0.0
 40
27.60509809176154
100
AcDbArc
 50
234.2504302940819
 51
296.5396441625225
  0
ARC
  5
6270
102
{ACAD_REACTORS
330
640B
102
}
330
2
100
AcDbEntity
  8
KIJUN
100
AcDbCircle
 10
-69.95757897743292
 20
79.25704084921143
 30
0.0
 40
22.99500257535139
100
AcDbArc
 50
240.4434789837488
 51
317.0502667664834
  0
ARC
  5
6272
102
{ACAD_REACTORS
330
640B
102
}
330
2
100
AcDbEntity
  8
KIJUN
100
AcDbCircle
 10
663.144680793398
 20
-238.4973542472622
 30
0.0
 40
773.0688239958833
100
AcDbArc
 50
156.1031141682473
 51
156.3338782282703
  0
LINE
  5
6273
102
{ACAD_REACTORS
330
640B
102
}
330
2
100
AcDbEntity
  8
KIJUN
100
AcDbLine
 10
-54.8555757360732
 20
55.20472879421482
 30
0.0
 11
-46.90585172124468
 21
64.91637523555112
 31
0.0
  0
ARC
  5
6274
102
{ACAD_REACTORS
330
640B
102
}
330
2
100
AcDbEntity
  8
KIJUN
100
AcDbCircle
 10
-37.78719066170515
 20
73.48217340239682
 30
0.0
 40
10.85705077654643
100
AcDbArc
 50
286.6778671856519
 51
0.4332052180606713
  0
ARC
  5
6275
102
{ACAD_REACTORS
330
640B
102
}
330
2
100
AcDbEntity
  8
KIJUN
100
AcDbCircle
 10
-6.549980921181031
 20
64.61834546721309
 30
0.0
 40
28.15077166851576
100
AcDbArc
 50
154.3391683617464
 51
182.6202511229289
  0
ARC
  5
6276
102
{ACAD_REACTORS
330
640B
102
}
330
2
100
AcDbEntity
  8
KIJUN
100
AcDbCircle
 10
-48.89455019219667
 20
71.81042113927412
 30
0.0
 40
15.152146360945
100
AcDbArc
 50
290.2075757558428
 51
342.7796360778998
  0
ARC
  5
6277
102
{ACAD_REACTORS
330
640B
102
}
330
2
100
AcDbEntity
  8
KIJUN
100
AcDbCircle
 10
-34.48317530045097
 20
65.0613474431409
 30
0.0
 40
12.42352230233912
100
AcDbArc
 50
147.0568986721865
 51
216.9639494306343
  0
ARC
  5
6278
102
{ACAD_REACTORS
330
640B
102
}
330
2
100
AcDbEntity
  8
KIJUN
100
AcDbCircle
 10
-47.39621118861577
 20
75.99882087522155
 30
0.0
 40
8.907289254049711
100
AcDbArc
 50
106.3457460828366
 51
147.3650520503121
  0
ARC
  5
6279
102
{ACAD_REACTORS
330
640B
102
}
330
2
100
AcDbEntity
  8
KIJUN
100
AcDbCircle
 10
-49.86542211983897
 20
86.52806322270715
 30
0.0
 40
7.974833459008312
100
AcDbArc
 50
228.526496218962
 51
271.524031079718
  0
ARC
  5
627A
102
{ACAD_REACTORS
330
640B
102
}
330
2
100
AcDbEntity
  8
KIJUN
100
AcDbCircle
 10
-50.05267167966803
 20
73.13782354806915
 30
0.0
 40
5.669763988112486
100
AcDbArc
 50
88.48747790797609
 51
170.6018173721244
  0
ARC
  5
627B
102
{ACAD_REACTORS
330
640B
102
}
330
2
100
AcDbEntity
  8
KIJUN
100
AcDbCircle
 10
-49.64046964094132
 20
121.4222413820056
 30
0.0
 40
36.87709051132806
100
AcDbArc
 50
269.5920796161071
 51
317.6828990248519
  0
ARC
  5
627C
102
{ACAD_REACTORS
330
640B
102
}
330
2
100
AcDbEntity
  8
KIJUN
100
AcDbCircle
 10
-50.636971491032
 20
88.12147307599252
 30
0.0
 40
15.15924011954284
100
AcDbArc
 50
250.70394922087
 51
297.4303193822861
  0
ARC
  5
627D
102
{ACAD_REACTORS
330
640B
102
}
330
2
100
AcDbEntity
  8
KIJUN
100
AcDbCircle
 10
2.109395260004021
 20
63.75788007032986
 30
0.0
 40
36.45027127333936
100
AcDbArc
 50
131.7741947724549
 51
159.019612703775
  0
ARC
  5
627E
102
{ACAD_REACTORS
330
640B
102
}
330
2
100
AcDbEntity
  8
KIJUN
100
AcDbCircle
 10
15.93371242878902
 20
61.37113254127621
 30
0.0
 40
48.17859766108746
100
AcDbArc
 50
138.9201830291071
 51
155.5639760079564
  0
ARC
  5
627F
102
{ACAD_REACTORS
330
640B
102
}
330
2
100
AcDbEntity
  8
KIJUN
100
AcDbCircle
 10
-51.91496112851883
 20
106.1984498497755
 30
0.0
 40
27.52939728111273
100
AcDbArc
 50
271.3557139343517
 51
311.9409238060559
  0
ARC
  5
6280
102
{ACAD_REACTORS
330
640B
102
}
330
2
100
AcDbEntity
  8
KIJUN
100
AcDbCircle
 10
-54.12177203649116
 20
99.6388309145508
 30
0.0
 40
27.07762058408083
100
AcDbArc
 50
292.743088810937
 51
331.253320005978
  0
ARC
  5
6281
102
{ACAD_REACTORS
330
640B
102
}
330
2
100
AcDbEntity
  8
KIJUN
100
AcDbCircle
 10
30.28516967490214
 20
82.10320724680284
 30
0.0
 40
30.62949007494123
100
AcDbArc
 50
181.0014476007949
 51
298.6959796651204
  0
ARC
  5
6282
102
{ACAD_REACTORS
330
640B
102
}
330
2
100
AcDbEntity
  8
KIJUN
100
AcDbCircle
 10
38.42284349973898
 20
88.74243491311018
 30
0.0
 40
14.90383520731208
100
AcDbArc
 50
39.25680355833717
 51
109.068969596627
  0
ARC
  5
6283
102
{ACAD_REACTORS
330
640B
102
}
330
2
100
AcDbEntity
  8
KIJUN
100
AcDbCircle
 10
24.11519341145504
 20
73.85995984416092
 30
0.0
 40
3.896659521528208
100
AcDbArc
 50
80.56234652612358
 51
340.3594975055043
  0
ARC
  5
6284
102
{ACAD_REACTORS
330
640B
102
}
330
2
100
AcDbEntity
  8
KIJUN
100
AcDbCircle
 10
24.41449476192293
 20
75.26226489733677
 30
0.0
 40
2.465122738332798
100
AcDbArc
 50
331.0722543317809
 51
82.08045504740374
  0
ARC
  5
6286
102
{ACAD_REACTORS
330
640B
102
}
330
2
100
AcDbEntity
  8
KIJUN
100
AcDbCircle
 10
18.27487521254888
 20
67.45407047577991
 30
0.0
 40
23.36021681185334
100
AcDbArc
 50
49.44316745205903
 51
142.8300526280415
  0
ARC
  5
6287
102
{ACAD_REACTORS
330
640B
102
}
330
2
100
AcDbEntity
  8
KIJUN
100
AcDbCircle
 10
909.0317130234948
 20
707.6003722520506
 30
0.0
 40
1074.243311951537
100
AcDbArc
 50
214.5765623268488
 51
215.4071446257335
  0
LINE
  5
6288
102
{ACAD_REACTORS
330
640B
102
}
330
2
100
AcDbEntity
  8
KIJUN
100
AcDbLine
 10
-10.05210371686507
 20
79.34590519730727
 30
0.0
 11
-10.938815753776
 21
87.32312443883314
 31
0.0
  0
ARC
  5
6289
102
{ACAD_REACTORS
330
640B
102
}
330
2
100
AcDbEntity
  8
KIJUN
100
AcDbCircle
 10
-21.45473284933905
 20
75.54061309799681
 30
0.0
 40
12.02082356137907
100
AcDbArc
 50
311.7757079740681
 51
18.45491575681428
  0
ARC
  5
628A
102
{ACAD_REACTORS
330
640B
102
}
330
2
100
AcDbEntity
  8
KIJUN
100
AcDbCircle
 10
11.14409994587095
 20
87.019554066635
 30
0.0
 40
22.08500216818262
100
AcDbArc
 50
123.0560570231702
 51
179.2124135310372
  0
ARC
  5
628B
102
{ACAD_REACTORS
330
640B
102
}
330
2
100
AcDbEntity
  8
KIJUN
100
AcDbCircle
 10
13.44590838750901
 20
87.78215679386949
 30
0.0
 40
14.92395128681646
100
AcDbArc
 50
41.25456983118787
 51
201.1992272613457
  0
ARC
  5
628C
102
{ACAD_REACTORS
330
640B
102
}
330
2
100
AcDbEntity
  8
KIJUN
100
AcDbCircle
 10
-4.772539702791164
 20
80.79216353722916
 30
0.0
 40
5.474071552737443
100
AcDbArc
 50
195.3195158129133
 51
319.2141462319016
  0
ARC
  5
628D
102
{ACAD_REACTORS
330
640B
102
}
330
2
100
AcDbEntity
  8
KIJUN
100
AcDbCircle
 10
11.5636586801379
 20
90.0657758627342
 30
0.0
 40
16.19770519626973
100
AcDbArc
 50
81.67181109239461
 51
221.1781095772504
  0
ARC
  5
628E
102
{ACAD_REACTORS
330
640B
102
}
330
2
100
AcDbEntity
  8
KIJUN
100
AcDbCircle
 10
13.71481483727393
 20
89.90469587870711
 30
0.0
 40
16.18914873056979
100
AcDbArc
 50
89.30996155677467
 51
209.0476460639768
  0
ARC
  5
628F
102
{ACAD_REACTORS
330
640B
102
}
330
2
100
AcDbEntity
  8
KIJUN
100
AcDbCircle
 10
83.84658062165408
 20
56.17397501275334
 30
0.0
 40
2.751067782969099
100
AcDbArc
 50
50.55491760408506
 51
157.332561743822
  0
ARC
  5
6290
102
{ACAD_REACTORS
330
640B
102
}
330
2
100
AcDbEntity
  8
KIJUN
100
AcDbCircle
 10
82.31571296335824
 20
55.50660389709506
 30
0.0
 40
2.0
100
AcDbArc
 50
120.255045712199
 51
152.6956834034869
  0
ARC
  5
6291
102
{ACAD_REACTORS
330
640B
102
}
330
2
100
AcDbEntity
  8
KIJUN
100
AcDbCircle
 10
76.65107186397108
 20
58.43088366549697
 30
0.0
 40
4.374917328776755
100
AcDbArc
 50
245.3502044886246
 51
332.695683403487
  0
ARC
  5
6292
102
{ACAD_REACTORS
330
640B
102
}
330
2
100
AcDbEntity
  8
KIJUN
100
AcDbCircle
 10
77.8872300942999
 20
58.65976860655706
 30
0.0
 40
5.201124623825466
100
AcDbArc
 50
89.61848620124463
 51
233.9500881611203
  0
ARC
  5
6293
102
{ACAD_REACTORS
330
640B
102
}
330
2
100
AcDbEntity
  8
KIJUN
100
AcDbCircle
 10
107.7462305406234
 20
77.50115212966523
 30
0.0
 40
35.67555118073125
100
AcDbArc
 50
151.4742834197784
 51
189.3688596803682
  0
ARC
  5
6294
102
{ACAD_REACTORS
330
640B
102
}
330
2
100
AcDbEntity
  8
KIJUN
100
AcDbCircle
 10
153.0435967693484
 20
51.6624261986758
 30
0.0
 40
82.95190093776531
100
AcDbArc
 50
145.8957919201103
 51
166.026172540751
  0
ARC
  5
6295
102
{ACAD_REACTORS
330
640B
102
}
330
2
100
AcDbEntity
  8
KIJUN
100
AcDbCircle
 10
76.67723758792135
 20
103.2855996410393
 30
0.0
 40
2.778422944433131
100
AcDbArc
 50
315.9668866422824
 51
177.6529452838366
  0
ARC
  5
6296
102
{ACAD_REACTORS
330
640B
102
}
330
2
100
AcDbEntity
  8
KIJUN
100
AcDbCircle
 10
22.60530448881036
 20
74.56053241891232
 30
0.0
 40
23.36681734291008
100
AcDbArc
 50
335.5633941194551
 51
16.11765700099525
  0
ARC
  5
6297
102
{ACAD_REACTORS
330
640B
102
}
330
2
100
AcDbEntity
  8
KIJUN
100
AcDbCircle
 10
52.00526481674206
 20
55.50660389709506
 30
0.0
 40
2.0
100
AcDbArc
 50
27.30431659651297
 51
59.74495428780098
  0
ARC
  5
6298
102
{ACAD_REACTORS
330
640B
102
}
330
2
100
AcDbEntity
  8
KIJUN
100
AcDbCircle
 10
50.47439715844712
 20
56.17397501275334
 30
0.0
 40
2.751067782969099
100
AcDbArc
 50
22.66743825617791
 51
129.4450823959149
  0
LINE
  5
6299
102
{ACAD_REACTORS
330
640B
102
}
330
2
100
AcDbEntity
  8
KIJUN
100
AcDbLine
 10
48.72653834354514
 20
58.29844283073956
 30
0.0
 11
44.99228531385667
 21
55.23563549509177
 31
0.0
  0
ARC
  5
629A
102
{ACAD_REACTORS
330
640B
102
}
330
2
100
AcDbEntity
  8
KIJUN
100
AcDbCircle
 10
45.00157254871782
 20
93.00021437320856
 30
0.0
 40
5.480877344001153
100
AcDbArc
 50
74.39282286236978
 51
208.2586705467879
  0
ARC
  5
629B
102
{ACAD_REACTORS
330
640B
102
}
330
2
100
AcDbEntity
  8
KIJUN
100
AcDbCircle
 10
57.66990591612785
 20
58.43088366549697
 30
0.0
 40
4.374917328776755
100
AcDbArc
 50
207.3043165965129
 51
294.6497955113754
  0
ARC
  5
629C
102
{ACAD_REACTORS
330
640B
102
}
330
2
100
AcDbEntity
  8
KIJUN
100
AcDbCircle
 10
-36.18663193018165
 20
4.155479512828151
 30
0.0
 40
111.8586332619595
100
AcDbArc
 50
33.48823147724782
 51
43.42486398559382
  0
ARC
  5
629D
102
{ACAD_REACTORS
330
640B
102
}
330
2
100
AcDbEntity
  8
KIJUN
100
AcDbCircle
 10
47.62556027627397
 20
33.92038408004774
 30
0.0
 40
31.19939827179206
100
AcDbArc
 50
73.66761845621656
 51
96.89713550634785
  0
ARC
  5
629E
102
{ACAD_REACTORS
330
640B
102
}
330
2
100
AcDbEntity
  8
KIJUN
100
AcDbCircle
 10
-21.89793269164875
 20
51.6624261986758
 30
0.0
 40
82.95190093776531
100
AcDbArc
 50
13.97382745924895
 51
34.1042080798897
  0
ARC
  5
629F
102
{ACAD_REACTORS
330
640B
102
}
330
2
100
AcDbEntity
  8
KIJUN
100
AcDbCircle
 10
24.51785550774412
 20
80.11555240382893
 30
0.0
 40
35.10643244227782
100
AcDbArc
 50
346.1193941595771
 51
37.2277065183366
  0
ARC
  5
62A0
102
{ACAD_REACTORS
330
640B
102
}
330
2
100
AcDbEntity
  8
KIJUN
100
AcDbCircle
 10
12.01840191759083
 20
66.79063471364816
 30
0.0
 40
46.83801850279515
100
AcDbArc
 50
6.00860744669364
 51
42.06942809241226
  0
ARC
  5
62A1
102
{ACAD_REACTORS
330
640B
102
}
330
2
100
AcDbEntity
  8
KIJUN
100
AcDbCircle
 10
54.46842648977917
 20
103.2855996410393
 30
0.0
 40
2.778422944433131
100
AcDbArc
 50
2.347054716163268
 51
224.0331133577176
  0
ARC
  5
62A2
102
{ACAD_REACTORS
330
640B
102
}
330
2
100
AcDbEntity
  8
KIJUN
100
AcDbCircle
 10
-30.40224823388007
 20
34.79864012423389
 30
0.0
 40
89.85038842849268
100
AcDbArc
 50
19.21226607163401
 51
38.23441510121828
  0
ARC
  5
62A3
102
{ACAD_REACTORS
330
640B
102
}
330
2
100
AcDbEntity
  8
KIJUN
100
AcDbCircle
 10
56.43374768580088
 20
58.65976860655766
 30
0.0
 40
5.201124623824867
100
AcDbArc
 50
306.0499118388595
 51
90.38151379876072
  0
ARC
  5
62A4
102
{ACAD_REACTORS
330
640B
102
}
330
2
100
AcDbEntity
  8
KIJUN
100
AcDbCircle
 10
129.812917252475
 20
88.09654143491901
 30
0.0
 40
62.31574909758228
100
AcDbArc
 50
165.1371133935212
 51
193.4833770650596
  0
ARC
  5
62A5
102
{ACAD_REACTORS
330
640B
102
}
330
2
100
AcDbEntity
  8
KIJUN
100
AcDbCircle
 10
109.5890005131591
 20
89.1142804685619
 30
0.0
 40
43.26436346814372
100
AcDbArc
 50
156.8464774835744
 51
201.0608961707388
  0
ARC
  5
62A6
102
{ACAD_REACTORS
330
640B
102
}
330
2
100
AcDbEntity
  8
KIJUN
100
AcDbCircle
 10
21.55666356454003
 20
89.1142804685619
 30
0.0
 40
43.26436346814372
100
AcDbArc
 50
338.9391038292611
 51
23.15352251642554
  0
ARC
  5
62A7
102
{ACAD_REACTORS
330
640B
102
}
330
2
100
AcDbEntity
  8
KIJUN
100
AcDbCircle
 10
1.332746825225058
 20
88.09654143491901
 30
0.0
 40
62.31574909758228
100
AcDbArc
 50
346.5166229349403
 51
14.86288660647882
  0
ARC
  5
62A8
102
{ACAD_REACTORS
330
640B
102
}
330
2
100
AcDbEntity
  8
KIJUN
100
AcDbCircle
 10
13.42436038792311
 20
81.23127973696625
 30
0.0
 40
49.10836033076989
100
AcDbArc
 50
351.0209780466727
 51
26.83431225678677
  0
ARC
  5
62A9
102
{ACAD_REACTORS
330
640B
102
}
330
2
100
AcDbEntity
  8
KIJUN
100
AcDbCircle
 10
23.39943353707622
 20
77.50115212966523
 30
0.0
 40
35.67555118073125
100
AcDbArc
 50
350.6311403196314
 51
28.52571658022148
  0
ARC
  5
62AA
102
{ACAD_REACTORS
330
640B
102
}
330
2
100
AcDbEntity
  8
KIJUN
100
AcDbCircle
 10
59.27404284715203
 20
104.5639511580655
 30
0.0
 40
2.339912047156408
100
AcDbArc
 50
348.0875213887356
 51
209.8477876859175
  0
ARC
  5
62AB
102
{ACAD_REACTORS
330
640B
102
}
330
2
100
AcDbEntity
  8
KIJUN
100
AcDbCircle
 10
66.84751273148913
 20
63.98058812754914
 30
0.0
 40
11.46411442252853
100
AcDbArc
 50
232.997141652033
 51
263.6161529705198
  0
ARC
  5
62AC
102
{ACAD_REACTORS
330
640B
102
}
330
2
100
AcDbEntity
  8
KIJUN
100
AcDbCircle
 10
119.1272621601092
 20
66.79063471364816
 30
0.0
 40
46.83801850279515
100
AcDbArc
 50
137.9305719075877
 51
173.9913925533063
  0
ARC
  5
62AD
102
{ACAD_REACTORS
330
640B
102
}
330
2
100
AcDbEntity
  8
KIJUN
100
AcDbCircle
 10
117.721303689776
 20
81.23127973696625
 30
0.0
 40
49.10836033076989
100
AcDbArc
 50
153.1656877432132
 51
188.9790219533273
  0
ARC
  5
62AE
102
{ACAD_REACTORS
330
640B
102
}
330
2
100
AcDbEntity
  8
KIJUN
100
AcDbCircle
 10
106.6278085699559
 20
80.11555240382893
 30
0.0
 40
35.10643244227782
100
AcDbArc
 50
142.7722934816634
 51
193.8806058404228
  0
ARC
  5
62AF
102
{ACAD_REACTORS
330
640B
102
}
330
2
100
AcDbEntity
  8
KIJUN
100
AcDbCircle
 10
64.29815134621094
 20
63.98058812754914
 30
0.0
 40
11.46411442252853
100
AcDbArc
 50
276.3838470294802
 51
320.1351626980649
  0
ARC
  5
62B0
102
{ACAD_REACTORS
330
640B
102
}
330
2
100
AcDbEntity
  8
KIJUN
100
AcDbCircle
 10
71.87162123054804
 20
104.5639511580655
 30
0.0
 40
2.339912047156408
100
AcDbArc
 50
330.1522123140825
 51
191.912478611264
  0
ARC
  5
62B4
102
{ACAD_REACTORS
330
640B
102
}
330
2
100
AcDbEntity
  8
KIJUN
100
AcDbCircle
 10
204.4466346267546
 20
79.41297582219295
 30
0.0
 40
23.16244442604674
100
AcDbArc
 50
223.0913205530352
 51
298.0443342718466
  0
ARC
  5
62B5
102
{ACAD_REACTORS
330
640B
102
}
330
2
100
AcDbEntity
  8
KIJUN
100
AcDbCircle
 10
200.3860152684162
 20
72.58199100244492
 30
0.0
 40
20.63328527498633
100
AcDbArc
 50
237.3727016957292
 51
313.0223452508212
  0
ARC
  5
62B6
102
{ACAD_REACTORS
330
640B
102
}
330
2
100
AcDbEntity
  8
KIJUN
100
AcDbCircle
 10
203.9136602464498
 20
78.94024367705315
 30
0.0
 40
20.51303371071533
100
AcDbArc
 50
196.888035686759
 51
290.9219512701294
  0
ARC
  5
62B7
102
{ACAD_REACTORS
330
640B
102
}
330
2
100
AcDbEntity
  8
KIJUN
100
AcDbCircle
 10
104.0358081051972
 20
82.10320724680377
 30
0.0
 40
30.62949007494215
100
AcDbArc
 50
241.3040203348805
 51
358.9985523992031
  0
ARC
  5
62B8
102
{ACAD_REACTORS
330
640B
102
}
330
2
100
AcDbEntity
  8
KIJUN
100
AcDbCircle
 10
139.0935174828919
 20
80.79216353722916
 30
0.0
 40
5.474071552737443
100
AcDbArc
 50
220.785853768098
 51
344.6804841870867
  0
ARC
  5
62B9
102
{ACAD_REACTORS
330
640B
102
}
330
2
100
AcDbEntity
  8
KIJUN
100
AcDbCircle
 10
123.176877834228
 20
87.019554066635
 30
0.0
 40
22.08500216818262
100
AcDbArc
 50
0.7875864689628161
 51
56.94394297682976
  0
ARC
  5
62BA
102
{ACAD_REACTORS
330
640B
102
}
330
2
100
AcDbEntity
  8
KIJUN
100
AcDbCircle
 10
120.994684130891
 20
74.36249376924696
 30
0.0
 40
33.49794662086728
100
AcDbArc
 50
6.761599035411816
 51
58.48665454212158
  0
ARC
  5
62BB
102
{ACAD_REACTORS
330
640B
102
}
330
2
100
AcDbEntity
  8
KIJUN
100
AcDbCircle
 10
155.7757106294393
 20
75.54061309799681
 30
0.0
 40
12.02082356137907
100
AcDbArc
 50
161.5450842431856
 51
228.2242920259318
  0
ARC
  5
62BC
102
{ACAD_REACTORS
330
640B
102
}
330
2
100
AcDbEntity
  8
KIJUN
100
AcDbCircle
 10
98.26639749416607
 20
8.161646868254749
 30
0.0
 40
105.991685988277
100
AcDbArc
 50
56.54777322516047
 51
74.53220612563891
  0
ARC
  5
62BD
102
{ACAD_REACTORS
330
640B
102
}
330
2
100
AcDbEntity
  8
KIJUN
100
AcDbCircle
 10
122.7573190999624
 20
90.0657758627342
 30
0.0
 40
16.19770519626973
100
AcDbArc
 50
318.8218904227495
 51
98.3281889076054
  0
ARC
  5
62BF
102
{ACAD_REACTORS
330
640B
102
}
330
2
100
AcDbEntity
  8
KIJUN
100
AcDbCircle
 10
120.8750693925899
 20
87.78215679386949
 30
0.0
 40
14.92395128681646
100
AcDbArc
 50
338.8007727386542
 51
138.7454301688121
  0
ARC
  5
62C0
102
{ACAD_REACTORS
330
640B
102
}
330
2
100
AcDbEntity
  8
KIJUN
100
AcDbCircle
 10
92.74757091057699
 20
89.66247465098717
 30
0.0
 40
1.924911490994911
100
AcDbArc
 50
37.28672562067168
 51
157.3010612195096
  0
ARC
  5
62C1
102
{ACAD_REACTORS
330
640B
102
}
330
2
100
AcDbEntity
  8
KIJUN
100
AcDbCircle
 10
109.9064830181801
 20
75.26226489733677
 30
0.0
 40
2.465122738332798
100
AcDbArc
 50
97.91954495259625
 51
208.927745668219
  0
ARC
  5
62C2
102
{ACAD_REACTORS
330
640B
102
}
330
2
100
AcDbEntity
  8
KIJUN
100
AcDbCircle
 10
110.205784368647
 20
73.85995984416092
 30
0.0
 40
3.896659521528208
100
AcDbArc
 50
199.6405024944953
 51
99.43765347387641
  0
ARC
  5
62C3
102
{ACAD_REACTORS
330
640B
102
}
330
2
100
AcDbEntity
  8
KIJUN
100
AcDbCircle
 10
116.0461025675513
 20
67.45407047578005
 30
0.0
 40
23.36021681185318
100
AcDbArc
 50
37.16994737195778
 51
130.556832547941
  0
ARC
  5
62C4
102
{ACAD_REACTORS
330
640B
102
}
330
2
100
AcDbEntity
  8
KIJUN
100
AcDbCircle
 10
-774.710735243395
 20
707.6003722520506
 30
0.0
 40
1074.243311951537
100
AcDbArc
 50
324.5928553742664
 51
325.4234376731508
  0
ARC
  5
62C5
102
{ACAD_REACTORS
330
640B
102
}
330
2
100
AcDbEntity
  8
KIJUN
100
AcDbCircle
 10
120.606162942825
 20
89.90469587870711
 30
0.0
 40
16.18914873056979
100
AcDbArc
 50
330.9523539360231
 51
90.69003844322532
  0
ARC
  5
62C6
102
{ACAD_REACTORS
330
640B
102
}
330
2
100
AcDbEntity
  8
KIJUN
100
AcDbCircle
 10
118.3872653513122
 20
61.37113254127621
 30
0.0
 40
48.17859766108746
100
AcDbArc
 50
24.43602399204353
 51
41.07981697087723
  0
ARC
  5
62C7
102
{ACAD_REACTORS
330
640B
102
}
330
2
100
AcDbEntity
  8
KIJUN
100
AcDbCircle
 10
132.2115825200953
 20
63.75788007032986
 30
0.0
 40
36.45027127333936
100
AcDbArc
 50
20.98038729622493
 51
48.22580522754507
  0
ARC
  5
62C8
102
{ACAD_REACTORS
330
640B
102
}
330
2
100
AcDbEntity
  8
KIJUN
100
AcDbCircle
 10
153.110213012746
 20
79.16395620093272
 30
0.0
 40
9.386616624424917
100
AcDbArc
 50
270.4813807077921
 51
13.1630657599308
  0
ARC
  5
62C9
102
{ACAD_REACTORS
330
640B
102
}
330
2
100
AcDbEntity
  8
KIJUN
100
AcDbCircle
 10
183.9614474210411
 20
121.4222413820056
 30
0.0
 40
36.87709051132806
100
AcDbArc
 50
222.3171009751482
 51
270.4079203838929
  0
ARC
  5
62CA
102
{ACAD_REACTORS
330
640B
102
}
330
2
100
AcDbEntity
  8
KIJUN
100
AcDbCircle
 10
146.4774540823218
 20
74.95173520145113
 30
0.0
 40
8.474479494111763
100
AcDbArc
 50
278.754247176075
 51
23.31996589653371
  0
ARC
  5
62CB
102
{ACAD_REACTORS
330
640B
102
}
330
2
100
AcDbEntity
  8
KIJUN
100
AcDbCircle
 10
188.4427498165919
 20
99.6388309145508
 30
0.0
 40
27.07762058408083
100
AcDbArc
 50
208.746679994022
 51
247.256911189063
  0
ARC
  5
62CC
102
{ACAD_REACTORS
330
640B
102
}
330
2
100
AcDbEntity
  8
KIJUN
100
AcDbCircle
 10
-528.8237030132977
 20
-238.4973542472622
 30
0.0
 40
773.0688239958833
100
AcDbArc
 50
23.66612177172966
 51
23.89688583175266
  0
ARC
  5
62CD
102
{ACAD_REACTORS
330
640B
102
}
330
2
100
AcDbEntity
  8
KIJUN
100
AcDbCircle
 10
186.2359389086182
 20
106.1984498497755
 30
0.0
 40
27.52939728111273
100
AcDbArc
 50
228.059076193944
 51
268.6442860656482
  0
ARC
  5
62CE
102
{ACAD_REACTORS
330
640B
102
}
330
2
100
AcDbEntity
  8
KIJUN
100
AcDbCircle
 10
184.9579492711327
 20
88.12147307599252
 30
0.0
 40
15.15924011954284
100
AcDbArc
 50
242.5696806177139
 51
289.29605077913
  0
ARC
  5
62CF
102
{ACAD_REACTORS
330
640B
102
}
330
2
100
AcDbEntity
  8
KIJUN
100
AcDbCircle
 10
184.373649459767
 20
73.13782354806915
 30
0.0
 40
5.669763988112486
100
AcDbArc
 50
9.398182627875572
 51
91.51252209202391
  0
ARC
  5
62D0
102
{ACAD_REACTORS
330
640B
102
}
330
2
100
AcDbEntity
  8
KIJUN
100
AcDbCircle
 10
184.1863998999401
 20
86.52806322270715
 30
0.0
 40
7.974833459008312
100
AcDbArc
 50
268.475968920282
 51
311.473503781038
  0
ARC
  5
62D1
102
{ACAD_REACTORS
330
640B
102
}
330
2
100
AcDbEntity
  8
KIJUN
100
AcDbCircle
 10
181.7171889687161
 20
75.99882087522155
 30
0.0
 40
8.907289254049711
100
AcDbArc
 50
32.63494794968786
 51
73.65425391716339
  0
ARC
  5
62D2
102
{ACAD_REACTORS
330
640B
102
}
330
2
100
AcDbEntity
  8
KIJUN
100
AcDbCircle
 10
168.8041530805512
 20
65.0613474431409
 30
0.0
 40
12.42352230233912
100
AcDbArc
 50
323.0360505693655
 51
32.94310132781351
  0
ARC
  5
62D3
102
{ACAD_REACTORS
330
640B
102
}
330
2
100
AcDbEntity
  8
KIJUN
100
AcDbCircle
 10
183.2155279722974
 20
71.81042113927412
 30
0.0
 40
15.152146360945
100
AcDbArc
 50
197.2203639221002
 51
249.7924242441572
  0
ARC
  5
62D4
102
{ACAD_REACTORS
330
640B
102
}
330
2
100
AcDbEntity
  8
KIJUN
100
AcDbCircle
 10
140.8709587012799
 20
64.61834546721309
 30
0.0
 40
28.15077166851576
100
AcDbArc
 50
357.379748877071
 51
25.66083163825355
  0
ARC
  5
62D5
102
{ACAD_REACTORS
330
640B
102
}
330
2
100
AcDbEntity
  8
KIJUN
100
AcDbCircle
 10
172.1081684418041
 20
73.48217340239682
 30
0.0
 40
10.85705077654643
100
AcDbArc
 50
179.5667947819393
 51
253.3221328143481
  0
LINE
  5
62D6
102
{ACAD_REACTORS
330
640B
102
}
330
2
100
AcDbEntity
  8
KIJUN
100
AcDbLine
 10
189.2611233864532
 20
55.20472879421482
 30
0.0
 11
181.2276023352351
 21
65.01874447361949
 31
0.0
  0
LINE
  5
62D7
102
{ACAD_REACTORS
330
640B
102
}
330
2
100
AcDbEntity
  8
KIJUN
100
AcDbLine
 10
144.3730814969649
 20
79.34590519730727
 30
0.0
 11
145.2597935338772
 21
87.32312443883314
 31
0.0
  0
ARC
  5
62D8
102
{ACAD_REACTORS
330
640B
102
}
330
2
100
AcDbEntity
  8
KIJUN
100
AcDbCircle
 10
212.5186376378684
 20
62.24588931374023
 30
0.0
 40
2.992375428920571
100
AcDbArc
 50
268.6140656694587
 51
144.5380093804482
  0
ARC
  5
62D9
102
{ACAD_REACTORS
330
640B
102
}
330
2
100
AcDbEntity
  8
KIJUN
100
AcDbCircle
 10
211.4570290845204
 20
64.56032257322473
 30
0.0
 40
4.785620986844111
100
AcDbArc
 50
1.03728804364941
 51
327.6747087603155
  0
DIMENSION
  5
62DA
330
2
100
AcDbEntity
  8
SUNPOU
100
AcDbDimension
  2
*D5
 10
216.5728320388502
 20
142.4176355462473
 30
0.0
 11
65.57283203885027
 21
150.4176355462473
 31
0.0
 70
    32
 71
     5
 42
302.0
  3
STANDARD
100
AcDbAlignedDimension
 13
-85.42716796114975
 23
111.4737171718616
 33
0.0
 14
216.5728320388502
 24
109.4224477702546
 34
0.0
100
AcDbRotatedDimension
1001
ACAD
1000
DSTYLE
1002
{
1070
    41
1040
2.0
1070
    42
1040
10.0
1070
    44
1040
0.0
1070
    73
1070
     0
1070
    74
1070
     0
1070
    77
1070
     1
1070
   140
1040
10.0
1070
   141
1040
0.0
1070
   146
1040
0.064286
1070
   147
1040
3.0
1070
   176
1070
    60
1070
   177
1070
    70
1070
   178
1070
    60
1070
   271
1070
     0
1070
   272
1070
     0
1070
   340
1005
1C
1070
   342
1005
109
1002
}
  0
DIMENSION
  5
62E7
330
2
100
AcDbEntity
  8
SUNPOU
100
AcDbDimension
  2
*D6
 10
-112.5311197901296
 20
51.47371717186162
 30
0.0
 11
-120.5311197901296
 21
81.47371717186162
 31
0.0
 70
    32
 71
     5
 42
60.00000000000004
  3
STANDARD
100
AcDbAlignedDimension
 13
-85.42716796114975
 23
111.4737171718616
 33
0.0
 14
-86.42086172002109
 24
51.47371717186161
 34
0.0
 50
90.0
100
AcDbRotatedDimension
1001
ACAD
1000
DSTYLE
1002
{
1070
    41
1040
2.0
1070
    42
1040
10.0
1070
    44
1040
0.0
1070
    73
1070
     0
1070
    74
1070
     0
1070
    77
1070
     1
1070
   140
1040
10.0
1070
   141
1040
0.0
1070
   146
1040
0.064286
1070
   147
1040
3.0
1070
   176
1070
    60
1070
   177
1070
    70
1070
   178
1070
    60
1070
   271
1070
     0
1070
   272
1070
     0
1070
   340
1005
1C
1070
   342
1005
109
1002
}
  0
ARC
  5
6316
102
{ACAD_REACTORS
330
640B
102
}
330
2
100
AcDbEntity
  8
KIJUN
100
AcDbCircle
 10
19.1647644314213
 20
93.054055661821
 30
0.0
 40
17.39480176990206
100
AcDbArc
 50
34.18826164372467
 51
73.88807888319426
  0
ARC
  5
631E
102
{ACAD_REACTORS
330
640B
102
}
330
2
100
AcDbEntity
  8
KIJUN
100
AcDbCircle
 10
15.03450612522582
 20
70.3612769779399
 30
0.0
 40
40.40965059871832
100
AcDbArc
 50
77.1929166983002
 51
100.2480788067064
  0
ARC
  5
631F
102
{ACAD_REACTORS
330
640B
102
}
330
2
100
AcDbEntity
  8
KIJUN
100
AcDbCircle
 10
25.5601816482328
 20
87.97310555821047
 30
0.0
 40
29.91319250790272
100
AcDbArc
 50
12.6778473441202
 51
20.86796017625012
  0
ARC
  5
6320
102
{ACAD_REACTORS
330
640B
102
}
330
2
100
AcDbEntity
  8
KIJUN
100
AcDbCircle
 10
43.18602957163225
 20
94.55811133433103
 30
0.0
 40
11.09856169015742
100
AcDbArc
 50
21.51610080569687
 51
62.15575128800654
  0
ARC
  5
6321
102
{ACAD_REACTORS
330
640B
102
}
330
2
100
AcDbEntity
  8
KIJUN
100
AcDbCircle
 10
35.2969486834646
 20
82.05689132871398
 30
0.0
 40
25.86214170491297
100
AcDbArc
 50
59.63655604217877
 51
84.80062728435724
  0
ARC
  5
6322
102
{ACAD_REACTORS
330
640B
102
}
330
2
100
AcDbEntity
  8
KIJUN
100
AcDbCircle
 10
36.6910762116188
 20
96.35095744302661
 30
0.0
 40
11.50092824630347
100
AcDbArc
 50
85.26413768632613
 51
101.9627327994448
  0
ARC
  5
6323
102
{ACAD_REACTORS
330
640B
102
}
330
2
100
AcDbEntity
  8
KIJUN
100
AcDbCircle
 10
34.5263394077682
 20
104.6002802265336
 30
0.0
 40
3.009822475347984
100
AcDbArc
 50
94.17497695452073
 51
189.0850953111097
  0
ARC
  5
6324
102
{ACAD_REACTORS
330
640B
102
}
330
2
100
AcDbEntity
  8
KIJUN
100
AcDbCircle
 10
36.11177604647173
 20
104.8689255752691
 30
0.0
 40
4.617813245628053
100
AcDbArc
 50
189.2703754724718
 51
219.5109222027472
  0
ARC
  5
6325
102
{ACAD_REACTORS
330
640B
102
}
330
2
100
AcDbEntity
  8
KIJUN
100
AcDbCircle
 10
34.11821786993292
 20
103.6723079227809
 30
0.0
 40
2.344009741534833
100
AcDbArc
 50
227.9785709001799
 51
263.4532391730108
  0
ARC
  5
6326
102
{ACAD_REACTORS
330
640B
102
}
330
2
100
AcDbEntity
  8
KIJUN
100
AcDbCircle
 10
34.47730522311478
 20
105.3484836298651
 30
0.0
 40
4.053581924974608
100
AcDbArc
 50
261.1113566767563
 51
273.2851204957624
  0
ARC
  5
6327
102
{ACAD_REACTORS
330
640B
102
}
330
2
100
AcDbEntity
  8
KIJUN
100
AcDbCircle
 10
32.75144982644615
 20
122.6511726981877
 30
0.0
 40
21.43922044475988
100
AcDbArc
 50
275.2403964939519
 51
282.4581763234386
  0
ARC
  5
6328
102
{ACAD_REACTORS
330
640B
102
}
330
2
100
AcDbEntity
  8
KIJUN
100
AcDbCircle
 10
40.11166175052297
 20
90.0533394642162
 30
0.0
 40
11.97984999705845
100
AcDbArc
 50
90.26185923210011
 51
103.197967332822
  0
ARC
  5
6329
102
{ACAD_REACTORS
330
640B
102
}
330
2
100
AcDbEntity
  8
KIJUN
100
AcDbCircle
 10
39.62862616341946
 20
95.10567609817702
 30
0.0
 40
6.940614907114859
100
AcDbArc
 50
59.62533442794157
 51
86.46220440897081
  0
ARC
  5
632B
102
{ACAD_REACTORS
330
640B
102
}
330
2
100
AcDbEntity
  8
KIJUN
100
AcDbCircle
 10
32.01147793783197
 20
83.4460007733986
 30
0.0
 40
20.86243129738486
100
AcDbArc
 50
44.90520867390993
 51
57.76886440499993
  0
ARC
  5
632C
102
{ACAD_REACTORS
330
640B
102
}
330
2
100
AcDbEntity
  8
KIJUN
100
AcDbCircle
 10
114.9172400021385
 20
93.42611997118408
 30
0.0
 40
16.9889417603471
100
AcDbArc
 50
107.7375353327927
 51
146.3968411494857
  0
ARC
  5
632D
102
{ACAD_REACTORS
330
640B
102
}
330
2
100
AcDbEntity
  8
KIJUN
100
AcDbCircle
 10
119.5872246164703
 20
75.52911059892777
 30
0.0
 40
35.47213350876845
100
AcDbArc
 50
78.70629991583467
 51
106.1148686831001
  0
ARC
  5
632E
102
{ACAD_REACTORS
330
640B
102
}
330
2
100
AcDbEntity
  8
KIJUN
100
AcDbCircle
 10
105.5854824294677
 20
87.97310555821047
 30
0.0
 40
29.91319250790272
100
AcDbArc
 50
159.1320398237497
 51
167.3221526558799
  0
ARC
  5
632F
102
{ACAD_REACTORS
330
640B
102
}
330
2
100
AcDbEntity
  8
KIJUN
100
AcDbCircle
 10
87.95963450606828
 20
94.55811133433103
 30
0.0
 40
11.09856169015742
100
AcDbArc
 50
117.8442487119936
 51
158.4838991943032
  0
ARC
  5
6330
102
{ACAD_REACTORS
330
640B
102
}
330
2
100
AcDbEntity
  8
KIJUN
100
AcDbCircle
 10
95.84871539423593
 20
82.05689132871398
 30
0.0
 40
25.86214170491297
100
AcDbArc
 50
95.19937271564266
 51
120.3634439578217
  0
ARC
  5
6331
102
{ACAD_REACTORS
330
640B
102
}
330
2
100
AcDbEntity
  8
KIJUN
100
AcDbCircle
 10
94.45458786608174
 20
96.35095744302661
 30
0.0
 40
11.50092824630347
100
AcDbArc
 50
78.03726720055556
 51
94.73586231367379
  0
ARC
  5
6332
102
{ACAD_REACTORS
330
640B
102
}
330
2
100
AcDbEntity
  8
KIJUN
100
AcDbCircle
 10
96.61932466993233
 20
104.6002802265336
 30
0.0
 40
3.009822475347984
100
AcDbArc
 50
350.9149046888903
 51
85.82502304547903
  0
ARC
  5
6333
102
{ACAD_REACTORS
330
640B
102
}
330
2
100
AcDbEntity
  8
KIJUN
100
AcDbCircle
 10
95.03388803122879
 20
104.8689255752691
 30
0.0
 40
4.617813245628053
100
AcDbArc
 50
320.4890777972532
 51
350.7296245275283
  0
ARC
  5
6334
102
{ACAD_REACTORS
330
640B
102
}
330
2
100
AcDbEntity
  8
KIJUN
100
AcDbCircle
 10
97.02744620776762
 20
103.6723079227809
 30
0.0
 40
2.344009741534833
100
AcDbArc
 50
276.5467608269887
 51
312.0214290998197
  0
ARC
  5
6335
102
{ACAD_REACTORS
330
640B
102
}
330
2
100
AcDbEntity
  8
KIJUN
100
AcDbCircle
 10
96.66835885458574
 20
105.3484836298651
 30
0.0
 40
4.053581924974608
100
AcDbArc
 50
266.7148795042374
 51
278.8886433232444
  0
ARC
  5
6336
102
{ACAD_REACTORS
330
640B
102
}
330
2
100
AcDbEntity
  8
KIJUN
100
AcDbCircle
 10
98.39421425125438
 20
122.6511726981877
 30
0.0
 40
21.43922044475988
100
AcDbArc
 50
257.5418236765621
 51
264.7596035060482
  0
ARC
  5
6337
102
{ACAD_REACTORS
330
640B
102
}
330
2
100
AcDbEntity
  8
KIJUN
100
AcDbCircle
 10
91.03400232717756
 20
90.0533394642162
 30
0.0
 40
11.97984999705845
100
AcDbArc
 50
76.80203266717765
 51
89.73814076789926
  0
ARC
  5
6338
102
{ACAD_REACTORS
330
640B
102
}
330
2
100
AcDbEntity
  8
KIJUN
100
AcDbCircle
 10
91.51703791428108
 20
95.10567609817702
 30
0.0
 40
6.940614907114859
100
AcDbArc
 50
93.53779559102907
 51
120.3746655720577
  0
ARC
  5
6339
102
{ACAD_REACTORS
330
640B
102
}
330
2
100
AcDbEntity
  8
KIJUN
100
AcDbCircle
 10
99.13418613986856
 20
83.4460007733986
 30
0.0
 40
20.86243129738486
100
AcDbArc
 50
122.2311355950002
 51
135.0947913260899
  0
LINE
  5
633A
102
{ACAD_REACTORS
330
640B
102
}
330
2
100
AcDbEntity
  8
KIJUN
100
AcDbLine
 10
94.2790571641593
 20
90.82859390014339
 30
0.0
 11
93.60658038628935
 21
89.32768877668729
 31
0.0
  0
ARC
  5
633B
102
{ACAD_REACTORS
330
640B
102
}
330
2
100
AcDbEntity
  8
KIJUN
100
AcDbCircle
 10
21.30832239259685
 20
75.3531398531863
 30
0.0
 40
15.644783173819
100
AcDbArc
 50
302.3603292635955
 51
39.01668632442018
  0
ARC
  5
633C
102
{ACAD_REACTORS
330
640B
102
}
330
2
100
AcDbEntity
  8
KIJUN
100
AcDbCircle
 10
25.364550802551
 20
69.96539897791191
 30
0.0
 40
8.939180802319322
100
AcDbArc
 50
240.5220865319915
 51
298.8807400071746
  0
ARC
  5
633D
102
{ACAD_REACTORS
330
640B
102
}
330
2
100
AcDbEntity
  8
KIJUN
100
AcDbCircle
 10
26.34804496419676
 20
72.50173486029019
 30
0.0
 40
11.63774344461462
100
AcDbArc
 50
137.4729014934851
 51
242.452000616605
  0
ARC
  5
633E
102
{ACAD_REACTORS
330
640B
102
}
330
2
100
AcDbEntity
  8
KIJUN
100
AcDbCircle
 10
22.63743489203787
 20
76.20503092648078
 30
0.0
 40
6.403794570044716
100
AcDbArc
 50
74.30717312676343
 51
139.4508603578014
  0
ARC
  5
633F
102
{ACAD_REACTORS
330
640B
102
}
330
2
100
AcDbEntity
  8
KIJUN
100
AcDbCircle
 10
21.92972531524819
 20
73.53832627242216
 30
0.0
 40
9.162607819083296
100
AcDbArc
 50
43.81377546175754
 51
74.55705200669372
  0
ARC
  5
6340
102
{ACAD_REACTORS
330
640B
102
}
330
2
100
AcDbEntity
  8
KIJUN
100
AcDbCircle
 10
25.70002752963045
 20
77.20616717759821
 30
0.0
 40
3.902843867992905
100
AcDbArc
 50
348.0118846751576
 51
43.27869035025859
  0
ARC
  5
6341
102
{ACAD_REACTORS
330
640B
102
}
330
2
100
AcDbEntity
  8
KIJUN
100
AcDbCircle
 10
16.25132859667479
 20
80.06010794503167
 30
0.0
 40
13.76325840444783
100
AcDbArc
 50
326.9310985492904
 51
344.5582050717102
  0
ARC
  5
6342
102
{ACAD_REACTORS
330
640B
102
}
330
2
100
AcDbEntity
  8
KIJUN
100
AcDbCircle
 10
113.0126553875044
 20
75.35313985318641
 30
0.0
 40
15.644783173819
100
AcDbArc
 50
140.98331367558
 51
237.6396707364038
  0
ARC
  5
6343
102
{ACAD_REACTORS
330
640B
102
}
330
2
100
AcDbEntity
  8
KIJUN
100
AcDbCircle
 10
108.9564269775502
 20
69.96539897791201
 30
0.0
 40
8.93918080231932
100
AcDbArc
 50
241.1192599928259
 51
299.4779134680081
  0
ARC
  5
6344
102
{ACAD_REACTORS
330
640B
102
}
330
2
100
AcDbEntity
  8
KIJUN
100
AcDbCircle
 10
107.9729328159044
 20
72.50173486029028
 30
0.0
 40
11.63774344461462
100
AcDbArc
 50
297.547999383395
 51
42.5270985065154
  0
ARC
  5
6345
102
{ACAD_REACTORS
330
640B
102
}
330
2
100
AcDbEntity
  8
KIJUN
100
AcDbCircle
 10
111.6835428880633
 20
76.20503092648089
 30
0.0
 40
6.403794570044714
100
AcDbArc
 50
40.54913964219844
 51
105.692826873236
  0
ARC
  5
6346
102
{ACAD_REACTORS
330
640B
102
}
330
2
100
AcDbEntity
  8
KIJUN
100
AcDbCircle
 10
112.391252464853
 20
73.53832627242225
 30
0.0
 40
9.162607819083294
100
AcDbArc
 50
105.4429479933055
 51
136.1862245382422
  0
ARC
  5
6347
102
{ACAD_REACTORS
330
640B
102
}
330
2
100
AcDbEntity
  8
KIJUN
100
AcDbCircle
 10
108.6209502504708
 20
77.20616717759831
 30
0.0
 40
3.902843867992904
100
AcDbArc
 50
136.7213096497416
 51
191.9881153248422
  0
ARC
  5
6348
102
{ACAD_REACTORS
330
640B
102
}
330
2
100
AcDbEntity
  8
KIJUN
100
AcDbCircle
 10
118.0696491834264
 20
80.06010794503177
 30
0.0
 40
13.76325840444783
100
AcDbArc
 50
195.4417949282899
 51
213.0689014507099
  0
ARC
  5
6349
102
{ACAD_REACTORS
330
640B
102
}
330
2
100
AcDbEntity
  8
KIJUN
100
AcDbCircle
 10
65.25340870624621
 20
112.7160144266679
 30
0.0
 40
7.666590691308124
100
AcDbArc
 50
222.5316064900051
 51
239.2738897122356
  0
ARC
  5
634B
102
{ACAD_REACTORS
330
640B
102
}
330
2
100
AcDbEntity
  8
KIJUN
100
AcDbCircle
 10
66.10678696454965
 20
90.29225049970866
 30
0.0
 40
21.18819572890066
100
AcDbArc
 50
91.44404002879515
 51
102.7095295567758
  0
ARC
  5
634C
102
{ACAD_REACTORS
330
640B
102
}
330
2
100
AcDbEntity
  8
KIJUN
100
AcDbCircle
 10
62.36500413761318
 20
107.9551711568077
 30
0.0
 40
3.143691351201275
100
AcDbArc
 50
107.0128260830025
 51
157.9378294290121
  0
ARC
  5
634D
102
{ACAD_REACTORS
330
640B
102
}
330
2
100
AcDbEntity
  8
KIJUN
100
AcDbCircle
 10
60.77835071757899
 20
108.4536063863676
 30
0.0
 40
1.492031307106539
100
AcDbArc
 50
152.7840264517023
 51
218.0778489555859
  0
ARC
  5
634E
102
{ACAD_REACTORS
330
640B
102
}
330
2
100
AcDbEntity
  8
KIJUN
100
AcDbCircle
 10
65.89225537145434
 20
112.7160144266679
 30
0.0
 40
7.666590691308122
100
AcDbArc
 50
300.7261102877649
 51
317.4683935099945
  0
ARC
  5
634F
102
{ACAD_REACTORS
330
640B
102
}
330
2
100
AcDbEntity
  8
KIJUN
100
AcDbCircle
 10
65.30605932120463
 20
92.09736724950955
 30
0.0
 40
19.37818629274455
100
AcDbArc
 50
76.89299126541022
 51
89.21120411255547
  0
ARC
  5
6350
102
{ACAD_REACTORS
330
640B
102
}
330
2
100
AcDbEntity
  8
KIJUN
100
AcDbCircle
 10
68.74081010207034
 20
107.9273356892236
 30
0.0
 40
3.191096980491516
100
AcDbArc
 50
22.256607472526
 51
72.49872293546474
  0
ARC
  5
6351
102
{ACAD_REACTORS
330
640B
102
}
330
2
100
AcDbEntity
  8
KIJUN
100
AcDbCircle
 10
70.36731336012156
 20
108.4536063863676
 30
0.0
 40
1.492031307106539
100
AcDbArc
 50
321.9221510444139
 51
27.2159735482977
  0
ARC
  5
635B
102
{ACAD_REACTORS
330
640B
102
}
330
2
100
AcDbEntity
  8
KIJUN
100
AcDbCircle
 10
209.5470238993772
 20
62.51597815150663
 30
0.0
 40
7.025808139473038
100
AcDbArc
 50
314.4118922625089
 51
17.65635693392367
  0
ARC
  5
6367
102
{ACAD_REACTORS
330
640B
102
}
330
2
100
AcDbEntity
  8
KIJUN
100
AcDbCircle
 10
-81.37297356016782
 20
62.24588931374023
 30
0.0
 40
2.992375428920571
100
AcDbArc
 50
35.46199061955181
 51
271.3859343305413
  0
ARC
  5
6368
102
{ACAD_REACTORS
330
640B
102
}
330
2
100
AcDbEntity
  8
KIJUN
100
AcDbCircle
 10
-80.31136500681993
 20
64.56032257322473
 30
0.0
 40
4.785620986844111
100
AcDbArc
 50
212.3252912396842
 51
178.9627119563506
  0
ARC
  5
6369
102
{ACAD_REACTORS
330
640B
102
}
330
2
100
AcDbEntity
  8
KIJUN
100
AcDbCircle
 10
-78.40135982167669
 20
62.51597815150663
 30
0.0
 40
7.025808139473038
100
AcDbArc
 50
162.3436430660764
 51
225.5881077374907
  0
ENDSEC
  0
SECTION
  2
OBJECTS
  0
DICTIONARY
  5
1A
330
0
100
AcDbDictionary
281
     1
  3
ACAD_COLOR
350
144
  3
ACAD_GROUP
350
18
  3
ACAD_LAYOUT
350
58
  3
ACAD_MATERIAL
350
143
  3
ACAD_MLINESTYLE
350
19
  3
ACAD_PLOTSETTINGS
350
59
  3
ACAD_PLOTSTYLENAME
350
56
  3
ACAD_TABLESTYLE
350
145
  3
ACDBHEADERROUNDTRIPXREC
350
6413
  3
AcDbVariableDictionary
350
1D1
  0
DICTIONARY
  5
1B4
330
A
100
AcDbDictionary
280
     1
281
     1
  3
ACAD_LAYERFILTERS
360
6359
  3
ACLYDICTIONARY
360
6358
  0
DICTIONARY
  5
1578
330
2
100
AcDbDictionary
280
     1
281
     1
  3
ACAD_SORTENTS
360
1579
  0
DICTIONARY
  5
144
102
{ACAD_REACTORS
330
1A
102
}
330
1A
100
AcDbDictionary
281
     1
  0
DICTIONARY
  5
18
102
{ACAD_REACTORS
330
1A
102
}
330
1A
100
AcDbDictionary
281
     1
  3
*A1
350
CFC
  3
*A10
350
5075
  3
*A11
350
5141
  3
*A12
350
481A
  3
*A13
350
5167
  3
*A14
350
218C
  3
*A15
350
527D
  3
*A16
350
3FA3
  3
*A17
350
52B3
  3
*A18
350
3154
  3
*A19
350
327B
  3
*A2
350
2FBC
  3
*A20
350
32AA
  3
*A21
350
2FE9
  3
*A22
350
3650
  3
*A23
350
2862
  3
*A24
350
367C
  3
*A25
350
18ED
  3
*A26
350
19E5
  3
*A27
350
1F8A
  3
*A28
350
1682
  3
*A29
350
2108
  3
*A3
350
4989
  3
*A30
350
3732
  3
*A31
350
563B
  3
*A32
350
38C3
  3
*A33
350
39C3
  3
*A34
350
37CF
  3
*A35
350
2335
  3
*A36
350
3AB4
  3
*A37
350
3BBC
  3
*A38
350
58EE
  3
*A39
350
5A5E
  3
*A4
350
3D8C
  3
*A40
350
419F
  3
*A41
350
5AF5
  3
*A42
350
439B
  3
*A43
350
4590
  3
*A44
350
312A
  3
*A45
350
299B
  3
*A46
350
46F3
  3
*A47
350
61CC
  3
*A48
350
2C07
  3
*A49
350
2DB5
  3
*A5
350
4B40
  3
*A50
350
1827
  3
*A51
350
2E88
  3
*A52
350
640B
  3
*A6
350
15D1
  3
*A7
350
4CED
  3
*A8
350
3837
  3
*A9
350
4EB3
  0
DICTIONARY
  5
58
102
{ACAD_REACTORS
330
1A
102
}
330
1A
100
AcDbDictionary
281
     1
  3
Model
350
5A
  3
ﾚｲｱｳﾄ1
350
5B
  0
DICTIONARY
  5
143
102
{ACAD_REACTORS
330
1A
102
}
330
1A
100
AcDbDictionary
281
     1
  0
DICTIONARY
  5
19
102
{ACAD_REACTORS
330
1A
102
}
330
1A
100
AcDbDictionary
281
     1
  3
STANDARD
350
1D
  0
DICTIONARY
  5
59
102
{ACAD_REACTORS
330
1A
102
}
330
1A
100
AcDbDictionary
281
     1
  0
ACDBDICTIONARYWDFLT
  5
56
102
{ACAD_REACTORS
330
1A
102
}
330
1A
100
AcDbDictionary
281
     1
  3
Normal
350
57
100
AcDbDictionaryWithDefault
340
57
  0
DICTIONARY
  5
145
102
{ACAD_REACTORS
330
1A
102
}
330
1A
100
AcDbDictionary
281
     1
  3
Standard
350
146
  0
DICTIONARY
  5
6413
102
{ACAD_REACTORS
330
1A
102
}
330
1A
100
AcDbDictionary
281
     1
  0
DICTIONARY
  5
1D1
102
{ACAD_REACTORS
330
1A
102
}
330
1A
100
AcDbDictionary
281
     1
  3
CTABLESTYLE
350
1D2
  3
DIMASSOC
350
D03
  3
PROJECTNAME
350
D04
  0
DICTIONARY
  5
6359
102
{ACAD_REACTORS
330
1B4
102
}
330
1B4
100
AcDbDictionary
281
     1
  0
DICTIONARY
  5
6358
102
{ACAD_REACTORS
330
1B4
102
}
330
1B4
100
AcDbDictionary
281
     1
1001
ACAD
1000
<All
  0
SORTENTSTABLE
  5
1579
102
{ACAD_REACTORS
330
1578
102
}
330
1578
100
AcDbSortentsTable
330
2
331
20
  5
20
331
628D
  5
628D
331
6295
  5
6295
331
629D
  5
629D
331
6276
  5
6276
331
627E
  5
627E
331
21
  5
21
331
6286
  5
6286
331
628E
  5
628E
331
6296
  5
6296
331
625F
  5
625F
331
626F
  5
626F
331
6277
  5
6277
331
627F
  5
627F
331
6287
  5
6287
331
628F
  5
628F
331
6297
  5
6297
331
6260
  5
6260
331
6270
  5
6270
331
6278
  5
6278
331
23
  5
23
331
6280
  5
6280
331
6288
  5
6288
331
6290
  5
6290
331
6298
  5
6298
331
6261
  5
6261
331
6269
  5
6269
331
6279
  5
6279
331
6281
  5
6281
331
6289
  5
6289
331
6291
  5
6291
331
6299
  5
6299
331
6262
  5
6262
331
626A
  5
626A
331
6272
  5
6272
331
627A
  5
627A
331
6282
  5
6282
331
628A
  5
628A
331
6292
  5
6292
331
629A
  5
629A
331
626B
  5
626B
331
6273
  5
6273
331
627B
  5
627B
331
6283
  5
6283
331
628B
  5
628B
331
6293
  5
6293
331
625C
  5
625C
331
629B
  5
629B
331
1F
  5
1F
331
626C
  5
626C
331
6274
  5
6274
331
627C
  5
627C
331
6284
  5
6284
331
628C
  5
628C
331
6294
  5
6294
331
625D
  5
625D
331
629C
  5
629C
331
626D
  5
626D
331
6275
  5
6275
331
627D
  5
627D
  0
GROUP
  5
CFC
102
{ACAD_REACTORS
330
18
102
}
330
18
100
AcDbGroup
300

 70
     1
 71
     1
  0
GROUP
  5
5075
102
{ACAD_REACTORS
330
18
102
}
330
18
100
AcDbGroup
300

 70
     1
 71
     1
  0
GROUP
  5
5141
102
{ACAD_REACTORS
330
18
102
}
330
18
100
AcDbGroup
300

 70
     1
 71
     1
  0
GROUP
  5
481A
102
{ACAD_REACTORS
330
18
102
}
330
18
100
AcDbGroup
300

 70
     1
 71
     1
  0
GROUP
  5
5167
102
{ACAD_REACTORS
330
18
102
}
330
18
100
AcDbGroup
300

 70
     1
 71
     1
  0
GROUP
  5
218C
102
{ACAD_REACTORS
330
18
102
}
330
18
100
AcDbGroup
300

 70
     1
 71
     1
  0
GROUP
  5
527D
102
{ACAD_REACTORS
330
18
102
}
330
18
100
AcDbGroup
300

 70
     1
 71
     1
  0
GROUP
  5
3FA3
102
{ACAD_REACTORS
330
18
102
}
330
18
100
AcDbGroup
300

 70
     1
 71
     1
  0
GROUP
  5
52B3
102
{ACAD_REACTORS
330
18
102
}
330
18
100
AcDbGroup
300

 70
     1
 71
     1
  0
GROUP
  5
3154
102
{ACAD_REACTORS
330
18
102
}
330
18
100
AcDbGroup
300

 70
     1
 71
     1
  0
GROUP
  5
327B
102
{ACAD_REACTORS
330
18
102
}
330
18
100
AcDbGroup
300

 70
     1
 71
     1
  0
GROUP
  5
2FBC
102
{ACAD_REACTORS
330
18
102
}
330
18
100
AcDbGroup
300

 70
     1
 71
     1
  0
GROUP
  5
32AA
102
{ACAD_REACTORS
330
18
102
}
330
18
100
AcDbGroup
300

 70
     1
 71
     1
  0
GROUP
  5
2FE9
102
{ACAD_REACTORS
330
18
102
}
330
18
100
AcDbGroup
300

 70
     1
 71
     1
  0
GROUP
  5
3650
102
{ACAD_REACTORS
330
18
102
}
330
18
100
AcDbGroup
300

 70
     1
 71
     1
  0
GROUP
  5
2862
102
{ACAD_REACTORS
330
18
102
}
330
18
100
AcDbGroup
300

 70
     1
 71
     1
  0
GROUP
  5
367C
102
{ACAD_REACTORS
330
18
102
}
330
18
100
AcDbGroup
300

 70
     1
 71
     1
  0
GROUP
  5
18ED
102
{ACAD_REACTORS
330
18
102
}
330
18
100
AcDbGroup
300

 70
     1
 71
     1
  0
GROUP
  5
19E5
102
{ACAD_REACTORS
330
18
102
}
330
18
100
AcDbGroup
300

 70
     1
 71
     1
  0
GROUP
  5
1F8A
102
{ACAD_REACTORS
330
18
102
}
330
18
100
AcDbGroup
300

 70
     1
 71
     1
  0
GROUP
  5
1682
102
{ACAD_REACTORS
330
18
102
}
330
18
100
AcDbGroup
300

 70
     1
 71
     1
  0
GROUP
  5
2108
102
{ACAD_REACTORS
330
18
102
}
330
18
100
AcDbGroup
300

 70
     1
 71
     1
  0
GROUP
  5
4989
102
{ACAD_REACTORS
330
18
102
}
330
18
100
AcDbGroup
300

 70
     1
 71
     1
  0
GROUP
  5
3732
102
{ACAD_REACTORS
330
18
102
}
330
18
100
AcDbGroup
300

 70
     1
 71
     1
  0
GROUP
  5
563B
102
{ACAD_REACTORS
330
18
102
}
330
18
100
AcDbGroup
300

 70
     1
 71
     1
  0
GROUP
  5
38C3
102
{ACAD_REACTORS
330
18
102
}
330
18
100
AcDbGroup
300

 70
     1
 71
     1
  0
GROUP
  5
39C3
102
{ACAD_REACTORS
330
18
102
}
330
18
100
AcDbGroup
300

 70
     1
 71
     1
  0
GROUP
  5
37CF
102
{ACAD_REACTORS
330
18
102
}
330
18
100
AcDbGroup
300

 70
     1
 71
     1
  0
GROUP
  5
2335
102
{ACAD_REACTORS
330
18
102
}
330
18
100
AcDbGroup
300

 70
     1
 71
     1
  0
GROUP
  5
3AB4
102
{ACAD_REACTORS
330
18
102
}
330
18
100
AcDbGroup
300

 70
     1
 71
     1
  0
GROUP
  5
3BBC
102
{ACAD_REACTORS
330
18
102
}
330
18
100
AcDbGroup
300

 70
     1
 71
     1
  0
GROUP
  5
58EE
102
{ACAD_REACTORS
330
18
102
}
330
18
100
AcDbGroup
300

 70
     1
 71
     1
  0
GROUP
  5
5A5E
102
{ACAD_REACTORS
330
18
102
}
330
18
100
AcDbGroup
300

 70
     1
 71
     1
  0
GROUP
  5
3D8C
102
{ACAD_REACTORS
330
18
102
}
330
18
100
AcDbGroup
300

 70
     1
 71
     1
  0
GROUP
  5
419F
102
{ACAD_REACTORS
330
18
102
}
330
18
100
AcDbGroup
300

 70
     1
 71
     1
  0
GROUP
  5
5AF5
102
{ACAD_REACTORS
330
18
102
}
330
18
100
AcDbGroup
300

 70
     1
 71
     1
  0
GROUP
  5
439B
102
{ACAD_REACTORS
330
18
102
}
330
18
100
AcDbGroup
300

 70
     1
 71
     1
  0
GROUP
  5
4590
102
{ACAD_REACTORS
330
18
102
}
330
18
100
AcDbGroup
300

 70
     1
 71
     1
  0
GROUP
  5
312A
102
{ACAD_REACTORS
330
18
102
}
330
18
100
AcDbGroup
300

 70
     1
 71
     1
  0
GROUP
  5
299B
102
{ACAD_REACTORS
330
18
102
}
330
18
100
AcDbGroup
300

 70
     1
 71
     1
  0
GROUP
  5
46F3
102
{ACAD_REACTORS
330
18
102
}
330
18
100
AcDbGroup
300

 70
     1
 71
     1
  0
GROUP
  5
61CC
102
{ACAD_REACTORS
330
18
102
}
330
18
100
AcDbGroup
300

 70
     1
 71
     1
  0
GROUP
  5
2C07
102
{ACAD_REACTORS
330
18
102
}
330
18
100
AcDbGroup
300

 70
     1
 71
     1
  0
GROUP
  5
2DB5
102
{ACAD_REACTORS
330
18
102
}
330
18
100
AcDbGroup
300

 70
     1
 71
     1
  0
GROUP
  5
4B40
102
{ACAD_REACTORS
330
18
102
}
330
18
100
AcDbGroup
300

 70
     1
 71
     1
  0
GROUP
  5
1827
102
{ACAD_REACTORS
330
18
102
}
330
18
100
AcDbGroup
300

 70
     1
 71
     1
  0
GROUP
  5
2E88
102
{ACAD_REACTORS
330
18
102
}
330
18
100
AcDbGroup
300

 70
     1
 71
     1
  0
GROUP
  5
640B
102
{ACAD_REACTORS
330
18
102
}
330
18
100
AcDbGroup
300

 70
     1
 71
     1
340
6369
340
6368
340
6367
340
635B
340
6351
340
6350
340
634F
340
634E
340
634D
340
634C
340
634B
340
6349
340
6348
340
6347
340
6346
340
6345
340
6344
340
6343
340
6342
340
6341
340
6340
340
633F
340
633E
340
633D
340
633C
340
633B
340
633A
340
6339
340
6338
340
6337
340
6336
340
6335
340
6334
340
6333
340
6332
340
6331
340
6330
340
632F
340
632E
340
632D
340
632C
340
632B
340
6329
340
6328
340
6327
340
6326
340
6325
340
6324
340
6323
340
6322
340
6321
340
6320
340
631F
340
631E
340
6316
340
62D9
340
62D8
340
62D7
340
62D6
340
62D5
340
62D4
340
62D3
340
62D2
340
62D1
340
62D0
340
62CF
340
62CE
340
62CD
340
62CC
340
62CB
340
62CA
340
62C9
340
62C8
340
62C7
340
62C6
340
62C5
340
62C4
340
62C3
340
62C2
340
62C1
340
62C0
340
62BF
340
62BD
340
62BC
340
62BB
340
62BA
340
62B9
340
62B8
340
62B7
340
62B6
340
62B5
340
62B4
340
62B0
340
62AF
340
62AE
340
62AD
340
62AC
340
62AB
340
62AA
340
62A9
340
62A8
340
62A7
340
62A6
340
62A5
340
62A4
340
62A3
340
62A2
340
62A1
340
62A0
340
629F
340
629E
340
629D
340
629C
340
629B
340
629A
340
6299
340
6298
340
6297
340
6296
340
6295
340
6294
340
6293
340
6292
340
6291
340
6290
340
628F
340
628E
340
628D
340
628C
340
628B
340
628A
340
6289
340
6288
340
6287
340
6286
340
6284
340
6283
340
6282
340
6281
340
6280
340
627F
340
627E
340
627D
340
627C
340
627B
340
627A
340
6279
340
6278
340
6277
340
6276
340
6275
340
6274
340
6273
340
6272
340
6270
340
626F
340
626D
340
626C
340
626B
340
626A
340
6269
340
6262
340
6261
340
6260
340
625F
340
625D
340
625C
  0
GROUP
  5
15D1
102
{ACAD_REACTORS
330
18
102
}
330
18
100
AcDbGroup
300

 70
     1
 71
     1
  0
GROUP
  5
4CED
102
{ACAD_REACTORS
330
18
102
}
330
18
100
AcDbGroup
300

 70
     1
 71
     1
  0
GROUP
  5
3837
102
{ACAD_REACTORS
330
18
102
}
330
18
100
AcDbGroup
300

 70
     1
 71
     1
  0
GROUP
  5
4EB3
102
{ACAD_REACTORS
330
18
102
}
330
18
100
AcDbGroup
300

 70
     1
 71
     1
  0
LAYOUT
  5
5A
102
{ACAD_XDICTIONARY
360
6414
102
}
102
{ACAD_REACTORS
330
58
102
}
330
58
100
AcDbPlotSettings
  1

  2
none_device
  4
Letter_(8.50_x_11.00_Inches)
  6

 40
6.349999904632568
 41
6.349999904632568
 42
6.350006103515625
 43
6.350006103515625
 44
215.8999938964844
 45
279.3999938964844
 46
0.0
 47
0.0
 48
0.0
 49
0.0
140
0.0
141
0.0
142
1.0
143
76.54229552604896
 70
 11952
 72
     0
 73
     1
 74
     0
  7
monochrome.ctb
 75
     0
147
0.0130646721936851
148
9973.459437949902
149
463.9633285297773
100
AcDbLayout
  1
Model
 70
     1
 71
     0
 10
0.0
 20
0.0
 11
12.0
 21
9.0
 12
0.0
 22
0.0
 32
0.0
 14
0.0
 24
0.0
 34
0.0
 15
0.0
 25
0.0
 35
0.0
146
0.0
 13
0.0
 23
0.0
 33
0.0
 16
1.0
 26
0.0
 36
0.0
 17
0.0
 27
1.0
 37
0.0
 76
     0
330
2
1001
ACAD_PSEXT
1000
なし
1000
なし
1000
適切ではありません
1000
新しいプロッタ環境設定名を選択しない限り、レイアウトは印刷されません。
1070
     0
  0
LAYOUT
  5
5B
102
{ACAD_XDICTIONARY
360
6416
102
}
102
{ACAD_REACTORS
330
58
102
}
330
58
100
AcDbPlotSettings
  1

  2
なし
  4

  6

 40
0.0
 41
0.0
 42
0.0
 43
0.0
 44
0.0
 45
0.0
 46
0.0
 47
0.0
 48
0.0
 49
0.0
140
0.0
141
0.0
142
1.0
143
1.0
 70
   688
 72
     0
 73
     0
 74
     5
  7
monochrome.ctb
 75
    16
147
1.0
148
0.0
149
0.0
100
AcDbLayout
  1
ﾚｲｱｳﾄ1
 70
     1
 71
     1
 10
0.0
 20
0.0
 11
12.0
 21
9.0
 12
0.0
 22
0.0
 32
0.0
 14
1.000000000000000E+20
 24
1.000000000000000E+20
 34
1.000000000000000E+20
 15
-1.000000000000000E+20
 25
-1.000000000000000E+20
 35
-1.000000000000000E+20
146
0.0
 13
0.0
 23
0.0
 33
0.0
 16
1.0
 26
0.0
 36
0.0
 17
0.0
 27
1.0
 37
0.0
 76
     0
330
7
  0
MLINESTYLE
  5
1D
102
{ACAD_REACTORS
330
19
102
}
330
19
100
AcDbMlineStyle
  2
STANDARD
 70
     0
  3

 62
   256
 51
90.0
 52
90.0
 71
     2
 49
0.5
 62
   256
  6
BYLAYER
 49
-0.5
 62
   256
  6
BYLAYER
  0
ACDBPLACEHOLDER
  5
57
102
{ACAD_REACTORS
330
56
102
}
330
56
  0
TABLESTYLE
  5
146
102
{ACAD_REACTORS
330
145
102
}
330
145
100
AcDbTableStyle
  3
Standard
 70
     0
 71
     0
 40
0.06
 41
0.06
280
     0
281
     0
  7
STANDARD
140
0.18
170
     2
 62
     0
 63
     7
283
     0
274
    -2
284
     1
 64
     0
275
    -2
285
     1
 65
     0
276
    -2
286
     1
 66
     0
277
    -2
287
     1
 67
     0
278
    -2
288
     1
 68
     0
279
    -2
289
     1
 69
     0
  7
STANDARD
140
0.25
170
     5
 62
     0
 63
     7
283
     0
274
    -2
284
     1
 64
     0
275
    -2
285
     1
 65
     0
276
    -2
286
     1
 66
     0
277
    -2
287
     1
 67
     0
278
    -2
288
     1
 68
     0
279
    -2
289
     1
 69
     0
  7
STANDARD
140
0.18
170
     5
 62
     0
 63
     7
283
     0
274
    -2
284
     1
 64
     0
275
    -2
285
     1
 65
     0
276
    -2
286
     1
 66
     0
277
    -2
287
     1
 67
     0
278
    -2
288
     1
 68
     0
279
    -2
289
     1
 69
     0
  0
DICTIONARYVAR
  5
1D2
102
{ACAD_REACTORS
330
1D1
102
}
330
1D1
100
DictionaryVariables
280
     0
  1
STANDARD
  0
DICTIONARYVAR
  5
D03
102
{ACAD_REACTORS
330
1D1
102
}
330
1D1
100
DictionaryVariables
280
     0
  1
1
  0
DICTIONARYVAR
  5
D04
102
{ACAD_REACTORS
330
1D1
102
}
330
1D1
100
DictionaryVariables
280
     0
  1

  0
DICTIONARY
  5
6414
330
5A
100
AcDbDictionary
280
     1
281
     1
  3
ACAD_XREC_ROUNDTRIP
360
6415
  0
DICTIONARY
  5
6416
330
5B
100
AcDbDictionary
280
     1
281
     1
  3
ACAD_XREC_ROUNDTRIP
360
6417
  0
XRECORD
  5
6415
102
{ACAD_REACTORS
330
6414
102
}
330
6414
100
AcDbXrecord
280
     1
102
SHADEPLOT
 70
     0
102
SHADEPLOTRESLEVEL
 70
     2
102
SHADEPLOTCUSTOMDPI
 70
   300
  0
XRECORD
  5
6417
102
{ACAD_REACTORS
330
6416
102
}
330
6416
100
AcDbXrecord
280
     1
102
SHADEPLOT
 70
     0
102
SHADEPLOTRESLEVEL
 70
     2
102
SHADEPLOTCUSTOMDPI
 70
   300
  0
ENDSEC
  0
EOF
