  0
SECTION
  2
HEADER
  9
$ACADVER
  1
AC1015
  9
$ACADMAINTVER
 70
    20
  9
$DWGCODEPAGE
  3
ANSI_932
  9
$INSBASE
 10
922.019522
 20
-675.4306699999999
 30
0.0
  9
$EXTMIN
 10
-186.7751138967105
 20
-0.0104172931794437
 30
-0.0015258207003583
  9
$EXTMAX
 10
284.2029777508571
 20
176.9043504782486
 30
0.0000000349246037
  9
$LIMMIN
 10
0.0
 20
0.0
  9
$LIMMAX
 10
420.0
 20
297.0
  9
$ORTHOMODE
 70
     1
  9
$REGENMODE
 70
     1
  9
$FILLMODE
 70
     1
  9
$QTEXTMODE
 70
     0
  9
$MIRRTEXT
 70
     1
  9
$LTSCALE
 40
1.0
  9
$ATTMODE
 70
     1
  9
$TEXTSIZE
 40
30.0
  9
$TRACEWID
 40
0.05
  9
$TEXTSTYLE
  7
SUNPOU
  9
$CLAYER
  8
0
  9
$CELTYPE
  6
BYLAYER
  9
$CECOLOR
 62
   256
  9
$CELTSCALE
 40
1.0
  9
$DISPSILH
 70
     0
  9
$DIMSCALE
 40
1.0
  9
$DIMASZ
 40
2.0
  9
$DIMEXO
 40
10.0
  9
$DIMDLI
 40
0.38
  9
$DIMRND
 40
0.0
  9
$DIMDLE
 40
0.0
  9
$DIMEXE
 40
0.0
  9
$DIMTP
 40
0.0
  9
$DIMTM
 40
0.0
  9
$DIMTXT
 40
10.0
  9
$DIMCEN
 40
0.0
  9
$DIMTSZ
 40
0.0
  9
$DIMTOL
 70
     0
  9
$DIMLIM
 70
     0
  9
$DIMTIH
 70
     0
  9
$DIMTOH
 70
     0
  9
$DIMSE1
 70
     0
  9
$DIMSE2
 70
     0
  9
$DIMTAD
 70
     1
  9
$DIMZIN
 70
     0
  9
$DIMBLK
  1
Dot
  9
$DIMASO
 70
     1
  9
$DIMSHO
 70
     1
  9
$DIMPOST
  1

  9
$DIMAPOST
  1

  9
$DIMALT
 70
     0
  9
$DIMALTD
 70
     2
  9
$DIMALTF
 40
25.4
  9
$DIMLFAC
 40
1.0
  9
$DIMTOFL
 70
     0
  9
$DIMTVP
 40
0.0
  9
$DIMTIX
 70
     0
  9
$DIMSOXD
 70
     0
  9
$DIMSAH
 70
     0
  9
$DIMBLK1
  1

  9
$DIMBLK2
  1

  9
$DIMSTYLE
  2
STANDARD
  9
$DIMCLRD
 70
    60
  9
$DIMCLRE
 70
    70
  9
$DIMCLRT
 70
    60
  9
$DIMTFAC
 40
0.064286
  9
$DIMGAP
 40
3.0
  9
$DIMJUST
 70
     0
  9
$DIMSD1
 70
     0
  9
$DIMSD2
 70
     0
  9
$DIMTOLJ
 70
     1
  9
$DIMTZIN
 70
     0
  9
$DIMALTZ
 70
     0
  9
$DIMALTTZ
 70
     0
  9
$DIMUPT
 70
     0
  9
$DIMDEC
 70
     0
  9
$DIMTDEC
 70
     0
  9
$DIMALTU
 70
     2
  9
$DIMALTTD
 70
     2
  9
$DIMTXSTY
  7
SUNPOU
  9
$DIMAUNIT
 70
     0
  9
$DIMADEC
 70
     0
  9
$DIMALTRND
 40
0.0
  9
$DIMAZIN
 70
     0
  9
$DIMDSEP
 70
    46
  9
$DIMATFIT
 70
     3
  9
$DIMFRAC
 70
     0
  9
$DIMLDRBLK
  1

  9
$DIMLUNIT
 70
     2
  9
$DIMLWD
 70
    -2
  9
$DIMLWE
 70
    -2
  9
$DIMTMOVE
 70
     0
  9
$LUNITS
 70
     2
  9
$LUPREC
 70
     5
  9
$SKETCHINC
 40
0.1
  9
$FILLETRAD
 40
0.0
  9
$AUNITS
 70
     0
  9
$AUPREC
 70
     0
  9
$MENU
  1
acad
  9
$ELEVATION
 40
0.0
  9
$PELEVATION
 40
0.0
  9
$THICKNESS
 40
0.0
  9
$LIMCHECK
 70
     0
  9
$CHAMFERA
 40
0.0
  9
$CHAMFERB
 40
0.0
  9
$CHAMFERC
 40
0.0
  9
$CHAMFERD
 40
0.0
  9
$SKPOLY
 70
     0
  9
$TDCREATE
 40
2450623.654673033
  9
$TDUCREATE
 40
2450623.279673032
  9
$TDUPDATE
 40
2453865.402350590
  9
$TDUUPDATE
 40
2453865.027350590
  9
$TDINDWG
 40
0.4837690278
  9
$TDUSRTIMER
 40
0.4837688542
  9
$USRTIMER
 70
     1
  9
$ANGBASE
 50
0.0
  9
$ANGDIR
 70
     0
  9
$PDMODE
 70
     0
  9
$PDSIZE
 40
0.0
  9
$PLINEWID
 40
0.0
  9
$SPLFRAME
 70
     0
  9
$SPLINETYPE
 70
     6
  9
$SPLINESEGS
 70
     8
  9
$HANDSEED
  5
659B
  9
$SURFTAB1
 70
     6
  9
$SURFTAB2
 70
     6
  9
$SURFTYPE
 70
     6
  9
$SURFU
 70
     6
  9
$SURFV
 70
     6
  9
$UCSBASE
  2

  9
$UCSNAME
  2

  9
$UCSORG
 10
0.0
 20
0.0
 30
0.0
  9
$UCSXDIR
 10
1.0
 20
0.0
 30
0.0
  9
$UCSYDIR
 10
0.0
 20
1.0
 30
0.0
  9
$UCSORTHOREF
  2

  9
$UCSORTHOVIEW
 70
     0
  9
$UCSORGTOP
 10
0.0
 20
0.0
 30
0.0
  9
$UCSORGBOTTOM
 10
0.0
 20
0.0
 30
0.0
  9
$UCSORGLEFT
 10
0.0
 20
0.0
 30
0.0
  9
$UCSORGRIGHT
 10
0.0
 20
0.0
 30
0.0
  9
$UCSORGFRONT
 10
0.0
 20
0.0
 30
0.0
  9
$UCSORGBACK
 10
0.0
 20
0.0
 30
0.0
  9
$PUCSBASE
  2

  9
$PUCSNAME
  2

  9
$PUCSORG
 10
0.0
 20
0.0
 30
0.0
  9
$PUCSXDIR
 10
1.0
 20
0.0
 30
0.0
  9
$PUCSYDIR
 10
0.0
 20
1.0
 30
0.0
  9
$PUCSORTHOREF
  2

  9
$PUCSORTHOVIEW
 70
     0
  9
$PUCSORGTOP
 10
0.0
 20
0.0
 30
0.0
  9
$PUCSORGBOTTOM
 10
0.0
 20
0.0
 30
0.0
  9
$PUCSORGLEFT
 10
0.0
 20
0.0
 30
0.0
  9
$PUCSORGRIGHT
 10
0.0
 20
0.0
 30
0.0
  9
$PUCSORGFRONT
 10
0.0
 20
0.0
 30
0.0
  9
$PUCSORGBACK
 10
0.0
 20
0.0
 30
0.0
  9
$USERI1
 70
     0
  9
$USERI2
 70
     0
  9
$USERI3
 70
     0
  9
$USERI4
 70
     0
  9
$USERI5
 70
     0
  9
$USERR1
 40
0.0
  9
$USERR2
 40
0.0
  9
$USERR3
 40
0.0
  9
$USERR4
 40
0.0
  9
$USERR5
 40
0.0
  9
$WORLDVIEW
 70
     1
  9
$SHADEDGE
 70
     3
  9
$SHADEDIF
 70
    70
  9
$TILEMODE
 70
     1
  9
$MAXACTVP
 70
    16
  9
$PINSBASE
 10
0.0
 20
0.0
 30
0.0
  9
$PLIMCHECK
 70
     0
  9
$PEXTMIN
 10
1.000000000000000E+20
 20
1.000000000000000E+20
 30
1.000000000000000E+20
  9
$PEXTMAX
 10
-1.000000000000000E+20
 20
-1.000000000000000E+20
 30
-1.000000000000000E+20
  9
$PLIMMIN
 10
0.0
 20
0.0
  9
$PLIMMAX
 10
12.0
 20
9.0
  9
$UNITMODE
 70
     0
  9
$VISRETAIN
 70
     0
  9
$PLINEGEN
 70
     0
  9
$PSLTSCALE
 70
     1
  9
$TREEDEPTH
 70
  3020
  9
$CMLSTYLE
  2
STANDARD
  9
$CMLJUST
 70
     0
  9
$CMLSCALE
 40
1.0
  9
$PROXYGRAPHICS
 70
     1
  9
$MEASUREMENT
 70
     0
  9
$CELWEIGHT
370
    -1
  9
$ENDCAPS
280
     0
  9
$JOINSTYLE
280
     0
  9
$LWDISPLAY
290
     0
  9
$INSUNITS
 70
     0
  9
$HYPERLINKBASE
  1

  9
$STYLESHEET
  1
monochrome.ctb
  9
$XEDIT
290
     1
  9
$CEPSNTYPE
380
     0
  9
$PSTYLEMODE
290
     1
  9
$FINGERPRINTGUID
  2
{FB88A696-E29C-4009-92AF-A3599A8169D5}
  9
$VERSIONGUID
  2
{E76E8D62-418B-4020-972A-225B9F6D6C78}
  9
$EXTNAMES
290
     1
  9
$PSVPSCALE
 40
0.0
  9
$OLESTARTUP
290
     0
  0
ENDSEC
  0
SECTION
  2
CLASSES
  0
CLASS
  1
DICTIONARYVAR
  2
AcDbDictionaryVar
  3
ObjectDBX Classes
 90
        0
280
     0
281
     0
  0
CLASS
  1
ACDBDICTIONARYWDFLT
  2
AcDbDictionaryWithDefault
  3
ObjectDBX Classes
 90
        0
280
     0
281
     0
  0
CLASS
  1
ACDBPLACEHOLDER
  2
AcDbPlaceHolder
  3
ObjectDBX Classes
 90
        0
280
     0
281
     0
  0
CLASS
  1
LAYOUT
  2
AcDbLayout
  3
ObjectDBX Classes
 90
        0
280
     0
281
     0
  0
CLASS
  1
TABLESTYLE
  2
AcDbTableStyle
  3
ObjectDBX Classes
 90
     2047
280
     0
281
     0
  0
CLASS
  1
SORTENTSTABLE
  2
AcDbSortentsTable
  3
ObjectDBX Classes
 90
        0
280
     0
281
     0
  0
ENDSEC
  0
SECTION
  2
TABLES
  0
TABLE
  2
VPORT
  5
12
330
0
100
AcDbSymbolTable
 70
     8
  0
VPORT
  5
6595
330
12
100
AcDbSymbolTableRecord
100
AcDbViewportTableRecord
  2
*Active
 70
     0
 10
0.0
 20
0.0
 11
1.0
 21
1.0
 12
48.71393192707333
 22
88.44696659253457
 13
0.0
 23
0.0
 14
1.0
 24
1.0
 15
0.0
 25
0.0
 16
0.0
 26
0.0
 36
1.0
 17
0.0
 27
0.0
 37
0.0
 40
303.3720407833469
 41
1.560102301790281
 42
50.0
 43
0.0
 44
0.0
 50
0.0
 51
0.0
 71
     0
 72
 20000
 73
     1
 74
     1
 75
     0
 76
     0
 77
     0
 78
     0
281
     0
 65
     1
110
0.0
120
0.0
130
0.0
111
1.0
121
0.0
131
0.0
112
0.0
122
1.0
132
0.0
 79
     0
146
0.0
  0
ENDTAB
  0
TABLE
  2
LTYPE
  5
D
330
0
100
AcDbSymbolTable
 70
     2
  0
LTYPE
  5
E
330
D
100
AcDbSymbolTableRecord
100
AcDbLinetypeTableRecord
  2
BYBLOCK
 70
     0
  3

 72
    65
 73
     0
 40
0.0
  0
LTYPE
  5
F
330
D
100
AcDbSymbolTableRecord
100
AcDbLinetypeTableRecord
  2
BYLAYER
 70
     0
  3

 72
    65
 73
     0
 40
0.0
  0
LTYPE
  5
5
330
D
100
AcDbSymbolTableRecord
100
AcDbLinetypeTableRecord
  2
CONTINUOUS
 70
     0
  3
Solid line
 72
    65
 73
     0
 40
0.0
  0
ENDTAB
  0
TABLE
  2
LAYER
  5
A
102
{ACAD_XDICTIONARY
360
1B4
102
}
330
0
100
AcDbSymbolTable
 70
     6
  0
LAYER
  5
4
330
A
100
AcDbSymbolTableRecord
100
AcDbLayerTableRecord
  2
0
 70
     0
 62
     7
  6
CONTINUOUS
370
    -3
390
57
  0
LAYER
  5
25
330
A
100
AcDbSymbolTableRecord
100
AcDbLayerTableRecord
  2
KIJUN
 70
     0
 62
     7
  6
CONTINUOUS
370
    -3
390
57
  0
LAYER
  5
22
330
A
100
AcDbSymbolTableRecord
100
AcDbLayerTableRecord
  2
HOJO
 70
     0
 62
     3
  6
CONTINUOUS
370
    -3
390
57
  0
LAYER
  5
1B
330
A
100
AcDbSymbolTableRecord
100
AcDbLayerTableRecord
  2
WAKU
 70
     0
 62
     1
  6
CONTINUOUS
370
    -3
390
57
  0
LAYER
  5
31
330
A
100
AcDbSymbolTableRecord
100
AcDbLayerTableRecord
  2
DEFPOINTS
 70
     0
 62
     7
  6
CONTINUOUS
290
     0
370
    -3
390
57
  0
LAYER
  5
28
330
A
100
AcDbSymbolTableRecord
100
AcDbLayerTableRecord
  2
SUNPOU
 70
     0
 62
    70
  6
CONTINUOUS
370
    -3
390
57
  0
ENDTAB
  0
TABLE
  2
STYLE
  5
B
330
0
100
AcDbSymbolTable
 70
     3
  0
STYLE
  5
C
330
B
100
AcDbSymbolTableRecord
100
AcDbTextStyleTableRecord
  2
STANDARD
 70
     0
 40
0.0
 41
1.0
 50
0.0
 71
     0
 42
0.2
  3
txt
  4

  0
STYLE
  5
1C
330
B
100
AcDbSymbolTableRecord
100
AcDbTextStyleTableRecord
  2
SUNPOU
 70
     0
 40
0.0
 41
1.0
 50
0.0
 71
     0
 42
30.0
  3
txt
  4
bigfont
  0
STYLE
  5
14A
330
B
100
AcDbSymbolTableRecord
100
AcDbTextStyleTableRecord
  2
LIFE
 70
     0
 40
0.0
 41
0.7
 50
0.0
 71
     0
 42
10.0
  3
romans
  4
extfont
  0
ENDTAB
  0
TABLE
  2
VIEW
  5
10
330
0
100
AcDbSymbolTable
 70
     0
  0
ENDTAB
  0
TABLE
  2
UCS
  5
11
330
0
100
AcDbSymbolTable
 70
     0
  0
ENDTAB
  0
TABLE
  2
APPID
  5
14
330
0
100
AcDbSymbolTable
 70
    11
  0
APPID
  5
15
330
14
100
AcDbSymbolTableRecord
100
AcDbRegAppTableRecord
  2
ACAD
 70
     0
  0
APPID
  5
1D3
330
14
100
AcDbSymbolTableRecord
100
AcDbRegAppTableRecord
  2
ACAD_DSTYLE_DIMTEXT_FILL
 70
     0
  0
APPID
  5
1D4
330
14
100
AcDbSymbolTableRecord
100
AcDbRegAppTableRecord
  2
ACAD_DSTYLE_DIMEXT_LENGTH
 70
     0
  0
APPID
  5
1D5
330
14
100
AcDbSymbolTableRecord
100
AcDbRegAppTableRecord
  2
ACAD_DSTYLE_DIMEXT_ENABLED
 70
     0
  0
APPID
  5
1D6
330
14
100
AcDbSymbolTableRecord
100
AcDbRegAppTableRecord
  2
ACAD_DSTYLE_DIM_LINETYPE
 70
     0
  0
APPID
  5
1D7
330
14
100
AcDbSymbolTableRecord
100
AcDbRegAppTableRecord
  2
ACAD_DSTYLE_DIM_EXT1_LINETYPE
 70
     0
  0
APPID
  5
1D8
330
14
100
AcDbSymbolTableRecord
100
AcDbRegAppTableRecord
  2
ACAD_DSTYLE_DIM_EXT2_LINETYPE
 70
     0
  0
APPID
  5
294
330
14
100
AcDbSymbolTableRecord
100
AcDbRegAppTableRecord
  2
ACAD_DSTYLE_DIMJOGGED_JOGANGLE_SYMBOL
 70
     0
  0
APPID
  5
478
330
14
100
AcDbSymbolTableRecord
100
AcDbRegAppTableRecord
  2
ACAD_DSTYLE_DIMARC_LENGTH_SYMBOL
 70
     0
  0
APPID
  5
157B
330
14
100
AcDbSymbolTableRecord
100
AcDbRegAppTableRecord
  2
ACAD_EXEMPT_FROM_CAD_STANDARDS
 70
     0
  0
APPID
  5
5228
330
14
100
AcDbSymbolTableRecord
100
AcDbRegAppTableRecord
  2
ACAD_PSEXT
 70
     0
  0
ENDTAB
  0
TABLE
  2
DIMSTYLE
  5
16
330
0
100
AcDbSymbolTable
 70
     2
100
AcDbDimStyleTable
 71
     1
340
1E
  0
DIMSTYLE
105
1E
102
{ACAD_REACTORS
330
651B
330
6528
102
}
330
16
100
AcDbSymbolTableRecord
100
AcDbDimStyleTableRecord
  2
STANDARD
 70
     0
340
C
  0
ENDTAB
  0
TABLE
  2
BLOCK_RECORD
  5
1
330
0
100
AcDbSymbolTable
 70
    11
  0
BLOCK_RECORD
  5
2
102
{ACAD_XDICTIONARY
360
1578
102
}
330
1
100
AcDbSymbolTableRecord
100
AcDbBlockTableRecord
  2
*MODEL_SPACE
340
5A
  0
BLOCK_RECORD
  5
7
330
1
100
AcDbSymbolTableRecord
100
AcDbBlockTableRecord
  2
*PAPER_SPACE
340
5B
  0
BLOCK_RECORD
  5
109
330
1
100
AcDbSymbolTableRecord
100
AcDbBlockTableRecord
  2
_Dot
340
0
102
{BLKREFS
331
5FA4
331
5FA5
331
5FB1
331
5FB2
331
61BD
331
61BE
331
61C6
331
61C7
331
63F3
331
63F4
331
6405
331
6406
331
657D
331
657E
331
658F
331
6590
102
}
  0
BLOCK_RECORD
  5
62DB
330
1
100
AcDbSymbolTableRecord
100
AcDbBlockTableRecord
  2
*D5
340
0
  0
BLOCK_RECORD
  5
62E8
330
1
100
AcDbSymbolTableRecord
100
AcDbBlockTableRecord
  2
*D6
340
0
  0
BLOCK_RECORD
  5
651C
330
1
100
AcDbSymbolTableRecord
100
AcDbBlockTableRecord
  2
*D9
340
0
  0
BLOCK_RECORD
  5
6529
330
1
100
AcDbSymbolTableRecord
100
AcDbBlockTableRecord
  2
*D10
340
0
  0
ENDTAB
  0
ENDSEC
  0
SECTION
  2
BLOCKS
  0
BLOCK
  5
3
330
2
100
AcDbEntity
  8
0
100
AcDbBlockBegin
  2
*MODEL_SPACE
 70
     0
 10
0.0
 20
0.0
 30
0.0
  3
*MODEL_SPACE
  1

  0
ENDBLK
  5
6
330
2
100
AcDbEntity
  8
0
100
AcDbBlockEnd
  0
BLOCK
  5
8
330
7
100
AcDbEntity
 67
     1
  8
0
100
AcDbBlockBegin
  2
*PAPER_SPACE
 70
     0
 10
0.0
 20
0.0
 30
0.0
  3
*PAPER_SPACE
  1

  0
ENDBLK
  5
9
330
7
100
AcDbEntity
 67
     1
  8
0
100
AcDbBlockEnd
  0
BLOCK
  5
10C
330
109
100
AcDbEntity
  8
0
100
AcDbBlockBegin
  2
_Dot
 70
     0
 10
0.0
 20
0.0
 30
0.0
  3
_Dot
  1

  0
LWPOLYLINE
  5
10A
330
109
100
AcDbEntity
  8
0
  6
ByBlock
 62
     0
100
AcDbPolyline
 90
        2
 70
     1
 43
0.5
 10
-0.25
 20
0.0
 42
1.0
 10
0.25
 20
0.0
 42
1.0
  0
LINE
  5
10B
330
109
100
AcDbEntity
  8
0
  6
ByBlock
 62
     0
370
    -2
100
AcDbLine
 10
-0.5
 20
0.0
 30
0.0
 11
-1.0
 21
0.0
 31
0.0
  0
ENDBLK
  5
10D
330
109
100
AcDbEntity
  8
0
100
AcDbBlockEnd
  0
BLOCK
  5
62E5
330
62DB
100
AcDbEntity
  8
0
100
AcDbBlockBegin
  2
*D5
 70
     1
 10
0.0
 20
0.0
 30
0.0
  3
*D5
  1

  0
LINE
  5
6402
330
62DB
100
AcDbEntity
  8
SUNPOU
 62
    70
370
    -2
100
AcDbLine
 10
-85.42716796114975
 20
121.4737171718616
 30
0.0
 11
-85.42716796114975
 21
142.4176355462473
 31
0.0
  0
LINE
  5
6403
330
62DB
100
AcDbEntity
  8
SUNPOU
 62
    70
370
    -2
100
AcDbLine
 10
216.5728320388502
 20
119.4224477702546
 30
0.0
 11
216.5728320388502
 21
142.4176355462473
 31
0.0
  0
LINE
  5
6404
330
62DB
100
AcDbEntity
  8
SUNPOU
 62
    60
370
    -2
100
AcDbLine
 10
-83.42716796114975
 20
142.4176355462473
 30
0.0
 11
214.5728320388503
 21
142.4176355462473
 31
0.0
  0
INSERT
  5
6405
330
62DB
100
AcDbEntity
  8
SUNPOU
 62
    60
370
    -2
100
AcDbBlockReference
  2
_Dot
 10
-85.42716796114975
 20
142.4176355462473
 30
0.0
 41
2.0
 42
2.0
 43
2.0
 50
180.0
  0
INSERT
  5
6406
330
62DB
100
AcDbEntity
  8
SUNPOU
 62
    60
370
    -2
100
AcDbBlockReference
  2
_Dot
 10
216.5728320388502
 20
142.4176355462473
 30
0.0
 41
2.0
 42
2.0
 43
2.0
  0
MTEXT
  5
6407
330
62DB
100
AcDbEntity
  8
SUNPOU
 62
    60
100
AcDbMText
 10
65.57283203885027
 20
150.4176355462473
 30
0.0
 40
10.0
 41
0.0
 71
     5
 72
     1
  1
\A1;302
  7
SUNPOU
 73
     1
 44
1.0
1001
ACAD
1000
MTEXTBEGIN
1070
    73
1070
     1
1070
    44
1040
1.0
1070
    74
1070
     0
1000
MTEXTEND
  0
POINT
  5
6408
330
62DB
100
AcDbEntity
  8
DEFPOINTS
 62
     0
100
AcDbPoint
 10
-85.42716796114975
 20
111.4737171718616
 30
0.0
  0
POINT
  5
6409
330
62DB
100
AcDbEntity
  8
DEFPOINTS
 62
     0
100
AcDbPoint
 10
216.5728320388502
 20
109.4224477702546
 30
0.0
  0
POINT
  5
640A
330
62DB
100
AcDbEntity
  8
DEFPOINTS
 62
     0
100
AcDbPoint
 10
216.5728320388502
 20
142.4176355462473
 30
0.0
  0
ENDBLK
  5
62E6
330
62DB
100
AcDbEntity
  8
0
100
AcDbBlockEnd
  0
BLOCK
  5
62F2
330
62E8
100
AcDbEntity
  8
0
100
AcDbBlockBegin
  2
*D6
 70
     1
 10
0.0
 20
0.0
 30
0.0
  3
*D6
  1

  0
LINE
  5
63F0
330
62E8
100
AcDbEntity
  8
SUNPOU
 62
    70
370
    -2
100
AcDbLine
 10
-95.42716796114975
 20
111.4737171718616
 30
0.0
 11
-112.5311197901296
 21
111.4737171718616
 31
0.0
  0
LINE
  5
63F1
330
62E8
100
AcDbEntity
  8
SUNPOU
 62
    70
370
    -2
100
AcDbLine
 10
-96.42086172002109
 20
51.47371717186161
 30
0.0
 11
-112.5311197901296
 21
51.47371717186162
 31
0.0
  0
LINE
  5
63F2
330
62E8
100
AcDbEntity
  8
SUNPOU
 62
    60
370
    -2
100
AcDbLine
 10
-112.5311197901296
 20
109.4737171718616
 30
0.0
 11
-112.5311197901296
 21
53.47371717186162
 31
0.0
  0
INSERT
  5
63F3
330
62E8
100
AcDbEntity
  8
SUNPOU
 62
    60
370
    -2
100
AcDbBlockReference
  2
_Dot
 10
-112.5311197901296
 20
111.4737171718616
 30
0.0
 41
2.0
 42
2.0
 43
2.0
 50
90.0
  0
INSERT
  5
63F4
330
62E8
100
AcDbEntity
  8
SUNPOU
 62
    60
370
    -2
100
AcDbBlockReference
  2
_Dot
 10
-112.5311197901296
 20
51.47371717186162
 30
0.0
 41
2.0
 42
2.0
 43
2.0
 50
270.0
  0
MTEXT
  5
63F5
330
62E8
100
AcDbEntity
  8
SUNPOU
 62
    60
100
AcDbMText
 10
-120.5311197901296
 20
81.47371717186162
 30
0.0
 40
10.0
 41
0.0
 71
     5
 72
     1
  1
\A1;60
  7
SUNPOU
 11
0.0000000000000001
 21
1.0
 31
0.0
 73
     1
 44
1.0
1001
ACAD
1000
MTEXTBEGIN
1070
    73
1070
     1
1070
    44
1040
1.0
1070
    74
1070
     0
1000
MTEXTEND
  0
POINT
  5
63F6
330
62E8
100
AcDbEntity
  8
DEFPOINTS
 62
     0
100
AcDbPoint
 10
-85.42716796114975
 20
111.4737171718616
 30
0.0
  0
POINT
  5
63F7
330
62E8
100
AcDbEntity
  8
DEFPOINTS
 62
     0
100
AcDbPoint
 10
-86.42086172002109
 20
51.47371717186161
 30
0.0
  0
POINT
  5
63F8
330
62E8
100
AcDbEntity
  8
DEFPOINTS
 62
     0
100
AcDbPoint
 10
-112.5311197901296
 20
51.47371717186162
 30
0.0
  0
ENDBLK
  5
62F3
330
62E8
100
AcDbEntity
  8
0
100
AcDbBlockEnd
  0
BLOCK
  5
6526
330
651C
100
AcDbEntity
  8
0
100
AcDbBlockBegin
  2
*D9
 70
     1
 10
0.0
 20
0.0
 30
0.0
  3
*D9
  1

  0
LINE
  5
658C
330
651C
100
AcDbEntity
  8
SUNPOU
 62
    70
370
    -2
100
AcDbLine
 10
-136.8324480859921
 20
135.3095965443211
 30
0.0
 11
-136.8324480859921
 21
163.8989039910901
 31
0.0
  0
LINE
  5
658D
330
651C
100
AcDbEntity
  8
SUNPOU
 62
    70
370
    -2
100
AcDbLine
 10
283.1675519140079
 20
138.3714950539507
 30
0.0
 11
283.1675519140079
 21
163.8989039910901
 31
0.0
  0
LINE
  5
658E
330
651C
100
AcDbEntity
  8
SUNPOU
 62
    60
370
    -2
100
AcDbLine
 10
-134.8324480859921
 20
163.8989039910901
 30
0.0
 11
281.1675519140079
 21
163.8989039910901
 31
0.0
  0
INSERT
  5
658F
330
651C
100
AcDbEntity
  8
SUNPOU
 62
    60
370
    -2
100
AcDbBlockReference
  2
_Dot
 10
-136.8324480859921
 20
163.8989039910901
 30
0.0
 41
2.0
 42
2.0
 43
2.0
 50
180.0
  0
INSERT
  5
6590
330
651C
100
AcDbEntity
  8
SUNPOU
 62
    60
370
    -2
100
AcDbBlockReference
  2
_Dot
 10
283.1675519140079
 20
163.8989039910901
 30
0.0
 41
2.0
 42
2.0
 43
2.0
  0
MTEXT
  5
6591
330
651C
100
AcDbEntity
  8
SUNPOU
 62
    60
100
AcDbMText
 10
73.16755191400784
 20
171.8989039910901
 30
0.0
 40
10.0
 41
0.0
 71
     5
 72
     1
  1
\A1;420
  7
SUNPOU
 73
     1
 44
1.0
1001
ACAD
1000
MTEXTBEGIN
1070
    73
1070
     1
1070
    44
1040
1.0
1070
    74
1070
     0
1000
MTEXTEND
  0
POINT
  5
6592
330
651C
100
AcDbEntity
  8
DEFPOINTS
 62
     0
100
AcDbPoint
 10
-136.8324480859921
 20
125.3095965443211
 30
0.0
  0
POINT
  5
6593
330
651C
100
AcDbEntity
  8
DEFPOINTS
 62
     0
100
AcDbPoint
 10
283.1675519140079
 20
128.3714950539507
 30
0.0
  0
POINT
  5
6594
330
651C
100
AcDbEntity
  8
DEFPOINTS
 62
     0
100
AcDbPoint
 10
283.1675519140079
 20
163.8989039910901
 30
0.0
  0
ENDBLK
  5
6527
330
651C
100
AcDbEntity
  8
0
100
AcDbBlockEnd
  0
BLOCK
  5
6533
330
6529
100
AcDbEntity
  8
0
100
AcDbBlockBegin
  2
*D10
 70
     1
 10
0.0
 20
0.0
 30
0.0
  3
*D10
  1

  0
LINE
  5
657A
330
6529
100
AcDbEntity
  8
SUNPOU
 62
    70
370
    -2
100
AcDbLine
 10
-146.8324480859921
 20
125.3095965443211
 30
0.0
 11
-173.7561393165434
 21
125.3095965443211
 31
0.0
  0
LINE
  5
657B
330
6529
100
AcDbEntity
  8
SUNPOU
 62
    70
370
    -2
100
AcDbLine
 10
-147.8194886196872
 20
40.30959654432172
 30
0.0
 11
-173.7561393165434
 21
40.30959654432172
 31
0.0
  0
LINE
  5
657C
330
6529
100
AcDbEntity
  8
SUNPOU
 62
    60
370
    -2
100
AcDbLine
 10
-173.7561393165434
 20
123.3095965443211
 30
0.0
 11
-173.7561393165434
 21
42.30959654432172
 31
0.0
  0
INSERT
  5
657D
330
6529
100
AcDbEntity
  8
SUNPOU
 62
    60
370
    -2
100
AcDbBlockReference
  2
_Dot
 10
-173.7561393165434
 20
125.3095965443211
 30
0.0
 41
2.0
 42
2.0
 43
2.0
 50
90.0
  0
INSERT
  5
657E
330
6529
100
AcDbEntity
  8
SUNPOU
 62
    60
370
    -2
100
AcDbBlockReference
  2
_Dot
 10
-173.7561393165434
 20
40.30959654432172
 30
0.0
 41
2.0
 42
2.0
 43
2.0
 50
270.0
  0
MTEXT
  5
657F
330
6529
100
AcDbEntity
  8
SUNPOU
 62
    60
100
AcDbMText
 10
-181.7561393165435
 20
82.80959654432139
 30
0.0
 40
10.0
 41
0.0
 71
     5
 72
     1
  1
\A1;85
  7
SUNPOU
 11
0.0000000000000001
 21
1.0
 31
0.0
 73
     1
 44
1.0
1001
ACAD
1000
MTEXTBEGIN
1070
    73
1070
     1
1070
    44
1040
1.0
1070
    74
1070
     0
1000
MTEXTEND
  0
POINT
  5
6580
330
6529
100
AcDbEntity
  8
DEFPOINTS
 62
     0
100
AcDbPoint
 10
-136.8324480859921
 20
125.3095965443211
 30
0.0
  0
POINT
  5
6581
330
6529
100
AcDbEntity
  8
DEFPOINTS
 62
     0
100
AcDbPoint
 10
-137.8194886196872
 20
40.30959654432172
 30
0.0
  0
POINT
  5
6582
330
6529
100
AcDbEntity
  8
DEFPOINTS
 62
     0
100
AcDbPoint
 10
-173.7561393165434
 20
40.30959654432172
 30
0.0
  0
ENDBLK
  5
6534
330
6529
100
AcDbEntity
  8
0
100
AcDbBlockEnd
  0
ENDSEC
  0
SECTION
  2
ENTITIES
  0
LINE
  5
1F
330
2
100
AcDbEntity
  8
WAKU
100
AcDbLine
 10
0.0
 20
14.0
 30
0.0
 11
141.2350666841796
 21
14.0
 31
0.0
  0
LINE
  5
20
330
2
100
AcDbEntity
  8
WAKU
100
AcDbLine
 10
0.0
 20
0.0
 30
0.0
 11
141.2350666841796
 21
0.0
 31
0.0
  0
TEXT
  5
21
330
2
100
AcDbEntity
  8
HOJO
100
AcDbText
 10
9.653966000000025
 20
2.366626000000024
 30
0.0
 40
9.0
  1
TC373
  7
SUNPOU
100
AcDbText
  0
TEXT
  5
23
330
2
100
AcDbEntity
  8
HOJO
100
AcDbText
 10
75.65253479254602
 20
5.044386000000031
 30
0.0
 40
6.0
  1
420×85×8
  7
SUNPOU
100
AcDbText
  0
ARC
  5
649C
102
{ACAD_REACTORS
330
6570
102
}
330
2
100
AcDbEntity
  8
KIJUN
100
AcDbCircle
 10
63.52055534650177
 20
-319.5734883678588
 30
0.0
 40
416.9118962659783
100
AcDbArc
 50
71.83906409200282
 51
86.82737066613048
  0
ARC
  5
649D
102
{ACAD_REACTORS
330
6570
102
}
330
2
100
AcDbEntity
  8
KIJUN
100
AcDbCircle
 10
91.56144393929166
 20
-124.1653133272327
 30
0.0
 40
211.319316952948
100
AcDbArc
 50
61.80637581568777
 51
86.46504612535188
  0
ARC
  5
649E
102
{ACAD_REACTORS
330
6570
102
}
330
2
100
AcDbEntity
  8
KIJUN
100
AcDbCircle
 10
24.36202252962246
 20
-532.8543952418252
 30
0.0
 40
641.6824891368248
100
AcDbArc
 50
75.29584749276984
 51
83.70880169745591
  0
ARC
  5
649F
102
{ACAD_REACTORS
330
6570
102
}
330
2
100
AcDbEntity
  8
KIJUN
100
AcDbCircle
 10
93.26441335069899
 20
112.4025200461901
 30
0.0
 40
12.45632935062943
100
AcDbArc
 50
192.048331763216
 51
269.1033482715225
  0
ARC
  5
64A0
102
{ACAD_REACTORS
330
6570
102
}
330
2
100
AcDbEntity
  8
KIJUN
100
AcDbCircle
 10
121.9730812984422
 20
-532.8543952421215
 30
0.0
 40
641.6824891371241
100
AcDbArc
 50
96.29119830254506
 51
104.7041525072277
  0
ARC
  5
64A1
102
{ACAD_REACTORS
330
6570
102
}
330
2
100
AcDbEntity
  8
KIJUN
100
AcDbCircle
 10
53.07069047732397
 20
112.4025200461901
 30
0.0
 40
12.45632935062943
100
AcDbArc
 50
270.8966517284775
 51
347.951668236784
  0
ARC
  5
64A2
102
{ACAD_REACTORS
330
6570
102
}
330
2
100
AcDbEntity
  8
KIJUN
100
AcDbCircle
 10
56.02576797765573
 20
108.656898128239
 30
0.0
 40
13.76232942523228
100
AcDbArc
 50
328.4163174305338
 51
45.52544520113184
  0
ARC
  5
64A3
102
{ACAD_REACTORS
330
6570
102
}
330
2
100
AcDbEntity
  8
KIJUN
100
AcDbCircle
 10
90.30933585036541
 20
108.656898128239
 30
0.0
 40
13.76232942523228
100
AcDbArc
 50
134.4745547988681
 51
211.5836825694663
  0
ARC
  5
64A4
102
{ACAD_REACTORS
330
6570
102
}
330
2
100
AcDbEntity
  8
KIJUN
100
AcDbCircle
 10
-124.5596964608783
 20
120.4191242133972
 30
0.0
 40
76.61864292092975
100
AcDbArc
 50
276.5946280753001
 51
289.6130448900211
  0
ARC
  5
64A5
102
{ACAD_REACTORS
330
6570
102
}
330
2
100
AcDbEntity
  8
KIJUN
100
AcDbCircle
 10
-114.1401929581696
 20
102.2033696453571
 30
0.0
 40
53.07062881164814
100
AcDbArc
 50
258.5159911986897
 51
286.375263180567
  0
LINE
  5
64A6
102
{ACAD_REACTORS
330
6570
102
}
330
2
100
AcDbEntity
  8
KIJUN
100
AcDbLine
 10
-101.621022132688
 20
40.30959654432172
 30
0.0
 11
-119.2193783182763
 21
40.30959654432172
 31
0.0
  0
ARC
  5
64A7
102
{ACAD_REACTORS
330
6570
102
}
330
2
100
AcDbEntity
  8
KIJUN
100
AcDbCircle
 10
-100.8010842065303
 20
98.98439855648224
 30
0.0
 40
45.75998847681468
100
AcDbArc
 50
242.3974496312438
 51
260.8672445154001
  0
ARC
  5
64A8
102
{ACAD_REACTORS
330
6570
102
}
330
2
100
AcDbEntity
  8
KIJUN
100
AcDbCircle
 10
-82.14598180448845
 20
118.6883648497942
 30
0.0
 40
57.47763933491678
100
AcDbArc
 50
237.6002096442563
 51
268.3463311299022
  0
LINE
  5
64A9
102
{ACAD_REACTORS
330
6570
102
}
330
2
100
AcDbEntity
  8
KIJUN
100
AcDbLine
 10
-106.5836601697308
 20
79.09728881449416
 30
0.0
 11
-110.1963165086143
 21
78.83938266867971
 31
0.0
  0
LINE
  5
64AA
102
{ACAD_REACTORS
330
6570
102
}
330
2
100
AcDbEntity
  8
KIJUN
100
AcDbLine
 10
-120.5509494636142
 20
44.79971153239126
 30
0.0
 11
-121.1324060752584
 21
42.89297018189688
 31
0.0
  0
ARC
  5
64AB
102
{ACAD_REACTORS
330
6570
102
}
330
2
100
AcDbEntity
  8
KIJUN
100
AcDbCircle
 10
-119.2193783182763
 20
42.30959654432171
 30
0.0
 40
2.0
100
AcDbArc
 50
163.0410295792283
 51
270.0
  0
ARC
  5
64AC
102
{ACAD_REACTORS
330
6570
102
}
330
2
100
AcDbEntity
  8
KIJUN
100
AcDbCircle
 10
-111.4606660112265
 20
79.02381045782454
 30
0.0
 40
33.39450883200145
100
AcDbArc
 50
235.8840773836078
 51
251.8879563361509
  0
ARC
  5
64AD
102
{ACAD_REACTORS
330
6570
102
}
330
2
100
AcDbEntity
  8
KIJUN
100
AcDbCircle
 10
-122.4639772205999
 20
45.38308516996846
 30
0.0
 40
2.0
100
AcDbArc
 50
343.0410295792283
 51
71.88795633615097
  0
ARC
  5
64AE
102
{ACAD_REACTORS
330
6570
102
}
330
2
100
AcDbEntity
  8
KIJUN
100
AcDbCircle
 10
-125.2321227612763
 20
61.86352485211774
 30
0.0
 40
11.60032532471584
100
AcDbArc
 50
110.4435665651903
 51
244.6945319520548
  0
ARC
  5
64AF
102
{ACAD_REACTORS
330
6570
102
}
330
2
100
AcDbEntity
  8
KIJUN
100
AcDbCircle
 10
-125.0241973128802
 20
66.27528322216779
 30
0.0
 40
7.736302695661035
100
AcDbArc
 50
44.96219542538692
 51
123.4093616913022
  0
LINE
  5
64B0
102
{ACAD_REACTORS
330
6570
102
}
330
2
100
AcDbEntity
  8
KIJUN
100
AcDbLine
 10
-111.9333615350085
 20
77.52828963850049
 30
0.0
 11
-113.7516778965862
 21
72.53076584117014
 31
0.0
  0
ARC
  5
64B1
102
{ACAD_REACTORS
330
6570
102
}
330
2
100
AcDbEntity
  8
KIJUN
100
AcDbCircle
 10
-111.872216090547
 20
71.84693595031342
 30
0.0
 40
2.0
100
AcDbArc
 50
160.0064140896401
 51
237.6002096441905
  0
ARC
  5
64B2
102
{ACAD_REACTORS
330
6570
102
}
330
2
100
AcDbEntity
  8
KIJUN
100
AcDbCircle
 10
-110.0538997289666
 20
76.84445974764367
 30
0.0
 40
2.0
100
AcDbArc
 50
94.08339607529985
 51
160.0064140896401
  0
ARC
  5
64B3
102
{ACAD_REACTORS
330
6570
102
}
330
2
100
AcDbEntity
  8
KIJUN
100
AcDbCircle
 10
-116.8190370860755
 20
72.16338893477666
 30
0.0
 40
2.763466735636608
100
AcDbArc
 50
336.0498951058104
 51
188.7696423536512
  0
ARC
  5
64B4
102
{ACAD_REACTORS
330
6570
102
}
330
2
100
AcDbEntity
  8
KIJUN
100
AcDbCircle
 10
-105.5419562475988
 20
71.50741046489281
 30
0.0
 40
13.3078590729169
100
AcDbArc
 50
180.497578535904
 51
248.4107539554095
  0
ARC
  5
64B5
102
{ACAD_REACTORS
330
6570
102
}
330
2
100
AcDbEntity
  8
KIJUN
100
AcDbCircle
 10
-120.0729159194123
 20
62.97875767094343
 30
0.0
 40
4.938954892737223
100
AcDbArc
 50
96.14426812235004
 51
246.9925494993682
  0
LINE
  5
64B6
102
{ACAD_REACTORS
330
6570
102
}
330
2
100
AcDbEntity
  8
KIJUN
100
AcDbLine
 10
-119.5501969635804
 20
71.74206468613272
 30
0.0
 11
-120.6015435687657
 21
67.88934096021058
 31
0.0
  0
ARC
  5
64B7
102
{ACAD_REACTORS
330
6570
102
}
330
2
100
AcDbEntity
  8
KIJUN
100
AcDbCircle
 10
54.77365988874236
 20
-124.1653133272975
 30
0.0
 40
211.3193169530134
100
AcDbArc
 50
93.53495387465001
 51
118.1936241843112
  0
ARC
  5
64B8
102
{ACAD_REACTORS
330
6570
102
}
330
2
100
AcDbEntity
  8
KIJUN
100
AcDbCircle
 10
82.81454848152534
 20
-319.573488367912
 30
0.0
 40
416.9118962660318
100
AcDbArc
 50
93.17262933387006
 51
108.1609359079962
  0
ARC
  5
64B9
102
{ACAD_REACTORS
330
6570
102
}
330
2
100
AcDbEntity
  8
KIJUN
100
AcDbCircle
 10
-67.64031034865618
 20
-109.7631451966635
 30
0.0
 40
187.4582484860953
100
AcDbArc
 50
83.71901159729112
 51
89.25564139403594
  0
ARC
  5
64BA
102
{ACAD_REACTORS
330
6570
102
}
330
2
100
AcDbEntity
  8
KIJUN
100
AcDbCircle
 10
-57.24753159801347
 20
51.73027597778594
 30
0.0
 40
32.36948861242701
100
AcDbArc
 50
65.5577093867617
 51
116.6998215840463
  0
ARC
  5
64BB
102
{ACAD_REACTORS
330
6570
102
}
330
2
100
AcDbEntity
  8
KIJUN
100
AcDbCircle
 10
376.1774288010622
 20
-945.0906560100202
 30
0.0
 40
1098.855188153009
100
AcDbArc
 50
113.0225220758739
 51
115.1457172325629
  0
ARC
  5
64BC
102
{ACAD_REACTORS
330
6570
102
}
330
2
100
AcDbEntity
  8
KIJUN
100
AcDbCircle
 10
-65.2050134279323
 20
86.46992617528747
 30
0.0
 40
8.790642198664796
100
AcDbArc
 50
196.3131491154354
 51
270.0000000001042
  0
LINE
  5
64BD
102
{ACAD_REACTORS
330
6570
102
}
330
2
100
AcDbEntity
  8
KIJUN
100
AcDbLine
 10
-100.5555614131724
 20
45.67235403496044
 30
0.0
 11
-99.70799437570329
 21
42.89297018189688
 31
0.0
  0
ARC
  5
64BE
102
{ACAD_REACTORS
330
6570
102
}
330
2
100
AcDbEntity
  8
KIJUN
100
AcDbCircle
 10
-101.621022132688
 20
42.30959654432171
 30
0.0
 40
2.0
100
AcDbArc
 50
270.0
 51
16.9589704207665
  0
ARC
  5
64BF
102
{ACAD_REACTORS
330
6570
102
}
330
2
100
AcDbEntity
  8
KIJUN
100
AcDbCircle
 10
-104.7309726368865
 20
107.177680834377
 30
0.0
 40
59.22543153197462
100
AcDbArc
 50
275.7070953416372
 51
283.6541745069701
  0
ARC
  5
64C0
102
{ACAD_REACTORS
330
6570
102
}
330
2
100
AcDbEntity
  8
KIJUN
100
AcDbCircle
 10
-98.64253365619042
 20
46.2557276725355
 30
0.0
 40
2.0
100
AcDbArc
 50
95.70709534163723
 51
196.9589704207665
  0
ARC
  5
64C1
102
{ACAD_REACTORS
330
6570
102
}
330
2
100
AcDbEntity
  8
KIJUN
100
AcDbCircle
 10
-78.94471456558111
 20
126.3027573571851
 30
0.0
 40
65.24933697412643
100
AcDbArc
 50
265.7284930307349
 51
290.8088872702359
  0
ARC
  5
64C2
102
{ACAD_REACTORS
330
6570
102
}
330
2
100
AcDbEntity
  8
KIJUN
100
AcDbCircle
 10
-94.49170351385399
 20
92.30787741149743
 30
0.0
 40
17.90907777767687
100
AcDbArc
 50
227.5314125439091
 51
277.3022394562043
  0
LINE
  5
64C3
102
{ACAD_REACTORS
330
6570
102
}
330
2
100
AcDbEntity
  8
KIJUN
100
AcDbLine
 10
-91.43616008640927
 20
74.39191027982554
 30
0.0
 11
-74.34263535706103
 21
68.58985439907769
 31
0.0
  0
LINE
  5
64C4
102
{ACAD_REACTORS
330
6570
102
}
330
2
100
AcDbEntity
  8
KIJUN
100
AcDbLine
 10
-92.5735504180391
 20
79.00482652948745
 30
0.0
 11
-92.7864062003853
 21
76.45196651814046
 31
0.0
  0
ARC
  5
64C5
102
{ACAD_REACTORS
330
6570
102
}
330
2
100
AcDbEntity
  8
KIJUN
100
AcDbCircle
 10
-90.79332227450576
 20
76.2857844962374
 30
0.0
 40
2.0
100
AcDbArc
 50
175.2337405220356
 51
251.2512439775012
  0
LINE
  5
64C6
102
{ACAD_REACTORS
330
6570
102
}
330
2
100
AcDbEntity
  8
KIJUN
100
AcDbLine
 10
-85.97564203043546
 20
77.06406302489347
 30
0.0
 11
-89.16665550787982
 21
80.2532605334809
 31
0.0
  0
LINE
  5
64C7
102
{ACAD_REACTORS
330
6570
102
}
330
2
100
AcDbEntity
  8
KIJUN
100
AcDbLine
 10
-69.08594513318601
 20
73.14305816792034
 30
0.0
 11
-84.97782386028555
 21
76.52241987098114
 31
0.0
  0
ARC
  5
64C8
102
{ACAD_REACTORS
330
6570
102
}
330
2
100
AcDbEntity
  8
KIJUN
100
AcDbCircle
 10
-84.56183104615574
 20
78.47867905079056
 30
0.0
 40
2.0
100
AcDbArc
 50
225.0163078224789
 51
257.9950376322289
  0
ARC
  5
64C9
102
{ACAD_REACTORS
330
6570
102
}
330
2
100
AcDbEntity
  8
KIJUN
100
AcDbCircle
 10
-90.58046649215956
 20
78.83864450758415
 30
0.0
 40
2.0
100
AcDbArc
 50
45.01630782247892
 51
175.2337405220356
  0
LINE
  5
64CA
102
{ACAD_REACTORS
330
6570
102
}
330
2
100
AcDbEntity
  8
KIJUN
100
AcDbLine
 10
-74.34263535706103
 20
68.58985439907769
 30
0.0
 11
-65.58148498393783
 21
69.6405911614321
 31
0.0
  0
ARC
  5
64CB
102
{ACAD_REACTORS
330
6570
102
}
330
2
100
AcDbEntity
  8
KIJUN
100
AcDbCircle
 10
-68.85962540656127
 20
79.62265719566937
 30
0.0
 40
6.483550275817901
100
AcDbArc
 50
137.5255368604583
 51
267.9995836501606
  0
ARC
  5
64CC
102
{ACAD_REACTORS
330
6570
102
}
330
2
100
AcDbEntity
  8
KIJUN
100
AcDbCircle
 10
-40.41871417756354
 20
67.39177806815042
 30
0.0
 40
7.055250005638092
100
AcDbArc
 50
114.8689393086027
 51
228.8130892464637
  0
ARC
  5
64CD
102
{ACAD_REACTORS
330
6570
102
}
330
2
100
AcDbEntity
  8
KIJUN
100
AcDbCircle
 10
-34.23228469389576
 20
90.91888030982294
 30
0.0
 40
17.09999254938976
100
AcDbArc
 50
201.0678309811076
 51
207.0194220835348
  0
ARC
  5
64CE
102
{ACAD_REACTORS
330
6570
102
}
330
2
100
AcDbEntity
  8
KIJUN
100
AcDbCircle
 10
-45.0502187422824
 20
98.42215256350108
 30
0.0
 40
11.33901854245739
100
AcDbArc
 50
255.7975744743195
 51
286.404050911741
  0
ARC
  5
64CF
102
{ACAD_REACTORS
330
6570
102
}
330
2
100
AcDbEntity
  8
KIJUN
100
AcDbCircle
 10
-48.32292594052685
 20
85.49084159861445
 30
0.0
 40
2.0
100
AcDbArc
 50
75.79757447431958
 51
201.0678309811076
  0
ARC
  5
64D0
102
{ACAD_REACTORS
330
6570
102
}
330
2
100
AcDbEntity
  8
KIJUN
100
AcDbCircle
 10
-27.72751059935925
 20
39.57999948981603
 30
0.0
 40
50.0
100
AcDbArc
 50
105.2795294091801
 51
106.4040509117409
  0
ARC
  5
64D1
102
{ACAD_REACTORS
330
6570
102
}
330
2
100
AcDbEntity
  8
KIJUN
100
AcDbCircle
 10
-44.53539563863048
 20
67.55079153282622
 30
0.0
 40
9.385273419794335
100
AcDbArc
 50
106.0584871884068
 51
169.0364827747458
  0
LINE
  5
64D2
102
{ACAD_REACTORS
330
6570
102
}
330
2
100
AcDbEntity
  8
KIJUN
100
AcDbLine
 10
-53.58054143541156
 20
66.29865275793895
 30
0.0
 11
-53.74937356254648
 21
69.33571953750742
 31
0.0
  0
LINE
  5
64D3
102
{ACAD_REACTORS
330
6570
102
}
330
2
100
AcDbEntity
  8
KIJUN
100
AcDbLine
 10
-47.76428443294006
 20
61.50662786698456
 30
0.0
 11
-48.93585568255256
 21
61.58827453289177
 31
0.0
  0
ARC
  5
64D4
102
{ACAD_REACTORS
330
6570
102
}
330
2
100
AcDbEntity
  8
KIJUN
100
AcDbCircle
 10
-48.58824934046132
 20
66.57617688066693
 30
0.0
 40
5.0
100
AcDbArc
 50
183.1818273720818
 51
266.0135090689168
  0
ARC
  5
64D5
102
{ACAD_REACTORS
330
6570
102
}
330
2
100
AcDbEntity
  8
KIJUN
100
AcDbCircle
 10
-47.41667809084972
 20
66.49453021475983
 30
0.0
 40
5.0
100
AcDbArc
 50
266.0135090689168
 51
298.0597183710994
  0
ARC
  5
64D6
102
{ACAD_REACTORS
330
6570
102
}
330
2
100
AcDbEntity
  8
KIJUN
100
AcDbCircle
 10
51.89906680703893
 20
74.62041049853451
 30
0.0
 40
21.53634422039767
100
AcDbArc
 50
40.16586385186325
 51
90.34067770955676
  0
ARC
  5
64D7
102
{ACAD_REACTORS
330
6570
102
}
330
2
100
AcDbEntity
  8
KIJUN
100
AcDbCircle
 10
60.7842463470231
 20
72.80959654432172
 30
0.0
 40
7.5
100
AcDbArc
 50
150.4293280204867
 51
279.1118078478565
  0
ARC
  5
64D8
102
{ACAD_REACTORS
330
6570
102
}
330
2
100
AcDbEntity
  8
KIJUN
100
AcDbCircle
 10
55.51282952927227
 20
83.15038403654137
 30
0.0
 40
6.756516315616027
100
AcDbArc
 50
259.3238955455406
 51
52.40682178551653
  0
ARC
  5
64D9
102
{ACAD_REACTORS
330
6570
102
}
330
2
100
AcDbEntity
  8
KIJUN
100
AcDbCircle
 10
44.54968597535184
 20
77.4405321488565
 30
0.0
 40
9.724855201743626
100
AcDbArc
 50
354.1141388915237
 51
106.7670402971666
  0
ARC
  5
64DA
102
{ACAD_REACTORS
330
6570
102
}
330
2
100
AcDbEntity
  8
KIJUN
100
AcDbCircle
 10
87.10429723087305
 20
106.6864032280852
 30
0.0
 40
10.0
100
AcDbArc
 50
211.5836825694663
 51
267.076952583223
  0
ARC
  5
64DB
102
{ACAD_REACTORS
330
6570
102
}
330
2
100
AcDbEntity
  8
KIJUN
100
AcDbCircle
 10
90.82227429874979
 20
83.15038403654137
 30
0.0
 40
6.756516315616027
100
AcDbArc
 50
127.5931782144835
 51
280.6761044544593
  0
ARC
  5
64DC
102
{ACAD_REACTORS
330
6570
102
}
330
2
100
AcDbEntity
  8
KIJUN
100
AcDbCircle
 10
94.43603702098313
 20
74.62041049853451
 30
0.0
 40
21.53634422039767
100
AcDbArc
 50
89.65932229044323
 51
139.8341361481367
  0
ARC
  5
64DD
102
{ACAD_REACTORS
330
6570
102
}
330
2
100
AcDbEntity
  8
KIJUN
100
AcDbCircle
 10
59.23080659714992
 20
106.6864032280852
 30
0.0
 40
10.0
100
AcDbArc
 50
272.923047416777
 51
328.4163174305338
  0
ARC
  5
64DE
102
{ACAD_REACTORS
330
6570
102
}
330
2
100
AcDbEntity
  8
KIJUN
100
AcDbCircle
 10
60.34764997831985
 20
78.28872565920278
 30
0.0
 40
12.98647022750693
100
AcDbArc
 50
271.9266085009604
 51
51.92269160081593
  0
ARC
  5
64DF
102
{ACAD_REACTORS
330
6570
102
}
330
2
100
AcDbEntity
  8
KIJUN
100
AcDbCircle
 10
85.55085748099987
 20
72.80959654432172
 30
0.0
 40
7.5
100
AcDbArc
 50
260.8881921521435
 51
29.57067197951328
  0
ARC
  5
64E0
102
{ACAD_REACTORS
330
6570
102
}
330
2
100
AcDbEntity
  8
KIJUN
100
AcDbCircle
 10
85.98745384970129
 20
78.28872565920278
 30
0.0
 40
12.98647022750693
100
AcDbArc
 50
128.077308399184
 51
268.0733914990396
  0
ARC
  5
64E1
102
{ACAD_REACTORS
330
6570
102
}
330
2
100
AcDbEntity
  8
KIJUN
100
AcDbCircle
 10
101.7854178526702
 20
77.4405321488565
 30
0.0
 40
9.724855201743626
100
AcDbArc
 50
73.23295970283334
 51
185.8858611084762
  0
ARC
  5
64E2
102
{ACAD_REACTORS
330
6570
102
}
330
2
100
AcDbEntity
  8
KIJUN
100
AcDbCircle
 10
51.89326654691263
 20
107.833132448355
 30
0.0
 40
2.879132071061976
100
AcDbArc
 50
265.2824394799462
 51
10.72282622820283
  0
ARC
  5
64E3
102
{ACAD_REACTORS
330
6570
102
}
330
2
100
AcDbEntity
  8
KIJUN
100
AcDbCircle
 10
60.7842463470231
 20
112.7847766761141
 30
0.0
 40
7.5
100
AcDbArc
 50
32.50703077609034
 51
216.0715063146254
  0
ARC
  5
64E4
102
{ACAD_REACTORS
330
6570
102
}
330
2
100
AcDbEntity
  8
KIJUN
100
AcDbCircle
 10
84.88664609274634
 20
111.1706228943251
 30
0.0
 40
4.042732879606545
100
AcDbArc
 50
13.59953182624638
 51
199.7814644364117
  0
ARC
  5
64E5
102
{ACAD_REACTORS
330
6570
102
}
330
2
100
AcDbEntity
  8
KIJUN
100
AcDbCircle
 10
61.44845773527663
 20
111.1706228943251
 30
0.0
 40
4.042732879606545
100
AcDbArc
 50
340.2185355635883
 51
166.4004681737536
  0
ARC
  5
64E6
102
{ACAD_REACTORS
330
6570
102
}
330
2
100
AcDbEntity
  8
KIJUN
100
AcDbCircle
 10
78.1306736981794
 20
113.5140468970171
 30
0.0
 40
13.41499095979886
100
AcDbArc
 50
126.1424806027374
 51
158.2863359575663
  0
ARC
  5
64E7
102
{ACAD_REACTORS
330
6570
102
}
330
2
100
AcDbEntity
  8
KIJUN
100
AcDbCircle
 10
68.20443012983992
 20
113.5140468970131
 30
0.0
 40
13.41499095979886
100
AcDbArc
 50
21.71366404253818
 51
53.8575193973793
  0
ARC
  5
64E8
102
{ACAD_REACTORS
330
6570
102
}
330
2
100
AcDbEntity
  8
KIJUN
100
AcDbCircle
 10
73.16755191400784
 20
120.309596544321
 30
0.0
 40
5.0
100
AcDbArc
 50
53.8575193973793
 51
126.1424806027374
  0
ARC
  5
64E9
102
{ACAD_REACTORS
330
6570
102
}
330
2
100
AcDbEntity
  8
KIJUN
100
AcDbCircle
 10
85.55085748099987
 20
112.7847766761141
 30
0.0
 40
7.5
100
AcDbArc
 50
323.9284936853746
 51
147.4929692239096
  0
ARC
  5
64EA
102
{ACAD_REACTORS
330
6570
102
}
330
2
100
AcDbEntity
  8
KIJUN
100
AcDbCircle
 10
94.44183728111125
 20
107.833132448355
 30
0.0
 40
2.879132071061976
100
AcDbArc
 50
169.2771737717971
 51
274.7175605200538
  0
LINE
  5
64EB
102
{ACAD_REACTORS
330
6570
102
}
330
2
100
AcDbEntity
  8
KIJUN
100
AcDbLine
 10
215.4210489612035
 20
73.14305816792034
 30
0.0
 11
231.3129276883021
 21
76.52241987098114
 31
0.0
  0
LINE
  5
64EC
102
{ACAD_REACTORS
330
6570
102
}
330
2
100
AcDbEntity
  8
KIJUN
100
AcDbLine
 10
220.6777391850776
 20
68.58985439907769
 30
0.0
 11
211.9165888119535
 21
69.6405911614321
 31
0.0
  0
ARC
  5
64ED
102
{ACAD_REACTORS
330
6570
102
}
330
2
100
AcDbEntity
  8
KIJUN
100
AcDbCircle
 10
225.2798183935977
 20
126.3027573571851
 30
0.0
 40
65.24933697412643
100
AcDbArc
 50
249.1911127297641
 51
274.2715069692652
  0
ARC
  5
64EE
102
{ACAD_REACTORS
330
6570
102
}
330
2
100
AcDbEntity
  8
KIJUN
100
AcDbCircle
 10
-229.8423249730465
 20
-945.0906560100202
 30
0.0
 40
1098.855188153009
100
AcDbArc
 50
64.85428276743703
 51
66.97747792412602
  0
ARC
  5
64EF
102
{ACAD_REACTORS
330
6570
102
}
330
2
100
AcDbEntity
  8
KIJUN
100
AcDbCircle
 10
211.5401172559498
 20
86.46992617528747
 30
0.0
 40
8.790642198664796
100
AcDbArc
 50
269.9999999998958
 51
343.6868508845646
  0
ARC
  5
64F0
102
{ACAD_REACTORS
330
6570
102
}
330
2
100
AcDbEntity
  8
KIJUN
100
AcDbCircle
 10
215.1947292345787
 20
79.62265719566937
 30
0.0
 40
6.483550275817901
100
AcDbArc
 50
272.0004163498394
 51
42.47446313954167
  0
ARC
  5
64F1
102
{ACAD_REACTORS
330
6570
102
}
330
2
100
AcDbEntity
  8
KIJUN
100
AcDbCircle
 10
194.6580297685425
 20
85.49084159861445
 30
0.0
 40
2.0
100
AcDbArc
 50
338.9321690188924
 51
104.2024255256804
  0
ARC
  5
64F2
102
{ACAD_REACTORS
330
6570
102
}
330
2
100
AcDbEntity
  8
KIJUN
100
AcDbCircle
 10
213.9754141766736
 20
-109.7631451966635
 30
0.0
 40
187.4582484860953
100
AcDbArc
 50
90.74435860596405
 51
96.28098840270887
  0
ARC
  5
64F3
102
{ACAD_REACTORS
330
6570
102
}
330
2
100
AcDbEntity
  8
KIJUN
100
AcDbCircle
 10
186.7538180055801
 20
67.39177806815042
 30
0.0
 40
7.055250005638092
100
AcDbArc
 50
311.1869107535362
 51
65.1310606913973
  0
LINE
  5
64F4
102
{ACAD_REACTORS
330
6570
102
}
330
2
100
AcDbEntity
  8
KIJUN
100
AcDbLine
 10
194.0993882609575
 20
61.50662786698456
 30
0.0
 11
195.2709595105682
 21
61.58827453289177
 31
0.0
  0
LINE
  5
64F5
102
{ACAD_REACTORS
330
6570
102
}
330
2
100
AcDbEntity
  8
KIJUN
100
AcDbLine
 10
199.9156452634281
 20
66.29865275793895
 30
0.0
 11
200.0844773905622
 21
69.33571953750742
 31
0.0
  0
ARC
  5
64F6
102
{ACAD_REACTORS
330
6570
102
}
330
2
100
AcDbEntity
  8
KIJUN
100
AcDbCircle
 10
193.7517819188663
 20
66.49453021475983
 30
0.0
 40
5.0
100
AcDbArc
 50
241.9402816289005
 51
273.9864909310832
  0
ARC
  5
64F7
102
{ACAD_REACTORS
330
6570
102
}
330
2
100
AcDbEntity
  8
KIJUN
100
AcDbCircle
 10
194.9233531684779
 20
66.57617688066693
 30
0.0
 40
5.0
100
AcDbArc
 50
273.9864909310832
 51
356.8181726279182
  0
ARC
  5
64F8
102
{ACAD_REACTORS
330
6570
102
}
330
2
100
AcDbEntity
  8
KIJUN
100
AcDbCircle
 10
190.870499466647
 20
67.55079153282622
 30
0.0
 40
9.385273419794335
100
AcDbArc
 50
10.96351722525414
 51
73.9415128115932
  0
ARC
  5
64F9
102
{ACAD_REACTORS
330
6570
102
}
330
2
100
AcDbEntity
  8
KIJUN
100
AcDbCircle
 10
191.3853225702971
 20
98.42215256350108
 30
0.0
 40
11.33901854245739
100
AcDbArc
 50
253.5959490882591
 51
284.2024255256804
  0
ARC
  5
64FA
102
{ACAD_REACTORS
330
6570
102
}
330
2
100
AcDbEntity
  8
KIJUN
100
AcDbCircle
 10
174.062614427374
 20
39.57999948981603
 30
0.0
 40
50.0
100
AcDbArc
 50
73.59594908825906
 51
74.72047059081988
  0
ARC
  5
64FB
102
{ACAD_REACTORS
330
6570
102
}
330
2
100
AcDbEntity
  8
KIJUN
100
AcDbCircle
 10
180.5673885219114
 20
90.91888030982294
 30
0.0
 40
17.09999254938976
100
AcDbArc
 50
332.9805779164652
 51
338.9321690188924
  0
ARC
  5
64FC
102
{ACAD_REACTORS
330
6570
102
}
330
2
100
AcDbEntity
  8
KIJUN
100
AcDbCircle
 10
203.58263542603
 20
51.73027597778594
 30
0.0
 40
32.36948861242701
100
AcDbArc
 50
63.3001784159537
 51
114.4422906132383
  0
ARC
  5
64FD
102
{ACAD_REACTORS
330
6570
102
}
330
2
100
AcDbEntity
  8
KIJUN
100
AcDbCircle
 10
271.3593011408978
 20
66.27528322216779
 30
0.0
 40
7.736302695661035
100
AcDbArc
 50
56.59063830869777
 51
135.037804574613
  0
ARC
  5
64FE
102
{ACAD_REACTORS
330
6570
102
}
330
2
100
AcDbEntity
  8
KIJUN
100
AcDbCircle
 10
257.7957698392449
 20
79.02381045782454
 30
0.0
 40
33.39450883200145
100
AcDbArc
 50
288.112043663849
 51
304.1159226163923
  0
LINE
  5
64FF
102
{ACAD_REACTORS
330
6570
102
}
330
2
100
AcDbEntity
  8
KIJUN
100
AcDbLine
 10
232.310745858453
 20
77.06406302489347
 30
0.0
 11
235.5017593358927
 21
80.2532605334809
 31
0.0
  0
LINE
  5
6500
102
{ACAD_REACTORS
330
6570
102
}
330
2
100
AcDbEntity
  8
KIJUN
100
AcDbLine
 10
238.9086542460538
 20
79.00482652948745
 30
0.0
 11
239.1215100284
 21
76.45196651814046
 31
0.0
  0
LINE
  5
6501
102
{ACAD_REACTORS
330
6570
102
}
330
2
100
AcDbEntity
  8
KIJUN
100
AcDbLine
 10
237.771263914424
 20
74.39191027982554
 30
0.0
 11
220.6777391850776
 21
68.58985439907769
 31
0.0
  0
ARC
  5
6502
102
{ACAD_REACTORS
330
6570
102
}
330
2
100
AcDbEntity
  8
KIJUN
100
AcDbCircle
 10
236.9155703201761
 20
78.83864450758415
 30
0.0
 40
2.0
100
AcDbArc
 50
4.766259477964434
 51
134.9836921775211
  0
ARC
  5
6503
102
{ACAD_REACTORS
330
6570
102
}
330
2
100
AcDbEntity
  8
KIJUN
100
AcDbCircle
 10
230.8969348741714
 20
78.47867905079056
 30
0.0
 40
2.0
100
AcDbArc
 50
282.004962367771
 51
314.983692177521
  0
ARC
  5
6504
102
{ACAD_REACTORS
330
6570
102
}
330
2
100
AcDbEntity
  8
KIJUN
100
AcDbCircle
 10
237.1284261025223
 20
76.2857844962374
 30
0.0
 40
2.0
100
AcDbArc
 50
288.7487560224989
 51
4.766259477964434
  0
LINE
  5
6505
102
{ACAD_REACTORS
330
6570
102
}
330
2
100
AcDbEntity
  8
KIJUN
100
AcDbLine
 10
265.8853007915971
 20
71.74206468613272
 30
0.0
 11
266.9366473967823
 21
67.88934096021058
 31
0.0
  0
ARC
  5
6506
102
{ACAD_REACTORS
330
6570
102
}
330
2
100
AcDbEntity
  8
KIJUN
100
AcDbCircle
 10
266.4080197474307
 20
62.97875767094343
 30
0.0
 40
4.938954892737223
100
AcDbArc
 50
293.0074505006318
 51
83.85573187764995
  0
ARC
  5
6507
102
{ACAD_REACTORS
330
6570
102
}
330
2
100
AcDbEntity
  8
KIJUN
100
AcDbCircle
 10
251.8770600756145
 20
71.50741046489281
 30
0.0
 40
13.3078590729169
100
AcDbArc
 50
291.5892460445905
 51
359.5024214640957
  0
ARC
  5
6508
102
{ACAD_REACTORS
330
6570
102
}
330
2
100
AcDbEntity
  8
KIJUN
100
AcDbCircle
 10
240.8268073418706
 20
92.30787741149743
 30
0.0
 40
17.90907777767687
100
AcDbArc
 50
262.6977605437957
 51
312.4685874560908
  0
LINE
  5
6509
102
{ACAD_REACTORS
330
6570
102
}
330
2
100
AcDbEntity
  8
KIJUN
100
AcDbLine
 10
252.9187639977456
 20
79.09728881449416
 30
0.0
 11
256.5314203366308
 21
78.83938266867971
 31
0.0
  0
LINE
  5
650A
102
{ACAD_REACTORS
330
6570
102
}
330
2
100
AcDbEntity
  8
KIJUN
100
AcDbLine
 10
258.2684653630252
 20
77.52828963850049
 30
0.0
 11
260.0867817246037
 21
72.53076584117014
 31
0.0
  0
ARC
  5
650B
102
{ACAD_REACTORS
330
6570
102
}
330
2
100
AcDbEntity
  8
KIJUN
100
AcDbCircle
 10
228.481085632505
 20
118.6883648497942
 30
0.0
 40
57.47763933491678
100
AcDbArc
 50
271.6536688700978
 51
302.3997903557436
  0
ARC
  5
650C
102
{ACAD_REACTORS
330
6570
102
}
330
2
100
AcDbEntity
  8
KIJUN
100
AcDbCircle
 10
263.1541409140921
 20
72.16338893477666
 30
0.0
 40
2.763466735636608
100
AcDbArc
 50
351.2303576463487
 51
203.9501048941896
  0
ARC
  5
650D
102
{ACAD_REACTORS
330
6570
102
}
330
2
100
AcDbEntity
  8
KIJUN
100
AcDbCircle
 10
256.3890035569832
 20
76.84445974764367
 30
0.0
 40
2.0
100
AcDbArc
 50
19.9935859103599
 51
85.91660392470016
  0
ARC
  5
650E
102
{ACAD_REACTORS
330
6570
102
}
330
2
100
AcDbEntity
  8
KIJUN
100
AcDbCircle
 10
258.2073199185609
 20
71.84693595031342
 30
0.0
 40
2.0
100
AcDbArc
 50
302.3997903558095
 51
19.9935859103599
  0
ARC
  5
650F
102
{ACAD_REACTORS
330
6570
102
}
330
2
100
AcDbEntity
  8
KIJUN
100
AcDbCircle
 10
247.1361880345451
 20
98.98439855648224
 30
0.0
 40
45.75998847681468
100
AcDbArc
 50
279.1327554845999
 51
297.6025503687562
  0
LINE
  5
6510
102
{ACAD_REACTORS
330
6570
102
}
330
2
100
AcDbEntity
  8
KIJUN
100
AcDbLine
 10
246.8906652411881
 20
45.67235403496044
 30
0.0
 11
246.0430982037199
 21
42.89297018189688
 31
0.0
  0
ARC
  5
6511
102
{ACAD_REACTORS
330
6570
102
}
330
2
100
AcDbEntity
  8
KIJUN
100
AcDbCircle
 10
244.977637484207
 20
46.2557276725355
 30
0.0
 40
2.0
100
AcDbArc
 50
343.0410295792283
 51
84.29290465836277
  0
LINE
  5
6512
102
{ACAD_REACTORS
330
6570
102
}
330
2
100
AcDbEntity
  8
KIJUN
100
AcDbLine
 10
266.8860532916326
 20
44.79971153239126
 30
0.0
 11
267.4675099032768
 21
42.89297018189688
 31
0.0
  0
ARC
  5
6513
102
{ACAD_REACTORS
330
6570
102
}
330
2
100
AcDbEntity
  8
KIJUN
100
AcDbCircle
 10
268.7990810486165
 20
45.38308516996846
 30
0.0
 40
2.0
100
AcDbArc
 50
108.112043663849
 51
196.9589704207665
  0
ARC
  5
6514
102
{ACAD_REACTORS
330
6570
102
}
330
2
100
AcDbEntity
  8
KIJUN
100
AcDbCircle
 10
247.9561259607046
 20
42.30959654432171
 30
0.0
 40
2.0
100
AcDbArc
 50
163.0410295792283
 51
270.0
  0
ARC
  5
6515
102
{ACAD_REACTORS
330
6570
102
}
330
2
100
AcDbEntity
  8
KIJUN
100
AcDbCircle
 10
265.5544821462957
 20
42.30959654432171
 30
0.0
 40
2.0
100
AcDbArc
 50
270.0
 51
16.9589704207665
  0
ARC
  5
6516
102
{ACAD_REACTORS
330
6570
102
}
330
2
100
AcDbEntity
  8
KIJUN
100
AcDbCircle
 10
260.4752967861862
 20
102.2033696453571
 30
0.0
 40
53.07062881164814
100
AcDbArc
 50
253.624736819433
 51
281.4840088013102
  0
ARC
  5
6517
102
{ACAD_REACTORS
330
6570
102
}
330
2
100
AcDbEntity
  8
KIJUN
100
AcDbCircle
 10
270.8948002888958
 20
120.4191242133972
 30
0.0
 40
76.61864292092975
100
AcDbArc
 50
250.3869551099789
 51
263.4053719246999
  0
LINE
  5
6518
102
{ACAD_REACTORS
330
6570
102
}
330
2
100
AcDbEntity
  8
KIJUN
100
AcDbLine
 10
247.9561259607046
 20
40.30959654432172
 30
0.0
 11
265.5544821462957
 21
40.30959654432172
 31
0.0
  0
ARC
  5
6519
102
{ACAD_REACTORS
330
6570
102
}
330
2
100
AcDbEntity
  8
KIJUN
100
AcDbCircle
 10
251.066076464904
 20
107.177680834377
 30
0.0
 40
59.22543153197462
100
AcDbArc
 50
256.3458254930299
 51
264.2929046583628
  0
ARC
  5
651A
102
{ACAD_REACTORS
330
6570
102
}
330
2
100
AcDbEntity
  8
KIJUN
100
AcDbCircle
 10
271.567226589292
 20
61.86352485211774
 30
0.0
 40
11.60032532471584
100
AcDbArc
 50
295.3054680479452
 51
69.55643343480964
  0
DIMENSION
  5
651B
330
2
100
AcDbEntity
  8
SUNPOU
100
AcDbDimension
  2
*D9
 10
283.1675519140079
 20
163.8989039910901
 30
0.0
 11
73.16755191400784
 21
171.8989039910901
 31
0.0
 70
    32
 71
     5
 42
420.0
  3
STANDARD
100
AcDbAlignedDimension
 13
-136.8324480859921
 23
125.3095965443211
 33
0.0
 14
283.1675519140079
 24
128.3714950539507
 34
0.0
100
AcDbRotatedDimension
1001
ACAD
1000
DSTYLE
1002
{
1070
    41
1040
2.0
1070
    42
1040
10.0
1070
    44
1040
0.0
1070
    73
1070
     0
1070
    74
1070
     0
1070
    77
1070
     1
1070
   140
1040
10.0
1070
   141
1040
0.0
1070
   146
1040
0.064286
1070
   147
1040
3.0
1070
   176
1070
    60
1070
   177
1070
    70
1070
   178
1070
    60
1070
   271
1070
     0
1070
   272
1070
     0
1070
   340
1005
1C
1070
   342
1005
109
1002
}
  0
DIMENSION
  5
6528
330
2
100
AcDbEntity
  8
SUNPOU
100
AcDbDimension
  2
*D10
 10
-173.7561393165434
 20
40.30959654432172
 30
0.0
 11
-181.7561393165435
 21
82.80959654432139
 31
0.0
 70
    32
 71
     5
 42
84.99999999999937
  3
STANDARD
100
AcDbAlignedDimension
 13
-136.8324480859921
 23
125.3095965443211
 33
0.0
 14
-137.8194886196872
 24
40.30959654432172
 34
0.0
 50
90.0
100
AcDbRotatedDimension
1001
ACAD
1000
DSTYLE
1002
{
1070
    41
1040
2.0
1070
    42
1040
10.0
1070
    44
1040
0.0
1070
    73
1070
     0
1070
    74
1070
     0
1070
    77
1070
     1
1070
   140
1040
10.0
1070
   141
1040
0.0
1070
   146
1040
0.064286
1070
   147
1040
3.0
1070
   176
1070
    60
1070
   177
1070
    70
1070
   178
1070
    60
1070
   271
1070
     0
1070
   272
1070
     0
1070
   340
1005
1C
1070
   342
1005
109
1002
}
  0
ENDSEC
  0
SECTION
  2
OBJECTS
  0
DICTIONARY
  5
1A
330
0
100
AcDbDictionary
281
     1
  3
ACAD_COLOR
350
144
  3
ACAD_GROUP
350
18
  3
ACAD_LAYOUT
350
58
  3
ACAD_MATERIAL
350
143
  3
ACAD_MLINESTYLE
350
19
  3
ACAD_PLOTSETTINGS
350
59
  3
ACAD_PLOTSTYLENAME
350
56
  3
ACAD_TABLESTYLE
350
145
  3
ACDBHEADERROUNDTRIPXREC
350
6596
  3
AcDbVariableDictionary
350
1D1
  0
DICTIONARY
  5
1B4
330
A
100
AcDbDictionary
280
     1
281
     1
  3
ACAD_LAYERFILTERS
360
6359
  3
ACLYDICTIONARY
360
6358
  0
DICTIONARY
  5
1578
330
2
100
AcDbDictionary
280
     1
281
     1
  3
ACAD_SORTENTS
360
1579
  0
DICTIONARY
  5
144
102
{ACAD_REACTORS
330
1A
102
}
330
1A
100
AcDbDictionary
281
     1
  0
DICTIONARY
  5
18
102
{ACAD_REACTORS
330
1A
102
}
330
1A
100
AcDbDictionary
281
     1
  3
*A1
350
CFC
  3
*A10
350
5075
  3
*A11
350
5141
  3
*A12
350
481A
  3
*A13
350
5167
  3
*A14
350
218C
  3
*A15
350
527D
  3
*A16
350
3FA3
  3
*A17
350
52B3
  3
*A18
350
3154
  3
*A19
350
327B
  3
*A2
350
2FBC
  3
*A20
350
32AA
  3
*A21
350
2FE9
  3
*A22
350
3650
  3
*A23
350
2862
  3
*A24
350
367C
  3
*A25
350
18ED
  3
*A26
350
19E5
  3
*A27
350
1F8A
  3
*A28
350
1682
  3
*A29
350
2108
  3
*A3
350
4989
  3
*A30
350
3732
  3
*A31
350
563B
  3
*A32
350
38C3
  3
*A33
350
39C3
  3
*A34
350
37CF
  3
*A35
350
2335
  3
*A36
350
3AB4
  3
*A37
350
3BBC
  3
*A38
350
58EE
  3
*A39
350
5A5E
  3
*A4
350
3D8C
  3
*A40
350
419F
  3
*A41
350
5AF5
  3
*A42
350
439B
  3
*A43
350
4590
  3
*A44
350
312A
  3
*A45
350
299B
  3
*A46
350
46F3
  3
*A47
350
61CC
  3
*A48
350
2C07
  3
*A49
350
2DB5
  3
*A5
350
4B40
  3
*A50
350
1827
  3
*A51
350
2E88
  3
*A52
350
640B
  3
*A53
350
6570
  3
*A6
350
15D1
  3
*A7
350
4CED
  3
*A8
350
3837
  3
*A9
350
4EB3
  0
DICTIONARY
  5
58
102
{ACAD_REACTORS
330
1A
102
}
330
1A
100
AcDbDictionary
281
     1
  3
Model
350
5A
  3
ﾚｲｱｳﾄ1
350
5B
  0
DICTIONARY
  5
143
102
{ACAD_REACTORS
330
1A
102
}
330
1A
100
AcDbDictionary
281
     1
  0
DICTIONARY
  5
19
102
{ACAD_REACTORS
330
1A
102
}
330
1A
100
AcDbDictionary
281
     1
  3
STANDARD
350
1D
  0
DICTIONARY
  5
59
102
{ACAD_REACTORS
330
1A
102
}
330
1A
100
AcDbDictionary
281
     1
  0
ACDBDICTIONARYWDFLT
  5
56
102
{ACAD_REACTORS
330
1A
102
}
330
1A
100
AcDbDictionary
281
     1
  3
Normal
350
57
100
AcDbDictionaryWithDefault
340
57
  0
DICTIONARY
  5
145
102
{ACAD_REACTORS
330
1A
102
}
330
1A
100
AcDbDictionary
281
     1
  3
Standard
350
146
  0
DICTIONARY
  5
6596
102
{ACAD_REACTORS
330
1A
102
}
330
1A
100
AcDbDictionary
281
     1
  0
DICTIONARY
  5
1D1
102
{ACAD_REACTORS
330
1A
102
}
330
1A
100
AcDbDictionary
281
     1
  3
CTABLESTYLE
350
1D2
  3
DIMASSOC
350
D03
  3
PROJECTNAME
350
D04
  0
DICTIONARY
  5
6359
102
{ACAD_REACTORS
330
1B4
102
}
330
1B4
100
AcDbDictionary
281
     1
  0
DICTIONARY
  5
6358
102
{ACAD_REACTORS
330
1B4
102
}
330
1B4
100
AcDbDictionary
281
     1
1001
ACAD
1000
<All
  0
SORTENTSTABLE
  5
1579
102
{ACAD_REACTORS
330
1578
102
}
330
1578
100
AcDbSortentsTable
330
2
331
20
  5
20
331
21
  5
21
331
23
  5
23
331
1F
  5
1F
  0
GROUP
  5
CFC
102
{ACAD_REACTORS
330
18
102
}
330
18
100
AcDbGroup
300

 70
     1
 71
     1
  0
GROUP
  5
5075
102
{ACAD_REACTORS
330
18
102
}
330
18
100
AcDbGroup
300

 70
     1
 71
     1
  0
GROUP
  5
5141
102
{ACAD_REACTORS
330
18
102
}
330
18
100
AcDbGroup
300

 70
     1
 71
     1
  0
GROUP
  5
481A
102
{ACAD_REACTORS
330
18
102
}
330
18
100
AcDbGroup
300

 70
     1
 71
     1
  0
GROUP
  5
5167
102
{ACAD_REACTORS
330
18
102
}
330
18
100
AcDbGroup
300

 70
     1
 71
     1
  0
GROUP
  5
218C
102
{ACAD_REACTORS
330
18
102
}
330
18
100
AcDbGroup
300

 70
     1
 71
     1
  0
GROUP
  5
527D
102
{ACAD_REACTORS
330
18
102
}
330
18
100
AcDbGroup
300

 70
     1
 71
     1
  0
GROUP
  5
3FA3
102
{ACAD_REACTORS
330
18
102
}
330
18
100
AcDbGroup
300

 70
     1
 71
     1
  0
GROUP
  5
52B3
102
{ACAD_REACTORS
330
18
102
}
330
18
100
AcDbGroup
300

 70
     1
 71
     1
  0
GROUP
  5
3154
102
{ACAD_REACTORS
330
18
102
}
330
18
100
AcDbGroup
300

 70
     1
 71
     1
  0
GROUP
  5
327B
102
{ACAD_REACTORS
330
18
102
}
330
18
100
AcDbGroup
300

 70
     1
 71
     1
  0
GROUP
  5
2FBC
102
{ACAD_REACTORS
330
18
102
}
330
18
100
AcDbGroup
300

 70
     1
 71
     1
  0
GROUP
  5
32AA
102
{ACAD_REACTORS
330
18
102
}
330
18
100
AcDbGroup
300

 70
     1
 71
     1
  0
GROUP
  5
2FE9
102
{ACAD_REACTORS
330
18
102
}
330
18
100
AcDbGroup
300

 70
     1
 71
     1
  0
GROUP
  5
3650
102
{ACAD_REACTORS
330
18
102
}
330
18
100
AcDbGroup
300

 70
     1
 71
     1
  0
GROUP
  5
2862
102
{ACAD_REACTORS
330
18
102
}
330
18
100
AcDbGroup
300

 70
     1
 71
     1
  0
GROUP
  5
367C
102
{ACAD_REACTORS
330
18
102
}
330
18
100
AcDbGroup
300

 70
     1
 71
     1
  0
GROUP
  5
18ED
102
{ACAD_REACTORS
330
18
102
}
330
18
100
AcDbGroup
300

 70
     1
 71
     1
  0
GROUP
  5
19E5
102
{ACAD_REACTORS
330
18
102
}
330
18
100
AcDbGroup
300

 70
     1
 71
     1
  0
GROUP
  5
1F8A
102
{ACAD_REACTORS
330
18
102
}
330
18
100
AcDbGroup
300

 70
     1
 71
     1
  0
GROUP
  5
1682
102
{ACAD_REACTORS
330
18
102
}
330
18
100
AcDbGroup
300

 70
     1
 71
     1
  0
GROUP
  5
2108
102
{ACAD_REACTORS
330
18
102
}
330
18
100
AcDbGroup
300

 70
     1
 71
     1
  0
GROUP
  5
4989
102
{ACAD_REACTORS
330
18
102
}
330
18
100
AcDbGroup
300

 70
     1
 71
     1
  0
GROUP
  5
3732
102
{ACAD_REACTORS
330
18
102
}
330
18
100
AcDbGroup
300

 70
     1
 71
     1
  0
GROUP
  5
563B
102
{ACAD_REACTORS
330
18
102
}
330
18
100
AcDbGroup
300

 70
     1
 71
     1
  0
GROUP
  5
38C3
102
{ACAD_REACTORS
330
18
102
}
330
18
100
AcDbGroup
300

 70
     1
 71
     1
  0
GROUP
  5
39C3
102
{ACAD_REACTORS
330
18
102
}
330
18
100
AcDbGroup
300

 70
     1
 71
     1
  0
GROUP
  5
37CF
102
{ACAD_REACTORS
330
18
102
}
330
18
100
AcDbGroup
300

 70
     1
 71
     1
  0
GROUP
  5
2335
102
{ACAD_REACTORS
330
18
102
}
330
18
100
AcDbGroup
300

 70
     1
 71
     1
  0
GROUP
  5
3AB4
102
{ACAD_REACTORS
330
18
102
}
330
18
100
AcDbGroup
300

 70
     1
 71
     1
  0
GROUP
  5
3BBC
102
{ACAD_REACTORS
330
18
102
}
330
18
100
AcDbGroup
300

 70
     1
 71
     1
  0
GROUP
  5
58EE
102
{ACAD_REACTORS
330
18
102
}
330
18
100
AcDbGroup
300

 70
     1
 71
     1
  0
GROUP
  5
5A5E
102
{ACAD_REACTORS
330
18
102
}
330
18
100
AcDbGroup
300

 70
     1
 71
     1
  0
GROUP
  5
3D8C
102
{ACAD_REACTORS
330
18
102
}
330
18
100
AcDbGroup
300

 70
     1
 71
     1
  0
GROUP
  5
419F
102
{ACAD_REACTORS
330
18
102
}
330
18
100
AcDbGroup
300

 70
     1
 71
     1
  0
GROUP
  5
5AF5
102
{ACAD_REACTORS
330
18
102
}
330
18
100
AcDbGroup
300

 70
     1
 71
     1
  0
GROUP
  5
439B
102
{ACAD_REACTORS
330
18
102
}
330
18
100
AcDbGroup
300

 70
     1
 71
     1
  0
GROUP
  5
4590
102
{ACAD_REACTORS
330
18
102
}
330
18
100
AcDbGroup
300

 70
     1
 71
     1
  0
GROUP
  5
312A
102
{ACAD_REACTORS
330
18
102
}
330
18
100
AcDbGroup
300

 70
     1
 71
     1
  0
GROUP
  5
299B
102
{ACAD_REACTORS
330
18
102
}
330
18
100
AcDbGroup
300

 70
     1
 71
     1
  0
GROUP
  5
46F3
102
{ACAD_REACTORS
330
18
102
}
330
18
100
AcDbGroup
300

 70
     1
 71
     1
  0
GROUP
  5
61CC
102
{ACAD_REACTORS
330
18
102
}
330
18
100
AcDbGroup
300

 70
     1
 71
     1
  0
GROUP
  5
2C07
102
{ACAD_REACTORS
330
18
102
}
330
18
100
AcDbGroup
300

 70
     1
 71
     1
  0
GROUP
  5
2DB5
102
{ACAD_REACTORS
330
18
102
}
330
18
100
AcDbGroup
300

 70
     1
 71
     1
  0
GROUP
  5
4B40
102
{ACAD_REACTORS
330
18
102
}
330
18
100
AcDbGroup
300

 70
     1
 71
     1
  0
GROUP
  5
1827
102
{ACAD_REACTORS
330
18
102
}
330
18
100
AcDbGroup
300

 70
     1
 71
     1
  0
GROUP
  5
2E88
102
{ACAD_REACTORS
330
18
102
}
330
18
100
AcDbGroup
300

 70
     1
 71
     1
  0
GROUP
  5
640B
102
{ACAD_REACTORS
330
18
102
}
330
18
100
AcDbGroup
300

 70
     1
 71
     1
  0
GROUP
  5
6570
102
{ACAD_REACTORS
330
18
102
}
330
18
100
AcDbGroup
300

 70
     1
 71
     1
340
651A
340
6519
340
6518
340
6517
340
6516
340
6515
340
6514
340
6513
340
6512
340
6511
340
6510
340
650F
340
650E
340
650D
340
650C
340
650B
340
650A
340
6509
340
6508
340
6507
340
6506
340
6505
340
6504
340
6503
340
6502
340
6501
340
6500
340
64FF
340
64FE
340
64FD
340
64FC
340
64FB
340
64FA
340
64F9
340
64F8
340
64F7
340
64F6
340
64F5
340
64F4
340
64F3
340
64F2
340
64F1
340
64F0
340
64EF
340
64EE
340
64ED
340
64EC
340
64EB
340
64EA
340
64E9
340
64E8
340
64E7
340
64E6
340
64E5
340
64E4
340
64E3
340
64E2
340
64E1
340
64E0
340
64DF
340
64DE
340
64DD
340
64DC
340
64DB
340
64DA
340
64D9
340
64D8
340
64D7
340
64D6
340
64D5
340
64D4
340
64D3
340
64D2
340
64D1
340
64D0
340
64CF
340
64CE
340
64CD
340
64CC
340
64CB
340
64CA
340
64C9
340
64C8
340
64C7
340
64C6
340
64C5
340
64C4
340
64C3
340
64C2
340
64C1
340
64C0
340
64BF
340
64BE
340
64BD
340
64BC
340
64BB
340
64BA
340
64B9
340
64B8
340
64B7
340
64B6
340
64B5
340
64B4
340
64B3
340
64B2
340
64B1
340
64B0
340
64AF
340
64AE
340
64AD
340
64AC
340
64AB
340
64AA
340
64A9
340
64A8
340
64A7
340
64A6
340
64A5
340
64A4
340
64A3
340
64A2
340
64A1
340
64A0
340
649F
340
649E
340
649D
340
649C
  0
GROUP
  5
15D1
102
{ACAD_REACTORS
330
18
102
}
330
18
100
AcDbGroup
300

 70
     1
 71
     1
  0
GROUP
  5
4CED
102
{ACAD_REACTORS
330
18
102
}
330
18
100
AcDbGroup
300

 70
     1
 71
     1
  0
GROUP
  5
3837
102
{ACAD_REACTORS
330
18
102
}
330
18
100
AcDbGroup
300

 70
     1
 71
     1
  0
GROUP
  5
4EB3
102
{ACAD_REACTORS
330
18
102
}
330
18
100
AcDbGroup
300

 70
     1
 71
     1
  0
LAYOUT
  5
5A
102
{ACAD_XDICTIONARY
360
6597
102
}
102
{ACAD_REACTORS
330
58
102
}
330
58
100
AcDbPlotSettings
  1

  2
none_device
  4
Letter_(8.50_x_11.00_Inches)
  6

 40
6.349999904632568
 41
6.349999904632568
 42
6.350006103515625
 43
6.350006103515625
 44
215.8999938964844
 45
279.3999938964844
 46
0.0
 47
0.0
 48
0.0
 49
0.0
140
0.0
141
0.0
142
1.0
143
76.54229552604896
 70
 11952
 72
     0
 73
     1
 74
     0
  7
monochrome.ctb
 75
     0
147
0.0130646721936851
148
9973.459437949902
149
463.9633285297773
100
AcDbLayout
  1
Model
 70
     1
 71
     0
 10
0.0
 20
0.0
 11
12.0
 21
9.0
 12
0.0
 22
0.0
 32
0.0
 14
0.0
 24
0.0
 34
0.0
 15
0.0
 25
0.0
 35
0.0
146
0.0
 13
0.0
 23
0.0
 33
0.0
 16
1.0
 26
0.0
 36
0.0
 17
0.0
 27
1.0
 37
0.0
 76
     0
330
2
1001
ACAD_PSEXT
1000
なし
1000
なし
1000
適切ではありません
1000
新しいプロッタ環境設定名を選択しない限り、レイアウトは印刷されません。
1070
     0
  0
LAYOUT
  5
5B
102
{ACAD_XDICTIONARY
360
6599
102
}
102
{ACAD_REACTORS
330
58
102
}
330
58
100
AcDbPlotSettings
  1

  2
なし
  4

  6

 40
0.0
 41
0.0
 42
0.0
 43
0.0
 44
0.0
 45
0.0
 46
0.0
 47
0.0
 48
0.0
 49
0.0
140
0.0
141
0.0
142
1.0
143
1.0
 70
   688
 72
     0
 73
     0
 74
     5
  7
monochrome.ctb
 75
    16
147
1.0
148
0.0
149
0.0
100
AcDbLayout
  1
ﾚｲｱｳﾄ1
 70
     1
 71
     1
 10
0.0
 20
0.0
 11
12.0
 21
9.0
 12
0.0
 22
0.0
 32
0.0
 14
1.000000000000000E+20
 24
1.000000000000000E+20
 34
1.000000000000000E+20
 15
-1.000000000000000E+20
 25
-1.000000000000000E+20
 35
-1.000000000000000E+20
146
0.0
 13
0.0
 23
0.0
 33
0.0
 16
1.0
 26
0.0
 36
0.0
 17
0.0
 27
1.0
 37
0.0
 76
     0
330
7
  0
MLINESTYLE
  5
1D
102
{ACAD_REACTORS
330
19
102
}
330
19
100
AcDbMlineStyle
  2
STANDARD
 70
     0
  3

 62
   256
 51
90.0
 52
90.0
 71
     2
 49
0.5
 62
   256
  6
BYLAYER
 49
-0.5
 62
   256
  6
BYLAYER
  0
ACDBPLACEHOLDER
  5
57
102
{ACAD_REACTORS
330
56
102
}
330
56
  0
TABLESTYLE
  5
146
102
{ACAD_REACTORS
330
145
102
}
330
145
100
AcDbTableStyle
  3
Standard
 70
     0
 71
     0
 40
0.06
 41
0.06
280
     0
281
     0
  7
STANDARD
140
0.18
170
     2
 62
     0
 63
     7
283
     0
274
    -2
284
     1
 64
     0
275
    -2
285
     1
 65
     0
276
    -2
286
     1
 66
     0
277
    -2
287
     1
 67
     0
278
    -2
288
     1
 68
     0
279
    -2
289
     1
 69
     0
  7
STANDARD
140
0.25
170
     5
 62
     0
 63
     7
283
     0
274
    -2
284
     1
 64
     0
275
    -2
285
     1
 65
     0
276
    -2
286
     1
 66
     0
277
    -2
287
     1
 67
     0
278
    -2
288
     1
 68
     0
279
    -2
289
     1
 69
     0
  7
STANDARD
140
0.18
170
     5
 62
     0
 63
     7
283
     0
274
    -2
284
     1
 64
     0
275
    -2
285
     1
 65
     0
276
    -2
286
     1
 66
     0
277
    -2
287
     1
 67
     0
278
    -2
288
     1
 68
     0
279
    -2
289
     1
 69
     0
  0
DICTIONARYVAR
  5
1D2
102
{ACAD_REACTORS
330
1D1
102
}
330
1D1
100
DictionaryVariables
280
     0
  1
STANDARD
  0
DICTIONARYVAR
  5
D03
102
{ACAD_REACTORS
330
1D1
102
}
330
1D1
100
DictionaryVariables
280
     0
  1
1
  0
DICTIONARYVAR
  5
D04
102
{ACAD_REACTORS
330
1D1
102
}
330
1D1
100
DictionaryVariables
280
     0
  1

  0
DICTIONARY
  5
6597
330
5A
100
AcDbDictionary
280
     1
281
     1
  3
ACAD_XREC_ROUNDTRIP
360
6598
  0
DICTIONARY
  5
6599
330
5B
100
AcDbDictionary
280
     1
281
     1
  3
ACAD_XREC_ROUNDTRIP
360
659A
  0
XRECORD
  5
6598
102
{ACAD_REACTORS
330
6597
102
}
330
6597
100
AcDbXrecord
280
     1
102
SHADEPLOT
 70
     0
102
SHADEPLOTRESLEVEL
 70
     2
102
SHADEPLOTCUSTOMDPI
 70
   300
  0
XRECORD
  5
659A
102
{ACAD_REACTORS
330
6599
102
}
330
6599
100
AcDbXrecord
280
     1
102
SHADEPLOT
 70
     0
102
SHADEPLOTRESLEVEL
 70
     2
102
SHADEPLOTCUSTOMDPI
 70
   300
  0
ENDSEC
  0
EOF
