  0
SECTION
  2
HEADER
  9
$ACADVER
  1
AC1015
  9
$ACADMAINTVER
 70
    20
  9
$DWGCODEPAGE
  3
ANSI_932
  9
$INSBASE
 10
922.019522
 20
-675.4306699999999
 30
0.0
  9
$EXTMIN
 10
-172.9443705320463
 20
0.0
 30
0.0
  9
$EXTMAX
 10
279.2063881456176
 20
155.8782282988941
 30
0.0
  9
$LIMMIN
 10
0.0
 20
0.0
  9
$LIMMAX
 10
420.0
 20
297.0
  9
$ORTHOMODE
 70
     1
  9
$REGENMODE
 70
     1
  9
$FILLMODE
 70
     1
  9
$QTEXTMODE
 70
     0
  9
$MIRRTEXT
 70
     1
  9
$LTSCALE
 40
1.0
  9
$ATTMODE
 70
     1
  9
$TEXTSIZE
 40
30.0
  9
$TRACEWID
 40
0.05
  9
$TEXTSTYLE
  7
SUNPOU
  9
$CLAYER
  8
0
  9
$CELTYPE
  6
BYLAYER
  9
$CECOLOR
 62
   256
  9
$CELTSCALE
 40
1.0
  9
$DISPSILH
 70
     0
  9
$DIMSCALE
 40
1.0
  9
$DIMASZ
 40
2.0
  9
$DIMEXO
 40
10.0
  9
$DIMDLI
 40
0.38
  9
$DIMRND
 40
0.0
  9
$DIMDLE
 40
0.0
  9
$DIMEXE
 40
0.0
  9
$DIMTP
 40
0.0
  9
$DIMTM
 40
0.0
  9
$DIMTXT
 40
10.0
  9
$DIMCEN
 40
0.0
  9
$DIMTSZ
 40
0.0
  9
$DIMTOL
 70
     0
  9
$DIMLIM
 70
     0
  9
$DIMTIH
 70
     0
  9
$DIMTOH
 70
     0
  9
$DIMSE1
 70
     0
  9
$DIMSE2
 70
     0
  9
$DIMTAD
 70
     1
  9
$DIMZIN
 70
     0
  9
$DIMBLK
  1
Dot
  9
$DIMASO
 70
     1
  9
$DIMSHO
 70
     1
  9
$DIMPOST
  1

  9
$DIMAPOST
  1

  9
$DIMALT
 70
     0
  9
$DIMALTD
 70
     2
  9
$DIMALTF
 40
25.4
  9
$DIMLFAC
 40
1.0
  9
$DIMTOFL
 70
     0
  9
$DIMTVP
 40
0.0
  9
$DIMTIX
 70
     0
  9
$DIMSOXD
 70
     0
  9
$DIMSAH
 70
     0
  9
$DIMBLK1
  1

  9
$DIMBLK2
  1

  9
$DIMSTYLE
  2
STANDARD
  9
$DIMCLRD
 70
    60
  9
$DIMCLRE
 70
    70
  9
$DIMCLRT
 70
    60
  9
$DIMTFAC
 40
0.064286
  9
$DIMGAP
 40
3.0
  9
$DIMJUST
 70
     0
  9
$DIMSD1
 70
     0
  9
$DIMSD2
 70
     0
  9
$DIMTOLJ
 70
     1
  9
$DIMTZIN
 70
     0
  9
$DIMALTZ
 70
     0
  9
$DIMALTTZ
 70
     0
  9
$DIMUPT
 70
     0
  9
$DIMDEC
 70
     0
  9
$DIMTDEC
 70
     0
  9
$DIMALTU
 70
     2
  9
$DIMALTTD
 70
     2
  9
$DIMTXSTY
  7
SUNPOU
  9
$DIMAUNIT
 70
     0
  9
$DIMADEC
 70
     0
  9
$DIMALTRND
 40
0.0
  9
$DIMAZIN
 70
     0
  9
$DIMDSEP
 70
    46
  9
$DIMATFIT
 70
     3
  9
$DIMFRAC
 70
     0
  9
$DIMLDRBLK
  1

  9
$DIMLUNIT
 70
     2
  9
$DIMLWD
 70
    -2
  9
$DIMLWE
 70
    -2
  9
$DIMTMOVE
 70
     0
  9
$LUNITS
 70
     2
  9
$LUPREC
 70
     5
  9
$SKETCHINC
 40
0.1
  9
$FILLETRAD
 40
0.0
  9
$AUNITS
 70
     0
  9
$AUPREC
 70
     0
  9
$MENU
  1
acad
  9
$ELEVATION
 40
0.0
  9
$PELEVATION
 40
0.0
  9
$THICKNESS
 40
0.0
  9
$LIMCHECK
 70
     0
  9
$CHAMFERA
 40
0.0
  9
$CHAMFERB
 40
0.0
  9
$CHAMFERC
 40
0.0
  9
$CHAMFERD
 40
0.0
  9
$SKPOLY
 70
     0
  9
$TDCREATE
 40
2450623.654673033
  9
$TDUCREATE
 40
2450623.279673032
  9
$TDUPDATE
 40
2453865.445125313
  9
$TDUUPDATE
 40
2453865.070125313
  9
$TDINDWG
 40
0.3285702083
  9
$TDUSRTIMER
 40
0.3285700347
  9
$USRTIMER
 70
     1
  9
$ANGBASE
 50
0.0
  9
$ANGDIR
 70
     0
  9
$PDMODE
 70
     0
  9
$PDSIZE
 40
0.0
  9
$PLINEWID
 40
0.0
  9
$SPLFRAME
 70
     0
  9
$SPLINETYPE
 70
     6
  9
$SPLINESEGS
 70
     8
  9
$HANDSEED
  5
5910
  9
$SURFTAB1
 70
     6
  9
$SURFTAB2
 70
     6
  9
$SURFTYPE
 70
     6
  9
$SURFU
 70
     6
  9
$SURFV
 70
     6
  9
$UCSBASE
  2

  9
$UCSNAME
  2

  9
$UCSORG
 10
0.0
 20
0.0
 30
0.0
  9
$UCSXDIR
 10
1.0
 20
0.0
 30
0.0
  9
$UCSYDIR
 10
0.0
 20
1.0
 30
0.0
  9
$UCSORTHOREF
  2

  9
$UCSORTHOVIEW
 70
     0
  9
$UCSORGTOP
 10
0.0
 20
0.0
 30
0.0
  9
$UCSORGBOTTOM
 10
0.0
 20
0.0
 30
0.0
  9
$UCSORGLEFT
 10
0.0
 20
0.0
 30
0.0
  9
$UCSORGRIGHT
 10
0.0
 20
0.0
 30
0.0
  9
$UCSORGFRONT
 10
0.0
 20
0.0
 30
0.0
  9
$UCSORGBACK
 10
0.0
 20
0.0
 30
0.0
  9
$PUCSBASE
  2

  9
$PUCSNAME
  2

  9
$PUCSORG
 10
0.0
 20
0.0
 30
0.0
  9
$PUCSXDIR
 10
1.0
 20
0.0
 30
0.0
  9
$PUCSYDIR
 10
0.0
 20
1.0
 30
0.0
  9
$PUCSORTHOREF
  2

  9
$PUCSORTHOVIEW
 70
     0
  9
$PUCSORGTOP
 10
0.0
 20
0.0
 30
0.0
  9
$PUCSORGBOTTOM
 10
0.0
 20
0.0
 30
0.0
  9
$PUCSORGLEFT
 10
0.0
 20
0.0
 30
0.0
  9
$PUCSORGRIGHT
 10
0.0
 20
0.0
 30
0.0
  9
$PUCSORGFRONT
 10
0.0
 20
0.0
 30
0.0
  9
$PUCSORGBACK
 10
0.0
 20
0.0
 30
0.0
  9
$USERI1
 70
     0
  9
$USERI2
 70
     0
  9
$USERI3
 70
     0
  9
$USERI4
 70
     0
  9
$USERI5
 70
     0
  9
$USERR1
 40
0.0
  9
$USERR2
 40
0.0
  9
$USERR3
 40
0.0
  9
$USERR4
 40
0.0
  9
$USERR5
 40
0.0
  9
$WORLDVIEW
 70
     1
  9
$SHADEDGE
 70
     3
  9
$SHADEDIF
 70
    70
  9
$TILEMODE
 70
     1
  9
$MAXACTVP
 70
    16
  9
$PINSBASE
 10
0.0
 20
0.0
 30
0.0
  9
$PLIMCHECK
 70
     0
  9
$PEXTMIN
 10
1.000000000000000E+20
 20
1.000000000000000E+20
 30
1.000000000000000E+20
  9
$PEXTMAX
 10
-1.000000000000000E+20
 20
-1.000000000000000E+20
 30
-1.000000000000000E+20
  9
$PLIMMIN
 10
0.0
 20
0.0
  9
$PLIMMAX
 10
12.0
 20
9.0
  9
$UNITMODE
 70
     0
  9
$VISRETAIN
 70
     0
  9
$PLINEGEN
 70
     0
  9
$PSLTSCALE
 70
     1
  9
$TREEDEPTH
 70
  3020
  9
$CMLSTYLE
  2
STANDARD
  9
$CMLJUST
 70
     0
  9
$CMLSCALE
 40
1.0
  9
$PROXYGRAPHICS
 70
     1
  9
$MEASUREMENT
 70
     0
  9
$CELWEIGHT
370
    -1
  9
$ENDCAPS
280
     0
  9
$JOINSTYLE
280
     0
  9
$LWDISPLAY
290
     0
  9
$INSUNITS
 70
     0
  9
$HYPERLINKBASE
  1

  9
$STYLESHEET
  1
monochrome.ctb
  9
$XEDIT
290
     1
  9
$CEPSNTYPE
380
     0
  9
$PSTYLEMODE
290
     1
  9
$FINGERPRINTGUID
  2
{FB88A696-E29C-4009-92AF-A3599A8169D5}
  9
$VERSIONGUID
  2
{3BD20022-A059-4F9F-90BF-B26294E2AA28}
  9
$EXTNAMES
290
     1
  9
$PSVPSCALE
 40
0.0
  9
$OLESTARTUP
290
     0
  0
ENDSEC
  0
SECTION
  2
CLASSES
  0
CLASS
  1
DICTIONARYVAR
  2
AcDbDictionaryVar
  3
ObjectDBX Classes
 90
        0
280
     0
281
     0
  0
CLASS
  1
ACDBDICTIONARYWDFLT
  2
AcDbDictionaryWithDefault
  3
ObjectDBX Classes
 90
        0
280
     0
281
     0
  0
CLASS
  1
ACDBPLACEHOLDER
  2
AcDbPlaceHolder
  3
ObjectDBX Classes
 90
        0
280
     0
281
     0
  0
CLASS
  1
LAYOUT
  2
AcDbLayout
  3
ObjectDBX Classes
 90
        0
280
     0
281
     0
  0
CLASS
  1
TABLESTYLE
  2
AcDbTableStyle
  3
ObjectDBX Classes
 90
     2047
280
     0
281
     0
  0
CLASS
  1
SORTENTSTABLE
  2
AcDbSortentsTable
  3
ObjectDBX Classes
 90
        0
280
     0
281
     0
  0
ENDSEC
  0
SECTION
  2
TABLES
  0
TABLE
  2
VPORT
  5
12
330
0
100
AcDbSymbolTable
 70
     3
  0
VPORT
  5
590A
330
12
100
AcDbSymbolTableRecord
100
AcDbViewportTableRecord
  2
*Active
 70
     0
 10
0.0
 20
0.0
 11
1.0
 21
1.0
 12
53.30402367357709
 22
77.93893493553497
 13
0.0
 23
0.0
 14
1.0
 24
1.0
 15
0.0
 25
0.0
 16
0.0
 26
0.0
 36
1.0
 17
0.0
 27
0.0
 37
0.0
 40
291.2756789402084
 41
1.561381074168797
 42
50.0
 43
0.0
 44
0.0
 50
0.0
 51
0.0
 71
     0
 72
 20000
 73
     1
 74
     1
 75
     0
 76
     0
 77
     0
 78
     0
281
     0
 65
     1
110
0.0
120
0.0
130
0.0
111
1.0
121
0.0
131
0.0
112
0.0
122
1.0
132
0.0
 79
     0
146
0.0
  0
ENDTAB
  0
TABLE
  2
LTYPE
  5
D
330
0
100
AcDbSymbolTable
 70
     1
  0
LTYPE
  5
E
330
D
100
AcDbSymbolTableRecord
100
AcDbLinetypeTableRecord
  2
BYBLOCK
 70
     0
  3

 72
    65
 73
     0
 40
0.0
  0
LTYPE
  5
F
330
D
100
AcDbSymbolTableRecord
100
AcDbLinetypeTableRecord
  2
BYLAYER
 70
     0
  3

 72
    65
 73
     0
 40
0.0
  0
LTYPE
  5
5
330
D
100
AcDbSymbolTableRecord
100
AcDbLinetypeTableRecord
  2
CONTINUOUS
 70
     0
  3
Solid line
 72
    65
 73
     0
 40
0.0
  0
ENDTAB
  0
TABLE
  2
LAYER
  5
A
102
{ACAD_XDICTIONARY
360
1B4
102
}
330
0
100
AcDbSymbolTable
 70
     6
  0
LAYER
  5
4
330
A
100
AcDbSymbolTableRecord
100
AcDbLayerTableRecord
  2
0
 70
     0
 62
     7
  6
CONTINUOUS
370
    -3
390
57
  0
LAYER
  5
25
330
A
100
AcDbSymbolTableRecord
100
AcDbLayerTableRecord
  2
KIJUN
 70
     0
 62
     7
  6
CONTINUOUS
370
    -3
390
57
  0
LAYER
  5
22
330
A
100
AcDbSymbolTableRecord
100
AcDbLayerTableRecord
  2
HOJO
 70
     0
 62
     3
  6
CONTINUOUS
370
    -3
390
57
  0
LAYER
  5
1B
330
A
100
AcDbSymbolTableRecord
100
AcDbLayerTableRecord
  2
WAKU
 70
     0
 62
     1
  6
CONTINUOUS
370
    -3
390
57
  0
LAYER
  5
31
330
A
100
AcDbSymbolTableRecord
100
AcDbLayerTableRecord
  2
DEFPOINTS
 70
     0
 62
     7
  6
CONTINUOUS
290
     0
370
    -3
390
57
  0
LAYER
  5
28
330
A
100
AcDbSymbolTableRecord
100
AcDbLayerTableRecord
  2
SUNPOU
 70
     0
 62
    70
  6
CONTINUOUS
370
    -3
390
57
  0
ENDTAB
  0
TABLE
  2
STYLE
  5
B
330
0
100
AcDbSymbolTable
 70
     3
  0
STYLE
  5
C
330
B
100
AcDbSymbolTableRecord
100
AcDbTextStyleTableRecord
  2
STANDARD
 70
     0
 40
0.0
 41
1.0
 50
0.0
 71
     0
 42
0.2
  3
txt
  4

  0
STYLE
  5
1C
330
B
100
AcDbSymbolTableRecord
100
AcDbTextStyleTableRecord
  2
SUNPOU
 70
     0
 40
0.0
 41
1.0
 50
0.0
 71
     0
 42
30.0
  3
txt
  4
bigfont
  0
STYLE
  5
14A
330
B
100
AcDbSymbolTableRecord
100
AcDbTextStyleTableRecord
  2
LIFE
 70
     0
 40
0.0
 41
0.7
 50
0.0
 71
     0
 42
10.0
  3
romans
  4
extfont
  0
ENDTAB
  0
TABLE
  2
VIEW
  5
10
330
0
100
AcDbSymbolTable
 70
     0
  0
ENDTAB
  0
TABLE
  2
UCS
  5
11
330
0
100
AcDbSymbolTable
 70
     0
  0
ENDTAB
  0
TABLE
  2
APPID
  5
14
330
0
100
AcDbSymbolTable
 70
    11
  0
APPID
  5
15
330
14
100
AcDbSymbolTableRecord
100
AcDbRegAppTableRecord
  2
ACAD
 70
     0
  0
APPID
  5
1D3
330
14
100
AcDbSymbolTableRecord
100
AcDbRegAppTableRecord
  2
ACAD_DSTYLE_DIMTEXT_FILL
 70
     0
  0
APPID
  5
1D4
330
14
100
AcDbSymbolTableRecord
100
AcDbRegAppTableRecord
  2
ACAD_DSTYLE_DIMEXT_LENGTH
 70
     0
  0
APPID
  5
1D5
330
14
100
AcDbSymbolTableRecord
100
AcDbRegAppTableRecord
  2
ACAD_DSTYLE_DIMEXT_ENABLED
 70
     0
  0
APPID
  5
1D6
330
14
100
AcDbSymbolTableRecord
100
AcDbRegAppTableRecord
  2
ACAD_DSTYLE_DIM_LINETYPE
 70
     0
  0
APPID
  5
1D7
330
14
100
AcDbSymbolTableRecord
100
AcDbRegAppTableRecord
  2
ACAD_DSTYLE_DIM_EXT1_LINETYPE
 70
     0
  0
APPID
  5
1D8
330
14
100
AcDbSymbolTableRecord
100
AcDbRegAppTableRecord
  2
ACAD_DSTYLE_DIM_EXT2_LINETYPE
 70
     0
  0
APPID
  5
294
330
14
100
AcDbSymbolTableRecord
100
AcDbRegAppTableRecord
  2
ACAD_DSTYLE_DIMJOGGED_JOGANGLE_SYMBOL
 70
     0
  0
APPID
  5
478
330
14
100
AcDbSymbolTableRecord
100
AcDbRegAppTableRecord
  2
ACAD_DSTYLE_DIMARC_LENGTH_SYMBOL
 70
     0
  0
APPID
  5
157B
330
14
100
AcDbSymbolTableRecord
100
AcDbRegAppTableRecord
  2
ACAD_EXEMPT_FROM_CAD_STANDARDS
 70
     0
  0
APPID
  5
5228
330
14
100
AcDbSymbolTableRecord
100
AcDbRegAppTableRecord
  2
ACAD_PSEXT
 70
     0
  0
ENDTAB
  0
TABLE
  2
DIMSTYLE
  5
16
330
0
100
AcDbSymbolTable
 70
     1
100
AcDbDimStyleTable
 71
     1
340
1E
  0
DIMSTYLE
105
1E
102
{ACAD_REACTORS
330
585F
330
586C
102
}
330
16
100
AcDbSymbolTableRecord
100
AcDbDimStyleTableRecord
  2
STANDARD
 70
     0
340
C
  0
ENDTAB
  0
TABLE
  2
BLOCK_RECORD
  5
1
330
0
100
AcDbSymbolTable
 70
    11
  0
BLOCK_RECORD
  5
2
102
{ACAD_XDICTIONARY
360
1578
102
}
330
1
100
AcDbSymbolTableRecord
100
AcDbBlockTableRecord
  2
*MODEL_SPACE
340
5A
  0
BLOCK_RECORD
  5
7
330
1
100
AcDbSymbolTableRecord
100
AcDbBlockTableRecord
  2
*PAPER_SPACE
340
5B
  0
BLOCK_RECORD
  5
109
330
1
100
AcDbSymbolTableRecord
100
AcDbBlockTableRecord
  2
_Dot
340
0
102
{BLKREFS
331
562B
331
562C
331
5635
331
5636
331
58DF
331
58E0
331
58FE
331
58FF
102
}
  0
BLOCK_RECORD
  5
5860
330
1
100
AcDbSymbolTableRecord
100
AcDbBlockTableRecord
  2
*D9
340
0
  0
BLOCK_RECORD
  5
586D
330
1
100
AcDbSymbolTableRecord
100
AcDbBlockTableRecord
  2
*D10
340
0
  0
ENDTAB
  0
ENDSEC
  0
SECTION
  2
BLOCKS
  0
BLOCK
  5
3
330
2
100
AcDbEntity
  8
0
100
AcDbBlockBegin
  2
*MODEL_SPACE
 70
     0
 10
0.0
 20
0.0
 30
0.0
  3
*MODEL_SPACE
  1

  0
ENDBLK
  5
6
330
2
100
AcDbEntity
  8
0
100
AcDbBlockEnd
  0
BLOCK
  5
8
330
7
100
AcDbEntity
 67
     1
  8
0
100
AcDbBlockBegin
  2
*PAPER_SPACE
 70
     0
 10
0.0
 20
0.0
 30
0.0
  3
*PAPER_SPACE
  1

  0
ENDBLK
  5
9
330
7
100
AcDbEntity
 67
     1
  8
0
100
AcDbBlockEnd
  0
BLOCK
  5
10C
330
109
100
AcDbEntity
  8
0
100
AcDbBlockBegin
  2
_Dot
 70
     0
 10
0.0
 20
0.0
 30
0.0
  3
_Dot
  1

  0
LWPOLYLINE
  5
10A
330
109
100
AcDbEntity
  8
0
  6
ByBlock
 62
     0
100
AcDbPolyline
 90
        2
 70
     1
 43
0.5
 10
-0.25
 20
0.0
 42
1.0
 10
0.25
 20
0.0
 42
1.0
  0
LINE
  5
10B
330
109
100
AcDbEntity
  8
0
  6
ByBlock
 62
     0
370
    -2
100
AcDbLine
 10
-0.5
 20
0.0
 30
0.0
 11
-1.0
 21
0.0
 31
0.0
  0
ENDBLK
  5
10D
330
109
100
AcDbEntity
  8
0
100
AcDbBlockEnd
  0
BLOCK
  5
586A
330
5860
100
AcDbEntity
  8
0
100
AcDbBlockBegin
  2
*D9
 70
     1
 10
0.0
 20
0.0
 30
0.0
  3
*D9
  1

  0
LINE
  5
58DC
330
5860
100
AcDbEntity
  8
SUNPOU
 62
    70
370
    -2
100
AcDbLine
 10
-131.7936118543824
 20
109.4742540494277
 30
0.0
 11
-131.7936118543824
 21
142.8782282988941
 31
0.0
  0
LINE
  5
58DD
330
5860
100
AcDbEntity
  8
SUNPOU
 62
    70
370
    -2
100
AcDbLine
 10
278.2063881456176
 20
109.4742540494277
 30
0.0
 11
278.2063881456176
 21
142.8782282988941
 31
0.0
  0
LINE
  5
58DE
330
5860
100
AcDbEntity
  8
SUNPOU
 62
    60
370
    -2
100
AcDbLine
 10
-129.7936118543824
 20
142.8782282988941
 30
0.0
 11
276.2063881456175
 21
142.8782282988941
 31
0.0
  0
INSERT
  5
58DF
330
5860
100
AcDbEntity
  8
SUNPOU
 62
    60
370
    -2
100
AcDbBlockReference
  2
_Dot
 10
-131.7936118543824
 20
142.8782282988941
 30
0.0
 41
2.0
 42
2.0
 43
2.0
 50
180.0
  0
INSERT
  5
58E0
330
5860
100
AcDbEntity
  8
SUNPOU
 62
    60
370
    -2
100
AcDbBlockReference
  2
_Dot
 10
278.2063881456176
 20
142.8782282988941
 30
0.0
 41
2.0
 42
2.0
 43
2.0
  0
MTEXT
  5
58E1
330
5860
100
AcDbEntity
  8
SUNPOU
 62
    60
100
AcDbMText
 10
73.20638814561755
 20
150.8782282988941
 30
0.0
 40
10.0
 41
0.0
 71
     5
 72
     1
  1
\A1;410
  7
SUNPOU
 73
     1
 44
1.0
1001
ACAD
1000
MTEXTBEGIN
1070
    73
1070
     1
1070
    44
1040
1.0
1070
    74
1070
     0
1000
MTEXTEND
  0
POINT
  5
58E2
330
5860
100
AcDbEntity
  8
DEFPOINTS
 62
     0
100
AcDbPoint
 10
-131.7936118543824
 20
99.47425404942771
 30
0.0
  0
POINT
  5
58E3
330
5860
100
AcDbEntity
  8
DEFPOINTS
 62
     0
100
AcDbPoint
 10
278.2063881456176
 20
99.47425404942771
 30
0.0
  0
POINT
  5
58E4
330
5860
100
AcDbEntity
  8
DEFPOINTS
 62
     0
100
AcDbPoint
 10
278.2063881456176
 20
142.8782282988941
 30
0.0
  0
ENDBLK
  5
586B
330
5860
100
AcDbEntity
  8
0
100
AcDbBlockEnd
  0
BLOCK
  5
5877
330
586D
100
AcDbEntity
  8
0
100
AcDbBlockBegin
  2
*D10
 70
     1
 10
0.0
 20
0.0
 30
0.0
  3
*D10
  1

  0
LINE
  5
58FB
330
586D
100
AcDbEntity
  8
SUNPOU
 62
    70
370
    -2
100
AcDbLine
 10
-140.340080116829
 20
100.9277857869811
 30
0.0
 11
-159.9443705320462
 21
100.9277857869811
 31
0.0
  0
LINE
  5
58FC
330
586D
100
AcDbEntity
  8
SUNPOU
 62
    70
370
    -2
100
AcDbLine
 10
-138.5012580767122
 20
45.92778578698113
 30
0.0
 11
-159.9443705320463
 21
45.92778578698114
 31
0.0
  0
LINE
  5
58FD
330
586D
100
AcDbEntity
  8
SUNPOU
 62
    60
370
    -2
100
AcDbLine
 10
-159.9443705320462
 20
98.92778578698113
 30
0.0
 11
-159.9443705320463
 21
47.92778578698114
 31
0.0
  0
INSERT
  5
58FE
330
586D
100
AcDbEntity
  8
SUNPOU
 62
    60
370
    -2
100
AcDbBlockReference
  2
_Dot
 10
-159.9443705320462
 20
100.9277857869811
 30
0.0
 41
2.0
 42
2.0
 43
2.0
 50
90.0
  0
INSERT
  5
58FF
330
586D
100
AcDbEntity
  8
SUNPOU
 62
    60
370
    -2
100
AcDbBlockReference
  2
_Dot
 10
-159.9443705320463
 20
45.92778578698114
 30
0.0
 41
2.0
 42
2.0
 43
2.0
 50
270.0
  0
MTEXT
  5
5900
330
586D
100
AcDbEntity
  8
SUNPOU
 62
    60
100
AcDbMText
 10
-167.9443705320463
 20
73.42778578698112
 30
0.0
 40
10.0
 41
0.0
 71
     5
 72
     1
  1
\A1;55
  7
SUNPOU
 11
0.0000000000000001
 21
1.0
 31
0.0
 73
     1
 44
1.0
1001
ACAD
1000
MTEXTBEGIN
1070
    73
1070
     1
1070
    44
1040
1.0
1070
    74
1070
     0
1000
MTEXTEND
  0
POINT
  5
5901
330
586D
100
AcDbEntity
  8
DEFPOINTS
 62
     0
100
AcDbPoint
 10
-130.340080116829
 20
100.9277857869811
 30
0.0
  0
POINT
  5
5902
330
586D
100
AcDbEntity
  8
DEFPOINTS
 62
     0
100
AcDbPoint
 10
-128.5012580767122
 20
45.92778578698113
 30
0.0
  0
POINT
  5
5903
330
586D
100
AcDbEntity
  8
DEFPOINTS
 62
     0
100
AcDbPoint
 10
-159.9443705320463
 20
45.92778578698114
 30
0.0
  0
ENDBLK
  5
5878
330
586D
100
AcDbEntity
  8
0
100
AcDbBlockEnd
  0
ENDSEC
  0
SECTION
  2
ENTITIES
  0
LINE
  5
1F
330
2
100
AcDbEntity
  8
WAKU
100
AcDbLine
 10
0.0
 20
14.0
 30
0.0
 11
141.2350666841796
 21
14.0
 31
0.0
  0
LINE
  5
20
330
2
100
AcDbEntity
  8
WAKU
100
AcDbLine
 10
0.0
 20
0.0
 30
0.0
 11
141.2350666841796
 21
0.0
 31
0.0
  0
TEXT
  5
21
330
2
100
AcDbEntity
  8
HOJO
100
AcDbText
 10
9.653966000000025
 20
2.366626000000024
 30
0.0
 40
9.0
  1
TC336
  7
SUNPOU
100
AcDbText
  0
TEXT
  5
23
330
2
100
AcDbEntity
  8
HOJO
100
AcDbText
 10
75.65253479254602
 20
5.044386000000031
 30
0.0
 40
6.0
  1
410×55×6
  7
SUNPOU
100
AcDbText
  0
ARC
  5
57F3
102
{ACAD_REACTORS
330
58EE
102
}
330
2
100
AcDbEntity
  8
KIJUN
100
AcDbCircle
 10
228.8787926977626
 20
83.74800002800947
 30
0.0
 40
37.00767055185194
100
AcDbArc
 50
245.5015346568292
 51
304.8824052033817
  0
ARC
  5
57F4
102
{ACAD_REACTORS
330
58EE
102
}
330
2
100
AcDbEntity
  8
KIJUN
100
AcDbCircle
 10
228.8787926977626
 20
83.74800002800947
 30
0.0
 40
31.00767055185194
100
AcDbArc
 50
210.1115812823744
 51
304.8824052033817
  0
ARC
  5
57F5
102
{ACAD_REACTORS
330
58EE
102
}
330
2
100
AcDbEntity
  8
KIJUN
100
AcDbCircle
 10
156.3074844494382
 20
50.2057400278781
 30
0.0
 40
14.94916295735539
100
AcDbArc
 50
156.4396760595756
 51
189.0500118062667
  0
ARC
  5
57F6
102
{ACAD_REACTORS
330
58EE
102
}
330
2
100
AcDbEntity
  8
KIJUN
100
AcDbCircle
 10
159.0789858167405
 20
45.59232326400314
 30
0.0
 40
12.4501881732371
100
AcDbArc
 50
125.2544562026322
 51
165.2185201925082
  0
ARC
  5
57F7
102
{ACAD_REACTORS
330
58EE
102
}
330
2
100
AcDbEntity
  8
KIJUN
100
AcDbCircle
 10
78.70216550694715
 20
52.70066841506405
 30
0.0
 40
1.0
100
AcDbArc
 50
273.689426305592
 51
26.52127052839154
  0
ARC
  5
57F8
102
{ACAD_REACTORS
330
58EE
102
}
330
2
100
AcDbEntity
  8
KIJUN
100
AcDbCircle
 10
67.7106107842934
 20
52.70066841506405
 30
0.0
 40
1.0
100
AcDbArc
 50
153.4787294716085
 51
266.3105736944081
  0
ARC
  5
57F9
102
{ACAD_REACTORS
330
58EE
102
}
330
2
100
AcDbEntity
  8
KIJUN
100
AcDbCircle
 10
123.9043049247426
 20
76.70123634974271
 30
0.0
 40
25.43622630296475
100
AcDbArc
 50
287.0278570816839
 51
316.3557420284999
  0
ARC
  5
57FA
102
{ACAD_REACTORS
330
58EE
102
}
330
2
100
AcDbEntity
  8
KIJUN
100
AcDbCircle
 10
113.5944004000517
 20
93.35786512552084
 30
0.0
 40
44.66034249874854
100
AcDbArc
 50
229.3023664911479
 51
293.4304808383434
  0
ARC
  5
57FC
102
{ACAD_REACTORS
330
58EE
102
}
330
2
100
AcDbEntity
  8
KIJUN
100
AcDbCircle
 10
113.6001516243112
 20
81.30321036905554
 30
0.0
 40
29.1198900273331
100
AcDbArc
 50
220.4361166868145
 51
319.5638833132047
  0
ARC
  5
57FE
102
{ACAD_REACTORS
330
58EE
102
}
330
2
100
AcDbEntity
  8
KIJUN
100
AcDbCircle
 10
155.7487094794065
 20
49.10903242486409
 30
0.0
 40
11.03093485219112
100
AcDbArc
 50
124.3847051121332
 51
180.1588226428165
  0
ARC
  5
57FF
102
{ACAD_REACTORS
330
58EE
102
}
330
2
100
AcDbEntity
  8
KIJUN
100
AcDbCircle
 10
151.9993750292866
 20
51.09310021105414
 30
0.0
 40
7.512347201932027
100
AcDbArc
 50
110.0750743555559
 51
194.4634197618819
  0
ARC
  5
5800
102
{ACAD_REACTORS
330
58EE
102
}
330
2
100
AcDbEntity
  8
KIJUN
100
AcDbCircle
 10
147.8520770063047
 20
52.06897138804703
 30
0.0
 40
8.987997806306593
100
AcDbArc
 50
128.0612152091482
 51
194.2756767747233
  0
ARC
  5
5801
102
{ACAD_REACTORS
330
58EE
102
}
330
2
100
AcDbEntity
  8
KIJUN
100
AcDbCircle
 10
149.9929249305502
 20
53.10367052525322
 30
0.0
 40
7.521738323907309
100
AcDbArc
 50
122.4510693185767
 51
194.2992796460888
  0
ARC
  5
5802
102
{ACAD_REACTORS
330
58EE
102
}
330
2
100
AcDbEntity
  8
KIJUN
100
AcDbCircle
 10
83.59429199450245
 20
54.25230676154211
 30
0.0
 40
6.864923412338378
100
AcDbArc
 50
159.4966692035918
 51
202.6772707774401
  0
ARC
  5
5803
102
{ACAD_REACTORS
330
58EE
102
}
330
2
100
AcDbEntity
  8
KIJUN
100
AcDbCircle
 10
86.87009896480196
 20
60.6714410238581
 30
0.0
 40
5.908784927382312
100
AcDbArc
 50
149.2385088230588
 51
301.2066044488533
  0
ARC
  5
5804
102
{ACAD_REACTORS
330
58EE
102
}
330
2
100
AcDbEntity
  8
KIJUN
100
AcDbCircle
 10
59.7207107060591
 20
60.44696611150214
 30
0.0
 40
5.908784927382312
100
AcDbArc
 50
239.7408328852907
 51
31.70892851105654
  0
ARC
  5
5805
102
{ACAD_REACTORS
330
58EE
102
}
330
2
100
AcDbEntity
  8
KIJUN
100
AcDbCircle
 10
62.81848429673721
 20
54.25230676154211
 30
0.0
 40
6.864923412338378
100
AcDbArc
 50
337.3227292225599
 51
20.50333079640821
  0
ARC
  5
5806
102
{ACAD_REACTORS
330
58EE
102
}
330
2
100
AcDbEntity
  8
KIJUN
100
AcDbCircle
 10
-12.66620957948578
 20
45.59232326400314
 30
0.0
 40
12.4501881732371
100
AcDbArc
 50
14.78147980749887
 51
54.74554379736782
  0
ARC
  5
5807
102
{ACAD_REACTORS
330
58EE
102
}
330
2
100
AcDbEntity
  8
KIJUN
100
AcDbCircle
 10
-9.894708212183445
 20
50.2057400278781
 30
0.0
 40
14.94916295735539
100
AcDbArc
 50
350.9499881937333
 51
23.56032394042433
  0
ARC
  5
5808
102
{ACAD_REACTORS
330
58EE
102
}
330
2
100
AcDbEntity
  8
KIJUN
100
AcDbCircle
 10
-82.46601646050875
 20
83.74800002801334
 30
0.0
 40
37.00767055185194
100
AcDbArc
 50
235.1175947966182
 51
294.4984653431708
  0
ARC
  5
5809
102
{ACAD_REACTORS
330
58EE
102
}
330
2
100
AcDbEntity
  8
KIJUN
100
AcDbCircle
 10
-28.26847304567252
 20
-34.13521743463088
 30
0.0
 40
92.73785904355296
100
AcDbArc
 50
75.77492818107616
 51
114.7676941127085
  0
ARC
  5
580A
102
{ACAD_REACTORS
330
58EE
102
}
330
2
100
AcDbEntity
  8
KIJUN
100
AcDbCircle
 10
-9.3359332421536
 20
49.10903242486409
 30
0.0
 40
11.03093485219112
100
AcDbArc
 50
359.8411773571834
 51
55.61529488786675
  0
ARC
  5
580B
102
{ACAD_REACTORS
330
58EE
102
}
330
2
100
AcDbEntity
  8
KIJUN
100
AcDbCircle
 10
-3.580148693296337
 20
53.10367052525322
 30
0.0
 40
7.521738323907309
100
AcDbArc
 50
345.7007203539112
 51
57.54893068142328
  0
ARC
  5
580C
102
{ACAD_REACTORS
330
58EE
102
}
330
2
100
AcDbEntity
  8
KIJUN
100
AcDbCircle
 10
-1.439300769050873
 20
52.06897138804703
 30
0.0
 40
8.987997806306593
100
AcDbArc
 50
345.7243232252768
 51
51.93878479085178
  0
ARC
  5
580D
102
{ACAD_REACTORS
330
58EE
102
}
330
2
100
AcDbEntity
  8
KIJUN
100
AcDbCircle
 10
-5.586598792032759
 20
51.09310021105414
 30
0.0
 40
7.512347201932027
100
AcDbArc
 50
345.5365802381181
 51
69.92492564444408
  0
ARC
  5
580E
102
{ACAD_REACTORS
330
58EE
102
}
330
2
100
AcDbEntity
  8
KIJUN
100
AcDbCircle
 10
22.50847131251124
 20
76.70123634974271
 30
0.0
 40
25.43622630296475
100
AcDbArc
 50
223.6442579715002
 51
252.9721429183161
  0
ARC
  5
5810
102
{ACAD_REACTORS
330
58EE
102
}
330
2
100
AcDbEntity
  8
KIJUN
100
AcDbCircle
 10
-82.46601646050875
 20
83.74800002801334
 30
0.0
 40
31.00767055185194
100
AcDbArc
 50
235.1175947966182
 51
329.8884187176255
  0
ARC
  5
5811
102
{ACAD_REACTORS
330
58EE
102
}
330
2
100
AcDbEntity
  8
KIJUN
100
AcDbCircle
 10
32.81262461294261
 20
81.30321036905399
 30
0.0
 40
29.1198900273314
100
AcDbArc
 50
220.4361166867941
 51
319.5638833131866
  0
ARC
  5
5813
102
{ACAD_REACTORS
330
58EE
102
}
330
2
100
AcDbEntity
  8
KIJUN
100
AcDbCircle
 10
32.81837583720392
 20
93.35786512552084
 30
0.0
 40
44.66034249874854
100
AcDbArc
 50
246.5695191616566
 51
310.6976335088521
  0
ARC
  5
5814
102
{ACAD_REACTORS
330
58EE
102
}
330
2
100
AcDbEntity
  8
KIJUN
100
AcDbCircle
 10
174.6812492829254
 20
-34.13521743463088
 30
0.0
 40
92.73785904355296
100
AcDbArc
 50
65.23230588729148
 51
104.2250718189238
  0
ARC
  5
5815
102
{ACAD_REACTORS
330
58EE
102
}
330
2
100
AcDbEntity
  8
KIJUN
100
AcDbCircle
 10
-69.78651098957505
 20
108.9769290113008
 30
0.0
 40
65.0796948237091
100
AcDbArc
 50
202.5811087276909
 51
238.6651423522498
  0
ARC
  5
5816
102
{ACAD_REACTORS
330
58EE
102
}
330
2
100
AcDbEntity
  8
KIJUN
100
AcDbCircle
 10
57.67753542700268
 20
66.42091210710481
 30
0.0
 40
2.471543597519885
100
AcDbArc
 50
73.5172036107431
 51
214.9358131256582
  0
ARC
  5
5817
102
{ACAD_REACTORS
330
58EE
102
}
330
2
100
AcDbEntity
  8
KIJUN
100
AcDbCircle
 10
38.39597103957715
 20
87.0984675099765
 30
0.0
 40
33.38926845504146
100
AcDbArc
 50
286.8821538867112
 51
312.9554183529392
  0
ARC
  5
5818
102
{ACAD_REACTORS
330
58EE
102
}
330
2
100
AcDbEntity
  8
KIJUN
100
AcDbCircle
 10
-53.88578892502335
 20
67.49899136685911
 30
0.0
 40
1.888733284860599
100
AcDbArc
 50
346.2811014030535
 51
158.4777051302369
  0
ARC
  5
5819
102
{ACAD_REACTORS
330
58EE
102
}
330
2
100
AcDbEntity
  8
KIJUN
100
AcDbCircle
 10
-88.67620219548133
 20
92.22028117366932
 30
0.0
 40
44.43984097408871
100
AcDbArc
 50
310.9028174749555
 51
325.5027908405244
  0
ARC
  5
581A
102
{ACAD_REACTORS
330
58EE
102
}
330
2
100
AcDbEntity
  8
KIJUN
100
AcDbCircle
 10
-107.8483107763826
 20
103.6045763972627
 30
0.0
 40
65.97412199648627
100
AcDbArc
 50
317.0253717124217
 51
327.5904101708477
  0
ARC
  5
581C
102
{ACAD_REACTORS
330
58EE
102
}
330
2
100
AcDbEntity
  8
KIJUN
100
AcDbCircle
 10
-71.3825095674721
 20
106.8542072946526
 30
0.0
 40
56.45162565137116
100
AcDbArc
 50
196.9460750628491
 51
239.3051586071827
  0
ARC
  5
581D
102
{ACAD_REACTORS
330
58EE
102
}
330
2
100
AcDbEntity
  8
KIJUN
100
AcDbCircle
 10
-125.5432984025
 20
94.49165237694421
 30
0.0
 40
4.094626707452523
100
AcDbArc
 50
228.6519296719859
 51
135.8904264072833
  0
ARC
  5
581E
102
{ACAD_REACTORS
330
58EE
102
}
330
2
100
AcDbEntity
  8
KIJUN
100
AcDbCircle
 10
-117.3610451790218
 20
89.52877968328335
 30
0.0
 40
13.56328873005025
100
AcDbArc
 50
145.1368597020327
 51
192.8649690996881
  0
ARC
  5
581F
102
{ACAD_REACTORS
330
58EE
102
}
330
2
100
AcDbEntity
  8
KIJUN
100
AcDbCircle
 10
-97.57708874613394
 20
94.40021508963196
 30
0.0
 40
33.93700887397123
100
AcDbArc
 50
173.2879120392973
 51
197.8690127204649
  0
ARC
  5
5820
102
{ACAD_REACTORS
330
58EE
102
}
330
2
100
AcDbEntity
  8
KIJUN
100
AcDbCircle
 10
-126.468888251712
 20
91.88539705653374
 30
0.0
 40
1.839868157651508
100
AcDbArc
 50
194.7238673564787
 51
306.1719920742803
  0
ARC
  5
5823
102
{ACAD_REACTORS
330
58EE
102
}
330
2
100
AcDbEntity
  8
KIJUN
100
AcDbCircle
 10
-130.340080116829
 20
99.47425404942771
 30
0.0
 40
1.453531737553423
100
AcDbArc
 50
17.72722029938257
 51
229.6335933391073
  0
ARC
  5
5824
102
{ACAD_REACTORS
330
58EE
102
}
330
2
100
AcDbEntity
  8
KIJUN
100
AcDbCircle
 10
-133.089253016822
 20
97.82782045145518
 30
0.0
 40
4.631559110415811
100
AcDbArc
 50
353.2295999655622
 51
26.81035527026792
  0
ARC
  5
5825
102
{ACAD_REACTORS
330
58EE
102
}
330
2
100
AcDbEntity
  8
KIJUN
100
AcDbCircle
 10
-28.26847304567252
 20
-34.13521743463088
 30
0.0
 40
98.73785904355296
100
AcDbArc
 50
114.6227780687184
 51
114.7676941127085
  0
ARC
  5
5826
102
{ACAD_REACTORS
330
58EE
102
}
330
2
100
AcDbEntity
  8
KIJUN
100
AcDbCircle
 10
4.688017299074658
 20
65.08555076146643
 30
0.0
 40
3.457226187530251
100
AcDbArc
 50
73.2108025854677
 51
194.1002302346053
  0
ARC
  5
5827
102
{ACAD_REACTORS
330
58EE
102
}
330
2
100
AcDbEntity
  8
KIJUN
100
AcDbCircle
 10
-28.26847304567252
 20
-34.13521743463088
 30
0.0
 40
98.73785904355296
100
AcDbArc
 50
70.8622259209298
 51
101.5501778632003
  0
ARC
  5
5828
102
{ACAD_REACTORS
330
58EE
102
}
330
2
100
AcDbEntity
  8
KIJUN
100
AcDbCircle
 10
-1.439300769050873
 20
52.06897138804703
 30
0.0
 40
8.987997806306593
100
AcDbArc
 50
93.48598825770585
 51
108.2310611624624
  0
ARC
  5
5829
102
{ACAD_REACTORS
330
58EE
102
}
330
2
100
AcDbEntity
  8
KIJUN
100
AcDbCircle
 10
-50.29018391722127
 20
65.23609914409593
 30
0.0
 40
2.52870524678239
100
AcDbArc
 50
30.34467322604723
 51
134.1314703205497
  0
ARC
  5
582A
102
{ACAD_REACTORS
330
58EE
102
}
330
2
100
AcDbEntity
  8
KIJUN
100
AcDbCircle
 10
-46.73087272248847
 20
64.58225848005651
 30
0.0
 40
2.371984901846326
100
AcDbArc
 50
125.4885804039809
 51
236.5490799979682
  0
ARC
  5
582B
102
{ACAD_REACTORS
330
58EE
102
}
330
2
100
AcDbEntity
  8
KIJUN
100
AcDbCircle
 10
5.768657485371136
 20
63.65008747723681
 30
0.0
 40
4.473213153369353
100
AcDbArc
 50
172.3792389254631
 51
248.1534606836837
  0
ARC
  5
582C
102
{ACAD_REACTORS
330
58EE
102
}
330
2
100
AcDbEntity
  8
KIJUN
100
AcDbCircle
 10
7.496585439593786
 20
65.17661005373276
 30
0.0
 40
3.618209057092451
100
AcDbArc
 50
87.32876043894247
 51
224.0396246108244
  0
ARC
  5
582D
102
{ACAD_REACTORS
330
58EE
102
}
330
2
100
AcDbEntity
  8
KIJUN
100
AcDbCircle
 10
8.366456939478325
 20
66.42091210710481
 30
0.0
 40
2.471543597519885
100
AcDbArc
 50
325.0641868743418
 51
106.4827963892569
  0
ARC
  5
582E
102
{ACAD_REACTORS
330
58EE
102
}
330
2
100
AcDbEntity
  8
KIJUN
100
AcDbCircle
 10
12.0322019624997
 20
63.86024509034673
 30
0.0
 40
2.0
100
AcDbArc
 50
145.0641868743418
 51
226.2277159028478
  0
ARC
  5
582F
102
{ACAD_REACTORS
330
58EE
102
}
330
2
100
AcDbEntity
  8
KIJUN
100
AcDbCircle
 10
27.64802132690386
 20
87.0984675099765
 30
0.0
 40
33.38926845504146
100
AcDbArc
 50
227.0445816470608
 51
253.1178461132888
  0
ARC
  5
5830
102
{ACAD_REACTORS
330
58EE
102
}
330
2
100
AcDbEntity
  8
KIJUN
100
AcDbCircle
 10
174.6812492829254
 20
-34.13521743463088
 30
0.0
 40
98.73785904355296
100
AcDbArc
 50
78.44982213679971
 51
109.1377740790702
  0
ARC
  5
5831
102
{ACAD_REACTORS
330
58EE
102
}
330
2
100
AcDbEntity
  8
KIJUN
100
AcDbCircle
 10
92.81972897387062
 20
63.86024509034673
 30
0.0
 40
2.0
100
AcDbArc
 50
145.0641868743418
 51
226.2277159028478
  0
ARC
  5
5832
102
{ACAD_REACTORS
330
58EE
102
}
330
2
100
AcDbEntity
  8
KIJUN
100
AcDbCircle
 10
88.73524081025209
 20
66.42091210710481
 30
0.0
 40
2.471543597519885
100
AcDbArc
 50
325.0641868743418
 51
106.4827963892569
  0
ARC
  5
5833
102
{ACAD_REACTORS
330
58EE
102
}
330
2
100
AcDbEntity
  8
KIJUN
100
AcDbCircle
 10
85.05680116985116
 20
65.08555076146643
 30
0.0
 40
3.457226187530251
100
AcDbArc
 50
73.2108025854677
 51
194.1002302346053
  0
ARC
  5
5834
102
{ACAD_REACTORS
330
58EE
102
}
330
2
100
AcDbEntity
  8
KIJUN
100
AcDbCircle
 10
87.86536931036755
 20
65.17661005373276
 30
0.0
 40
3.618209057092451
100
AcDbArc
 50
87.32876043894247
 51
224.0396246108244
  0
ARC
  5
5835
102
{ACAD_REACTORS
330
58EE
102
}
330
2
100
AcDbEntity
  8
KIJUN
100
AcDbCircle
 10
86.137441356144
 20
63.65008747723681
 30
0.0
 40
4.473213153369353
100
AcDbArc
 50
172.3792389254631
 51
248.1534606836837
  0
ARC
  5
5836
102
{ACAD_REACTORS
330
58EE
102
}
330
2
100
AcDbEntity
  8
KIJUN
100
AcDbCircle
 10
61.35597506740452
 20
65.08555076146643
 30
0.0
 40
3.457226187530251
100
AcDbArc
 50
345.8997697653947
 51
106.7891974145323
  0
ARC
  5
5837
102
{ACAD_REACTORS
330
58EE
102
}
330
2
100
AcDbEntity
  8
KIJUN
100
AcDbCircle
 10
58.54740692688631
 20
65.17661005373276
 30
0.0
 40
3.618209057092451
100
AcDbArc
 50
315.9603753891756
 51
92.67123956105752
  0
ARC
  5
5838
102
{ACAD_REACTORS
330
58EE
102
}
330
2
100
AcDbEntity
  8
KIJUN
100
AcDbCircle
 10
60.27533488111078
 20
63.65008747723681
 30
0.0
 40
4.473213153369353
100
AcDbArc
 50
291.8465393163164
 51
7.620761074536932
  0
ARC
  5
5839
102
{ACAD_REACTORS
330
58EE
102
}
330
2
100
AcDbEntity
  8
KIJUN
100
AcDbCircle
 10
53.59304726338234
 20
63.86024509034673
 30
0.0
 40
2.0
100
AcDbArc
 50
313.7722840971521
 51
34.9358131256582
  0
ARC
  5
583A
102
{ACAD_REACTORS
330
58EE
102
}
330
2
100
AcDbEntity
  8
KIJUN
100
AcDbCircle
 10
73.03027610313131
 20
57.98489265178608
 30
0.0
 40
13.34170719297419
100
AcDbArc
 50
45.57129506293953
 51
133.1837158927839
  0
ARC
  5
583B
102
{ACAD_REACTORS
330
58EE
102
}
330
2
100
AcDbEntity
  8
KIJUN
100
AcDbCircle
 10
108.0168051976767
 20
87.0984675099765
 30
0.0
 40
33.38926845504146
100
AcDbArc
 50
227.0445816470608
 51
253.1178461132888
  0
ARC
  5
583C
102
{ACAD_REACTORS
330
58EE
102
}
330
2
100
AcDbEntity
  8
KIJUN
100
AcDbCircle
 10
90.90534905239804
 20
58.79060882013613
 30
0.0
 40
12.63836730635492
100
AcDbArc
 50
187.1196256365863
 51
206.5212705283915
  0
ARC
  5
583D
102
{ACAD_REACTORS
330
58EE
102
}
330
2
100
AcDbEntity
  8
KIJUN
100
AcDbCircle
 10
83.67813330213687
 20
58.25407551114716
 30
0.0
 40
5.070721716487159
100
AcDbArc
 50
117.4534433461314
 51
316.8219019063727
  0
ARC
  5
583E
102
{ACAD_REACTORS
330
58EE
102
}
330
2
100
AcDbEntity
  8
KIJUN
100
AcDbCircle
 10
55.50742723884252
 20
58.79060882013613
 30
0.0
 40
12.63836730635492
100
AcDbArc
 50
333.4787294716085
 51
352.8803743634136
  0
ARC
  5
583F
102
{ACAD_REACTORS
330
58EE
102
}
330
2
100
AcDbEntity
  8
KIJUN
100
AcDbCircle
 10
62.95221147445556
 20
58.08271071126904
 30
0.0
 40
5.070721716487159
100
AcDbArc
 50
224.125535427752
 51
63.49399398795345
  0
ARC
  5
5840
102
{ACAD_REACTORS
330
58EE
102
}
330
2
100
AcDbEntity
  8
KIJUN
100
AcDbCircle
 10
52.7426455674464
 20
63.60898615970421
 30
0.0
 40
8.958950613776247
100
AcDbArc
 50
295.8079900329833
 51
313.5444736515501
  0
ARC
  5
5841
102
{ACAD_REACTORS
330
58EE
102
}
330
2
100
AcDbEntity
  8
KIJUN
100
AcDbCircle
 10
44.3470655695761
 20
51.57155675375105
 30
0.0
 40
28.75397271911735
100
AcDbArc
 50
3.196036901098287
 51
34.09744718160774
  0
ARC
  5
5842
102
{ACAD_REACTORS
330
58EE
102
}
330
2
100
AcDbEntity
  8
KIJUN
100
AcDbCircle
 10
102.0657107113881
 20
51.57155681760713
 30
0.0
 40
28.75397271911735
100
AcDbArc
 50
145.9025529452519
 51
176.8039632256224
  0
ARC
  5
5843
102
{ACAD_REACTORS
330
58EE
102
}
330
2
100
AcDbEntity
  8
KIJUN
100
AcDbCircle
 10
138.0463192977773
 20
66.42091210710481
 30
0.0
 40
2.471543597519885
100
AcDbArc
 50
73.5172036107431
 51
214.9358131256582
  0
ARC
  5
5844
102
{ACAD_REACTORS
330
58EE
102
}
330
2
100
AcDbEntity
  8
KIJUN
100
AcDbCircle
 10
134.3805742747541
 20
63.86024509034673
 30
0.0
 40
2.0
100
AcDbArc
 50
313.7722840971521
 51
34.9358131256582
  0
ARC
  5
5845
102
{ACAD_REACTORS
330
58EE
102
}
330
2
100
AcDbEntity
  8
KIJUN
100
AcDbCircle
 10
141.7247589381783
 20
65.08555076146269
 30
0.0
 40
3.457226187530251
100
AcDbArc
 50
345.8997697653947
 51
106.7891974145323
  0
ARC
  5
5846
102
{ACAD_REACTORS
330
58EE
102
}
330
2
100
AcDbEntity
  8
KIJUN
100
AcDbCircle
 10
138.9161907976619
 20
65.17661005373276
 30
0.0
 40
3.618209057092451
100
AcDbArc
 50
315.9603753891756
 51
92.67123956105752
  0
ARC
  5
5847
102
{ACAD_REACTORS
330
58EE
102
}
330
2
100
AcDbEntity
  8
KIJUN
100
AcDbCircle
 10
140.6441187518836
 20
63.65008747723681
 30
0.0
 40
4.473213153369353
100
AcDbArc
 50
291.8465393163164
 51
7.620761074536932
  0
ARC
  5
5848
102
{ACAD_REACTORS
330
58EE
102
}
330
2
100
AcDbEntity
  8
KIJUN
100
AcDbCircle
 10
147.8520770063047
 20
52.06897138804703
 30
0.0
 40
8.987997806306593
100
AcDbArc
 50
71.76893883753755
 51
86.51401174229413
  0
ARC
  5
5849
102
{ACAD_REACTORS
330
58EE
102
}
330
2
100
AcDbEntity
  8
KIJUN
100
AcDbCircle
 10
118.7647549103509
 20
87.0984675099765
 30
0.0
 40
33.38926845504146
100
AcDbArc
 50
286.8821538867112
 51
312.9554183529392
  0
ARC
  5
584A
102
{ACAD_REACTORS
330
58EE
102
}
330
2
100
AcDbEntity
  8
KIJUN
100
AcDbCircle
 10
174.6812492829254
 20
-34.13521743463088
 30
0.0
 40
98.73785904355296
100
AcDbArc
 50
65.23230588729148
 51
65.3772219312816
  0
ARC
  5
584C
102
{ACAD_REACTORS
330
58EE
102
}
330
2
100
AcDbEntity
  8
KIJUN
100
AcDbCircle
 10
254.2610870136356
 20
103.6045763972627
 30
0.0
 40
65.97412199648627
100
AcDbArc
 50
212.4095898291523
 51
222.9746282875784
  0
ARC
  5
584D
102
{ACAD_REACTORS
330
58EE
102
}
330
2
100
AcDbEntity
  8
KIJUN
100
AcDbCircle
 10
200.2985651622763
 20
67.49899136685911
 30
0.0
 40
1.888733284860599
100
AcDbArc
 50
21.52229486976311
 51
193.7188985969464
  0
ARC
  5
584E
102
{ACAD_REACTORS
330
58EE
102
}
330
2
100
AcDbEntity
  8
KIJUN
100
AcDbCircle
 10
235.0889784327352
 20
92.22028117366932
 30
0.0
 40
44.43984097408871
100
AcDbArc
 50
214.4972091594756
 51
229.0971825250445
  0
ARC
  5
584F
102
{ACAD_REACTORS
330
58EE
102
}
330
2
100
AcDbEntity
  8
KIJUN
100
AcDbCircle
 10
193.1436489597432
 20
64.58225848005651
 30
0.0
 40
2.371984901846326
100
AcDbArc
 50
303.4509200020317
 51
54.51141959601908
  0
ARC
  5
5850
102
{ACAD_REACTORS
330
58EE
102
}
330
2
100
AcDbEntity
  8
KIJUN
100
AcDbCircle
 10
196.702960154476
 20
65.23609914409241
 30
0.0
 40
2.52870524678239
100
AcDbArc
 50
45.86852967945026
 51
149.6553267739527
  0
ARC
  5
5851
102
{ACAD_REACTORS
330
58EE
102
}
330
2
100
AcDbEntity
  8
KIJUN
100
AcDbCircle
 10
0.5638913241288038
 20
48.69530176333006
 30
0.0
 40
1.194203071414092
100
AcDbArc
 50
176.4724147331989
 51
18.71398935963005
  0
ARC
  5
5852
102
{ACAD_REACTORS
330
58EE
102
}
330
2
100
AcDbEntity
  8
KIJUN
100
AcDbCircle
 10
4.261474814545749
 20
51.06151589076313
 30
0.0
 40
3.243382944015881
100
AcDbArc
 50
217.6920646995927
 51
338.1165383688923
  0
LINE
  5
5853
102
{ACAD_REACTORS
330
58EE
102
}
330
2
100
AcDbEntity
  8
KIJUN
100
AcDbLine
 10
77.26008822062397
 20
51.60560390548704
 30
0.0
 11
78.7665136529846
 21
51.70274090461811
 31
0.0
  0
LINE
  5
5854
102
{ACAD_REACTORS
330
58EE
102
}
330
2
100
AcDbEntity
  8
KIJUN
100
AcDbLine
 10
71.46461050308412
 20
46.94482564334832
 30
0.0
 11
69.15268807061477
 21
51.60560390548704
 31
0.0
  0
ARC
  5
5855
102
{ACAD_REACTORS
330
58EE
102
}
330
2
100
AcDbEntity
  8
KIJUN
100
AcDbCircle
 10
73.20638814561755
 20
47.92778578698113
 30
0.0
 40
2.0
100
AcDbArc
 50
209.4379089024615
 51
330.5620910975385
  0
LINE
  5
5856
102
{ACAD_REACTORS
330
58EE
102
}
330
2
100
AcDbEntity
  8
KIJUN
100
AcDbLine
 10
69.15268807061477
 20
51.60560390548704
 30
0.0
 11
67.64626263825596
 21
51.70274090461811
 31
0.0
  0
LINE
  5
5857
102
{ACAD_REACTORS
330
58EE
102
}
330
2
100
AcDbEntity
  8
KIJUN
100
AcDbLine
 10
74.94816578815099
 20
46.94482564334832
 30
0.0
 11
77.26008822062397
 21
51.60560390548704
 31
0.0
  0
ARC
  5
5858
102
{ACAD_REACTORS
330
58EE
102
}
330
2
100
AcDbEntity
  8
KIJUN
100
AcDbCircle
 10
142.151301422709
 20
51.06151589076313
 30
0.0
 40
3.243382944015881
100
AcDbArc
 50
201.8834616311078
 51
322.3079353004073
  0
ARC
  5
5859
102
{ACAD_REACTORS
330
58EE
102
}
330
2
100
AcDbEntity
  8
KIJUN
100
AcDbCircle
 10
145.848884913125
 20
48.69530176333006
 30
0.0
 40
1.194203071414092
100
AcDbArc
 50
161.2860106403699
 51
3.527585266801041
  0
DIMENSION
  5
585F
330
2
100
AcDbEntity
  8
SUNPOU
100
AcDbDimension
  2
*D9
 10
278.2063881456176
 20
142.8782282988941
 30
0.0
 11
73.20638814561755
 21
150.8782282988941
 31
0.0
 70
    32
 71
     5
 42
410.0
  3
STANDARD
100
AcDbAlignedDimension
 13
-131.7936118543824
 23
99.47425404942771
 33
0.0
 14
278.2063881456176
 24
99.47425404942771
 34
0.0
100
AcDbRotatedDimension
1001
ACAD
1000
DSTYLE
1002
{
1070
    41
1040
2.0
1070
    42
1040
10.0
1070
    44
1040
0.0
1070
    73
1070
     0
1070
    74
1070
     0
1070
    77
1070
     1
1070
   140
1040
10.0
1070
   141
1040
0.0
1070
   146
1040
0.064286
1070
   147
1040
3.0
1070
   176
1070
    60
1070
   177
1070
    70
1070
   178
1070
    60
1070
   271
1070
     0
1070
   272
1070
     0
1070
   340
1005
1C
1070
   342
1005
109
1002
}
  0
DIMENSION
  5
586C
330
2
100
AcDbEntity
  8
SUNPOU
100
AcDbDimension
  2
*D10
 10
-159.9443705320463
 20
45.92778578698114
 30
0.0
 11
-167.9443705320463
 21
73.42778578698112
 31
0.0
 70
    32
 71
     5
 42
55.0
  3
STANDARD
100
AcDbAlignedDimension
 13
-130.340080116829
 23
100.9277857869811
 33
0.0
 14
-128.5012580767122
 24
45.92778578698113
 34
0.0
 50
90.0
100
AcDbRotatedDimension
1001
ACAD
1000
DSTYLE
1002
{
1070
    41
1040
2.0
1070
    42
1040
10.0
1070
    44
1040
0.0
1070
    73
1070
     0
1070
    74
1070
     0
1070
    77
1070
     1
1070
   140
1040
10.0
1070
   141
1040
0.0
1070
   146
1040
0.064286
1070
   147
1040
3.0
1070
   176
1070
    60
1070
   177
1070
    70
1070
   178
1070
    60
1070
   271
1070
     0
1070
   272
1070
     0
1070
   340
1005
1C
1070
   342
1005
109
1002
}
  0
ARC
  5
58AE
102
{ACAD_REACTORS
330
58EE
102
}
330
2
100
AcDbEntity
  8
KIJUN
100
AcDbCircle
 10
216.1992872808101
 20
108.9769290113008
 30
0.0
 40
65.0796948237091
100
AcDbArc
 50
301.3348576477504
 51
337.418891272309
  0
ARC
  5
58AF
102
{ACAD_REACTORS
330
58EE
102
}
330
2
100
AcDbEntity
  8
KIJUN
100
AcDbCircle
 10
217.7952858587072
 20
106.8542072946526
 30
0.0
 40
56.45162565137116
100
AcDbArc
 50
300.6948413928177
 51
343.0539249371507
  0
ARC
  5
58B0
102
{ACAD_REACTORS
330
58EE
102
}
330
2
100
AcDbEntity
  8
KIJUN
100
AcDbCircle
 10
271.9560746937351
 20
94.49165237694421
 30
0.0
 40
4.094626707452523
100
AcDbArc
 50
44.10957359271616
 51
311.3480703280147
  0
ARC
  5
58B1
102
{ACAD_REACTORS
330
58EE
102
}
330
2
100
AcDbEntity
  8
KIJUN
100
AcDbCircle
 10
263.7738214702569
 20
89.52877968328335
 30
0.0
 40
13.56328873005025
100
AcDbArc
 50
347.1350309003118
 51
34.86314029796684
  0
ARC
  5
58B2
102
{ACAD_REACTORS
330
58EE
102
}
330
2
100
AcDbEntity
  8
KIJUN
100
AcDbCircle
 10
243.989865037369
 20
94.40021508963196
 30
0.0
 40
33.93700887397123
100
AcDbArc
 50
342.130987279535
 51
6.712087960702723
  0
ARC
  5
58B3
102
{ACAD_REACTORS
330
58EE
102
}
330
2
100
AcDbEntity
  8
KIJUN
100
AcDbCircle
 10
272.8816645429471
 20
91.88539705653374
 30
0.0
 40
1.839868157651508
100
AcDbArc
 50
233.8280079257194
 51
345.2761326435211
  0
ARC
  5
58B4
102
{ACAD_REACTORS
330
58EE
102
}
330
2
100
AcDbEntity
  8
KIJUN
100
AcDbCircle
 10
276.7528564080641
 20
99.47425404942771
 30
0.0
 40
1.453531737553423
100
AcDbArc
 50
310.3664066608926
 51
162.2727797006172
  0
ARC
  5
58B5
102
{ACAD_REACTORS
330
58EE
102
}
330
2
100
AcDbEntity
  8
KIJUN
100
AcDbCircle
 10
279.5020293080572
 20
97.82782045145518
 30
0.0
 40
4.631559110415811
100
AcDbArc
 50
153.1896447297323
 51
186.7704000344378
  0
ENDSEC
  0
SECTION
  2
OBJECTS
  0
DICTIONARY
  5
1A
330
0
100
AcDbDictionary
281
     1
  3
ACAD_COLOR
350
144
  3
ACAD_GROUP
350
18
  3
ACAD_LAYOUT
350
58
  3
ACAD_MATERIAL
350
143
  3
ACAD_MLINESTYLE
350
19
  3
ACAD_PLOTSETTINGS
350
59
  3
ACAD_PLOTSTYLENAME
350
56
  3
ACAD_TABLESTYLE
350
145
  3
ACDBHEADERROUNDTRIPXREC
350
590B
  3
AcDbVariableDictionary
350
1D1
  0
DICTIONARY
  5
1B4
330
A
100
AcDbDictionary
280
     1
281
     1
  3
ACAD_LAYERFILTERS
360
545E
  3
ACLYDICTIONARY
360
545D
  0
DICTIONARY
  5
1578
330
2
100
AcDbDictionary
280
     1
281
     1
  3
ACAD_SORTENTS
360
1579
  0
DICTIONARY
  5
144
102
{ACAD_REACTORS
330
1A
102
}
330
1A
100
AcDbDictionary
281
     1
  0
DICTIONARY
  5
18
102
{ACAD_REACTORS
330
1A
102
}
330
1A
100
AcDbDictionary
281
     1
  3
*A1
350
CFC
  3
*A10
350
2FBC
  3
*A11
350
4989
  3
*A12
350
3D8C
  3
*A13
350
4B40
  3
*A14
350
15D1
  3
*A15
350
4CED
  3
*A16
350
3837
  3
*A17
350
4EB3
  3
*A18
350
5075
  3
*A19
350
5141
  3
*A2
350
481A
  3
*A20
350
5167
  3
*A21
350
218C
  3
*A22
350
527D
  3
*A23
350
3FA3
  3
*A24
350
52B3
  3
*A25
350
3154
  3
*A26
350
327B
  3
*A27
350
32AA
  3
*A28
350
2FE9
  3
*A29
350
3650
  3
*A3
350
2862
  3
*A30
350
367C
  3
*A31
350
18ED
  3
*A32
350
19E5
  3
*A33
350
1F8A
  3
*A34
350
1682
  3
*A35
350
2108
  3
*A36
350
3732
  3
*A37
350
563B
  3
*A38
350
38C3
  3
*A39
350
39C3
  3
*A4
350
37CF
  3
*A40
350
2335
  3
*A41
350
3AB4
  3
*A42
350
3BBC
  3
*A43
350
58EE
  3
*A44
350
419F
  3
*A45
350
439B
  3
*A46
350
4590
  3
*A47
350
312A
  3
*A48
350
46F3
  3
*A5
350
299B
  3
*A6
350
2C07
  3
*A7
350
2DB5
  3
*A8
350
1827
  3
*A9
350
2E88
  0
DICTIONARY
  5
58
102
{ACAD_REACTORS
330
1A
102
}
330
1A
100
AcDbDictionary
281
     1
  3
Model
350
5A
  3
ﾚｲｱｳﾄ1
350
5B
  0
DICTIONARY
  5
143
102
{ACAD_REACTORS
330
1A
102
}
330
1A
100
AcDbDictionary
281
     1
  0
DICTIONARY
  5
19
102
{ACAD_REACTORS
330
1A
102
}
330
1A
100
AcDbDictionary
281
     1
  3
STANDARD
350
1D
  0
DICTIONARY
  5
59
102
{ACAD_REACTORS
330
1A
102
}
330
1A
100
AcDbDictionary
281
     1
  0
ACDBDICTIONARYWDFLT
  5
56
102
{ACAD_REACTORS
330
1A
102
}
330
1A
100
AcDbDictionary
281
     1
  3
Normal
350
57
100
AcDbDictionaryWithDefault
340
57
  0
DICTIONARY
  5
145
102
{ACAD_REACTORS
330
1A
102
}
330
1A
100
AcDbDictionary
281
     1
  3
Standard
350
146
  0
DICTIONARY
  5
590B
102
{ACAD_REACTORS
330
1A
102
}
330
1A
100
AcDbDictionary
281
     1
  0
DICTIONARY
  5
1D1
102
{ACAD_REACTORS
330
1A
102
}
330
1A
100
AcDbDictionary
281
     1
  3
CTABLESTYLE
350
1D2
  3
DIMASSOC
350
D03
  3
PROJECTNAME
350
D04
  0
DICTIONARY
  5
545E
102
{ACAD_REACTORS
330
1B4
102
}
330
1B4
100
AcDbDictionary
281
     1
  0
DICTIONARY
  5
545D
102
{ACAD_REACTORS
330
1B4
102
}
330
1B4
100
AcDbDictionary
281
     1
1001
ACAD
1000
<All
  0
SORTENTSTABLE
  5
1579
102
{ACAD_REACTORS
330
1578
102
}
330
1578
100
AcDbSortentsTable
330
2
331
20
  5
20
331
21
  5
21
331
23
  5
23
331
1F
  5
1F
  0
GROUP
  5
CFC
102
{ACAD_REACTORS
330
18
102
}
330
18
100
AcDbGroup
300

 70
     1
 71
     1
  0
GROUP
  5
2FBC
102
{ACAD_REACTORS
330
18
102
}
330
18
100
AcDbGroup
300

 70
     1
 71
     1
  0
GROUP
  5
4989
102
{ACAD_REACTORS
330
18
102
}
330
18
100
AcDbGroup
300

 70
     1
 71
     1
  0
GROUP
  5
3D8C
102
{ACAD_REACTORS
330
18
102
}
330
18
100
AcDbGroup
300

 70
     1
 71
     1
  0
GROUP
  5
4B40
102
{ACAD_REACTORS
330
18
102
}
330
18
100
AcDbGroup
300

 70
     1
 71
     1
  0
GROUP
  5
15D1
102
{ACAD_REACTORS
330
18
102
}
330
18
100
AcDbGroup
300

 70
     1
 71
     1
  0
GROUP
  5
4CED
102
{ACAD_REACTORS
330
18
102
}
330
18
100
AcDbGroup
300

 70
     1
 71
     1
  0
GROUP
  5
3837
102
{ACAD_REACTORS
330
18
102
}
330
18
100
AcDbGroup
300

 70
     1
 71
     1
  0
GROUP
  5
4EB3
102
{ACAD_REACTORS
330
18
102
}
330
18
100
AcDbGroup
300

 70
     1
 71
     1
  0
GROUP
  5
5075
102
{ACAD_REACTORS
330
18
102
}
330
18
100
AcDbGroup
300

 70
     1
 71
     1
  0
GROUP
  5
5141
102
{ACAD_REACTORS
330
18
102
}
330
18
100
AcDbGroup
300

 70
     1
 71
     1
  0
GROUP
  5
481A
102
{ACAD_REACTORS
330
18
102
}
330
18
100
AcDbGroup
300

 70
     1
 71
     1
  0
GROUP
  5
5167
102
{ACAD_REACTORS
330
18
102
}
330
18
100
AcDbGroup
300

 70
     1
 71
     1
  0
GROUP
  5
218C
102
{ACAD_REACTORS
330
18
102
}
330
18
100
AcDbGroup
300

 70
     1
 71
     1
  0
GROUP
  5
527D
102
{ACAD_REACTORS
330
18
102
}
330
18
100
AcDbGroup
300

 70
     1
 71
     1
  0
GROUP
  5
3FA3
102
{ACAD_REACTORS
330
18
102
}
330
18
100
AcDbGroup
300

 70
     1
 71
     1
  0
GROUP
  5
52B3
102
{ACAD_REACTORS
330
18
102
}
330
18
100
AcDbGroup
300

 70
     1
 71
     1
  0
GROUP
  5
3154
102
{ACAD_REACTORS
330
18
102
}
330
18
100
AcDbGroup
300

 70
     1
 71
     1
  0
GROUP
  5
327B
102
{ACAD_REACTORS
330
18
102
}
330
18
100
AcDbGroup
300

 70
     1
 71
     1
  0
GROUP
  5
32AA
102
{ACAD_REACTORS
330
18
102
}
330
18
100
AcDbGroup
300

 70
     1
 71
     1
  0
GROUP
  5
2FE9
102
{ACAD_REACTORS
330
18
102
}
330
18
100
AcDbGroup
300

 70
     1
 71
     1
  0
GROUP
  5
3650
102
{ACAD_REACTORS
330
18
102
}
330
18
100
AcDbGroup
300

 70
     1
 71
     1
  0
GROUP
  5
2862
102
{ACAD_REACTORS
330
18
102
}
330
18
100
AcDbGroup
300

 70
     1
 71
     1
  0
GROUP
  5
367C
102
{ACAD_REACTORS
330
18
102
}
330
18
100
AcDbGroup
300

 70
     1
 71
     1
  0
GROUP
  5
18ED
102
{ACAD_REACTORS
330
18
102
}
330
18
100
AcDbGroup
300

 70
     1
 71
     1
  0
GROUP
  5
19E5
102
{ACAD_REACTORS
330
18
102
}
330
18
100
AcDbGroup
300

 70
     1
 71
     1
  0
GROUP
  5
1F8A
102
{ACAD_REACTORS
330
18
102
}
330
18
100
AcDbGroup
300

 70
     1
 71
     1
  0
GROUP
  5
1682
102
{ACAD_REACTORS
330
18
102
}
330
18
100
AcDbGroup
300

 70
     1
 71
     1
  0
GROUP
  5
2108
102
{ACAD_REACTORS
330
18
102
}
330
18
100
AcDbGroup
300

 70
     1
 71
     1
  0
GROUP
  5
3732
102
{ACAD_REACTORS
330
18
102
}
330
18
100
AcDbGroup
300

 70
     1
 71
     1
  0
GROUP
  5
563B
102
{ACAD_REACTORS
330
18
102
}
330
18
100
AcDbGroup
300

 70
     1
 71
     1
  0
GROUP
  5
38C3
102
{ACAD_REACTORS
330
18
102
}
330
18
100
AcDbGroup
300

 70
     1
 71
     1
  0
GROUP
  5
39C3
102
{ACAD_REACTORS
330
18
102
}
330
18
100
AcDbGroup
300

 70
     1
 71
     1
  0
GROUP
  5
37CF
102
{ACAD_REACTORS
330
18
102
}
330
18
100
AcDbGroup
300

 70
     1
 71
     1
  0
GROUP
  5
2335
102
{ACAD_REACTORS
330
18
102
}
330
18
100
AcDbGroup
300

 70
     1
 71
     1
  0
GROUP
  5
3AB4
102
{ACAD_REACTORS
330
18
102
}
330
18
100
AcDbGroup
300

 70
     1
 71
     1
  0
GROUP
  5
3BBC
102
{ACAD_REACTORS
330
18
102
}
330
18
100
AcDbGroup
300

 70
     1
 71
     1
  0
GROUP
  5
58EE
102
{ACAD_REACTORS
330
18
102
}
330
18
100
AcDbGroup
300

 70
     1
 71
     1
340
58B5
340
58B4
340
58B3
340
58B2
340
58B1
340
58B0
340
58AF
340
58AE
340
5859
340
5858
340
5857
340
5856
340
5855
340
5854
340
5853
340
5852
340
5851
340
5850
340
584F
340
584E
340
584D
340
584C
340
584A
340
5849
340
5848
340
5847
340
5846
340
5845
340
5844
340
5843
340
5842
340
5841
340
5840
340
583F
340
583E
340
583D
340
583C
340
583B
340
583A
340
5839
340
5838
340
5837
340
5836
340
5835
340
5834
340
5833
340
5832
340
5831
340
5830
340
582F
340
582E
340
582D
340
582C
340
582B
340
582A
340
5829
340
5828
340
5827
340
5826
340
5825
340
5824
340
5823
340
5820
340
581F
340
581E
340
581D
340
581C
340
581A
340
5819
340
5818
340
5817
340
5816
340
5815
340
5814
340
5813
340
5811
340
5810
340
580E
340
580D
340
580C
340
580B
340
580A
340
5809
340
5808
340
5807
340
5806
340
5805
340
5804
340
5803
340
5802
340
5801
340
5800
340
57FF
340
57FE
340
57FC
340
57FA
340
57F9
340
57F8
340
57F7
340
57F6
340
57F5
340
57F4
340
57F3
  0
GROUP
  5
419F
102
{ACAD_REACTORS
330
18
102
}
330
18
100
AcDbGroup
300

 70
     1
 71
     1
  0
GROUP
  5
439B
102
{ACAD_REACTORS
330
18
102
}
330
18
100
AcDbGroup
300

 70
     1
 71
     1
  0
GROUP
  5
4590
102
{ACAD_REACTORS
330
18
102
}
330
18
100
AcDbGroup
300

 70
     1
 71
     1
  0
GROUP
  5
312A
102
{ACAD_REACTORS
330
18
102
}
330
18
100
AcDbGroup
300

 70
     1
 71
     1
  0
GROUP
  5
46F3
102
{ACAD_REACTORS
330
18
102
}
330
18
100
AcDbGroup
300

 70
     1
 71
     1
  0
GROUP
  5
299B
102
{ACAD_REACTORS
330
18
102
}
330
18
100
AcDbGroup
300

 70
     1
 71
     1
  0
GROUP
  5
2C07
102
{ACAD_REACTORS
330
18
102
}
330
18
100
AcDbGroup
300

 70
     1
 71
     1
  0
GROUP
  5
2DB5
102
{ACAD_REACTORS
330
18
102
}
330
18
100
AcDbGroup
300

 70
     1
 71
     1
  0
GROUP
  5
1827
102
{ACAD_REACTORS
330
18
102
}
330
18
100
AcDbGroup
300

 70
     1
 71
     1
  0
GROUP
  5
2E88
102
{ACAD_REACTORS
330
18
102
}
330
18
100
AcDbGroup
300

 70
     1
 71
     1
  0
LAYOUT
  5
5A
102
{ACAD_XDICTIONARY
360
590C
102
}
102
{ACAD_REACTORS
330
58
102
}
330
58
100
AcDbPlotSettings
  1

  2
none_device
  4
Letter_(8.50_x_11.00_Inches)
  6

 40
6.349999904632568
 41
6.349999904632568
 42
6.350006103515625
 43
6.350006103515625
 44
215.8999938964844
 45
279.3999938964844
 46
0.0
 47
0.0
 48
0.0
 49
0.0
140
0.0
141
0.0
142
1.0
143
76.54229552604896
 70
 11952
 72
     0
 73
     1
 74
     0
  7
monochrome.ctb
 75
     0
147
0.0130646721936851
148
9973.459437949902
149
463.9633285297773
100
AcDbLayout
  1
Model
 70
     1
 71
     0
 10
0.0
 20
0.0
 11
12.0
 21
9.0
 12
0.0
 22
0.0
 32
0.0
 14
0.0
 24
0.0
 34
0.0
 15
0.0
 25
0.0
 35
0.0
146
0.0
 13
0.0
 23
0.0
 33
0.0
 16
1.0
 26
0.0
 36
0.0
 17
0.0
 27
1.0
 37
0.0
 76
     0
330
2
1001
ACAD_PSEXT
1000
なし
1000
なし
1000
適切ではありません
1000
新しいプロッタ環境設定名を選択しない限り、レイアウトは印刷されません。
1070
     0
  0
LAYOUT
  5
5B
102
{ACAD_XDICTIONARY
360
590E
102
}
102
{ACAD_REACTORS
330
58
102
}
330
58
100
AcDbPlotSettings
  1

  2
なし
  4

  6

 40
0.0
 41
0.0
 42
0.0
 43
0.0
 44
0.0
 45
0.0
 46
0.0
 47
0.0
 48
0.0
 49
0.0
140
0.0
141
0.0
142
1.0
143
1.0
 70
   688
 72
     0
 73
     0
 74
     5
  7
monochrome.ctb
 75
    16
147
1.0
148
0.0
149
0.0
100
AcDbLayout
  1
ﾚｲｱｳﾄ1
 70
     1
 71
     1
 10
0.0
 20
0.0
 11
12.0
 21
9.0
 12
0.0
 22
0.0
 32
0.0
 14
1.000000000000000E+20
 24
1.000000000000000E+20
 34
1.000000000000000E+20
 15
-1.000000000000000E+20
 25
-1.000000000000000E+20
 35
-1.000000000000000E+20
146
0.0
 13
0.0
 23
0.0
 33
0.0
 16
1.0
 26
0.0
 36
0.0
 17
0.0
 27
1.0
 37
0.0
 76
     0
330
7
  0
MLINESTYLE
  5
1D
102
{ACAD_REACTORS
330
19
102
}
330
19
100
AcDbMlineStyle
  2
STANDARD
 70
     0
  3

 62
   256
 51
90.0
 52
90.0
 71
     2
 49
0.5
 62
   256
  6
BYLAYER
 49
-0.5
 62
   256
  6
BYLAYER
  0
ACDBPLACEHOLDER
  5
57
102
{ACAD_REACTORS
330
56
102
}
330
56
  0
TABLESTYLE
  5
146
102
{ACAD_REACTORS
330
145
102
}
330
145
100
AcDbTableStyle
  3
Standard
 70
     0
 71
     0
 40
0.06
 41
0.06
280
     0
281
     0
  7
STANDARD
140
0.18
170
     2
 62
     0
 63
     7
283
     0
274
    -2
284
     1
 64
     0
275
    -2
285
     1
 65
     0
276
    -2
286
     1
 66
     0
277
    -2
287
     1
 67
     0
278
    -2
288
     1
 68
     0
279
    -2
289
     1
 69
     0
  7
STANDARD
140
0.25
170
     5
 62
     0
 63
     7
283
     0
274
    -2
284
     1
 64
     0
275
    -2
285
     1
 65
     0
276
    -2
286
     1
 66
     0
277
    -2
287
     1
 67
     0
278
    -2
288
     1
 68
     0
279
    -2
289
     1
 69
     0
  7
STANDARD
140
0.18
170
     5
 62
     0
 63
     7
283
     0
274
    -2
284
     1
 64
     0
275
    -2
285
     1
 65
     0
276
    -2
286
     1
 66
     0
277
    -2
287
     1
 67
     0
278
    -2
288
     1
 68
     0
279
    -2
289
     1
 69
     0
  0
DICTIONARYVAR
  5
1D2
102
{ACAD_REACTORS
330
1D1
102
}
330
1D1
100
DictionaryVariables
280
     0
  1
STANDARD
  0
DICTIONARYVAR
  5
D03
102
{ACAD_REACTORS
330
1D1
102
}
330
1D1
100
DictionaryVariables
280
     0
  1
1
  0
DICTIONARYVAR
  5
D04
102
{ACAD_REACTORS
330
1D1
102
}
330
1D1
100
DictionaryVariables
280
     0
  1

  0
DICTIONARY
  5
590C
330
5A
100
AcDbDictionary
280
     1
281
     1
  3
ACAD_XREC_ROUNDTRIP
360
590D
  0
DICTIONARY
  5
590E
330
5B
100
AcDbDictionary
280
     1
281
     1
  3
ACAD_XREC_ROUNDTRIP
360
590F
  0
XRECORD
  5
590D
102
{ACAD_REACTORS
330
590C
102
}
330
590C
100
AcDbXrecord
280
     1
102
SHADEPLOT
 70
     0
102
SHADEPLOTRESLEVEL
 70
     2
102
SHADEPLOTCUSTOMDPI
 70
   300
  0
XRECORD
  5
590F
102
{ACAD_REACTORS
330
590E
102
}
330
590E
100
AcDbXrecord
280
     1
102
SHADEPLOT
 70
     0
102
SHADEPLOTRESLEVEL
 70
     2
102
SHADEPLOTCUSTOMDPI
 70
   300
  0
ENDSEC
  0
EOF
