  0
SECTION
  2
HEADER
  9
$ACADVER
  1
AC1015
  9
$ACADMAINTVER
 70
    20
  9
$DWGCODEPAGE
  3
ANSI_932
  9
$INSBASE
 10
922.019522
 20
-675.4306699999999
 30
0.0
  9
$EXTMIN
 10
-84.42529896930386
 20
-0.0045292325963828
 30
-0.0000000000112498
  9
$EXTMAX
 10
203.3179214736381
 20
95.23832827373974
 30
0.0000000000002956
  9
$LIMMIN
 10
0.0
 20
0.0
  9
$LIMMAX
 10
420.0
 20
297.0
  9
$ORTHOMODE
 70
     1
  9
$REGENMODE
 70
     1
  9
$FILLMODE
 70
     1
  9
$QTEXTMODE
 70
     0
  9
$MIRRTEXT
 70
     1
  9
$LTSCALE
 40
1.0
  9
$ATTMODE
 70
     1
  9
$TEXTSIZE
 40
30.0
  9
$TRACEWID
 40
0.05
  9
$TEXTSTYLE
  7
SUNPOU
  9
$CLAYER
  8
0
  9
$CELTYPE
  6
BYLAYER
  9
$CECOLOR
 62
   256
  9
$CELTSCALE
 40
1.0
  9
$DISPSILH
 70
     0
  9
$DIMSCALE
 40
1.0
  9
$DIMASZ
 40
2.0
  9
$DIMEXO
 40
10.0
  9
$DIMDLI
 40
0.38
  9
$DIMRND
 40
0.0
  9
$DIMDLE
 40
0.0
  9
$DIMEXE
 40
0.0
  9
$DIMTP
 40
0.0
  9
$DIMTM
 40
0.0
  9
$DIMTXT
 40
5.0
  9
$DIMCEN
 40
0.0
  9
$DIMTSZ
 40
0.0
  9
$DIMTOL
 70
     0
  9
$DIMLIM
 70
     0
  9
$DIMTIH
 70
     0
  9
$DIMTOH
 70
     0
  9
$DIMSE1
 70
     0
  9
$DIMSE2
 70
     0
  9
$DIMTAD
 70
     1
  9
$DIMZIN
 70
     0
  9
$DIMBLK
  1
Dot
  9
$DIMASO
 70
     1
  9
$DIMSHO
 70
     1
  9
$DIMPOST
  1

  9
$DIMAPOST
  1

  9
$DIMALT
 70
     0
  9
$DIMALTD
 70
     2
  9
$DIMALTF
 40
25.4
  9
$DIMLFAC
 40
1.0
  9
$DIMTOFL
 70
     0
  9
$DIMTVP
 40
0.0
  9
$DIMTIX
 70
     0
  9
$DIMSOXD
 70
     0
  9
$DIMSAH
 70
     0
  9
$DIMBLK1
  1

  9
$DIMBLK2
  1

  9
$DIMSTYLE
  2
STANDARD
  9
$DIMCLRD
 70
    60
  9
$DIMCLRE
 70
    70
  9
$DIMCLRT
 70
    60
  9
$DIMTFAC
 40
0.064286
  9
$DIMGAP
 40
3.0
  9
$DIMJUST
 70
     0
  9
$DIMSD1
 70
     0
  9
$DIMSD2
 70
     0
  9
$DIMTOLJ
 70
     1
  9
$DIMTZIN
 70
     0
  9
$DIMALTZ
 70
     0
  9
$DIMALTTZ
 70
     0
  9
$DIMUPT
 70
     0
  9
$DIMDEC
 70
     0
  9
$DIMTDEC
 70
     0
  9
$DIMALTU
 70
     2
  9
$DIMALTTD
 70
     2
  9
$DIMTXSTY
  7
SUNPOU
  9
$DIMAUNIT
 70
     0
  9
$DIMADEC
 70
     0
  9
$DIMALTRND
 40
0.0
  9
$DIMAZIN
 70
     0
  9
$DIMDSEP
 70
    46
  9
$DIMATFIT
 70
     3
  9
$DIMFRAC
 70
     0
  9
$DIMLDRBLK
  1

  9
$DIMLUNIT
 70
     2
  9
$DIMLWD
 70
    -2
  9
$DIMLWE
 70
    -2
  9
$DIMTMOVE
 70
     0
  9
$LUNITS
 70
     2
  9
$LUPREC
 70
     5
  9
$SKETCHINC
 40
0.1
  9
$FILLETRAD
 40
0.0
  9
$AUNITS
 70
     0
  9
$AUPREC
 70
     0
  9
$MENU
  1
acad
  9
$ELEVATION
 40
0.0
  9
$PELEVATION
 40
0.0
  9
$THICKNESS
 40
0.0
  9
$LIMCHECK
 70
     0
  9
$CHAMFERA
 40
0.0
  9
$CHAMFERB
 40
0.0
  9
$CHAMFERC
 40
0.0
  9
$CHAMFERD
 40
0.0
  9
$SKPOLY
 70
     0
  9
$TDCREATE
 40
2450623.654673033
  9
$TDUCREATE
 40
2450623.279673032
  9
$TDUPDATE
 40
2453873.548605706
  9
$TDUUPDATE
 40
2453873.173605706
  9
$TDINDWG
 40
1.2179988542
  9
$TDUSRTIMER
 40
1.2179986806
  9
$USRTIMER
 70
     1
  9
$ANGBASE
 50
0.0
  9
$ANGDIR
 70
     0
  9
$PDMODE
 70
     0
  9
$PDSIZE
 40
0.0
  9
$PLINEWID
 40
0.0
  9
$SPLFRAME
 70
     0
  9
$SPLINETYPE
 70
     6
  9
$SPLINESEGS
 70
     8
  9
$HANDSEED
  5
7D32
  9
$SURFTAB1
 70
     6
  9
$SURFTAB2
 70
     6
  9
$SURFTYPE
 70
     6
  9
$SURFU
 70
     6
  9
$SURFV
 70
     6
  9
$UCSBASE
  2

  9
$UCSNAME
  2

  9
$UCSORG
 10
0.0
 20
0.0
 30
0.0
  9
$UCSXDIR
 10
1.0
 20
0.0
 30
0.0
  9
$UCSYDIR
 10
0.0
 20
1.0
 30
0.0
  9
$UCSORTHOREF
  2

  9
$UCSORTHOVIEW
 70
     0
  9
$UCSORGTOP
 10
0.0
 20
0.0
 30
0.0
  9
$UCSORGBOTTOM
 10
0.0
 20
0.0
 30
0.0
  9
$UCSORGLEFT
 10
0.0
 20
0.0
 30
0.0
  9
$UCSORGRIGHT
 10
0.0
 20
0.0
 30
0.0
  9
$UCSORGFRONT
 10
0.0
 20
0.0
 30
0.0
  9
$UCSORGBACK
 10
0.0
 20
0.0
 30
0.0
  9
$PUCSBASE
  2

  9
$PUCSNAME
  2

  9
$PUCSORG
 10
0.0
 20
0.0
 30
0.0
  9
$PUCSXDIR
 10
1.0
 20
0.0
 30
0.0
  9
$PUCSYDIR
 10
0.0
 20
1.0
 30
0.0
  9
$PUCSORTHOREF
  2

  9
$PUCSORTHOVIEW
 70
     0
  9
$PUCSORGTOP
 10
0.0
 20
0.0
 30
0.0
  9
$PUCSORGBOTTOM
 10
0.0
 20
0.0
 30
0.0
  9
$PUCSORGLEFT
 10
0.0
 20
0.0
 30
0.0
  9
$PUCSORGRIGHT
 10
0.0
 20
0.0
 30
0.0
  9
$PUCSORGFRONT
 10
0.0
 20
0.0
 30
0.0
  9
$PUCSORGBACK
 10
0.0
 20
0.0
 30
0.0
  9
$USERI1
 70
     0
  9
$USERI2
 70
     0
  9
$USERI3
 70
     0
  9
$USERI4
 70
     0
  9
$USERI5
 70
     0
  9
$USERR1
 40
0.0
  9
$USERR2
 40
0.0
  9
$USERR3
 40
0.0
  9
$USERR4
 40
0.0
  9
$USERR5
 40
0.0
  9
$WORLDVIEW
 70
     1
  9
$SHADEDGE
 70
     3
  9
$SHADEDIF
 70
    70
  9
$TILEMODE
 70
     1
  9
$MAXACTVP
 70
    16
  9
$PINSBASE
 10
0.0
 20
0.0
 30
0.0
  9
$PLIMCHECK
 70
     0
  9
$PEXTMIN
 10
1.000000000000000E+20
 20
1.000000000000000E+20
 30
1.000000000000000E+20
  9
$PEXTMAX
 10
-1.000000000000000E+20
 20
-1.000000000000000E+20
 30
-1.000000000000000E+20
  9
$PLIMMIN
 10
0.0
 20
0.0
  9
$PLIMMAX
 10
12.0
 20
9.0
  9
$UNITMODE
 70
     0
  9
$VISRETAIN
 70
     0
  9
$PLINEGEN
 70
     0
  9
$PSLTSCALE
 70
     1
  9
$TREEDEPTH
 70
  3020
  9
$CMLSTYLE
  2
STANDARD
  9
$CMLJUST
 70
     0
  9
$CMLSCALE
 40
1.0
  9
$PROXYGRAPHICS
 70
     1
  9
$MEASUREMENT
 70
     0
  9
$CELWEIGHT
370
    -1
  9
$ENDCAPS
280
     0
  9
$JOINSTYLE
280
     0
  9
$LWDISPLAY
290
     0
  9
$INSUNITS
 70
     0
  9
$HYPERLINKBASE
  1

  9
$STYLESHEET
  1

  9
$XEDIT
290
     1
  9
$CEPSNTYPE
380
     0
  9
$PSTYLEMODE
290
     1
  9
$FINGERPRINTGUID
  2
{FB88A696-E29C-4009-92AF-A3599A8169D5}
  9
$VERSIONGUID
  2
{7A82DF7B-CED5-4C93-95D5-3C5855BB0FB3}
  9
$EXTNAMES
290
     1
  9
$PSVPSCALE
 40
0.0
  9
$OLESTARTUP
290
     0
  0
ENDSEC
  0
SECTION
  2
CLASSES
  0
CLASS
  1
DICTIONARYVAR
  2
AcDbDictionaryVar
  3
ObjectDBX Classes
 90
        0
280
     0
281
     0
  0
CLASS
  1
ACDBDICTIONARYWDFLT
  2
AcDbDictionaryWithDefault
  3
ObjectDBX Classes
 90
        0
280
     0
281
     0
  0
CLASS
  1
ACDBPLACEHOLDER
  2
AcDbPlaceHolder
  3
ObjectDBX Classes
 90
        0
280
     0
281
     0
  0
CLASS
  1
LAYOUT
  2
AcDbLayout
  3
ObjectDBX Classes
 90
        0
280
     0
281
     0
  0
CLASS
  1
TABLESTYLE
  2
AcDbTableStyle
  3
ObjectDBX Classes
 90
     2047
280
     0
281
     0
  0
CLASS
  1
SORTENTSTABLE
  2
AcDbSortentsTable
  3
ObjectDBX Classes
 90
        0
280
     0
281
     0
  0
ENDSEC
  0
SECTION
  2
TABLES
  0
TABLE
  2
VPORT
  5
12
330
0
100
AcDbSymbolTable
 70
    30
  0
VPORT
  5
7D2C
330
12
100
AcDbSymbolTableRecord
100
AcDbViewportTableRecord
  2
*Active
 70
     0
 10
0.0
 20
0.0
 11
1.0
 21
1.0
 12
59.4463112521671
 22
47.61689952057167
 13
0.0
 23
0.0
 14
1.0
 24
1.0
 15
0.0
 25
0.0
 16
0.0
 26
0.0
 36
1.0
 17
0.0
 27
0.0
 37
0.0
 40
185.3446042510809
 41
1.560102301790281
 42
50.0
 43
0.0
 44
0.0
 50
0.0
 51
0.0
 71
     0
 72
 20000
 73
     1
 74
     1
 75
     0
 76
     0
 77
     0
 78
     0
281
     0
 65
     1
110
0.0
120
0.0
130
0.0
111
1.0
121
0.0
131
0.0
112
0.0
122
1.0
132
0.0
 79
     0
146
0.0
  0
ENDTAB
  0
TABLE
  2
LTYPE
  5
D
330
0
100
AcDbSymbolTable
 70
     2
  0
LTYPE
  5
E
330
D
100
AcDbSymbolTableRecord
100
AcDbLinetypeTableRecord
  2
BYBLOCK
 70
     0
  3

 72
    65
 73
     0
 40
0.0
  0
LTYPE
  5
F
330
D
100
AcDbSymbolTableRecord
100
AcDbLinetypeTableRecord
  2
BYLAYER
 70
     0
  3

 72
    65
 73
     0
 40
0.0
  0
LTYPE
  5
5
330
D
100
AcDbSymbolTableRecord
100
AcDbLinetypeTableRecord
  2
CONTINUOUS
 70
     0
  3
Solid line
 72
    65
 73
     0
 40
0.0
  0
ENDTAB
  0
TABLE
  2
LAYER
  5
A
102
{ACAD_XDICTIONARY
360
1B4
102
}
330
0
100
AcDbSymbolTable
 70
     6
  0
LAYER
  5
4
330
A
100
AcDbSymbolTableRecord
100
AcDbLayerTableRecord
  2
0
 70
     0
 62
     7
  6
CONTINUOUS
370
    -3
390
57
  0
LAYER
  5
25
330
A
100
AcDbSymbolTableRecord
100
AcDbLayerTableRecord
  2
KIJUN
 70
     0
 62
     7
  6
CONTINUOUS
370
    -3
390
57
  0
LAYER
  5
22
330
A
100
AcDbSymbolTableRecord
100
AcDbLayerTableRecord
  2
HOJO
 70
     0
 62
     3
  6
CONTINUOUS
370
    -3
390
57
  0
LAYER
  5
1B
330
A
100
AcDbSymbolTableRecord
100
AcDbLayerTableRecord
  2
WAKU
 70
     0
 62
     1
  6
CONTINUOUS
370
    -3
390
57
  0
LAYER
  5
31
330
A
100
AcDbSymbolTableRecord
100
AcDbLayerTableRecord
  2
DEFPOINTS
 70
     0
 62
     7
  6
CONTINUOUS
290
     0
370
    -3
390
57
  0
LAYER
  5
28
330
A
100
AcDbSymbolTableRecord
100
AcDbLayerTableRecord
  2
SUNPOU
 70
     0
 62
    70
  6
CONTINUOUS
370
    -3
390
57
  0
ENDTAB
  0
TABLE
  2
STYLE
  5
B
330
0
100
AcDbSymbolTable
 70
     2
  0
STYLE
  5
C
330
B
100
AcDbSymbolTableRecord
100
AcDbTextStyleTableRecord
  2
STANDARD
 70
     0
 40
0.0
 41
1.0
 50
0.0
 71
     0
 42
0.2
  3
txt
  4

  0
STYLE
  5
1C
330
B
100
AcDbSymbolTableRecord
100
AcDbTextStyleTableRecord
  2
SUNPOU
 70
     0
 40
0.0
 41
1.0
 50
0.0
 71
     0
 42
30.0
  3
txt
  4
bigfont
  0
ENDTAB
  0
TABLE
  2
VIEW
  5
10
330
0
100
AcDbSymbolTable
 70
     0
  0
ENDTAB
  0
TABLE
  2
UCS
  5
11
330
0
100
AcDbSymbolTable
 70
     0
  0
ENDTAB
  0
TABLE
  2
APPID
  5
14
330
0
100
AcDbSymbolTable
 70
    10
  0
APPID
  5
15
330
14
100
AcDbSymbolTableRecord
100
AcDbRegAppTableRecord
  2
ACAD
 70
     0
  0
APPID
  5
1D3
330
14
100
AcDbSymbolTableRecord
100
AcDbRegAppTableRecord
  2
ACAD_DSTYLE_DIMTEXT_FILL
 70
     0
  0
APPID
  5
1D4
330
14
100
AcDbSymbolTableRecord
100
AcDbRegAppTableRecord
  2
ACAD_DSTYLE_DIMEXT_LENGTH
 70
     0
  0
APPID
  5
1D5
330
14
100
AcDbSymbolTableRecord
100
AcDbRegAppTableRecord
  2
ACAD_DSTYLE_DIMEXT_ENABLED
 70
     0
  0
APPID
  5
1D6
330
14
100
AcDbSymbolTableRecord
100
AcDbRegAppTableRecord
  2
ACAD_DSTYLE_DIM_LINETYPE
 70
     0
  0
APPID
  5
1D7
330
14
100
AcDbSymbolTableRecord
100
AcDbRegAppTableRecord
  2
ACAD_DSTYLE_DIM_EXT1_LINETYPE
 70
     0
  0
APPID
  5
1D8
330
14
100
AcDbSymbolTableRecord
100
AcDbRegAppTableRecord
  2
ACAD_DSTYLE_DIM_EXT2_LINETYPE
 70
     0
  0
APPID
  5
294
330
14
100
AcDbSymbolTableRecord
100
AcDbRegAppTableRecord
  2
ACAD_DSTYLE_DIMJOGGED_JOGANGLE_SYMBOL
 70
     0
  0
APPID
  5
478
330
14
100
AcDbSymbolTableRecord
100
AcDbRegAppTableRecord
  2
ACAD_DSTYLE_DIMARC_LENGTH_SYMBOL
 70
     0
  0
APPID
  5
F55
330
14
100
AcDbSymbolTableRecord
100
AcDbRegAppTableRecord
  2
ACAD_EXEMPT_FROM_CAD_STANDARDS
 70
     0
  0
ENDTAB
  0
TABLE
  2
DIMSTYLE
  5
16
330
0
100
AcDbSymbolTable
 70
     3
100
AcDbDimStyleTable
 71
     1
340
1E
  0
DIMSTYLE
105
1E
102
{ACAD_REACTORS
330
786C
330
7879
102
}
330
16
100
AcDbSymbolTableRecord
100
AcDbDimStyleTableRecord
  2
STANDARD
 70
     0
340
C
  0
ENDTAB
  0
TABLE
  2
BLOCK_RECORD
  5
1
330
0
100
AcDbSymbolTable
 70
    23
  0
BLOCK_RECORD
  5
2
102
{ACAD_XDICTIONARY
360
D13
102
}
330
1
100
AcDbSymbolTableRecord
100
AcDbBlockTableRecord
  2
*MODEL_SPACE
340
5A
  0
BLOCK_RECORD
  5
7
330
1
100
AcDbSymbolTableRecord
100
AcDbBlockTableRecord
  2
*PAPER_SPACE
340
5B
  0
BLOCK_RECORD
  5
109
330
1
100
AcDbSymbolTableRecord
100
AcDbBlockTableRecord
  2
_Dot
340
0
102
{BLKREFS
331
6DC2
331
6DC3
331
6DDD
331
6DDE
331
6EC4
331
6EC5
331
6EDF
331
6EE0
331
705E
331
705F
331
7067
331
7068
331
7161
331
7162
331
716A
331
716B
331
750E
331
750F
331
777A
331
777B
331
778C
331
778D
331
7BAE
331
7BAF
331
7BB7
331
7BB8
331
7D13
331
7D14
331
7D25
331
7D26
102
}
  0
BLOCK_RECORD
  5
786D
330
1
100
AcDbSymbolTableRecord
100
AcDbBlockTableRecord
  2
*D17
340
0
  0
BLOCK_RECORD
  5
787A
330
1
100
AcDbSymbolTableRecord
100
AcDbBlockTableRecord
  2
*D18
340
0
  0
ENDTAB
  0
ENDSEC
  0
SECTION
  2
BLOCKS
  0
BLOCK
  5
3
330
2
100
AcDbEntity
  8
0
100
AcDbBlockBegin
  2
*MODEL_SPACE
 70
     0
 10
0.0
 20
0.0
 30
0.0
  3
*MODEL_SPACE
  1

  0
ENDBLK
  5
6
330
2
100
AcDbEntity
  8
0
100
AcDbBlockEnd
  0
BLOCK
  5
8
330
7
100
AcDbEntity
 67
     1
  8
0
100
AcDbBlockBegin
  2
*PAPER_SPACE
 70
     0
 10
0.0
 20
0.0
 30
0.0
  3
*PAPER_SPACE
  1

  0
ENDBLK
  5
9
330
7
100
AcDbEntity
 67
     1
  8
0
100
AcDbBlockEnd
  0
BLOCK
  5
10C
330
109
100
AcDbEntity
  8
0
100
AcDbBlockBegin
  2
_Dot
 70
     0
 10
0.0
 20
0.0
 30
0.0
  3
_Dot
  1

  0
LWPOLYLINE
  5
10A
330
109
100
AcDbEntity
  8
0
  6
ByBlock
 62
     0
100
AcDbPolyline
 90
        2
 70
     1
 43
0.5
 10
-0.25
 20
0.0
 42
1.0
 10
0.25
 20
0.0
 42
1.0
  0
LINE
  5
10B
330
109
100
AcDbEntity
  8
0
  6
ByBlock
 62
     0
370
    -2
100
AcDbLine
 10
-0.5
 20
0.0
 30
0.0
 11
-1.0
 21
0.0
 31
0.0
  0
ENDBLK
  5
10D
330
109
100
AcDbEntity
  8
0
100
AcDbBlockEnd
  0
BLOCK
  5
7877
330
786D
100
AcDbEntity
  8
0
100
AcDbBlockBegin
  2
*D17
 70
     1
 10
0.0
 20
0.0
 30
0.0
  3
*D17
  1

  0
LINE
  5
7D22
330
786D
100
AcDbEntity
  8
SUNPOU
 62
    70
370
    -2
100
AcDbLine
 10
-60.69303963673689
 20
75.63851014243123
 30
0.0
 11
-60.69303963673689
 21
87.22544947373581
 31
0.0
  0
LINE
  5
7D23
330
786D
100
AcDbEntity
  8
SUNPOU
 62
    70
370
    -2
100
AcDbLine
 10
202.306960363263
 20
73.9895945319472
 30
0.0
 11
202.306960363263
 21
87.22544947373581
 31
0.0
  0
LINE
  5
7D24
330
786D
100
AcDbEntity
  8
SUNPOU
 62
    60
370
    -2
100
AcDbLine
 10
-58.6930396367369
 20
87.22544947373581
 30
0.0
 11
200.3069603632631
 21
87.22544947373581
 31
0.0
  0
INSERT
  5
7D25
330
786D
100
AcDbEntity
  8
SUNPOU
 62
    60
370
    -2
100
AcDbBlockReference
  2
_Dot
 10
-60.69303963673689
 20
87.22544947373581
 30
0.0
 41
2.0
 42
2.0
 43
2.0
 50
180.0
  0
INSERT
  5
7D26
330
786D
100
AcDbEntity
  8
SUNPOU
 62
    60
370
    -2
100
AcDbBlockReference
  2
_Dot
 10
202.306960363263
 20
87.22544947373581
 30
0.0
 41
2.0
 42
2.0
 43
2.0
  0
MTEXT
  5
7D27
330
786D
100
AcDbEntity
  8
SUNPOU
 62
    60
100
AcDbMText
 10
70.80696036326308
 20
92.7254494737358
 30
0.0
 40
5.0
 41
0.0
 71
     5
 72
     1
  1
\A1;263
  7
SUNPOU
 73
     1
 44
1.0
1001
ACAD
1000
MTEXTBEGIN
1070
    73
1070
     1
1070
    44
1040
1.0
1070
    74
1070
     0
1000
MTEXTEND
  0
POINT
  5
7D28
330
786D
100
AcDbEntity
  8
DEFPOINTS
 62
     0
100
AcDbPoint
 10
-60.69303963673689
 20
65.63851014243123
 30
0.0
  0
POINT
  5
7D29
330
786D
100
AcDbEntity
  8
DEFPOINTS
 62
     0
100
AcDbPoint
 10
202.306960363263
 20
63.9895945319472
 30
0.0
  0
POINT
  5
7D2A
330
786D
100
AcDbEntity
  8
DEFPOINTS
 62
     0
100
AcDbPoint
 10
202.306960363263
 20
87.22544947373581
 30
0.0
  0
ENDBLK
  5
7878
330
786D
100
AcDbEntity
  8
0
100
AcDbBlockEnd
  0
BLOCK
  5
7884
330
787A
100
AcDbEntity
  8
0
100
AcDbBlockBegin
  2
*D18
 70
     1
 10
0.0
 20
0.0
 30
0.0
  3
*D18
  1

  0
LINE
  5
7D10
330
787A
100
AcDbEntity
  8
SUNPOU
 62
    70
370
    -2
100
AcDbLine
 10
-70.69303963673689
 20
65.63851014243123
 30
0.0
 11
-76.41275631786903
 21
65.63851014243123
 31
0.0
  0
LINE
  5
7D11
330
787A
100
AcDbEntity
  8
SUNPOU
 62
    70
370
    -2
100
AcDbLine
 10
-69.55517651826356
 20
33.63851014243122
 30
0.0
 11
-76.41275631786903
 21
33.63851014243122
 31
0.0
  0
LINE
  5
7D12
330
787A
100
AcDbEntity
  8
SUNPOU
 62
    60
370
    -2
100
AcDbLine
 10
-76.41275631786903
 20
63.63851014243123
 30
0.0
 11
-76.41275631786903
 21
35.63851014243122
 31
0.0
  0
INSERT
  5
7D13
330
787A
100
AcDbEntity
  8
SUNPOU
 62
    60
370
    -2
100
AcDbBlockReference
  2
_Dot
 10
-76.41275631786903
 20
65.63851014243123
 30
0.0
 41
2.0
 42
2.0
 43
2.0
 50
90.0
  0
INSERT
  5
7D14
330
787A
100
AcDbEntity
  8
SUNPOU
 62
    60
370
    -2
100
AcDbBlockReference
  2
_Dot
 10
-76.41275631786903
 20
33.63851014243122
 30
0.0
 41
2.0
 42
2.0
 43
2.0
 50
270.0
  0
MTEXT
  5
7D15
330
787A
100
AcDbEntity
  8
SUNPOU
 62
    60
100
AcDbMText
 10
-81.91275631786904
 20
49.63851014243122
 30
0.0
 40
5.0
 41
0.0
 71
     5
 72
     1
  1
\A1;32
  7
SUNPOU
 11
0.0000000000000001
 21
1.0
 31
0.0
 73
     1
 44
1.0
1001
ACAD
1000
MTEXTBEGIN
1070
    73
1070
     1
1070
    44
1040
1.0
1070
    74
1070
     0
1000
MTEXTEND
  0
POINT
  5
7D16
330
787A
100
AcDbEntity
  8
DEFPOINTS
 62
     0
100
AcDbPoint
 10
-60.69303963673689
 20
65.63851014243123
 30
0.0
  0
POINT
  5
7D17
330
787A
100
AcDbEntity
  8
DEFPOINTS
 62
     0
100
AcDbPoint
 10
-59.55517651826358
 20
33.63851014243122
 30
0.0
  0
POINT
  5
7D18
330
787A
100
AcDbEntity
  8
DEFPOINTS
 62
     0
100
AcDbPoint
 10
-76.41275631786903
 20
33.63851014243122
 30
0.0
  0
ENDBLK
  5
7885
330
787A
100
AcDbEntity
  8
0
100
AcDbBlockEnd
  0
ENDSEC
  0
SECTION
  2
ENTITIES
  0
LINE
  5
1F
330
2
100
AcDbEntity
  8
WAKU
100
AcDbLine
 10
0.0
 20
14.0
 30
0.0
 11
133.4211017667494
 21
13.99999999999999
 31
0.0
  0
LINE
  5
20
330
2
100
AcDbEntity
  8
WAKU
100
AcDbLine
 10
0.0
 20
0.0
 30
0.0
 11
133.4211017667494
 21
0.0
 31
0.0
  0
TEXT
  5
21
330
2
100
AcDbEntity
  8
HOJO
100
AcDbText
 10
9.653966000000025
 20
2.366626000000024
 30
0.0
 40
9.0
  1
TC320
  7
SUNPOU
100
AcDbText
  0
TEXT
  5
23
330
2
100
AcDbEntity
  8
HOJO
100
AcDbText
 10
75.8077226877416
 20
5.044386000000031
 30
0.0
 40
6.0
  1
263×32×5
  7
SUNPOU
100
AcDbText
  0
SPLINE
  5
7809
102
{ACAD_REACTORS
330
7D2B
102
}
330
2
100
AcDbEntity
  8
KIJUN
100
AcDbSpline
210
0.0
220
0.0
230
1.0
 70
     8
 71
     3
 72
     9
 73
     5
 74
     3
 42
0.0000000001
 43
0.0000000001
 44
0.0000000001
 40
0.0
 40
0.0
 40
0.0
 40
0.0
 40
2.92674056585744
 40
7.298756002521527
 40
7.298756002521527
 40
7.298756002521527
 40
7.298756002521527
 10
76.20017075524029
 20
56.78797839595564
 30
0.0
 10
75.47733209261116
 20
56.31099653290135
 30
0.0
 10
73.6747045931788
 20
55.12149095229943
 30
0.0
 10
72.69088665349591
 20
53.17770649769323
 30
0.0
 10
72.10157154038973
 20
52.01336347291611
 30
0.0
 11
76.20017075524029
 21
56.78797839595564
 31
0.0
 11
74.16331471190614
 21
55.23574903140616
 31
0.0
 11
72.10157154038973
 21
52.01336347291611
 31
0.0
  0
SPLINE
  5
780A
102
{ACAD_REACTORS
330
7D2B
102
}
330
2
100
AcDbEntity
  8
KIJUN
100
AcDbSpline
210
0.0
220
0.0
230
1.0
 70
     8
 71
     3
 72
    13
 73
     9
 74
     0
 42
0.0000000001
 43
0.0000000001
 40
0.0
 40
0.0
 40
0.0
 40
0.0
 40
1.646944584737851
 40
3.984442232655265
 40
6.239227039260644
 40
9.266778830475235
 40
11.33679546669902
 40
11.34117233500707
 40
11.34117233500707
 40
11.34117233500707
 40
11.34117233500707
 10
78.806960063263
 20
53.64398458560486
 30
0.0
 10
78.43063754750716
 20
53.23228015741412
 30
0.0
 10
77.52020295318505
 20
52.23624633438396
 30
0.0
 10
75.47461680122186
 20
51.62512971129375
 30
0.0
 10
72.98459002804818
 20
50.9151433454888
 30
0.0
 10
71.45028757191553
 20
48.77438924397918
 30
0.0
 10
70.93335227969473
 20
47.14629126501061
 30
0.0
 10
70.80722610943294
 20
46.47252160392618
 30
0.0
 10
70.8069603632631
 20
46.47109993056868
 30
0.0
  0
SPLINE
  5
7824
102
{ACAD_REACTORS
330
7D2B
102
}
330
2
100
AcDbEntity
  8
KIJUN
100
AcDbSpline
210
0.0
220
0.0
230
1.0
 70
     8
 71
     3
 72
     9
 73
     5
 74
     3
 42
0.0000000001
 43
0.0000000001
 44
0.0000000001
 40
0.0
 40
0.0
 40
0.0
 40
0.0
 40
1.192638103380899
 40
2.88980329268324
 40
2.88980329268324
 40
2.88980329268324
 40
2.88980329268324
 10
74.45967859335081
 20
57.91266220523235
 30
0.0
 10
74.13679604168868
 20
57.7740929317885
 30
0.0
 10
73.35444047355938
 20
57.43833479901745
 30
0.0
 10
72.7776773168885
 20
56.80608992745887
 30
0.0
 10
72.43894756512566
 20
56.43477607719059
 30
0.0
 11
74.45967859335081
 21
57.91266220523235
 31
0.0
 11
73.52604865936791
 21
57.44645500203709
 31
0.0
 11
72.43894756512566
 21
56.43477607719059
 31
0.0
  0
SPLINE
  5
7825
102
{ACAD_REACTORS
330
7D2B
102
}
330
2
100
AcDbEntity
  8
KIJUN
100
AcDbSpline
210
0.0
220
0.0
230
1.0
 70
     8
 71
     3
 72
     9
 73
     5
 74
     3
 42
0.0000000001
 43
0.0000000001
 44
0.0000000001
 40
0.0
 40
0.0
 40
0.0
 40
0.0
 40
2.877085300768854
 40
6.925124485795471
 40
6.925124485795471
 40
6.925124485795471
 40
6.925124485795471
 10
70.74939529428007
 20
63.47905972254425
 30
0.0
 10
70.84329869801859
 20
62.6417437144757
 30
0.0
 10
71.06932354349507
 20
60.62632985508313
 30
0.0
 10
70.74913092263743
 20
58.61952216796659
 30
0.0
 10
70.56196428344609
 20
57.4464550020372
 30
0.0
 11
70.74939529428007
 21
63.47905972254425
 31
0.0
 11
70.93682630511446
 21
60.96859715622032
 31
0.0
 11
70.56196428344609
 21
57.4464550020372
 31
0.0
  0
SPLINE
  5
7826
102
{ACAD_REACTORS
330
7D2B
102
}
330
2
100
AcDbEntity
  8
KIJUN
100
AcDbSpline
210
0.0
220
0.0
230
1.0
 70
     8
 71
     3
 72
     9
 73
     5
 74
     3
 42
0.0000000001
 43
0.0000000001
 44
0.0000000001
 40
0.0
 40
0.0
 40
0.0
 40
0.0
 40
1.192638103380899
 40
2.889803292683573
 40
2.889803292683573
 40
2.889803292683573
 40
2.889803292683573
 10
67.15424213317539
 20
57.91266220523245
 30
0.0
 10
67.47712468483756
 20
57.77409293178859
 30
0.0
 10
68.25948025296688
 20
57.43833479901747
 30
0.0
 10
68.83624340963795
 20
56.80608992745895
 30
0.0
 10
69.17497316140094
 20
56.43477607719069
 30
0.0
 11
67.15424213317539
 21
57.91266220523245
 31
0.0
 11
68.08787206715829
 21
57.4464550020372
 31
0.0
 11
69.17497316140094
 21
56.43477607719069
 31
0.0
  0
SPLINE
  5
7827
102
{ACAD_REACTORS
330
7D2B
102
}
330
2
100
AcDbEntity
  8
KIJUN
100
AcDbSpline
210
0.0
220
0.0
230
1.0
 70
     8
 71
     3
 72
     9
 73
     5
 74
     3
 42
0.0000000001
 43
0.0000000001
 44
0.0000000001
 40
0.0
 40
0.0
 40
0.0
 40
0.0
 40
2.926740565857509
 40
7.298756002521692
 40
7.298756002521692
 40
7.298756002521692
 40
7.298756002521692
 10
65.41374997128591
 20
56.78797839595585
 30
0.0
 10
66.13658863391504
 20
56.31099653290153
 30
0.0
 10
67.93921613334745
 20
55.12149095229952
 30
0.0
 10
68.92303407303029
 20
53.17770649769326
 30
0.0
 10
69.51234918613647
 20
52.01336347291611
 30
0.0
 11
65.41374997128591
 21
56.78797839595585
 31
0.0
 11
67.45060601462006
 21
55.23574903140626
 31
0.0
 11
69.51234918613647
 21
52.01336347291611
 31
0.0
  0
SPLINE
  5
7828
102
{ACAD_REACTORS
330
7D2B
102
}
330
2
100
AcDbEntity
  8
KIJUN
100
AcDbSpline
210
0.0
220
0.0
230
1.0
 70
    11
 71
     3
 72
    14
 73
    10
 74
     8
 42
0.0000000001
 43
0.0000000001
 44
0.0000000001
 12
-0.7421220672617493
 22
0.4635513318750661
 32
0.0
 13
-0.7421220672617493
 23
0.4635513318750661
 33
0.0
 40
0.0
 40
0.0
 40
0.0
 40
0.0
 40
1.491688863247308
 40
3.456893161923739
 40
5.220611265325714
 40
6.692871847979258
 40
8.936507113421793
 40
10.67077391890074
 40
11.75189464537339
 40
11.75189464537339
 40
11.75189464537339
 40
11.75189464537339
 10
70.74939529428007
 20
52.05083296450119
 30
0.0
 10
70.38039021997864
 20
52.2813244176017
 30
0.0
 10
69.77730567168591
 20
53.16825393629172
 30
0.0
 10
69.39195786037712
 20
54.6354151329946
 30
0.0
 10
70.06383617298945
 20
56.38138242552496
 30
0.0
 10
72.11444397564242
 20
56.0451755647208
 30
0.0
 10
72.15269852944001
 20
54.00745310746389
 30
0.0
 10
71.80897910489695
 20
52.84453352514417
 30
0.0
 10
71.01683647710986
 20
51.88378131360981
 30
0.0
 10
70.74939529428007
 20
52.05083296450119
 30
0.0
 11
70.74939529428007
 21
52.05083296450119
 31
0.0
 11
69.92469823090786
 21
53.0625118893478
 31
0.0
 11
69.58732220617213
 21
54.74864431477545
 31
0.0
 11
70.33704624950908
 21
56.09754932690012
 31
0.0
 11
71.61157835458553
 21
55.91020120596219
 31
0.0
 11
72.06141339628977
 21
53.99925183102424
 31
0.0
 11
71.53660636071984
 21
52.57540717271699
 31
0.0
 11
70.74939529428007
 21
52.05083296450119
 31
0.0
  0
ARC
  5
7836
102
{ACAD_REACTORS
330
7D2B
102
}
330
2
100
AcDbEntity
  8
KIJUN
100
AcDbCircle
 10
66.2047453323259
 20
42.22404818216992
 30
0.0
 40
4.621334235949902
100
AcDbArc
 50
162.1060046239838
 51
5.213611884192307
  0
SPLINE
  5
7838
102
{ACAD_REACTORS
330
7D2B
102
}
330
2
100
AcDbEntity
  8
KIJUN
100
AcDbSpline
210
0.0
220
0.0
230
1.0
 70
     8
 71
     3
 72
    13
 73
     9
 74
     0
 42
0.0000000001
 43
0.0000000001
 40
0.0
 40
0.0
 40
0.0
 40
0.0
 40
1.646944584737851
 40
3.984442232655265
 40
6.239227039260644
 40
9.266778830475235
 40
11.33679546669902
 40
11.34117233500707
 40
11.34117233500707
 40
11.34117233500707
 40
11.34117233500707
 10
62.80696066326299
 20
53.64398458560486
 30
0.0
 10
63.18328317901904
 20
53.23228015741412
 30
0.0
 10
64.09371777334115
 20
52.23624633438396
 30
0.0
 10
66.13930392530434
 20
51.62512971129375
 30
0.0
 10
68.62933069847802
 20
50.9151433454888
 30
0.0
 10
70.16363315461067
 20
48.77438924397918
 30
0.0
 10
70.68056844683147
 20
47.14629126501061
 30
0.0
 10
70.80669461709326
 20
46.47252160392618
 30
0.0
 10
70.8069603632631
 20
46.47109993056868
 30
0.0
  0
SPLINE
  5
7839
102
{ACAD_REACTORS
330
7D2B
102
}
330
2
100
AcDbEntity
  8
KIJUN
100
AcDbSpline
210
0.0
220
0.0
230
1.0
 70
     8
 71
     3
 72
    10
 73
     6
 74
     4
 42
0.0000000001
 43
0.0000000001
 44
0.0000000001
 40
0.0
 40
0.0
 40
0.0
 40
0.0
 40
1.915113091272182
 40
4.392520846023824
 40
6.939548097596329
 40
6.939548097596329
 40
6.939548097596329
 40
6.939548097596329
 10
61.80696070076308
 20
43.64398496060482
 30
0.0
 10
62.2167183027519
 20
44.00894603578751
 30
0.0
 10
63.15654207438999
 20
44.84602408513778
 30
0.0
 10
65.37269218035544
 20
45.67729875410052
 30
0.0
 10
66.44332290291626
 20
44.4786247228578
 30
0.0
 10
66.98605569243406
 20
43.87098318316534
 30
0.0
 11
61.80696070076308
 21
43.64398496060482
 31
0.0
 11
63.12423248539602
 21
44.67976766866293
 31
0.0
 11
65.22065097370256
 21
45.23121178673231
 31
0.0
 11
66.98605569243406
 21
43.87098318316534
 31
0.0
  0
LINE
  5
783A
102
{ACAD_REACTORS
330
7D2B
102
}
330
2
100
AcDbEntity
  8
KIJUN
100
AcDbLine
 10
70.8069603632631
 20
46.47109993057495
 30
0.0
 11
70.8069603632631
 21
41.80411136623433
 31
0.0
  0
LINE
  5
783F
102
{ACAD_REACTORS
330
7D2B
102
}
330
2
100
AcDbEntity
  8
KIJUN
100
AcDbLine
 10
70.8069603632631
 20
46.47109993057495
 30
0.0
 11
70.8069603632631
 21
41.80411136623433
 31
0.0
  0
ARC
  5
7869
102
{ACAD_REACTORS
330
7D2B
102
}
330
2
100
AcDbEntity
  8
KIJUN
100
AcDbCircle
 10
75.4091753942007
 20
42.22404818216992
 30
0.0
 40
4.621334235949902
100
AcDbArc
 50
174.7863881158077
 51
17.89399537601617
  0
SPLINE
  5
786A
102
{ACAD_REACTORS
330
7D2B
102
}
330
2
100
AcDbEntity
  8
KIJUN
100
AcDbSpline
210
0.0
220
0.0
230
1.0
 70
     8
 71
     3
 72
    10
 73
     6
 74
     4
 42
0.0000000001
 43
0.0000000001
 44
0.0000000001
 40
0.0
 40
0.0
 40
0.0
 40
0.0
 40
1.915113091272182
 40
4.392520846023824
 40
6.939548097596329
 40
6.939548097596329
 40
6.939548097596329
 40
6.939548097596329
 10
79.80696002576351
 20
43.64398496060482
 30
0.0
 10
79.3972024237746
 20
44.00894603578751
 30
0.0
 10
78.45737865213656
 20
44.84602408513778
 30
0.0
 10
76.2412285461712
 20
45.67729875410052
 30
0.0
 10
75.17059782361037
 20
44.4786247228578
 30
0.0
 10
74.62786503409254
 20
43.87098318316534
 30
0.0
 11
79.80696002576351
 21
43.64398496060482
 31
0.0
 11
78.48968824113057
 21
44.67976766866293
 31
0.0
 11
76.39326975282404
 21
45.23121178673231
 31
0.0
 11
74.62786503409254
 21
43.87098318316534
 31
0.0
  0
DIMENSION
  5
786C
330
2
100
AcDbEntity
  8
SUNPOU
100
AcDbDimension
  2
*D17
 10
202.306960363263
 20
87.22544947373581
 30
0.0
 11
70.80696036326308
 21
92.7254494737358
 31
0.0
 70
    32
 71
     5
 42
263.0
  3
STANDARD
100
AcDbAlignedDimension
 13
-60.69303963673689
 23
65.63851014243123
 33
0.0
 14
202.306960363263
 24
63.9895945319472
 34
0.0
100
AcDbRotatedDimension
1001
ACAD
1000
DSTYLE
1002
{
1070
    41
1040
2.0
1070
    42
1040
10.0
1070
    44
1040
0.0
1070
    73
1070
     0
1070
    74
1070
     0
1070
    77
1070
     1
1070
   140
1040
5.0
1070
   141
1040
0.0
1070
   146
1040
0.064286
1070
   147
1040
3.0
1070
   176
1070
    60
1070
   177
1070
    70
1070
   178
1070
    60
1070
   271
1070
     0
1070
   272
1070
     0
1070
   340
1005
1C
1070
   342
1005
109
1002
}
  0
DIMENSION
  5
7879
330
2
100
AcDbEntity
  8
SUNPOU
100
AcDbDimension
  2
*D18
 10
-76.41275631786903
 20
33.63851014243122
 30
0.0
 11
-81.91275631786904
 21
49.63851014243122
 31
0.0
 70
    32
 71
     5
 42
32.00000000000001
  3
STANDARD
100
AcDbAlignedDimension
 13
-60.69303963673689
 23
65.63851014243123
 33
0.0
 14
-59.55517651826358
 24
33.63851014243122
 34
0.0
 50
90.0
100
AcDbRotatedDimension
1001
ACAD
1000
DSTYLE
1002
{
1070
    41
1040
2.0
1070
    42
1040
10.0
1070
    44
1040
0.0
1070
    73
1070
     0
1070
    74
1070
     0
1070
    77
1070
     1
1070
   140
1040
5.0
1070
   141
1040
0.0
1070
   146
1040
0.064286
1070
   147
1040
3.0
1070
   176
1070
    60
1070
   177
1070
    70
1070
   178
1070
    60
1070
   271
1070
     0
1070
   272
1070
     0
1070
   340
1005
1C
1070
   342
1005
109
1002
}
  0
ARC
  5
789C
102
{ACAD_REACTORS
330
7D2B
102
}
330
2
100
AcDbEntity
  8
KIJUN
100
AcDbCircle
 10
73.02500674297069
 20
62.84801606266866
 30
0.0
 40
3.564629988052563
100
AcDbArc
 50
128.479711827849
 51
149.8538625613665
  0
ARC
  5
789D
102
{ACAD_REACTORS
330
7D2B
102
}
330
2
100
AcDbEntity
  8
KIJUN
100
AcDbCircle
 10
70.88433349751196
 20
55.42622727324364
 30
0.0
 40
8.271658896568432
100
AcDbArc
 50
168.0461987794279
 51
192.4427362172651
  0
ARC
  5
789E
102
{ACAD_REACTORS
330
7D2B
102
}
330
2
100
AcDbEntity
  8
KIJUN
100
AcDbCircle
 10
63.53754291475792
 20
56.92011058698181
 30
0.0
 40
0.7771018372896871
100
AcDbArc
 50
92.73798363307788
 51
163.6031675322125
  0
ARC
  5
789F
102
{ACAD_REACTORS
330
7D2B
102
}
330
2
100
AcDbEntity
  8
KIJUN
100
AcDbCircle
 10
63.52979766604185
 20
55.86991233263888
 30
0.0
 40
1.82664919688075
100
AcDbArc
 50
40.84655636606908
 51
90.92146040360708
  0
ARC
  5
78A0
102
{ACAD_REACTORS
330
7D2B
102
}
330
2
100
AcDbEntity
  8
KIJUN
100
AcDbCircle
 10
66.59982750629011
 20
56.89352722069629
 30
0.0
 40
0.9612017644665309
100
AcDbArc
 50
79.88230658640924
 51
150.6522096589026
  0
ARC
  5
78A1
102
{ACAD_REACTORS
330
7D2B
102
}
330
2
100
AcDbEntity
  8
KIJUN
100
AcDbCircle
 10
129.8233659579409
 20
18.52153124846873
 30
0.0
 40
74.9175954633466
100
AcDbArc
 50
148.7698171159563
 51
148.9836133921442
  0
ARC
  5
78A3
102
{ACAD_REACTORS
330
7D2B
102
}
330
2
100
AcDbEntity
  8
KIJUN
100
AcDbCircle
 10
65.24254470969556
 20
57.35074627005092
 30
0.0
 40
0.4375
100
AcDbArc
 50
220.8465563660694
 51
328.9836133921471
  0
ARC
  5
78A4
102
{ACAD_REACTORS
330
7D2B
102
}
330
2
100
AcDbEntity
  8
KIJUN
100
AcDbCircle
 10
71.06206568702134
 20
58.11268234409063
 30
0.0
 40
3.663550245365067
100
AcDbArc
 50
130.2082655953127
 51
176.9767374050402
  0
ARC
  5
78A6
102
{ACAD_REACTORS
330
7D2B
102
}
330
2
100
AcDbEntity
  8
KIJUN
100
AcDbCircle
 10
66.86232138873686
 20
58.37773016655843
 30
0.0
 40
0.5460377291304762
100
AcDbArc
 50
260.1256607437866
 51
352.4412772213677
  0
ARC
  5
78A7
102
{ACAD_REACTORS
330
7D2B
102
}
330
2
100
AcDbEntity
  8
KIJUN
100
AcDbCircle
 10
67.32825860080708
 20
63.1767064547381
 30
0.0
 40
2.647436897931572
100
AcDbArc
 50
301.1315323284109
 51
16.86738165666417
  0
ARC
  5
78A9
102
{ACAD_REACTORS
330
7D2B
102
}
330
2
100
AcDbEntity
  8
KIJUN
100
AcDbCircle
 10
70.69915647686054
 20
64.19876770981442
 30
0.0
 40
0.875
100
AcDbArc
 50
149.8538625613663
 51
196.8673816566644
  0
ARC
  5
78AB
102
{ACAD_REACTORS
330
7D2B
102
}
330
2
100
AcDbEntity
  8
KIJUN
100
AcDbCircle
 10
68.58891398355551
 20
62.84801606266866
 30
0.0
 40
3.564629988052563
100
AcDbArc
 50
30.14613743863326
 51
51.52028817215072
  0
ARC
  5
78AC
102
{ACAD_REACTORS
330
7D2B
102
}
330
2
100
AcDbEntity
  8
KIJUN
100
AcDbCircle
 10
70.91476424966566
 20
64.19876770981442
 30
0.0
 40
0.875
100
AcDbArc
 50
343.1326183433356
 51
30.14613743863345
  0
ARC
  5
78AD
102
{ACAD_REACTORS
330
7D2B
102
}
330
2
100
AcDbEntity
  8
KIJUN
100
AcDbCircle
 10
70.72958722901424
 20
55.42622727324364
 30
0.0
 40
8.271658896568432
100
AcDbArc
 50
347.5572637827349
 51
11.9538012205723
  0
ARC
  5
78AE
102
{ACAD_REACTORS
330
7D2B
102
}
330
2
100
AcDbEntity
  8
KIJUN
100
AcDbCircle
 10
78.07637781176828
 20
56.92011058698181
 30
0.0
 40
0.7771018372896871
100
AcDbArc
 50
16.39683246778762
 51
87.26201636692293
  0
ARC
  5
78AF
102
{ACAD_REACTORS
330
7D2B
102
}
330
2
100
AcDbEntity
  8
KIJUN
100
AcDbCircle
 10
78.08412306048435
 20
55.86991233263888
 30
0.0
 40
1.82664919688075
100
AcDbArc
 50
89.07853959639268
 51
139.1534436339311
  0
ARC
  5
78B0
102
{ACAD_REACTORS
330
7D2B
102
}
330
2
100
AcDbEntity
  8
KIJUN
100
AcDbCircle
 10
76.37137601683064
 20
57.35074627005092
 30
0.0
 40
0.4375
100
AcDbArc
 50
211.0163866078529
 51
319.153443633931
  0
ARC
  5
78B1
102
{ACAD_REACTORS
330
7D2B
102
}
330
2
100
AcDbEntity
  8
KIJUN
100
AcDbCircle
 10
75.01409322023609
 20
56.89352722069629
 30
0.0
 40
0.9612017644665309
100
AcDbArc
 50
29.34779034109764
 51
100.1176934135908
  0
ARC
  5
78B2
102
{ACAD_REACTORS
330
7D2B
102
}
330
2
100
AcDbEntity
  8
KIJUN
100
AcDbCircle
 10
74.75159933778934
 20
58.37773016655843
 30
0.0
 40
0.5460377291304762
100
AcDbArc
 50
187.5587227786323
 51
279.8743392562131
  0
ARC
  5
78B3
102
{ACAD_REACTORS
330
7D2B
102
}
330
2
100
AcDbEntity
  8
KIJUN
100
AcDbCircle
 10
11.79055476858531
 20
18.52153124846873
 30
0.0
 40
74.9175954633466
100
AcDbArc
 50
31.01638660785587
 51
31.23018288404347
  0
ARC
  5
78B4
102
{ACAD_REACTORS
330
7D2B
102
}
330
2
100
AcDbEntity
  8
KIJUN
100
AcDbCircle
 10
70.55185503950486
 20
58.11268234409063
 30
0.0
 40
3.663550245365067
100
AcDbArc
 50
3.023262594959728
 51
49.79173440468691
  0
ARC
  5
78B5
102
{ACAD_REACTORS
330
7D2B
102
}
330
2
100
AcDbEntity
  8
KIJUN
100
AcDbCircle
 10
74.28566212571912
 20
63.1767064547381
 30
0.0
 40
2.647436897931572
100
AcDbArc
 50
163.1326183433358
 51
238.868467671589
  0
SPLINE
  5
7B5A
102
{ACAD_REACTORS
330
7D2B
102
}
330
2
100
AcDbEntity
  8
KIJUN
100
AcDbSpline
210
0.0
220
0.0
230
1.0
 70
     8
 71
     3
 72
    10
 73
     6
 74
     4
 42
0.0000000001
 43
0.0000000001
 44
0.0000000001
 40
0.0
 40
0.0
 40
0.0
 40
0.0
 40
4.039404726566009
 40
13.76895249065453
 40
24.27256347239587
 40
24.27256347239587
 40
24.27256347239587
 40
24.27256347239587
 10
-10.59780081985803
 20
48.64399494962265
 30
0.0
 10
-10.10574412929109
 20
47.62651256883384
 30
0.0
 10
-8.428490758127992
 20
44.15826229199928
 30
0.0
 10
-2.604979178789445
 20
39.93494845101617
 30
0.0
 10
2.912926469996349
 20
38.75384414417803
 30
0.0
 10
5.777428997598192
 20
38.1406991417723
 30
0.0
 11
-10.59780081985803
 21
48.64399494962265
 31
0.0
 11
-8.981668473351156
 21
45.68385526570398
 31
0.0
 11
-2.637259724832976
 21
40.61058193914976
 31
0.0
 11
5.777428997598192
 21
38.1406991417723
 31
0.0
  0
SPLINE
  5
7B5B
102
{ACAD_REACTORS
330
7D2B
102
}
330
2
100
AcDbEntity
  8
KIJUN
100
AcDbSpline
210
0.0
220
0.0
230
1.0
 70
     8
 71
     3
 72
    10
 73
     6
 74
     4
 42
0.0000000001
 43
0.0000000001
 44
0.0000000001
 40
0.0
 40
0.0
 40
0.0
 40
0.0
 40
4.63543116014678
 40
12.0287194375288
 40
22.34879720851988
 40
22.34879720851988
 40
22.34879720851988
 40
22.34879720851988
 10
-11.94385749063793
 20
49.75879885601887
 30
0.0
 10
-11.81491416949941
 20
48.46008583725577
 30
0.0
 10
-11.48031249389835
 20
45.08998843037881
 30
0.0
 10
-7.046159386398109
 20
39.93210160260841
 30
0.0
 10
-2.10822803203473
 20
38.92671405789332
 30
0.0
 10
0.7686862408188944
 20
38.34095990912729
 30
0.0
 11
-11.94385749063793
 21
49.75879885601887
 31
0.0
 11
-11.25229826034818
 21
45.95086962217715
 31
0.0
 11
-7.37886996868152
 21
41.14461120565908
 31
0.0
 11
0.7686862408188944
 21
38.34095990912729
 31
0.0
  0
SPLINE
  5
7B5C
102
{ACAD_REACTORS
330
7D2B
102
}
330
2
100
AcDbEntity
  8
KIJUN
100
AcDbSpline
210
0.0
220
0.0
230
1.0
 70
     8
 71
     3
 72
    12
 73
     8
 74
     6
 42
0.0000000001
 43
0.0000000001
 44
0.0000000001
 40
0.0
 40
0.0
 40
0.0
 40
0.0
 40
4.069316286380615
 40
13.36989098781768
 40
21.23640852914315
 40
30.57521205188038
 40
36.29170367636964
 40
36.29170367636964
 40
36.29170367636964
 40
36.29170367636964
 10
-33.97557663315154
 20
44.46939212582011
 30
0.0
 10
-32.96453993476927
 20
44.9885494133641
 30
0.0
 10
-29.64274101555154
 20
46.69426011548489
 30
0.0
 10
-23.40812048274539
 20
46.95599474512582
 30
0.0
 10
-16.4292607067012
 20
44.36038786394052
 30
0.0
 10
-11.10765492008389
 20
40.69754575168909
 30
0.0
 10
-7.04973143544668
 20
39.57009553177454
 30
0.0
 10
-5.508938951081454
 20
39.14200297854697
 30
0.0
 11
-33.97557663315154
 21
44.46939212582011
 31
0.0
 11
-30.88657308838256
 21
45.8841160330588
 31
0.0
 11
-23.13971650504923
 21
46.41814474600531
 31
0.0
 11
-16.92887486976736
 21
44.2820298942195
 31
0.0
 11
-10.05020023861657
 21
40.61058193914976
 31
0.0
 11
-5.508938951081454
 21
39.14200297854697
 31
0.0
  0
ARC
  5
7B5D
102
{ACAD_REACTORS
330
7D2B
102
}
330
2
100
AcDbEntity
  8
KIJUN
100
AcDbCircle
 10
6.882821179335036
 20
83.71124796915536
 30
0.0
 40
50.07273782672413
100
AcDbArc
 50
233.1648434351275
 51
305.1939357510103
  0
SPLINE
  5
7B5E
102
{ACAD_REACTORS
330
7D2B
102
}
330
2
100
AcDbEntity
  8
KIJUN
100
AcDbSpline
210
0.0
220
0.0
230
1.0
 70
     8
 71
     3
 72
    11
 73
     7
 74
     5
 42
0.0000000001
 43
0.0000000001
 44
0.0000000001
 40
0.0
 40
0.0
 40
0.0
 40
0.0
 40
1.641352622781915
 40
8.339547313538528
 40
16.01286651626698
 40
19.02986629399794
 40
19.02986629399794
 40
19.02986629399794
 40
19.02986629399794
 10
-52.34382905788227
 20
54.48843890294597
 30
0.0
 10
-52.21498352666728
 20
54.03482424367883
 30
0.0
 10
-51.56033236347953
 20
51.73005386066302
 30
0.0
 10
-46.19249375128115
 20
50.9414225759624
 30
0.0
 10
-41.35813549250163
 20
50.61325084487603
 30
0.0
 10
-38.85625500804835
 20
52.33319787059738
 30
0.0
 10
-38.15017945695374
 20
52.81859777342493
 30
0.0
 11
-52.34382905788227
 21
54.48843890294597
 31
0.0
 11
-51.87436044025773
 21
53.20096349027522
 31
0.0
 11
-46.69794595877312
 21
51.0842798012425
 31
0.0
 11
-40.30585963855775
 21
51.51545598525373
 31
0.0
 11
-38.15017945695374
 21
52.81859777342493
 31
0.0
  0
SPLINE
  5
7B5F
102
{ACAD_REACTORS
330
7D2B
102
}
330
2
100
AcDbEntity
  8
KIJUN
100
AcDbSpline
210
0.0
220
0.0
230
1.0
 70
     8
 71
     3
 72
    11
 73
     7
 74
     5
 42
0.0000000001
 43
0.0000000001
 44
0.0000000001
 40
0.0
 40
0.0
 40
0.0
 40
0.0
 40
2.995305730427909
 40
4.760093074706891
 40
11.54044848352656
 40
15.70167298536888
 40
15.70167298536888
 40
15.70167298536888
 40
15.70167298536888
 10
-60.69303963673694
 20
48.64404641930423
 30
0.0
 10
-60.12283406311141
 20
49.25939892463941
 30
0.0
 10
-59.21667227314734
 20
50.23730751319973
 30
0.0
 10
-56.23758154977065
 20
51.68616259784172
 30
0.0
 10
-52.57541367752662
 20
50.1510007391106
 30
0.0
 10
-49.76627593107228
 20
49.12326866505214
 30
0.0
 10
-48.6979244758857
 20
48.73240885112946
 30
0.0
 11
-60.69303963673694
 21
48.64404641930423
 31
0.0
 11
-58.85467634087349
 21
50.33952078697865
 31
0.0
 11
-57.52135704387505
 21
50.96668589392098
 31
0.0
 11
-51.95279093674159
 21
49.94754238755368
 31
0.0
 11
-48.6979244758857
 21
48.73240885112946
 31
0.0
  0
ARC
  5
7B60
102
{ACAD_REACTORS
330
7D2B
102
}
330
2
100
AcDbEntity
  8
KIJUN
100
AcDbCircle
 10
-35.21732296903217
 20
47.41820038063261
 30
0.0
 40
3.199594362778434
100
AcDbArc
 50
203.5611690979997
 51
292.8360119293001
  0
SPLINE
  5
7B61
102
{ACAD_REACTORS
330
7D2B
102
}
330
2
100
AcDbEntity
  8
KIJUN
100
AcDbSpline
210
0.0
220
0.0
230
1.0
 70
     8
 71
     3
 72
     9
 73
     5
 74
     3
 42
0.0000000001
 43
0.0000000001
 44
0.0000000001
 40
0.0
 40
0.0
 40
0.0
 40
0.0
 40
1.792625065668789
 40
4.479831502335326
 40
4.479831502335326
 40
4.479831502335326
 40
4.479831502335326
 10
-33.97557663315154
 20
53.65351833818542
 30
0.0
 10
-33.75514369393073
 20
53.19516126984021
 30
0.0
 10
-33.20427422089606
 20
52.04971124048629
 30
0.0
 10
-32.08951949477506
 20
51.40866878191829
 30
0.0
 10
-31.42083897101535
 20
51.02414239516858
 30
0.0
 11
-33.97557663315154
 21
53.65351833818542
 31
0.0
 11
-33.22398643199759
 21
52.3592147310974
 31
0.0
 11
-31.42083897101535
 21
51.02414239516858
 31
0.0
  0
SPLINE
  5
7B62
102
{ACAD_REACTORS
330
7D2B
102
}
330
2
100
AcDbEntity
  8
KIJUN
100
AcDbSpline
210
0.0
220
0.0
230
1.0
 70
     8
 71
     3
 72
     9
 73
     5
 74
     3
 42
0.0000000001
 43
0.0000000001
 44
0.0000000001
 40
0.0
 40
0.0
 40
0.0
 40
0.0
 40
2.011661181191602
 40
7.114607285691718
 40
7.114607285691718
 40
7.114607285691718
 40
7.114607285691718
 10
-43.99462341027723
 20
46.97415382010166
 30
0.0
 10
-43.75000181437775
 20
47.48153238064825
 30
0.0
 10
-42.88485284958383
 20
49.27596935503487
 30
0.0
 10
-41.35714084978033
 20
50.59177423713783
 30
0.0
 10
-40.26139070010255
 20
51.53553418449473
 30
0.0
 11
-43.99462341027723
 21
46.97415382010166
 31
0.0
 11
-43.20778800846499
 21
48.45802380546323
 31
0.0
 11
-40.26139070010255
 21
51.53553418449473
 31
0.0
  0
SPLINE
  5
7B63
102
{ACAD_REACTORS
330
7D2B
102
}
330
2
100
AcDbEntity
  8
KIJUN
100
AcDbSpline
210
0.0
220
0.0
230
1.0
 70
     8
 71
     3
 72
    13
 73
     9
 74
     7
 42
0.0000000001
 43
0.0000000001
 44
0.0000000001
 40
0.0
 40
0.0
 40
0.0
 40
0.0
 40
2.048797578205878
 40
7.782765402741211
 40
17.9863896575278
 40
27.68677343990093
 40
33.01399706229105
 40
34.66086935059532
 40
34.66086935059532
 40
34.66086935059532
 40
34.66086935059532
 10
-38.1501794569539
 20
46.13923325534116
 30
0.0
 10
-38.09717958440177
 20
46.73269978746626
 30
0.0
 10
-37.8958490191785
 20
48.98710053600317
 30
0.0
 10
-32.12312569344636
 20
50.87351228300935
 30
0.0
 10
-25.55759706594844
 20
51.30508252395853
 30
0.0
 10
-18.04118206363684
 20
50.33380550404288
 30
0.0
 10
-14.6480718634689
 20
47.00121853668366
 30
0.0
 10
-12.92748217678281
 20
46.09751725597814
 30
0.0
 10
-12.52117983869763
 20
45.8841160330588
 30
0.0
 11
-38.1501794569539
 21
46.13923325534116
 31
0.0
 11
-37.83203041938057
 21
47.81997011748979
 31
0.0
 11
-33.69146961478316
 21
50.22309932574888
 31
0.0
 11
-25.20999733573349
 21
51.02414239516858
 31
0.0
 11
-17.32957363916433
 21
49.15504189985594
 31
0.0
 11
-13.7232787171997
 21
46.55165192424195
 31
0.0
 11
-12.52117983869763
 21
45.8841160330588
 31
0.0
  0
ARC
  5
7B64
102
{ACAD_REACTORS
330
7D2B
102
}
330
2
100
AcDbEntity
  8
KIJUN
100
AcDbCircle
 10
26.56611187718871
 20
54.74313435117981
 30
0.0
 40
9.238658826137625
100
AcDbArc
 50
302.7625162310619
 51
353.2267173527717
  0
SPLINE
  5
7B65
102
{ACAD_REACTORS
330
7D2B
102
}
330
2
100
AcDbEntity
  8
KIJUN
100
AcDbSpline
210
0.0
220
0.0
230
1.0
 70
     8
 71
     3
 72
    10
 73
     6
 74
     4
 42
0.0000000001
 43
0.0000000001
 44
0.0000000001
 40
0.0
 40
0.0
 40
0.0
 40
0.0
 40
6.245136752546061
 40
24.20286737094117
 40
25.605779436203
 40
25.605779436203
 40
25.605779436203
 40
25.605779436203
 10
31.56568770054568
 20
46.97415382010166
 30
0.0
 10
30.01711993374741
 20
46.19314230779724
 30
0.0
 10
24.01568525588339
 20
43.16635221552653
 30
0.0
 10
16.32369689386214
 20
42.3345733727626
 30
0.0
 10
11.13482911263765
 20
43.78147036176025
 30
0.0
 10
10.75883306052967
 20
43.88631549919824
 30
0.0
 11
31.56568770054568
 21
46.97415382010166
 31
0.0
 11
26.835485248991
 21
44.78029955493172
 31
0.0
 11
11.89011384954362
 21
43.58267963958863
 31
0.0
 11
10.75883306052967
 21
43.88631549919824
 31
0.0
  0
SPLINE
  5
7B66
102
{ACAD_REACTORS
330
7D2B
102
}
330
2
100
AcDbEntity
  8
KIJUN
100
AcDbSpline
210
0.0
220
0.0
230
1.0
 70
     8
 71
     3
 72
    10
 73
     6
 74
     4
 42
0.0000000001
 43
0.0000000001
 44
0.0000000001
 40
0.0
 40
0.0
 40
0.0
 40
0.0
 40
3.518009713715412
 40
14.58746064264238
 40
20.35193282399431
 40
20.35193282399431
 40
20.35193282399431
 40
20.35193282399431
 10
-2.248595172253647
 20
45.30431269058079
 30
0.0
 10
-1.510911684494931
 20
44.64839241216355
 30
0.0
 10
1.547899893669441
 20
41.92861275697398
 30
0.0
 10
7.50080533765324
 20
41.01411388348438
 30
0.0
 10
12.1327478912685
 20
40.62673209202543
 30
0.0
 10
13.71887275479671
 20
40.49408021130824
 30
0.0
 11
-2.248595172253647
 21
45.30431269058079
 31
0.0
 11
0.0347139798407454
 21
43.45661456015124
 31
0.0
 11
8.92626409631072
 21
40.93530909646469
 31
0.0
 11
13.71887275479671
 21
40.49408021130824
 31
0.0
  0
SPLINE
  5
7B67
102
{ACAD_REACTORS
330
7D2B
102
}
330
2
100
AcDbEntity
  8
KIJUN
100
AcDbSpline
210
0.0
220
0.0
230
1.0
 70
     8
 71
     3
 72
     9
 73
     5
 74
     3
 42
0.0000000001
 43
0.0000000001
 44
0.0000000001
 40
0.0
 40
0.0
 40
0.0
 40
0.0
 40
6.174350750436246
 40
16.50419750670696
 40
16.50419750670696
 40
16.50419750670696
 40
16.50419750670696
 10
45.75933730147405
 20
50.31383607914356
 30
0.0
 10
44.41006536389245
 20
49.19152060008906
 30
0.0
 10
40.80342695797901
 20
46.19154261376542
 30
0.0
 10
39.74342169703474
 20
41.53773166048537
 30
0.0
 10
39.07997278339048
 20
38.62494817249689
 30
0.0
 11
45.75933730147405
 21
50.31383607914356
 31
0.0
 11
42.06793992212579
 21
46.71542459710443
 31
0.0
 11
39.07997278339048
 21
38.62494817249689
 31
0.0
  0
SPLINE
  5
7B68
102
{ACAD_REACTORS
330
7D2B
102
}
330
2
100
AcDbEntity
  8
KIJUN
100
AcDbSpline
210
0.0
220
0.0
230
1.0
 70
     8
 71
     3
 72
     9
 73
     5
 74
     3
 42
0.0000000001
 43
0.0000000001
 44
0.0000000001
 40
0.0
 40
0.0
 40
0.0
 40
0.0
 40
4.457611210427303
 40
10.18134025766324
 40
10.18134025766324
 40
10.18134025766324
 40
10.18134025766324
 10
39.91489334815072
 20
51.98367720866443
 30
0.0
 10
39.5847840504926
 20
50.52105307382674
 30
0.0
 10
38.8308028432905
 20
47.18036828036191
 30
0.0
 10
36.85358413831121
 20
44.37092126823619
 30
0.0
 10
35.74203459296426
 20
42.79151098795697
 30
0.0
 11
39.91489334815072
 21
51.98367720866443
 31
0.0
 11
38.69008575170173
 21
47.69763660514607
 31
0.0
 11
35.74203459296426
 21
42.79151098795697
 31
0.0
  0
ARC
  5
7B69
102
{ACAD_REACTORS
330
7D2B
102
}
330
2
100
AcDbEntity
  8
KIJUN
100
AcDbCircle
 10
41.14856085898566
 20
45.21729152309879
 30
0.0
 40
1.669841129520955
100
AcDbArc
 50
58.69889889397107
 51
246.2095417250504
  0
SPLINE
  5
7B6A
102
{ACAD_REACTORS
330
7D2B
102
}
330
2
100
AcDbEntity
  8
KIJUN
100
AcDbSpline
210
0.0
220
0.0
230
1.0
 70
     8
 71
     3
 72
     9
 73
     5
 74
     3
 42
0.0000000001
 43
0.0000000001
 44
0.0000000001
 40
0.0
 40
0.0
 40
0.0
 40
0.0
 40
1.856847722755752
 40
4.395114999657471
 40
4.395114999657471
 40
4.395114999657471
 40
4.395114999657471
 10
43.21487442114343
 20
51.93507175589511
 30
0.0
 10
43.1837471208392
 20
51.41759921917255
 30
0.0
 10
43.11006953123969
 20
50.19275386422626
 30
0.0
 10
43.32472238227375
 20
48.9828337881114
 30
0.0
 10
43.44868871938118
 20
48.28408061848825
 30
0.0
 11
43.21487442114343
 21
51.93507175589511
 31
0.0
 11
43.17295640765403
 21
50.38531814772415
 31
0.0
 11
43.44868871938118
 21
48.28408061848825
 31
0.0
  0
SPLINE
  5
7B6B
102
{ACAD_REACTORS
330
7D2B
102
}
330
2
100
AcDbEntity
  8
KIJUN
100
AcDbSpline
210
0.0
220
0.0
230
1.0
 70
     8
 71
     3
 72
     9
 73
     5
 74
     3
 42
0.0000000001
 43
0.0000000001
 44
0.0000000001
 40
0.0
 40
0.0
 40
0.0
 40
0.0
 40
1.822951375263085
 40
3.639434116749201
 40
3.639434116749201
 40
3.639434116749201
 40
3.639434116749201
 10
37.37494385024907
 20
40.14365627103726
 30
0.0
 10
37.64736223444761
 20
40.61318326784976
 30
0.0
 10
38.19123234252375
 20
41.55057117304699
 30
0.0
 10
39.27325905834995
 20
41.60603807923936
 30
0.0
 10
39.81331083345417
 20
41.63372223963082
 30
0.0
 11
37.37494385024907
 21
40.14365627103726
 31
0.0
 11
38.32721683244744
 21
41.33097256370487
 31
0.0
 11
39.81331083345417
 21
41.63372223963082
 31
0.0
  0
SPLINE
  5
7B6C
102
{ACAD_REACTORS
330
7D2B
102
}
330
2
100
AcDbEntity
  8
KIJUN
100
AcDbSpline
210
0.0
220
0.0
230
1.0
 70
     8
 71
     3
 72
     9
 73
     5
 74
     3
 42
0.0000000001
 43
0.0000000001
 44
0.0000000001
 40
0.0
 40
0.0
 40
0.0
 40
0.0
 40
3.551507002169747
 40
6.401214628376658
 40
6.401214628376658
 40
6.401214628376658
 40
6.401214628376658
 10
39.91489334815188
 20
51.98367720866452
 30
0.0
 10
39.75683198810941
 20
50.98037596545271
 30
0.0
 10
39.47194315374503
 20
49.17203190452525
 30
0.0
 10
40.23695835529999
 20
47.52132603482476
 30
0.0
 10
40.57752960319586
 20
46.78646095396072
 30
0.0
 11
39.91489334815188
 21
51.98367720866452
 31
0.0
 11
39.76389351047139
 21
49.02229808477343
 31
0.0
 11
40.57752960319586
 21
46.78646095396072
 31
0.0
  0
SPLINE
  5
7B6D
102
{ACAD_REACTORS
330
7D2B
102
}
330
2
100
AcDbEntity
  8
KIJUN
100
AcDbSpline
210
0.0
220
0.0
230
1.0
 70
     8
 71
     3
 72
    15
 73
    11
 74
     9
 42
0.0000000001
 43
0.0000000001
 44
0.0000000001
 40
0.0
 40
0.0
 40
0.0
 40
0.0
 40
1.607364560468028
 40
2.691462039025028
 40
4.63876112945269
 40
5.565246966748317
 40
7.110800799767574
 40
7.741649368748335
 40
10.25298778718298
 40
11.44239813457458
 40
11.44239813457458
 40
11.44239813457458
 40
11.44239813457458
 10
40.57752960319586
 20
46.78646095396072
 30
0.0
 10
40.1907341994487
 20
46.99823639228799
 30
0.0
 10
39.54306212078119
 20
47.35284515191477
 30
0.0
 10
37.98435213229456
 20
47.22977019847903
 30
0.0
 10
38.27481968330412
 20
45.75879742033674
 30
0.0
 10
38.84995113110104
 20
44.49694550846584
 30
0.0
 10
37.69609304022357
 20
44.19016209186338
 30
0.0
 10
36.56516276674158
 20
43.54425544356291
 30
0.0
 10
36.9619600945328
 20
41.63327663413975
 30
0.0
 10
37.99335344791213
 20
41.40340212068901
 30
0.0
 10
38.32484039943624
 20
41.32952109222668
 30
0.0
 11
40.57752960319586
 21
46.78646095396072
 31
0.0
 11
39.32558593775342
 21
47.26984435076587
 31
0.0
 11
38.43313080439305
 21
47.11886829382663
 31
0.0
 11
38.424618800864
 21
45.49305045875445
 31
0.0
 11
38.59507245978523
 21
44.73852216751876
 31
0.0
 11
37.49930138606318
 21
44.05701213604342
 31
0.0
 11
37.06099381334537
 21
43.7649363291878
 31
0.0
 11
37.40190027441739
 21
41.6960671838836
 31
0.0
 11
38.32484039943624
 21
41.32952109222668
 31
0.0
  0
ARC
  5
7B6E
102
{ACAD_REACTORS
330
7D2B
102
}
330
2
100
AcDbEntity
  8
KIJUN
100
AcDbCircle
 10
63.40087774522316
 20
-10.45482077053304
 30
0.0
 40
63.27759164619169
100
AcDbArc
 50
89.80889489593563
 51
106.1883603165643
  0
SPLINE
  5
7B6F
102
{ACAD_REACTORS
330
7D2B
102
}
330
2
100
AcDbEntity
  8
KIJUN
100
AcDbSpline
210
0.0
220
0.0
230
1.0
 70
     8
 71
     3
 72
    14
 73
    10
 74
     8
 42
0.0000000001
 43
0.0000000001
 44
0.0000000001
 40
0.0
 40
0.0
 40
0.0
 40
0.0
 40
2.363504115620492
 40
8.451072480422361
 40
20.78796777541381
 40
26.88225191694856
 40
30.8867816280888
 40
36.09479419524996
 40
40.68229194308478
 40
40.68229194308478
 40
40.68229194308478
 40
40.68229194308478
 10
67.61680223899299
 20
44.65891761710719
 30
0.0
 10
67.50410791520616
 20
45.3397319690807
 30
0.0
 10
67.10115202773375
 20
47.77408839613914
 30
0.0
 10
60.3248882562627
 20
49.37787165426226
 30
0.0
 10
53.87601353819462
 20
49.01193412055571
 30
0.0
 10
47.88646683519564
 20
46.69365509329432
 30
0.0
 10
44.65474971692801
 20
43.80181864272421
 30
0.0
 10
43.56359005960441
 20
39.61692270828684
 30
0.0
 10
45.05859105097533
 20
37.23236626627522
 30
0.0
 10
45.75873973750423
 20
36.11561512666722
 30
0.0
 11
67.61680223899299
 21
44.65891761710719
 31
0.0
 11
67.09477018410328
 21
46.56195372866429
 31
0.0
 11
62.48860509469935
 21
48.71054256545031
 31
0.0
 11
52.20150243339833
 21
48.18874260916669
 31
0.0
 11
47.53392231210731
 21
46.16293013499521
 31
0.0
 11
45.13871636280527
 21
43.83017592394316
 31
0.0
 11
44.15606814168357
 21
39.5943861548968
 31
0.0
 11
45.75873973750423
 21
36.11561512666722
 31
0.0
  0
SPLINE
  5
7B70
102
{ACAD_REACTORS
330
7D2B
102
}
330
2
100
AcDbEntity
  8
KIJUN
100
AcDbSpline
210
0.0
220
0.0
230
1.0
 70
     8
 71
     3
 72
    10
 73
     6
 74
     4
 42
0.0000000001
 43
0.0000000001
 44
0.0000000001
 40
0.0
 40
0.0
 40
0.0
 40
0.0
 40
7.241053820894277
 40
15.27631637708063
 40
20.56122504878256
 40
20.56122504878256
 40
20.56122504878256
 40
20.56122504878256
 10
47.42917843099503
 20
41.96463043153883
 30
0.0
 10
48.99989317473631
 20
43.25566849243791
 30
0.0
 10
52.31360081412705
 20
45.97934744317814
 30
0.0
 10
58.23794097524661
 20
47.1803557878352
 30
0.0
 10
61.87476743093718
 20
46.40798669519028
 30
0.0
 10
63.31771402256302
 20
46.10154167690649
 30
0.0
 11
47.42917843099503
 21
41.96463043153883
 31
0.0
 11
52.38574924259965
 21
45.42627085218271
 31
0.0
 11
58.95721163101709
 21
46.77681250163042
 31
0.0
 11
63.31771402256302
 21
46.10154167690649
 31
0.0
  0
ARC
  5
7B71
102
{ACAD_REACTORS
330
7D2B
102
}
330
2
100
AcDbEntity
  8
KIJUN
100
AcDbCircle
 10
-44.40184844135504
 20
43.98679040652476
 30
0.0
 40
16.94381728339453
100
AcDbArc
 50
147.2114027064394
 51
164.0460530357974
  0
ARC
  5
7B72
102
{ACAD_REACTORS
330
7D2B
102
}
330
2
100
AcDbEntity
  8
KIJUN
100
AcDbCircle
 10
-55.88678104286589
 20
37.12925402725148
 30
0.0
 40
17.71704852159185
100
AcDbArc
 50
78.46455172110738
 51
88.39623758397451
  0
ARC
  5
7B73
102
{ACAD_REACTORS
330
7D2B
102
}
330
2
100
AcDbEntity
  8
KIJUN
100
AcDbCircle
 10
-55.45465664611355
 20
50.9650828534809
 30
0.0
 40
3.874803650519406
100
AcDbArc
 50
89.05763307338011
 51
145.4503763727869
  0
ARC
  5
7B74
102
{ACAD_REACTORS
330
7D2B
102
}
330
2
100
AcDbEntity
  8
KIJUN
100
AcDbCircle
 10
-60.96298327247395
 20
22.61480088692386
 30
0.0
 40
26.0306452580688
100
AcDbArc
 50
72.52076256785358
 51
89.40581925219992
  0
ARC
  5
7B75
102
{ACAD_REACTORS
330
7D2B
102
}
330
2
100
AcDbEntity
  8
KIJUN
100
AcDbCircle
 10
-47.7871056836402
 20
62.46167228033434
 30
0.0
 40
15.94509798809088
100
AcDbArc
 50
250.3675740390141
 51
283.7594609717245
  0
ARC
  5
7B76
102
{ACAD_REACTORS
330
7D2B
102
}
330
2
100
AcDbEntity
  8
KIJUN
100
AcDbCircle
 10
-33.85359197823092
 20
50.99091597503104
 30
0.0
 40
10.9075614467682
100
AcDbArc
 50
201.6080281473723
 51
218.4823281630335
  0
ARC
  5
7B77
102
{ACAD_REACTORS
330
7D2B
102
}
330
2
100
AcDbEntity
  8
KIJUN
100
AcDbCircle
 10
-41.30075169734829
 20
44.94646789310616
 30
0.0
 40
1.320225423367995
100
AcDbArc
 50
214.250314578913
 51
307.5104559594851
  0
ARC
  5
7B78
102
{ACAD_REACTORS
330
7D2B
102
}
330
2
100
AcDbEntity
  8
KIJUN
100
AcDbCircle
 10
-48.41056944210641
 20
54.53893609875013
 30
0.0
 40
13.26011351780187
100
AcDbArc
 50
306.6414629239785
 51
320.6944128551147
  0
ARC
  5
7B79
102
{ACAD_REACTORS
330
7D2B
102
}
330
2
100
AcDbEntity
  8
KIJUN
100
AcDbCircle
 10
-23.69782357715031
 20
21.1092674933893
 30
0.0
 40
22.53257289333371
100
AcDbArc
 50
88.57258822787182
 51
105.7153889280419
  0
ARC
  5
7B7A
102
{ACAD_REACTORS
330
7D2B
102
}
330
2
100
AcDbEntity
  8
KIJUN
100
AcDbCircle
 10
-30.15177093295104
 20
42.23119226647432
 30
0.0
 40
4.430691666462679
100
AcDbArc
 50
149.6581509147461
 51
165.723936181652
  0
ARC
  5
7B7B
102
{ACAD_REACTORS
330
7D2B
102
}
330
2
100
AcDbEntity
  8
KIJUN
100
AcDbCircle
 10
-33.55104499779693
 20
48.97103401001459
 30
0.0
 40
7.221512065142811
100
AcDbArc
 50
283.2283528430782
 51
301.2847512975052
  0
ARC
  5
7B7C
102
{ACAD_REACTORS
330
7D2B
102
}
330
2
100
AcDbEntity
  8
KIJUN
100
AcDbCircle
 10
-32.53387783386088
 20
44.73104292778171
 30
0.0
 40
2.86133420045912
100
AcDbArc
 50
237.2788850319599
 51
282.8292849516789
  0
ARC
  5
7B7D
102
{ACAD_REACTORS
330
7D2B
102
}
330
2
100
AcDbEntity
  8
KIJUN
100
AcDbCircle
 10
-33.6383234914604
 20
43.05185646373902
 30
0.0
 40
0.8518778576271312
100
AcDbArc
 50
161.3855108989708
 51
238.7249596187213
  0
ARC
  5
7B7E
102
{ACAD_REACTORS
330
7D2B
102
}
330
2
100
AcDbEntity
  8
KIJUN
100
AcDbCircle
 10
74.98215111315968
 20
10.81029213692068
 30
0.0
 40
38.05536904396119
100
AcDbArc
 50
123.7008341522921
 51
131.1630727625972
  0
ARC
  5
7B7F
102
{ACAD_REACTORS
330
7D2B
102
}
330
2
100
AcDbEntity
  8
KIJUN
100
AcDbCircle
 10
61.11343370903578
 20
31.5235253136612
 30
0.0
 40
13.12800573869439
100
AcDbArc
 50
82.20492228426223
 51
123.5037739927628
  0
ARC
  5
7B80
102
{ACAD_REACTORS
330
7D2B
102
}
330
2
100
AcDbEntity
  8
KIJUN
100
AcDbCircle
 10
50.92208944658993
 20
42.14285559300941
 30
0.0
 40
3.497455013441272
100
AcDbArc
 50
182.9209737362825
 51
226.7698480952545
  0
ARC
  5
7B81
102
{ACAD_REACTORS
330
7D2B
102
}
330
2
100
AcDbEntity
  8
KIJUN
100
AcDbCircle
 10
49.31889974465309
 20
40.45328535219724
 30
0.0
 40
1.168396867778996
100
AcDbArc
 50
227.3023532002426
 51
301.7623233018052
  0
ARC
  5
7B82
102
{ACAD_REACTORS
330
7D2B
102
}
330
2
100
AcDbEntity
  8
KIJUN
100
AcDbCircle
 10
66.1670676097172
 20
33.45017709959634
 30
0.0
 40
20.58165217896512
100
AcDbArc
 50
155.5630627623172
 51
172.5589795585314
  0
ARC
  5
7B83
102
{ACAD_REACTORS
330
7D2B
102
}
330
2
100
AcDbEntity
  8
KIJUN
100
AcDbCircle
 10
45.10896386203966
 20
40.82022142294337
 30
0.0
 40
6.416226154879772
100
AcDbArc
 50
200.0075517857291
 51
209.4545222153862
  0
ARC
  5
7B84
102
{ACAD_REACTORS
330
7D2B
102
}
330
2
100
AcDbEntity
  8
KIJUN
100
AcDbCircle
 10
42.25261856928791
 20
39.56961701698475
 30
0.0
 40
3.329104345582149
100
AcDbArc
 50
214.8943273570424
 51
263.6279531008204
  0
ARC
  5
7B85
102
{ACAD_REACTORS
330
7D2B
102
}
330
2
100
AcDbEntity
  8
KIJUN
100
AcDbCircle
 10
51.92869795936334
 20
252.2032042662989
 30
0.0
 40
216.1756567346049
100
AcDbArc
 50
267.336539292386
 51
268.3644755160443
  0
ARC
  5
7B86
102
{ACAD_REACTORS
330
7D2B
102
}
330
2
100
AcDbEntity
  8
KIJUN
100
AcDbCircle
 10
40.07310424097543
 20
43.7352319492006
 30
0.0
 40
4.432693712474844
100
AcDbArc
 50
192.2923602319854
 51
214.9614911175698
  0
ARC
  5
7B87
102
{ACAD_REACTORS
330
7D2B
102
}
330
2
100
AcDbEntity
  8
KIJUN
100
AcDbCircle
 10
36.74325167761604
 20
43.58247028535768
 30
0.0
 40
5.480628707153557
100
AcDbArc
 50
285.5126780555157
 51
295.2367802738319
  0
ARC
  5
7B88
102
{ACAD_REACTORS
330
7D2B
102
}
330
2
100
AcDbEntity
  8
KIJUN
100
AcDbCircle
 10
35.6834979269164
 20
39.3056560809645
 30
0.0
 40
1.864525719600054
100
AcDbArc
 50
8.9487622951172
 51
50.16365326418938
  0
ARC
  5
7B89
102
{ACAD_REACTORS
330
7D2B
102
}
330
2
100
AcDbEntity
  8
KIJUN
100
AcDbCircle
 10
40.23520504421226
 20
44.3842590913839
 30
0.0
 40
4.956929713493639
100
AcDbArc
 50
220.042590615171
 51
227.367470749828
  0
ARC
  5
7B8A
102
{ACAD_REACTORS
330
7D2B
102
}
330
2
100
AcDbEntity
  8
KIJUN
100
AcDbCircle
 10
45.51455469953905
 20
40.55446073395621
 30
0.0
 40
8.046551332740216
100
AcDbArc
 50
186.8432568309316
 51
194.5502441991893
  0
ARC
  5
7B8B
102
{ACAD_REACTORS
330
7D2B
102
}
330
2
100
AcDbEntity
  8
KIJUN
100
AcDbCircle
 10
38.10150192986383
 20
38.69671984088134
 30
0.0
 40
0.4095988449731454
100
AcDbArc
 50
203.5699105685847
 51
285.2232310138088
  0
ARC
  5
7B8C
102
{ACAD_REACTORS
330
7D2B
102
}
330
2
100
AcDbEntity
  8
KIJUN
100
AcDbCircle
 10
-41.83012319824927
 20
40.85688637196208
 30
0.0
 40
17.21502934379884
100
AcDbArc
 50
124.6017060345349
 51
127.6421835131535
  0
ARC
  5
7B8D
102
{ACAD_REACTORS
330
7D2B
102
}
330
2
100
AcDbEntity
  8
KIJUN
100
AcDbCircle
 10
-51.19113257310889
 20
54.42557756455051
 30
0.0
 40
0.73055552156125
100
AcDbArc
 50
46.13459538089673
 51
124.6017060345349
  0
ARC
  5
7B8E
102
{ACAD_REACTORS
330
7D2B
102
}
330
2
100
AcDbEntity
  8
KIJUN
100
AcDbCircle
 10
-48.30481202793105
 20
56.46963771303783
 30
0.0
 40
2.775557751489278
100
AcDbArc
 50
234.7125724066791
 51
261.8147462322422
  0
ARC
  5
7B8F
102
{ACAD_REACTORS
330
7D2B
102
}
330
2
100
AcDbEntity
  8
KIJUN
100
AcDbCircle
 10
-376.7030649272599
 20
-284.2404076766709
 30
0.0
 40
470.4673623233495
100
AcDbArc
 50
46.00325361432818
 51
46.13459538089918
  0
ARC
  5
7B90
102
{ACAD_REACTORS
330
7D2B
102
}
330
2
100
AcDbEntity
  8
KIJUN
100
AcDbCircle
 10
-47.64089093060211
 20
63.72107239773462
 30
0.0
 40
10.05465177468469
100
AcDbArc
 50
263.9536346674737
 51
306.4266130904413
  0
ARC
  5
7B91
102
{ACAD_REACTORS
330
7D2B
102
}
330
2
100
AcDbEntity
  8
KIJUN
100
AcDbCircle
 10
-43.37235679289911
 20
51.67787125075569
 30
0.0
 40
5.345315063453317
100
AcDbArc
 50
12.3220738739696
 51
46.30767883437573
  0
ARC
  5
7B92
102
{ACAD_REACTORS
330
7D2B
102
}
330
2
100
AcDbEntity
  8
KIJUN
100
AcDbCircle
 10
-40.74303803984557
 20
54.05349782567634
 30
0.0
 40
1.829880410294657
100
AcDbArc
 50
54.47959463352594
 51
120.4542125363254
  0
ARC
  5
7B93
102
{ACAD_REACTORS
330
7D2B
102
}
330
2
100
AcDbEntity
  8
KIJUN
100
AcDbCircle
 10
-17.72628499797579
 20
-38.44690717957485
 30
0.0
 40
93.52287345455922
100
AcDbArc
 50
100.0057326671473
 51
102.6141322808939
  0
ARC
  5
7B94
102
{ACAD_REACTORS
330
7D2B
102
}
330
2
100
AcDbEntity
  8
KIJUN
100
AcDbCircle
 10
-29.80268830951395
 20
52.27646048420658
 30
0.0
 40
4.394233186206212
100
AcDbArc
 50
138.220398164108
 51
161.7370517731812
  0
ARC
  5
7B95
102
{ACAD_REACTORS
330
7D2B
102
}
330
2
100
AcDbEntity
  8
KIJUN
100
AcDbCircle
 10
-31.9747216083683
 20
15.69283624078539
 30
0.0
 40
40.05160343439899
100
AcDbArc
 50
66.84537248982088
 51
89.80220564980498
  0
ARC
  5
7B96
102
{ACAD_REACTORS
330
7D2B
102
}
330
2
100
AcDbEntity
  8
KIJUN
100
AcDbCircle
 10
-26.26815015281831
 20
31.90448710781178
 30
0.0
 40
22.92969626931518
100
AcDbArc
 50
46.88942712251264
 51
64.0262430416919
  0
ARC
  5
7B97
102
{ACAD_REACTORS
330
7D2B
102
}
330
2
100
AcDbEntity
  8
KIJUN
100
AcDbCircle
 10
-31.78055607258886
 20
53.91477673182984
 30
0.0
 40
1.830278165663667
100
AcDbArc
 50
91.75022508688863
 51
135.211477089528
  0
ARC
  5
7B98
102
{ACAD_REACTORS
330
7D2B
102
}
330
2
100
AcDbEntity
  8
KIJUN
100
AcDbCircle
 10
-17.29084828431185
 20
55.07288567058049
 30
0.0
 40
9.280491380495407
100
AcDbArc
 50
316.1532612255444
 51
334.4672171459036
  0
ARC
  5
7B99
102
{ACAD_REACTORS
330
7D2B
102
}
330
2
100
AcDbEntity
  8
KIJUN
100
AcDbCircle
 10
0.1703490703354227
 20
50.18983373892274
 30
0.0
 40
5.451569238535556
100
AcDbArc
 50
191.4392668776895
 51
243.658831842205
  0
ARC
  5
7B9A
102
{ACAD_REACTORS
330
7D2B
102
}
330
2
100
AcDbEntity
  8
KIJUN
100
AcDbCircle
 10
-14.66173227517205
 20
49.11265908516657
 30
0.0
 40
9.488805754462195
100
AcDbArc
 50
359.9756645375589
 51
16.9327049913288
  0
ARC
  5
7B9B
102
{ACAD_REACTORS
330
7D2B
102
}
330
2
100
AcDbEntity
  8
KIJUN
100
AcDbCircle
 10
-5.46381362843465
 20
49.34774146536373
 30
0.0
 40
3.85979869931477
100
AcDbArc
 50
121.3985319551593
 51
153.4541467557884
  0
ARC
  5
7B9C
102
{ACAD_REACTORS
330
7D2B
102
}
330
2
100
AcDbEntity
  8
KIJUN
100
AcDbCircle
 10
-6.785704642986992
 20
51.62706999234524
 30
0.0
 40
1.226984736008105
100
AcDbArc
 50
11.71768140875705
 51
124.1632612182147
  0
ARC
  5
7B9D
102
{ACAD_REACTORS
330
7D2B
102
}
330
2
100
AcDbEntity
  8
KIJUN
100
AcDbCircle
 10
10.75763672481367
 20
61.74689461266831
 30
0.0
 40
17.8605791535366
100
AcDbArc
 50
231.8282360360451
 51
270.0038377807835
  0
ARC
  5
7B9E
102
{ACAD_REACTORS
330
7D2B
102
}
330
2
100
AcDbEntity
  8
KIJUN
100
AcDbCircle
 10
3.515065799047455
 20
44.25916180123883
 30
0.0
 40
5.857655518515223
100
AcDbArc
 50
145.9317725929765
 51
169.7219789528967
  0
ARC
  5
7B9F
102
{ACAD_REACTORS
330
7D2B
102
}
330
2
100
AcDbEntity
  8
KIJUN
100
AcDbCircle
 10
-0.7320756754671756
 20
47.13125923590626
 30
0.0
 40
0.73055552156125
100
AcDbArc
 50
51.82823603604514
 51
145.9317725929765
  0
ARC
  5
7BA0
102
{ACAD_REACTORS
330
7D2B
102
}
330
2
100
AcDbEntity
  8
KIJUN
100
AcDbCircle
 10
17.94086611397829
 20
73.8715536828418
 30
0.0
 40
27.59127815012826
100
AcDbArc
 50
253.259757722214
 51
293.5375079968662
  0
ARC
  5
7BA1
102
{ACAD_REACTORS
330
7D2B
102
}
330
2
100
AcDbEntity
  8
KIJUN
100
AcDbCircle
 10
20.8856758922767
 20
52.17468999599782
 30
0.0
 40
13.08625605504127
100
AcDbArc
 50
206.0452346525905
 51
219.2988130783273
  0
ARC
  5
7BA2
102
{ACAD_REACTORS
330
7D2B
102
}
330
2
100
AcDbEntity
  8
KIJUN
100
AcDbCircle
 10
9.784725474966847
 20
46.74954156434487
 30
0.0
 40
0.73055552156125
100
AcDbArc
 50
73.3815288928034
 51
206.0452346525905
  0
ARC
  5
7BA3
102
{ACAD_REACTORS
330
7D2B
102
}
330
2
100
AcDbEntity
  8
KIJUN
100
AcDbCircle
 10
29.93885507508734
 20
47.24832200149586
 30
0.0
 40
1.649773494436327
100
AcDbArc
 50
350.4338993705175
 51
126.4182917857442
  0
ARC
  5
7BA4
102
{ACAD_REACTORS
330
7D2B
102
}
330
2
100
AcDbEntity
  8
KIJUN
100
AcDbCircle
 10
36.75706351250706
 20
50.14227671406937
 30
0.0
 40
3.65549518565905
100
AcDbArc
 50
30.24740803296392
 51
106.149772994325
  0
ARC
  5
7BA5
102
{ACAD_REACTORS
330
7D2B
102
}
330
2
100
AcDbEntity
  8
KIJUN
100
AcDbCircle
 10
40.38407989451085
 20
48.83412987671715
 30
0.0
 40
3.184302814033584
100
AcDbArc
 50
58.5431742555832
 51
98.47301381984987
  0
ARC
  5
7BA6
102
{ACAD_REACTORS
330
7D2B
102
}
330
2
100
AcDbEntity
  8
KIJUN
100
AcDbCircle
 10
31.68434235372444
 20
42.74985063909906
 30
0.0
 40
15.9787157968462
100
AcDbArc
 50
28.25384677689191
 51
34.74322837885134
  0
ARC
  5
7BA7
102
{ACAD_REACTORS
330
7D2B
102
}
330
2
100
AcDbEntity
  8
KIJUN
100
AcDbCircle
 10
44.00512808530226
 20
51.12497389028241
 30
0.0
 40
1.090548944182857
100
AcDbArc
 50
42.10058462689008
 51
107.6601507630559
  0
ARC
  5
7BA8
102
{ACAD_REACTORS
330
7D2B
102
}
330
2
100
AcDbEntity
  8
KIJUN
100
AcDbCircle
 10
44.31204535050765
 20
50.29668575023723
 30
0.0
 40
1.973341339598844
100
AcDbArc
 50
108.8557489400321
 51
138.8328226965651
  0
ARC
  5
7BA9
102
{ACAD_REACTORS
330
7D2B
102
}
330
2
100
AcDbEntity
  8
KIJUN
100
AcDbCircle
 10
42.40939647895689
 20
52.03556238752813
 30
0.0
 40
0.6062336829082226
100
AcDbArc
 50
233.1502911030329
 51
313.477765935221
  0
SPLINE
  5
7BBE
102
{ACAD_REACTORS
330
7D2B
102
}
330
2
100
AcDbEntity
  8
KIJUN
100
AcDbSpline
210
0.0
220
0.0
230
1.0
 70
     8
 71
     3
 72
    10
 73
     6
 74
     4
 42
0.0000000001
 43
0.0000000001
 44
0.0000000001
 40
0.0
 40
0.0
 40
0.0
 40
0.0
 40
3.37258220207246
 40
11.49598202075678
 40
20.26566316251966
 40
20.26566316251966
 40
20.26566316251966
 40
20.26566316251966
 10
152.2117215463842
 20
48.64399494962265
 30
0.0
 10
151.7196648558173
 20
47.62651256883382
 30
0.0
 10
150.0424114846542
 20
44.15826229199928
 30
0.0
 10
144.2188999053156
 20
39.93494845101619
 30
0.0
 10
138.7009942565298
 20
38.75384414417802
 30
0.0
 10
135.836491728928
 20
38.1406991417723
 30
0.0
 11
152.2117215463842
 21
48.64399494962265
 31
0.0
 11
150.5955891998773
 21
45.68385526570398
 31
0.0
 11
144.2511804513592
 21
40.61058193914976
 31
0.0
 11
135.836491728928
 21
38.1406991417723
 31
0.0
  0
SPLINE
  5
7BBF
102
{ACAD_REACTORS
330
7D2B
102
}
330
2
100
AcDbEntity
  8
KIJUN
100
AcDbSpline
210
0.0
220
0.0
230
1.0
 70
     8
 71
     3
 72
    10
 73
     6
 74
     4
 42
0.0000000001
 43
0.0000000001
 44
0.0000000001
 40
0.0
 40
0.0
 40
0.0
 40
0.0
 40
3.870216947271215
 40
10.04302560274033
 40
18.65947108678497
 40
18.65947108678497
 40
18.65947108678497
 40
18.65947108678497
 10
153.5577782171641
 20
49.75879885601887
 30
0.0
 10
153.4288348960256
 20
48.46008583725578
 30
0.0
 10
153.0942332204245
 20
45.08998843037884
 30
0.0
 10
148.6600801129243
 20
39.93210160260845
 30
0.0
 10
143.7221487585609
 20
38.92671405789331
 30
0.0
 10
140.8452344857073
 20
38.34095990912729
 30
0.0
 11
153.5577782171641
 21
49.75879885601887
 31
0.0
 11
152.8662189868744
 21
45.95086962217715
 31
0.0
 11
148.9927906952077
 21
41.14461120565908
 31
0.0
 11
140.8452344857073
 21
38.34095990912729
 31
0.0
  0
SPLINE
  5
7BC0
102
{ACAD_REACTORS
330
7D2B
102
}
330
2
100
AcDbEntity
  8
KIJUN
100
AcDbSpline
210
0.0
220
0.0
230
1.0
 70
     8
 71
     3
 72
    12
 73
     8
 74
     6
 42
0.0000000001
 43
0.0000000001
 44
0.0000000001
 40
0.0
 40
0.0
 40
0.0
 40
0.0
 40
3.397555979422266
 40
11.16279735293966
 40
17.73071486753823
 40
25.52787427132261
 40
30.30069086587035
 40
30.30069086587035
 40
30.30069086587035
 40
30.30069086587035
 10
175.5894973596777
 20
44.46939212582011
 30
0.0
 10
174.5784606612954
 20
44.98854941336408
 30
0.0
 10
171.2566617420777
 20
46.69426011548489
 30
0.0
 10
165.0220412092715
 20
46.9559947451258
 30
0.0
 10
158.0431814332274
 20
44.36038786394054
 30
0.0
 10
152.7215756466101
 20
40.6975457516891
 30
0.0
 10
148.6636521619729
 20
39.5700955317745
 30
0.0
 10
147.1228596776076
 20
39.14200297854697
 30
0.0
 11
175.5894973596777
 21
44.46939212582011
 31
0.0
 11
172.5004938149087
 21
45.8841160330588
 31
0.0
 11
164.7536372315754
 21
46.41814474600531
 31
0.0
 11
158.5427955962935
 21
44.2820298942195
 31
0.0
 11
151.6641209651427
 21
40.61058193914976
 31
0.0
 11
147.1228596776076
 21
39.14200297854697
 31
0.0
  0
SPLINE
  5
7BC2
102
{ACAD_REACTORS
330
7D2B
102
}
330
2
100
AcDbEntity
  8
KIJUN
100
AcDbSpline
210
0.0
220
0.0
230
1.0
 70
     8
 71
     3
 72
    11
 73
     7
 74
     5
 42
0.0000000001
 43
0.0000000001
 44
0.0000000001
 40
0.0
 40
0.0
 40
0.0
 40
0.0
 40
1.370399110174113
 40
6.962859813973542
 40
13.36947205655097
 40
15.88842730931714
 40
15.88842730931714
 40
15.88842730931714
 40
15.88842730931714
 10
193.9577497844084
 20
54.48843890294597
 30
0.0
 10
193.8289042531934
 20
54.03482424367882
 30
0.0
 10
193.1742530900057
 20
51.73005386066304
 30
0.0
 10
187.8064144778073
 20
50.94142257596238
 30
0.0
 10
182.9720562190278
 20
50.61325084487606
 30
0.0
 10
180.4701757345745
 20
52.33319787059739
 30
0.0
 10
179.7641001834799
 20
52.81859777342493
 30
0.0
 11
193.9577497844084
 21
54.48843890294597
 31
0.0
 11
193.4882811667839
 21
53.20096349027522
 31
0.0
 11
188.3118666852993
 21
51.0842798012425
 31
0.0
 11
181.9197803650839
 21
51.51545598525373
 31
0.0
 11
179.7641001834799
 21
52.81859777342493
 31
0.0
  0
SPLINE
  5
7BC3
102
{ACAD_REACTORS
330
7D2B
102
}
330
2
100
AcDbEntity
  8
KIJUN
100
AcDbSpline
210
0.0
220
0.0
230
1.0
 70
     8
 71
     3
 72
    11
 73
     7
 74
     5
 42
0.0000000001
 43
0.0000000001
 44
0.0000000001
 40
0.0
 40
0.0
 40
0.0
 40
0.0
 40
2.500842445860771
 40
3.974299747282973
 40
9.635358126781119
 40
13.10965016824041
 40
13.10965016824041
 40
13.10965016824041
 40
13.10965016824041
 10
202.3069603632631
 20
48.64404641930423
 30
0.0
 10
201.7367547896376
 20
49.25939892463941
 30
0.0
 10
200.8305929996736
 20
50.23730751319977
 30
0.0
 10
197.8515022762968
 20
51.68616259784169
 30
0.0
 10
194.1893344040528
 20
50.15100073911062
 30
0.0
 10
191.3801966575985
 20
49.12326866505214
 30
0.0
 10
190.3118452024119
 20
48.73240885112946
 30
0.0
 11
202.3069603632631
 21
48.64404641930423
 31
0.0
 11
200.4685970673997
 21
50.33952078697865
 31
0.0
 11
199.1352777704012
 21
50.96668589392098
 31
0.0
 11
193.5667116632678
 21
49.94754238755368
 31
0.0
 11
190.3118452024119
 21
48.73240885112946
 31
0.0
  0
ARC
  5
7BC4
102
{ACAD_REACTORS
330
7D2B
102
}
330
2
100
AcDbEntity
  8
KIJUN
100
AcDbCircle
 10
176.8312436955583
 20
47.41820038063261
 30
0.0
 40
3.199594362778433
100
AcDbArc
 50
247.1639880706999
 51
336.4388309020001
  0
SPLINE
  5
7BC5
102
{ACAD_REACTORS
330
7D2B
102
}
330
2
100
AcDbEntity
  8
KIJUN
100
AcDbSpline
210
0.0
220
0.0
230
1.0
 70
     8
 71
     3
 72
     9
 73
     5
 74
     3
 42
0.0000000001
 43
0.0000000001
 44
0.0000000001
 40
0.0
 40
0.0
 40
0.0
 40
0.0
 40
1.496699588358223
 40
3.740303588222983
 40
3.740303588222983
 40
3.740303588222983
 40
3.740303588222983
 10
175.5894973596777
 20
53.65351833818542
 30
0.0
 10
175.3690644204569
 20
53.19516126984021
 30
0.0
 10
174.8181949474222
 20
52.04971124048627
 30
0.0
 10
173.7034402213012
 20
51.40866878191828
 30
0.0
 10
173.0347596975415
 20
51.02414239516858
 30
0.0
 11
175.5894973596777
 21
53.65351833818542
 31
0.0
 11
174.8379071585238
 21
52.3592147310974
 31
0.0
 11
173.0347596975415
 21
51.02414239516858
 31
0.0
  0
SPLINE
  5
7BC6
102
{ACAD_REACTORS
330
7D2B
102
}
330
2
100
AcDbEntity
  8
KIJUN
100
AcDbSpline
210
0.0
220
0.0
230
1.0
 70
     8
 71
     3
 72
     9
 73
     5
 74
     3
 42
0.0000000001
 43
0.0000000001
 44
0.0000000001
 40
0.0
 40
0.0
 40
0.0
 40
0.0
 40
1.679577352491382
 40
5.940132155773703
 40
5.940132155773703
 40
5.940132155773703
 40
5.940132155773703
 10
185.6085441368034
 20
46.97415382010166
 30
0.0
 10
185.3639225409039
 20
47.48153238064825
 30
0.0
 10
184.49877357611
 20
49.27596935503487
 30
0.0
 10
182.9710615763065
 20
50.59177423713783
 30
0.0
 10
181.8753114266287
 20
51.53553418449473
 30
0.0
 11
185.6085441368034
 21
46.97415382010166
 31
0.0
 11
184.8217087349912
 21
48.45802380546323
 31
0.0
 11
181.8753114266287
 21
51.53553418449473
 31
0.0
  0
SPLINE
  5
7BC7
102
{ACAD_REACTORS
330
7D2B
102
}
330
2
100
AcDbEntity
  8
KIJUN
100
AcDbSpline
210
0.0
220
0.0
230
1.0
 70
     8
 71
     3
 72
    13
 73
     9
 74
     7
 42
0.0000000001
 43
0.0000000001
 44
0.0000000001
 40
0.0
 40
0.0
 40
0.0
 40
0.0
 40
1.710583295222428
 40
6.497991129129659
 40
15.01720717401039
 40
23.11625738369713
 40
27.56406610590128
 40
28.93907369850344
 40
28.93907369850344
 40
28.93907369850344
 40
28.93907369850344
 10
179.7641001834801
 20
46.13923325534116
 30
0.0
 10
179.711100310928
 20
46.73269978746626
 30
0.0
 10
179.5097697457047
 20
48.98710053600317
 30
0.0
 10
173.7370464199725
 20
50.87351228300936
 30
0.0
 10
167.1715177924746
 20
51.3050825239585
 30
0.0
 10
159.655102790163
 20
50.33380550404293
 30
0.0
 10
156.2619925899951
 20
47.00121853668365
 30
0.0
 10
154.541402903309
 20
46.09751725597813
 30
0.0
 10
154.1351005652238
 20
45.8841160330588
 30
0.0
 11
179.7641001834801
 21
46.13923325534116
 31
0.0
 11
179.4459511459067
 21
47.81997011748979
 31
0.0
 11
175.3053903413093
 21
50.22309932574888
 31
0.0
 11
166.8239180622597
 21
51.02414239516858
 31
0.0
 11
158.9434943656905
 21
49.15504189985594
 31
0.0
 11
155.3371994437259
 21
46.55165192424195
 31
0.0
 11
154.1351005652238
 21
45.8841160330588
 31
0.0
  0
ARC
  5
7BC8
102
{ACAD_REACTORS
330
7D2B
102
}
330
2
100
AcDbEntity
  8
KIJUN
100
AcDbCircle
 10
115.0478088493375
 20
54.74313435117981
 30
0.0
 40
9.238658826137623
100
AcDbArc
 50
186.7732826472282
 51
237.2374837689375
  0
SPLINE
  5
7BC9
102
{ACAD_REACTORS
330
7D2B
102
}
330
2
100
AcDbEntity
  8
KIJUN
100
AcDbSpline
210
0.0
220
0.0
230
1.0
 70
     8
 71
     3
 72
    10
 73
     6
 74
     4
 42
0.0000000001
 43
0.0000000001
 44
0.0000000001
 40
0.0
 40
0.0
 40
0.0
 40
0.0
 40
5.214193299974422
 40
20.20747245194935
 40
21.37879262971156
 40
21.37879262971156
 40
21.37879262971156
 40
21.37879262971156
 10
110.0482330259805
 20
46.97415382010166
 30
0.0
 10
111.5968007927788
 20
46.19314230779724
 30
0.0
 10
117.5982354706428
 20
43.16635221552652
 30
0.0
 10
125.2902238326641
 20
42.33457337276258
 30
0.0
 10
130.4790916138885
 20
43.78147036176025
 30
0.0
 10
130.8550876659965
 20
43.88631549919824
 30
0.0
 11
110.0482330259805
 21
46.97415382010166
 31
0.0
 11
114.7784354775352
 21
44.78029955493172
 31
0.0
 11
129.7238068769826
 21
43.58267963958863
 31
0.0
 11
130.8550876659965
 21
43.88631549919824
 31
0.0
  0
SPLINE
  5
7BCA
102
{ACAD_REACTORS
330
7D2B
102
}
330
2
100
AcDbEntity
  8
KIJUN
100
AcDbSpline
210
0.0
220
0.0
230
1.0
 70
     8
 71
     3
 72
    10
 73
     6
 74
     4
 42
0.0000000001
 43
0.0000000001
 44
0.0000000001
 40
0.0
 40
0.0
 40
0.0
 40
0.0
 40
2.937258767155324
 40
12.17937133490264
 40
16.99224788458592
 40
16.99224788458592
 40
16.99224788458592
 40
16.99224788458592
 10
143.8625158987798
 20
45.30431269058079
 30
0.0
 10
143.1248324110211
 20
44.64839241216354
 30
0.0
 10
140.0660208328567
 20
41.92861275697397
 30
0.0
 10
134.1131153888729
 20
41.01411388348441
 30
0.0
 10
129.4811728352577
 20
40.62673209202546
 30
0.0
 10
127.8950479717295
 20
40.49408021130824
 30
0.0
 11
143.8625158987798
 21
45.30431269058079
 31
0.0
 11
141.5792067466854
 21
43.45661456015124
 31
0.0
 11
132.6876566302155
 21
40.93530909646469
 31
0.0
 11
127.8950479717295
 21
40.49408021130824
 31
0.0
  0
SPLINE
  5
7BCB
102
{ACAD_REACTORS
330
7D2B
102
}
330
2
100
AcDbEntity
  8
KIJUN
100
AcDbSpline
210
0.0
220
0.0
230
1.0
 70
     8
 71
     3
 72
     9
 73
     5
 74
     3
 42
0.0000000001
 43
0.0000000001
 44
0.0000000001
 40
0.0
 40
0.0
 40
0.0
 40
0.0
 40
5.155092608899495
 40
13.77969441995678
 40
13.77969441995678
 40
13.77969441995678
 40
13.77969441995678
 10
95.85458342505216
 20
50.31383607914356
 30
0.0
 10
97.20385536263377
 20
49.19152060008906
 30
0.0
 10
100.8104937685472
 20
46.19154261376542
 30
0.0
 10
101.8704990294915
 20
41.53773166048536
 30
0.0
 10
102.5339479431357
 20
38.62494817249689
 30
0.0
 11
95.85458342505216
 21
50.31383607914356
 31
0.0
 11
99.54598080440042
 21
46.71542459710443
 31
0.0
 11
102.5339479431357
 21
38.62494817249689
 31
0.0
  0
SPLINE
  5
7BCC
102
{ACAD_REACTORS
330
7D2B
102
}
330
2
100
AcDbEntity
  8
KIJUN
100
AcDbSpline
210
0.0
220
0.0
230
1.0
 70
     8
 71
     3
 72
     9
 73
     5
 74
     3
 42
0.0000000001
 43
0.0000000001
 44
0.0000000001
 40
0.0
 40
0.0
 40
0.0
 40
0.0
 40
4.457611210427301
 40
10.18134025766321
 40
10.18134025766321
 40
10.18134025766321
 40
10.18134025766321
 10
101.6990273783755
 20
51.98367720866443
 30
0.0
 10
102.0291366760336
 20
50.52105307382674
 30
0.0
 10
102.7831178832357
 20
47.18036828036193
 30
0.0
 10
104.760336588215
 20
44.37092126823623
 30
0.0
 10
105.8718861335619
 20
42.79151098795701
 30
0.0
 11
101.6990273783755
 21
51.98367720866443
 31
0.0
 11
102.9238349748244
 21
47.69763660514607
 31
0.0
 11
105.8718861335619
 21
42.79151098795701
 31
0.0
  0
ARC
  5
7BCD
102
{ACAD_REACTORS
330
7D2B
102
}
330
2
100
AcDbEntity
  8
KIJUN
100
AcDbCircle
 10
100.4653598675405
 20
45.21729152309879
 30
0.0
 40
1.669841129520954
100
AcDbArc
 50
293.7904582749498
 51
121.3011011060294
  0
SPLINE
  5
7BCE
102
{ACAD_REACTORS
330
7D2B
102
}
330
2
100
AcDbEntity
  8
KIJUN
100
AcDbSpline
210
0.0
220
0.0
230
1.0
 70
     8
 71
     3
 72
     9
 73
     5
 74
     3
 42
0.0000000001
 43
0.0000000001
 44
0.0000000001
 40
0.0
 40
0.0
 40
0.0
 40
0.0
 40
1.550320407494465
 40
3.669572035310238
 40
3.669572035310238
 40
3.669572035310238
 40
3.669572035310238
 10
98.39904630538278
 20
51.93507175589511
 30
0.0
 10
98.43017360568701
 20
51.41759921917256
 30
0.0
 10
98.50385119528651
 20
50.19275386422626
 30
0.0
 10
98.28919834425246
 20
48.98283378811138
 30
0.0
 10
98.16523200714502
 20
48.28408061848825
 30
0.0
 11
98.39904630538278
 21
51.93507175589511
 31
0.0
 11
98.44096431887217
 21
50.38531814772415
 31
0.0
 11
98.16523200714502
 21
48.28408061848825
 31
0.0
  0
SPLINE
  5
7BCF
102
{ACAD_REACTORS
330
7D2B
102
}
330
2
100
AcDbEntity
  8
KIJUN
100
AcDbSpline
210
0.0
220
0.0
230
1.0
 70
     8
 71
     3
 72
     9
 73
     5
 74
     3
 42
0.0000000001
 43
0.0000000001
 44
0.0000000001
 40
0.0
 40
0.0
 40
0.0
 40
0.0
 40
1.522019648841283
 40
3.038638502113743
 40
3.038638502113743
 40
3.038638502113743
 40
3.038638502113743
 10
104.2389768762771
 20
40.14365627103726
 30
0.0
 10
103.9665584920786
 20
40.61318326784977
 30
0.0
 10
103.4226883840025
 20
41.55057117304698
 30
0.0
 10
102.3406616681762
 20
41.6060380792394
 30
0.0
 10
101.800609893072
 20
41.63372223963082
 30
0.0
 11
104.2389768762771
 21
40.14365627103726
 31
0.0
 11
103.2867038940788
 21
41.33097256370487
 31
0.0
 11
101.800609893072
 21
41.63372223963082
 31
0.0
  0
SPLINE
  5
7BD0
102
{ACAD_REACTORS
330
7D2B
102
}
330
2
100
AcDbEntity
  8
KIJUN
100
AcDbSpline
210
0.0
220
0.0
230
1.0
 70
     8
 71
     3
 72
     9
 73
     5
 74
     3
 42
0.0000000001
 43
0.0000000001
 44
0.0000000001
 40
0.0
 40
0.0
 40
0.0
 40
0.0
 40
2.965226343198343
 40
5.344505933096253
 40
5.344505933096253
 40
5.344505933096253
 40
5.344505933096253
 10
101.6990273783743
 20
51.98367720866452
 30
0.0
 10
101.8570887384168
 20
50.98037596545271
 30
0.0
 10
102.1419775727812
 20
49.17203190452524
 30
0.0
 10
101.3769623712262
 20
47.52132603482476
 30
0.0
 10
101.0363911233303
 20
46.78646095396072
 30
0.0
 11
101.6990273783743
 21
51.98367720866452
 31
0.0
 11
101.8500272160548
 21
49.02229808477343
 31
0.0
 11
101.0363911233303
 21
46.78646095396072
 31
0.0
  0
SPLINE
  5
7BD1
102
{ACAD_REACTORS
330
7D2B
102
}
330
2
100
AcDbEntity
  8
KIJUN
100
AcDbSpline
210
0.0
220
0.0
230
1.0
 70
     8
 71
     3
 72
    15
 73
    11
 74
     9
 42
0.0000000001
 43
0.0000000001
 44
0.0000000001
 40
0.0
 40
0.0
 40
0.0
 40
0.0
 40
1.342021776927765
 40
2.247157089922568
 40
3.872997207228965
 40
4.646539314754262
 40
5.936954042276964
 40
6.463662505520285
 40
8.560430674773243
 40
9.553493870989257
 40
9.553493870989257
 40
9.553493870989257
 40
9.553493870989257
 10
101.0363911233303
 20
46.78646095396072
 30
0.0
 10
101.4231865270775
 20
46.99823639228797
 30
0.0
 10
102.070858605745
 20
47.35284515191479
 30
0.0
 10
103.6295685942316
 20
47.22977019847903
 30
0.0
 10
103.3391010432221
 20
45.75879742033674
 30
0.0
 10
102.7639695954251
 20
44.49694550846586
 30
0.0
 10
103.9178276863026
 20
44.1901620918634
 30
0.0
 10
105.0487579597846
 20
43.54425544356294
 30
0.0
 10
104.6519606319934
 20
41.63327663413975
 30
0.0
 10
103.620567278614
 20
41.40340212068901
 30
0.0
 10
103.28908032709
 20
41.32952109222668
 30
0.0
 11
101.0363911233303
 21
46.78646095396072
 31
0.0
 11
102.2883347887728
 21
47.26984435076587
 31
0.0
 11
103.1807899221331
 21
47.11886829382663
 31
0.0
 11
103.1893019256622
 21
45.49305045875445
 31
0.0
 11
103.0188482667409
 21
44.73852216751876
 31
0.0
 11
104.114619340463
 21
44.05701213604342
 31
0.0
 11
104.5529269131808
 21
43.7649363291878
 31
0.0
 11
104.2120204521088
 21
41.6960671838836
 31
0.0
 11
103.28908032709
 21
41.32952109222668
 31
0.0
  0
ARC
  5
7BD2
102
{ACAD_REACTORS
330
7D2B
102
}
330
2
100
AcDbEntity
  8
KIJUN
100
AcDbCircle
 10
78.21304298130304
 20
-10.45482077053304
 30
0.0
 40
63.27759164619167
100
AcDbArc
 50
73.8116396834354
 51
90.19110510406418
  0
SPLINE
  5
7BD3
102
{ACAD_REACTORS
330
7D2B
102
}
330
2
100
AcDbEntity
  8
KIJUN
100
AcDbSpline
210
0.0
220
0.0
230
1.0
 70
     8
 71
     3
 72
    14
 73
    10
 74
     8
 42
0.0000000001
 43
0.0000000001
 44
0.0000000001
 40
0.0
 40
0.0
 40
0.0
 40
0.0
 40
1.973338265027751
 40
7.055974472785008
 40
17.35630244613245
 40
22.44454579420258
 40
25.78801012760782
 40
30.13628708452208
 40
33.9664834386141
 40
33.9664834386141
 40
33.9664834386141
 40
33.9664834386141
 10
73.99711848753323
 20
44.65891761710719
 30
0.0
 10
74.10981281132006
 20
45.33973196908068
 30
0.0
 10
74.51276869879248
 20
47.77408839613912
 30
0.0
 10
81.28903247026352
 20
49.37787165426231
 30
0.0
 10
87.73790718833158
 20
49.01193412055566
 30
0.0
 10
93.72745389133058
 20
46.69365509329433
 30
0.0
 10
96.95917100959819
 20
43.80181864272421
 30
0.0
 10
98.05033066692182
 20
39.61692270828683
 30
0.0
 10
96.55532967555089
 20
37.2323662662752
 30
0.0
 10
95.85518098902197
 20
36.11561512666722
 30
0.0
 11
73.99711848753323
 21
44.65891761710719
 31
0.0
 11
74.51915054242293
 21
46.56195372866429
 31
0.0
 11
79.12531563182688
 21
48.71054256545031
 31
0.0
 11
89.41241829312787
 21
48.18874260916669
 31
0.0
 11
94.0799984144189
 21
46.16293013499521
 31
0.0
 11
96.47520436372094
 21
43.83017592394316
 31
0.0
 11
97.45785258484264
 21
39.5943861548968
 31
0.0
 11
95.85518098902197
 21
36.11561512666722
 31
0.0
  0
SPLINE
  5
7BD4
102
{ACAD_REACTORS
330
7D2B
102
}
330
2
100
AcDbEntity
  8
KIJUN
100
AcDbSpline
210
0.0
220
0.0
230
1.0
 70
     8
 71
     3
 72
    10
 73
     6
 74
     4
 42
0.0000000001
 43
0.0000000001
 44
0.0000000001
 40
0.0
 40
0.0
 40
0.0
 40
0.0
 40
6.045704972315999
 40
12.75451117530606
 40
17.16699027365895
 40
17.16699027365895
 40
17.16699027365895
 40
17.16699027365895
 10
94.18474229553117
 20
41.96463043153883
 30
0.0
 10
92.61402755178991
 20
43.25566849243791
 30
0.0
 10
89.30031991239918
 20
45.97934744317814
 30
0.0
 10
83.37597975127961
 20
47.18035578783521
 30
0.0
 10
79.73915329558903
 20
46.4079866951903
 30
0.0
 10
78.2962067039632
 20
46.10154167690649
 30
0.0
 11
94.18474229553117
 21
41.96463043153883
 31
0.0
 11
89.22817148392656
 21
45.42627085218271
 31
0.0
 11
82.65670909550912
 21
46.77681250163042
 31
0.0
 11
78.2962067039632
 21
46.10154167690649
 31
0.0
  0
ARC
  5
7BD5
102
{ACAD_REACTORS
330
7D2B
102
}
330
2
100
AcDbEntity
  8
KIJUN
100
AcDbCircle
 10
186.0157691678812
 20
43.98679040652476
 30
0.0
 40
16.94381728339453
100
AcDbArc
 50
15.9539469642027
 51
32.78859729356049
  0
ARC
  5
7BD6
102
{ACAD_REACTORS
330
7D2B
102
}
330
2
100
AcDbEntity
  8
KIJUN
100
AcDbCircle
 10
197.5007017693921
 20
37.12925402725148
 30
0.0
 40
17.71704852159185
100
AcDbArc
 50
91.60376241602548
 51
101.5354482788933
  0
ARC
  5
7BD7
102
{ACAD_REACTORS
330
7D2B
102
}
330
2
100
AcDbEntity
  8
KIJUN
100
AcDbCircle
 10
197.0685773726397
 20
50.9650828534809
 30
0.0
 40
3.874803650519405
100
AcDbArc
 50
34.54962362721281
 51
90.94236692661949
  0
ARC
  5
7BD8
102
{ACAD_REACTORS
330
7D2B
102
}
330
2
100
AcDbEntity
  8
KIJUN
100
AcDbCircle
 10
202.5769039990001
 20
22.61480088692386
 30
0.0
 40
26.03064525806879
100
AcDbArc
 50
90.59418074779948
 51
107.4792374321457
  0
ARC
  5
7BD9
102
{ACAD_REACTORS
330
7D2B
102
}
330
2
100
AcDbEntity
  8
KIJUN
100
AcDbCircle
 10
189.4010264101664
 20
62.46167228033434
 30
0.0
 40
15.94509798809088
100
AcDbArc
 50
256.2405390282754
 51
289.6324259609859
  0
ARC
  5
7BDA
102
{ACAD_REACTORS
330
7D2B
102
}
330
2
100
AcDbEntity
  8
KIJUN
100
AcDbCircle
 10
175.4675127047571
 20
50.99091597503104
 30
0.0
 40
10.9075614467682
100
AcDbArc
 50
321.5176718369664
 51
338.3919718526276
  0
ARC
  5
7BDB
102
{ACAD_REACTORS
330
7D2B
102
}
330
2
100
AcDbEntity
  8
KIJUN
100
AcDbCircle
 10
182.9146724238745
 20
44.94646789310616
 30
0.0
 40
1.320225423367995
100
AcDbArc
 50
232.4895440405148
 51
325.7496854210868
  0
ARC
  5
7BDC
102
{ACAD_REACTORS
330
7D2B
102
}
330
2
100
AcDbEntity
  8
KIJUN
100
AcDbCircle
 10
190.0244901686326
 20
54.53893609875013
 30
0.0
 40
13.26011351780187
100
AcDbArc
 50
219.3055871448856
 51
233.3585370760221
  0
ARC
  5
7BDD
102
{ACAD_REACTORS
330
7D2B
102
}
330
2
100
AcDbEntity
  8
KIJUN
100
AcDbCircle
 10
165.3117443036765
 20
21.1092674933893
 30
0.0
 40
22.53257289333371
100
AcDbArc
 50
74.2846110719576
 51
91.42741177212805
  0
ARC
  5
7BDE
102
{ACAD_REACTORS
330
7D2B
102
}
330
2
100
AcDbEntity
  8
KIJUN
100
AcDbCircle
 10
171.7656916594772
 20
42.23119226647432
 30
0.0
 40
4.430691666462678
100
AcDbArc
 50
14.27606381834818
 51
30.34184908525357
  0
ARC
  5
7BDF
102
{ACAD_REACTORS
330
7D2B
102
}
330
2
100
AcDbEntity
  8
KIJUN
100
AcDbCircle
 10
175.1649657243231
 20
48.97103401001459
 30
0.0
 40
7.221512065142809
100
AcDbArc
 50
238.7152487024948
 51
256.7716471569222
  0
ARC
  5
7BE0
102
{ACAD_REACTORS
330
7D2B
102
}
330
2
100
AcDbEntity
  8
KIJUN
100
AcDbCircle
 10
174.147798560387
 20
44.73104292778171
 30
0.0
 40
2.86133420045912
100
AcDbArc
 50
257.1707150483209
 51
302.7211149680399
  0
ARC
  5
7BE1
102
{ACAD_REACTORS
330
7D2B
102
}
330
2
100
AcDbEntity
  8
KIJUN
100
AcDbCircle
 10
175.2522442179866
 20
43.05185646373902
 30
0.0
 40
0.851877857627131
100
AcDbArc
 50
301.2750403812792
 51
18.61448910102907
  0
ARC
  5
7BE2
102
{ACAD_REACTORS
330
7D2B
102
}
330
2
100
AcDbEntity
  8
KIJUN
100
AcDbCircle
 10
66.63176961336652
 20
10.81029213692068
 30
0.0
 40
38.05536904396119
100
AcDbArc
 50
48.8369272374024
 51
56.29916584770828
  0
ARC
  5
7BE3
102
{ACAD_REACTORS
330
7D2B
102
}
330
2
100
AcDbEntity
  8
KIJUN
100
AcDbCircle
 10
80.50048701749043
 20
31.5235253136612
 30
0.0
 40
13.12800573869438
100
AcDbArc
 50
56.49622600723648
 51
97.79507771573715
  0
ARC
  5
7BE4
102
{ACAD_REACTORS
330
7D2B
102
}
330
2
100
AcDbEntity
  8
KIJUN
100
AcDbCircle
 10
90.69183127993628
 20
42.14285559300941
 30
0.0
 40
3.497455013441271
100
AcDbArc
 50
313.2301519047452
 51
357.0790262637175
  0
ARC
  5
7BE5
102
{ACAD_REACTORS
330
7D2B
102
}
330
2
100
AcDbEntity
  8
KIJUN
100
AcDbCircle
 10
92.29502098187314
 20
40.45328535219724
 30
0.0
 40
1.168396867778996
100
AcDbArc
 50
238.2376766981945
 51
312.6976467997571
  0
ARC
  5
7BE6
102
{ACAD_REACTORS
330
7D2B
102
}
330
2
100
AcDbEntity
  8
KIJUN
100
AcDbCircle
 10
75.44685311680902
 20
33.45017709959634
 30
0.0
 40
20.58165217896512
100
AcDbArc
 50
7.441020441468486
 51
24.43693723768252
  0
ARC
  5
7BE7
102
{ACAD_REACTORS
330
7D2B
102
}
330
2
100
AcDbEntity
  8
KIJUN
100
AcDbCircle
 10
96.50495686448657
 20
40.82022142294337
 30
0.0
 40
6.41622615487977
100
AcDbArc
 50
330.5454777846139
 51
339.9924482142707
  0
ARC
  5
7BE8
102
{ACAD_REACTORS
330
7D2B
102
}
330
2
100
AcDbEntity
  8
KIJUN
100
AcDbCircle
 10
99.3613021572383
 20
39.56961701698475
 30
0.0
 40
3.329104345582148
100
AcDbArc
 50
276.37204689918
 51
325.1056726429579
  0
ARC
  5
7BE9
102
{ACAD_REACTORS
330
7D2B
102
}
330
2
100
AcDbEntity
  8
KIJUN
100
AcDbCircle
 10
89.68522276716289
 20
252.2032042662989
 30
0.0
 40
216.1756567346049
100
AcDbArc
 50
271.6355244839556
 51
272.6634607076133
  0
ARC
  5
7BEA
102
{ACAD_REACTORS
330
7D2B
102
}
330
2
100
AcDbEntity
  8
KIJUN
100
AcDbCircle
 10
101.5408164855507
 20
43.7352319492006
 30
0.0
 40
4.432693712474844
100
AcDbArc
 50
325.0385088824298
 51
347.7076397680149
  0
ARC
  5
7BEB
102
{ACAD_REACTORS
330
7D2B
102
}
330
2
100
AcDbEntity
  8
KIJUN
100
AcDbCircle
 10
104.8706690489102
 20
43.58247028535768
 30
0.0
 40
5.480628707153556
100
AcDbArc
 50
244.7632197261683
 51
254.4873219444848
  0
ARC
  5
7BEC
102
{ACAD_REACTORS
330
7D2B
102
}
330
2
100
AcDbEntity
  8
KIJUN
100
AcDbCircle
 10
105.9304227996098
 20
39.3056560809645
 30
0.0
 40
1.864525719600053
100
AcDbArc
 50
129.8363467358111
 51
171.0512377048829
  0
ARC
  5
7BED
102
{ACAD_REACTORS
330
7D2B
102
}
330
2
100
AcDbEntity
  8
KIJUN
100
AcDbCircle
 10
101.3787156823139
 20
44.3842590913839
 30
0.0
 40
4.956929713493638
100
AcDbArc
 50
312.6325292501718
 51
319.957409384829
  0
ARC
  5
7BEE
102
{ACAD_REACTORS
330
7D2B
102
}
330
2
100
AcDbEntity
  8
KIJUN
100
AcDbCircle
 10
96.09936602698716
 20
40.55446073395621
 30
0.0
 40
8.046551332740214
100
AcDbArc
 50
345.4497558008108
 51
353.1567431690683
  0
ARC
  5
7BEF
102
{ACAD_REACTORS
330
7D2B
102
}
330
2
100
AcDbEntity
  8
KIJUN
100
AcDbCircle
 10
103.5124187966624
 20
38.69671984088134
 30
0.0
 40
0.4095988449731453
100
AcDbArc
 50
254.7767689861906
 51
336.4300894314149
  0
ARC
  5
7BF0
102
{ACAD_REACTORS
330
7D2B
102
}
330
2
100
AcDbEntity
  8
KIJUN
100
AcDbCircle
 10
183.4440439247754
 20
40.85688637196208
 30
0.0
 40
17.21502934379884
100
AcDbArc
 50
52.35781648684681
 51
55.39829396546521
  0
ARC
  5
7BF1
102
{ACAD_REACTORS
330
7D2B
102
}
330
2
100
AcDbEntity
  8
KIJUN
100
AcDbCircle
 10
192.805053299635
 20
54.42557756455051
 30
0.0
 40
0.7305555215612499
100
AcDbArc
 50
55.39829396546521
 51
133.8654046191038
  0
ARC
  5
7BF2
102
{ACAD_REACTORS
330
7D2B
102
}
330
2
100
AcDbEntity
  8
KIJUN
100
AcDbCircle
 10
189.9187327544572
 20
56.46963771303783
 30
0.0
 40
2.775557751489278
100
AcDbArc
 50
278.1852537677575
 51
305.2874275933208
  0
ARC
  5
7BF3
102
{ACAD_REACTORS
330
7D2B
102
}
330
2
100
AcDbEntity
  8
KIJUN
100
AcDbCircle
 10
518.3169856537861
 20
-284.2404076766709
 30
0.0
 40
470.4673623233493
100
AcDbArc
 50
133.8654046191003
 51
133.9967463856723
  0
ARC
  5
7BF4
102
{ACAD_REACTORS
330
7D2B
102
}
330
2
100
AcDbEntity
  8
KIJUN
100
AcDbCircle
 10
189.2548116571283
 20
63.72107239773462
 30
0.0
 40
10.05465177468468
100
AcDbArc
 50
233.5733869095582
 51
276.0463653325262
  0
ARC
  5
7BF5
102
{ACAD_REACTORS
330
7D2B
102
}
330
2
100
AcDbEntity
  8
KIJUN
100
AcDbCircle
 10
184.9862775194253
 20
51.67787125075569
 30
0.0
 40
5.345315063453316
100
AcDbArc
 50
133.6923211656238
 51
167.6779261260305
  0
ARC
  5
7BF6
102
{ACAD_REACTORS
330
7D2B
102
}
330
2
100
AcDbEntity
  8
KIJUN
100
AcDbCircle
 10
182.3569587663717
 20
54.05349782567634
 30
0.0
 40
1.829880410294656
100
AcDbArc
 50
59.54578746367459
 51
125.5204053664734
  0
ARC
  5
7BF7
102
{ACAD_REACTORS
330
7D2B
102
}
330
2
100
AcDbEntity
  8
KIJUN
100
AcDbCircle
 10
159.340205724502
 20
-38.44690717957485
 30
0.0
 40
93.5228734545592
100
AcDbArc
 50
77.38586771910532
 51
79.99426733285199
  0
ARC
  5
7BF8
102
{ACAD_REACTORS
330
7D2B
102
}
330
2
100
AcDbEntity
  8
KIJUN
100
AcDbCircle
 10
171.4166090360401
 20
52.27646048420658
 30
0.0
 40
4.394233186206212
100
AcDbArc
 50
18.26294822681882
 51
41.77960183589233
  0
ARC
  5
7BF9
102
{ACAD_REACTORS
330
7D2B
102
}
330
2
100
AcDbEntity
  8
KIJUN
100
AcDbCircle
 10
173.5886423348945
 20
15.69283624078539
 30
0.0
 40
40.05160343439899
100
AcDbArc
 50
90.19779435019543
 51
113.1546275101791
  0
ARC
  5
7BFA
102
{ACAD_REACTORS
330
7D2B
102
}
330
2
100
AcDbEntity
  8
KIJUN
100
AcDbCircle
 10
167.8820708793445
 20
31.90448710781178
 30
0.0
 40
22.92969626931517
100
AcDbArc
 50
115.9737569583078
 51
133.1105728774878
  0
ARC
  5
7BFB
102
{ACAD_REACTORS
330
7D2B
102
}
330
2
100
AcDbEntity
  8
KIJUN
100
AcDbCircle
 10
173.3944767991151
 20
53.91477673182984
 30
0.0
 40
1.830278165663667
100
AcDbArc
 50
44.78852291047246
 51
88.24977491311091
  0
ARC
  5
7BFC
102
{ACAD_REACTORS
330
7D2B
102
}
330
2
100
AcDbEntity
  8
KIJUN
100
AcDbCircle
 10
158.904769010838
 20
55.07288567058049
 30
0.0
 40
9.280491380495405
100
AcDbArc
 50
205.5327828540964
 51
223.8467387744552
  0
ARC
  5
7BFD
102
{ACAD_REACTORS
330
7D2B
102
}
330
2
100
AcDbEntity
  8
KIJUN
100
AcDbCircle
 10
141.4435716561908
 20
50.18983373892274
 30
0.0
 40
5.451569238535555
100
AcDbArc
 50
296.3411681577953
 51
348.5607331223103
  0
ARC
  5
7BFE
102
{ACAD_REACTORS
330
7D2B
102
}
330
2
100
AcDbEntity
  8
KIJUN
100
AcDbCircle
 10
156.2756530016982
 20
49.11265908516657
 30
0.0
 40
9.488805754462193
100
AcDbArc
 50
163.0672950086713
 51
180.0243354624411
  0
ARC
  5
7BFF
102
{ACAD_REACTORS
330
7D2B
102
}
330
2
100
AcDbEntity
  8
KIJUN
100
AcDbCircle
 10
147.0777343549608
 20
49.34774146536373
 30
0.0
 40
3.859798699314769
100
AcDbArc
 50
26.54585324421184
 51
58.60146804484109
  0
ARC
  5
7C00
102
{ACAD_REACTORS
330
7D2B
102
}
330
2
100
AcDbEntity
  8
KIJUN
100
AcDbCircle
 10
148.3996253695132
 20
51.62706999234524
 30
0.0
 40
1.226984736008105
100
AcDbArc
 50
55.83673878178545
 51
168.2823185912431
  0
ARC
  5
7C01
102
{ACAD_REACTORS
330
7D2B
102
}
330
2
100
AcDbEntity
  8
KIJUN
100
AcDbCircle
 10
130.8562840017125
 20
61.74689461266831
 30
0.0
 40
17.8605791535366
100
AcDbArc
 50
269.9961622192173
 51
308.1717639639547
  0
ARC
  5
7C02
102
{ACAD_REACTORS
330
7D2B
102
}
330
2
100
AcDbEntity
  8
KIJUN
100
AcDbCircle
 10
138.0988549274787
 20
44.25916180123883
 30
0.0
 40
5.857655518515223
100
AcDbArc
 50
10.27802104710343
 51
34.06822740702335
  0
ARC
  5
7C03
102
{ACAD_REACTORS
330
7D2B
102
}
330
2
100
AcDbEntity
  8
KIJUN
100
AcDbCircle
 10
142.3459964019933
 20
47.13125923590626
 30
0.0
 40
0.7305555215612499
100
AcDbArc
 50
34.06822740702335
 51
128.1717639639547
  0
ARC
  5
7C04
102
{ACAD_REACTORS
330
7D2B
102
}
330
2
100
AcDbEntity
  8
KIJUN
100
AcDbCircle
 10
123.6730546125479
 20
73.8715536828418
 30
0.0
 40
27.59127815012826
100
AcDbArc
 50
246.4624920031341
 51
286.7402422777853
  0
ARC
  5
7C05
102
{ACAD_REACTORS
330
7D2B
102
}
330
2
100
AcDbEntity
  8
KIJUN
100
AcDbCircle
 10
120.7282448342495
 20
52.17468999599782
 30
0.0
 40
13.08625605504127
100
AcDbArc
 50
320.7011869216729
 51
333.9547653474095
  0
ARC
  5
7C06
102
{ACAD_REACTORS
330
7D2B
102
}
330
2
100
AcDbEntity
  8
KIJUN
100
AcDbCircle
 10
131.8291952515593
 20
46.74954156434487
 30
0.0
 40
0.7305555215612499
100
AcDbArc
 50
333.9547653474095
 51
106.6184711071962
  0
ARC
  5
7C07
102
{ACAD_REACTORS
330
7D2B
102
}
330
2
100
AcDbEntity
  8
KIJUN
100
AcDbCircle
 10
111.6750656514388
 20
47.24832200149586
 30
0.0
 40
1.649773494436326
100
AcDbArc
 50
53.58170821425567
 51
189.5661006294824
  0
ARC
  5
7C08
102
{ACAD_REACTORS
330
7D2B
102
}
330
2
100
AcDbEntity
  8
KIJUN
100
AcDbCircle
 10
104.8568572140191
 20
50.14227671406937
 30
0.0
 40
3.65549518565905
100
AcDbArc
 50
73.85022700567512
 51
149.7525919670361
  0
ARC
  5
7C09
102
{ACAD_REACTORS
330
7D2B
102
}
330
2
100
AcDbEntity
  8
KIJUN
100
AcDbCircle
 10
101.2298408320153
 20
48.83412987671715
 30
0.0
 40
3.184302814033583
100
AcDbArc
 50
81.52698618014968
 51
121.4568257444168
  0
ARC
  5
7C0A
102
{ACAD_REACTORS
330
7D2B
102
}
330
2
100
AcDbEntity
  8
KIJUN
100
AcDbCircle
 10
109.9295783728017
 20
42.74985063909906
 30
0.0
 40
15.9787157968462
100
AcDbArc
 50
145.2567716211485
 51
151.7461532231083
  0
ARC
  5
7C0B
102
{ACAD_REACTORS
330
7D2B
102
}
330
2
100
AcDbEntity
  8
KIJUN
100
AcDbCircle
 10
97.60879264122394
 20
51.12497389028241
 30
0.0
 40
1.090548944182857
100
AcDbArc
 50
72.33984923694459
 51
137.8994153731103
  0
ARC
  5
7C0C
102
{ACAD_REACTORS
330
7D2B
102
}
330
2
100
AcDbEntity
  8
KIJUN
100
AcDbCircle
 10
97.30187537601857
 20
50.29668575023723
 30
0.0
 40
1.973341339598843
100
AcDbArc
 50
41.16717730343517
 51
71.14425105996784
  0
ARC
  5
7C0D
102
{ACAD_REACTORS
330
7D2B
102
}
330
2
100
AcDbEntity
  8
KIJUN
100
AcDbCircle
 10
99.20452424756932
 20
52.03556238752813
 30
0.0
 40
0.6062336829082225
100
AcDbArc
 50
226.5222340647785
 51
306.8497088969667
  0
ARC
  5
7CF4
102
{ACAD_REACTORS
330
7D2B
102
}
330
2
100
AcDbEntity
  8
KIJUN
100
AcDbCircle
 10
134.7310995471912
 20
83.71124796915536
 30
0.0
 40
50.07273782672413
100
AcDbArc
 50
234.8060642489897
 51
306.8351565648725
  0
ENDSEC
  0
SECTION
  2
OBJECTS
  0
DICTIONARY
  5
1A
330
0
100
AcDbDictionary
281
     1
  3
ACAD_COLOR
350
144
  3
ACAD_GROUP
350
18
  3
ACAD_LAYOUT
350
58
  3
ACAD_MATERIAL
350
143
  3
ACAD_MLINESTYLE
350
19
  3
ACAD_PLOTSETTINGS
350
59
  3
ACAD_PLOTSTYLENAME
350
56
  3
ACAD_TABLESTYLE
350
145
  3
ACDBHEADERROUNDTRIPXREC
350
7D2D
  3
AcDbVariableDictionary
350
1D1
  0
DICTIONARY
  5
1B4
330
A
100
AcDbDictionary
280
     1
281
     1
  3
ACAD_LAYERFILTERS
360
7795
  3
ACLYDICTIONARY
360
7794
  0
DICTIONARY
  5
D13
330
2
100
AcDbDictionary
280
     1
281
     1
  3
ACAD_SORTENTS
360
D14
  0
DICTIONARY
  5
144
102
{ACAD_REACTORS
330
1A
102
}
330
1A
100
AcDbDictionary
281
     1
  0
DICTIONARY
  5
18
102
{ACAD_REACTORS
330
1A
102
}
330
1A
100
AcDbDictionary
281
     1
  3
*A1
350
E0D
  3
*A10
350
31DF
  3
*A11
350
32E4
  3
*A12
350
2C6B
  3
*A13
350
3349
  3
*A14
350
24D6
  3
*A15
350
2037
  3
*A16
350
3A25
  3
*A17
350
3467
  3
*A18
350
422E
  3
*A19
350
4407
  3
*A2
350
265A
  3
*A20
350
4516
  3
*A21
350
307D
  3
*A22
350
FF8
  3
*A23
350
2D78
  3
*A24
350
136A
  3
*A25
350
1555
  3
*A26
350
2A17
  3
*A27
350
17BC
  3
*A28
350
34BB
  3
*A29
350
45E5
  3
*A3
350
26DD
  3
*A30
350
46A5
  3
*A31
350
4781
  3
*A32
350
48BA
  3
*A33
350
4A53
  3
*A34
350
1A98
  3
*A35
350
3695
  3
*A36
350
4B49
  3
*A37
350
4C3E
  3
*A38
350
4CEC
  3
*A39
350
4D76
  3
*A4
350
3988
  3
*A40
350
3C81
  3
*A41
350
4E16
  3
*A42
350
4EE5
  3
*A43
350
4F64
  3
*A44
350
5011
  3
*A45
350
22C8
  3
*A46
350
519C
  3
*A47
350
52B0
  3
*A48
350
36C9
  3
*A49
350
5396
  3
*A5
350
275E
  3
*A50
350
5464
  3
*A51
350
556A
  3
*A52
350
213E
  3
*A53
350
57BF
  3
*A54
350
58EE
  3
*A55
350
382B
  3
*A56
350
1EFE
  3
*A57
350
2573
  3
*A58
350
3878
  3
*A59
350
5D92
  3
*A6
350
2905
  3
*A60
350
3E5C
  3
*A61
350
3181
  3
*A62
350
2B84
  3
*A63
350
5F6F
  3
*A64
350
626B
  3
*A65
350
6417
  3
*A66
350
668C
  3
*A67
350
241A
  3
*A68
350
68C5
  3
*A69
350
6A30
  3
*A7
350
2EE1
  3
*A70
350
6A98
  3
*A71
350
6C32
  3
*A72
350
6D00
  3
*A73
350
6DE3
  3
*A74
350
6EB7
  3
*A75
350
706D
  3
*A76
350
7170
  3
*A77
350
35A5
  3
*A78
350
401B
  3
*A8
350
1CBC
  3
*A80
350
7453
  3
*A84
350
76E3
  3
*A85
350
7793
  3
*A88
350
7ADA
  3
*A89
350
7D2B
  3
*A9
350
2F81
  0
DICTIONARY
  5
58
102
{ACAD_REACTORS
330
1A
102
}
330
1A
100
AcDbDictionary
281
     1
  3
Model
350
5A
  3
ﾚｲｱｳﾄ1
350
5B
  0
DICTIONARY
  5
143
102
{ACAD_REACTORS
330
1A
102
}
330
1A
100
AcDbDictionary
281
     1
  0
DICTIONARY
  5
19
102
{ACAD_REACTORS
330
1A
102
}
330
1A
100
AcDbDictionary
281
     1
  3
STANDARD
350
1D
  0
DICTIONARY
  5
59
102
{ACAD_REACTORS
330
1A
102
}
330
1A
100
AcDbDictionary
281
     1
  0
ACDBDICTIONARYWDFLT
  5
56
102
{ACAD_REACTORS
330
1A
102
}
330
1A
100
AcDbDictionary
281
     1
  3
Normal
350
57
100
AcDbDictionaryWithDefault
340
57
  0
DICTIONARY
  5
145
102
{ACAD_REACTORS
330
1A
102
}
330
1A
100
AcDbDictionary
281
     1
  3
Standard
350
146
  0
DICTIONARY
  5
7D2D
102
{ACAD_REACTORS
330
1A
102
}
330
1A
100
AcDbDictionary
281
     1
  0
DICTIONARY
  5
1D1
102
{ACAD_REACTORS
330
1A
102
}
330
1A
100
AcDbDictionary
281
     1
  3
CTABLESTYLE
350
1D2
  3
DIMASSOC
350
D03
  3
PROJECTNAME
350
D04
  0
DICTIONARY
  5
7795
102
{ACAD_REACTORS
330
1B4
102
}
330
1B4
100
AcDbDictionary
281
     1
  0
DICTIONARY
  5
7794
102
{ACAD_REACTORS
330
1B4
102
}
330
1B4
100
AcDbDictionary
281
     1
1001
ACAD
1000
<All
  0
SORTENTSTABLE
  5
D14
102
{ACAD_REACTORS
330
D13
102
}
330
D13
100
AcDbSortentsTable
330
2
331
20
  5
20
331
21
  5
21
331
78A4
  5
78A8
331
789D
  5
789F
331
23
  5
23
331
789E
  5
78A0
331
7809
  5
7809
331
789F
  5
78A1
331
78A7
  5
78A9
331
780A
  5
780A
331
78A0
  5
78A4
331
1F
  5
1F
331
78A1
  5
78A7
331
78A9
  5
789D
  0
GROUP
  5
E0D
102
{ACAD_REACTORS
330
18
102
}
330
18
100
AcDbGroup
300

 70
     1
 71
     1
  0
GROUP
  5
31DF
102
{ACAD_REACTORS
330
18
102
}
330
18
100
AcDbGroup
300

 70
     1
 71
     1
  0
GROUP
  5
32E4
102
{ACAD_REACTORS
330
18
102
}
330
18
100
AcDbGroup
300

 70
     1
 71
     1
  0
GROUP
  5
2C6B
102
{ACAD_REACTORS
330
18
102
}
330
18
100
AcDbGroup
300

 70
     1
 71
     1
  0
GROUP
  5
3349
102
{ACAD_REACTORS
330
18
102
}
330
18
100
AcDbGroup
300

 70
     1
 71
     1
  0
GROUP
  5
24D6
102
{ACAD_REACTORS
330
18
102
}
330
18
100
AcDbGroup
300

 70
     1
 71
     1
  0
GROUP
  5
2037
102
{ACAD_REACTORS
330
18
102
}
330
18
100
AcDbGroup
300

 70
     1
 71
     1
  0
GROUP
  5
3A25
102
{ACAD_REACTORS
330
18
102
}
330
18
100
AcDbGroup
300

 70
     1
 71
     1
  0
GROUP
  5
3467
102
{ACAD_REACTORS
330
18
102
}
330
18
100
AcDbGroup
300

 70
     1
 71
     1
  0
GROUP
  5
422E
102
{ACAD_REACTORS
330
18
102
}
330
18
100
AcDbGroup
300

 70
     1
 71
     1
  0
GROUP
  5
4407
102
{ACAD_REACTORS
330
18
102
}
330
18
100
AcDbGroup
300

 70
     1
 71
     1
  0
GROUP
  5
265A
102
{ACAD_REACTORS
330
18
102
}
330
18
100
AcDbGroup
300

 70
     1
 71
     1
  0
GROUP
  5
4516
102
{ACAD_REACTORS
330
18
102
}
330
18
100
AcDbGroup
300

 70
     1
 71
     1
  0
GROUP
  5
307D
102
{ACAD_REACTORS
330
18
102
}
330
18
100
AcDbGroup
300

 70
     1
 71
     1
  0
GROUP
  5
FF8
102
{ACAD_REACTORS
330
18
102
}
330
18
100
AcDbGroup
300

 70
     1
 71
     1
  0
GROUP
  5
2D78
102
{ACAD_REACTORS
330
18
102
}
330
18
100
AcDbGroup
300

 70
     1
 71
     1
  0
GROUP
  5
136A
102
{ACAD_REACTORS
330
18
102
}
330
18
100
AcDbGroup
300

 70
     1
 71
     1
  0
GROUP
  5
1555
102
{ACAD_REACTORS
330
18
102
}
330
18
100
AcDbGroup
300

 70
     1
 71
     1
  0
GROUP
  5
2A17
102
{ACAD_REACTORS
330
18
102
}
330
18
100
AcDbGroup
300

 70
     1
 71
     1
  0
GROUP
  5
17BC
102
{ACAD_REACTORS
330
18
102
}
330
18
100
AcDbGroup
300

 70
     1
 71
     1
  0
GROUP
  5
34BB
102
{ACAD_REACTORS
330
18
102
}
330
18
100
AcDbGroup
300

 70
     1
 71
     1
  0
GROUP
  5
45E5
102
{ACAD_REACTORS
330
18
102
}
330
18
100
AcDbGroup
300

 70
     1
 71
     1
  0
GROUP
  5
26DD
102
{ACAD_REACTORS
330
18
102
}
330
18
100
AcDbGroup
300

 70
     1
 71
     1
  0
GROUP
  5
46A5
102
{ACAD_REACTORS
330
18
102
}
330
18
100
AcDbGroup
300

 70
     1
 71
     1
  0
GROUP
  5
4781
102
{ACAD_REACTORS
330
18
102
}
330
18
100
AcDbGroup
300

 70
     1
 71
     1
  0
GROUP
  5
48BA
102
{ACAD_REACTORS
330
18
102
}
330
18
100
AcDbGroup
300

 70
     1
 71
     1
  0
GROUP
  5
4A53
102
{ACAD_REACTORS
330
18
102
}
330
18
100
AcDbGroup
300

 70
     1
 71
     1
  0
GROUP
  5
1A98
102
{ACAD_REACTORS
330
18
102
}
330
18
100
AcDbGroup
300

 70
     1
 71
     1
  0
GROUP
  5
3695
102
{ACAD_REACTORS
330
18
102
}
330
18
100
AcDbGroup
300

 70
     1
 71
     1
  0
GROUP
  5
4B49
102
{ACAD_REACTORS
330
18
102
}
330
18
100
AcDbGroup
300

 70
     1
 71
     1
  0
GROUP
  5
4C3E
102
{ACAD_REACTORS
330
18
102
}
330
18
100
AcDbGroup
300

 70
     1
 71
     1
  0
GROUP
  5
4CEC
102
{ACAD_REACTORS
330
18
102
}
330
18
100
AcDbGroup
300

 70
     1
 71
     1
  0
GROUP
  5
4D76
102
{ACAD_REACTORS
330
18
102
}
330
18
100
AcDbGroup
300

 70
     1
 71
     1
  0
GROUP
  5
3988
102
{ACAD_REACTORS
330
18
102
}
330
18
100
AcDbGroup
300

 70
     1
 71
     1
  0
GROUP
  5
3C81
102
{ACAD_REACTORS
330
18
102
}
330
18
100
AcDbGroup
300

 70
     1
 71
     1
  0
GROUP
  5
4E16
102
{ACAD_REACTORS
330
18
102
}
330
18
100
AcDbGroup
300

 70
     1
 71
     1
  0
GROUP
  5
4EE5
102
{ACAD_REACTORS
330
18
102
}
330
18
100
AcDbGroup
300

 70
     1
 71
     1
  0
GROUP
  5
4F64
102
{ACAD_REACTORS
330
18
102
}
330
18
100
AcDbGroup
300

 70
     1
 71
     1
  0
GROUP
  5
5011
102
{ACAD_REACTORS
330
18
102
}
330
18
100
AcDbGroup
300

 70
     1
 71
     1
  0
GROUP
  5
22C8
102
{ACAD_REACTORS
330
18
102
}
330
18
100
AcDbGroup
300

 70
     1
 71
     1
  0
GROUP
  5
519C
102
{ACAD_REACTORS
330
18
102
}
330
18
100
AcDbGroup
300

 70
     1
 71
     1
  0
GROUP
  5
52B0
102
{ACAD_REACTORS
330
18
102
}
330
18
100
AcDbGroup
300

 70
     1
 71
     1
  0
GROUP
  5
36C9
102
{ACAD_REACTORS
330
18
102
}
330
18
100
AcDbGroup
300

 70
     1
 71
     1
  0
GROUP
  5
5396
102
{ACAD_REACTORS
330
18
102
}
330
18
100
AcDbGroup
300

 70
     1
 71
     1
  0
GROUP
  5
275E
102
{ACAD_REACTORS
330
18
102
}
330
18
100
AcDbGroup
300

 70
     1
 71
     1
  0
GROUP
  5
5464
102
{ACAD_REACTORS
330
18
102
}
330
18
100
AcDbGroup
300

 70
     1
 71
     1
  0
GROUP
  5
556A
102
{ACAD_REACTORS
330
18
102
}
330
18
100
AcDbGroup
300

 70
     1
 71
     1
  0
GROUP
  5
213E
102
{ACAD_REACTORS
330
18
102
}
330
18
100
AcDbGroup
300

 70
     1
 71
     1
  0
GROUP
  5
57BF
102
{ACAD_REACTORS
330
18
102
}
330
18
100
AcDbGroup
300

 70
     1
 71
     1
  0
GROUP
  5
58EE
102
{ACAD_REACTORS
330
18
102
}
330
18
100
AcDbGroup
300

 70
     1
 71
     1
  0
GROUP
  5
382B
102
{ACAD_REACTORS
330
18
102
}
330
18
100
AcDbGroup
300

 70
     1
 71
     1
  0
GROUP
  5
1EFE
102
{ACAD_REACTORS
330
18
102
}
330
18
100
AcDbGroup
300

 70
     1
 71
     1
  0
GROUP
  5
2573
102
{ACAD_REACTORS
330
18
102
}
330
18
100
AcDbGroup
300

 70
     1
 71
     1
  0
GROUP
  5
3878
102
{ACAD_REACTORS
330
18
102
}
330
18
100
AcDbGroup
300

 70
     1
 71
     1
  0
GROUP
  5
5D92
102
{ACAD_REACTORS
330
18
102
}
330
18
100
AcDbGroup
300

 70
     1
 71
     1
  0
GROUP
  5
2905
102
{ACAD_REACTORS
330
18
102
}
330
18
100
AcDbGroup
300

 70
     1
 71
     1
  0
GROUP
  5
3E5C
102
{ACAD_REACTORS
330
18
102
}
330
18
100
AcDbGroup
300

 70
     1
 71
     1
  0
GROUP
  5
3181
102
{ACAD_REACTORS
330
18
102
}
330
18
100
AcDbGroup
300

 70
     1
 71
     1
  0
GROUP
  5
2B84
102
{ACAD_REACTORS
330
18
102
}
330
18
100
AcDbGroup
300

 70
     1
 71
     1
  0
GROUP
  5
5F6F
102
{ACAD_REACTORS
330
18
102
}
330
18
100
AcDbGroup
300

 70
     1
 71
     1
  0
GROUP
  5
626B
102
{ACAD_REACTORS
330
18
102
}
330
18
100
AcDbGroup
300

 70
     1
 71
     1
  0
GROUP
  5
6417
102
{ACAD_REACTORS
330
18
102
}
330
18
100
AcDbGroup
300

 70
     1
 71
     1
  0
GROUP
  5
668C
102
{ACAD_REACTORS
330
18
102
}
330
18
100
AcDbGroup
300

 70
     1
 71
     1
  0
GROUP
  5
241A
102
{ACAD_REACTORS
330
18
102
}
330
18
100
AcDbGroup
300

 70
     1
 71
     1
  0
GROUP
  5
68C5
102
{ACAD_REACTORS
330
18
102
}
330
18
100
AcDbGroup
300

 70
     1
 71
     1
  0
GROUP
  5
6A30
102
{ACAD_REACTORS
330
18
102
}
330
18
100
AcDbGroup
300

 70
     1
 71
     1
  0
GROUP
  5
2EE1
102
{ACAD_REACTORS
330
18
102
}
330
18
100
AcDbGroup
300

 70
     1
 71
     1
  0
GROUP
  5
6A98
102
{ACAD_REACTORS
330
18
102
}
330
18
100
AcDbGroup
300

 70
     1
 71
     1
  0
GROUP
  5
6C32
102
{ACAD_REACTORS
330
18
102
}
330
18
100
AcDbGroup
300

 70
     1
 71
     1
  0
GROUP
  5
6D00
102
{ACAD_REACTORS
330
18
102
}
330
18
100
AcDbGroup
300

 70
     1
 71
     1
  0
GROUP
  5
6DE3
102
{ACAD_REACTORS
330
18
102
}
330
18
100
AcDbGroup
300

 70
     1
 71
     1
  0
GROUP
  5
6EB7
102
{ACAD_REACTORS
330
18
102
}
330
18
100
AcDbGroup
300

 70
     1
 71
     1
  0
GROUP
  5
706D
102
{ACAD_REACTORS
330
18
102
}
330
18
100
AcDbGroup
300

 70
     1
 71
     1
  0
GROUP
  5
7170
102
{ACAD_REACTORS
330
18
102
}
330
18
100
AcDbGroup
300

 70
     1
 71
     1
  0
GROUP
  5
35A5
102
{ACAD_REACTORS
330
18
102
}
330
18
100
AcDbGroup
300

 70
     1
 71
     1
  0
GROUP
  5
401B
102
{ACAD_REACTORS
330
18
102
}
330
18
100
AcDbGroup
300

 70
     1
 71
     1
  0
GROUP
  5
1CBC
102
{ACAD_REACTORS
330
18
102
}
330
18
100
AcDbGroup
300

 70
     1
 71
     1
  0
GROUP
  5
7453
102
{ACAD_REACTORS
330
18
102
}
330
18
100
AcDbGroup
300

 70
     1
 71
     1
  0
GROUP
  5
76E3
102
{ACAD_REACTORS
330
18
102
}
330
18
100
AcDbGroup
300

 70
     1
 71
     1
  0
GROUP
  5
7793
102
{ACAD_REACTORS
330
18
102
}
330
18
100
AcDbGroup
300

 70
     1
 71
     1
  0
GROUP
  5
7ADA
102
{ACAD_REACTORS
330
18
102
}
330
18
100
AcDbGroup
300

 70
     1
 71
     1
  0
GROUP
  5
7D2B
102
{ACAD_REACTORS
330
18
102
}
330
18
100
AcDbGroup
300

 70
     1
 71
     1
340
7CF4
340
7C0D
340
7C0C
340
7C0B
340
7C0A
340
7C09
340
7C08
340
7C07
340
7C06
340
7C05
340
7C04
340
7C03
340
7C02
340
7C01
340
7C00
340
7BFF
340
7BFE
340
7BFD
340
7BFC
340
7BFB
340
7BFA
340
7BF9
340
7BF8
340
7BF7
340
7BF6
340
7BF5
340
7BF4
340
7BF3
340
7BF2
340
7BF1
340
7BF0
340
7BEF
340
7BEE
340
7BED
340
7BEC
340
7BEB
340
7BEA
340
7BE9
340
7BE8
340
7BE7
340
7BE6
340
7BE5
340
7BE4
340
7BE3
340
7BE2
340
7BE1
340
7BE0
340
7BDF
340
7BDE
340
7BDD
340
7BDC
340
7BDB
340
7BDA
340
7BD9
340
7BD8
340
7BD7
340
7BD6
340
7BD5
340
7BD4
340
7BD3
340
7BD2
340
7BD1
340
7BD0
340
7BCF
340
7BCE
340
7BCD
340
7BCC
340
7BCB
340
7BCA
340
7BC9
340
7BC8
340
7BC7
340
7BC6
340
7BC5
340
7BC4
340
7BC3
340
7BC2
340
7BC0
340
7BBF
340
7BBE
340
7BA9
340
7BA8
340
7BA7
340
7BA6
340
7BA5
340
7BA4
340
7BA3
340
7BA2
340
7BA1
340
7BA0
340
7B9F
340
7B9E
340
7B9D
340
7B9C
340
7B9B
340
7B9A
340
7B99
340
7B98
340
7B97
340
7B96
340
7B95
340
7B94
340
7B93
340
7B92
340
7B91
340
7B90
340
7B8F
340
7B8E
340
7B8D
340
7B8C
340
7B8B
340
7B8A
340
7B89
340
7B88
340
7B87
340
7B86
340
7B85
340
7B84
340
7B83
340
7B82
340
7B81
340
7B80
340
7B7F
340
7B7E
340
7B7D
340
7B7C
340
7B7B
340
7B7A
340
7B79
340
7B78
340
7B77
340
7B76
340
7B75
340
7B74
340
7B73
340
7B72
340
7B71
340
7B70
340
7B6F
340
7B6E
340
7B6D
340
7B6C
340
7B6B
340
7B6A
340
7B69
340
7B68
340
7B67
340
7B66
340
7B65
340
7B64
340
7B63
340
7B62
340
7B61
340
7B60
340
7B5F
340
7B5E
340
7B5D
340
7B5C
340
7B5B
340
7B5A
340
78B5
340
78B4
340
78B3
340
78B2
340
78B1
340
78B0
340
78AF
340
78AE
340
78AD
340
78AC
340
78AB
340
78A7
340
78A4
340
78A1
340
78A6
340
78A0
340
78A3
340
789F
340
789E
340
789D
340
78A9
340
789C
340
786A
340
7869
340
783F
340
783A
340
7839
340
7838
340
7836
340
7828
340
7827
340
7826
340
7825
340
7824
340
780A
340
7809
  0
GROUP
  5
2F81
102
{ACAD_REACTORS
330
18
102
}
330
18
100
AcDbGroup
300

 70
     1
 71
     1
  0
LAYOUT
  5
5A
102
{ACAD_XDICTIONARY
360
7D2E
102
}
102
{ACAD_REACTORS
330
58
102
}
330
58
100
AcDbPlotSettings
  1

  2
なし
  4

  6

 40
0.0
 41
0.0
 42
0.0
 43
0.0
 44
0.0
 45
0.0
 46
0.0
 47
0.0
 48
0.0
 49
0.0
140
0.0
141
0.0
142
1.0
143
1.0
 70
  1712
 72
     0
 73
     0
 74
     0
  7
monochrome.ctb
 75
     0
147
1.0
148
0.0
149
0.0
100
AcDbLayout
  1
Model
 70
     1
 71
     0
 10
0.0
 20
0.0
 11
12.0
 21
9.0
 12
0.0
 22
0.0
 32
0.0
 14
0.0
 24
0.0
 34
0.0
 15
0.0
 25
0.0
 35
0.0
146
0.0
 13
0.0
 23
0.0
 33
0.0
 16
1.0
 26
0.0
 36
0.0
 17
0.0
 27
1.0
 37
0.0
 76
     0
330
2
  0
LAYOUT
  5
5B
102
{ACAD_XDICTIONARY
360
7D30
102
}
102
{ACAD_REACTORS
330
58
102
}
330
58
100
AcDbPlotSettings
  1

  2
なし
  4

  6

 40
0.0
 41
0.0
 42
0.0
 43
0.0
 44
0.0
 45
0.0
 46
0.0
 47
0.0
 48
0.0
 49
0.0
140
0.0
141
0.0
142
1.0
143
1.0
 70
   688
 72
     0
 73
     0
 74
     5
  7
monochrome.ctb
 75
    16
147
1.0
148
0.0
149
0.0
100
AcDbLayout
  1
ﾚｲｱｳﾄ1
 70
     1
 71
     1
 10
0.0
 20
0.0
 11
12.0
 21
9.0
 12
0.0
 22
0.0
 32
0.0
 14
1.000000000000000E+20
 24
1.000000000000000E+20
 34
1.000000000000000E+20
 15
-1.000000000000000E+20
 25
-1.000000000000000E+20
 35
-1.000000000000000E+20
146
0.0
 13
0.0
 23
0.0
 33
0.0
 16
1.0
 26
0.0
 36
0.0
 17
0.0
 27
1.0
 37
0.0
 76
     0
330
7
  0
MLINESTYLE
  5
1D
102
{ACAD_REACTORS
330
19
102
}
330
19
100
AcDbMlineStyle
  2
STANDARD
 70
     0
  3

 62
   256
 51
90.0
 52
90.0
 71
     2
 49
0.5
 62
   256
  6
BYLAYER
 49
-0.5
 62
   256
  6
BYLAYER
  0
ACDBPLACEHOLDER
  5
57
102
{ACAD_REACTORS
330
56
102
}
330
56
  0
TABLESTYLE
  5
146
102
{ACAD_REACTORS
330
145
102
}
330
145
100
AcDbTableStyle
  3
Standard
 70
     0
 71
     0
 40
0.06
 41
0.06
280
     0
281
     0
  7
STANDARD
140
0.18
170
     2
 62
     0
 63
     7
283
     0
274
    -2
284
     1
 64
     0
275
    -2
285
     1
 65
     0
276
    -2
286
     1
 66
     0
277
    -2
287
     1
 67
     0
278
    -2
288
     1
 68
     0
279
    -2
289
     1
 69
     0
  7
STANDARD
140
0.25
170
     5
 62
     0
 63
     7
283
     0
274
    -2
284
     1
 64
     0
275
    -2
285
     1
 65
     0
276
    -2
286
     1
 66
     0
277
    -2
287
     1
 67
     0
278
    -2
288
     1
 68
     0
279
    -2
289
     1
 69
     0
  7
STANDARD
140
0.18
170
     5
 62
     0
 63
     7
283
     0
274
    -2
284
     1
 64
     0
275
    -2
285
     1
 65
     0
276
    -2
286
     1
 66
     0
277
    -2
287
     1
 67
     0
278
    -2
288
     1
 68
     0
279
    -2
289
     1
 69
     0
  0
DICTIONARYVAR
  5
1D2
102
{ACAD_REACTORS
330
1D1
102
}
330
1D1
100
DictionaryVariables
280
     0
  1
STANDARD
  0
DICTIONARYVAR
  5
D03
102
{ACAD_REACTORS
330
1D1
102
}
330
1D1
100
DictionaryVariables
280
     0
  1
1
  0
DICTIONARYVAR
  5
D04
102
{ACAD_REACTORS
330
1D1
102
}
330
1D1
100
DictionaryVariables
280
     0
  1

  0
DICTIONARY
  5
7D2E
330
5A
100
AcDbDictionary
280
     1
281
     1
  3
ACAD_XREC_ROUNDTRIP
360
7D2F
  0
DICTIONARY
  5
7D30
330
5B
100
AcDbDictionary
280
     1
281
     1
  3
ACAD_XREC_ROUNDTRIP
360
7D31
  0
XRECORD
  5
7D2F
102
{ACAD_REACTORS
330
7D2E
102
}
330
7D2E
100
AcDbXrecord
280
     1
102
SHADEPLOT
 70
     0
102
SHADEPLOTRESLEVEL
 70
     2
102
SHADEPLOTCUSTOMDPI
 70
   300
  0
XRECORD
  5
7D31
102
{ACAD_REACTORS
330
7D30
102
}
330
7D30
100
AcDbXrecord
280
     1
102
SHADEPLOT
 70
     0
102
SHADEPLOTRESLEVEL
 70
     2
102
SHADEPLOTCUSTOMDPI
 70
   300
  0
ENDSEC
  0
EOF
