  0
SECTION
  2
HEADER
  9
$ACADVER
  1
AC1015
  9
$ACADMAINTVER
 70
    20
  9
$DWGCODEPAGE
  3
ANSI_932
  9
$INSBASE
 10
922.019522
 20
-675.4306699999999
 30
0.0
  9
$EXTMIN
 10
-112.7989370807892
 20
-0.0045292325963828
 30
-0.0000000000112498
  9
$EXTMAX
 10
229.3135164368589
 20
95.23832827373974
 30
0.0000000000002956
  9
$LIMMIN
 10
0.0
 20
0.0
  9
$LIMMAX
 10
420.0
 20
297.0
  9
$ORTHOMODE
 70
     1
  9
$REGENMODE
 70
     1
  9
$FILLMODE
 70
     1
  9
$QTEXTMODE
 70
     0
  9
$MIRRTEXT
 70
     1
  9
$LTSCALE
 40
1.0
  9
$ATTMODE
 70
     1
  9
$TEXTSIZE
 40
30.0
  9
$TRACEWID
 40
0.05
  9
$TEXTSTYLE
  7
SUNPOU
  9
$CLAYER
  8
0
  9
$CELTYPE
  6
BYLAYER
  9
$CECOLOR
 62
   256
  9
$CELTSCALE
 40
1.0
  9
$DISPSILH
 70
     0
  9
$DIMSCALE
 40
1.0
  9
$DIMASZ
 40
2.0
  9
$DIMEXO
 40
10.0
  9
$DIMDLI
 40
0.38
  9
$DIMRND
 40
0.0
  9
$DIMDLE
 40
0.0
  9
$DIMEXE
 40
0.0
  9
$DIMTP
 40
0.0
  9
$DIMTM
 40
0.0
  9
$DIMTXT
 40
5.0
  9
$DIMCEN
 40
0.0
  9
$DIMTSZ
 40
0.0
  9
$DIMTOL
 70
     0
  9
$DIMLIM
 70
     0
  9
$DIMTIH
 70
     0
  9
$DIMTOH
 70
     0
  9
$DIMSE1
 70
     0
  9
$DIMSE2
 70
     0
  9
$DIMTAD
 70
     1
  9
$DIMZIN
 70
     0
  9
$DIMBLK
  1
Dot
  9
$DIMASO
 70
     1
  9
$DIMSHO
 70
     1
  9
$DIMPOST
  1

  9
$DIMAPOST
  1

  9
$DIMALT
 70
     0
  9
$DIMALTD
 70
     2
  9
$DIMALTF
 40
25.4
  9
$DIMLFAC
 40
1.0
  9
$DIMTOFL
 70
     0
  9
$DIMTVP
 40
0.0
  9
$DIMTIX
 70
     0
  9
$DIMSOXD
 70
     0
  9
$DIMSAH
 70
     0
  9
$DIMBLK1
  1

  9
$DIMBLK2
  1

  9
$DIMSTYLE
  2
STANDARD
  9
$DIMCLRD
 70
    60
  9
$DIMCLRE
 70
    70
  9
$DIMCLRT
 70
    60
  9
$DIMTFAC
 40
0.064286
  9
$DIMGAP
 40
3.0
  9
$DIMJUST
 70
     0
  9
$DIMSD1
 70
     0
  9
$DIMSD2
 70
     0
  9
$DIMTOLJ
 70
     1
  9
$DIMTZIN
 70
     0
  9
$DIMALTZ
 70
     0
  9
$DIMALTTZ
 70
     0
  9
$DIMUPT
 70
     0
  9
$DIMDEC
 70
     0
  9
$DIMTDEC
 70
     0
  9
$DIMALTU
 70
     2
  9
$DIMALTTD
 70
     2
  9
$DIMTXSTY
  7
SUNPOU
  9
$DIMAUNIT
 70
     0
  9
$DIMADEC
 70
     0
  9
$DIMALTRND
 40
0.0
  9
$DIMAZIN
 70
     0
  9
$DIMDSEP
 70
    46
  9
$DIMATFIT
 70
     3
  9
$DIMFRAC
 70
     0
  9
$DIMLDRBLK
  1

  9
$DIMLUNIT
 70
     2
  9
$DIMLWD
 70
    -2
  9
$DIMLWE
 70
    -2
  9
$DIMTMOVE
 70
     0
  9
$LUNITS
 70
     2
  9
$LUPREC
 70
     5
  9
$SKETCHINC
 40
0.1
  9
$FILLETRAD
 40
0.0
  9
$AUNITS
 70
     0
  9
$AUPREC
 70
     0
  9
$MENU
  1
acad
  9
$ELEVATION
 40
0.0
  9
$PELEVATION
 40
0.0
  9
$THICKNESS
 40
0.0
  9
$LIMCHECK
 70
     0
  9
$CHAMFERA
 40
0.0
  9
$CHAMFERB
 40
0.0
  9
$CHAMFERC
 40
0.0
  9
$CHAMFERD
 40
0.0
  9
$SKPOLY
 70
     0
  9
$TDCREATE
 40
2450623.654673033
  9
$TDUCREATE
 40
2450623.279673032
  9
$TDUPDATE
 40
2453873.537819687
  9
$TDUUPDATE
 40
2453873.162819687
  9
$TDINDWG
 40
1.2072124653
  9
$TDUSRTIMER
 40
1.2072122917
  9
$USRTIMER
 70
     1
  9
$ANGBASE
 50
0.0
  9
$ANGDIR
 70
     0
  9
$PDMODE
 70
     0
  9
$PDSIZE
 40
0.0
  9
$PLINEWID
 40
0.0
  9
$SPLFRAME
 70
     0
  9
$SPLINETYPE
 70
     6
  9
$SPLINESEGS
 70
     8
  9
$HANDSEED
  5
7A11
  9
$SURFTAB1
 70
     6
  9
$SURFTAB2
 70
     6
  9
$SURFTYPE
 70
     6
  9
$SURFU
 70
     6
  9
$SURFV
 70
     6
  9
$UCSBASE
  2

  9
$UCSNAME
  2

  9
$UCSORG
 10
0.0
 20
0.0
 30
0.0
  9
$UCSXDIR
 10
1.0
 20
0.0
 30
0.0
  9
$UCSYDIR
 10
0.0
 20
1.0
 30
0.0
  9
$UCSORTHOREF
  2

  9
$UCSORTHOVIEW
 70
     0
  9
$UCSORGTOP
 10
0.0
 20
0.0
 30
0.0
  9
$UCSORGBOTTOM
 10
0.0
 20
0.0
 30
0.0
  9
$UCSORGLEFT
 10
0.0
 20
0.0
 30
0.0
  9
$UCSORGRIGHT
 10
0.0
 20
0.0
 30
0.0
  9
$UCSORGFRONT
 10
0.0
 20
0.0
 30
0.0
  9
$UCSORGBACK
 10
0.0
 20
0.0
 30
0.0
  9
$PUCSBASE
  2

  9
$PUCSNAME
  2

  9
$PUCSORG
 10
0.0
 20
0.0
 30
0.0
  9
$PUCSXDIR
 10
1.0
 20
0.0
 30
0.0
  9
$PUCSYDIR
 10
0.0
 20
1.0
 30
0.0
  9
$PUCSORTHOREF
  2

  9
$PUCSORTHOVIEW
 70
     0
  9
$PUCSORGTOP
 10
0.0
 20
0.0
 30
0.0
  9
$PUCSORGBOTTOM
 10
0.0
 20
0.0
 30
0.0
  9
$PUCSORGLEFT
 10
0.0
 20
0.0
 30
0.0
  9
$PUCSORGRIGHT
 10
0.0
 20
0.0
 30
0.0
  9
$PUCSORGFRONT
 10
0.0
 20
0.0
 30
0.0
  9
$PUCSORGBACK
 10
0.0
 20
0.0
 30
0.0
  9
$USERI1
 70
     0
  9
$USERI2
 70
     0
  9
$USERI3
 70
     0
  9
$USERI4
 70
     0
  9
$USERI5
 70
     0
  9
$USERR1
 40
0.0
  9
$USERR2
 40
0.0
  9
$USERR3
 40
0.0
  9
$USERR4
 40
0.0
  9
$USERR5
 40
0.0
  9
$WORLDVIEW
 70
     1
  9
$SHADEDGE
 70
     3
  9
$SHADEDIF
 70
    70
  9
$TILEMODE
 70
     1
  9
$MAXACTVP
 70
    16
  9
$PINSBASE
 10
0.0
 20
0.0
 30
0.0
  9
$PLIMCHECK
 70
     0
  9
$PEXTMIN
 10
1.000000000000000E+20
 20
1.000000000000000E+20
 30
1.000000000000000E+20
  9
$PEXTMAX
 10
-1.000000000000000E+20
 20
-1.000000000000000E+20
 30
-1.000000000000000E+20
  9
$PLIMMIN
 10
0.0
 20
0.0
  9
$PLIMMAX
 10
12.0
 20
9.0
  9
$UNITMODE
 70
     0
  9
$VISRETAIN
 70
     0
  9
$PLINEGEN
 70
     0
  9
$PSLTSCALE
 70
     1
  9
$TREEDEPTH
 70
  3020
  9
$CMLSTYLE
  2
STANDARD
  9
$CMLJUST
 70
     0
  9
$CMLSCALE
 40
1.0
  9
$PROXYGRAPHICS
 70
     1
  9
$MEASUREMENT
 70
     0
  9
$CELWEIGHT
370
    -1
  9
$ENDCAPS
280
     0
  9
$JOINSTYLE
280
     0
  9
$LWDISPLAY
290
     0
  9
$INSUNITS
 70
     0
  9
$HYPERLINKBASE
  1

  9
$STYLESHEET
  1

  9
$XEDIT
290
     1
  9
$CEPSNTYPE
380
     0
  9
$PSTYLEMODE
290
     1
  9
$FINGERPRINTGUID
  2
{FB88A696-E29C-4009-92AF-A3599A8169D5}
  9
$VERSIONGUID
  2
{767AD776-DB30-4B7E-B5AE-72D594F77C35}
  9
$EXTNAMES
290
     1
  9
$PSVPSCALE
 40
0.0
  9
$OLESTARTUP
290
     0
  0
ENDSEC
  0
SECTION
  2
CLASSES
  0
CLASS
  1
DICTIONARYVAR
  2
AcDbDictionaryVar
  3
ObjectDBX Classes
 90
        0
280
     0
281
     0
  0
CLASS
  1
ACDBDICTIONARYWDFLT
  2
AcDbDictionaryWithDefault
  3
ObjectDBX Classes
 90
        0
280
     0
281
     0
  0
CLASS
  1
ACDBPLACEHOLDER
  2
AcDbPlaceHolder
  3
ObjectDBX Classes
 90
        0
280
     0
281
     0
  0
CLASS
  1
LAYOUT
  2
AcDbLayout
  3
ObjectDBX Classes
 90
        0
280
     0
281
     0
  0
CLASS
  1
TABLESTYLE
  2
AcDbTableStyle
  3
ObjectDBX Classes
 90
     2047
280
     0
281
     0
  0
CLASS
  1
SORTENTSTABLE
  2
AcDbSortentsTable
  3
ObjectDBX Classes
 90
        0
280
     0
281
     0
  0
ENDSEC
  0
SECTION
  2
TABLES
  0
TABLE
  2
VPORT
  5
12
330
0
100
AcDbSymbolTable
 70
    28
  0
VPORT
  5
7A0B
330
12
100
AcDbSymbolTableRecord
100
AcDbViewportTableRecord
  2
*Active
 70
     0
 10
0.0
 20
0.0
 11
1.0
 21
1.0
 12
58.25728967803485
 22
47.61689952057167
 13
0.0
 23
0.0
 14
1.0
 24
1.0
 15
0.0
 25
0.0
 16
0.0
 26
0.0
 36
1.0
 17
0.0
 27
0.0
 37
0.0
 40
220.3655648566999
 41
1.560102301790281
 42
50.0
 43
0.0
 44
0.0
 50
0.0
 51
0.0
 71
     0
 72
 20000
 73
     1
 74
     1
 75
     0
 76
     0
 77
     0
 78
     0
281
     0
 65
     1
110
0.0
120
0.0
130
0.0
111
1.0
121
0.0
131
0.0
112
0.0
122
1.0
132
0.0
 79
     0
146
0.0
  0
ENDTAB
  0
TABLE
  2
LTYPE
  5
D
330
0
100
AcDbSymbolTable
 70
     2
  0
LTYPE
  5
E
330
D
100
AcDbSymbolTableRecord
100
AcDbLinetypeTableRecord
  2
BYBLOCK
 70
     0
  3

 72
    65
 73
     0
 40
0.0
  0
LTYPE
  5
F
330
D
100
AcDbSymbolTableRecord
100
AcDbLinetypeTableRecord
  2
BYLAYER
 70
     0
  3

 72
    65
 73
     0
 40
0.0
  0
LTYPE
  5
5
330
D
100
AcDbSymbolTableRecord
100
AcDbLinetypeTableRecord
  2
CONTINUOUS
 70
     0
  3
Solid line
 72
    65
 73
     0
 40
0.0
  0
ENDTAB
  0
TABLE
  2
LAYER
  5
A
102
{ACAD_XDICTIONARY
360
1B4
102
}
330
0
100
AcDbSymbolTable
 70
     6
  0
LAYER
  5
4
330
A
100
AcDbSymbolTableRecord
100
AcDbLayerTableRecord
  2
0
 70
     0
 62
     7
  6
CONTINUOUS
370
    -3
390
57
  0
LAYER
  5
25
330
A
100
AcDbSymbolTableRecord
100
AcDbLayerTableRecord
  2
KIJUN
 70
     0
 62
     7
  6
CONTINUOUS
370
    -3
390
57
  0
LAYER
  5
22
330
A
100
AcDbSymbolTableRecord
100
AcDbLayerTableRecord
  2
HOJO
 70
     0
 62
     3
  6
CONTINUOUS
370
    -3
390
57
  0
LAYER
  5
1B
330
A
100
AcDbSymbolTableRecord
100
AcDbLayerTableRecord
  2
WAKU
 70
     0
 62
     1
  6
CONTINUOUS
370
    -3
390
57
  0
LAYER
  5
31
330
A
100
AcDbSymbolTableRecord
100
AcDbLayerTableRecord
  2
DEFPOINTS
 70
     0
 62
     7
  6
CONTINUOUS
290
     0
370
    -3
390
57
  0
LAYER
  5
28
330
A
100
AcDbSymbolTableRecord
100
AcDbLayerTableRecord
  2
SUNPOU
 70
     0
 62
    70
  6
CONTINUOUS
370
    -3
390
57
  0
ENDTAB
  0
TABLE
  2
STYLE
  5
B
330
0
100
AcDbSymbolTable
 70
     2
  0
STYLE
  5
C
330
B
100
AcDbSymbolTableRecord
100
AcDbTextStyleTableRecord
  2
STANDARD
 70
     0
 40
0.0
 41
1.0
 50
0.0
 71
     0
 42
0.2
  3
txt
  4

  0
STYLE
  5
1C
330
B
100
AcDbSymbolTableRecord
100
AcDbTextStyleTableRecord
  2
SUNPOU
 70
     0
 40
0.0
 41
1.0
 50
0.0
 71
     0
 42
30.0
  3
txt
  4
bigfont
  0
ENDTAB
  0
TABLE
  2
VIEW
  5
10
330
0
100
AcDbSymbolTable
 70
     0
  0
ENDTAB
  0
TABLE
  2
UCS
  5
11
330
0
100
AcDbSymbolTable
 70
     0
  0
ENDTAB
  0
TABLE
  2
APPID
  5
14
330
0
100
AcDbSymbolTable
 70
    10
  0
APPID
  5
15
330
14
100
AcDbSymbolTableRecord
100
AcDbRegAppTableRecord
  2
ACAD
 70
     0
  0
APPID
  5
1D3
330
14
100
AcDbSymbolTableRecord
100
AcDbRegAppTableRecord
  2
ACAD_DSTYLE_DIMTEXT_FILL
 70
     0
  0
APPID
  5
1D4
330
14
100
AcDbSymbolTableRecord
100
AcDbRegAppTableRecord
  2
ACAD_DSTYLE_DIMEXT_LENGTH
 70
     0
  0
APPID
  5
1D5
330
14
100
AcDbSymbolTableRecord
100
AcDbRegAppTableRecord
  2
ACAD_DSTYLE_DIMEXT_ENABLED
 70
     0
  0
APPID
  5
1D6
330
14
100
AcDbSymbolTableRecord
100
AcDbRegAppTableRecord
  2
ACAD_DSTYLE_DIM_LINETYPE
 70
     0
  0
APPID
  5
1D7
330
14
100
AcDbSymbolTableRecord
100
AcDbRegAppTableRecord
  2
ACAD_DSTYLE_DIM_EXT1_LINETYPE
 70
     0
  0
APPID
  5
1D8
330
14
100
AcDbSymbolTableRecord
100
AcDbRegAppTableRecord
  2
ACAD_DSTYLE_DIM_EXT2_LINETYPE
 70
     0
  0
APPID
  5
294
330
14
100
AcDbSymbolTableRecord
100
AcDbRegAppTableRecord
  2
ACAD_DSTYLE_DIMJOGGED_JOGANGLE_SYMBOL
 70
     0
  0
APPID
  5
478
330
14
100
AcDbSymbolTableRecord
100
AcDbRegAppTableRecord
  2
ACAD_DSTYLE_DIMARC_LENGTH_SYMBOL
 70
     0
  0
APPID
  5
F55
330
14
100
AcDbSymbolTableRecord
100
AcDbRegAppTableRecord
  2
ACAD_EXEMPT_FROM_CAD_STANDARDS
 70
     0
  0
ENDTAB
  0
TABLE
  2
DIMSTYLE
  5
16
330
0
100
AcDbSymbolTable
 70
     3
100
AcDbDimStyleTable
 71
     1
340
1E
  0
DIMSTYLE
105
1E
102
{ACAD_REACTORS
330
786C
330
7879
102
}
330
16
100
AcDbSymbolTableRecord
100
AcDbDimStyleTableRecord
  2
STANDARD
 70
     0
340
C
  0
ENDTAB
  0
TABLE
  2
BLOCK_RECORD
  5
1
330
0
100
AcDbSymbolTable
 70
    19
  0
BLOCK_RECORD
  5
2
102
{ACAD_XDICTIONARY
360
D13
102
}
330
1
100
AcDbSymbolTableRecord
100
AcDbBlockTableRecord
  2
*MODEL_SPACE
340
5A
  0
BLOCK_RECORD
  5
7
330
1
100
AcDbSymbolTableRecord
100
AcDbBlockTableRecord
  2
*PAPER_SPACE
340
5B
  0
BLOCK_RECORD
  5
109
330
1
100
AcDbSymbolTableRecord
100
AcDbBlockTableRecord
  2
_Dot
340
0
102
{BLKREFS
331
6DC2
331
6DC3
331
6DDD
331
6DDE
331
6EC4
331
6EC5
331
6EDF
331
6EE0
331
705E
331
705F
331
7067
331
7068
331
7161
331
7162
331
716A
331
716B
331
750E
331
750F
331
777A
331
777B
331
778C
331
778D
331
79DB
331
79DC
331
79FE
331
79FF
102
}
  0
BLOCK_RECORD
  5
786D
330
1
100
AcDbSymbolTableRecord
100
AcDbBlockTableRecord
  2
*D17
340
0
  0
BLOCK_RECORD
  5
787A
330
1
100
AcDbSymbolTableRecord
100
AcDbBlockTableRecord
  2
*D18
340
0
  0
ENDTAB
  0
ENDSEC
  0
SECTION
  2
BLOCKS
  0
BLOCK
  5
3
330
2
100
AcDbEntity
  8
0
100
AcDbBlockBegin
  2
*MODEL_SPACE
 70
     0
 10
0.0
 20
0.0
 30
0.0
  3
*MODEL_SPACE
  1

  0
ENDBLK
  5
6
330
2
100
AcDbEntity
  8
0
100
AcDbBlockEnd
  0
BLOCK
  5
8
330
7
100
AcDbEntity
 67
     1
  8
0
100
AcDbBlockBegin
  2
*PAPER_SPACE
 70
     0
 10
0.0
 20
0.0
 30
0.0
  3
*PAPER_SPACE
  1

  0
ENDBLK
  5
9
330
7
100
AcDbEntity
 67
     1
  8
0
100
AcDbBlockEnd
  0
BLOCK
  5
10C
330
109
100
AcDbEntity
  8
0
100
AcDbBlockBegin
  2
_Dot
 70
     0
 10
0.0
 20
0.0
 30
0.0
  3
_Dot
  1

  0
LWPOLYLINE
  5
10A
330
109
100
AcDbEntity
  8
0
  6
ByBlock
 62
     0
100
AcDbPolyline
 90
        2
 70
     1
 43
0.5
 10
-0.25
 20
0.0
 42
1.0
 10
0.25
 20
0.0
 42
1.0
  0
LINE
  5
10B
330
109
100
AcDbEntity
  8
0
  6
ByBlock
 62
     0
370
    -2
100
AcDbLine
 10
-0.5
 20
0.0
 30
0.0
 11
-1.0
 21
0.0
 31
0.0
  0
ENDBLK
  5
10D
330
109
100
AcDbEntity
  8
0
100
AcDbBlockEnd
  0
BLOCK
  5
7877
330
786D
100
AcDbEntity
  8
0
100
AcDbBlockBegin
  2
*D17
 70
     1
 10
0.0
 20
0.0
 30
0.0
  3
*D17
  1

  0
LINE
  5
79D8
330
786D
100
AcDbEntity
  8
SUNPOU
 62
    70
370
    -2
100
AcDbLine
 10
-86.69303963673712
 20
75.63851014243123
 30
0.0
 11
-86.69303963673712
 21
87.22544947373581
 31
0.0
  0
LINE
  5
79D9
330
786D
100
AcDbEntity
  8
SUNPOU
 62
    70
370
    -2
100
AcDbLine
 10
228.3069603632633
 20
71.61035716450436
 30
0.0
 11
228.3069603632633
 21
87.22544947373581
 31
0.0
  0
LINE
  5
79DA
330
786D
100
AcDbEntity
  8
SUNPOU
 62
    60
370
    -2
100
AcDbLine
 10
-84.69303963673713
 20
87.22544947373581
 30
0.0
 11
226.3069603632633
 21
87.22544947373581
 31
0.0
  0
INSERT
  5
79DB
330
786D
100
AcDbEntity
  8
SUNPOU
 62
    60
370
    -2
100
AcDbBlockReference
  2
_Dot
 10
-86.69303963673712
 20
87.22544947373581
 30
0.0
 41
2.0
 42
2.0
 43
2.0
 50
180.0
  0
INSERT
  5
79DC
330
786D
100
AcDbEntity
  8
SUNPOU
 62
    60
370
    -2
100
AcDbBlockReference
  2
_Dot
 10
228.3069603632633
 20
87.22544947373581
 30
0.0
 41
2.0
 42
2.0
 43
2.0
  0
MTEXT
  5
79DD
330
786D
100
AcDbEntity
  8
SUNPOU
 62
    60
100
AcDbMText
 10
70.80696036326307
 20
92.7254494737358
 30
0.0
 40
5.0
 41
0.0
 71
     5
 72
     1
  1
\A1;315
  7
SUNPOU
 73
     1
 44
1.0
1001
ACAD
1000
MTEXTBEGIN
1070
    73
1070
     1
1070
    44
1040
1.0
1070
    74
1070
     0
1000
MTEXTEND
  0
POINT
  5
79DE
330
786D
100
AcDbEntity
  8
DEFPOINTS
 62
     0
100
AcDbPoint
 10
-86.69303963673712
 20
65.63851014243123
 30
0.0
  0
POINT
  5
79DF
330
786D
100
AcDbEntity
  8
DEFPOINTS
 62
     0
100
AcDbPoint
 10
228.3069603632633
 20
61.61035716450436
 30
0.0
  0
POINT
  5
79E0
330
786D
100
AcDbEntity
  8
DEFPOINTS
 62
     0
100
AcDbPoint
 10
228.3069603632633
 20
87.22544947373581
 30
0.0
  0
ENDBLK
  5
7878
330
786D
100
AcDbEntity
  8
0
100
AcDbBlockEnd
  0
BLOCK
  5
7884
330
787A
100
AcDbEntity
  8
0
100
AcDbBlockBegin
  2
*D18
 70
     1
 10
0.0
 20
0.0
 30
0.0
  3
*D18
  1

  0
LINE
  5
79FB
330
787A
100
AcDbEntity
  8
SUNPOU
 62
    70
370
    -2
100
AcDbLine
 10
-96.69303963673712
 20
65.63851014243124
 30
0.0
 11
-104.7972695316506
 21
65.63851014243124
 31
0.0
  0
LINE
  5
79FC
330
787A
100
AcDbEntity
  8
SUNPOU
 62
    70
370
    -2
100
AcDbLine
 10
-94.38152842522596
 20
33.63851014243121
 30
0.0
 11
-104.7972695316506
 21
33.63851014243121
 31
0.0
  0
LINE
  5
79FD
330
787A
100
AcDbEntity
  8
SUNPOU
 62
    60
370
    -2
100
AcDbLine
 10
-104.7972695316506
 20
63.63851014243124
 30
0.0
 11
-104.7972695316506
 21
35.63851014243121
 31
0.0
  0
INSERT
  5
79FE
330
787A
100
AcDbEntity
  8
SUNPOU
 62
    60
370
    -2
100
AcDbBlockReference
  2
_Dot
 10
-104.7972695316506
 20
65.63851014243124
 30
0.0
 41
2.0
 42
2.0
 43
2.0
 50
90.0
  0
INSERT
  5
79FF
330
787A
100
AcDbEntity
  8
SUNPOU
 62
    60
370
    -2
100
AcDbBlockReference
  2
_Dot
 10
-104.7972695316506
 20
33.63851014243121
 30
0.0
 41
2.0
 42
2.0
 43
2.0
 50
270.0
  0
MTEXT
  5
7A00
330
787A
100
AcDbEntity
  8
SUNPOU
 62
    60
100
AcDbMText
 10
-110.2972695316506
 20
49.63851014243121
 30
0.0
 40
5.0
 41
0.0
 71
     5
 72
     1
  1
\A1;32
  7
SUNPOU
 11
0.0000000000000001
 21
1.0
 31
0.0
 73
     1
 44
1.0
1001
ACAD
1000
MTEXTBEGIN
1070
    73
1070
     1
1070
    44
1040
1.0
1070
    74
1070
     0
1000
MTEXTEND
  0
POINT
  5
7A01
330
787A
100
AcDbEntity
  8
DEFPOINTS
 62
     0
100
AcDbPoint
 10
-86.69303963673712
 20
65.63851014243123
 30
0.0
  0
POINT
  5
7A02
330
787A
100
AcDbEntity
  8
DEFPOINTS
 62
     0
100
AcDbPoint
 10
-84.38152842522596
 20
33.63851014243121
 30
0.0
  0
POINT
  5
7A03
330
787A
100
AcDbEntity
  8
DEFPOINTS
 62
     0
100
AcDbPoint
 10
-104.7972695316506
 20
33.63851014243121
 30
0.0
  0
ENDBLK
  5
7885
330
787A
100
AcDbEntity
  8
0
100
AcDbBlockEnd
  0
ENDSEC
  0
SECTION
  2
ENTITIES
  0
LINE
  5
1F
330
2
100
AcDbEntity
  8
WAKU
100
AcDbLine
 10
0.0
 20
14.0
 30
0.0
 11
133.4211017667494
 21
13.99999999999999
 31
0.0
  0
LINE
  5
20
330
2
100
AcDbEntity
  8
WAKU
100
AcDbLine
 10
0.0
 20
0.0
 30
0.0
 11
133.4211017667494
 21
0.0
 31
0.0
  0
TEXT
  5
21
330
2
100
AcDbEntity
  8
HOJO
100
AcDbText
 10
9.653966000000025
 20
2.366626000000024
 30
0.0
 40
9.0
  1
TC319
  7
SUNPOU
100
AcDbText
  0
TEXT
  5
23
330
2
100
AcDbEntity
  8
HOJO
100
AcDbText
 10
75.8077226877416
 20
5.044386000000031
 30
0.0
 40
6.0
  1
315×32×6
  7
SUNPOU
100
AcDbText
  0
SPLINE
  5
7809
102
{ACAD_REACTORS
330
7A04
102
}
330
2
100
AcDbEntity
  8
KIJUN
100
AcDbSpline
210
0.0
220
0.0
230
1.0
 70
     8
 71
     3
 72
     9
 73
     5
 74
     3
 42
0.0000000001
 43
0.0000000001
 44
0.0000000001
 40
0.0
 40
0.0
 40
0.0
 40
0.0
 40
2.92674056585744
 40
7.298756002521527
 40
7.298756002521527
 40
7.298756002521527
 40
7.298756002521527
 10
76.20017075524029
 20
56.78797839595564
 30
0.0
 10
75.47733209261116
 20
56.31099653290135
 30
0.0
 10
73.6747045931788
 20
55.12149095229943
 30
0.0
 10
72.69088665349591
 20
53.17770649769323
 30
0.0
 10
72.10157154038973
 20
52.01336347291611
 30
0.0
 11
76.20017075524029
 21
56.78797839595564
 31
0.0
 11
74.16331471190614
 21
55.23574903140616
 31
0.0
 11
72.10157154038973
 21
52.01336347291611
 31
0.0
  0
SPLINE
  5
780A
102
{ACAD_REACTORS
330
7A04
102
}
330
2
100
AcDbEntity
  8
KIJUN
100
AcDbSpline
210
0.0
220
0.0
230
1.0
 70
     8
 71
     3
 72
    13
 73
     9
 74
     0
 42
0.0000000001
 43
0.0000000001
 40
0.0
 40
0.0
 40
0.0
 40
0.0
 40
1.646944584737851
 40
3.984442232655265
 40
6.239227039260644
 40
9.266778830475235
 40
11.33679546669902
 40
11.34117233500707
 40
11.34117233500707
 40
11.34117233500707
 40
11.34117233500707
 10
78.806960063263
 20
53.64398458560486
 30
0.0
 10
78.43063754750716
 20
53.23228015741412
 30
0.0
 10
77.52020295318505
 20
52.23624633438396
 30
0.0
 10
75.47461680122186
 20
51.62512971129375
 30
0.0
 10
72.98459002804818
 20
50.9151433454888
 30
0.0
 10
71.45028757191553
 20
48.77438924397918
 30
0.0
 10
70.93335227969473
 20
47.14629126501061
 30
0.0
 10
70.80722610943294
 20
46.47252160392618
 30
0.0
 10
70.8069603632631
 20
46.47109993056868
 30
0.0
  0
SPLINE
  5
780D
102
{ACAD_REACTORS
330
7A04
102
}
330
2
100
AcDbEntity
  8
KIJUN
100
AcDbSpline
210
0.0
220
0.0
230
1.0
 70
     8
 71
     3
 72
    10
 73
     6
 74
     4
 42
0.0000000001
 43
0.0000000001
 44
0.0000000001
 40
0.0
 40
0.0
 40
0.0
 40
0.0
 40
4.616462544646867
 40
15.73594570360518
 40
27.74007253988099
 40
27.74007253988099
 40
27.74007253988099
 40
27.74007253988099
 10
-26.69303598048652
 20
48.64398477310499
 30
0.0
 10
-26.10369048717483
 20
47.42532711203141
 30
0.0
 10
-24.09481278184819
 20
43.27133894458206
 30
0.0
 10
-17.1198841398311
 20
38.21299703654624
 30
0.0
 10
-10.51098543166804
 20
36.79836633705502
 30
0.0
 10
-7.080117225655214
 20
36.06399110988754
 30
0.0
 11
-26.69303598048652
 21
48.64398477310499
 31
0.0
 11
-24.75736406855373
 21
45.09857015780845
 31
0.0
 11
-17.15854715305119
 21
39.02221589078678
 31
0.0
 11
-7.080117225655214
 21
36.06399110988754
 31
0.0
  0
SPLINE
  5
780E
102
{ACAD_REACTORS
330
7A04
102
}
330
2
100
AcDbEntity
  8
KIJUN
100
AcDbSpline
210
0.0
220
0.0
230
1.0
 70
     8
 71
     3
 72
    10
 73
     6
 74
     4
 42
0.0000000001
 43
0.0000000001
 44
0.0000000001
 40
0.0
 40
0.0
 40
0.0
 40
0.0
 40
5.29763561159632
 40
13.74710792860434
 40
25.54148252402272
 40
25.54148252402272
 40
25.54148252402272
 40
25.54148252402272
 10
-28.30523320872095
 20
49.97920624403723
 30
0.0
 10
-28.15079538344097
 20
48.42371339252995
 30
0.0
 10
-27.7500367039018
 20
44.38728475160277
 30
0.0
 10
-22.43916866642383
 20
38.2095873130095
 30
0.0
 10
-16.52491600861847
 20
37.00541586311653
 30
0.0
 10
-13.07918202338044
 20
36.30384717320377
 30
0.0
 11
-28.30523320872095
 21
49.97920624403723
 31
0.0
 11
-27.47693979549706
 21
45.41837824222992
 31
0.0
 11
-22.83766234815772
 21
39.66183272264242
 31
0.0
 11
-13.07918202338044
 21
36.30384717320377
 31
0.0
  0
SPLINE
  5
780F
102
{ACAD_REACTORS
330
7A04
102
}
330
2
100
AcDbEntity
  8
KIJUN
100
AcDbSpline
210
0.0
220
0.0
230
1.0
 70
     8
 71
     3
 72
    12
 73
     8
 74
     6
 42
0.0000000001
 43
0.0000000001
 44
0.0000000001
 40
0.0
 40
0.0
 40
0.0
 40
0.0
 40
4.650647184434989
 40
15.27987541464878
 40
24.2701811761636
 40
34.94309948786329
 40
41.47623277299386
 40
41.47623277299386
 40
41.47623277299386
 40
41.47623277299386
 10
-54.69303493048667
 20
43.64398496060482
 30
0.0
 10
-53.48209738368129
 20
44.26578934534231
 30
0.0
 10
-49.50351674397309
 20
46.30875092773666
 30
0.0
 10
-42.03619522603149
 20
46.62223538466936
 30
0.0
 10
-33.67748445893111
 20
43.51342851919867
 30
0.0
 10
-27.3036977639253
 20
39.12637407415017
 30
0.0
 10
-22.44344697631984
 20
37.77600587719645
 30
0.0
 10
-20.59801102514342
 20
37.26327142646836
 30
0.0
 11
-54.69303493048667
 21
43.64398496060482
 31
0.0
 11
-50.99327766098221
 21
45.33842622112447
 31
0.0
 11
-41.71472276630353
 21
45.97804238996761
 31
0.0
 11
-34.27588167828091
 21
43.41957771459537
 31
0.0
 11
-26.03716453137022
 21
39.02221589078678
 31
0.0
 11
-20.59801102514342
 21
37.26327142646836
 31
0.0
  0
ARC
  5
7810
102
{ACAD_REACTORS
330
7A04
102
}
330
2
100
AcDbEntity
  8
KIJUN
100
AcDbCircle
 10
-5.465657509183558
 20
111.0445770395869
 30
0.0
 40
77.40606689715574
100
AcDbArc
 50
242.086615014514
 51
296.2811177554916
  0
SPLINE
  5
7813
102
{ACAD_REACTORS
330
7A04
102
}
330
2
100
AcDbEntity
  8
KIJUN
100
AcDbSpline
210
0.0
220
0.0
230
1.0
 70
     8
 71
     3
 72
    11
 73
     7
 74
     5
 42
0.0000000001
 43
0.0000000001
 44
0.0000000001
 40
0.0
 40
0.0
 40
0.0
 40
0.0
 40
1.875831568893617
 40
9.530911215472603
 40
18.3004188757337
 40
21.74841862171193
 40
21.74841862171193
 40
21.74841862171193
 40
21.74841862171193
 10
-76.69303410548696
 20
55.64398451060498
 30
0.0
 10
-76.53871340502576
 20
55.10068175654389
 30
0.0
 10
-75.75462547346771
 20
52.34021519976659
 30
0.0
 10
-69.32546485931467
 20
51.39565677299795
 30
0.0
 10
-63.53526363355143
 20
51.00259935815983
 30
0.0
 10
-60.53871462490352
 20
53.06261205136348
 30
0.0
 10
-59.69303474298644
 20
53.64398458560486
 30
0.0
 11
-76.69303410548696
 21
55.64398451060498
 31
0.0
 11
-76.1307427692397
 21
54.10195114991061
 31
0.0
 11
-69.93085441356831
 21
51.5667595412762
 31
0.0
 11
-62.2749331794975
 21
52.08318731421745
 31
0.0
 11
-59.69303474298644
 21
53.64398458560486
 31
0.0
  0
SPLINE
  5
7814
102
{ACAD_REACTORS
330
7A04
102
}
330
2
100
AcDbEntity
  8
KIJUN
100
AcDbSpline
210
0.0
220
0.0
230
1.0
 70
     8
 71
     3
 72
    11
 73
     7
 74
     5
 42
0.0000000001
 43
0.0000000001
 44
0.0000000001
 40
0.0
 40
0.0
 40
0.0
 40
0.0
 40
3.423206549060468
 40
5.44010637109359
 40
13.18908398117321
 40
17.94476912613587
 40
17.94476912613587
 40
17.94476912613587
 40
17.94476912613587
 10
-86.6930396367371
 20
48.64404641930445
 30
0.0
 10
-86.01009376582494
 20
49.38106561398193
 30
0.0
 10
-84.92476685662015
 20
50.55232500459149
 30
0.0
 10
-81.35665422722835
 20
52.28764581409342
 30
0.0
 10
-76.97040733203619
 20
50.44895376845794
 30
0.0
 10
-73.60585055900045
 20
49.21801985822019
 30
0.0
 10
-72.32626605693482
 20
48.74987975512242
 30
0.0
 11
-86.6930396367371
 21
48.64404641930445
 31
0.0
 11
-84.49119756394996
 21
50.67474775264686
 31
0.0
 11
-82.89425612631575
 21
51.42591512101032
 31
0.0
 11
-76.22468044050214
 21
50.20526789879006
 31
0.0
 11
-72.32626605693482
 21
48.74987975512242
 31
0.0
  0
ARC
  5
7816
102
{ACAD_REACTORS
330
7A04
102
}
330
2
100
AcDbEntity
  8
KIJUN
100
AcDbCircle
 10
-56.1802977213743
 20
47.17582771151147
 30
0.0
 40
3.83221395883517
100
AcDbArc
 50
203.5611690980001
 51
292.8360119293002
  0
SPLINE
  5
7819
102
{ACAD_REACTORS
330
7A04
102
}
330
2
100
AcDbEntity
  8
KIJUN
100
AcDbSpline
210
0.0
220
0.0
230
1.0
 70
     8
 71
     3
 72
     9
 73
     5
 74
     3
 42
0.0000000001
 43
0.0000000001
 44
0.0000000001
 40
0.0
 40
0.0
 40
0.0
 40
0.0
 40
2.04871436076433
 40
5.119807431240372
 40
5.119807431240372
 40
5.119807431240372
 40
5.119807431240372
 10
-54.69303493048667
 20
54.64398454810487
 30
0.0
 10
-54.42901827997117
 20
54.09500172207003
 30
0.0
 10
-53.76923161806867
 20
52.72307481698994
 30
0.0
 10
-52.43406905127105
 20
51.95528628525962
 30
0.0
 10
-51.63317789239056
 20
51.49473184623909
 30
0.0
 11
-54.69303493048667
 21
54.64398454810487
 31
0.0
 11
-53.79284130166531
 21
53.09377293135913
 31
0.0
 11
-51.63317789239056
 21
51.49473184623909
 31
0.0
  0
SPLINE
  5
781A
102
{ACAD_REACTORS
330
7A04
102
}
330
2
100
AcDbEntity
  8
KIJUN
100
AcDbSpline
210
0.0
220
0.0
230
1.0
 70
     8
 71
     3
 72
     9
 73
     5
 74
     3
 42
0.0000000001
 43
0.0000000001
 44
0.0000000001
 40
0.0
 40
0.0
 40
0.0
 40
0.0
 40
2.299041349933259
 40
8.130979755076248
 40
8.130979755076248
 40
8.130979755076248
 40
8.130979755076248
 10
-66.69303448048663
 20
46.64398484810496
 30
0.0
 10
-66.40004662385578
 20
47.25168163140966
 30
0.0
 10
-65.36384154176028
 20
49.40091232811674
 30
0.0
 10
-63.53407233137733
 20
50.9768764237403
 30
0.0
 10
-62.22167190092261
 20
52.10723534864794
 30
0.0
 11
-66.69303448048663
 21
46.64398484810496
 31
0.0
 11
-65.75062701621289
 21
48.421243658519
 31
0.0
 11
-62.22167190092261
 21
52.10723534864794
 31
0.0
  0
SPLINE
  5
781E
102
{ACAD_REACTORS
330
7A04
102
}
330
2
100
AcDbEntity
  8
KIJUN
100
AcDbSpline
210
0.0
220
0.0
230
1.0
 70
     8
 71
     3
 72
    13
 73
     9
 74
     7
 42
0.0000000001
 43
0.0000000001
 44
0.0000000001
 40
0.0
 40
0.0
 40
0.0
 40
0.0
 40
2.341482946521003
 40
8.89458903170424
 40
20.55587389431749
 40
31.6420267884582
 40
37.73028235690407
 40
39.61242211496609
 40
39.61242211496609
 40
39.61242211496609
 40
39.61242211496609
 10
-59.69303474298664
 20
45.64398488560494
 30
0.0
 10
-59.62955580522706
 20
46.35479084118749
 30
0.0
 10
-59.38841842501277
 20
49.05492874549654
 30
0.0
 10
-52.47431982341572
 20
51.31431934609447
 30
0.0
 10
-44.61066349681167
 20
51.83121908839401
 30
0.0
 10
-35.608112789964
 20
50.66790245147375
 30
0.0
 10
-31.54412129647421
 20
46.67640076491116
 30
0.0
 10
-29.48333887622374
 20
45.59402085362465
 30
0.0
 10
-28.99670297336346
 20
45.33842622112447
 30
0.0
 11
-59.69303474298664
 21
45.64398488560494
 31
0.0
 11
-59.31198169546229
 21
47.65703483318069
 31
0.0
 11
-54.35275464550426
 21
50.53530759297449
 31
0.0
 11
-44.19433680436793
 21
51.49473184623909
 31
0.0
 11
-34.75580608220994
 21
49.25607525528832
 31
0.0
 11
-30.43647926366026
 21
46.13794643217839
 31
0.0
 11
-28.99670297336346
 21
45.33842622112447
 31
0.0
  0
ARC
  5
781F
102
{ACAD_REACTORS
330
7A04
102
}
330
2
100
AcDbEntity
  8
KIJUN
100
AcDbCircle
 10
17.81887673549937
 20
55.94903800842583
 30
0.0
 40
11.06531431806127
100
AcDbArc
 50
302.7625162310625
 51
353.2267173527714
  0
SPLINE
  5
7820
102
{ACAD_REACTORS
330
7A04
102
}
330
2
100
AcDbEntity
  8
KIJUN
100
AcDbSpline
210
0.0
220
0.0
230
1.0
 70
     8
 71
     3
 72
    10
 73
     6
 74
     4
 42
0.0000000001
 43
0.0000000001
 44
0.0000000001
 40
0.0
 40
0.0
 40
0.0
 40
0.0
 40
7.137299145766927
 40
27.66041985250419
 40
29.26374792708915
 40
29.26374792708915
 40
29.26374792708915
 40
29.26374792708915
 10
23.806962125763
 20
46.64398484810496
 30
0.0
 10
21.95221357352049
 20
45.70855276512524
 30
0.0
 10
14.7641831115664
 20
42.0833097102552
 30
0.0
 10
5.551344910870739
 20
41.0870726468996
 30
0.0
 10
-0.6634589946127534
 20
42.82004820865744
 30
0.0
 10
-1.113796492427269
 20
42.94562318899868
 30
0.0
 11
23.806962125763
 21
46.64398484810496
 31
0.0
 11
18.14151025666322
 21
44.0163645983513
 31
0.0
 11
0.2411596487182805
 21
42.58195284592794
 31
0.0
 11
-1.113796492427269
 21
42.94562318899868
 31
0.0
  0
SPLINE
  5
7821
102
{ACAD_REACTORS
330
7A04
102
}
330
2
100
AcDbEntity
  8
KIJUN
100
AcDbSpline
210
0.0
220
0.0
230
1.0
 70
     8
 71
     3
 72
    10
 73
     6
 74
     4
 42
0.0000000001
 43
0.0000000001
 44
0.0000000001
 40
0.0
 40
0.0
 40
0.0
 40
0.0
 40
4.020582529960471
 40
16.67138359159129
 40
23.25935179885064
 40
23.25935179885064
 40
23.25935179885064
 40
23.25935179885064
 10
-16.69303635548698
 20
44.64398492310503
 30
0.0
 10
-15.80949905717259
 20
43.85837694852077
 30
0.0
 10
-12.14590327026506
 20
40.6008460312196
 30
0.0
 10
-5.015997178590836
 20
39.50553364128197
 30
0.0
 10
0.5317669745729319
 20
39.04155923068247
 30
0.0
 10
2.431498363395007
 20
38.88267959429355
 30
0.0
 11
-16.69303635548698
 21
44.64398492310503
 31
0.0
 11
-13.95827431602836
 21
42.43096234451887
 31
0.0
 11
-3.30869858592564
 21
39.41114767525039
 31
0.0
 11
2.431498363395007
 21
38.88267959429355
 31
0.0
  0
SPLINE
  5
7824
102
{ACAD_REACTORS
330
7A04
102
}
330
2
100
AcDbEntity
  8
KIJUN
100
AcDbSpline
210
0.0
220
0.0
230
1.0
 70
     8
 71
     3
 72
     9
 73
     5
 74
     3
 42
0.0000000001
 43
0.0000000001
 44
0.0000000001
 40
0.0
 40
0.0
 40
0.0
 40
0.0
 40
1.192638103380899
 40
2.88980329268324
 40
2.88980329268324
 40
2.88980329268324
 40
2.88980329268324
 10
74.45967859335081
 20
57.91266220523235
 30
0.0
 10
74.13679604168868
 20
57.7740929317885
 30
0.0
 10
73.35444047355938
 20
57.43833479901745
 30
0.0
 10
72.7776773168885
 20
56.80608992745887
 30
0.0
 10
72.43894756512566
 20
56.43477607719059
 30
0.0
 11
74.45967859335081
 21
57.91266220523235
 31
0.0
 11
73.52604865936791
 21
57.44645500203709
 31
0.0
 11
72.43894756512566
 21
56.43477607719059
 31
0.0
  0
SPLINE
  5
7825
102
{ACAD_REACTORS
330
7A04
102
}
330
2
100
AcDbEntity
  8
KIJUN
100
AcDbSpline
210
0.0
220
0.0
230
1.0
 70
     8
 71
     3
 72
     9
 73
     5
 74
     3
 42
0.0000000001
 43
0.0000000001
 44
0.0000000001
 40
0.0
 40
0.0
 40
0.0
 40
0.0
 40
2.877085300768854
 40
6.925124485795471
 40
6.925124485795471
 40
6.925124485795471
 40
6.925124485795471
 10
70.74939529428007
 20
63.47905972254425
 30
0.0
 10
70.84329869801859
 20
62.6417437144757
 30
0.0
 10
71.06932354349507
 20
60.62632985508313
 30
0.0
 10
70.74913092263743
 20
58.61952216796659
 30
0.0
 10
70.56196428344609
 20
57.4464550020372
 30
0.0
 11
70.74939529428007
 21
63.47905972254425
 31
0.0
 11
70.93682630511446
 21
60.96859715622032
 31
0.0
 11
70.56196428344609
 21
57.4464550020372
 31
0.0
  0
SPLINE
  5
7826
102
{ACAD_REACTORS
330
7A04
102
}
330
2
100
AcDbEntity
  8
KIJUN
100
AcDbSpline
210
0.0
220
0.0
230
1.0
 70
     8
 71
     3
 72
     9
 73
     5
 74
     3
 42
0.0000000001
 43
0.0000000001
 44
0.0000000001
 40
0.0
 40
0.0
 40
0.0
 40
0.0
 40
1.192638103380899
 40
2.889803292683573
 40
2.889803292683573
 40
2.889803292683573
 40
2.889803292683573
 10
67.15424213317539
 20
57.91266220523245
 30
0.0
 10
67.47712468483756
 20
57.77409293178859
 30
0.0
 10
68.25948025296688
 20
57.43833479901747
 30
0.0
 10
68.83624340963795
 20
56.80608992745895
 30
0.0
 10
69.17497316140094
 20
56.43477607719069
 30
0.0
 11
67.15424213317539
 21
57.91266220523245
 31
0.0
 11
68.08787206715829
 21
57.4464550020372
 31
0.0
 11
69.17497316140094
 21
56.43477607719069
 31
0.0
  0
SPLINE
  5
7827
102
{ACAD_REACTORS
330
7A04
102
}
330
2
100
AcDbEntity
  8
KIJUN
100
AcDbSpline
210
0.0
220
0.0
230
1.0
 70
     8
 71
     3
 72
     9
 73
     5
 74
     3
 42
0.0000000001
 43
0.0000000001
 44
0.0000000001
 40
0.0
 40
0.0
 40
0.0
 40
0.0
 40
2.926740565857509
 40
7.298756002521692
 40
7.298756002521692
 40
7.298756002521692
 40
7.298756002521692
 10
65.41374997128591
 20
56.78797839595585
 30
0.0
 10
66.13658863391504
 20
56.31099653290153
 30
0.0
 10
67.93921613334745
 20
55.12149095229952
 30
0.0
 10
68.92303407303029
 20
53.17770649769326
 30
0.0
 10
69.51234918613647
 20
52.01336347291611
 30
0.0
 11
65.41374997128591
 21
56.78797839595585
 31
0.0
 11
67.45060601462006
 21
55.23574903140626
 31
0.0
 11
69.51234918613647
 21
52.01336347291611
 31
0.0
  0
SPLINE
  5
7828
102
{ACAD_REACTORS
330
7A04
102
}
330
2
100
AcDbEntity
  8
KIJUN
100
AcDbSpline
210
0.0
220
0.0
230
1.0
 70
    11
 71
     3
 72
    14
 73
    10
 74
     8
 42
0.0000000001
 43
0.0000000001
 44
0.0000000001
 12
-0.7421220672617493
 22
0.4635513318750661
 32
0.0
 13
-0.7421220672617493
 23
0.4635513318750661
 33
0.0
 40
0.0
 40
0.0
 40
0.0
 40
0.0
 40
1.491688863247308
 40
3.456893161923739
 40
5.220611265325714
 40
6.692871847979258
 40
8.936507113421793
 40
10.67077391890074
 40
11.75189464537339
 40
11.75189464537339
 40
11.75189464537339
 40
11.75189464537339
 10
70.74939529428007
 20
52.05083296450119
 30
0.0
 10
70.38039021997864
 20
52.2813244176017
 30
0.0
 10
69.77730567168591
 20
53.16825393629172
 30
0.0
 10
69.39195786037712
 20
54.6354151329946
 30
0.0
 10
70.06383617298945
 20
56.38138242552496
 30
0.0
 10
72.11444397564242
 20
56.0451755647208
 30
0.0
 10
72.15269852944001
 20
54.00745310746389
 30
0.0
 10
71.80897910489695
 20
52.84453352514417
 30
0.0
 10
71.01683647710986
 20
51.88378131360981
 30
0.0
 10
70.74939529428007
 20
52.05083296450119
 30
0.0
 11
70.74939529428007
 21
52.05083296450119
 31
0.0
 11
69.92469823090786
 21
53.0625118893478
 31
0.0
 11
69.58732220617213
 21
54.74864431477545
 31
0.0
 11
70.33704624950908
 21
56.09754932690012
 31
0.0
 11
71.61157835458553
 21
55.91020120596219
 31
0.0
 11
72.06141339628977
 21
53.99925183102424
 31
0.0
 11
71.53660636071984
 21
52.57540717271699
 31
0.0
 11
70.74939529428007
 21
52.05083296450119
 31
0.0
  0
SPLINE
  5
782F
102
{ACAD_REACTORS
330
7A04
102
}
330
2
100
AcDbEntity
  8
KIJUN
100
AcDbSpline
210
0.0
220
0.0
230
1.0
 70
     8
 71
     3
 72
     9
 73
     5
 74
     3
 42
0.0000000001
 43
0.0000000001
 44
0.0000000001
 40
0.0
 40
0.0
 40
0.0
 40
0.0
 40
7.056400857641423
 40
18.8619400076651
 40
18.8619400076651
 40
18.8619400076651
 40
18.8619400076651
 10
40.80696148826331
 20
50.64398469810491
 30
0.0
 10
39.1909132748971
 20
49.29976647623177
 30
0.0
 10
34.87117505920328
 20
45.70663678168999
 30
0.0
 10
33.60158694994622
 20
40.13268043759487
 30
0.0
 10
32.80696178826361
 20
36.64398522310494
 30
0.0
 11
40.80696148826331
 21
50.64398469810491
 31
0.0
 11
36.38570586620321
 21
46.33410002287118
 31
0.0
 11
32.80696178826361
 21
36.64398522310494
 31
0.0
  0
SPLINE
  5
7830
102
{ACAD_REACTORS
330
7A04
102
}
330
2
100
AcDbEntity
  8
KIJUN
100
AcDbSpline
210
0.0
220
0.0
230
1.0
 70
     8
 71
     3
 72
     9
 73
     5
 74
     3
 42
0.0000000001
 43
0.0000000001
 44
0.0000000001
 40
0.0
 40
0.0
 40
0.0
 40
0.0
 40
5.338964245713245
 40
12.19033292252223
 40
12.19033292252223
 40
12.19033292252223
 40
12.19033292252223
 10
33.80696175076332
 20
52.64398462310484
 30
0.0
 10
33.41180056100064
 20
50.89204714997889
 30
0.0
 10
32.50953820456421
 20
46.89188905302303
 30
0.0
 10
30.13976201590921
 20
43.52954032408453
 30
0.0
 10
28.80786973263929
 20
41.63978957581771
 30
0.0
 11
33.80696175076332
 21
52.64398462310484
 31
0.0
 11
32.33998680462568
 21
47.51051369941111
 31
0.0
 11
28.80786973263929
 21
41.63978957581771
 31
0.0
  0
ARC
  5
7831
102
{ACAD_REACTORS
330
7A04
102
}
330
2
100
AcDbEntity
  8
KIJUN
100
AcDbCircle
 10
35.28454838192545
 20
44.53975804465506
 30
0.0
 40
1.999999925
100
AcDbArc
 50
58.69889889397035
 51
246.2095417250502
  0
SPLINE
  5
7832
102
{ACAD_REACTORS
330
7A04
102
}
330
2
100
AcDbEntity
  8
KIJUN
100
AcDbSpline
210
0.0
220
0.0
230
1.0
 70
     8
 71
     3
 72
     9
 73
     5
 74
     3
 42
0.0000000001
 43
0.0000000001
 44
0.0000000001
 40
0.0
 40
0.0
 40
0.0
 40
0.0
 40
2.122111683149431
 40
5.02298857103711
 40
5.02298857103711
 40
5.02298857103711
 40
5.02298857103711
 10
37.75941074833966
 20
52.58576896403723
 30
0.0
 10
37.72212899909218
 20
51.96598243684135
 30
0.0
 10
37.63388397322229
 20
50.4989622666459
 30
0.0
 10
37.89097770410452
 20
49.04981838181421
 30
0.0
 10
38.03945450260602
 20
48.21290865301822
 30
0.0
 11
37.75941074833966
 21
52.58576896403723
 31
0.0
 11
37.70920476026521
 21
50.72960010742296
 31
0.0
 11
38.03945450260602
 21
48.21290865301822
 31
0.0
  0
SPLINE
  5
7833
102
{ACAD_REACTORS
330
7A04
102
}
330
2
100
AcDbEntity
  8
KIJUN
100
AcDbSpline
210
0.0
220
0.0
230
1.0
 70
     8
 71
     3
 72
     9
 73
     5
 74
     3
 42
0.0000000001
 43
0.0000000001
 44
0.0000000001
 40
0.0
 40
0.0
 40
0.0
 40
0.0
 40
2.083373000300669
 40
4.159353276284801
 40
4.159353276284801
 40
4.159353276284801
 40
4.159353276284801
 10
30.76481677331603
 20
38.46297029268999
 30
0.0
 10
31.09109736272876
 20
39.02533155078159
 30
0.0
 10
31.74250075442386
 20
40.14805856172075
 30
0.0
 10
33.03846437170599
 20
40.21449231177253
 30
0.0
 10
33.68529447464783
 20
40.24765014800479
 30
0.0
 11
30.76481677331603
 21
38.46297029268999
 31
0.0
 11
31.90537191913558
 21
39.88504120369201
 31
0.0
 11
33.68529447464783
 21
40.24765014800479
 31
0.0
  0
SPLINE
  5
7834
102
{ACAD_REACTORS
330
7A04
102
}
330
2
100
AcDbEntity
  8
KIJUN
100
AcDbSpline
210
0.0
220
0.0
230
1.0
 70
     8
 71
     3
 72
     9
 73
     5
 74
     3
 42
0.0000000001
 43
0.0000000001
 44
0.0000000001
 40
0.0
 40
0.0
 40
0.0
 40
0.0
 40
4.058865145336854
 40
7.315673861001895
 40
7.315673861001895
 40
7.315673861001895
 40
7.315673861001895
 10
33.80696175076471
 20
52.64398462310494
 30
0.0
 10
33.61764870616321
 20
51.44231197550901
 30
0.0
 10
33.27643202555271
 20
49.27642450137146
 30
0.0
 10
34.1927050282262
 20
47.29934323463734
 30
0.0
 10
34.60061357605568
 20
46.41918159492806
 30
0.0
 11
33.80696175076471
 21
52.64398462310494
 31
0.0
 11
33.62610642345425
 21
49.09708550739215
 31
0.0
 11
34.60061357605568
 21
46.41918159492806
 31
0.0
  0
SPLINE
  5
7835
102
{ACAD_REACTORS
330
7A04
102
}
330
2
100
AcDbEntity
  8
KIJUN
100
AcDbSpline
210
0.0
220
0.0
230
1.0
 70
     8
 71
     3
 72
    15
 73
    11
 74
     9
 42
0.0000000001
 43
0.0000000001
 44
0.0000000001
 40
0.0
 40
0.0
 40
0.0
 40
0.0
 40
1.836988069106318
 40
3.075956616028603
 40
5.301441290803074
 40
6.360282247712362
 40
8.126629485448656
 40
8.847599278569527
 40
11.71770032820912
 40
13.07702643951381
 40
13.07702643951381
 40
13.07702643951381
 40
13.07702643951381
 10
34.60061357605568
 20
46.41918159492806
 30
0.0
 10
34.13734149297639
 20
46.67282899484137
 30
0.0
 10
33.36161254136575
 20
47.09755053278878
 30
0.0
 10
31.49471646068028
 20
46.95014136116808
 30
0.0
 10
31.84261487446576
 20
45.18832977684948
 30
0.0
 10
32.53146055692239
 20
43.67698616188722
 30
0.0
 10
31.14946315943483
 20
43.30954593098801
 30
0.0
 10
29.79492683729201
 20
42.53593146831845
 30
0.0
 10
30.27017841170393
 20
40.24711643798116
 30
0.0
 10
31.50549750460228
 20
39.97179143757659
 30
0.0
 10
31.90252562090987
 20
39.88330274917904
 30
0.0
 11
34.60061357605568
 21
46.41918159492806
 31
0.0
 11
33.10113725299527
 21
46.99813892222414
 31
0.0
 11
32.03222706253982
 21
46.81731207755187
 31
0.0
 11
32.02203207685002
 21
44.87003967497251
 31
0.0
 11
32.22618760939236
 21
43.96632704075645
 31
0.0
 11
30.91376211781881
 21
43.15006974074104
 31
0.0
 11
30.38879294736003
 21
42.80024508887542
 31
0.0
 11
30.79710298627472
 21
40.32232185277078
 31
0.0
 11
31.90252562090987
 21
39.88330274917904
 31
0.0
  0
ARC
  5
7836
102
{ACAD_REACTORS
330
7A04
102
}
330
2
100
AcDbEntity
  8
KIJUN
100
AcDbCircle
 10
66.2047453323259
 20
42.22404818216992
 30
0.0
 40
4.621334235949902
100
AcDbArc
 50
162.1060046239838
 51
5.213611884192307
  0
SPLINE
  5
7838
102
{ACAD_REACTORS
330
7A04
102
}
330
2
100
AcDbEntity
  8
KIJUN
100
AcDbSpline
210
0.0
220
0.0
230
1.0
 70
     8
 71
     3
 72
    13
 73
     9
 74
     0
 42
0.0000000001
 43
0.0000000001
 40
0.0
 40
0.0
 40
0.0
 40
0.0
 40
1.646944584737851
 40
3.984442232655265
 40
6.239227039260644
 40
9.266778830475235
 40
11.33679546669902
 40
11.34117233500707
 40
11.34117233500707
 40
11.34117233500707
 40
11.34117233500707
 10
62.80696066326299
 20
53.64398458560486
 30
0.0
 10
63.18328317901904
 20
53.23228015741412
 30
0.0
 10
64.09371777334115
 20
52.23624633438396
 30
0.0
 10
66.13930392530434
 20
51.62512971129375
 30
0.0
 10
68.62933069847802
 20
50.9151433454888
 30
0.0
 10
70.16363315461067
 20
48.77438924397918
 30
0.0
 10
70.68056844683147
 20
47.14629126501061
 30
0.0
 10
70.80669461709326
 20
46.47252160392618
 30
0.0
 10
70.8069603632631
 20
46.47109993056868
 30
0.0
  0
SPLINE
  5
7839
102
{ACAD_REACTORS
330
7A04
102
}
330
2
100
AcDbEntity
  8
KIJUN
100
AcDbSpline
210
0.0
220
0.0
230
1.0
 70
     8
 71
     3
 72
    10
 73
     6
 74
     4
 42
0.0000000001
 43
0.0000000001
 44
0.0000000001
 40
0.0
 40
0.0
 40
0.0
 40
0.0
 40
1.915113091272182
 40
4.392520846023824
 40
6.939548097596329
 40
6.939548097596329
 40
6.939548097596329
 40
6.939548097596329
 10
61.80696070076308
 20
43.64398496060482
 30
0.0
 10
62.2167183027519
 20
44.00894603578751
 30
0.0
 10
63.15654207438999
 20
44.84602408513778
 30
0.0
 10
65.37269218035544
 20
45.67729875410052
 30
0.0
 10
66.44332290291626
 20
44.4786247228578
 30
0.0
 10
66.98605569243406
 20
43.87098318316534
 30
0.0
 11
61.80696070076308
 21
43.64398496060482
 31
0.0
 11
63.12423248539602
 21
44.67976766866293
 31
0.0
 11
65.22065097370256
 21
45.23121178673231
 31
0.0
 11
66.98605569243406
 21
43.87098318316534
 31
0.0
  0
LINE
  5
783A
102
{ACAD_REACTORS
330
7A04
102
}
330
2
100
AcDbEntity
  8
KIJUN
100
AcDbLine
 10
70.8069603632631
 20
46.47109993057495
 30
0.0
 11
70.8069603632631
 21
41.80411136623433
 31
0.0
  0
ARC
  5
783C
102
{ACAD_REACTORS
330
7A04
102
}
330
2
100
AcDbEntity
  8
KIJUN
100
AcDbCircle
 10
61.93656414363971
 20
-22.13977118924147
 30
0.0
 40
75.78875397737402
100
AcDbArc
 50
89.34197172028623
 51
106.1883603165646
  0
SPLINE
  5
783D
102
{ACAD_REACTORS
330
7A04
102
}
330
2
100
AcDbEntity
  8
KIJUN
100
AcDbSpline
210
0.0
220
0.0
230
1.0
 70
     8
 71
     3
 72
    14
 73
    10
 74
     8
 42
0.0000000001
 43
0.0000000001
 44
0.0000000001
 40
0.0
 40
0.0
 40
0.0
 40
0.0
 40
2.363504115620492
 40
8.451072480422361
 40
20.78796777541381
 40
26.88225191694856
 40
30.8867816280888
 40
36.09479419524996
 40
40.68229194308478
 40
40.68229194308478
 40
40.68229194308478
 40
40.68229194308478
 10
66.98605569243406
 20
43.87098318316534
 30
0.0
 10
66.85107959492578
 20
44.68640725484128
 30
0.0
 10
66.36845179849922
 20
47.60208143813136
 30
0.0
 10
58.25239405196961
 20
49.52296261614061
 30
0.0
 10
50.52845629259087
 20
49.08467239377808
 30
0.0
 10
43.35466428028216
 20
46.30802628135303
 30
0.0
 10
39.48397629692251
 20
42.8444197250145
 30
0.0
 10
38.17707398494251
 20
37.83209166156055
 30
0.0
 10
39.9676646092581
 20
34.97606385096894
 30
0.0
 10
40.80624577473003
 20
33.63851014243119
 30
0.0
 11
66.98605569243406
 21
43.87098318316534
 31
0.0
 11
66.36080814512607
 21
46.15028509584395
 31
0.0
 11
60.8439181425494
 21
48.72369009615114
 31
0.0
 11
48.5228630509362
 21
48.09872053768089
 31
0.0
 11
42.93241511701111
 21
45.67236708118804
 31
0.0
 11
40.0636321925314
 21
42.87838377064043
 31
0.0
 11
38.88669605543399
 21
37.80509921042674
 31
0.0
 11
40.80624577473003
 21
33.63851014243119
 31
0.0
  0
SPLINE
  5
783E
102
{ACAD_REACTORS
330
7A04
102
}
330
2
100
AcDbEntity
  8
KIJUN
100
AcDbSpline
210
0.0
220
0.0
230
1.0
 70
     8
 71
     3
 72
    10
 73
     6
 74
     4
 42
0.0000000001
 43
0.0000000001
 44
0.0000000001
 40
0.0
 40
0.0
 40
0.0
 40
0.0
 40
8.275490081022031
 40
17.45864728809215
 40
23.49854291289436
 40
23.49854291289436
 40
23.49854291289436
 40
23.49854291289436
 10
42.80696141326333
 20
40.64398507310499
 30
0.0
 10
44.68823581364905
 20
42.19028548415728
 30
0.0
 10
48.65712537630745
 20
45.45248666060532
 30
0.0
 10
55.75281829489826
 20
46.89095679813724
 30
0.0
 10
60.10871330193159
 20
45.96587590268389
 30
0.0
 10
61.83695739893656
 20
45.59884097777457
 30
0.0
 11
42.80696141326333
 21
40.64398507310499
 31
0.0
 11
48.74353889732034
 21
44.79005649227699
 31
0.0
 11
56.61430220026142
 21
46.40762546327225
 31
0.0
 11
61.83695739893656
 21
45.59884097777457
 31
0.0
  0
LINE
  5
783F
102
{ACAD_REACTORS
330
7A04
102
}
330
2
100
AcDbEntity
  8
KIJUN
100
AcDbLine
 10
70.8069603632631
 20
46.47109993057495
 30
0.0
 11
70.8069603632631
 21
41.80411136623433
 31
0.0
  0
SPLINE
  5
7841
102
{ACAD_REACTORS
330
7A04
102
}
330
2
100
AcDbEntity
  8
KIJUN
100
AcDbSpline
210
0.0
220
0.0
230
1.0
 70
     8
 71
     3
 72
    11
 73
     7
 74
     5
 42
0.0000000001
 43
0.0000000001
 44
0.0000000001
 40
0.0
 40
0.0
 40
0.0
 40
0.0
 40
1.875831568893617
 40
9.530911215472603
 40
18.3004188757337
 40
21.74841862171193
 40
21.74841862171193
 40
21.74841862171193
 40
21.74841862171193
 10
218.3069548320136
 20
55.64398451060498
 30
0.0
 10
218.1526341315524
 20
55.10068175654389
 30
0.0
 10
217.3685461999944
 20
52.34021519976659
 30
0.0
 10
210.9393855858413
 20
51.39565677299795
 30
0.0
 10
205.1491843600779
 20
51.00259935815983
 30
0.0
 10
202.1526353514301
 20
53.06261205136348
 30
0.0
 10
201.306955469513
 20
53.64398458560486
 30
0.0
 11
218.3069548320136
 21
55.64398451060498
 31
0.0
 11
217.7446634957663
 21
54.10195114991061
 31
0.0
 11
211.5447751400949
 21
51.5667595412762
 31
0.0
 11
203.8888539060241
 21
52.08318731421745
 31
0.0
 11
201.306955469513
 21
53.64398458560486
 31
0.0
  0
SPLINE
  5
7843
102
{ACAD_REACTORS
330
7A04
102
}
330
2
100
AcDbEntity
  8
KIJUN
100
AcDbSpline
210
0.0
220
0.0
230
1.0
 70
     8
 71
     3
 72
     9
 73
     5
 74
     3
 42
0.0000000001
 43
0.0000000001
 44
0.0000000001
 40
0.0
 40
0.0
 40
0.0
 40
0.0
 40
2.299041349933259
 40
8.130979755076248
 40
8.130979755076248
 40
8.130979755076248
 40
8.130979755076248
 10
208.3069552070132
 20
46.64398484810496
 30
0.0
 10
208.0139673503824
 20
47.25168163140966
 30
0.0
 10
206.9777622682871
 20
49.40091232811674
 30
0.0
 10
205.147993057904
 20
50.9768764237403
 30
0.0
 10
203.8355926274492
 20
52.10723534864794
 30
0.0
 11
208.3069552070132
 21
46.64398484810496
 31
0.0
 11
207.3645477427395
 21
48.421243658519
 31
0.0
 11
203.8355926274492
 21
52.10723534864794
 31
0.0
  0
SPLINE
  5
7845
102
{ACAD_REACTORS
330
7A04
102
}
330
2
100
AcDbEntity
  8
KIJUN
100
AcDbSpline
210
0.0
220
0.0
230
1.0
 70
     8
 71
     3
 72
    11
 73
     7
 74
     5
 42
0.0000000001
 43
0.0000000001
 44
0.0000000001
 40
0.0
 40
0.0
 40
0.0
 40
0.0
 40
3.423206549060055
 40
5.440106371093177
 40
13.1890839811728
 40
17.94476912613545
 40
17.94476912613545
 40
17.94476912613545
 40
17.94476912613545
 10
228.3069603632633
 20
48.64404641930452
 30
0.0
 10
227.6240144923512
 20
49.38106561398199
 30
0.0
 10
226.5386875831466
 20
50.55232500459157
 30
0.0
 10
222.970574953755
 20
52.28764581409341
 30
0.0
 10
218.5843280585628
 20
50.44895376845794
 30
0.0
 10
215.219771285527
 20
49.21801985822019
 30
0.0
 10
213.9401867834614
 20
48.74987975512242
 30
0.0
 11
228.3069603632633
 21
48.64404641930452
 31
0.0
 11
226.1051182904766
 21
50.67474775264686
 31
0.0
 11
224.5081768528423
 21
51.42591512101032
 31
0.0
 11
217.8386011670288
 21
50.20526789879006
 31
0.0
 11
213.9401867834614
 21
48.74987975512242
 31
0.0
  0
SPLINE
  5
7848
102
{ACAD_REACTORS
330
7A04
102
}
330
2
100
AcDbEntity
  8
KIJUN
100
AcDbSpline
210
0.0
220
0.0
230
1.0
 70
     8
 71
     3
 72
    10
 73
     6
 74
     4
 42
0.0000000001
 43
0.0000000001
 44
0.0000000001
 40
0.0
 40
0.0
 40
0.0
 40
0.0
 40
4.616462544646867
 40
15.73594570360518
 40
27.74007253988099
 40
27.74007253988099
 40
27.74007253988099
 40
27.74007253988099
 10
168.3069567070131
 20
48.64398477310499
 30
0.0
 10
167.7176112137014
 20
47.42532711203141
 30
0.0
 10
165.7087335083748
 20
43.27133894458206
 30
0.0
 10
158.7338048663578
 20
38.21299703654624
 30
0.0
 10
152.1249061581946
 20
36.79836633705502
 30
0.0
 10
148.6940379521818
 20
36.06399110988754
 30
0.0
 11
168.3069567070131
 21
48.64398477310499
 31
0.0
 11
166.3712847950803
 21
45.09857015780845
 31
0.0
 11
158.7724678795778
 21
39.02221589078678
 31
0.0
 11
148.6940379521818
 21
36.06399110988754
 31
0.0
  0
SPLINE
  5
7849
102
{ACAD_REACTORS
330
7A04
102
}
330
2
100
AcDbEntity
  8
KIJUN
100
AcDbSpline
210
0.0
220
0.0
230
1.0
 70
     8
 71
     3
 72
    10
 73
     6
 74
     4
 42
0.0000000001
 43
0.0000000001
 44
0.0000000001
 40
0.0
 40
0.0
 40
0.0
 40
0.0
 40
5.29763561159632
 40
13.74710792860434
 40
25.54148252402272
 40
25.54148252402272
 40
25.54148252402272
 40
25.54148252402272
 10
169.9191539352475
 20
49.97920624403723
 30
0.0
 10
169.7647161099676
 20
48.42371339252995
 30
0.0
 10
169.3639574304284
 20
44.38728475160277
 30
0.0
 10
164.0530893929504
 20
38.2095873130095
 30
0.0
 10
158.1388367351451
 20
37.00541586311653
 30
0.0
 10
154.693102749907
 20
36.30384717320377
 30
0.0
 11
169.9191539352475
 21
49.97920624403723
 31
0.0
 11
169.0908605220236
 21
45.41837824222992
 31
0.0
 11
164.4515830746843
 21
39.66183272264242
 31
0.0
 11
154.693102749907
 21
36.30384717320377
 31
0.0
  0
ARC
  5
784A
102
{ACAD_REACTORS
330
7A04
102
}
330
2
100
AcDbEntity
  8
KIJUN
100
AcDbCircle
 10
197.7942184479009
 20
47.17582771151147
 30
0.0
 40
3.83221395883517
100
AcDbArc
 50
247.1639880706998
 51
336.4388309019998
  0
SPLINE
  5
784C
102
{ACAD_REACTORS
330
7A04
102
}
330
2
100
AcDbEntity
  8
KIJUN
100
AcDbSpline
210
0.0
220
0.0
230
1.0
 70
     8
 71
     3
 72
     9
 73
     5
 74
     3
 42
0.0000000001
 43
0.0000000001
 44
0.0000000001
 40
0.0
 40
0.0
 40
0.0
 40
0.0
 40
2.04871436076433
 40
5.119807431240372
 40
5.119807431240372
 40
5.119807431240372
 40
5.119807431240372
 10
196.3069556570133
 20
54.64398454810487
 30
0.0
 10
196.0429390064978
 20
54.09500172207003
 30
0.0
 10
195.3831523445953
 20
52.72307481698994
 30
0.0
 10
194.0479897777977
 20
51.95528628525962
 30
0.0
 10
193.2470986189171
 20
51.49473184623909
 30
0.0
 11
196.3069556570133
 21
54.64398454810487
 31
0.0
 11
195.4067620281919
 21
53.09377293135913
 31
0.0
 11
193.2470986189171
 21
51.49473184623909
 31
0.0
  0
SPLINE
  5
784F
102
{ACAD_REACTORS
330
7A04
102
}
330
2
100
AcDbEntity
  8
KIJUN
100
AcDbSpline
210
0.0
220
0.0
230
1.0
 70
     8
 71
     3
 72
    12
 73
     8
 74
     6
 42
0.0000000001
 43
0.0000000001
 44
0.0000000001
 40
0.0
 40
0.0
 40
0.0
 40
0.0
 40
4.650647184434989
 40
15.27987541464878
 40
24.2701811761636
 40
34.94309948786329
 40
41.47623277299386
 40
41.47623277299386
 40
41.47623277299386
 40
41.47623277299386
 10
196.3069556570133
 20
43.64398496060482
 30
0.0
 10
195.0960181102079
 20
44.26578934534231
 30
0.0
 10
191.1174374704998
 20
46.30875092773666
 30
0.0
 10
183.6501159525581
 20
46.62223538466936
 30
0.0
 10
175.2914051854577
 20
43.51342851919867
 30
0.0
 10
168.9176184904519
 20
39.12637407415017
 30
0.0
 10
164.0573677028464
 20
37.77600587719645
 30
0.0
 10
162.21193175167
 20
37.26327142646836
 30
0.0
 11
196.3069556570133
 21
43.64398496060482
 31
0.0
 11
192.6071983875088
 21
45.33842622112447
 31
0.0
 11
183.3286434928301
 21
45.97804238996761
 31
0.0
 11
175.8898024048075
 21
43.41957771459537
 31
0.0
 11
167.6510852578968
 21
39.02221589078678
 31
0.0
 11
162.21193175167
 21
37.26327142646836
 31
0.0
  0
SPLINE
  5
7851
102
{ACAD_REACTORS
330
7A04
102
}
330
2
100
AcDbEntity
  8
KIJUN
100
AcDbSpline
210
0.0
220
0.0
230
1.0
 70
     8
 71
     3
 72
    13
 73
     9
 74
     7
 42
0.0000000001
 43
0.0000000001
 44
0.0000000001
 40
0.0
 40
0.0
 40
0.0
 40
0.0
 40
2.341482946521003
 40
8.89458903170424
 40
20.55587389431749
 40
31.6420267884582
 40
37.73028235690407
 40
39.61242211496609
 40
39.61242211496609
 40
39.61242211496609
 40
39.61242211496609
 10
201.3069554695132
 20
45.64398488560494
 30
0.0
 10
201.2434765317536
 20
46.35479084118749
 30
0.0
 10
201.0023391515393
 20
49.05492874549654
 30
0.0
 10
194.0882405499424
 20
51.31431934609447
 30
0.0
 10
186.2245842233383
 20
51.83121908839401
 30
0.0
 10
177.2220335164906
 20
50.66790245147375
 30
0.0
 10
173.1580420230008
 20
46.67640076491116
 30
0.0
 10
171.0972596027503
 20
45.59402085362465
 30
0.0
 10
170.61062369989
 20
45.33842622112447
 30
0.0
 11
201.3069554695132
 21
45.64398488560494
 31
0.0
 11
200.9259024219889
 21
47.65703483318069
 31
0.0
 11
195.9666753720308
 21
50.53530759297449
 31
0.0
 11
185.8082575308945
 21
51.49473184623909
 31
0.0
 11
176.3697268087365
 21
49.25607525528832
 31
0.0
 11
172.0503999901868
 21
46.13794643217839
 31
0.0
 11
170.61062369989
 21
45.33842622112447
 31
0.0
  0
SPLINE
  5
7852
102
{ACAD_REACTORS
330
7A04
102
}
330
2
100
AcDbEntity
  8
KIJUN
100
AcDbSpline
210
0.0
220
0.0
230
1.0
 70
     8
 71
     3
 72
    10
 73
     6
 74
     4
 42
0.0000000001
 43
0.0000000001
 44
0.0000000001
 40
0.0
 40
0.0
 40
0.0
 40
0.0
 40
4.020582529960471
 40
16.67138359159129
 40
23.25935179885064
 40
23.25935179885064
 40
23.25935179885064
 40
23.25935179885064
 10
158.3069570820136
 20
44.64398492310503
 30
0.0
 10
157.4234197836991
 20
43.85837694852077
 30
0.0
 10
153.7598239967917
 20
40.6008460312196
 30
0.0
 10
146.6299179051173
 20
39.50553364128197
 30
0.0
 10
141.0821537519536
 20
39.04155923068247
 30
0.0
 10
139.1824223631316
 20
38.88267959429355
 30
0.0
 11
158.3069570820136
 21
44.64398492310503
 31
0.0
 11
155.5721950425549
 21
42.43096234451887
 31
0.0
 11
144.9226193124522
 21
39.41114767525039
 31
0.0
 11
139.1824223631316
 21
38.88267959429355
 31
0.0
  0
ARC
  5
7855
102
{ACAD_REACTORS
330
7A04
102
}
330
2
100
AcDbEntity
  8
KIJUN
100
AcDbCircle
 10
123.7950439910272
 20
55.94903800842583
 30
0.0
 40
11.06531431806127
100
AcDbArc
 50
186.7732826472285
 51
237.2374837689375
  0
SPLINE
  5
7856
102
{ACAD_REACTORS
330
7A04
102
}
330
2
100
AcDbEntity
  8
KIJUN
100
AcDbSpline
210
0.0
220
0.0
230
1.0
 70
     8
 71
     3
 72
    10
 73
     6
 74
     4
 42
0.0000000001
 43
0.0000000001
 44
0.0000000001
 40
0.0
 40
0.0
 40
0.0
 40
0.0
 40
7.137299145766927
 40
27.66041985250419
 40
29.26374792708915
 40
29.26374792708915
 40
29.26374792708915
 40
29.26374792708915
 10
117.8069586007636
 20
46.64398484810496
 30
0.0
 10
119.661707153006
 20
45.70855276512524
 30
0.0
 10
126.84973761496
 20
42.0833097102552
 30
0.0
 10
136.0625758156556
 20
41.0870726468996
 30
0.0
 10
142.2773797211393
 20
42.82004820865744
 30
0.0
 10
142.7277172189539
 20
42.94562318899868
 30
0.0
 11
117.8069586007636
 21
46.64398484810496
 31
0.0
 11
123.4724104698633
 21
44.0163645983513
 31
0.0
 11
141.3727610778083
 21
42.58195284592794
 31
0.0
 11
142.7277172189539
 21
42.94562318899868
 31
0.0
  0
ARC
  5
7859
102
{ACAD_REACTORS
330
7A04
102
}
330
2
100
AcDbEntity
  8
KIJUN
100
AcDbCircle
 10
79.67735658288688
 20
-22.13977118924147
 30
0.0
 40
75.78875397737402
100
AcDbArc
 50
73.81163968343537
 51
90.65802827971376
  0
SPLINE
  5
785A
102
{ACAD_REACTORS
330
7A04
102
}
330
2
100
AcDbEntity
  8
KIJUN
100
AcDbSpline
210
0.0
220
0.0
230
1.0
 70
     8
 71
     3
 72
    14
 73
    10
 74
     8
 42
0.0000000001
 43
0.0000000001
 44
0.0000000001
 40
0.0
 40
0.0
 40
0.0
 40
0.0
 40
2.363504115620492
 40
8.451072480422361
 40
20.78796777541381
 40
26.88225191694856
 40
30.8867816280888
 40
36.09479419524996
 40
40.68229194308499
 40
40.68229194308499
 40
40.68229194308499
 40
40.68229194308499
 10
74.62786503409254
 20
43.87098318316534
 30
0.0
 10
74.76284113160081
 20
44.68640725484128
 30
0.0
 10
75.24546892802736
 20
47.60208143813136
 30
0.0
 10
83.36152667455703
 20
49.52296261614061
 30
0.0
 10
91.08546443393576
 20
49.08467239377808
 30
0.0
 10
98.25925644624442
 20
46.30802628135303
 30
0.0
 10
102.1299444296041
 20
42.84441972501451
 30
0.0
 10
103.4368467415842
 20
37.8320916615604
 30
0.0
 10
101.6462561172681
 20
34.97606385096894
 30
0.0
 10
100.8076749517959
 20
33.63851014243123
 30
0.0
 11
74.62786503409254
 21
43.87098318316534
 31
0.0
 11
75.25311258140053
 21
46.15028509584395
 31
0.0
 11
80.7700025839772
 21
48.72369009615114
 31
0.0
 11
93.0910576755904
 21
48.09872053768089
 31
0.0
 11
98.68150560951548
 21
45.67236708118804
 31
0.0
 11
101.5502885339952
 21
42.87838377064043
 31
0.0
 11
102.7272246710926
 21
37.80509921042674
 31
0.0
 11
100.8076749517959
 21
33.63851014243123
 31
0.0
  0
SPLINE
  5
785B
102
{ACAD_REACTORS
330
7A04
102
}
330
2
100
AcDbEntity
  8
KIJUN
100
AcDbSpline
210
0.0
220
0.0
230
1.0
 70
     8
 71
     3
 72
    10
 73
     6
 74
     4
 42
0.0000000001
 43
0.0000000001
 44
0.0000000001
 40
0.0
 40
0.0
 40
0.0
 40
0.0
 40
8.275490081022031
 40
17.45864728809215
 40
23.49854291289436
 40
23.49854291289436
 40
23.49854291289436
 40
23.49854291289436
 10
98.80695931326327
 20
40.64398507310499
 30
0.0
 10
96.9256849128776
 20
42.19028548415728
 30
0.0
 10
92.95679535021919
 20
45.45248666060532
 30
0.0
 10
85.86110243162824
 20
46.89095679813724
 30
0.0
 10
81.505207424595
 20
45.96587590268389
 30
0.0
 10
79.77696332759004
 20
45.59884097777457
 30
0.0
 11
98.80695931326327
 21
40.64398507310499
 31
0.0
 11
92.87038182920625
 21
44.79005649227699
 31
0.0
 11
84.99961852626517
 21
46.40762546327225
 31
0.0
 11
79.77696332759004
 21
45.59884097777457
 31
0.0
  0
SPLINE
  5
7862
102
{ACAD_REACTORS
330
7A04
102
}
330
2
100
AcDbEntity
  8
KIJUN
100
AcDbSpline
210
0.0
220
0.0
230
1.0
 70
     8
 71
     3
 72
     9
 73
     5
 74
     3
 42
0.0000000001
 43
0.0000000001
 44
0.0000000001
 40
0.0
 40
0.0
 40
0.0
 40
0.0
 40
7.056400857641423
 40
18.8619400076651
 40
18.8619400076651
 40
18.8619400076651
 40
18.8619400076651
 10
100.8069592382633
 20
50.64398469810491
 30
0.0
 10
102.4230074516295
 20
49.29976647623177
 30
0.0
 10
106.7427456673234
 20
45.70663678168999
 30
0.0
 10
108.0123337765804
 20
40.13268043759487
 30
0.0
 10
108.806958938263
 20
36.64398522310494
 30
0.0
 11
100.8069592382633
 21
50.64398469810491
 31
0.0
 11
105.2282148603234
 21
46.33410002287118
 31
0.0
 11
108.806958938263
 21
36.64398522310494
 31
0.0
  0
SPLINE
  5
7863
102
{ACAD_REACTORS
330
7A04
102
}
330
2
100
AcDbEntity
  8
KIJUN
100
AcDbSpline
210
0.0
220
0.0
230
1.0
 70
     8
 71
     3
 72
     9
 73
     5
 74
     3
 42
0.0000000001
 43
0.0000000001
 44
0.0000000001
 40
0.0
 40
0.0
 40
0.0
 40
0.0
 40
5.338964245713245
 40
12.19033292252196
 40
12.19033292252196
 40
12.19033292252196
 40
12.19033292252196
 10
107.8069589757633
 20
52.64398462310484
 30
0.0
 10
108.2021201655259
 20
50.89204714997889
 30
0.0
 10
109.1043825219624
 20
46.89188905302315
 30
0.0
 10
111.4741587106171
 20
43.52954032408456
 30
0.0
 10
112.8060509938868
 20
41.63978957581775
 30
0.0
 11
107.8069589757633
 21
52.64398462310484
 31
0.0
 11
109.2739339219009
 21
47.51051369941111
 31
0.0
 11
112.8060509938868
 21
41.63978957581775
 31
0.0
  0
ARC
  5
7864
102
{ACAD_REACTORS
330
7A04
102
}
330
2
100
AcDbEntity
  8
KIJUN
100
AcDbCircle
 10
106.3293723446011
 20
44.53975804465506
 30
0.0
 40
1.999999925
100
AcDbArc
 50
293.7904582749498
 51
121.3011011060296
  0
SPLINE
  5
7865
102
{ACAD_REACTORS
330
7A04
102
}
330
2
100
AcDbEntity
  8
KIJUN
100
AcDbSpline
210
0.0
220
0.0
230
1.0
 70
     8
 71
     3
 72
     9
 73
     5
 74
     3
 42
0.0000000001
 43
0.0000000001
 44
0.0000000001
 40
0.0
 40
0.0
 40
0.0
 40
0.0
 40
2.122111683149431
 40
5.02298857103711
 40
5.02298857103711
 40
5.02298857103711
 40
5.02298857103711
 10
103.8545099781869
 20
52.58576896403723
 30
0.0
 10
103.8917917274344
 20
51.96598243684135
 30
0.0
 10
103.9800367533042
 20
50.4989622666459
 30
0.0
 10
103.722943022422
 20
49.04981838181421
 30
0.0
 10
103.5744662239206
 20
48.21290865301822
 30
0.0
 11
103.8545099781869
 21
52.58576896403723
 31
0.0
 11
103.9047159662614
 21
50.72960010742296
 31
0.0
 11
103.5744662239206
 21
48.21290865301822
 31
0.0
  0
SPLINE
  5
7866
102
{ACAD_REACTORS
330
7A04
102
}
330
2
100
AcDbEntity
  8
KIJUN
100
AcDbSpline
210
0.0
220
0.0
230
1.0
 70
     8
 71
     3
 72
     9
 73
     5
 74
     3
 42
0.0000000001
 43
0.0000000001
 44
0.0000000001
 40
0.0
 40
0.0
 40
0.0
 40
0.0
 40
2.083373000300669
 40
4.159353276284801
 40
4.159353276284801
 40
4.159353276284801
 40
4.159353276284801
 10
110.8491039532105
 20
38.46297029268999
 30
0.0
 10
110.5228233637979
 20
39.02533155078159
 30
0.0
 10
109.8714199721026
 20
40.14805856172075
 30
0.0
 10
108.5754563548205
 20
40.21449231177253
 30
0.0
 10
107.9286262518788
 20
40.24765014800479
 30
0.0
 11
110.8491039532105
 21
38.46297029268999
 31
0.0
 11
109.708548807391
 21
39.88504120369201
 31
0.0
 11
107.9286262518788
 21
40.24765014800479
 31
0.0
  0
SPLINE
  5
7867
102
{ACAD_REACTORS
330
7A04
102
}
330
2
100
AcDbEntity
  8
KIJUN
100
AcDbSpline
210
0.0
220
0.0
230
1.0
 70
     8
 71
     3
 72
     9
 73
     5
 74
     3
 42
0.0000000001
 43
0.0000000001
 44
0.0000000001
 40
0.0
 40
0.0
 40
0.0
 40
0.0
 40
4.058865145336854
 40
7.315673861001895
 40
7.315673861001895
 40
7.315673861001895
 40
7.315673861001895
 10
107.8069589757619
 20
52.64398462310494
 30
0.0
 10
107.9962720203634
 20
51.44231197550901
 30
0.0
 10
108.3374887009739
 20
49.27642450137146
 30
0.0
 10
107.4212156983004
 20
47.29934323463734
 30
0.0
 10
107.0133071504709
 20
46.41918159492806
 30
0.0
 11
107.8069589757619
 21
52.64398462310494
 31
0.0
 11
107.9878143030723
 21
49.09708550739215
 31
0.0
 11
107.0133071504709
 21
46.41918159492806
 31
0.0
  0
SPLINE
  5
7868
102
{ACAD_REACTORS
330
7A04
102
}
330
2
100
AcDbEntity
  8
KIJUN
100
AcDbSpline
210
0.0
220
0.0
230
1.0
 70
     8
 71
     3
 72
    15
 73
    11
 74
     9
 42
0.0000000001
 43
0.0000000001
 44
0.0000000001
 40
0.0
 40
0.0
 40
0.0
 40
0.0
 40
1.836988069106318
 40
3.075956616028603
 40
5.301441290803074
 40
6.360282247712362
 40
8.126629485448656
 40
8.847599278569527
 40
11.71770032820912
 40
13.07702643951381
 40
13.07702643951381
 40
13.07702643951381
 40
13.07702643951381
 10
107.0133071504709
 20
46.41918159492806
 30
0.0
 10
107.4765792335502
 20
46.67282899484137
 30
0.0
 10
108.2523081851609
 20
47.09755053278878
 30
0.0
 10
110.1192042658462
 20
46.95014136116808
 30
0.0
 10
109.7713058520609
 20
45.18832977684948
 30
0.0
 10
109.0824601696041
 20
43.67698616188722
 30
0.0
 10
110.4644575670918
 20
43.30954593098801
 30
0.0
 10
111.8189938892346
 20
42.53593146831845
 30
0.0
 10
111.3437423148228
 20
40.24711643798116
 30
0.0
 10
110.1084232219243
 20
39.97179143757659
 30
0.0
 10
109.7113951056167
 20
39.88330274917904
 30
0.0
 11
107.0133071504709
 21
46.41918159492806
 31
0.0
 11
108.5127834735313
 21
46.99813892222414
 31
0.0
 11
109.5816936639868
 21
46.81731207755187
 31
0.0
 11
109.5918886496765
 21
44.87003967497251
 31
0.0
 11
109.3877331171342
 21
43.96632704075645
 31
0.0
 11
110.7001586087078
 21
43.15006974074104
 31
0.0
 11
111.2251277791665
 21
42.80024508887542
 31
0.0
 11
110.8168177402518
 21
40.32232185277078
 31
0.0
 11
109.7113951056167
 21
39.88330274917904
 31
0.0
  0
ARC
  5
7869
102
{ACAD_REACTORS
330
7A04
102
}
330
2
100
AcDbEntity
  8
KIJUN
100
AcDbCircle
 10
75.4091753942007
 20
42.22404818216992
 30
0.0
 40
4.621334235949902
100
AcDbArc
 50
174.7863881158077
 51
17.89399537601617
  0
SPLINE
  5
786A
102
{ACAD_REACTORS
330
7A04
102
}
330
2
100
AcDbEntity
  8
KIJUN
100
AcDbSpline
210
0.0
220
0.0
230
1.0
 70
     8
 71
     3
 72
    10
 73
     6
 74
     4
 42
0.0000000001
 43
0.0000000001
 44
0.0000000001
 40
0.0
 40
0.0
 40
0.0
 40
0.0
 40
1.915113091272182
 40
4.392520846023824
 40
6.939548097596329
 40
6.939548097596329
 40
6.939548097596329
 40
6.939548097596329
 10
79.80696002576351
 20
43.64398496060482
 30
0.0
 10
79.3972024237746
 20
44.00894603578751
 30
0.0
 10
78.45737865213656
 20
44.84602408513778
 30
0.0
 10
76.2412285461712
 20
45.67729875410052
 30
0.0
 10
75.17059782361037
 20
44.4786247228578
 30
0.0
 10
74.62786503409254
 20
43.87098318316534
 30
0.0
 11
79.80696002576351
 21
43.64398496060482
 31
0.0
 11
78.48968824113057
 21
44.67976766866293
 31
0.0
 11
76.39326975282404
 21
45.23121178673231
 31
0.0
 11
74.62786503409254
 21
43.87098318316534
 31
0.0
  0
DIMENSION
  5
786C
330
2
100
AcDbEntity
  8
SUNPOU
100
AcDbDimension
  2
*D17
 10
228.3069603632633
 20
87.22544947373581
 30
0.0
 11
70.80696036326307
 21
92.7254494737358
 31
0.0
 70
    32
 71
     5
 42
315.0000000000004
  3
STANDARD
100
AcDbAlignedDimension
 13
-86.69303963673712
 23
65.63851014243123
 33
0.0
 14
228.3069603632633
 24
61.61035716450436
 34
0.0
100
AcDbRotatedDimension
1001
ACAD
1000
DSTYLE
1002
{
1070
    41
1040
2.0
1070
    42
1040
10.0
1070
    44
1040
0.0
1070
    73
1070
     0
1070
    74
1070
     0
1070
    77
1070
     1
1070
   140
1040
5.0
1070
   141
1040
0.0
1070
   146
1040
0.064286
1070
   147
1040
3.0
1070
   176
1070
    60
1070
   177
1070
    70
1070
   178
1070
    60
1070
   271
1070
     0
1070
   272
1070
     0
1070
   340
1005
1C
1070
   342
1005
109
1002
}
  0
DIMENSION
  5
7879
330
2
100
AcDbEntity
  8
SUNPOU
100
AcDbDimension
  2
*D18
 10
-104.7972695316506
 20
33.63851014243121
 30
0.0
 11
-110.2972695316506
 21
49.63851014243121
 31
0.0
 70
    32
 71
     5
 42
32.00000000000003
  3
STANDARD
100
AcDbAlignedDimension
 13
-86.69303963673712
 23
65.63851014243123
 33
0.0
 14
-84.38152842522596
 24
33.63851014243121
 34
0.0
 50
90.0
100
AcDbRotatedDimension
1001
ACAD
1000
DSTYLE
1002
{
1070
    41
1040
2.0
1070
    42
1040
10.0
1070
    44
1040
0.0
1070
    73
1070
     0
1070
    74
1070
     0
1070
    77
1070
     1
1070
   140
1040
5.0
1070
   141
1040
0.0
1070
   146
1040
0.064286
1070
   147
1040
3.0
1070
   176
1070
    60
1070
   177
1070
    70
1070
   178
1070
    60
1070
   271
1070
     0
1070
   272
1070
     0
1070
   340
1005
1C
1070
   342
1005
109
1002
}
  0
ARC
  5
789C
102
{ACAD_REACTORS
330
7A04
102
}
330
2
100
AcDbEntity
  8
KIJUN
100
AcDbCircle
 10
73.02500674297069
 20
62.84801606266866
 30
0.0
 40
3.564629988052563
100
AcDbArc
 50
128.479711827849
 51
149.8538625613665
  0
ARC
  5
789D
102
{ACAD_REACTORS
330
7A04
102
}
330
2
100
AcDbEntity
  8
KIJUN
100
AcDbCircle
 10
70.88433349751196
 20
55.42622727324364
 30
0.0
 40
8.271658896568432
100
AcDbArc
 50
168.0461987794279
 51
192.4427362172651
  0
ARC
  5
789E
102
{ACAD_REACTORS
330
7A04
102
}
330
2
100
AcDbEntity
  8
KIJUN
100
AcDbCircle
 10
63.53754291475792
 20
56.92011058698181
 30
0.0
 40
0.7771018372896871
100
AcDbArc
 50
92.73798363307788
 51
163.6031675322125
  0
ARC
  5
789F
102
{ACAD_REACTORS
330
7A04
102
}
330
2
100
AcDbEntity
  8
KIJUN
100
AcDbCircle
 10
63.52979766604185
 20
55.86991233263888
 30
0.0
 40
1.82664919688075
100
AcDbArc
 50
40.84655636606908
 51
90.92146040360708
  0
ARC
  5
78A0
102
{ACAD_REACTORS
330
7A04
102
}
330
2
100
AcDbEntity
  8
KIJUN
100
AcDbCircle
 10
66.59982750629011
 20
56.89352722069629
 30
0.0
 40
0.9612017644665309
100
AcDbArc
 50
79.88230658640924
 51
150.6522096589026
  0
ARC
  5
78A1
102
{ACAD_REACTORS
330
7A04
102
}
330
2
100
AcDbEntity
  8
KIJUN
100
AcDbCircle
 10
129.8233659579409
 20
18.52153124846873
 30
0.0
 40
74.9175954633466
100
AcDbArc
 50
148.7698171159563
 51
148.9836133921442
  0
ARC
  5
78A3
102
{ACAD_REACTORS
330
7A04
102
}
330
2
100
AcDbEntity
  8
KIJUN
100
AcDbCircle
 10
65.24254470969556
 20
57.35074627005092
 30
0.0
 40
0.4375
100
AcDbArc
 50
220.8465563660694
 51
328.9836133921471
  0
ARC
  5
78A4
102
{ACAD_REACTORS
330
7A04
102
}
330
2
100
AcDbEntity
  8
KIJUN
100
AcDbCircle
 10
71.06206568702134
 20
58.11268234409063
 30
0.0
 40
3.663550245365067
100
AcDbArc
 50
130.2082655953127
 51
176.9767374050402
  0
ARC
  5
78A6
102
{ACAD_REACTORS
330
7A04
102
}
330
2
100
AcDbEntity
  8
KIJUN
100
AcDbCircle
 10
66.86232138873686
 20
58.37773016655843
 30
0.0
 40
0.5460377291304762
100
AcDbArc
 50
260.1256607437866
 51
352.4412772213677
  0
ARC
  5
78A7
102
{ACAD_REACTORS
330
7A04
102
}
330
2
100
AcDbEntity
  8
KIJUN
100
AcDbCircle
 10
67.32825860080708
 20
63.1767064547381
 30
0.0
 40
2.647436897931572
100
AcDbArc
 50
301.1315323284109
 51
16.86738165666417
  0
ARC
  5
78A9
102
{ACAD_REACTORS
330
7A04
102
}
330
2
100
AcDbEntity
  8
KIJUN
100
AcDbCircle
 10
70.69915647686054
 20
64.19876770981442
 30
0.0
 40
0.875
100
AcDbArc
 50
149.8538625613663
 51
196.8673816566644
  0
ARC
  5
78AB
102
{ACAD_REACTORS
330
7A04
102
}
330
2
100
AcDbEntity
  8
KIJUN
100
AcDbCircle
 10
68.58891398355551
 20
62.84801606266866
 30
0.0
 40
3.564629988052563
100
AcDbArc
 50
30.14613743863326
 51
51.52028817215072
  0
ARC
  5
78AC
102
{ACAD_REACTORS
330
7A04
102
}
330
2
100
AcDbEntity
  8
KIJUN
100
AcDbCircle
 10
70.91476424966566
 20
64.19876770981442
 30
0.0
 40
0.875
100
AcDbArc
 50
343.1326183433356
 51
30.14613743863345
  0
ARC
  5
78AD
102
{ACAD_REACTORS
330
7A04
102
}
330
2
100
AcDbEntity
  8
KIJUN
100
AcDbCircle
 10
70.72958722901424
 20
55.42622727324364
 30
0.0
 40
8.271658896568432
100
AcDbArc
 50
347.5572637827349
 51
11.9538012205723
  0
ARC
  5
78AE
102
{ACAD_REACTORS
330
7A04
102
}
330
2
100
AcDbEntity
  8
KIJUN
100
AcDbCircle
 10
78.07637781176828
 20
56.92011058698181
 30
0.0
 40
0.7771018372896871
100
AcDbArc
 50
16.39683246778762
 51
87.26201636692293
  0
ARC
  5
78AF
102
{ACAD_REACTORS
330
7A04
102
}
330
2
100
AcDbEntity
  8
KIJUN
100
AcDbCircle
 10
78.08412306048435
 20
55.86991233263888
 30
0.0
 40
1.82664919688075
100
AcDbArc
 50
89.07853959639268
 51
139.1534436339311
  0
ARC
  5
78B0
102
{ACAD_REACTORS
330
7A04
102
}
330
2
100
AcDbEntity
  8
KIJUN
100
AcDbCircle
 10
76.37137601683064
 20
57.35074627005092
 30
0.0
 40
0.4375
100
AcDbArc
 50
211.0163866078529
 51
319.153443633931
  0
ARC
  5
78B1
102
{ACAD_REACTORS
330
7A04
102
}
330
2
100
AcDbEntity
  8
KIJUN
100
AcDbCircle
 10
75.01409322023609
 20
56.89352722069629
 30
0.0
 40
0.9612017644665309
100
AcDbArc
 50
29.34779034109764
 51
100.1176934135908
  0
ARC
  5
78B2
102
{ACAD_REACTORS
330
7A04
102
}
330
2
100
AcDbEntity
  8
KIJUN
100
AcDbCircle
 10
74.75159933778934
 20
58.37773016655843
 30
0.0
 40
0.5460377291304762
100
AcDbArc
 50
187.5587227786323
 51
279.8743392562131
  0
ARC
  5
78B3
102
{ACAD_REACTORS
330
7A04
102
}
330
2
100
AcDbEntity
  8
KIJUN
100
AcDbCircle
 10
11.79055476858531
 20
18.52153124846873
 30
0.0
 40
74.9175954633466
100
AcDbArc
 50
31.01638660785587
 51
31.23018288404347
  0
ARC
  5
78B4
102
{ACAD_REACTORS
330
7A04
102
}
330
2
100
AcDbEntity
  8
KIJUN
100
AcDbCircle
 10
70.55185503950486
 20
58.11268234409063
 30
0.0
 40
3.663550245365067
100
AcDbArc
 50
3.023262594959728
 51
49.79173440468691
  0
ARC
  5
78B5
102
{ACAD_REACTORS
330
7A04
102
}
330
2
100
AcDbEntity
  8
KIJUN
100
AcDbCircle
 10
74.28566212571912
 20
63.1767064547381
 30
0.0
 40
2.647436897931572
100
AcDbArc
 50
163.1326183433358
 51
238.868467671589
  0
ARC
  5
78B6
102
{ACAD_REACTORS
330
7A04
102
}
330
2
100
AcDbEntity
  8
KIJUN
100
AcDbCircle
 10
-67.18077550998647
 20
43.06596386306935
 30
0.0
 40
20.29392658792904
100
AcDbArc
 50
147.2114027064388
 51
164.0460530357981
  0
ARC
  5
78B7
102
{ACAD_REACTORS
330
7A04
102
}
330
2
100
AcDbEntity
  8
KIJUN
100
AcDbCircle
 10
-80.93649390473064
 20
34.85256439544098
 30
0.0
 40
21.22004009122139
100
AcDbArc
 50
78.46455172110762
 51
88.39623758397452
  0
ARC
  5
78B8
102
{ACAD_REACTORS
330
7A04
102
}
330
2
100
AcDbEntity
  8
KIJUN
100
AcDbCircle
 10
-80.41893043967016
 20
51.42399512951937
 30
0.0
 40
4.640924740338471
100
AcDbArc
 50
89.05763307338016
 51
145.4503763727874
  0
ARC
  5
78B9
102
{ACAD_REACTORS
330
7A04
102
}
330
2
100
AcDbEntity
  8
KIJUN
100
AcDbCircle
 10
-87.01635617367204
 20
17.46833263897498
 30
0.0
 40
31.17739025794302
100
AcDbArc
 50
72.52076256785388
 51
89.40581925219992
  0
ARC
  5
78BA
102
{ACAD_REACTORS
330
7A04
102
}
330
2
100
AcDbEntity
  8
KIJUN
100
AcDbCircle
 10
-71.23536136907259
 20
65.19367512180636
 30
0.0
 40
19.09774182496516
100
AcDbArc
 50
250.3675740390146
 51
283.7594609717248
  0
ARC
  5
78BB
102
{ACAD_REACTORS
330
7A04
102
}
330
2
100
AcDbEntity
  8
KIJUN
100
AcDbCircle
 10
-54.54693162977185
 20
51.45493594194119
 30
0.0
 40
13.06419017342544
100
AcDbArc
 50
201.6080281473731
 51
218.4823281630343
  0
ARC
  5
78BC
102
{ACAD_REACTORS
330
7A04
102
}
330
2
100
AcDbEntity
  8
KIJUN
100
AcDbCircle
 10
-71.98209556319939
 20
55.70446594565622
 30
0.0
 40
15.88188575083389
100
AcDbArc
 50
306.6414629239782
 51
320.6944128551151
  0
ARC
  5
78BD
102
{ACAD_REACTORS
330
7A04
102
}
330
2
100
AcDbEntity
  8
KIJUN
100
AcDbCircle
 10
-63.46653398977039
 20
44.21538752215575
 30
0.0
 40
1.581258660502977
100
AcDbArc
 50
214.2503145789121
 51
307.5104559594858
  0
ARC
  5
78BE
102
{ACAD_REACTORS
330
7A04
102
}
330
2
100
AcDbEntity
  8
KIJUN
100
AcDbCircle
 10
-42.38317803585625
 20
15.66512715976991
 30
0.0
 40
26.98768361853248
100
AcDbArc
 50
88.55420054057978
 51
105.7153889280417
  0
ARC
  5
78BF
102
{ACAD_REACTORS
330
7A04
102
}
330
2
100
AcDbEntity
  8
KIJUN
100
AcDbCircle
 10
-50.11319138823932
 20
40.96325116402453
 30
0.0
 40
5.306722204863669
100
AcDbArc
 50
149.6581509147452
 51
165.7239361816519
  0
ARC
  5
78C0
102
{ACAD_REACTORS
330
7A04
102
}
330
2
100
AcDbEntity
  8
KIJUN
100
AcDbCircle
 10
-54.18456545763753
 20
49.03568556708627
 30
0.0
 40
8.649339948175573
100
AcDbArc
 50
283.2283528430784
 51
301.2847512975054
  0
ARC
  5
78C1
102
{ACAD_REACTORS
330
7A04
102
}
330
2
100
AcDbEntity
  8
KIJUN
100
AcDbCircle
 10
-52.96628533767893
 20
43.95736901555948
 30
0.0
 40
3.427073441387743
100
AcDbArc
 50
237.2788850319597
 51
282.8292849516785
  0
ARC
  5
78C2
102
{ACAD_REACTORS
330
7A04
102
}
330
2
100
AcDbEntity
  8
KIJUN
100
AcDbCircle
 10
-54.28910054046371
 20
41.94617600876739
 30
0.0
 40
1.020310029045815
100
AcDbArc
 50
161.3855108989715
 51
238.724959618722
  0
ARC
  5
78C3
102
{ACAD_REACTORS
330
7A04
102
}
330
2
100
AcDbEntity
  8
KIJUN
100
AcDbCircle
 10
208.7946962365127
 20
43.06596386306935
 30
0.0
 40
20.29392658792904
100
AcDbArc
 50
15.95394696420205
 51
32.78859729356091
  0
ARC
  5
78C4
102
{ACAD_REACTORS
330
7A04
102
}
330
2
100
AcDbEntity
  8
KIJUN
100
AcDbCircle
 10
222.5504146312568
 20
34.85256439544098
 30
0.0
 40
21.22004009122138
100
AcDbArc
 50
91.60376241602548
 51
101.5354482788916
  0
ARC
  5
78C5
102
{ACAD_REACTORS
330
7A04
102
}
330
2
100
AcDbEntity
  8
KIJUN
100
AcDbCircle
 10
222.0328511661963
 20
51.42399512951937
 30
0.0
 40
4.640924740338471
100
AcDbArc
 50
34.54962362721247
 51
90.94236692661949
  0
ARC
  5
78C6
102
{ACAD_REACTORS
330
7A04
102
}
330
2
100
AcDbEntity
  8
KIJUN
100
AcDbCircle
 10
228.6302769001982
 20
17.46833263897498
 30
0.0
 40
31.17739025794302
100
AcDbArc
 50
90.59418074779948
 51
107.4792374321456
  0
ARC
  5
78C7
102
{ACAD_REACTORS
330
7A04
102
}
330
2
100
AcDbEntity
  8
KIJUN
100
AcDbCircle
 10
212.8492820955988
 20
65.19367512180636
 30
0.0
 40
19.09774182496516
100
AcDbArc
 50
256.2405390282754
 51
289.6324259609858
  0
ARC
  5
78C8
102
{ACAD_REACTORS
330
7A04
102
}
330
2
100
AcDbEntity
  8
KIJUN
100
AcDbCircle
 10
196.160852356298
 20
51.45493594194119
 30
0.0
 40
13.06419017342544
100
AcDbArc
 50
321.5176718369659
 51
338.3919718526268
  0
ARC
  5
78C9
102
{ACAD_REACTORS
330
7A04
102
}
330
2
100
AcDbEntity
  8
KIJUN
100
AcDbCircle
 10
205.0804547162966
 20
44.21538752215575
 30
0.0
 40
1.581258660502977
100
AcDbArc
 50
232.4895440405145
 51
325.7496854210883
  0
ARC
  5
78CA
102
{ACAD_REACTORS
330
7A04
102
}
330
2
100
AcDbEntity
  8
KIJUN
100
AcDbCircle
 10
213.5960162897256
 20
55.70446594565622
 30
0.0
 40
15.88188575083389
100
AcDbArc
 50
219.3055871448853
 51
233.3585370760221
  0
ARC
  5
78CB
102
{ACAD_REACTORS
330
7A04
102
}
330
2
100
AcDbEntity
  8
KIJUN
100
AcDbCircle
 10
183.9970987623824
 20
15.66512715976991
 30
0.0
 40
26.98768361853247
100
AcDbArc
 50
74.28461107195755
 51
91.4457994594203
  0
ARC
  5
78CC
102
{ACAD_REACTORS
330
7A04
102
}
330
2
100
AcDbEntity
  8
KIJUN
100
AcDbCircle
 10
191.7271121147655
 20
40.96325116402453
 30
0.0
 40
5.306722204863667
100
AcDbArc
 50
14.27606381834825
 51
30.34184908525504
  0
ARC
  5
78CD
102
{ACAD_REACTORS
330
7A04
102
}
330
2
100
AcDbEntity
  8
KIJUN
100
AcDbCircle
 10
195.7984861841637
 20
49.03568556708627
 30
0.0
 40
8.649339948175571
100
AcDbArc
 50
238.7152487024947
 51
256.7716471569222
  0
ARC
  5
78CE
102
{ACAD_REACTORS
330
7A04
102
}
330
2
100
AcDbEntity
  8
KIJUN
100
AcDbCircle
 10
194.5802060642051
 20
43.95736901555948
 30
0.0
 40
3.427073441387742
100
AcDbArc
 50
257.1707150483209
 51
302.7211149680399
  0
ARC
  5
78CF
102
{ACAD_REACTORS
330
7A04
102
}
330
2
100
AcDbEntity
  8
KIJUN
100
AcDbCircle
 10
195.9030212669899
 20
41.94617600876739
 30
0.0
 40
1.020310029045815
100
AcDbArc
 50
301.2750403812776
 51
18.61448910102842
  0
ARC
  5
78D0
102
{ACAD_REACTORS
330
7A04
102
}
330
2
100
AcDbEntity
  8
KIJUN
100
AcDbCircle
 10
75.80767167464322
 20
3.329851919290499
 30
0.0
 40
45.57962664125083
100
AcDbArc
 50
123.7008341522925
 51
131.1630727625977
  0
ARC
  5
78D2
102
{ACAD_REACTORS
330
7A04
102
}
330
2
100
AcDbEntity
  8
KIJUN
100
AcDbCircle
 10
59.19684967623471
 20
28.13847836141973
 30
0.0
 40
15.72365779511053
100
AcDbArc
 50
80.44472832937
 51
123.5037739927629
  0
ARC
  5
78D3
102
{ACAD_REACTORS
330
7A04
102
}
330
2
100
AcDbEntity
  8
KIJUN
100
AcDbCircle
 10
46.99048620835902
 20
40.85744867947606
 30
0.0
 40
4.188967226229552
100
AcDbArc
 50
182.9209737362818
 51
226.7698480952541
  0
ARC
  5
78D4
102
{ACAD_REACTORS
330
7A04
102
}
330
2
100
AcDbEntity
  8
KIJUN
100
AcDbCircle
 10
45.07031594368579
 20
38.83381882920642
 30
0.0
 40
1.399410762267311
100
AcDbArc
 50
227.3023532002433
 51
301.7623233018056
  0
ARC
  5
78D5
102
{ACAD_REACTORS
330
7A04
102
}
330
2
100
AcDbEntity
  8
KIJUN
100
AcDbCircle
 10
65.2496814358883
 20
30.44606520860493
 30
0.0
 40
24.65102942225125
100
AcDbArc
 50
155.5630627623166
 51
172.5589795585315
  0
ARC
  5
78D6
102
{ACAD_REACTORS
330
7A04
102
}
330
2
100
AcDbEntity
  8
KIJUN
100
AcDbCircle
 10
40.02799706638208
 20
39.2733050180408
 30
0.0
 40
7.684833965147308
100
AcDbArc
 50
200.0075517857286
 51
209.4545222153853
  0
ARC
  5
78D7
102
{ACAD_REACTORS
330
7A04
102
}
330
2
100
AcDbEntity
  8
KIJUN
100
AcDbCircle
 10
48.19612003451151
 20
292.4506536645379
 30
0.0
 40
258.9176237263175
100
AcDbArc
 50
267.3365392923859
 51
268.3644755160444
  0
ARC
  5
78DB
102
{ACAD_REACTORS
330
7A04
102
}
330
2
100
AcDbEntity
  8
KIJUN
100
AcDbCircle
 10
36.60689893298274
 20
37.7754327510908
 30
0.0
 40
3.987330485380716
100
AcDbArc
 50
214.8943273570427
 51
263.6279531008205
  0
ARC
  5
78DC
102
{ACAD_REACTORS
330
7A04
102
}
330
2
100
AcDbEntity
  8
KIJUN
100
AcDbCircle
 10
33.99645389357237
 20
42.76466759788164
 30
0.0
 40
5.309120092784496
100
AcDbArc
 50
192.2323452812781
 51
214.9614911175693
  0
ARC
  5
78DD
102
{ACAD_REACTORS
330
7A04
102
}
330
2
100
AcDbEntity
  8
KIJUN
100
AcDbCircle
 10
30.00822725377797
 20
42.58170209845337
 30
0.0
 40
6.564251418579282
100
AcDbArc
 50
285.5126780555158
 51
295.236780273832
  0
ARC
  5
78DE
102
{ACAD_REACTORS
330
7A04
102
}
330
2
100
AcDbEntity
  8
KIJUN
100
AcDbCircle
 10
28.73894038304088
 20
37.45928180540479
 30
0.0
 40
2.233177296591366
100
AcDbArc
 50
8.948762295116477
 51
50.16365326418864
  0
ARC
  5
78DF
102
{ACAD_REACTORS
330
7A04
102
}
330
2
100
AcDbEntity
  8
KIJUN
100
AcDbCircle
 10
34.19060505477242
 20
43.54201953438712
 30
0.0
 40
5.937007347556257
100
AcDbArc
 50
220.0425906151704
 51
227.3674707498283
  0
ARC
  5
78E0
102
{ACAD_REACTORS
330
7A04
102
}
330
2
100
AcDbEntity
  8
KIJUN
100
AcDbCircle
 10
40.51378079169504
 20
38.95499847459449
 30
0.0
 40
9.637504896412439
100
AcDbArc
 50
186.8432568309321
 51
194.5502441991896
  0
ARC
  5
78E2
102
{ACAD_REACTORS
330
7A04
102
}
330
2
100
AcDbEntity
  8
KIJUN
100
AcDbCircle
 10
31.63502896239688
 20
36.7299474915198
 30
0.0
 40
0.4905841907615422
100
AcDbArc
 50
203.5699105685851
 51
285.2232310138085
  0
ARC
  5
78E3
102
{ACAD_REACTORS
330
7A04
102
}
330
2
100
AcDbEntity
  8
KIJUN
100
AcDbCircle
 10
65.80624905188298
 20
3.329851919290499
 30
0.0
 40
45.57962664125083
100
AcDbArc
 50
48.83692723740211
 51
56.29916584770816
  0
ARC
  5
78E4
102
{ACAD_REACTORS
330
7A04
102
}
330
2
100
AcDbEntity
  8
KIJUN
100
AcDbCircle
 10
82.41707105029149
 20
28.13847836141973
 30
0.0
 40
15.72365779511053
100
AcDbArc
 50
56.49622600723646
 51
99.5552716706293
  0
ARC
  5
78E5
102
{ACAD_REACTORS
330
7A04
102
}
330
2
100
AcDbEntity
  8
KIJUN
100
AcDbCircle
 10
94.62343451816719
 20
40.85744867947606
 30
0.0
 40
4.188967226229552
100
AcDbArc
 50
313.2301519047465
 51
357.0790262637182
  0
ARC
  5
78E6
102
{ACAD_REACTORS
330
7A04
102
}
330
2
100
AcDbEntity
  8
KIJUN
100
AcDbCircle
 10
96.5436047828404
 20
38.83381882920642
 30
0.0
 40
1.399410762267311
100
AcDbArc
 50
238.2376766981944
 51
312.6976467997569
  0
ARC
  5
78E7
102
{ACAD_REACTORS
330
7A04
102
}
330
2
100
AcDbEntity
  8
KIJUN
100
AcDbCircle
 10
76.3642392906473
 20
30.44606520860831
 30
0.0
 40
24.65102942224128
100
AcDbArc
 50
7.441020441463632
 51
24.43693723768554
  0
ARC
  5
78E8
102
{ACAD_REACTORS
330
7A04
102
}
330
2
100
AcDbEntity
  8
KIJUN
100
AcDbCircle
 10
101.5859236601441
 20
39.2733050180408
 30
0.0
 40
7.684833965147308
100
AcDbArc
 50
330.5454777846146
 51
339.9924482142712
  0
ARC
  5
78EB
102
{ACAD_REACTORS
330
7A04
102
}
330
2
100
AcDbEntity
  8
KIJUN
100
AcDbCircle
 10
107.6174668329538
 20
42.76466759788164
 30
0.0
 40
5.309120092784496
100
AcDbArc
 50
325.0385088824311
 51
347.767654718722
  0
ARC
  5
78EC
102
{ACAD_REACTORS
330
7A04
102
}
330
2
100
AcDbEntity
  8
KIJUN
100
AcDbCircle
 10
111.6056934727482
 20
42.58170209845337
 30
0.0
 40
6.564251418579282
100
AcDbArc
 50
244.7632197261682
 51
254.4873219444848
  0
ARC
  5
78ED
102
{ACAD_REACTORS
330
7A04
102
}
330
2
100
AcDbEntity
  8
KIJUN
100
AcDbCircle
 10
112.8749803434853
 20
37.45928180540479
 30
0.0
 40
2.233177296591366
100
AcDbArc
 50
129.8363467358113
 51
171.0512377048836
  0
ARC
  5
78EE
102
{ACAD_REACTORS
330
7A04
102
}
330
2
100
AcDbEntity
  8
KIJUN
100
AcDbCircle
 10
107.4233156717538
 20
43.54201953438712
 30
0.0
 40
5.937007347556257
100
AcDbArc
 50
312.6325292501717
 51
319.9574093848292
  0
ARC
  5
78EF
102
{ACAD_REACTORS
330
7A04
102
}
330
2
100
AcDbEntity
  8
KIJUN
100
AcDbCircle
 10
101.1001399348311
 20
38.95499847459449
 30
0.0
 40
9.637504896412439
100
AcDbArc
 50
345.4497558008104
 51
353.1567431690678
  0
ARC
  5
78F0
102
{ACAD_REACTORS
330
7A04
102
}
330
2
100
AcDbEntity
  8
KIJUN
100
AcDbCircle
 10
109.9788917641293
 20
36.7299474915198
 30
0.0
 40
0.4905841907615422
100
AcDbArc
 50
254.7767689861922
 51
336.4300894314147
  0
ARC
  5
78F1
102
{ACAD_REACTORS
330
7A04
102
}
330
2
100
AcDbEntity
  8
KIJUN
100
AcDbCircle
 10
-64.10057212871769
 20
39.31721931263515
 30
0.0
 40
20.61876234079095
100
AcDbArc
 50
124.6017060345355
 51
127.6421835131541
  0
ARC
  5
78F2
102
{ACAD_REACTORS
330
7A04
102
}
330
2
100
AcDbEntity
  8
KIJUN
100
AcDbCircle
 10
-71.85542793196217
 20
58.01690334793803
 30
0.0
 40
3.324337385559686
100
AcDbArc
 50
234.7125724066787
 51
261.8147462322421
  0
ARC
  5
78F3
102
{ACAD_REACTORS
330
7A04
102
}
330
2
100
AcDbEntity
  8
KIJUN
100
AcDbCircle
 10
-465.1841521784483
 20
-350.0578848336479
 30
0.0
 40
563.4875514364547
100
AcDbArc
 50
46.00325361432888
 51
46.13459538089877
  0
ARC
  5
78F4
102
{ACAD_REACTORS
330
7A04
102
}
330
2
100
AcDbEntity
  8
KIJUN
100
AcDbCircle
 10
-71.06023722705676
 20
66.70208217671472
 30
0.0
 40
12.04264432092379
100
AcDbArc
 50
263.9536346674738
 51
306.4266130904412
  0
ARC
  5
78F5
102
{ACAD_REACTORS
330
7A04
102
}
330
2
100
AcDbEntity
  8
KIJUN
100
AcDbCircle
 10
-65.94773412461188
 20
52.27771511274879
 30
0.0
 40
6.402183738925474
100
AcDbArc
 50
12.32207387397041
 51
46.307678834375
  0
ARC
  5
78F6
102
{ACAD_REACTORS
330
7A04
102
}
330
2
100
AcDbEntity
  8
KIJUN
100
AcDbCircle
 10
-62.79854992023385
 20
55.12304745465387
 30
0.0
 40
2.191681962222476
100
AcDbArc
 50
54.47959463352589
 51
120.4542125363247
  0
ARC
  5
78F7
102
{ACAD_REACTORS
330
7A04
102
}
330
2
100
AcDbEntity
  8
KIJUN
100
AcDbCircle
 10
-75.31242798533712
 20
55.56869431092447
 30
0.0
 40
0.875
100
AcDbArc
 50
46.13459538089634
 51
124.6017060345357
  0
ARC
  5
78F9
102
{ACAD_REACTORS
330
7A04
102
}
330
2
100
AcDbEntity
  8
KIJUN
100
AcDbCircle
 10
-35.23095468996832
 20
-55.66641616698126
 30
0.0
 40
112.0140931901484
100
AcDbArc
 50
100.0057326671475
 51
102.6141322808937
  0
ARC
  5
78FB
102
{ACAD_REACTORS
330
7A04
102
}
330
2
100
AcDbEntity
  8
KIJUN
100
AcDbCircle
 10
-49.69508860687277
 20
52.99465662343672
 30
0.0
 40
5.26305520176412
100
AcDbArc
 50
138.2203981641086
 51
161.7370517731806
  0
ARC
  5
78FC
102
{ACAD_REACTORS
330
7A04
102
}
330
2
100
AcDbEntity
  8
KIJUN
100
AcDbCircle
 10
-52.2965734775038
 20
9.177766232156891
 30
0.0
 40
47.97055387413279
100
AcDbArc
 50
66.84537248982055
 51
89.80220564980493
  0
ARC
  5
78FD
102
{ACAD_REACTORS
330
7A04
102
}
330
2
100
AcDbEntity
  8
KIJUN
100
AcDbCircle
 10
-45.46170620699806
 20
28.59476342127305
 30
0.0
 40
27.46332570695471
100
AcDbArc
 50
46.88942712251352
 51
64.02624304169215
  0
ARC
  5
78FE
102
{ACAD_REACTORS
330
7A04
102
}
330
2
100
AcDbEntity
  8
KIJUN
100
AcDbCircle
 10
-52.06401778694665
 20
54.95689860828519
 30
0.0
 40
2.19215836126076
100
AcDbArc
 50
91.7502250868886
 51
135.2114770895286
  0
ARC
  5
78FF
102
{ACAD_REACTORS
330
7A04
102
}
330
2
100
AcDbEntity
  8
KIJUN
100
AcDbCircle
 10
-34.70942400104587
 20
56.34398732570562
 30
0.0
 40
11.11541795013681
100
AcDbArc
 50
316.1532612255446
 51
334.4672171459038
  0
ARC
  5
7900
102
{ACAD_REACTORS
330
7A04
102
}
330
2
100
AcDbEntity
  8
KIJUN
100
AcDbCircle
 10
-13.79582163354201
 20
50.49546477800175
 30
0.0
 40
6.529446349983796
100
AcDbArc
 50
191.4392668776897
 51
243.6588318422053
  0
ARC
  5
7901
102
{ACAD_REACTORS
330
7A04
102
}
330
2
100
AcDbEntity
  8
KIJUN
100
AcDbCircle
 10
-31.56048262684197
 20
49.205312566131
 30
0.0
 40
11.36491996858902
100
AcDbArc
 50
359.9756645375592
 51
16.93270499132946
  0
ARC
  5
7902
102
{ACAD_REACTORS
330
7A04
102
}
330
2
100
AcDbEntity
  8
KIJUN
100
AcDbCircle
 10
-20.54396358295646
 20
49.48687512585664
 30
0.0
 40
4.622953029884489
100
AcDbArc
 50
121.398531955159
 51
153.4541467557889
  0
ARC
  5
7903
102
{ACAD_REACTORS
330
7A04
102
}
330
2
100
AcDbEntity
  8
KIJUN
100
AcDbCircle
 10
-22.12721715314568
 20
52.21686949623197
 30
0.0
 40
1.469582546871601
100
AcDbArc
 50
11.7176814087578
 51
124.163261218214
  0
ARC
  5
7904
102
{ACAD_REACTORS
330
7A04
102
}
330
2
100
AcDbEntity
  8
KIJUN
100
AcDbCircle
 10
-1.115229366070145
 20
64.33757255225604
 30
0.0
 40
21.39194941124577
100
AcDbArc
 50
231.8282360360447
 51
270.0038377807835
  0
ARC
  5
7905
102
{ACAD_REACTORS
330
7A04
102
}
330
2
100
AcDbEntity
  8
KIJUN
100
AcDbCircle
 10
-9.78979190513942
 20
43.39218817229844
 30
0.0
 40
7.01582347601366
100
AcDbArc
 50
145.9317725929773
 51
169.721978952897
  0
ARC
  5
7906
102
{ACAD_REACTORS
330
7A04
102
}
330
2
100
AcDbEntity
  8
KIJUN
100
AcDbCircle
 10
-14.87667261512079
 20
46.83215294042905
 30
0.0
 40
0.875
100
AcDbArc
 50
51.82823603604487
 51
145.9317725929773
  0
ARC
  5
7907
102
{ACAD_REACTORS
330
7A04
102
}
330
2
100
AcDbEntity
  8
KIJUN
100
AcDbCircle
 10
7.488258705701396
 20
78.85950329302909
 30
0.0
 40
33.04658943617077
100
AcDbArc
 50
253.2597577222142
 51
293.5375079968658
  0
ARC
  5
7908
102
{ACAD_REACTORS
330
7A04
102
}
330
2
100
AcDbEntity
  8
KIJUN
100
AcDbCircle
 10
11.01531240656795
 20
52.87276420793302
 30
0.0
 40
15.67365341882657
100
AcDbArc
 50
206.0452346525903
 51
219.2988130783273
  0
ARC
  5
7909
102
{ACAD_REACTORS
330
7A04
102
}
330
2
100
AcDbEntity
  8
KIJUN
100
AcDbCircle
 10
-2.280503350717722
 20
46.37496255207576
 30
0.0
 40
0.875
100
AcDbArc
 50
73.38152889280326
 51
206.04523465259
  0
ARC
  5
790A
102
{ACAD_REACTORS
330
7A04
102
}
330
2
100
AcDbEntity
  8
KIJUN
100
AcDbCircle
 10
21.85847428977489
 20
46.97236120231722
 30
0.0
 40
1.975964543457028
100
AcDbArc
 50
350.433899370517
 51
126.4182917857437
  0
ARC
  5
790B
102
{ACAD_REACTORS
330
7A04
102
}
330
2
100
AcDbEntity
  8
KIJUN
100
AcDbCircle
 10
30.02476994652747
 20
50.43850484064098
 30
0.0
 40
4.378254893777436
100
AcDbArc
 50
30.24740803296445
 51
106.1497729943251
  0
ARC
  5
790C
102
{ACAD_REACTORS
330
7A04
102
}
330
2
100
AcDbEntity
  8
KIJUN
100
AcDbCircle
 10
34.36891524498614
 20
48.87171292832054
 30
0.0
 40
3.813898985151651
100
AcDbArc
 50
58.54317425558294
 51
98.4730138198501
  0
ARC
  5
790D
102
{ACAD_REACTORS
330
7A04
102
}
330
2
100
AcDbEntity
  8
KIJUN
100
AcDbCircle
 10
23.94907702116416
 20
41.58445798904009
 30
0.0
 40
19.13800650272441
100
AcDbArc
 50
28.25384677689187
 51
34.74322837885161
  0
ARC
  5
790E
102
{ACAD_REACTORS
330
7A04
102
}
330
2
100
AcDbEntity
  8
KIJUN
100
AcDbCircle
 10
38.70591232930268
 20
51.61549961216611
 30
0.0
 40
1.306170849438988
100
AcDbArc
 50
42.10058462689061
 51
107.6601507630559
  0
ARC
  5
790F
102
{ACAD_REACTORS
330
7A04
102
}
330
2
100
AcDbEntity
  8
KIJUN
100
AcDbCircle
 10
39.07351287317482
 20
50.62344342868716
 30
0.0
 40
2.363507798091734
100
AcDbArc
 50
108.8557489400323
 51
138.8328226965655
  0
ARC
  5
7911
102
{ACAD_REACTORS
330
7A04
102
}
330
2
100
AcDbEntity
  8
KIJUN
100
AcDbCircle
 10
36.79467476508814
 20
52.70612847140362
 30
0.0
 40
0.7260974106541215
100
AcDbArc
 50
233.1502911030327
 51
313.4777659352217
  0
ARC
  5
7912
102
{ACAD_REACTORS
330
7A04
102
}
330
2
100
AcDbEntity
  8
KIJUN
100
AcDbCircle
 10
205.7144928552439
 20
39.31721931263515
 30
0.0
 40
20.61876234079095
100
AcDbArc
 50
52.35781648684526
 51
55.39829396546499
  0
ARC
  5
7913
102
{ACAD_REACTORS
330
7A04
102
}
330
2
100
AcDbEntity
  8
KIJUN
100
AcDbCircle
 10
216.9263487118633
 20
55.56869431092447
 30
0.0
 40
0.875
100
AcDbArc
 50
55.39829396546358
 51
133.865404619104
  0
ARC
  5
7914
102
{ACAD_REACTORS
330
7A04
102
}
330
2
100
AcDbEntity
  8
KIJUN
100
AcDbCircle
 10
213.4693486584883
 20
58.01690334793803
 30
0.0
 40
3.324337385559686
100
AcDbArc
 50
278.1852537677574
 51
305.287427593321
  0
ARC
  5
7915
102
{ACAD_REACTORS
330
7A04
102
}
330
2
100
AcDbEntity
  8
KIJUN
100
AcDbCircle
 10
606.7980729049745
 20
-350.0578848336479
 30
0.0
 40
563.4875514364547
100
AcDbArc
 50
133.8654046191017
 51
133.9967463856708
  0
ARC
  5
7916
102
{ACAD_REACTORS
330
7A04
102
}
330
2
100
AcDbEntity
  8
KIJUN
100
AcDbCircle
 10
212.6741579535829
 20
66.70208217671472
 30
0.0
 40
12.04264432092379
100
AcDbArc
 50
233.5733869095583
 51
276.0463653325262
  0
ARC
  5
7917
102
{ACAD_REACTORS
330
7A04
102
}
330
2
100
AcDbEntity
  8
KIJUN
100
AcDbCircle
 10
207.5616548511381
 20
52.27771511274879
 30
0.0
 40
6.402183738925474
100
AcDbArc
 50
133.6923211656253
 51
167.6779261260297
  0
ARC
  5
7918
102
{ACAD_REACTORS
330
7A04
102
}
330
2
100
AcDbEntity
  8
KIJUN
100
AcDbCircle
 10
204.4124706467601
 20
55.12304745465387
 30
0.0
 40
2.191681962222476
100
AcDbArc
 50
59.54578746367475
 51
125.5204053664734
  0
ARC
  5
7919
102
{ACAD_REACTORS
330
7A04
102
}
330
2
100
AcDbEntity
  8
KIJUN
100
AcDbCircle
 10
176.8448754164945
 20
-55.66641616698126
 30
0.0
 40
112.0140931901484
100
AcDbArc
 50
77.38586771910695
 51
79.99426733285197
  0
ARC
  5
791A
102
{ACAD_REACTORS
330
7A04
102
}
330
2
100
AcDbEntity
  8
KIJUN
100
AcDbCircle
 10
191.3090093333989
 20
52.99465662343672
 30
0.0
 40
5.26305520176412
100
AcDbArc
 50
18.2629482268193
 51
41.77960183589094
  0
ARC
  5
791B
102
{ACAD_REACTORS
330
7A04
102
}
330
2
100
AcDbEntity
  8
KIJUN
100
AcDbCircle
 10
193.91049420403
 20
9.177766232156891
 30
0.0
 40
47.97055387413279
100
AcDbArc
 50
90.19779435019543
 51
113.1546275101792
  0
ARC
  5
791C
102
{ACAD_REACTORS
330
7A04
102
}
330
2
100
AcDbEntity
  8
KIJUN
100
AcDbCircle
 10
187.0756269335242
 20
28.59476342127305
 30
0.0
 40
27.46332570695471
100
AcDbArc
 50
115.9737569583077
 51
133.1105728774862
  0
ARC
  5
791D
102
{ACAD_REACTORS
330
7A04
102
}
330
2
100
AcDbEntity
  8
KIJUN
100
AcDbCircle
 10
193.6779385134728
 20
54.95689860828519
 30
0.0
 40
2.19215836126076
100
AcDbArc
 50
44.78852291047097
 51
88.24977491311091
  0
ARC
  5
791E
102
{ACAD_REACTORS
330
7A04
102
}
330
2
100
AcDbEntity
  8
KIJUN
100
AcDbCircle
 10
176.323344727572
 20
56.34398732570562
 30
0.0
 40
11.11541795013681
100
AcDbArc
 50
205.5327828540963
 51
223.8467387744552
  0
ARC
  5
791F
102
{ACAD_REACTORS
330
7A04
102
}
330
2
100
AcDbEntity
  8
KIJUN
100
AcDbCircle
 10
155.4097423600682
 20
50.49546477800175
 30
0.0
 40
6.529446349983796
100
AcDbArc
 50
296.3411681577952
 51
348.5607331223102
  0
ARC
  5
7920
102
{ACAD_REACTORS
330
7A04
102
}
330
2
100
AcDbEntity
  8
KIJUN
100
AcDbCircle
 10
173.1744033533682
 20
49.205312566131
 30
0.0
 40
11.36491996858902
100
AcDbArc
 50
163.0672950086707
 51
180.0243354624407
  0
ARC
  5
7921
102
{ACAD_REACTORS
330
7A04
102
}
330
2
100
AcDbEntity
  8
KIJUN
100
AcDbCircle
 10
162.1578843094826
 20
49.48687512585664
 30
0.0
 40
4.622953029884489
100
AcDbArc
 50
26.54585324421077
 51
58.60146804484124
  0
ARC
  5
7922
102
{ACAD_REACTORS
330
7A04
102
}
330
2
100
AcDbEntity
  8
KIJUN
100
AcDbCircle
 10
163.7411378796718
 20
52.21686949623197
 30
0.0
 40
1.469582546871601
100
AcDbArc
 50
55.83673878178566
 51
168.2823185912423
  0
ARC
  5
7923
102
{ACAD_REACTORS
330
7A04
102
}
330
2
100
AcDbEntity
  8
KIJUN
100
AcDbCircle
 10
142.7291500925963
 20
64.33757255225604
 30
0.0
 40
21.39194941124577
100
AcDbArc
 50
269.9961622192156
 51
308.1717639639549
  0
ARC
  5
7924
102
{ACAD_REACTORS
330
7A04
102
}
330
2
100
AcDbEntity
  8
KIJUN
100
AcDbCircle
 10
151.4037126316656
 20
43.39218817229844
 30
0.0
 40
7.01582347601366
100
AcDbArc
 50
10.27802104710307
 51
34.06822740702279
  0
ARC
  5
7925
102
{ACAD_REACTORS
330
7A04
102
}
330
2
100
AcDbEntity
  8
KIJUN
100
AcDbCircle
 10
156.490593341647
 20
46.83215294042905
 30
0.0
 40
0.875
100
AcDbArc
 50
34.06822740702281
 51
128.1717639639547
  0
ARC
  5
7926
102
{ACAD_REACTORS
330
7A04
102
}
330
2
100
AcDbEntity
  8
KIJUN
100
AcDbCircle
 10
134.1256620208248
 20
78.85950329302909
 30
0.0
 40
33.04658943617077
100
AcDbArc
 50
246.4624920031342
 51
286.7402422777853
  0
ARC
  5
7927
102
{ACAD_REACTORS
330
7A04
102
}
330
2
100
AcDbEntity
  8
KIJUN
100
AcDbCircle
 10
130.5986083199582
 20
52.87276420793302
 30
0.0
 40
15.67365341882657
100
AcDbArc
 50
320.7011869216728
 51
333.9547653474095
  0
ARC
  5
7928
102
{ACAD_REACTORS
330
7A04
102
}
330
2
100
AcDbEntity
  8
KIJUN
100
AcDbCircle
 10
143.8944240772439
 20
46.37496255207576
 30
0.0
 40
0.875
100
AcDbArc
 50
333.9547653474099
 51
106.6184711071962
  0
ARC
  5
7929
102
{ACAD_REACTORS
330
7A04
102
}
330
2
100
AcDbEntity
  8
KIJUN
100
AcDbCircle
 10
119.7554464367513
 20
46.97236120231722
 30
0.0
 40
1.975964543457028
100
AcDbArc
 50
53.58170821425591
 51
189.5661006294829
  0
ARC
  5
792A
102
{ACAD_REACTORS
330
7A04
102
}
330
2
100
AcDbEntity
  8
KIJUN
100
AcDbCircle
 10
111.5891507799987
 20
50.43850484064098
 30
0.0
 40
4.378254893777436
100
AcDbArc
 50
73.85022700567514
 51
149.7525919670357
  0
ARC
  5
792B
102
{ACAD_REACTORS
330
7A04
102
}
330
2
100
AcDbEntity
  8
KIJUN
100
AcDbCircle
 10
107.24500548154
 20
48.87171292832054
 30
0.0
 40
3.813898985151651
100
AcDbArc
 50
81.52698618014968
 51
121.4568257444169
  0
ARC
  5
792C
102
{ACAD_REACTORS
330
7A04
102
}
330
2
100
AcDbEntity
  8
KIJUN
100
AcDbCircle
 10
117.664843705362
 20
41.58445798904009
 30
0.0
 40
19.13800650272441
100
AcDbArc
 50
145.2567716211483
 51
151.7461532231083
  0
ARC
  5
792D
102
{ACAD_REACTORS
330
7A04
102
}
330
2
100
AcDbEntity
  8
KIJUN
100
AcDbCircle
 10
102.9080083972235
 20
51.61549961216611
 30
0.0
 40
1.306170849438988
100
AcDbArc
 50
72.33984923694463
 51
137.899415373109
  0
ARC
  5
792E
102
{ACAD_REACTORS
330
7A04
102
}
330
2
100
AcDbEntity
  8
KIJUN
100
AcDbCircle
 10
102.5404078533514
 20
50.62344342868716
 30
0.0
 40
2.363507798091734
100
AcDbArc
 50
41.16717730343495
 51
71.14425105996783
  0
ARC
  5
792F
102
{ACAD_REACTORS
330
7A04
102
}
330
2
100
AcDbEntity
  8
KIJUN
100
AcDbCircle
 10
104.8192459614381
 20
52.70612847140362
 30
0.0
 40
0.7260974106541215
100
AcDbArc
 50
226.5222340647781
 51
306.8497088969668
  0
ARC
  5
79E5
102
{ACAD_REACTORS
330
7A04
102
}
330
2
100
AcDbEntity
  8
KIJUN
100
AcDbCircle
 10
147.0795782357097
 20
111.0445770395869
 30
0.0
 40
77.40606689715573
100
AcDbArc
 50
243.7188822445083
 51
297.913384985486
  0
ARC
  5
79E6
102
{ACAD_REACTORS
330
7A04
102
}
330
2
100
AcDbEntity
  8
KIJUN
100
AcDbCircle
 10
105.0070217935434
 20
37.7754327510908
 30
0.0
 40
3.987330485380715
100
AcDbArc
 50
276.37204689918
 51
325.1056726429576
  0
ARC
  5
79E7
102
{ACAD_REACTORS
330
7A04
102
}
330
2
100
AcDbEntity
  8
KIJUN
100
AcDbCircle
 10
100.1748958871325
 20
112.4214737713498
 30
0.0
 40
78.78550480577114
100
AcDbArc
 50
270.460185660599
 51
273.83879953097
  0
ENDSEC
  0
SECTION
  2
OBJECTS
  0
DICTIONARY
  5
1A
330
0
100
AcDbDictionary
281
     1
  3
ACAD_COLOR
350
144
  3
ACAD_GROUP
350
18
  3
ACAD_LAYOUT
350
58
  3
ACAD_MATERIAL
350
143
  3
ACAD_MLINESTYLE
350
19
  3
ACAD_PLOTSETTINGS
350
59
  3
ACAD_PLOTSTYLENAME
350
56
  3
ACAD_TABLESTYLE
350
145
  3
ACDBHEADERROUNDTRIPXREC
350
7A0C
  3
AcDbVariableDictionary
350
1D1
  0
DICTIONARY
  5
1B4
330
A
100
AcDbDictionary
280
     1
281
     1
  3
ACAD_LAYERFILTERS
360
7795
  3
ACLYDICTIONARY
360
7794
  0
DICTIONARY
  5
D13
330
2
100
AcDbDictionary
280
     1
281
     1
  3
ACAD_SORTENTS
360
D14
  0
DICTIONARY
  5
144
102
{ACAD_REACTORS
330
1A
102
}
330
1A
100
AcDbDictionary
281
     1
  0
DICTIONARY
  5
18
102
{ACAD_REACTORS
330
1A
102
}
330
1A
100
AcDbDictionary
281
     1
  3
*A1
350
E0D
  3
*A10
350
31DF
  3
*A11
350
32E4
  3
*A12
350
2C6B
  3
*A13
350
3349
  3
*A14
350
24D6
  3
*A15
350
2037
  3
*A16
350
3A25
  3
*A17
350
3467
  3
*A18
350
422E
  3
*A19
350
4407
  3
*A2
350
265A
  3
*A20
350
4516
  3
*A21
350
307D
  3
*A22
350
FF8
  3
*A23
350
2D78
  3
*A24
350
136A
  3
*A25
350
1555
  3
*A26
350
2A17
  3
*A27
350
17BC
  3
*A28
350
34BB
  3
*A29
350
45E5
  3
*A3
350
26DD
  3
*A30
350
46A5
  3
*A31
350
4781
  3
*A32
350
48BA
  3
*A33
350
4A53
  3
*A34
350
1A98
  3
*A35
350
3695
  3
*A36
350
4B49
  3
*A37
350
4C3E
  3
*A38
350
4CEC
  3
*A39
350
4D76
  3
*A4
350
3988
  3
*A40
350
3C81
  3
*A41
350
4E16
  3
*A42
350
4EE5
  3
*A43
350
4F64
  3
*A44
350
5011
  3
*A45
350
22C8
  3
*A46
350
519C
  3
*A47
350
52B0
  3
*A48
350
36C9
  3
*A49
350
5396
  3
*A5
350
275E
  3
*A50
350
5464
  3
*A51
350
556A
  3
*A52
350
213E
  3
*A53
350
57BF
  3
*A54
350
58EE
  3
*A55
350
382B
  3
*A56
350
1EFE
  3
*A57
350
2573
  3
*A58
350
3878
  3
*A59
350
5D92
  3
*A6
350
2905
  3
*A60
350
3E5C
  3
*A61
350
3181
  3
*A62
350
2B84
  3
*A63
350
5F6F
  3
*A64
350
626B
  3
*A65
350
6417
  3
*A66
350
668C
  3
*A67
350
241A
  3
*A68
350
68C5
  3
*A69
350
6A30
  3
*A7
350
2EE1
  3
*A70
350
6A98
  3
*A71
350
6C32
  3
*A72
350
6D00
  3
*A73
350
6DE3
  3
*A74
350
6EB7
  3
*A75
350
706D
  3
*A76
350
7170
  3
*A77
350
35A5
  3
*A78
350
401B
  3
*A8
350
1CBC
  3
*A80
350
7453
  3
*A84
350
76E3
  3
*A85
350
7793
  3
*A87
350
7A04
  3
*A9
350
2F81
  0
DICTIONARY
  5
58
102
{ACAD_REACTORS
330
1A
102
}
330
1A
100
AcDbDictionary
281
     1
  3
Model
350
5A
  3
ﾚｲｱｳﾄ1
350
5B
  0
DICTIONARY
  5
143
102
{ACAD_REACTORS
330
1A
102
}
330
1A
100
AcDbDictionary
281
     1
  0
DICTIONARY
  5
19
102
{ACAD_REACTORS
330
1A
102
}
330
1A
100
AcDbDictionary
281
     1
  3
STANDARD
350
1D
  0
DICTIONARY
  5
59
102
{ACAD_REACTORS
330
1A
102
}
330
1A
100
AcDbDictionary
281
     1
  0
ACDBDICTIONARYWDFLT
  5
56
102
{ACAD_REACTORS
330
1A
102
}
330
1A
100
AcDbDictionary
281
     1
  3
Normal
350
57
100
AcDbDictionaryWithDefault
340
57
  0
DICTIONARY
  5
145
102
{ACAD_REACTORS
330
1A
102
}
330
1A
100
AcDbDictionary
281
     1
  3
Standard
350
146
  0
DICTIONARY
  5
7A0C
102
{ACAD_REACTORS
330
1A
102
}
330
1A
100
AcDbDictionary
281
     1
  0
DICTIONARY
  5
1D1
102
{ACAD_REACTORS
330
1A
102
}
330
1A
100
AcDbDictionary
281
     1
  3
CTABLESTYLE
350
1D2
  3
DIMASSOC
350
D03
  3
PROJECTNAME
350
D04
  0
DICTIONARY
  5
7795
102
{ACAD_REACTORS
330
1B4
102
}
330
1B4
100
AcDbDictionary
281
     1
  0
DICTIONARY
  5
7794
102
{ACAD_REACTORS
330
1B4
102
}
330
1B4
100
AcDbDictionary
281
     1
1001
ACAD
1000
<All
  0
SORTENTSTABLE
  5
D14
102
{ACAD_REACTORS
330
D13
102
}
330
D13
100
AcDbSortentsTable
330
2
331
20
  5
20
331
780D
  5
780D
331
78E2
  5
78E1
331
78F2
  5
78F3
331
21
  5
21
331
780E
  5
780E
331
78DB
  5
78D7
331
78A4
  5
78A8
331
78F3
  5
78F4
331
78BC
  5
78BD
331
780F
  5
780F
331
789D
  5
789F
331
78F4
  5
78F5
331
78BD
  5
78BC
331
23
  5
23
331
7810
  5
7810
331
789E
  5
78A0
331
78F5
  5
78F6
331
7809
  5
7809
331
789F
  5
78A1
331
78A7
  5
78A9
331
78F6
  5
78F7
331
780A
  5
780A
331
78D7
  5
78DB
331
78A0
  5
78A4
331
78F7
  5
78F2
331
1F
  5
1F
331
78A1
  5
78A7
331
78A9
  5
789D
  0
GROUP
  5
E0D
102
{ACAD_REACTORS
330
18
102
}
330
18
100
AcDbGroup
300

 70
     1
 71
     1
  0
GROUP
  5
31DF
102
{ACAD_REACTORS
330
18
102
}
330
18
100
AcDbGroup
300

 70
     1
 71
     1
  0
GROUP
  5
32E4
102
{ACAD_REACTORS
330
18
102
}
330
18
100
AcDbGroup
300

 70
     1
 71
     1
  0
GROUP
  5
2C6B
102
{ACAD_REACTORS
330
18
102
}
330
18
100
AcDbGroup
300

 70
     1
 71
     1
  0
GROUP
  5
3349
102
{ACAD_REACTORS
330
18
102
}
330
18
100
AcDbGroup
300

 70
     1
 71
     1
  0
GROUP
  5
24D6
102
{ACAD_REACTORS
330
18
102
}
330
18
100
AcDbGroup
300

 70
     1
 71
     1
  0
GROUP
  5
2037
102
{ACAD_REACTORS
330
18
102
}
330
18
100
AcDbGroup
300

 70
     1
 71
     1
  0
GROUP
  5
3A25
102
{ACAD_REACTORS
330
18
102
}
330
18
100
AcDbGroup
300

 70
     1
 71
     1
  0
GROUP
  5
3467
102
{ACAD_REACTORS
330
18
102
}
330
18
100
AcDbGroup
300

 70
     1
 71
     1
  0
GROUP
  5
422E
102
{ACAD_REACTORS
330
18
102
}
330
18
100
AcDbGroup
300

 70
     1
 71
     1
  0
GROUP
  5
4407
102
{ACAD_REACTORS
330
18
102
}
330
18
100
AcDbGroup
300

 70
     1
 71
     1
  0
GROUP
  5
265A
102
{ACAD_REACTORS
330
18
102
}
330
18
100
AcDbGroup
300

 70
     1
 71
     1
  0
GROUP
  5
4516
102
{ACAD_REACTORS
330
18
102
}
330
18
100
AcDbGroup
300

 70
     1
 71
     1
  0
GROUP
  5
307D
102
{ACAD_REACTORS
330
18
102
}
330
18
100
AcDbGroup
300

 70
     1
 71
     1
  0
GROUP
  5
FF8
102
{ACAD_REACTORS
330
18
102
}
330
18
100
AcDbGroup
300

 70
     1
 71
     1
  0
GROUP
  5
2D78
102
{ACAD_REACTORS
330
18
102
}
330
18
100
AcDbGroup
300

 70
     1
 71
     1
  0
GROUP
  5
136A
102
{ACAD_REACTORS
330
18
102
}
330
18
100
AcDbGroup
300

 70
     1
 71
     1
  0
GROUP
  5
1555
102
{ACAD_REACTORS
330
18
102
}
330
18
100
AcDbGroup
300

 70
     1
 71
     1
  0
GROUP
  5
2A17
102
{ACAD_REACTORS
330
18
102
}
330
18
100
AcDbGroup
300

 70
     1
 71
     1
  0
GROUP
  5
17BC
102
{ACAD_REACTORS
330
18
102
}
330
18
100
AcDbGroup
300

 70
     1
 71
     1
  0
GROUP
  5
34BB
102
{ACAD_REACTORS
330
18
102
}
330
18
100
AcDbGroup
300

 70
     1
 71
     1
  0
GROUP
  5
45E5
102
{ACAD_REACTORS
330
18
102
}
330
18
100
AcDbGroup
300

 70
     1
 71
     1
  0
GROUP
  5
26DD
102
{ACAD_REACTORS
330
18
102
}
330
18
100
AcDbGroup
300

 70
     1
 71
     1
  0
GROUP
  5
46A5
102
{ACAD_REACTORS
330
18
102
}
330
18
100
AcDbGroup
300

 70
     1
 71
     1
  0
GROUP
  5
4781
102
{ACAD_REACTORS
330
18
102
}
330
18
100
AcDbGroup
300

 70
     1
 71
     1
  0
GROUP
  5
48BA
102
{ACAD_REACTORS
330
18
102
}
330
18
100
AcDbGroup
300

 70
     1
 71
     1
  0
GROUP
  5
4A53
102
{ACAD_REACTORS
330
18
102
}
330
18
100
AcDbGroup
300

 70
     1
 71
     1
  0
GROUP
  5
1A98
102
{ACAD_REACTORS
330
18
102
}
330
18
100
AcDbGroup
300

 70
     1
 71
     1
  0
GROUP
  5
3695
102
{ACAD_REACTORS
330
18
102
}
330
18
100
AcDbGroup
300

 70
     1
 71
     1
  0
GROUP
  5
4B49
102
{ACAD_REACTORS
330
18
102
}
330
18
100
AcDbGroup
300

 70
     1
 71
     1
  0
GROUP
  5
4C3E
102
{ACAD_REACTORS
330
18
102
}
330
18
100
AcDbGroup
300

 70
     1
 71
     1
  0
GROUP
  5
4CEC
102
{ACAD_REACTORS
330
18
102
}
330
18
100
AcDbGroup
300

 70
     1
 71
     1
  0
GROUP
  5
4D76
102
{ACAD_REACTORS
330
18
102
}
330
18
100
AcDbGroup
300

 70
     1
 71
     1
  0
GROUP
  5
3988
102
{ACAD_REACTORS
330
18
102
}
330
18
100
AcDbGroup
300

 70
     1
 71
     1
  0
GROUP
  5
3C81
102
{ACAD_REACTORS
330
18
102
}
330
18
100
AcDbGroup
300

 70
     1
 71
     1
  0
GROUP
  5
4E16
102
{ACAD_REACTORS
330
18
102
}
330
18
100
AcDbGroup
300

 70
     1
 71
     1
  0
GROUP
  5
4EE5
102
{ACAD_REACTORS
330
18
102
}
330
18
100
AcDbGroup
300

 70
     1
 71
     1
  0
GROUP
  5
4F64
102
{ACAD_REACTORS
330
18
102
}
330
18
100
AcDbGroup
300

 70
     1
 71
     1
  0
GROUP
  5
5011
102
{ACAD_REACTORS
330
18
102
}
330
18
100
AcDbGroup
300

 70
     1
 71
     1
  0
GROUP
  5
22C8
102
{ACAD_REACTORS
330
18
102
}
330
18
100
AcDbGroup
300

 70
     1
 71
     1
  0
GROUP
  5
519C
102
{ACAD_REACTORS
330
18
102
}
330
18
100
AcDbGroup
300

 70
     1
 71
     1
  0
GROUP
  5
52B0
102
{ACAD_REACTORS
330
18
102
}
330
18
100
AcDbGroup
300

 70
     1
 71
     1
  0
GROUP
  5
36C9
102
{ACAD_REACTORS
330
18
102
}
330
18
100
AcDbGroup
300

 70
     1
 71
     1
  0
GROUP
  5
5396
102
{ACAD_REACTORS
330
18
102
}
330
18
100
AcDbGroup
300

 70
     1
 71
     1
  0
GROUP
  5
275E
102
{ACAD_REACTORS
330
18
102
}
330
18
100
AcDbGroup
300

 70
     1
 71
     1
  0
GROUP
  5
5464
102
{ACAD_REACTORS
330
18
102
}
330
18
100
AcDbGroup
300

 70
     1
 71
     1
  0
GROUP
  5
556A
102
{ACAD_REACTORS
330
18
102
}
330
18
100
AcDbGroup
300

 70
     1
 71
     1
  0
GROUP
  5
213E
102
{ACAD_REACTORS
330
18
102
}
330
18
100
AcDbGroup
300

 70
     1
 71
     1
  0
GROUP
  5
57BF
102
{ACAD_REACTORS
330
18
102
}
330
18
100
AcDbGroup
300

 70
     1
 71
     1
  0
GROUP
  5
58EE
102
{ACAD_REACTORS
330
18
102
}
330
18
100
AcDbGroup
300

 70
     1
 71
     1
  0
GROUP
  5
382B
102
{ACAD_REACTORS
330
18
102
}
330
18
100
AcDbGroup
300

 70
     1
 71
     1
  0
GROUP
  5
1EFE
102
{ACAD_REACTORS
330
18
102
}
330
18
100
AcDbGroup
300

 70
     1
 71
     1
  0
GROUP
  5
2573
102
{ACAD_REACTORS
330
18
102
}
330
18
100
AcDbGroup
300

 70
     1
 71
     1
  0
GROUP
  5
3878
102
{ACAD_REACTORS
330
18
102
}
330
18
100
AcDbGroup
300

 70
     1
 71
     1
  0
GROUP
  5
5D92
102
{ACAD_REACTORS
330
18
102
}
330
18
100
AcDbGroup
300

 70
     1
 71
     1
  0
GROUP
  5
2905
102
{ACAD_REACTORS
330
18
102
}
330
18
100
AcDbGroup
300

 70
     1
 71
     1
  0
GROUP
  5
3E5C
102
{ACAD_REACTORS
330
18
102
}
330
18
100
AcDbGroup
300

 70
     1
 71
     1
  0
GROUP
  5
3181
102
{ACAD_REACTORS
330
18
102
}
330
18
100
AcDbGroup
300

 70
     1
 71
     1
  0
GROUP
  5
2B84
102
{ACAD_REACTORS
330
18
102
}
330
18
100
AcDbGroup
300

 70
     1
 71
     1
  0
GROUP
  5
5F6F
102
{ACAD_REACTORS
330
18
102
}
330
18
100
AcDbGroup
300

 70
     1
 71
     1
  0
GROUP
  5
626B
102
{ACAD_REACTORS
330
18
102
}
330
18
100
AcDbGroup
300

 70
     1
 71
     1
  0
GROUP
  5
6417
102
{ACAD_REACTORS
330
18
102
}
330
18
100
AcDbGroup
300

 70
     1
 71
     1
  0
GROUP
  5
668C
102
{ACAD_REACTORS
330
18
102
}
330
18
100
AcDbGroup
300

 70
     1
 71
     1
  0
GROUP
  5
241A
102
{ACAD_REACTORS
330
18
102
}
330
18
100
AcDbGroup
300

 70
     1
 71
     1
  0
GROUP
  5
68C5
102
{ACAD_REACTORS
330
18
102
}
330
18
100
AcDbGroup
300

 70
     1
 71
     1
  0
GROUP
  5
6A30
102
{ACAD_REACTORS
330
18
102
}
330
18
100
AcDbGroup
300

 70
     1
 71
     1
  0
GROUP
  5
2EE1
102
{ACAD_REACTORS
330
18
102
}
330
18
100
AcDbGroup
300

 70
     1
 71
     1
  0
GROUP
  5
6A98
102
{ACAD_REACTORS
330
18
102
}
330
18
100
AcDbGroup
300

 70
     1
 71
     1
  0
GROUP
  5
6C32
102
{ACAD_REACTORS
330
18
102
}
330
18
100
AcDbGroup
300

 70
     1
 71
     1
  0
GROUP
  5
6D00
102
{ACAD_REACTORS
330
18
102
}
330
18
100
AcDbGroup
300

 70
     1
 71
     1
  0
GROUP
  5
6DE3
102
{ACAD_REACTORS
330
18
102
}
330
18
100
AcDbGroup
300

 70
     1
 71
     1
  0
GROUP
  5
6EB7
102
{ACAD_REACTORS
330
18
102
}
330
18
100
AcDbGroup
300

 70
     1
 71
     1
  0
GROUP
  5
706D
102
{ACAD_REACTORS
330
18
102
}
330
18
100
AcDbGroup
300

 70
     1
 71
     1
  0
GROUP
  5
7170
102
{ACAD_REACTORS
330
18
102
}
330
18
100
AcDbGroup
300

 70
     1
 71
     1
  0
GROUP
  5
35A5
102
{ACAD_REACTORS
330
18
102
}
330
18
100
AcDbGroup
300

 70
     1
 71
     1
  0
GROUP
  5
401B
102
{ACAD_REACTORS
330
18
102
}
330
18
100
AcDbGroup
300

 70
     1
 71
     1
  0
GROUP
  5
1CBC
102
{ACAD_REACTORS
330
18
102
}
330
18
100
AcDbGroup
300

 70
     1
 71
     1
  0
GROUP
  5
7453
102
{ACAD_REACTORS
330
18
102
}
330
18
100
AcDbGroup
300

 70
     1
 71
     1
  0
GROUP
  5
76E3
102
{ACAD_REACTORS
330
18
102
}
330
18
100
AcDbGroup
300

 70
     1
 71
     1
  0
GROUP
  5
7793
102
{ACAD_REACTORS
330
18
102
}
330
18
100
AcDbGroup
300

 70
     1
 71
     1
  0
GROUP
  5
7A04
102
{ACAD_REACTORS
330
18
102
}
330
18
100
AcDbGroup
300

 70
     1
 71
     1
340
79E7
340
79E6
340
79E5
340
792F
340
792E
340
792D
340
792C
340
792B
340
792A
340
7929
340
7928
340
7927
340
7926
340
7925
340
7924
340
7923
340
7922
340
7921
340
7920
340
791F
340
791E
340
791D
340
791C
340
791B
340
791A
340
7919
340
7918
340
7917
340
7916
340
7915
340
7914
340
7913
340
7912
340
7911
340
790F
340
790E
340
790D
340
790C
340
790B
340
790A
340
7909
340
7908
340
7907
340
7906
340
7905
340
7904
340
7903
340
7902
340
7901
340
7900
340
78FF
340
78FE
340
78FD
340
78FC
340
78FB
340
78F9
340
78F6
340
78F5
340
78F4
340
78F3
340
78F2
340
78F7
340
78F1
340
78F0
340
78EF
340
78EE
340
78ED
340
78EC
340
78EB
340
78E8
340
78E7
340
78E6
340
78E5
340
78E4
340
78E3
340
78E2
340
78E0
340
78DF
340
78DE
340
78DD
340
78DC
340
78D7
340
78DB
340
78D6
340
78D5
340
78D4
340
78D3
340
78D2
340
78D0
340
78CF
340
78CE
340
78CD
340
78CC
340
78CB
340
78CA
340
78C9
340
78C8
340
78C7
340
78C6
340
78C5
340
78C4
340
78C3
340
78C2
340
78C1
340
78C0
340
78BF
340
78BE
340
78BC
340
78BD
340
78BB
340
78BA
340
78B9
340
78B8
340
78B7
340
78B6
340
78B5
340
78B4
340
78B3
340
78B2
340
78B1
340
78B0
340
78AF
340
78AE
340
78AD
340
78AC
340
78AB
340
78A7
340
78A4
340
78A1
340
78A6
340
78A0
340
78A3
340
789F
340
789E
340
789D
340
78A9
340
789C
340
786A
340
7869
340
7868
340
7867
340
7866
340
7865
340
7864
340
7863
340
7862
340
785B
340
785A
340
7859
340
7856
340
7855
340
7852
340
7851
340
784F
340
784C
340
784A
340
7849
340
7848
340
7845
340
7843
340
7841
340
783F
340
783E
340
783D
340
783C
340
783A
340
7839
340
7838
340
7836
340
7835
340
7834
340
7833
340
7832
340
7831
340
7830
340
782F
340
7828
340
7827
340
7826
340
7825
340
7824
340
7821
340
7820
340
781F
340
781E
340
781A
340
7819
340
7816
340
7814
340
7813
340
7810
340
780F
340
780E
340
780D
340
780A
340
7809
  0
GROUP
  5
2F81
102
{ACAD_REACTORS
330
18
102
}
330
18
100
AcDbGroup
300

 70
     1
 71
     1
  0
LAYOUT
  5
5A
102
{ACAD_XDICTIONARY
360
7A0D
102
}
102
{ACAD_REACTORS
330
58
102
}
330
58
100
AcDbPlotSettings
  1

  2
なし
  4

  6

 40
0.0
 41
0.0
 42
0.0
 43
0.0
 44
0.0
 45
0.0
 46
0.0
 47
0.0
 48
0.0
 49
0.0
140
0.0
141
0.0
142
1.0
143
1.0
 70
  1712
 72
     0
 73
     0
 74
     0
  7
monochrome.ctb
 75
     0
147
1.0
148
0.0
149
0.0
100
AcDbLayout
  1
Model
 70
     1
 71
     0
 10
0.0
 20
0.0
 11
12.0
 21
9.0
 12
0.0
 22
0.0
 32
0.0
 14
0.0
 24
0.0
 34
0.0
 15
0.0
 25
0.0
 35
0.0
146
0.0
 13
0.0
 23
0.0
 33
0.0
 16
1.0
 26
0.0
 36
0.0
 17
0.0
 27
1.0
 37
0.0
 76
     0
330
2
  0
LAYOUT
  5
5B
102
{ACAD_XDICTIONARY
360
7A0F
102
}
102
{ACAD_REACTORS
330
58
102
}
330
58
100
AcDbPlotSettings
  1

  2
なし
  4

  6

 40
0.0
 41
0.0
 42
0.0
 43
0.0
 44
0.0
 45
0.0
 46
0.0
 47
0.0
 48
0.0
 49
0.0
140
0.0
141
0.0
142
1.0
143
1.0
 70
   688
 72
     0
 73
     0
 74
     5
  7
monochrome.ctb
 75
    16
147
1.0
148
0.0
149
0.0
100
AcDbLayout
  1
ﾚｲｱｳﾄ1
 70
     1
 71
     1
 10
0.0
 20
0.0
 11
12.0
 21
9.0
 12
0.0
 22
0.0
 32
0.0
 14
1.000000000000000E+20
 24
1.000000000000000E+20
 34
1.000000000000000E+20
 15
-1.000000000000000E+20
 25
-1.000000000000000E+20
 35
-1.000000000000000E+20
146
0.0
 13
0.0
 23
0.0
 33
0.0
 16
1.0
 26
0.0
 36
0.0
 17
0.0
 27
1.0
 37
0.0
 76
     0
330
7
  0
MLINESTYLE
  5
1D
102
{ACAD_REACTORS
330
19
102
}
330
19
100
AcDbMlineStyle
  2
STANDARD
 70
     0
  3

 62
   256
 51
90.0
 52
90.0
 71
     2
 49
0.5
 62
   256
  6
BYLAYER
 49
-0.5
 62
   256
  6
BYLAYER
  0
ACDBPLACEHOLDER
  5
57
102
{ACAD_REACTORS
330
56
102
}
330
56
  0
TABLESTYLE
  5
146
102
{ACAD_REACTORS
330
145
102
}
330
145
100
AcDbTableStyle
  3
Standard
 70
     0
 71
     0
 40
0.06
 41
0.06
280
     0
281
     0
  7
STANDARD
140
0.18
170
     2
 62
     0
 63
     7
283
     0
274
    -2
284
     1
 64
     0
275
    -2
285
     1
 65
     0
276
    -2
286
     1
 66
     0
277
    -2
287
     1
 67
     0
278
    -2
288
     1
 68
     0
279
    -2
289
     1
 69
     0
  7
STANDARD
140
0.25
170
     5
 62
     0
 63
     7
283
     0
274
    -2
284
     1
 64
     0
275
    -2
285
     1
 65
     0
276
    -2
286
     1
 66
     0
277
    -2
287
     1
 67
     0
278
    -2
288
     1
 68
     0
279
    -2
289
     1
 69
     0
  7
STANDARD
140
0.18
170
     5
 62
     0
 63
     7
283
     0
274
    -2
284
     1
 64
     0
275
    -2
285
     1
 65
     0
276
    -2
286
     1
 66
     0
277
    -2
287
     1
 67
     0
278
    -2
288
     1
 68
     0
279
    -2
289
     1
 69
     0
  0
DICTIONARYVAR
  5
1D2
102
{ACAD_REACTORS
330
1D1
102
}
330
1D1
100
DictionaryVariables
280
     0
  1
STANDARD
  0
DICTIONARYVAR
  5
D03
102
{ACAD_REACTORS
330
1D1
102
}
330
1D1
100
DictionaryVariables
280
     0
  1
1
  0
DICTIONARYVAR
  5
D04
102
{ACAD_REACTORS
330
1D1
102
}
330
1D1
100
DictionaryVariables
280
     0
  1

  0
DICTIONARY
  5
7A0D
330
5A
100
AcDbDictionary
280
     1
281
     1
  3
ACAD_XREC_ROUNDTRIP
360
7A0E
  0
DICTIONARY
  5
7A0F
330
5B
100
AcDbDictionary
280
     1
281
     1
  3
ACAD_XREC_ROUNDTRIP
360
7A10
  0
XRECORD
  5
7A0E
102
{ACAD_REACTORS
330
7A0D
102
}
330
7A0D
100
AcDbXrecord
280
     1
102
SHADEPLOT
 70
     0
102
SHADEPLOTRESLEVEL
 70
     2
102
SHADEPLOTCUSTOMDPI
 70
   300
  0
XRECORD
  5
7A10
102
{ACAD_REACTORS
330
7A0F
102
}
330
7A0F
100
AcDbXrecord
280
     1
102
SHADEPLOT
 70
     0
102
SHADEPLOTRESLEVEL
 70
     2
102
SHADEPLOTCUSTOMDPI
 70
   300
  0
ENDSEC
  0
EOF
