  0
SECTION
  2
HEADER
  9
$ACADVER
  1
AC1015
  9
$ACADMAINTVER
 70
    20
  9
$DWGCODEPAGE
  3
ANSI_932
  9
$INSBASE
 10
922.019522
 20
-675.4306699999999
 30
0.0
  9
$EXTMIN
 10
-137.7195262372602
 20
-0.0045292325963828
 30
-0.0000000000112498
  9
$EXTMAX
 10
251.9863661792169
 20
93.99199061448063
 30
0.0000000000002956
  9
$LIMMIN
 10
0.0
 20
0.0
  9
$LIMMAX
 10
420.0
 20
297.0
  9
$ORTHOMODE
 70
     1
  9
$REGENMODE
 70
     1
  9
$FILLMODE
 70
     1
  9
$QTEXTMODE
 70
     0
  9
$MIRRTEXT
 70
     1
  9
$LTSCALE
 40
1.0
  9
$ATTMODE
 70
     1
  9
$TEXTSIZE
 40
30.0
  9
$TRACEWID
 40
0.05
  9
$TEXTSTYLE
  7
SUNPOU
  9
$CLAYER
  8
0
  9
$CELTYPE
  6
BYLAYER
  9
$CECOLOR
 62
   256
  9
$CELTSCALE
 40
1.0
  9
$DISPSILH
 70
     0
  9
$DIMSCALE
 40
1.0
  9
$DIMASZ
 40
2.0
  9
$DIMEXO
 40
10.0
  9
$DIMDLI
 40
0.38
  9
$DIMRND
 40
0.0
  9
$DIMDLE
 40
0.0
  9
$DIMEXE
 40
0.0
  9
$DIMTP
 40
0.0
  9
$DIMTM
 40
0.0
  9
$DIMTXT
 40
5.0
  9
$DIMCEN
 40
0.0
  9
$DIMTSZ
 40
0.0
  9
$DIMTOL
 70
     0
  9
$DIMLIM
 70
     0
  9
$DIMTIH
 70
     0
  9
$DIMTOH
 70
     0
  9
$DIMSE1
 70
     0
  9
$DIMSE2
 70
     0
  9
$DIMTAD
 70
     1
  9
$DIMZIN
 70
     0
  9
$DIMBLK
  1
Dot
  9
$DIMASO
 70
     1
  9
$DIMSHO
 70
     1
  9
$DIMPOST
  1

  9
$DIMAPOST
  1

  9
$DIMALT
 70
     0
  9
$DIMALTD
 70
     2
  9
$DIMALTF
 40
25.4
  9
$DIMLFAC
 40
1.0
  9
$DIMTOFL
 70
     0
  9
$DIMTVP
 40
0.0
  9
$DIMTIX
 70
     0
  9
$DIMSOXD
 70
     0
  9
$DIMSAH
 70
     0
  9
$DIMBLK1
  1

  9
$DIMBLK2
  1

  9
$DIMSTYLE
  2
STANDARD
  9
$DIMCLRD
 70
    60
  9
$DIMCLRE
 70
    70
  9
$DIMCLRT
 70
    60
  9
$DIMTFAC
 40
0.064286
  9
$DIMGAP
 40
3.0
  9
$DIMJUST
 70
     0
  9
$DIMSD1
 70
     0
  9
$DIMSD2
 70
     0
  9
$DIMTOLJ
 70
     1
  9
$DIMTZIN
 70
     0
  9
$DIMALTZ
 70
     0
  9
$DIMALTTZ
 70
     0
  9
$DIMUPT
 70
     0
  9
$DIMDEC
 70
     0
  9
$DIMTDEC
 70
     0
  9
$DIMALTU
 70
     2
  9
$DIMALTTD
 70
     2
  9
$DIMTXSTY
  7
SUNPOU
  9
$DIMAUNIT
 70
     0
  9
$DIMADEC
 70
     0
  9
$DIMALTRND
 40
0.0
  9
$DIMAZIN
 70
     0
  9
$DIMDSEP
 70
    46
  9
$DIMATFIT
 70
     3
  9
$DIMFRAC
 70
     0
  9
$DIMLDRBLK
  1

  9
$DIMLUNIT
 70
     2
  9
$DIMLWD
 70
    -2
  9
$DIMLWE
 70
    -2
  9
$DIMTMOVE
 70
     0
  9
$LUNITS
 70
     2
  9
$LUPREC
 70
     5
  9
$SKETCHINC
 40
0.1
  9
$FILLETRAD
 40
1.0
  9
$AUNITS
 70
     0
  9
$AUPREC
 70
     0
  9
$MENU
  1
acad
  9
$ELEVATION
 40
0.0
  9
$PELEVATION
 40
0.0
  9
$THICKNESS
 40
0.0
  9
$LIMCHECK
 70
     0
  9
$CHAMFERA
 40
0.0
  9
$CHAMFERB
 40
0.0
  9
$CHAMFERC
 40
0.0
  9
$CHAMFERD
 40
0.0
  9
$SKPOLY
 70
     0
  9
$TDCREATE
 40
2450623.654673033
  9
$TDUCREATE
 40
2450623.279673032
  9
$TDUPDATE
 40
2453873.490341354
  9
$TDUUPDATE
 40
2453873.115341354
  9
$TDINDWG
 40
1.1597343287
  9
$TDUSRTIMER
 40
1.1597341551
  9
$USRTIMER
 70
     1
  9
$ANGBASE
 50
0.0
  9
$ANGDIR
 70
     0
  9
$PDMODE
 70
     0
  9
$PDSIZE
 40
0.0
  9
$PLINEWID
 40
0.0
  9
$SPLFRAME
 70
     0
  9
$SPLINETYPE
 70
     6
  9
$SPLINESEGS
 70
     8
  9
$HANDSEED
  5
79AD
  9
$SURFTAB1
 70
     6
  9
$SURFTAB2
 70
     6
  9
$SURFTYPE
 70
     6
  9
$SURFU
 70
     6
  9
$SURFV
 70
     6
  9
$UCSBASE
  2

  9
$UCSNAME
  2

  9
$UCSORG
 10
0.0
 20
0.0
 30
0.0
  9
$UCSXDIR
 10
1.0
 20
0.0
 30
0.0
  9
$UCSYDIR
 10
0.0
 20
1.0
 30
0.0
  9
$UCSORTHOREF
  2

  9
$UCSORTHOVIEW
 70
     0
  9
$UCSORGTOP
 10
0.0
 20
0.0
 30
0.0
  9
$UCSORGBOTTOM
 10
0.0
 20
0.0
 30
0.0
  9
$UCSORGLEFT
 10
0.0
 20
0.0
 30
0.0
  9
$UCSORGRIGHT
 10
0.0
 20
0.0
 30
0.0
  9
$UCSORGFRONT
 10
0.0
 20
0.0
 30
0.0
  9
$UCSORGBACK
 10
0.0
 20
0.0
 30
0.0
  9
$PUCSBASE
  2

  9
$PUCSNAME
  2

  9
$PUCSORG
 10
0.0
 20
0.0
 30
0.0
  9
$PUCSXDIR
 10
1.0
 20
0.0
 30
0.0
  9
$PUCSYDIR
 10
0.0
 20
1.0
 30
0.0
  9
$PUCSORTHOREF
  2

  9
$PUCSORTHOVIEW
 70
     0
  9
$PUCSORGTOP
 10
0.0
 20
0.0
 30
0.0
  9
$PUCSORGBOTTOM
 10
0.0
 20
0.0
 30
0.0
  9
$PUCSORGLEFT
 10
0.0
 20
0.0
 30
0.0
  9
$PUCSORGRIGHT
 10
0.0
 20
0.0
 30
0.0
  9
$PUCSORGFRONT
 10
0.0
 20
0.0
 30
0.0
  9
$PUCSORGBACK
 10
0.0
 20
0.0
 30
0.0
  9
$USERI1
 70
     0
  9
$USERI2
 70
     0
  9
$USERI3
 70
     0
  9
$USERI4
 70
     0
  9
$USERI5
 70
     0
  9
$USERR1
 40
0.0
  9
$USERR2
 40
0.0
  9
$USERR3
 40
0.0
  9
$USERR4
 40
0.0
  9
$USERR5
 40
0.0
  9
$WORLDVIEW
 70
     1
  9
$SHADEDGE
 70
     3
  9
$SHADEDIF
 70
    70
  9
$TILEMODE
 70
     1
  9
$MAXACTVP
 70
    16
  9
$PINSBASE
 10
0.0
 20
0.0
 30
0.0
  9
$PLIMCHECK
 70
     0
  9
$PEXTMIN
 10
1.000000000000000E+20
 20
1.000000000000000E+20
 30
1.000000000000000E+20
  9
$PEXTMAX
 10
-1.000000000000000E+20
 20
-1.000000000000000E+20
 30
-1.000000000000000E+20
  9
$PLIMMIN
 10
0.0
 20
0.0
  9
$PLIMMAX
 10
12.0
 20
9.0
  9
$UNITMODE
 70
     0
  9
$VISRETAIN
 70
     0
  9
$PLINEGEN
 70
     0
  9
$PSLTSCALE
 70
     1
  9
$TREEDEPTH
 70
  3020
  9
$CMLSTYLE
  2
STANDARD
  9
$CMLJUST
 70
     0
  9
$CMLSCALE
 40
1.0
  9
$PROXYGRAPHICS
 70
     1
  9
$MEASUREMENT
 70
     0
  9
$CELWEIGHT
370
    -1
  9
$ENDCAPS
280
     0
  9
$JOINSTYLE
280
     0
  9
$LWDISPLAY
290
     0
  9
$INSUNITS
 70
     0
  9
$HYPERLINKBASE
  1

  9
$STYLESHEET
  1

  9
$XEDIT
290
     1
  9
$CEPSNTYPE
380
     0
  9
$PSTYLEMODE
290
     1
  9
$FINGERPRINTGUID
  2
{FB88A696-E29C-4009-92AF-A3599A8169D5}
  9
$VERSIONGUID
  2
{0191C02A-A613-4A95-9D93-5C95022B1B4A}
  9
$EXTNAMES
290
     1
  9
$PSVPSCALE
 40
0.0
  9
$OLESTARTUP
290
     0
  0
ENDSEC
  0
SECTION
  2
CLASSES
  0
CLASS
  1
DICTIONARYVAR
  2
AcDbDictionaryVar
  3
ObjectDBX Classes
 90
        0
280
     0
281
     0
  0
CLASS
  1
ACDBDICTIONARYWDFLT
  2
AcDbDictionaryWithDefault
  3
ObjectDBX Classes
 90
        0
280
     0
281
     0
  0
CLASS
  1
ACDBPLACEHOLDER
  2
AcDbPlaceHolder
  3
ObjectDBX Classes
 90
        0
280
     0
281
     0
  0
CLASS
  1
LAYOUT
  2
AcDbLayout
  3
ObjectDBX Classes
 90
        0
280
     0
281
     0
  0
CLASS
  1
TABLESTYLE
  2
AcDbTableStyle
  3
ObjectDBX Classes
 90
     2047
280
     0
281
     0
  0
CLASS
  1
SORTENTSTABLE
  2
AcDbSortentsTable
  3
ObjectDBX Classes
 90
        0
280
     0
281
     0
  0
ENDSEC
  0
SECTION
  2
TABLES
  0
TABLE
  2
VPORT
  5
12
330
0
100
AcDbSymbolTable
 70
    25
  0
VPORT
  5
79A7
330
12
100
AcDbSymbolTableRecord
100
AcDbViewportTableRecord
  2
*Active
 70
     0
 10
0.0
 20
0.0
 11
1.0
 21
1.0
 12
57.13341997097836
 22
46.99373069094213
 13
0.0
 23
0.0
 14
1.0
 24
1.0
 15
0.0
 25
0.0
 16
0.0
 26
0.0
 36
1.0
 17
0.0
 27
0.0
 37
0.0
 40
251.0220198865436
 41
1.560102301790281
 42
50.0
 43
0.0
 44
0.0
 50
0.0
 51
0.0
 71
     0
 72
 20000
 73
     1
 74
     1
 75
     0
 76
     0
 77
     0
 78
     0
281
     0
 65
     1
110
0.0
120
0.0
130
0.0
111
1.0
121
0.0
131
0.0
112
0.0
122
1.0
132
0.0
 79
     0
146
0.0
  0
ENDTAB
  0
TABLE
  2
LTYPE
  5
D
330
0
100
AcDbSymbolTable
 70
     2
  0
LTYPE
  5
E
330
D
100
AcDbSymbolTableRecord
100
AcDbLinetypeTableRecord
  2
BYBLOCK
 70
     0
  3

 72
    65
 73
     0
 40
0.0
  0
LTYPE
  5
F
330
D
100
AcDbSymbolTableRecord
100
AcDbLinetypeTableRecord
  2
BYLAYER
 70
     0
  3

 72
    65
 73
     0
 40
0.0
  0
LTYPE
  5
5
330
D
100
AcDbSymbolTableRecord
100
AcDbLinetypeTableRecord
  2
CONTINUOUS
 70
     0
  3
Solid line
 72
    65
 73
     0
 40
0.0
  0
ENDTAB
  0
TABLE
  2
LAYER
  5
A
102
{ACAD_XDICTIONARY
360
1B4
102
}
330
0
100
AcDbSymbolTable
 70
     6
  0
LAYER
  5
4
330
A
100
AcDbSymbolTableRecord
100
AcDbLayerTableRecord
  2
0
 70
     0
 62
     7
  6
CONTINUOUS
370
    -3
390
57
  0
LAYER
  5
25
330
A
100
AcDbSymbolTableRecord
100
AcDbLayerTableRecord
  2
KIJUN
 70
     0
 62
     7
  6
CONTINUOUS
370
    -3
390
57
  0
LAYER
  5
22
330
A
100
AcDbSymbolTableRecord
100
AcDbLayerTableRecord
  2
HOJO
 70
     0
 62
     3
  6
CONTINUOUS
370
    -3
390
57
  0
LAYER
  5
1B
330
A
100
AcDbSymbolTableRecord
100
AcDbLayerTableRecord
  2
WAKU
 70
     0
 62
     1
  6
CONTINUOUS
370
    -3
390
57
  0
LAYER
  5
31
330
A
100
AcDbSymbolTableRecord
100
AcDbLayerTableRecord
  2
DEFPOINTS
 70
     0
 62
     7
  6
CONTINUOUS
290
     0
370
    -3
390
57
  0
LAYER
  5
28
330
A
100
AcDbSymbolTableRecord
100
AcDbLayerTableRecord
  2
SUNPOU
 70
     0
 62
    70
  6
CONTINUOUS
370
    -3
390
57
  0
ENDTAB
  0
TABLE
  2
STYLE
  5
B
330
0
100
AcDbSymbolTable
 70
     2
  0
STYLE
  5
C
330
B
100
AcDbSymbolTableRecord
100
AcDbTextStyleTableRecord
  2
STANDARD
 70
     0
 40
0.0
 41
1.0
 50
0.0
 71
     0
 42
0.2
  3
txt
  4

  0
STYLE
  5
1C
330
B
100
AcDbSymbolTableRecord
100
AcDbTextStyleTableRecord
  2
SUNPOU
 70
     0
 40
0.0
 41
1.0
 50
0.0
 71
     0
 42
30.0
  3
txt
  4
bigfont
  0
ENDTAB
  0
TABLE
  2
VIEW
  5
10
330
0
100
AcDbSymbolTable
 70
     0
  0
ENDTAB
  0
TABLE
  2
UCS
  5
11
330
0
100
AcDbSymbolTable
 70
     0
  0
ENDTAB
  0
TABLE
  2
APPID
  5
14
330
0
100
AcDbSymbolTable
 70
    10
  0
APPID
  5
15
330
14
100
AcDbSymbolTableRecord
100
AcDbRegAppTableRecord
  2
ACAD
 70
     0
  0
APPID
  5
1D3
330
14
100
AcDbSymbolTableRecord
100
AcDbRegAppTableRecord
  2
ACAD_DSTYLE_DIMTEXT_FILL
 70
     0
  0
APPID
  5
1D4
330
14
100
AcDbSymbolTableRecord
100
AcDbRegAppTableRecord
  2
ACAD_DSTYLE_DIMEXT_LENGTH
 70
     0
  0
APPID
  5
1D5
330
14
100
AcDbSymbolTableRecord
100
AcDbRegAppTableRecord
  2
ACAD_DSTYLE_DIMEXT_ENABLED
 70
     0
  0
APPID
  5
1D6
330
14
100
AcDbSymbolTableRecord
100
AcDbRegAppTableRecord
  2
ACAD_DSTYLE_DIM_LINETYPE
 70
     0
  0
APPID
  5
1D7
330
14
100
AcDbSymbolTableRecord
100
AcDbRegAppTableRecord
  2
ACAD_DSTYLE_DIM_EXT1_LINETYPE
 70
     0
  0
APPID
  5
1D8
330
14
100
AcDbSymbolTableRecord
100
AcDbRegAppTableRecord
  2
ACAD_DSTYLE_DIM_EXT2_LINETYPE
 70
     0
  0
APPID
  5
294
330
14
100
AcDbSymbolTableRecord
100
AcDbRegAppTableRecord
  2
ACAD_DSTYLE_DIMJOGGED_JOGANGLE_SYMBOL
 70
     0
  0
APPID
  5
478
330
14
100
AcDbSymbolTableRecord
100
AcDbRegAppTableRecord
  2
ACAD_DSTYLE_DIMARC_LENGTH_SYMBOL
 70
     0
  0
APPID
  5
F55
330
14
100
AcDbSymbolTableRecord
100
AcDbRegAppTableRecord
  2
ACAD_EXEMPT_FROM_CAD_STANDARDS
 70
     0
  0
ENDTAB
  0
TABLE
  2
DIMSTYLE
  5
16
330
0
100
AcDbSymbolTable
 70
     3
100
AcDbDimStyleTable
 71
     1
340
1E
  0
DIMSTYLE
105
1E
102
{ACAD_REACTORS
330
786C
330
7879
102
}
330
16
100
AcDbSymbolTableRecord
100
AcDbDimStyleTableRecord
  2
STANDARD
 70
     0
340
C
  0
ENDTAB
  0
TABLE
  2
BLOCK_RECORD
  5
1
330
0
100
AcDbSymbolTable
 70
    19
  0
BLOCK_RECORD
  5
2
102
{ACAD_XDICTIONARY
360
D13
102
}
330
1
100
AcDbSymbolTableRecord
100
AcDbBlockTableRecord
  2
*MODEL_SPACE
340
5A
  0
BLOCK_RECORD
  5
7
330
1
100
AcDbSymbolTableRecord
100
AcDbBlockTableRecord
  2
*PAPER_SPACE
340
5B
  0
BLOCK_RECORD
  5
109
330
1
100
AcDbSymbolTableRecord
100
AcDbBlockTableRecord
  2
_Dot
340
0
102
{BLKREFS
331
6DC2
331
6DC3
331
6DDD
331
6DDE
331
6EC4
331
6EC5
331
6EDF
331
6EE0
331
705E
331
705F
331
7067
331
7068
331
7161
331
7162
331
716A
331
716B
331
750E
331
750F
331
777A
331
777B
331
778C
331
778D
331
797D
331
797E
331
79A1
331
79A2
102
}
  0
BLOCK_RECORD
  5
786D
330
1
100
AcDbSymbolTableRecord
100
AcDbBlockTableRecord
  2
*D17
340
0
  0
BLOCK_RECORD
  5
787A
330
1
100
AcDbSymbolTableRecord
100
AcDbBlockTableRecord
  2
*D18
340
0
  0
ENDTAB
  0
ENDSEC
  0
SECTION
  2
BLOCKS
  0
BLOCK
  5
3
330
2
100
AcDbEntity
  8
0
100
AcDbBlockBegin
  2
*MODEL_SPACE
 70
     0
 10
0.0
 20
0.0
 30
0.0
  3
*MODEL_SPACE
  1

  0
ENDBLK
  5
6
330
2
100
AcDbEntity
  8
0
100
AcDbBlockEnd
  0
BLOCK
  5
8
330
7
100
AcDbEntity
 67
     1
  8
0
100
AcDbBlockBegin
  2
*PAPER_SPACE
 70
     0
 10
0.0
 20
0.0
 30
0.0
  3
*PAPER_SPACE
  1

  0
ENDBLK
  5
9
330
7
100
AcDbEntity
 67
     1
  8
0
100
AcDbBlockEnd
  0
BLOCK
  5
10C
330
109
100
AcDbEntity
  8
0
100
AcDbBlockBegin
  2
_Dot
 70
     0
 10
0.0
 20
0.0
 30
0.0
  3
_Dot
  1

  0
LWPOLYLINE
  5
10A
330
109
100
AcDbEntity
  8
0
  6
ByBlock
 62
     0
100
AcDbPolyline
 90
        2
 70
     1
 43
0.5
 10
-0.25
 20
0.0
 42
1.0
 10
0.25
 20
0.0
 42
1.0
  0
LINE
  5
10B
330
109
100
AcDbEntity
  8
0
  6
ByBlock
 62
     0
370
    -2
100
AcDbLine
 10
-0.5
 20
0.0
 30
0.0
 11
-1.0
 21
0.0
 31
0.0
  0
ENDBLK
  5
10D
330
109
100
AcDbEntity
  8
0
100
AcDbBlockEnd
  0
BLOCK
  5
7877
330
786D
100
AcDbEntity
  8
0
100
AcDbBlockBegin
  2
*D17
 70
     1
 10
0.0
 20
0.0
 30
0.0
  3
*D17
  1

  0
LINE
  5
799E
330
786D
100
AcDbEntity
  8
SUNPOU
 62
    70
370
    -2
100
AcDbLine
 10
-109.0272045172289
 20
82.00467256390446
 30
0.0
 11
-109.0272045172289
 21
85.97761169977458
 31
0.0
  0
LINE
  5
799F
330
786D
100
AcDbEntity
  8
SUNPOU
 62
    70
370
    -2
100
AcDbLine
 10
250.9727954827715
 20
77.40106916055947
 30
0.0
 11
250.9727954827715
 21
85.97761169977458
 31
0.0
  0
LINE
  5
79A0
330
786D
100
AcDbEntity
  8
SUNPOU
 62
    60
370
    -2
100
AcDbLine
 10
-107.027204517229
 20
85.97761169977458
 30
0.0
 11
248.9727954827715
 21
85.97761169977458
 31
0.0
  0
INSERT
  5
79A1
330
786D
100
AcDbEntity
  8
SUNPOU
 62
    60
370
    -2
100
AcDbBlockReference
  2
_Dot
 10
-109.0272045172289
 20
85.97761169977458
 30
0.0
 41
2.0
 42
2.0
 43
2.0
 50
180.0
  0
INSERT
  5
79A2
330
786D
100
AcDbEntity
  8
SUNPOU
 62
    60
370
    -2
100
AcDbBlockReference
  2
_Dot
 10
250.9727954827715
 20
85.97761169977458
 30
0.0
 41
2.0
 42
2.0
 43
2.0
  0
MTEXT
  5
79A3
330
786D
100
AcDbEntity
  8
SUNPOU
 62
    60
100
AcDbMText
 10
70.97279548277126
 20
91.47761169977457
 30
0.0
 40
5.0
 41
0.0
 71
     5
 72
     1
  1
\A1;360
  7
SUNPOU
 73
     1
 44
1.0
1001
ACAD
1000
MTEXTBEGIN
1070
    73
1070
     1
1070
    44
1040
1.0
1070
    74
1070
     0
1000
MTEXTEND
  0
POINT
  5
79A4
330
786D
100
AcDbEntity
  8
DEFPOINTS
 62
     0
100
AcDbPoint
 10
-109.0272045172289
 20
72.00467256390446
 30
0.0
  0
POINT
  5
79A5
330
786D
100
AcDbEntity
  8
DEFPOINTS
 62
     0
100
AcDbPoint
 10
250.9727954827715
 20
67.40106916055947
 30
0.0
  0
POINT
  5
79A6
330
786D
100
AcDbEntity
  8
DEFPOINTS
 62
     0
100
AcDbPoint
 10
250.9727954827715
 20
85.97761169977458
 30
0.0
  0
ENDBLK
  5
7878
330
786D
100
AcDbEntity
  8
0
100
AcDbBlockEnd
  0
BLOCK
  5
7884
330
787A
100
AcDbEntity
  8
0
100
AcDbBlockBegin
  2
*D18
 70
     1
 10
0.0
 20
0.0
 30
0.0
  3
*D18
  1

  0
LINE
  5
797A
330
787A
100
AcDbEntity
  8
SUNPOU
 62
    70
370
    -2
100
AcDbLine
 10
-119.0272045172289
 20
72.00467256390446
 30
0.0
 11
-129.7177529685586
 21
72.00467256390446
 31
0.0
  0
LINE
  5
797B
330
787A
100
AcDbEntity
  8
SUNPOU
 62
    70
370
    -2
100
AcDbLine
 10
-116.7782332937386
 20
32.00467256390441
 30
0.0
 11
-129.7177529685586
 21
32.00467256390441
 31
0.0
  0
LINE
  5
797C
330
787A
100
AcDbEntity
  8
SUNPOU
 62
    60
370
    -2
100
AcDbLine
 10
-129.7177529685586
 20
70.00467256390447
 30
0.0
 11
-129.7177529685586
 21
34.00467256390442
 31
0.0
  0
INSERT
  5
797D
330
787A
100
AcDbEntity
  8
SUNPOU
 62
    60
370
    -2
100
AcDbBlockReference
  2
_Dot
 10
-129.7177529685586
 20
72.00467256390446
 30
0.0
 41
2.0
 42
2.0
 43
2.0
 50
90.0
  0
INSERT
  5
797E
330
787A
100
AcDbEntity
  8
SUNPOU
 62
    60
370
    -2
100
AcDbBlockReference
  2
_Dot
 10
-129.7177529685586
 20
32.00467256390441
 30
0.0
 41
2.0
 42
2.0
 43
2.0
 50
270.0
  0
MTEXT
  5
797F
330
787A
100
AcDbEntity
  8
SUNPOU
 62
    60
100
AcDbMText
 10
-135.2177529685586
 20
52.00467256390441
 30
0.0
 40
5.0
 41
0.0
 71
     5
 72
     1
  1
\A1;40
  7
SUNPOU
 11
0.0000000000000001
 21
1.0
 31
0.0
 73
     1
 44
1.0
1001
ACAD
1000
MTEXTBEGIN
1070
    73
1070
     1
1070
    44
1040
1.0
1070
    74
1070
     0
1000
MTEXTEND
  0
POINT
  5
7980
330
787A
100
AcDbEntity
  8
DEFPOINTS
 62
     0
100
AcDbPoint
 10
-109.0272045172289
 20
72.00467256390446
 30
0.0
  0
POINT
  5
7981
330
787A
100
AcDbEntity
  8
DEFPOINTS
 62
     0
100
AcDbPoint
 10
-106.7782332937386
 20
32.00467256390441
 30
0.0
  0
POINT
  5
7982
330
787A
100
AcDbEntity
  8
DEFPOINTS
 62
     0
100
AcDbPoint
 10
-129.7177529685586
 20
32.00467256390441
 30
0.0
  0
ENDBLK
  5
7885
330
787A
100
AcDbEntity
  8
0
100
AcDbBlockEnd
  0
ENDSEC
  0
SECTION
  2
ENTITIES
  0
LINE
  5
1F
330
2
100
AcDbEntity
  8
WAKU
100
AcDbLine
 10
0.0
 20
14.0
 30
0.0
 11
133.4211017667494
 21
13.99999999999999
 31
0.0
  0
LINE
  5
20
330
2
100
AcDbEntity
  8
WAKU
100
AcDbLine
 10
0.0
 20
0.0
 30
0.0
 11
133.4211017667494
 21
0.0
 31
0.0
  0
TEXT
  5
21
330
2
100
AcDbEntity
  8
HOJO
100
AcDbText
 10
9.653966000000025
 20
2.366626000000024
 30
0.0
 40
9.0
  1
TC318
  7
SUNPOU
100
AcDbText
  0
TEXT
  5
23
330
2
100
AcDbEntity
  8
HOJO
100
AcDbText
 10
75.8077226877416
 20
5.044386000000031
 30
0.0
 40
6.0
  1
360×40×6
  7
SUNPOU
100
AcDbText
  0
SPLINE
  5
7809
102
{ACAD_REACTORS
330
7970
102
}
330
2
100
AcDbEntity
  8
KIJUN
100
AcDbSpline
210
0.0
220
0.0
230
1.0
 70
     8
 71
     3
 72
     9
 73
     5
 74
     3
 42
0.0000000001
 43
0.0000000001
 44
0.0000000001
 40
0.0
 40
0.0
 40
0.0
 40
0.0
 40
2.92674056585744
 40
7.298756002521527
 40
7.298756002521527
 40
7.298756002521527
 40
7.298756002521527
 10
77.13646450217379
 20
61.88977913936094
 30
0.0
 10
76.31036317345479
 20
61.34465701015603
 30
0.0
 10
74.2502174598178
 20
59.98522206089671
 30
0.0
 10
73.12585410018022
 20
57.76375411277531
 30
0.0
 10
72.45235111377315
 20
56.4330763701729
 30
0.0
 11
77.13646450217379
 21
61.88977913936094
 31
0.0
 11
74.80862902407761
 21
60.11580272273295
 31
0.0
 11
72.45235111377315
 21
56.4330763701729
 31
0.0
  0
SPLINE
  5
780A
102
{ACAD_REACTORS
330
7970
102
}
330
2
100
AcDbEntity
  8
KIJUN
100
AcDbSpline
210
0.0
220
0.0
230
1.0
 70
     8
 71
     3
 72
    13
 73
     9
 74
     0
 42
0.0000000001
 43
0.0000000001
 40
0.0
 40
0.0
 40
0.0
 40
0.0
 40
1.646944584737851
 40
3.984442232655265
 40
6.239227039260644
 40
9.266778830475235
 40
11.33679546669902
 40
11.34117233500707
 40
11.34117233500707
 40
11.34117233500707
 40
11.34117233500707
 10
80.11565228277119
 20
58.29664335610289
 30
0.0
 10
79.68556940762164
 20
57.82612400959919
 30
0.0
 10
78.64507272839637
 20
56.68779964042187
 30
0.0
 10
76.30725998329558
 20
55.98938064260448
 30
0.0
 10
73.46151509966853
 20
55.17796765311311
 30
0.0
 10
71.70802657837407
 20
52.73139153710213
 30
0.0
 10
71.11724338726458
 20
50.87070813256662
 30
0.0
 10
70.97309919267968
 20
50.10068566275584
 30
0.0
 10
70.97279548277128
 20
50.09906089320441
 30
0.0
  0
SPLINE
  5
780D
102
{ACAD_REACTORS
330
7970
102
}
330
2
100
AcDbEntity
  8
KIJUN
100
AcDbSpline
210
0.0
220
0.0
230
1.0
 70
     8
 71
     3
 72
    10
 73
     6
 74
     4
 42
0.0000000001
 43
0.0000000001
 44
0.0000000001
 40
0.0
 40
0.0
 40
0.0
 40
0.0
 40
4.616462544646867
 40
15.73594570360518
 40
27.74007253988099
 40
27.74007253988099
 40
27.74007253988099
 40
27.74007253988099
 10
-40.45577176722827
 20
52.58235785610304
 30
0.0
 10
-39.78223406058635
 20
51.18960624344753
 30
0.0
 10
-37.48637382592733
 20
46.44219119493397
 30
0.0
 10
-29.51502680647923
 20
40.66122901432161
 30
0.0
 10
-21.96199971143574
 20
39.04450821490307
 30
0.0
 10
-18.0410074759925
 20
38.20522224099739
 30
0.0
 11
-40.45577176722827
 21
52.58235785610304
 31
0.0
 11
-38.24357529644795
 21
48.53045543862129
 31
0.0
 11
-29.55921310730218
 21
41.58605056202509
 31
0.0
 11
-18.0410074759925
 21
38.20522224099739
 31
0.0
  0
SPLINE
  5
780E
102
{ACAD_REACTORS
330
7970
102
}
330
2
100
AcDbEntity
  8
KIJUN
100
AcDbSpline
210
0.0
220
0.0
230
1.0
 70
     8
 71
     3
 72
    10
 73
     6
 74
     4
 42
0.0000000001
 43
0.0000000001
 44
0.0000000001
 40
0.0
 40
0.0
 40
0.0
 40
0.0
 40
5.29763561159632
 40
13.74710792860434
 40
25.54148252402272
 40
25.54148252402272
 40
25.54148252402272
 40
25.54148252402272
 10
-42.29828288521048
 20
54.10832525145417
 30
0.0
 10
-42.12178251346194
 20
52.33061913544585
 30
0.0
 10
-41.66377259398859
 20
47.71755783152907
 30
0.0
 10
-35.5942091225852
 20
40.65733218742248
 30
0.0
 10
-28.83506322795052
 20
39.28113624468767
 30
0.0
 10
-24.89708153053562
 20
38.47934345621593
 30
0.0
 11
-42.29828288521048
 21
54.10832525145417
 31
0.0
 11
-41.35166184152604
 21
48.89595039224582
 31
0.0
 11
-36.04963047313822
 21
42.31704122700295
 31
0.0
 11
-24.89708153053562
 21
38.47934345621593
 31
0.0
  0
SPLINE
  5
780F
102
{ACAD_REACTORS
330
7970
102
}
330
2
100
AcDbEntity
  8
KIJUN
100
AcDbSpline
210
0.0
220
0.0
230
1.0
 70
     8
 71
     3
 72
    12
 73
     8
 74
     6
 42
0.0000000001
 43
0.0000000001
 44
0.0000000001
 40
0.0
 40
0.0
 40
0.0
 40
0.0
 40
4.650647184434989
 40
15.27987541464878
 40
24.2701811761636
 40
34.94309948786329
 40
41.47623277299386
 40
41.47623277299386
 40
41.47623277299386
 40
41.47623277299386
 10
-72.45577056722845
 20
46.86807235610285
 30
0.0
 10
-71.07184194230803
 20
47.57870593865998
 30
0.0
 10
-66.52489263978435
 20
49.91351917568209
 30
0.0
 10
-57.99081090499396
 20
50.27178712646232
 30
0.0
 10
-48.43799859973637
 20
46.71886499449583
 30
0.0
 10
-41.15367094830117
 20
41.70508848586895
 30
0.0
 10
-35.59909861960921
 20
40.16181054649329
 30
0.0
 10
-33.49002896112188
 20
39.57582831708976
 30
0.0
 11
-72.45577056722845
 21
46.86807235610285
 31
0.0
 11
-68.22747654493764
 21
48.80457665383961
 31
0.0
 11
-57.62341380816201
 21
49.5355665610889
 31
0.0
 11
-49.12188113613615
 21
46.61160693209206
 31
0.0
 11
-39.70620439680966
 21
41.58605056202509
 31
0.0
 11
-33.49002896112188
 21
39.57582831708976
 31
0.0
  0
ARC
  5
7810
102
{ACAD_REACTORS
330
7970
102
}
330
2
100
AcDbEntity
  8
KIJUN
100
AcDbCircle
 10
-16.53030555635428
 20
100.3277871852753
 30
0.0
 40
68.32311462137098
100
AcDbArc
 50
233.0520160603472
 51
305.3226807511476
  0
SPLINE
  5
7813
102
{ACAD_REACTORS
330
7970
102
}
330
2
100
AcDbEntity
  8
KIJUN
100
AcDbSpline
210
0.0
220
0.0
230
1.0
 70
     8
 71
     3
 72
    11
 73
     7
 74
     5
 42
0.0000000001
 43
0.0000000001
 44
0.0000000001
 40
0.0
 40
0.0
 40
0.0
 40
0.0
 40
1.875831568893617
 40
9.530911215472603
 40
18.3004188757337
 40
21.74841862171193
 40
21.74841862171193
 40
21.74841862171193
 40
21.74841862171193
 10
-97.59862676722878
 20
60.58235755610303
 30
0.0
 10
-97.42226025241599
 20
59.96144012289036
 30
0.0
 10
-96.5261597592068
 20
56.80662120085916
 30
0.0
 10
-89.17854762874616
 20
55.72712585598072
 30
0.0
 10
-82.56117479930248
 20
55.27791738188
 30
0.0
 10
-79.13654736084771
 20
57.63221760268418
 30
0.0
 10
-78.17005606722819
 20
58.29664335610289
 30
0.0
 11
-97.59862676722878
 21
60.58235755610303
 31
0.0
 11
-96.95600809723192
 21
58.82003371530948
 31
0.0
 11
-89.87042140503604
 21
55.92267187687014
 31
0.0
 11
-81.12079713752654
 21
56.51287504594586
 31
0.0
 11
-78.17005606722819
 21
58.29664335610289
 31
0.0
  0
SPLINE
  5
7814
102
{ACAD_REACTORS
330
7970
102
}
330
2
100
AcDbEntity
  8
KIJUN
100
AcDbSpline
210
0.0
220
0.0
230
1.0
 70
     8
 71
     3
 72
    11
 73
     7
 74
     5
 42
0.0000000001
 43
0.0000000001
 44
0.0000000001
 40
0.0
 40
0.0
 40
0.0
 40
0.0
 40
3.423206549060468
 40
5.44010637109359
 40
13.18908398117321
 40
17.94476912613587
 40
17.94476912613587
 40
17.94476912613587
 40
17.94476912613587
 10
-109.0272045172289
 20
52.58242830890242
 30
0.0
 10
-108.2466949504722
 20
53.4247359599624
 30
0.0
 10
-107.0063213399524
 20
54.76331812065905
 30
0.0
 10
-102.9284783349332
 20
56.74654190294697
 30
0.0
 10
-97.91562474042791
 20
54.64517956507784
 30
0.0
 10
-94.07041699981563
 20
53.23839795337756
 30
0.0
 10
-92.60803471174062
 20
52.70338069269439
 30
0.0
 11
-109.0272045172289
 21
52.58242830890242
 31
0.0
 11
-106.5108135769007
 21
54.90322983272233
 31
0.0
 11
-104.6857376481759
 21
55.76170682513771
 31
0.0
 11
-97.06336543581755
 21
54.36668142831456
 31
0.0
 11
-92.60803471174062
 21
52.70338069269439
 31
0.0
  0
ARC
  5
7816
102
{ACAD_REACTORS
330
7970
102
}
330
2
100
AcDbEntity
  8
KIJUN
100
AcDbCircle
 10
-74.15549947110003
 20
50.90446407142474
 30
0.0
 40
4.379673095811623
100
AcDbArc
 50
203.5611690980001
 51
292.8360119293002
  0
SPLINE
  5
7819
102
{ACAD_REACTORS
330
7970
102
}
330
2
100
AcDbEntity
  8
KIJUN
100
AcDbSpline
210
0.0
220
0.0
230
1.0
 70
     8
 71
     3
 72
     9
 73
     5
 74
     3
 42
0.0000000001
 43
0.0000000001
 44
0.0000000001
 40
0.0
 40
0.0
 40
0.0
 40
0.0
 40
2.04871436076433
 40
5.119807431240372
 40
5.119807431240372
 40
5.119807431240372
 40
5.119807431240372
 10
-72.45577056722845
 20
59.4395004561029
 30
0.0
 10
-72.15403725235359
 20
58.81209151206309
 30
0.0
 10
-71.39999535303644
 20
57.24417504911443
 30
0.0
 10
-69.87409527669632
 20
56.36670244142262
 30
0.0
 10
-68.95879109511861
 20
55.84035451111344
 30
0.0
 11
-72.45577056722845
 21
59.4395004561029
 31
0.0
 11
-71.42697784857546
 21
57.66783003696492
 31
0.0
 11
-68.95879109511861
 21
55.84035451111344
 31
0.0
  0
SPLINE
  5
781A
102
{ACAD_REACTORS
330
7970
102
}
330
2
100
AcDbEntity
  8
KIJUN
100
AcDbSpline
210
0.0
220
0.0
230
1.0
 70
     8
 71
     3
 72
     9
 73
     5
 74
     3
 42
0.0000000001
 43
0.0000000001
 44
0.0000000001
 40
0.0
 40
0.0
 40
0.0
 40
0.0
 40
2.299041349933259
 40
8.130979755076248
 40
8.130979755076248
 40
8.130979755076248
 40
8.130979755076248
 10
-86.1700557672284
 20
50.29664365610301
 30
0.0
 10
-85.83521250250743
 20
50.99115426559411
 30
0.0
 10
-84.65097812296972
 20
53.44741791897362
 30
0.0
 10
-82.55981331110348
 20
55.24851974254341
 30
0.0
 10
-81.05992710486953
 20
56.54035851386641
 30
0.0
 11
-86.1700557672284
 21
50.29664365610301
 31
0.0
 11
-85.09301866520127
 21
52.32779658229048
 31
0.0
 11
-81.05992710486953
 21
56.54035851386641
 31
0.0
  0
SPLINE
  5
781E
102
{ACAD_REACTORS
330
7970
102
}
330
2
100
AcDbEntity
  8
KIJUN
100
AcDbSpline
210
0.0
220
0.0
230
1.0
 70
     8
 71
     3
 72
    13
 73
     9
 74
     7
 42
0.0000000001
 43
0.0000000001
 44
0.0000000001
 40
0.0
 40
0.0
 40
0.0
 40
0.0
 40
2.341482946521003
 40
8.89458903170424
 40
20.55587389431749
 40
31.6420267884582
 40
37.73028235690407
 40
39.61242211496609
 40
39.61242211496609
 40
39.61242211496609
 40
39.61242211496609
 10
-78.17005606722841
 20
49.153786556103
 30
0.0
 10
-78.09750870978888
 20
49.96613621962591
 30
0.0
 10
-77.82192313240114
 20
53.05200811026482
 30
0.0
 10
-69.92009615914736
 20
55.63416879666245
 30
0.0
 10
-60.93306035731416
 20
56.2249113592905
 30
0.0
 10
-50.64443097805969
 20
54.89540663138163
 30
0.0
 10
-45.9998692712142
 20
50.33369041816723
 30
0.0
 10
-43.64468936235653
 20
49.09668480526838
 30
0.0
 10
-43.08853404480191
 20
48.80457665383961
 30
0.0
 11
-78.17005606722841
 21
49.153786556103
 31
0.0
 11
-77.73456687005773
 21
51.45441506761812
 31
0.0
 11
-72.06687881296284
 21
54.74386965023962
 31
0.0
 11
-60.45725842309275
 21
55.84035451111344
 31
0.0
 11
-49.67036616919791
 21
53.28188983574114
 31
0.0
 11
-44.73399266228398
 21
49.71831403790123
 31
0.0
 11
-43.08853404480191
 21
48.80457665383961
 31
0.0
  0
ARC
  5
781F
102
{ACAD_REACTORS
330
7970
102
}
330
2
100
AcDbEntity
  8
KIJUN
100
AcDbCircle
 10
10.41498562246988
 20
60.93099012504115
 30
0.0
 40
12.64607350635574
100
AcDbArc
 50
302.7625162310626
 51
353.2267173527714
  0
SPLINE
  5
7820
102
{ACAD_REACTORS
330
7970
102
}
330
2
100
AcDbEntity
  8
KIJUN
100
AcDbSpline
210
0.0
220
0.0
230
1.0
 70
     8
 71
     3
 72
    10
 73
     6
 74
     4
 42
0.0000000001
 43
0.0000000001
 44
0.0000000001
 40
0.0
 40
0.0
 40
0.0
 40
0.0
 40
7.137299145766927
 40
27.66041985250419
 40
29.26374792708915
 40
29.26374792708915
 40
29.26374792708915
 40
29.26374792708915
 10
17.25851178277116
 20
50.29664365610301
 30
0.0
 10
15.13879915163687
 20
49.22757841841191
 30
0.0
 10
6.923907195117919
 20
45.08444349856044
 30
0.0
 10
-3.605050748534267
 20
43.94588685472545
 30
0.0
 10
-10.70768378337254
 20
45.92643035387728
 30
0.0
 10
-11.22235520944627
 20
46.0699446171244
 30
0.0
 11
17.25851178277116
 21
50.29664365610301
 31
0.0
 11
10.78370964665714
 21
47.29364908495597
 31
0.0
 11
-9.673833905279934
 21
45.65432136790071
 31
0.0
 11
-11.22235520944627
 21
46.0699446171244
 31
0.0
  0
SPLINE
  5
7821
102
{ACAD_REACTORS
330
7970
102
}
330
2
100
AcDbEntity
  8
KIJUN
100
AcDbSpline
210
0.0
220
0.0
230
1.0
 70
     8
 71
     3
 72
    10
 73
     6
 74
     4
 42
0.0000000001
 43
0.0000000001
 44
0.0000000001
 40
0.0
 40
0.0
 40
0.0
 40
0.0
 40
4.020582529960471
 40
16.67138359159129
 40
23.25935179885064
 40
23.25935179885064
 40
23.25935179885064
 40
23.25935179885064
 10
-29.02720076722881
 20
48.0109294561031
 30
0.0
 10
-28.0174438548695
 20
47.11309177086394
 30
0.0
 10
-23.8304772412609
 20
43.39019929394831
 30
0.0
 10
-15.68201313649035
 20
42.13841370544815
 30
0.0
 10
-9.341711247160333
 20
41.60815723619158
 30
0.0
 10
-7.170589659935103
 20
41.42658050888996
 30
0.0
 11
-29.02720076722881
 21
48.0109294561031
 31
0.0
 11
-25.90175843641896
 21
45.48176079486177
 31
0.0
 11
-13.73081474487299
 21
42.0305440299835
 31
0.0
 11
-7.170589659935103
 21
41.42658050888996
 31
0.0
  0
SPLINE
  5
7824
102
{ACAD_REACTORS
330
7970
102
}
330
2
100
AcDbEntity
  8
KIJUN
100
AcDbSpline
210
0.0
220
0.0
230
1.0
 70
     8
 71
     3
 72
     9
 73
     5
 74
     3
 42
0.0000000001
 43
0.0000000001
 44
0.0000000001
 40
0.0
 40
0.0
 40
0.0
 40
0.0
 40
1.192638103380899
 40
2.88980329268324
 40
2.88980329268324
 40
2.88980329268324
 40
2.88980329268324
 10
75.14733060287153
 20
63.1751320642486
 30
0.0
 10
74.77832197240053
 20
63.01676718031277
 30
0.0
 10
73.88420132310989
 20
62.63304360000301
 30
0.0
 10
73.22504342977175
 20
61.91047803250748
 30
0.0
 10
72.83792371347136
 20
61.48611934648659
 30
0.0
 11
75.14733060287153
 21
63.1751320642486
 31
0.0
 11
74.08032496403393
 21
62.64232383202545
 31
0.0
 11
72.83792371347136
 21
61.48611934648659
 31
0.0
  0
SPLINE
  5
7825
102
{ACAD_REACTORS
330
7970
102
}
330
2
100
AcDbEntity
  8
KIJUN
100
AcDbSpline
210
0.0
220
0.0
230
1.0
 70
     8
 71
     3
 72
     9
 73
     5
 74
     3
 42
0.0000000001
 43
0.0000000001
 44
0.0000000001
 40
0.0
 40
0.0
 40
0.0
 40
0.0
 40
2.877085300768854
 40
6.925124485795471
 40
6.925124485795471
 40
6.925124485795471
 40
6.925124485795471
 10
70.90700683250497
 20
69.53672922689077
 30
0.0
 10
71.01432500820613
 20
68.579796646241
 30
0.0
 10
71.27263911732211
 20
66.27646652122092
 30
0.0
 10
70.90670469348481
 20
63.98297202165917
 30
0.0
 10
70.69279996298042
 20
62.64232383202557
 30
0.0
 11
70.90700683250497
 21
69.53672922689077
 31
0.0
 11
71.12121370202999
 21
66.667629151092
 31
0.0
 11
70.69279996298042
 21
62.64232383202557
 31
0.0
  0
SPLINE
  5
7826
102
{ACAD_REACTORS
330
7970
102
}
330
2
100
AcDbEntity
  8
KIJUN
100
AcDbSpline
210
0.0
220
0.0
230
1.0
 70
     8
 71
     3
 72
     9
 73
     5
 74
     3
 42
0.0000000001
 43
0.0000000001
 44
0.0000000001
 40
0.0
 40
0.0
 40
0.0
 40
0.0
 40
1.192638103380899
 40
2.889803292683573
 40
2.889803292683573
 40
2.889803292683573
 40
2.889803292683573
 10
66.79826036267105
 20
63.17513206424871
 30
0.0
 10
67.1672689931421
 20
63.01676718031287
 30
0.0
 10
68.06138964243274
 20
62.63304360000302
 30
0.0
 10
68.72054753577112
 20
61.91047803250757
 30
0.0
 10
69.10766725207167
 20
61.4861193464867
 30
0.0
 11
66.79826036267105
 21
63.17513206424871
 31
0.0
 11
67.86526600150864
 21
62.64232383202557
 31
0.0
 11
69.10766725207167
 21
61.4861193464867
 31
0.0
  0
SPLINE
  5
7827
102
{ACAD_REACTORS
330
7970
102
}
330
2
100
AcDbEntity
  8
KIJUN
100
AcDbSpline
210
0.0
220
0.0
230
1.0
 70
     8
 71
     3
 72
     9
 73
     5
 74
     3
 42
0.0000000001
 43
0.0000000001
 44
0.0000000001
 40
0.0
 40
0.0
 40
0.0
 40
0.0
 40
2.926740565857509
 40
7.298756002521692
 40
7.298756002521692
 40
7.298756002521692
 40
7.298756002521692
 10
64.80912646336879
 20
61.88977913936117
 30
0.0
 10
65.63522779208779
 20
61.34465701015622
 30
0.0
 10
67.69537350572483
 20
59.9852220608968
 30
0.0
 10
68.81973686536236
 20
57.76375411277536
 30
0.0
 10
69.49323985176943
 20
56.4330763701729
 30
0.0
 11
64.80912646336879
 21
61.88977913936117
 31
0.0
 11
67.13696194146496
 21
60.11580272273306
 31
0.0
 11
69.49323985176943
 21
56.4330763701729
 31
0.0
  0
SPLINE
  5
7828
102
{ACAD_REACTORS
330
7970
102
}
330
2
100
AcDbEntity
  8
KIJUN
100
AcDbSpline
210
0.0
220
0.0
230
1.0
 70
    11
 71
     3
 72
    14
 73
    10
 74
     8
 42
0.0000000001
 43
0.0000000001
 44
0.0000000001
 12
-0.8481395054419991
 22
0.5297729507143613
 32
0.0
 13
-0.8481395054419991
 23
0.5297729507143613
 33
0.0
 40
0.0
 40
0.0
 40
0.0
 40
0.0
 40
1.491688863247308
 40
3.456893161923739
 40
5.220611265325714
 40
6.692871847979258
 40
8.936507113421793
 40
10.67077391890074
 40
11.75189464537339
 40
11.75189464537339
 40
11.75189464537339
 40
11.75189464537339
 10
70.90700683250497
 20
56.47589864627014
 30
0.0
 10
70.48528674758904
 20
56.73931744981357
 30
0.0
 10
69.79604726382593
 20
57.75295118545931
 30
0.0
 10
69.35564976518731
 20
59.42970683883402
 30
0.0
 10
70.12351069388711
 20
61.42509803029731
 30
0.0
 10
72.46706246834765
 20
61.04086161794969
 30
0.0
 10
72.51078195840205
 20
58.71203595251322
 30
0.0
 10
72.11795975892425
 20
57.38298500129068
 30
0.0
 10
71.21265389859615
 20
56.28498247382285
 30
0.0
 10
70.90700683250497
 20
56.47589864627014
 30
0.0
 11
70.90700683250497
 21
56.47589864627014
 31
0.0
 11
69.96449590293673
 21
57.63210313180912
 31
0.0
 11
69.57892330323875
 21
59.55911161801214
 31
0.0
 11
70.43575078133812
 21
61.10071734615463
 31
0.0
 11
71.89235890142549
 21
60.88660520793985
 31
0.0
 11
72.40645609194462
 21
58.70266306515361
 31
0.0
 11
71.80667662272185
 21
57.07541202708819
 31
0.0
 11
70.90700683250497
 21
56.47589864627014
 31
0.0
  0
SPLINE
  5
782F
102
{ACAD_REACTORS
330
7970
102
}
330
2
100
AcDbEntity
  8
KIJUN
100
AcDbSpline
210
0.0
220
0.0
230
1.0
 70
     8
 71
     3
 72
     9
 73
     5
 74
     3
 42
0.0000000001
 43
0.0000000001
 44
0.0000000001
 40
0.0
 40
0.0
 40
0.0
 40
0.0
 40
7.056400857641423
 40
18.8619400076651
 40
18.8619400076651
 40
18.8619400076651
 40
18.8619400076651
 10
36.68708248277153
 20
54.86807205610296
 30
0.0
 10
34.84017023892443
 20
53.3318226596765
 30
0.0
 10
29.90332656384578
 20
49.22538872305733
 30
0.0
 10
28.45236872469485
 20
42.85515290123434
 30
0.0
 10
27.54422568277187
 20
38.86807265610298
 30
0.0
 11
36.68708248277153
 21
54.86807205610296
 31
0.0
 11
31.63421891470284
 21
49.94248957012155
 31
0.0
 11
27.54422568277187
 21
38.86807265610298
 31
0.0
  0
SPLINE
  5
7830
102
{ACAD_REACTORS
330
7970
102
}
330
2
100
AcDbEntity
  8
KIJUN
100
AcDbSpline
210
0.0
220
0.0
230
1.0
 70
     8
 71
     3
 72
     9
 73
     5
 74
     3
 42
0.0000000001
 43
0.0000000001
 44
0.0000000001
 40
0.0
 40
0.0
 40
0.0
 40
0.0
 40
6.10167342367228
 40
13.92823610815672
 40
13.92823610815672
 40
13.92823610815672
 40
13.92823610815672
 10
28.68708278277154
 20
57.15378625610288
 30
0.0
 10
28.23566140708499
 20
55.15146138464498
 30
0.0
 10
27.2052058142902
 20
50.58077206084383
 30
0.0
 10
24.49545952359552
 20
46.74036305793719
 30
0.0
 10
22.97279728277158
 20
44.58235815610294
 30
0.0
 11
28.68708278277154
 21
57.15378625610288
 31
0.0
 11
27.01053998718567
 21
51.28696234331005
 31
0.0
 11
22.97279728277158
 21
44.58235815610294
 31
0.0
  0
ARC
  5
7831
102
{ACAD_REACTORS
330
7970
102
}
330
2
100
AcDbEntity
  8
KIJUN
100
AcDbCircle
 10
30.3757532183854
 20
47.89181302358883
 30
0.0
 40
2.2857142
100
AcDbArc
 50
58.69889889397035
 51
246.2095417250502
  0
SPLINE
  5
7832
102
{ACAD_REACTORS
330
7970
102
}
330
2
100
AcDbEntity
  8
KIJUN
100
AcDbSpline
210
0.0
220
0.0
230
1.0
 70
     8
 71
     3
 72
     9
 73
     5
 74
     3
 42
0.0000000001
 43
0.0000000001
 44
0.0000000001
 40
0.0
 40
0.0
 40
0.0
 40
0.0
 40
2.122111683149431
 40
5.02298857103711
 40
5.02298857103711
 40
5.02298857103711
 40
5.02298857103711
 10
33.20416735143022
 20
57.08725407431131
 30
0.0
 10
33.16155963800452
 20
56.37892661465889
 30
0.0
 10
33.0607081798675
 20
54.70233213443552
 30
0.0
 10
33.35452958659005
 20
53.04616769462787
 30
0.0
 10
33.52421735630605
 20
52.08969943314674
 30
0.0
 11
33.20416735143022
 21
57.08725407431131
 31
0.0
 11
33.14678907934513
 21
54.96591823818073
 31
0.0
 11
33.52421735630605
 21
52.08969943314674
 31
0.0
  0
SPLINE
  5
7833
102
{ACAD_REACTORS
330
7970
102
}
330
2
100
AcDbEntity
  8
KIJUN
100
AcDbSpline
210
0.0
220
0.0
230
1.0
 70
     8
 71
     3
 72
     9
 73
     5
 74
     3
 42
0.0000000001
 43
0.0000000001
 44
0.0000000001
 40
0.0
 40
0.0
 40
0.0
 40
0.0
 40
2.083373000300669
 40
4.159353276284801
 40
4.159353276284801
 40
4.159353276284801
 40
4.159353276284801
 10
25.21034566568892
 20
40.94691273562875
 30
0.0
 10
25.58323776787489
 20
41.58961131630486
 30
0.0
 10
26.32769878695501
 20
42.87272790023535
 30
0.0
 10
27.80880006384888
 20
42.94865218600881
 30
0.0
 10
28.54803446721098
 20
42.98654685598854
 30
0.0
 11
25.21034566568892
 21
40.94691273562875
 31
0.0
 11
26.51383726091126
 21
42.57213663391678
 31
0.0
 11
28.54803446721098
 21
42.98654685598854
 31
0.0
  0
SPLINE
  5
7834
102
{ACAD_REACTORS
330
7970
102
}
330
2
100
AcDbEntity
  8
KIJUN
100
AcDbSpline
210
0.0
220
0.0
230
1.0
 70
     8
 71
     3
 72
     9
 73
     5
 74
     3
 42
0.0000000001
 43
0.0000000001
 44
0.0000000001
 40
0.0
 40
0.0
 40
0.0
 40
0.0
 40
4.058865145336854
 40
7.315673861001895
 40
7.315673861001895
 40
7.315673861001895
 40
7.315673861001895
 10
28.68708278277313
 20
57.15378625610298
 30
0.0
 10
28.47072501751427
 20
55.78044608742192
 30
0.0
 10
28.08076309681656
 20
53.30514611697902
 30
0.0
 10
29.12793224272912
 20
51.04562466928289
 30
0.0
 10
29.59411344024852
 20
50.03972565247227
 30
0.0
 11
28.68708278277313
 21
57.15378625610298
 31
0.0
 11
28.4803909801326
 21
53.10018726671694
 31
0.0
 11
29.59411344024852
 21
50.03972565247227
 31
0.0
  0
SPLINE
  5
7835
102
{ACAD_REACTORS
330
7970
102
}
330
2
100
AcDbEntity
  8
KIJUN
100
AcDbSpline
210
0.0
220
0.0
230
1.0
 70
     8
 71
     3
 72
    15
 73
    11
 74
     9
 42
0.0000000001
 43
0.0000000001
 44
0.0000000001
 40
0.0
 40
0.0
 40
0.0
 40
0.0
 40
1.836988069106318
 40
3.075956616028603
 40
5.301441290803074
 40
6.360282247712362
 40
8.126629485448656
 40
8.847599278569527
 40
11.71770032820912
 40
13.07702643951381
 40
13.07702643951381
 40
13.07702643951381
 40
13.07702643951381
 10
29.59411344024852
 20
50.03972565247227
 30
0.0
 10
29.06465963101505
 20
50.32960839523035
 30
0.0
 10
28.17811225774574
 20
50.8150044385988
 30
0.0
 10
26.04451673696235
 20
50.64653681388944
 30
0.0
 10
26.44211492414576
 20
48.63303786038247
 30
0.0
 10
27.22936713266762
 20
46.90578801471131
 30
0.0
 10
25.64994153553897
 20
46.48585632225507
 30
0.0
 10
24.10190002451861
 20
45.60172550777557
 30
0.0
 10
24.64504468098937
 20
42.98593690167581
 30
0.0
 10
26.05683793001606
 20
42.6712797583563
 30
0.0
 10
26.51058434865331
 20
42.5701498287591
 30
0.0
 11
29.59411344024852
 21
50.03972565247227
 31
0.0
 11
27.88042621389377
 21
50.70139116938207
 31
0.0
 11
26.65881456765897
 21
50.49473191832806
 31
0.0
 11
26.64716315544206
 21
48.26927774395165
 31
0.0
 11
26.88048376406186
 21
47.23646330484757
 31
0.0
 11
25.38056891654924
 21
46.30359781911567
 31
0.0
 11
24.78060415031064
 21
45.90379821698355
 31
0.0
 11
25.24724419478457
 21
43.07188594714967
 31
0.0
 11
26.51058434865331
 21
42.5701498287591
 31
0.0
  0
ARC
  5
7836
102
{ACAD_REACTORS
330
7970
102
}
330
2
100
AcDbEntity
  8
KIJUN
100
AcDbCircle
 10
65.7131211617002
 20
45.24528746646296
 30
0.0
 40
5.281524841085603
100
AcDbArc
 50
162.1060046239838
 51
5.213611884192305
  0
SPLINE
  5
7838
102
{ACAD_REACTORS
330
7970
102
}
330
2
100
AcDbEntity
  8
KIJUN
100
AcDbSpline
210
0.0
220
0.0
230
1.0
 70
     8
 71
     3
 72
    13
 73
     9
 74
     0
 42
0.0000000001
 43
0.0000000001
 40
0.0
 40
0.0
 40
0.0
 40
0.0
 40
1.646944584737851
 40
3.984442232655265
 40
6.239227039260644
 40
9.266778830475235
 40
11.33679546669902
 40
11.34117233500707
 40
11.34117233500707
 40
11.34117233500707
 40
11.34117233500707
 10
61.82993868277117
 20
58.29664335610289
 30
0.0
 10
62.26002155792094
 20
57.82612400959919
 30
0.0
 10
63.30051823714621
 20
56.68779964042187
 30
0.0
 10
65.638330982247
 20
55.98938064260448
 30
0.0
 10
68.48407586587405
 20
55.17796765311311
 30
0.0
 10
70.2375643871685
 20
52.73139153710213
 30
0.0
 10
70.828347578278
 20
50.87070813256662
 30
0.0
 10
70.9724917728629
 20
50.10068566275584
 30
0.0
 10
70.97279548277128
 20
50.09906089320441
 30
0.0
  0
SPLINE
  5
7839
102
{ACAD_REACTORS
330
7970
102
}
330
2
100
AcDbEntity
  8
KIJUN
100
AcDbSpline
210
0.0
220
0.0
230
1.0
 70
     8
 71
     3
 72
    10
 73
     6
 74
     4
 42
0.0000000001
 43
0.0000000001
 44
0.0000000001
 40
0.0
 40
0.0
 40
0.0
 40
0.0
 40
1.915113091272182
 40
4.392520846023824
 40
6.939548097596329
 40
6.939548097596329
 40
6.939548097596329
 40
6.939548097596329
 10
60.68708158277127
 20
46.86807235610285
 30
0.0
 10
61.1553759850442
 20
47.28517072774022
 30
0.0
 10
62.22946029548774
 20
48.24183135556909
 30
0.0
 10
64.76220327373397
 20
49.19185954866937
 30
0.0
 10
65.98578124237491
 20
47.82194637010626
 30
0.0
 10
66.6060472875381
 20
47.12749889617202
 30
0.0
 11
60.68708158277127
 21
46.86807235610285
 31
0.0
 11
62.1925350509232
 21
48.05182402245498
 31
0.0
 11
64.5884418947021
 21
48.68204587167713
 31
0.0
 11
66.6060472875381
 21
47.12749889617202
 31
0.0
  0
LINE
  5
783A
102
{ACAD_REACTORS
330
7970
102
}
330
2
100
AcDbEntity
  8
KIJUN
100
AcDbLine
 10
70.97279548277128
 20
50.09906089321157
 30
0.0
 11
70.97279548277128
 21
44.7653596768223
 31
0.0
  0
ARC
  5
783C
102
{ACAD_REACTORS
330
7970
102
}
330
2
100
AcDbEntity
  8
KIJUN
100
AcDbCircle
 10
60.8351998032017
 20
-28.31336324372148
 30
0.0
 40
86.61571883128457
100
AcDbArc
 50
89.34197172028623
 51
106.1883603165646
  0
SPLINE
  5
783D
102
{ACAD_REACTORS
330
7970
102
}
330
2
100
AcDbEntity
  8
KIJUN
100
AcDbSpline
210
0.0
220
0.0
230
1.0
 70
     8
 71
     3
 72
    14
 73
    10
 74
     8
 42
0.0000000001
 43
0.0000000001
 44
0.0000000001
 40
0.0
 40
0.0
 40
0.0
 40
0.0
 40
2.701147560709134
 40
9.658368549054126
 40
23.75767745761578
 40
30.72257361936979
 40
35.29917900353007
 40
41.25119336599996
 40
46.48870802966314
 40
46.48870802966314
 40
46.48870802966314
 40
46.48870802966314
 10
66.6060472875381
 20
47.12749889617202
 30
0.0
 10
66.45178904015029
 20
48.0594121805073
 30
0.0
 10
65.90021495116883
 20
51.39161146010036
 30
0.0
 10
56.62470757097435
 20
53.58689913922231
 30
0.0
 10
47.79743590027396
 20
53.08603013893725
 30
0.0
 10
39.59863553011923
 20
49.91264833956636
 30
0.0
 10
35.17538535719427
 20
45.95439724056715
 30
0.0
 10
33.68062164499941
 20
40.22729893204393
 30
0.0
 10
35.7285178730395
 20
36.96601826834675
 30
0.0
 10
36.68708248277153
 20
35.43950135610294
 30
0.0
 11
66.6060472875381
 21
47.12749889617202
 31
0.0
 11
65.89147866204325
 21
49.73241536780472
 31
0.0
 11
59.58646151624134
 21
52.67344965387008
 31
0.0
 11
45.50525569725482
 21
51.95919872990407
 31
0.0
 11
39.1161723441976
 21
49.1862233510551
 31
0.0
 11
35.83756328764934
 21
45.99309956757212
 31
0.0
 11
34.49249341668088
 21
40.19506007018503
 31
0.0
 11
36.68708248277153
 21
35.43950135610294
 31
0.0
  0
SPLINE
  5
783E
102
{ACAD_REACTORS
330
7970
102
}
330
2
100
AcDbEntity
  8
KIJUN
100
AcDbSpline
210
0.0
220
0.0
230
1.0
 70
     8
 71
     3
 72
    10
 73
     6
 74
     4
 42
0.0000000001
 43
0.0000000001
 44
0.0000000001
 40
0.0
 40
0.0
 40
0.0
 40
0.0
 40
8.275490081022031
 40
17.45864728809215
 40
23.49854291289436
 40
23.49854291289436
 40
23.49854291289436
 40
23.49854291289436
 10
38.97279668277156
 20
43.43950105610304
 30
0.0
 10
41.12282456892666
 20
45.2067015258771
 30
0.0
 10
45.65869835482198
 20
48.93493144181771
 30
0.0
 10
53.76806169035432
 20
50.57889731328277
 30
0.0
 10
58.74622741267813
 20
49.52166200419322
 30
0.0
 10
60.72136352354096
 20
49.10219351858256
 30
0.0
 11
38.97279668277156
 21
43.43950105610304
 31
0.0
 11
45.757456664551
 21
48.17786839229961
 31
0.0
 11
54.75261472505508
 21
50.02651864486563
 31
0.0
 11
60.72136352354096
 21
49.10219351858256
 31
0.0
  0
LINE
  5
783F
102
{ACAD_REACTORS
330
7970
102
}
330
2
100
AcDbEntity
  8
KIJUN
100
AcDbLine
 10
70.97279548277128
 20
50.09906089321157
 30
0.0
 11
70.97279548277128
 21
44.7653596768223
 31
0.0
  0
SPLINE
  5
7841
102
{ACAD_REACTORS
330
7970
102
}
330
2
100
AcDbEntity
  8
KIJUN
100
AcDbSpline
210
0.0
220
0.0
230
1.0
 70
     8
 71
     3
 72
    11
 73
     7
 74
     5
 42
0.0000000001
 43
0.0000000001
 44
0.0000000001
 40
0.0
 40
0.0
 40
0.0
 40
0.0
 40
1.875831568893617
 40
9.530911215472603
 40
18.3004188757337
 40
21.74841862171193
 40
21.74841862171193
 40
21.74841862171193
 40
21.74841862171193
 10
239.5442177327718
 20
60.58235755610303
 30
0.0
 10
239.367851217959
 20
59.96144012289036
 30
0.0
 10
238.4717507247499
 20
56.80662120085916
 30
0.0
 10
231.1241385942892
 20
55.72712585598072
 30
0.0
 10
224.5067657648454
 20
55.27791738188
 30
0.0
 10
221.0821383263907
 20
57.63221760268418
 30
0.0
 10
220.1156470327712
 20
58.29664335610289
 30
0.0
 11
239.5442177327718
 21
60.58235755610303
 31
0.0
 11
238.901599062775
 21
58.82003371530948
 31
0.0
 11
231.8160123705791
 21
55.92267187687014
 31
0.0
 11
223.0663881030696
 21
56.51287504594586
 31
0.0
 11
220.1156470327712
 21
58.29664335610289
 31
0.0
  0
SPLINE
  5
7843
102
{ACAD_REACTORS
330
7970
102
}
330
2
100
AcDbEntity
  8
KIJUN
100
AcDbSpline
210
0.0
220
0.0
230
1.0
 70
     8
 71
     3
 72
     9
 73
     5
 74
     3
 42
0.0000000001
 43
0.0000000001
 44
0.0000000001
 40
0.0
 40
0.0
 40
0.0
 40
0.0
 40
2.299041349933259
 40
8.130979755076248
 40
8.130979755076248
 40
8.130979755076248
 40
8.130979755076248
 10
228.1156467327714
 20
50.29664365610301
 30
0.0
 10
227.7808034680505
 20
50.99115426559411
 30
0.0
 10
226.596569088513
 20
53.44741791897362
 30
0.0
 10
224.5054042766466
 20
55.24851974254341
 30
0.0
 10
223.0055180704126
 20
56.54035851386641
 30
0.0
 11
228.1156467327714
 21
50.29664365610301
 31
0.0
 11
227.0386096307443
 21
52.32779658229048
 31
0.0
 11
223.0055180704126
 21
56.54035851386641
 31
0.0
  0
SPLINE
  5
7845
102
{ACAD_REACTORS
330
7970
102
}
330
2
100
AcDbEntity
  8
KIJUN
100
AcDbSpline
210
0.0
220
0.0
230
1.0
 70
     8
 71
     3
 72
    11
 73
     7
 74
     5
 42
0.0000000001
 43
0.0000000001
 44
0.0000000001
 40
0.0
 40
0.0
 40
0.0
 40
0.0
 40
3.423206549060055
 40
5.440106371093177
 40
13.1890839811728
 40
17.94476912613545
 40
17.94476912613545
 40
17.94476912613545
 40
17.94476912613545
 10
250.9727954827715
 20
52.5824283089025
 30
0.0
 10
250.1922859160149
 20
53.42473595996247
 30
0.0
 10
248.9519123054953
 20
54.76331812065915
 30
0.0
 10
244.8740693004763
 20
56.74654190294695
 30
0.0
 10
239.8612157059709
 20
54.64517956507784
 30
0.0
 10
236.0160079653587
 20
53.23839795337756
 30
0.0
 10
234.5536256772837
 20
52.70338069269439
 30
0.0
 11
250.9727954827715
 21
52.5824283089025
 31
0.0
 11
248.4564045424438
 21
54.90322983272233
 31
0.0
 11
246.631328613719
 21
55.76170682513771
 31
0.0
 11
239.0089564013606
 21
54.36668142831456
 31
0.0
 11
234.5536256772837
 21
52.70338069269439
 31
0.0
  0
SPLINE
  5
7848
102
{ACAD_REACTORS
330
7970
102
}
330
2
100
AcDbEntity
  8
KIJUN
100
AcDbSpline
210
0.0
220
0.0
230
1.0
 70
     8
 71
     3
 72
    10
 73
     6
 74
     4
 42
0.0000000001
 43
0.0000000001
 44
0.0000000001
 40
0.0
 40
0.0
 40
0.0
 40
0.0
 40
4.616462544646867
 40
15.73594570360518
 40
27.74007253988099
 40
27.74007253988099
 40
27.74007253988099
 40
27.74007253988099
 10
182.4013627327713
 20
52.58235785610304
 30
0.0
 10
181.7278250261294
 20
51.18960624344753
 30
0.0
 10
179.4319647914703
 20
46.44219119493397
 30
0.0
 10
171.4606177720223
 20
40.66122901432161
 30
0.0
 10
163.9075906769788
 20
39.04450821490307
 30
0.0
 10
159.9865984415355
 20
38.20522224099739
 30
0.0
 11
182.4013627327713
 21
52.58235785610304
 31
0.0
 11
180.189166261991
 21
48.53045543862129
 31
0.0
 11
171.5048040728452
 21
41.58605056202509
 31
0.0
 11
159.9865984415355
 21
38.20522224099739
 31
0.0
  0
SPLINE
  5
7849
102
{ACAD_REACTORS
330
7970
102
}
330
2
100
AcDbEntity
  8
KIJUN
100
AcDbSpline
210
0.0
220
0.0
230
1.0
 70
     8
 71
     3
 72
    10
 73
     6
 74
     4
 42
0.0000000001
 43
0.0000000001
 44
0.0000000001
 40
0.0
 40
0.0
 40
0.0
 40
0.0
 40
5.29763561159632
 40
13.74710792860434
 40
25.54148252402272
 40
25.54148252402272
 40
25.54148252402272
 40
25.54148252402272
 10
184.2438738507535
 20
54.10832525145417
 30
0.0
 10
184.067373479005
 20
52.33061913544585
 30
0.0
 10
183.6093635595316
 20
47.71755783152907
 30
0.0
 10
177.5398000881282
 20
40.65733218742248
 30
0.0
 10
170.7806541934935
 20
39.28113624468767
 30
0.0
 10
166.8426724960786
 20
38.47934345621593
 30
0.0
 11
184.2438738507535
 21
54.10832525145417
 31
0.0
 11
183.297252807069
 21
48.89595039224582
 31
0.0
 11
177.9952214386812
 21
42.31704122700295
 31
0.0
 11
166.8426724960786
 21
38.47934345621593
 31
0.0
  0
ARC
  5
784A
102
{ACAD_REACTORS
330
7970
102
}
330
2
100
AcDbEntity
  8
KIJUN
100
AcDbCircle
 10
216.1010904366431
 20
50.90446407142474
 30
0.0
 40
4.379673095811623
100
AcDbArc
 50
247.1639880706998
 51
336.4388309019998
  0
SPLINE
  5
784C
102
{ACAD_REACTORS
330
7970
102
}
330
2
100
AcDbEntity
  8
KIJUN
100
AcDbSpline
210
0.0
220
0.0
230
1.0
 70
     8
 71
     3
 72
     9
 73
     5
 74
     3
 42
0.0000000001
 43
0.0000000001
 44
0.0000000001
 40
0.0
 40
0.0
 40
0.0
 40
0.0
 40
2.04871436076433
 40
5.119807431240372
 40
5.119807431240372
 40
5.119807431240372
 40
5.119807431240372
 10
214.4013615327715
 20
59.4395004561029
 30
0.0
 10
214.0996282178967
 20
58.81209151206309
 30
0.0
 10
213.3455863185795
 20
57.24417504911443
 30
0.0
 10
211.8196862422394
 20
56.36670244142262
 30
0.0
 10
210.9043820606617
 20
55.84035451111344
 30
0.0
 11
214.4013615327715
 21
59.4395004561029
 31
0.0
 11
213.3725688141185
 21
57.66783003696492
 31
0.0
 11
210.9043820606617
 21
55.84035451111344
 31
0.0
  0
SPLINE
  5
784F
102
{ACAD_REACTORS
330
7970
102
}
330
2
100
AcDbEntity
  8
KIJUN
100
AcDbSpline
210
0.0
220
0.0
230
1.0
 70
     8
 71
     3
 72
    12
 73
     8
 74
     6
 42
0.0000000001
 43
0.0000000001
 44
0.0000000001
 40
0.0
 40
0.0
 40
0.0
 40
0.0
 40
4.650647184434989
 40
15.27987541464878
 40
24.2701811761636
 40
34.94309948786329
 40
41.47623277299386
 40
41.47623277299386
 40
41.47623277299386
 40
41.47623277299386
 10
214.4013615327715
 20
46.86807235610285
 30
0.0
 10
213.0174329078511
 20
47.57870593865998
 30
0.0
 10
208.4704836053276
 20
49.91351917568209
 30
0.0
 10
199.936401870537
 20
50.27178712646232
 30
0.0
 10
190.3835895652794
 20
46.71886499449583
 30
0.0
 10
183.0992619138442
 20
41.70508848586895
 30
0.0
 10
177.5446895851522
 20
40.16181054649329
 30
0.0
 10
175.4356199266649
 20
39.57582831708976
 30
0.0
 11
214.4013615327715
 21
46.86807235610285
 31
0.0
 11
210.1730675104807
 21
48.80457665383961
 31
0.0
 11
199.569004773705
 21
49.5355665610889
 31
0.0
 11
191.0674721016792
 21
46.61160693209206
 31
0.0
 11
181.6517953623527
 21
41.58605056202509
 31
0.0
 11
175.4356199266649
 21
39.57582831708976
 31
0.0
  0
SPLINE
  5
7851
102
{ACAD_REACTORS
330
7970
102
}
330
2
100
AcDbEntity
  8
KIJUN
100
AcDbSpline
210
0.0
220
0.0
230
1.0
 70
     8
 71
     3
 72
    13
 73
     9
 74
     7
 42
0.0000000001
 43
0.0000000001
 44
0.0000000001
 40
0.0
 40
0.0
 40
0.0
 40
0.0
 40
2.341482946521003
 40
8.89458903170424
 40
20.55587389431749
 40
31.6420267884582
 40
37.73028235690407
 40
39.61242211496609
 40
39.61242211496609
 40
39.61242211496609
 40
39.61242211496609
 10
220.1156470327715
 20
49.153786556103
 30
0.0
 10
220.0430996753318
 20
49.96613621962591
 30
0.0
 10
219.7675140979441
 20
53.05200811026482
 30
0.0
 10
211.8656871246904
 20
55.63416879666245
 30
0.0
 10
202.8786513228572
 20
56.2249113592905
 30
0.0
 10
192.5900219436027
 20
54.89540663138163
 30
0.0
 10
187.9454602367573
 20
50.33369041816723
 30
0.0
 10
185.5902803278995
 20
49.09668480526838
 30
0.0
 10
185.0341250103449
 20
48.80457665383961
 30
0.0
 11
220.1156470327715
 21
49.153786556103
 31
0.0
 11
219.6801578356008
 21
51.45441506761812
 31
0.0
 11
214.0124697785059
 21
54.74386965023962
 31
0.0
 11
202.4028493886358
 21
55.84035451111344
 31
0.0
 11
191.6159571347409
 21
53.28188983574114
 31
0.0
 11
186.679583627827
 21
49.71831403790123
 31
0.0
 11
185.0341250103449
 21
48.80457665383961
 31
0.0
  0
SPLINE
  5
7852
102
{ACAD_REACTORS
330
7970
102
}
330
2
100
AcDbEntity
  8
KIJUN
100
AcDbSpline
210
0.0
220
0.0
230
1.0
 70
     8
 71
     3
 72
    10
 73
     6
 74
     4
 42
0.0000000001
 43
0.0000000001
 44
0.0000000001
 40
0.0
 40
0.0
 40
0.0
 40
0.0
 40
4.020582529960471
 40
16.67138359159129
 40
23.25935179885064
 40
23.25935179885064
 40
23.25935179885064
 40
23.25935179885064
 10
170.9727917327718
 20
48.0109294561031
 30
0.0
 10
169.9630348204125
 20
47.11309177086394
 30
0.0
 10
165.776068206804
 20
43.39019929394831
 30
0.0
 10
157.6276041020332
 20
42.13841370544815
 30
0.0
 10
151.2873022127033
 20
41.60815723619158
 30
0.0
 10
149.1161806254781
 20
41.42658050888996
 30
0.0
 11
170.9727917327718
 21
48.0109294561031
 31
0.0
 11
167.847349401962
 21
45.48176079486177
 31
0.0
 11
155.676405710416
 21
42.0305440299835
 31
0.0
 11
149.1161806254781
 21
41.42658050888996
 31
0.0
  0
ARC
  5
7854
102
{ACAD_REACTORS
330
7970
102
}
330
2
100
AcDbEntity
  8
KIJUN
100
AcDbCircle
 10
158.4758965218973
 20
100.3277871852753
 30
0.0
 40
68.32311462137098
100
AcDbArc
 50
234.6773192488524
 51
306.9479839396528
  0
ARC
  5
7855
102
{ACAD_REACTORS
330
7970
102
}
330
2
100
AcDbEntity
  8
KIJUN
100
AcDbCircle
 10
131.5306053430731
 20
60.93099012504115
 30
0.0
 40
12.64607350635574
100
AcDbArc
 50
186.7732826472285
 51
237.2374837689375
  0
SPLINE
  5
7856
102
{ACAD_REACTORS
330
7970
102
}
330
2
100
AcDbEntity
  8
KIJUN
100
AcDbSpline
210
0.0
220
0.0
230
1.0
 70
     8
 71
     3
 72
    10
 73
     6
 74
     4
 42
0.0000000001
 43
0.0000000001
 44
0.0000000001
 40
0.0
 40
0.0
 40
0.0
 40
0.0
 40
7.137299145766927
 40
27.66041985250419
 40
29.26374792708915
 40
29.26374792708915
 40
29.26374792708915
 40
29.26374792708915
 10
124.6870791827718
 20
50.29664365610301
 30
0.0
 10
126.8067918139061
 20
49.22757841841191
 30
0.0
 10
135.0216837704249
 20
45.08444349856044
 30
0.0
 10
145.5506417140771
 20
43.94588685472545
 30
0.0
 10
152.6532747489156
 20
45.92643035387728
 30
0.0
 10
153.1679461749893
 20
46.0699446171244
 30
0.0
 11
124.6870791827718
 21
50.29664365610301
 31
0.0
 11
131.1618813188859
 21
47.29364908495597
 31
0.0
 11
151.6194248708229
 21
45.65432136790071
 31
0.0
 11
153.1679461749893
 21
46.0699446171244
 31
0.0
  0
ARC
  5
7859
102
{ACAD_REACTORS
330
7970
102
}
330
2
100
AcDbEntity
  8
KIJUN
100
AcDbCircle
 10
81.11039116234133
 20
-28.31336324372148
 30
0.0
 40
86.61571883128457
100
AcDbArc
 50
73.81163968343537
 51
90.65802827971376
  0
SPLINE
  5
785A
102
{ACAD_REACTORS
330
7970
102
}
330
2
100
AcDbEntity
  8
KIJUN
100
AcDbSpline
210
0.0
220
0.0
230
1.0
 70
     8
 71
     3
 72
    14
 73
    10
 74
     8
 42
0.0000000001
 43
0.0000000001
 44
0.0000000001
 40
0.0
 40
0.0
 40
0.0
 40
0.0
 40
2.701147560709134
 40
9.658368549054126
 40
23.75767745761578
 40
30.72257361936979
 40
35.29917900353007
 40
41.25119336599996
 40
46.48870802966314
 40
46.48870802966314
 40
46.48870802966314
 40
46.48870802966314
 10
75.33954367800493
 20
47.12749889617202
 30
0.0
 10
75.49380192539274
 20
48.0594121805073
 30
0.0
 10
76.04537601437425
 20
51.39161146010036
 30
0.0
 10
85.32088339456867
 20
53.58689913922231
 30
0.0
 10
94.14815506526906
 20
53.08603013893725
 30
0.0
 10
102.3469554354238
 20
49.91264833956636
 30
0.0
 10
106.7702056083487
 20
45.95439724056715
 30
0.0
 10
108.2649693205437
 20
40.22729893204393
 30
0.0
 10
106.2170730925036
 20
36.96601826834675
 30
0.0
 10
105.2585084827715
 20
35.43950135610294
 30
0.0
 11
75.33954367800493
 21
47.12749889617202
 31
0.0
 11
76.05411230349978
 21
49.73241536780472
 31
0.0
 11
82.35912944930168
 21
52.67344965387008
 31
0.0
 11
96.4403352682882
 21
51.95919872990407
 31
0.0
 11
102.8294186213454
 21
49.1862233510551
 31
0.0
 11
106.1080276778937
 21
45.99309956757212
 31
0.0
 11
107.4530975488621
 21
40.19506007018503
 31
0.0
 11
105.2585084827715
 21
35.43950135610294
 31
0.0
  0
SPLINE
  5
785B
102
{ACAD_REACTORS
330
7970
102
}
330
2
100
AcDbEntity
  8
KIJUN
100
AcDbSpline
210
0.0
220
0.0
230
1.0
 70
     8
 71
     3
 72
    10
 73
     6
 74
     4
 42
0.0000000001
 43
0.0000000001
 44
0.0000000001
 40
0.0
 40
0.0
 40
0.0
 40
0.0
 40
8.275490081022031
 40
17.45864728809215
 40
23.49854291289436
 40
23.49854291289436
 40
23.49854291289436
 40
23.49854291289436
 10
102.9727942827715
 20
43.43950105610304
 30
0.0
 10
100.8227663966164
 20
45.2067015258771
 30
0.0
 10
96.28689261072111
 20
48.93493144181771
 30
0.0
 10
88.17752927518858
 20
50.57889731328277
 30
0.0
 10
83.1993635528649
 20
49.52166200419322
 30
0.0
 10
81.22422744200207
 20
49.10219351858256
 30
0.0
 11
102.9727942827715
 21
43.43950105610304
 31
0.0
 11
96.18813430099203
 21
48.17786839229961
 31
0.0
 11
87.19297624048795
 21
50.02651864486563
 31
0.0
 11
81.22422744200207
 21
49.10219351858256
 31
0.0
  0
SPLINE
  5
7862
102
{ACAD_REACTORS
330
7970
102
}
330
2
100
AcDbEntity
  8
KIJUN
100
AcDbSpline
210
0.0
220
0.0
230
1.0
 70
     8
 71
     3
 72
     9
 73
     5
 74
     3
 42
0.0000000001
 43
0.0000000001
 44
0.0000000001
 40
0.0
 40
0.0
 40
0.0
 40
0.0
 40
7.056400857641423
 40
18.8619400076651
 40
18.8619400076651
 40
18.8619400076651
 40
18.8619400076651
 10
105.2585084827715
 20
54.86807205610296
 30
0.0
 10
107.1054207266186
 20
53.3318226596765
 30
0.0
 10
112.0422644016974
 20
49.22538872305733
 30
0.0
 10
113.4932222408482
 20
42.85515290123434
 30
0.0
 10
114.4013652827711
 20
38.86807265610298
 30
0.0
 11
105.2585084827715
 21
54.86807205610296
 31
0.0
 11
110.3113720508402
 21
49.94248957012155
 31
0.0
 11
114.4013652827711
 21
38.86807265610298
 31
0.0
  0
SPLINE
  5
7863
102
{ACAD_REACTORS
330
7970
102
}
330
2
100
AcDbEntity
  8
KIJUN
100
AcDbSpline
210
0.0
220
0.0
230
1.0
 70
     8
 71
     3
 72
     9
 73
     5
 74
     3
 42
0.0000000001
 43
0.0000000001
 44
0.0000000001
 40
0.0
 40
0.0
 40
0.0
 40
0.0
 40
6.10167342367228
 40
13.92823610815672
 40
13.92823610815672
 40
13.92823610815672
 40
13.92823610815672
 10
113.2585081827715
 20
57.15378625610288
 30
0.0
 10
113.709929558458
 20
55.15146138464498
 30
0.0
 10
114.7403851512527
 20
50.58077206084383
 30
0.0
 10
117.4501314419474
 20
46.74036305793719
 30
0.0
 10
118.9727936827714
 20
44.58235815610294
 30
0.0
 11
113.2585081827715
 21
57.15378625610288
 31
0.0
 11
114.9350509783573
 21
51.28696234331005
 31
0.0
 11
118.9727936827714
 21
44.58235815610294
 31
0.0
  0
ARC
  5
7864
102
{ACAD_REACTORS
330
7970
102
}
330
2
100
AcDbEntity
  8
KIJUN
100
AcDbCircle
 10
111.5698377471576
 20
47.89181302358883
 30
0.0
 40
2.2857142
100
AcDbArc
 50
293.7904582749498
 51
121.3011011060296
  0
SPLINE
  5
7865
102
{ACAD_REACTORS
330
7970
102
}
330
2
100
AcDbEntity
  8
KIJUN
100
AcDbSpline
210
0.0
220
0.0
230
1.0
 70
     8
 71
     3
 72
     9
 73
     5
 74
     3
 42
0.0000000001
 43
0.0000000001
 44
0.0000000001
 40
0.0
 40
0.0
 40
0.0
 40
0.0
 40
2.122111683149431
 40
5.02298857103711
 40
5.02298857103711
 40
5.02298857103711
 40
5.02298857103711
 10
108.7414236141128
 20
57.08725407431131
 30
0.0
 10
108.7840313275385
 20
56.37892661465889
 30
0.0
 10
108.8848827856754
 20
54.70233213443552
 30
0.0
 10
108.5910613789528
 20
53.04616769462787
 30
0.0
 10
108.421373609237
 20
52.08969943314674
 30
0.0
 11
108.7414236141128
 21
57.08725407431131
 31
0.0
 11
108.7988018861979
 21
54.96591823818073
 31
0.0
 11
108.421373609237
 21
52.08969943314674
 31
0.0
  0
SPLINE
  5
7866
102
{ACAD_REACTORS
330
7970
102
}
330
2
100
AcDbEntity
  8
KIJUN
100
AcDbSpline
210
0.0
220
0.0
230
1.0
 70
     8
 71
     3
 72
     9
 73
     5
 74
     3
 42
0.0000000001
 43
0.0000000001
 44
0.0000000001
 40
0.0
 40
0.0
 40
0.0
 40
0.0
 40
2.083373000300669
 40
4.159353276284801
 40
4.159353276284801
 40
4.159353276284801
 40
4.159353276284801
 10
116.7352452998541
 20
40.94691273562875
 30
0.0
 10
116.3623531976682
 20
41.58961131630486
 30
0.0
 10
115.6178921785879
 20
42.87272790023535
 30
0.0
 10
114.1367909016941
 20
42.94865218600881
 30
0.0
 10
113.397556498332
 20
42.98654685598854
 30
0.0
 11
116.7352452998541
 21
40.94691273562875
 31
0.0
 11
115.4317537046317
 21
42.57213663391678
 31
0.0
 11
113.397556498332
 21
42.98654685598854
 31
0.0
  0
SPLINE
  5
7867
102
{ACAD_REACTORS
330
7970
102
}
330
2
100
AcDbEntity
  8
KIJUN
100
AcDbSpline
210
0.0
220
0.0
230
1.0
 70
     8
 71
     3
 72
     9
 73
     5
 74
     3
 42
0.0000000001
 43
0.0000000001
 44
0.0000000001
 40
0.0
 40
0.0
 40
0.0
 40
0.0
 40
4.058865145336854
 40
7.315673861001895
 40
7.315673861001895
 40
7.315673861001895
 40
7.315673861001895
 10
113.2585081827699
 20
57.15378625610298
 30
0.0
 10
113.4748659480287
 20
55.78044608742192
 30
0.0
 10
113.8648278687265
 20
53.30514611697902
 30
0.0
 10
112.8176587228139
 20
51.04562466928289
 30
0.0
 10
112.3514775252945
 20
50.03972565247227
 30
0.0
 11
113.2585081827699
 21
57.15378625610298
 31
0.0
 11
113.4651999854104
 21
53.10018726671694
 31
0.0
 11
112.3514775252945
 21
50.03972565247227
 31
0.0
  0
SPLINE
  5
7868
102
{ACAD_REACTORS
330
7970
102
}
330
2
100
AcDbEntity
  8
KIJUN
100
AcDbSpline
210
0.0
220
0.0
230
1.0
 70
     8
 71
     3
 72
    15
 73
    11
 74
     9
 42
0.0000000001
 43
0.0000000001
 44
0.0000000001
 40
0.0
 40
0.0
 40
0.0
 40
0.0
 40
1.836988069106318
 40
3.075956616028603
 40
5.301441290803074
 40
6.360282247712362
 40
8.126629485448656
 40
8.847599278569527
 40
11.71770032820912
 40
13.07702643951381
 40
13.07702643951381
 40
13.07702643951381
 40
13.07702643951381
 10
112.3514775252945
 20
50.03972565247227
 30
0.0
 10
112.880931334528
 20
50.32960839523035
 30
0.0
 10
113.7674787077974
 20
50.8150044385988
 30
0.0
 10
115.9010742285806
 20
50.64653681388944
 30
0.0
 10
115.5034760413973
 20
48.63303786038247
 30
0.0
 10
114.7162238328753
 20
46.90578801471131
 30
0.0
 10
116.2956494300041
 20
46.48585632225507
 30
0.0
 10
117.8436909410244
 20
45.60172550777557
 30
0.0
 10
117.3005462845537
 20
42.98593690167581
 30
0.0
 10
115.8887530355269
 20
42.6712797583563
 30
0.0
 10
115.4350066168897
 20
42.5701498287591
 30
0.0
 11
112.3514775252945
 21
50.03972565247227
 31
0.0
 11
114.0651647516492
 21
50.70139116938207
 31
0.0
 11
115.286776397884
 21
50.49473191832806
 31
0.0
 11
115.298427810101
 21
48.26927774395165
 31
0.0
 11
115.0651072014811
 21
47.23646330484757
 31
0.0
 11
116.5650220489938
 21
46.30359781911567
 31
0.0
 11
117.1649868152324
 21
45.90379821698355
 31
0.0
 11
116.6983467707584
 21
43.07188594714967
 31
0.0
 11
115.4350066168897
 21
42.5701498287591
 31
0.0
  0
ARC
  5
7869
102
{ACAD_REACTORS
330
7970
102
}
330
2
100
AcDbEntity
  8
KIJUN
100
AcDbCircle
 10
76.23246980384283
 20
45.24528746646296
 30
0.0
 40
5.281524841085603
100
AcDbArc
 50
174.7863881158077
 51
17.89399537601618
  0
SPLINE
  5
786A
102
{ACAD_REACTORS
330
7970
102
}
330
2
100
AcDbEntity
  8
KIJUN
100
AcDbSpline
210
0.0
220
0.0
230
1.0
 70
     8
 71
     3
 72
    10
 73
     6
 74
     4
 42
0.0000000001
 43
0.0000000001
 44
0.0000000001
 40
0.0
 40
0.0
 40
0.0
 40
0.0
 40
1.915113091272182
 40
4.392520846023824
 40
6.939548097596329
 40
6.939548097596329
 40
6.939548097596329
 40
6.939548097596329
 10
81.25850938277176
 20
46.86807235610285
 30
0.0
 10
80.79021498049872
 20
47.28517072774022
 30
0.0
 10
79.71613067005524
 20
48.24183135556909
 30
0.0
 10
77.18338769180911
 20
49.19185954866937
 30
0.0
 10
75.95980972316818
 20
47.82194637010626
 30
0.0
 10
75.33954367800493
 20
47.12749889617202
 30
0.0
 11
81.25850938277176
 21
46.86807235610285
 31
0.0
 11
79.75305591461983
 21
48.05182402245498
 31
0.0
 11
77.35714907084093
 21
48.68204587167713
 31
0.0
 11
75.33954367800493
 21
47.12749889617202
 31
0.0
  0
DIMENSION
  5
786C
330
2
100
AcDbEntity
  8
SUNPOU
100
AcDbDimension
  2
*D17
 10
250.9727954827715
 20
85.97761169977458
 30
0.0
 11
70.97279548277126
 21
91.47761169977457
 31
0.0
 70
    32
 71
     5
 42
360.0000000000004
  3
STANDARD
100
AcDbAlignedDimension
 13
-109.0272045172289
 23
72.00467256390446
 33
0.0
 14
250.9727954827715
 24
67.40106916055947
 34
0.0
100
AcDbRotatedDimension
1001
ACAD
1000
DSTYLE
1002
{
1070
    41
1040
2.0
1070
    42
1040
10.0
1070
    44
1040
0.0
1070
    73
1070
     0
1070
    74
1070
     0
1070
    77
1070
     1
1070
   140
1040
5.0
1070
   141
1040
0.0
1070
   146
1040
0.064286
1070
   147
1040
3.0
1070
   176
1070
    60
1070
   177
1070
    70
1070
   178
1070
    60
1070
   271
1070
     0
1070
   272
1070
     0
1070
   340
1005
1C
1070
   342
1005
109
1002
}
  0
DIMENSION
  5
7879
330
2
100
AcDbEntity
  8
SUNPOU
100
AcDbDimension
  2
*D18
 10
-129.7177529685586
 20
32.00467256390441
 30
0.0
 11
-135.2177529685586
 21
52.00467256390441
 31
0.0
 70
    32
 71
     5
 42
40.00000000000005
  3
STANDARD
100
AcDbAlignedDimension
 13
-109.0272045172289
 23
72.00467256390446
 33
0.0
 14
-106.7782332937386
 24
32.00467256390441
 34
0.0
 50
90.0
100
AcDbRotatedDimension
1001
ACAD
1000
DSTYLE
1002
{
1070
    41
1040
2.0
1070
    42
1040
10.0
1070
    44
1040
0.0
1070
    73
1070
     0
1070
    74
1070
     0
1070
    77
1070
     1
1070
   140
1040
5.0
1070
   141
1040
0.0
1070
   146
1040
0.064286
1070
   147
1040
3.0
1070
   176
1070
    60
1070
   177
1070
    70
1070
   178
1070
    60
1070
   271
1070
     0
1070
   272
1070
     0
1070
   340
1005
1C
1070
   342
1005
109
1002
}
  0
ARC
  5
789C
102
{ACAD_REACTORS
330
7970
102
}
330
2
100
AcDbEntity
  8
KIJUN
100
AcDbCircle
 10
73.50770563100853
 20
68.81553647274724
 30
0.0
 40
4.073862843488644
100
AcDbArc
 50
128.479711827849
 51
149.8538625613665
  0
ARC
  5
789D
102
{ACAD_REACTORS
330
7970
102
}
330
2
100
AcDbEntity
  8
KIJUN
100
AcDbCircle
 10
71.06122192191283
 20
60.33349214197579
 30
0.0
 40
9.453324453221064
100
AcDbArc
 50
168.0461987794279
 51
192.4427362172651
  0
ARC
  5
789E
102
{ACAD_REACTORS
330
7970
102
}
330
2
100
AcDbEntity
  8
KIJUN
100
AcDbCircle
 10
62.6648898273368
 20
62.04078735767655
 30
0.0
 40
0.8881163854739281
100
AcDbArc
 50
92.73798363307786
 51
163.6031675322125
  0
ARC
  5
789F
102
{ACAD_REACTORS
330
7970
102
}
330
2
100
AcDbEntity
  8
KIJUN
100
AcDbCircle
 10
62.65603811451843
 20
60.84056078128464
 30
0.0
 40
2.087599082149428
100
AcDbArc
 50
40.84655636606906
 51
90.92146040360706
  0
ARC
  5
78A0
102
{ACAD_REACTORS
330
7970
102
}
330
2
100
AcDbEntity
  8
KIJUN
100
AcDbCircle
 10
66.16464364623073
 20
62.01040636763596
 30
0.0
 40
1.098516302247463
100
AcDbArc
 50
79.88230658640922
 51
150.6522096589026
  0
ARC
  5
78A1
102
{ACAD_REACTORS
330
7970
102
}
330
2
100
AcDbEntity
  8
KIJUN
100
AcDbCircle
 10
138.420116162403
 20
18.15669668509017
 30
0.0
 40
85.62010910096754
100
AcDbArc
 50
148.7698171159563
 51
148.9836133921442
  0
ARC
  5
78A3
102
{ACAD_REACTORS
330
7970
102
}
330
2
100
AcDbEntity
  8
KIJUN
100
AcDbCircle
 10
64.61346330726553
 20
62.53294242404125
 30
0.0
 40
0.5
100
AcDbArc
 50
220.8465563660694
 51
328.9836133921471
  0
ARC
  5
78A4
102
{ACAD_REACTORS
330
7970
102
}
330
2
100
AcDbEntity
  8
KIJUN
100
AcDbCircle
 10
71.26434442420928
 20
63.40372650865806
 30
0.0
 40
4.186914566131505
100
AcDbArc
 50
130.2082655953127
 51
176.9767374050403
  0
ARC
  5
78A6
102
{ACAD_REACTORS
330
7970
102
}
330
2
100
AcDbEntity
  8
KIJUN
100
AcDbCircle
 10
66.46463665474129
 20
63.70663830576411
 30
0.0
 40
0.6240431190062586
100
AcDbArc
 50
260.1256607437865
 51
352.4412772213677
  0
ARC
  5
78A7
102
{ACAD_REACTORS
330
7970
102
}
330
2
100
AcDbEntity
  8
KIJUN
100
AcDbCircle
 10
66.99713632567871
 20
69.19118263511233
 30
0.0
 40
3.025642169064653
100
AcDbArc
 50
301.1315323284109
 51
16.86738165666416
  0
ARC
  5
78A9
102
{ACAD_REACTORS
330
7970
102
}
330
2
100
AcDbEntity
  8
KIJUN
100
AcDbCircle
 10
70.84959104116837
 20
70.35925264091382
 30
0.0
 40
1.0
100
AcDbArc
 50
149.8538625613663
 51
196.8673816566644
  0
ARC
  5
78AB
102
{ACAD_REACTORS
330
7970
102
}
330
2
100
AcDbEntity
  8
KIJUN
100
AcDbCircle
 10
68.43788533453404
 20
68.81553647274724
 30
0.0
 40
4.073862843488644
100
AcDbArc
 50
30.14613743863329
 51
51.52028817215074
  0
ARC
  5
78AC
102
{ACAD_REACTORS
330
7970
102
}
330
2
100
AcDbEntity
  8
KIJUN
100
AcDbCircle
 10
71.09599992437421
 20
70.35925264091382
 30
0.0
 40
1.0
100
AcDbArc
 50
343.1326183433356
 51
30.14613743863347
  0
ARC
  5
78AD
102
{ACAD_REACTORS
330
7970
102
}
330
2
100
AcDbEntity
  8
KIJUN
100
AcDbCircle
 10
70.88436904362975
 20
60.33349214197579
 30
0.0
 40
9.453324453221064
100
AcDbArc
 50
347.5572637827349
 51
11.9538012205723
  0
ARC
  5
78AE
102
{ACAD_REACTORS
330
7970
102
}
330
2
100
AcDbEntity
  8
KIJUN
100
AcDbCircle
 10
79.28070113820578
 20
62.04078735767655
 30
0.0
 40
0.8881163854739281
100
AcDbArc
 50
16.39683246778765
 51
87.26201636692293
  0
ARC
  5
78AF
102
{ACAD_REACTORS
330
7970
102
}
330
2
100
AcDbEntity
  8
KIJUN
100
AcDbCircle
 10
79.28955285102414
 20
60.84056078128464
 30
0.0
 40
2.087599082149428
100
AcDbArc
 50
89.07853959639268
 51
139.1534436339311
  0
ARC
  5
78B0
102
{ACAD_REACTORS
330
7970
102
}
330
2
100
AcDbEntity
  8
KIJUN
100
AcDbCircle
 10
77.33212765827705
 20
62.53294242404125
 30
0.0
 40
0.5
100
AcDbArc
 50
211.0163866078529
 51
319.153443633931
  0
ARC
  5
78B1
102
{ACAD_REACTORS
330
7970
102
}
330
2
100
AcDbEntity
  8
KIJUN
100
AcDbCircle
 10
75.78094731931185
 20
62.01040636763596
 30
0.0
 40
1.098516302247463
100
AcDbArc
 50
29.34779034109763
 51
100.1176934135908
  0
ARC
  5
78B2
102
{ACAD_REACTORS
330
7970
102
}
330
2
100
AcDbEntity
  8
KIJUN
100
AcDbCircle
 10
75.48095431080128
 20
63.70663830576411
 30
0.0
 40
0.6240431190062586
100
AcDbArc
 50
187.5587227786323
 51
279.8743392562131
  0
ARC
  5
78B3
102
{ACAD_REACTORS
330
7970
102
}
330
2
100
AcDbEntity
  8
KIJUN
100
AcDbCircle
 10
3.52547480313953
 20
18.15669668509017
 30
0.0
 40
85.62010910096754
100
AcDbArc
 50
31.01638660785587
 51
31.2301828840435
  0
ARC
  5
78B4
102
{ACAD_REACTORS
330
7970
102
}
330
2
100
AcDbEntity
  8
KIJUN
100
AcDbCircle
 10
70.68124654133329
 20
63.40372650865806
 30
0.0
 40
4.186914566131505
100
AcDbArc
 50
3.023262594959725
 51
49.79173440468692
  0
ARC
  5
78B5
102
{ACAD_REACTORS
330
7970
102
}
330
2
100
AcDbEntity
  8
KIJUN
100
AcDbCircle
 10
74.94845463986386
 20
69.19118263511233
 30
0.0
 40
3.025642169064653
100
AcDbArc
 50
163.1326183433358
 51
238.868467671589
  0
ARC
  5
78B6
102
{ACAD_REACTORS
330
7970
102
}
330
2
100
AcDbEntity
  8
KIJUN
100
AcDbCircle
 10
-86.7274740866568
 20
46.20747681606232
 30
0.0
 40
23.19305895763319
100
AcDbArc
 50
147.2114027064389
 51
164.0460530357982
  0
ARC
  5
78B7
102
{ACAD_REACTORS
330
7970
102
}
330
2
100
AcDbEntity
  8
KIJUN
100
AcDbCircle
 10
-102.4482951092215
 20
36.82073456734418
 30
0.0
 40
24.2514743899673
100
AcDbArc
 50
78.46455172110764
 51
88.39623758397456
  0
ARC
  5
78B8
102
{ACAD_REACTORS
330
7970
102
}
330
2
100
AcDbEntity
  8
KIJUN
100
AcDbCircle
 10
-101.8567940062953
 20
55.75951254914805
 30
0.0
 40
5.303913988958253
100
AcDbArc
 50
89.05763307338016
 51
145.4503763727874
  0
ARC
  5
78B9
102
{ACAD_REACTORS
330
7970
102
}
330
2
100
AcDbEntity
  8
KIJUN
100
AcDbCircle
 10
-109.3967091308688
 20
16.95304113138304
 30
0.0
 40
35.63130315193488
100
AcDbArc
 50
72.52076256785388
 51
89.40581925219989
  0
ARC
  5
78BA
102
{ACAD_REACTORS
330
7970
102
}
330
2
100
AcDbEntity
  8
KIJUN
100
AcDbCircle
 10
-91.36128649704094
 20
71.49628968319032
 30
0.0
 40
21.82599065710304
100
AcDbArc
 50
250.3675740390146
 51
283.7594609717248
  0
ARC
  5
78BB
102
{ACAD_REACTORS
330
7970
102
}
330
2
100
AcDbEntity
  8
KIJUN
100
AcDbCircle
 10
-72.28879536641151
 20
55.79487347763013
 30
0.0
 40
14.93050305534336
100
AcDbArc
 50
201.6080281473732
 51
218.4823281630343
  0
ARC
  5
78BC
102
{ACAD_REACTORS
330
7970
102
}
330
2
100
AcDbEntity
  8
KIJUN
100
AcDbCircle
 10
-92.21469700461442
 20
60.65147919616158
 30
0.0
 40
18.15072657238159
100
AcDbArc
 50
306.6414629239782
 51
320.6944128551151
  0
ARC
  5
78BD
102
{ACAD_REACTORS
330
7970
102
}
330
2
100
AcDbEntity
  8
KIJUN
100
AcDbCircle
 10
-82.48262663498127
 20
47.52110385501819
 30
0.0
 40
1.807152754860546
100
AcDbArc
 50
214.2503145789121
 51
307.5104559594858
  0
ARC
  5
78BE
102
{ACAD_REACTORS
330
7970
102
}
330
2
100
AcDbEntity
  8
KIJUN
100
AcDbCircle
 10
-58.38736268765082
 20
14.89223486943439
 30
0.0
 40
30.84306699260855
100
AcDbArc
 50
88.5346437697367
 51
105.7153889280417
  0
ARC
  5
78BF
102
{ACAD_REACTORS
330
7970
102
}
330
2
100
AcDbEntity
  8
KIJUN
100
AcDbCircle
 10
-67.22166366180291
 20
43.80437658858252
 30
0.0
 40
6.064825376987051
100
AcDbArc
 50
149.6581509147452
 51
165.7239361816519
  0
ARC
  5
78C0
102
{ACAD_REACTORS
330
7970
102
}
330
2
100
AcDbEntity
  8
KIJUN
100
AcDbCircle
 10
-71.874662598258
 20
53.03001590636736
 30
0.0
 40
9.884959940772082
100
AcDbArc
 50
283.2283528430784
 51
301.2847512975055
  0
ARC
  5
78C1
102
{ACAD_REACTORS
330
7970
102
}
330
2
100
AcDbEntity
  8
KIJUN
100
AcDbCircle
 10
-70.48234246116248
 20
47.22622556176531
 30
0.0
 40
3.916655361585992
100
AcDbArc
 50
237.2788850319596
 51
282.8292849516785
  0
ARC
  5
78C2
102
{ACAD_REACTORS
330
7970
102
}
330
2
100
AcDbEntity
  8
KIJUN
100
AcDbCircle
 10
-71.99413126434507
 20
44.92771926828864
 30
0.0
 40
1.166068604623789
100
AcDbArc
 50
161.3855108989716
 51
238.724959618722
  0
ARC
  5
78C3
102
{ACAD_REACTORS
330
7970
102
}
330
2
100
AcDbEntity
  8
KIJUN
100
AcDbCircle
 10
228.6730650521994
 20
46.20747681606232
 30
0.0
 40
23.19305895763319
100
AcDbArc
 50
15.95394696420204
 51
32.78859729356089
  0
ARC
  5
78C4
102
{ACAD_REACTORS
330
7970
102
}
330
2
100
AcDbEntity
  8
KIJUN
100
AcDbCircle
 10
244.3938860747641
 20
36.82073456734418
 30
0.0
 40
24.25147438996729
100
AcDbArc
 50
91.60376241602548
 51
101.5354482788917
  0
ARC
  5
78C5
102
{ACAD_REACTORS
330
7970
102
}
330
2
100
AcDbEntity
  8
KIJUN
100
AcDbCircle
 10
243.8023849718379
 20
55.75951254914805
 30
0.0
 40
5.303913988958252
100
AcDbArc
 50
34.54962362721248
 51
90.94236692661949
  0
ARC
  5
78C6
102
{ACAD_REACTORS
330
7970
102
}
330
2
100
AcDbEntity
  8
KIJUN
100
AcDbCircle
 10
251.3423000964114
 20
16.95304113138304
 30
0.0
 40
35.63130315193487
100
AcDbArc
 50
90.59418074779948
 51
107.4792374321457
  0
ARC
  5
78C7
102
{ACAD_REACTORS
330
7970
102
}
330
2
100
AcDbEntity
  8
KIJUN
100
AcDbCircle
 10
233.3068774625835
 20
71.49628968319032
 30
0.0
 40
21.82599065710304
100
AcDbArc
 50
256.2405390282754
 51
289.6324259609859
  0
ARC
  5
78C8
102
{ACAD_REACTORS
330
7970
102
}
330
2
100
AcDbEntity
  8
KIJUN
100
AcDbCircle
 10
214.2343863319541
 20
55.79487347763013
 30
0.0
 40
14.93050305534335
100
AcDbArc
 50
321.5176718369659
 51
338.3919718526268
  0
ARC
  5
78C9
102
{ACAD_REACTORS
330
7970
102
}
330
2
100
AcDbEntity
  8
KIJUN
100
AcDbCircle
 10
224.4282176005238
 20
47.52110385501819
 30
0.0
 40
1.807152754860545
100
AcDbArc
 50
232.4895440405146
 51
325.7496854210883
  0
ARC
  5
78CA
102
{ACAD_REACTORS
330
7970
102
}
330
2
100
AcDbEntity
  8
KIJUN
100
AcDbCircle
 10
234.160287970157
 20
60.65147919616158
 30
0.0
 40
18.15072657238159
100
AcDbArc
 50
219.3055871448853
 51
233.3585370760222
  0
ARC
  5
78CB
102
{ACAD_REACTORS
330
7970
102
}
330
2
100
AcDbEntity
  8
KIJUN
100
AcDbCircle
 10
200.3329536531934
 20
14.89223486943439
 30
0.0
 40
30.84306699260854
100
AcDbArc
 50
74.2846110719576
 51
91.46535623026341
  0
ARC
  5
78CC
102
{ACAD_REACTORS
330
7970
102
}
330
2
100
AcDbEntity
  8
KIJUN
100
AcDbCircle
 10
209.1672546273455
 20
43.80437658858252
 30
0.0
 40
6.064825376987049
100
AcDbArc
 50
14.27606381834826
 51
30.34184908525504
  0
ARC
  5
78CD
102
{ACAD_REACTORS
330
7970
102
}
330
2
100
AcDbEntity
  8
KIJUN
100
AcDbCircle
 10
213.8202535638006
 20
53.03001590636736
 30
0.0
 40
9.88495994077208
100
AcDbArc
 50
238.7152487024947
 51
256.7716471569221
  0
ARC
  5
78CE
102
{ACAD_REACTORS
330
7970
102
}
330
2
100
AcDbEntity
  8
KIJUN
100
AcDbCircle
 10
212.427933426705
 20
47.22622556176531
 30
0.0
 40
3.916655361585991
100
AcDbArc
 50
257.170715048321
 51
302.7211149680399
  0
ARC
  5
78CF
102
{ACAD_REACTORS
330
7970
102
}
330
2
100
AcDbEntity
  8
KIJUN
100
AcDbCircle
 10
213.9397222298876
 20
44.92771926828864
 30
0.0
 40
1.166068604623788
100
AcDbArc
 50
301.2750403812776
 51
18.61448910102841
  0
ARC
  5
78D0
102
{ACAD_REACTORS
330
7970
102
}
330
2
100
AcDbEntity
  8
KIJUN
100
AcDbCircle
 10
76.68789412434856
 20
0.7947774517436278
 30
0.0
 40
52.09100187571523
100
AcDbArc
 50
123.7008341522925
 51
131.1630727625978
  0
ARC
  5
78D2
102
{ACAD_REACTORS
330
7970
102
}
330
2
100
AcDbEntity
  8
KIJUN
100
AcDbCircle
 10
57.70409755473884
 20
29.14749338560561
 30
0.0
 40
17.96989462298347
100
AcDbArc
 50
80.44472832936994
 51
123.5037739927629
  0
ARC
  5
78D3
102
{ACAD_REACTORS
330
7970
102
}
330
2
100
AcDbEntity
  8
KIJUN
100
AcDbCircle
 10
43.75396787716662
 20
43.68345946338426
 30
0.0
 40
4.787391115690916
100
AcDbArc
 50
182.9209737362818
 51
226.769848095254
  0
ARC
  5
78D4
102
{ACAD_REACTORS
330
7970
102
}
330
2
100
AcDbEntity
  8
KIJUN
100
AcDbCircle
 10
41.55948757468294
 20
41.37073963450467
 30
0.0
 40
1.599326585448356
100
AcDbArc
 50
227.3023532002433
 51
301.7623233018056
  0
ARC
  5
78D5
102
{ACAD_REACTORS
330
7970
102
}
330
2
100
AcDbEntity
  8
KIJUN
100
AcDbCircle
 10
64.62161956577152
 20
31.7847354966744
 30
0.0
 40
28.17260505400143
100
AcDbArc
 50
155.5630627623166
 51
172.5461454358375
  0
ARC
  5
78D6
102
{ACAD_REACTORS
330
7970
102
}
330
2
100
AcDbEntity
  8
KIJUN
100
AcDbCircle
 10
35.79683742919299
 20
41.87300956460111
 30
0.0
 40
8.782667388739781
100
AcDbArc
 50
200.0075517857286
 51
209.4545222153853
  0
ARC
  5
78D7
102
{ACAD_REACTORS
330
7970
102
}
330
2
100
AcDbEntity
  8
KIJUN
100
AcDbCircle
 10
35.39650773943598
 20
116.4890664727572
 30
0.0
 40
81.05983955552163
100
AcDbArc
 50
267.2001453774862
 51
270.9122595195033
  0
ARC
  5
78DB
102
{ACAD_REACTORS
330
7970
102
}
330
2
100
AcDbEntity
  8
KIJUN
100
AcDbCircle
 10
31.63234760839174
 20
39.52121623104524
 30
0.0
 40
4.0
100
AcDbArc
 50
209.4545222153853
 51
267.200145377486
  0
ARC
  5
78DC
102
{ACAD_REACTORS
330
7970
102
}
330
2
100
AcDbEntity
  8
KIJUN
100
AcDbCircle
 10
28.90364523169616
 20
45.86313822727636
 30
0.0
 40
6.067565820325138
100
AcDbArc
 50
192.1860202932677
 51
214.9614911175693
  0
ARC
  5
78DD
102
{ACAD_REACTORS
330
7970
102
}
330
2
100
AcDbEntity
  8
KIJUN
100
AcDbCircle
 10
24.345671929074
 20
45.65403479935834
 30
0.0
 40
7.502001621233466
100
AcDbArc
 50
285.5126780555158
 51
295.2367802738321
  0
ARC
  5
78DE
102
{ACAD_REACTORS
330
7970
102
}
330
2
100
AcDbEntity
  8
KIJUN
100
AcDbCircle
 10
22.89505836251732
 20
39.79984017873138
 30
0.0
 40
2.552202624675846
100
AcDbArc
 50
8.948762295116486
 51
50.16365326418869
  0
ARC
  5
78DF
102
{ACAD_REACTORS
330
7970
102
}
330
2
100
AcDbEntity
  8
KIJUN
100
AcDbCircle
 10
29.12553227306765
 20
46.75154044042548
 30
0.0
 40
6.785151254350009
100
AcDbArc
 50
220.0425906151704
 51
227.3674707498284
  0
ARC
  5
78E0
102
{ACAD_REACTORS
330
7970
102
}
330
2
100
AcDbEntity
  8
KIJUN
100
AcDbCircle
 10
36.35201882955065
 20
41.50923065780533
 30
0.0
 40
11.01429131018564
100
AcDbArc
 50
186.8432568309321
 51
194.5502441991896
  0
ARC
  5
78E2
102
{ACAD_REACTORS
330
7970
102
}
330
2
100
AcDbEntity
  8
KIJUN
100
AcDbCircle
 10
26.20487388178132
 20
38.96631524857711
 30
0.0
 40
0.5606676465846197
100
AcDbArc
 50
203.5699105685851
 51
285.2232310138085
  0
ARC
  5
78E3
102
{ACAD_REACTORS
330
7970
102
}
330
2
100
AcDbEntity
  8
KIJUN
100
AcDbCircle
 10
65.25769684119402
 20
0.7947774517436278
 30
0.0
 40
52.09100187571523
100
AcDbArc
 50
48.83692723740214
 51
56.29916584770816
  0
ARC
  5
78E4
102
{ACAD_REACTORS
330
7970
102
}
330
2
100
AcDbEntity
  8
KIJUN
100
AcDbCircle
 10
84.24149341080374
 20
29.14749338560561
 30
0.0
 40
17.96989462298347
100
AcDbArc
 50
56.49622600723645
 51
99.55527167062932
  0
ARC
  5
78E5
102
{ACAD_REACTORS
330
7970
102
}
330
2
100
AcDbEntity
  8
KIJUN
100
AcDbCircle
 10
98.19162308837597
 20
43.68345946338426
 30
0.0
 40
4.787391115690916
100
AcDbArc
 50
313.2301519047465
 51
357.0790262637182
  0
ARC
  5
78E6
102
{ACAD_REACTORS
330
7970
102
}
330
2
100
AcDbEntity
  8
KIJUN
100
AcDbCircle
 10
100.3861033908596
 20
41.37073963450467
 30
0.0
 40
1.599326585448356
100
AcDbArc
 50
238.2376766981944
 51
312.6976467997569
  0
ARC
  5
78E7
102
{ACAD_REACTORS
330
7970
102
}
330
2
100
AcDbEntity
  8
KIJUN
100
AcDbCircle
 10
77.32397139977106
 20
31.7847354966744
 30
0.0
 40
28.17260505400143
100
AcDbArc
 50
7.453854564162464
 51
24.43693723768368
  0
ARC
  5
78E8
102
{ACAD_REACTORS
330
7970
102
}
330
2
100
AcDbEntity
  8
KIJUN
100
AcDbCircle
 10
106.1487535363496
 20
41.87300956460111
 30
0.0
 40
8.782667388739781
100
AcDbArc
 50
330.5454777846146
 51
339.9924482142712
  0
ARC
  5
78E9
102
{ACAD_REACTORS
330
7970
102
}
330
2
100
AcDbEntity
  8
KIJUN
100
AcDbCircle
 10
110.3132433571508
 20
39.52121623104524
 30
0.0
 40
4.0
100
AcDbArc
 50
272.799854622514
 51
330.5454777846147
  0
ARC
  5
78EA
102
{ACAD_REACTORS
330
7970
102
}
330
2
100
AcDbEntity
  8
KIJUN
100
AcDbCircle
 10
106.5490832261066
 20
116.4890664727572
 30
0.0
 40
81.05983955552163
100
AcDbArc
 50
269.0877404804964
 51
272.799854622514
  0
ARC
  5
78EB
102
{ACAD_REACTORS
330
7970
102
}
330
2
100
AcDbEntity
  8
KIJUN
100
AcDbCircle
 10
113.0419457338464
 20
45.86313822727636
 30
0.0
 40
6.067565820325138
100
AcDbArc
 50
325.0385088824311
 51
347.8139797067322
  0
ARC
  5
78EC
102
{ACAD_REACTORS
330
7970
102
}
330
2
100
AcDbEntity
  8
KIJUN
100
AcDbCircle
 10
117.5999190364686
 20
45.65403479935834
 30
0.0
 40
7.502001621233466
100
AcDbArc
 50
244.7632197261683
 51
254.4873219444848
  0
ARC
  5
78ED
102
{ACAD_REACTORS
330
7970
102
}
330
2
100
AcDbEntity
  8
KIJUN
100
AcDbCircle
 10
119.0505326030252
 20
39.79984017873138
 30
0.0
 40
2.552202624675846
100
AcDbArc
 50
129.8363467358113
 51
171.0512377048836
  0
ARC
  5
78EE
102
{ACAD_REACTORS
330
7970
102
}
330
2
100
AcDbEntity
  8
KIJUN
100
AcDbCircle
 10
112.8200586924749
 20
46.75154044042548
 30
0.0
 40
6.785151254350009
100
AcDbArc
 50
312.6325292501717
 51
319.9574093848292
  0
ARC
  5
78EF
102
{ACAD_REACTORS
330
7970
102
}
330
2
100
AcDbEntity
  8
KIJUN
100
AcDbCircle
 10
105.5935721359919
 20
41.50923065780533
 30
0.0
 40
11.01429131018564
100
AcDbArc
 50
345.4497558008104
 51
353.1567431690678
  0
ARC
  5
78F0
102
{ACAD_REACTORS
330
7970
102
}
330
2
100
AcDbEntity
  8
KIJUN
100
AcDbCircle
 10
115.7407170837613
 20
38.96631524857711
 30
0.0
 40
0.5606676465846197
100
AcDbArc
 50
254.7767689861921
 51
336.4300894314147
  0
ARC
  5
78F1
102
{ACAD_REACTORS
330
7970
102
}
330
2
100
AcDbEntity
  8
KIJUN
100
AcDbCircle
 10
-83.20724165092103
 20
41.92319732985179
 30
0.0
 40
23.5642998180468
100
AcDbArc
 50
124.6017060345355
 51
127.6421835131541
  0
ARC
  5
78F2
102
{ACAD_REACTORS
330
7970
102
}
330
2
100
AcDbEntity
  8
KIJUN
100
AcDbCircle
 10
-92.06993399748617
 20
63.29426479876937
 30
0.0
 40
3.799242726353927
100
AcDbArc
 50
234.7125724066787
 51
261.8147462322421
  0
ARC
  5
78F3
102
{ACAD_REACTORS
330
7970
102
}
330
2
100
AcDbEntity
  8
KIJUN
100
AcDbCircle
 10
-541.5884759934704
 20
-403.0769216944717
 30
0.0
 40
643.985773070234
100
AcDbArc
 50
46.00325361432885
 51
46.13459538089879
  0
ARC
  5
78F4
102
{ACAD_REACTORS
330
7970
102
}
330
2
100
AcDbEntity
  8
KIJUN
100
AcDbCircle
 10
-91.16114462045141
 20
73.22018346022845
 30
0.0
 40
13.76302208105576
100
AcDbArc
 50
263.9536346674738
 51
306.4266130904412
  0
ARC
  5
78F5
102
{ACAD_REACTORS
330
7970
102
}
330
2
100
AcDbEntity
  8
KIJUN
100
AcDbCircle
 10
-85.31828393194297
 20
56.73519252998167
 30
0.0
 40
7.316781415914828
100
AcDbArc
 50
12.32207387397042
 51
46.307678834375
  0
ARC
  5
78F6
102
{ACAD_REACTORS
330
7970
102
}
330
2
100
AcDbEntity
  8
KIJUN
100
AcDbCircle
 10
-81.71921626979665
 20
59.98700092073034
 30
0.0
 40
2.504779385397116
100
AcDbArc
 50
54.47959463352589
 51
120.4542125363247
  0
ARC
  5
78F7
102
{ACAD_REACTORS
330
7970
102
}
330
2
100
AcDbEntity
  8
KIJUN
100
AcDbCircle
 10
-96.02079120134327
 20
60.49631161361102
 30
0.0
 40
1.0
100
AcDbArc
 50
46.13459538089634
 51
124.6017060345357
  0
ARC
  5
78F9
102
{ACAD_REACTORS
330
7970
102
}
330
2
100
AcDbEntity
  8
KIJUN
100
AcDbCircle
 10
-50.21339314949319
 20
-66.62952893256695
 30
0.0
 40
128.0161065030267
100
AcDbArc
 50
100.0057326671476
 51
102.6141322808938
  0
ARC
  5
78FB
102
{ACAD_REACTORS
330
7970
102
}
330
2
100
AcDbEntity
  8
KIJUN
100
AcDbCircle
 10
-66.7438319116697
 20
57.55455425648217
 30
0.0
 40
6.014920230587565
100
AcDbArc
 50
138.2203981641086
 51
161.7370517731806
  0
ARC
  5
78FC
102
{ACAD_REACTORS
330
7970
102
}
330
2
100
AcDbEntity
  8
KIJUN
100
AcDbCircle
 10
-69.71695747810517
 20
7.478108095019504
 30
0.0
 40
54.82349014186605
100
AcDbArc
 50
66.8453724898205
 51
89.8022056498049
  0
ARC
  5
78FD
102
{ACAD_REACTORS
330
7970
102
}
330
2
100
AcDbEntity
  8
KIJUN
100
AcDbCircle
 10
-61.90568059752718
 20
29.66896202543797
 30
0.0
 40
31.38665795080538
100
AcDbArc
 50
46.88942712251354
 51
64.02624304169214
  0
ARC
  5
78FE
102
{ACAD_REACTORS
330
7970
102
}
330
2
100
AcDbEntity
  8
KIJUN
100
AcDbCircle
 10
-69.45117954603985
 20
59.79711652488042
 30
0.0
 40
2.505323841440868
100
AcDbArc
 50
91.7502250868886
 51
135.2114770895286
  0
ARC
  5
78FF
102
{ACAD_REACTORS
330
7970
102
}
330
2
100
AcDbEntity
  8
KIJUN
100
AcDbCircle
 10
-49.61735807643896
 20
61.38236077336091
 30
0.0
 40
12.70333480015636
100
AcDbArc
 50
316.1532612255446
 51
334.4672171459038
  0
ARC
  5
7900
102
{ACAD_REACTORS
330
7970
102
}
330
2
100
AcDbEntity
  8
KIJUN
100
AcDbCircle
 10
-25.71609822786313
 20
54.69833500455649
 30
0.0
 40
7.462224399981481
100
AcDbArc
 50
191.4392668776897
 51
243.6588318422053
  0
ARC
  5
7901
102
{ACAD_REACTORS
330
7970
102
}
330
2
100
AcDbEntity
  8
KIJUN
100
AcDbCircle
 10
-46.01856793449164
 20
53.22387533384706
 30
0.0
 40
12.98847996410174
100
AcDbArc
 50
359.9756645375592
 51
16.93270499132946
  0
ARC
  5
7902
102
{ACAD_REACTORS
330
7970
102
}
330
2
100
AcDbEntity
  8
KIJUN
100
AcDbCircle
 10
-33.42826045576535
 20
53.54566111639065
 30
0.0
 40
5.283374891296559
100
AcDbArc
 50
121.398531955159
 51
153.4541467557889
  0
ARC
  5
7903
102
{ACAD_REACTORS
330
7970
102
}
330
2
100
AcDbEntity
  8
KIJUN
100
AcDbCircle
 10
-35.23769310741017
 20
56.66565468253389
 30
0.0
 40
1.679522910710401
100
AcDbArc
 50
11.71768140875778
 51
124.1632612182141
  0
ARC
  5
7904
102
{ACAD_REACTORS
330
7970
102
}
330
2
100
AcDbEntity
  8
KIJUN
100
AcDbCircle
 10
-11.22399277932385
 20
70.51788674656139
 30
0.0
 40
24.44794218428088
100
AcDbArc
 50
231.8282360360447
 51
270.0038377807835
  0
ARC
  5
7905
102
{ACAD_REACTORS
330
7970
102
}
330
2
100
AcDbEntity
  8
KIJUN
100
AcDbCircle
 10
-21.13777853826016
 20
46.58030459803842
 30
0.0
 40
8.01808397258704
100
AcDbArc
 50
145.9317725929773
 51
169.721978952897
  0
ARC
  5
7906
102
{ACAD_REACTORS
330
7970
102
}
330
2
100
AcDbEntity
  8
KIJUN
100
AcDbCircle
 10
-26.95135649252459
 20
50.5116929044734
 30
0.0
 40
1.0
100
AcDbArc
 50
51.82823603604489
 51
145.9317725929773
  0
ARC
  5
7907
102
{ACAD_REACTORS
330
7970
102
}
330
2
100
AcDbEntity
  8
KIJUN
100
AcDbCircle
 10
-1.391434983013517
 20
87.11437902173059
 30
0.0
 40
37.76753078419517
100
AcDbArc
 50
253.2597577222142
 51
293.5375079968657
  0
ARC
  5
7908
102
{ACAD_REACTORS
330
7970
102
}
330
2
100
AcDbEntity
  8
KIJUN
100
AcDbCircle
 10
2.639483532262552
 20
57.41524863876366
 30
0.0
 40
17.91274676437323
100
AcDbArc
 50
206.0452346525904
 51
219.2988130783273
  0
ARC
  5
7909
102
{ACAD_REACTORS
330
7970
102
}
330
2
100
AcDbEntity
  8
KIJUN
100
AcDbCircle
 10
-12.55573447606393
 20
49.98918960349822
 30
0.0
 40
1.0
100
AcDbArc
 50
73.3815288928033
 51
206.04523465259
  0
ARC
  5
790A
102
{ACAD_REACTORS
330
7970
102
}
330
2
100
AcDbEntity
  8
KIJUN
100
AcDbCircle
 10
15.0316685416419
 20
50.67193091805989
 30
0.0
 40
2.258245192522317
100
AcDbArc
 50
350.433899370517
 51
126.4182917857437
  0
ARC
  5
790B
102
{ACAD_REACTORS
330
7970
102
}
330
2
100
AcDbEntity
  8
KIJUN
100
AcDbCircle
 10
24.36457786364486
 20
54.63323793328704
 30
0.0
 40
5.003719878602783
100
AcDbArc
 50
30.24740803296445
 51
106.1497729943251
  0
ARC
  5
790C
102
{ACAD_REACTORS
330
7970
102
}
330
2
100
AcDbEntity
  8
KIJUN
100
AcDbCircle
 10
29.32931534759762
 20
52.84261860492082
 30
0.0
 40
4.358741697316173
100
AcDbArc
 50
58.54317425558297
 51
98.4730138198501
  0
ARC
  5
790D
102
{ACAD_REACTORS
330
7970
102
}
330
2
100
AcDbEntity
  8
KIJUN
100
AcDbCircle
 10
17.42092880608678
 20
44.51432724574316
 30
0.0
 40
21.87200743168504
100
AcDbArc
 50
28.25384677689188
 51
34.74322837885164
  0
ARC
  5
790E
102
{ACAD_REACTORS
330
7970
102
}
330
2
100
AcDbEntity
  8
KIJUN
100
AcDbCircle
 10
34.28588344395938
 20
55.97837481503002
 30
0.0
 40
1.492766685073129
100
AcDbArc
 50
42.10058462689057
 51
107.6601507630559
  0
ARC
  5
790F
102
{ACAD_REACTORS
330
7970
102
}
330
2
100
AcDbEntity
  8
KIJUN
100
AcDbCircle
 10
34.70599835124183
 20
54.84459631962552
 30
0.0
 40
2.701151769247696
100
AcDbArc
 50
108.8557489400323
 51
138.8328226965655
  0
ARC
  5
7911
102
{ACAD_REACTORS
330
7970
102
}
330
2
100
AcDbEntity
  8
KIJUN
100
AcDbCircle
 10
32.10161194199989
 20
57.22480779701576
 30
0.0
 40
0.8298256121761387
100
AcDbArc
 50
233.1502911030327
 51
313.4777659352217
  0
ARC
  5
7912
102
{ACAD_REACTORS
330
7970
102
}
330
2
100
AcDbEntity
  8
KIJUN
100
AcDbCircle
 10
225.1528326164636
 20
41.92319732985179
 30
0.0
 40
23.5642998180468
100
AcDbArc
 50
52.35781648684528
 51
55.398293965465
  0
ARC
  5
7913
102
{ACAD_REACTORS
330
7970
102
}
330
2
100
AcDbEntity
  8
KIJUN
100
AcDbCircle
 10
237.9663821668859
 20
60.49631161361102
 30
0.0
 40
1.0
100
AcDbArc
 50
55.3982939654636
 51
133.865404619104
  0
ARC
  5
7914
102
{ACAD_REACTORS
330
7970
102
}
330
2
100
AcDbEntity
  8
KIJUN
100
AcDbCircle
 10
234.0155249630287
 20
63.29426479876937
 30
0.0
 40
3.799242726353927
100
AcDbArc
 50
278.1852537677575
 51
305.287427593321
  0
ARC
  5
7915
102
{ACAD_REACTORS
330
7970
102
}
330
2
100
AcDbEntity
  8
KIJUN
100
AcDbCircle
 10
683.534066959013
 20
-403.0769216944717
 30
0.0
 40
643.985773070234
100
AcDbArc
 50
133.8654046191016
 51
133.9967463856708
  0
ARC
  5
7916
102
{ACAD_REACTORS
330
7970
102
}
330
2
100
AcDbEntity
  8
KIJUN
100
AcDbCircle
 10
233.106735585994
 20
73.22018346022845
 30
0.0
 40
13.76302208105576
100
AcDbArc
 50
233.5733869095583
 51
276.0463653325262
  0
ARC
  5
7917
102
{ACAD_REACTORS
330
7970
102
}
330
2
100
AcDbEntity
  8
KIJUN
100
AcDbCircle
 10
227.2638748974856
 20
56.73519252998167
 30
0.0
 40
7.316781415914828
100
AcDbArc
 50
133.6923211656253
 51
167.6779261260297
  0
ARC
  5
7918
102
{ACAD_REACTORS
330
7970
102
}
330
2
100
AcDbEntity
  8
KIJUN
100
AcDbCircle
 10
223.6648072353393
 20
59.98700092073034
 30
0.0
 40
2.504779385397116
100
AcDbArc
 50
59.54578746367477
 51
125.5204053664734
  0
ARC
  5
7919
102
{ACAD_REACTORS
330
7970
102
}
330
2
100
AcDbEntity
  8
KIJUN
100
AcDbCircle
 10
192.1589841150357
 20
-66.62952893256695
 30
0.0
 40
128.0161065030267
100
AcDbArc
 50
77.38586771910691
 51
79.99426733285197
  0
ARC
  5
791A
102
{ACAD_REACTORS
330
7970
102
}
330
2
100
AcDbEntity
  8
KIJUN
100
AcDbCircle
 10
208.6894228772123
 20
57.55455425648217
 30
0.0
 40
6.014920230587565
100
AcDbArc
 50
18.2629482268193
 51
41.7796018358909
  0
ARC
  5
791B
102
{ACAD_REACTORS
330
7970
102
}
330
2
100
AcDbEntity
  8
KIJUN
100
AcDbCircle
 10
211.6625484436478
 20
7.478108095019504
 30
0.0
 40
54.82349014186605
100
AcDbArc
 50
90.19779435019543
 51
113.1546275101791
  0
ARC
  5
791C
102
{ACAD_REACTORS
330
7970
102
}
330
2
100
AcDbEntity
  8
KIJUN
100
AcDbCircle
 10
203.8512715630698
 20
29.66896202543797
 30
0.0
 40
31.38665795080538
100
AcDbArc
 50
115.9737569583077
 51
133.1105728774862
  0
ARC
  5
791D
102
{ACAD_REACTORS
330
7970
102
}
330
2
100
AcDbEntity
  8
KIJUN
100
AcDbCircle
 10
211.3967705115824
 20
59.79711652488042
 30
0.0
 40
2.505323841440868
100
AcDbArc
 50
44.788522910471
 51
88.24977491311091
  0
ARC
  5
791E
102
{ACAD_REACTORS
330
7970
102
}
330
2
100
AcDbEntity
  8
KIJUN
100
AcDbCircle
 10
191.5629490419815
 20
61.38236077336091
 30
0.0
 40
12.70333480015636
100
AcDbArc
 50
205.5327828540963
 51
223.8467387744552
  0
ARC
  5
791F
102
{ACAD_REACTORS
330
7970
102
}
330
2
100
AcDbEntity
  8
KIJUN
100
AcDbCircle
 10
167.6616891934057
 20
54.69833500455649
 30
0.0
 40
7.462224399981481
100
AcDbArc
 50
296.3411681577952
 51
348.5607331223102
  0
ARC
  5
7920
102
{ACAD_REACTORS
330
7970
102
}
330
2
100
AcDbEntity
  8
KIJUN
100
AcDbCircle
 10
187.9641589000342
 20
53.22387533384706
 30
0.0
 40
12.98847996410174
100
AcDbArc
 50
163.0672950086707
 51
180.0243354624408
  0
ARC
  5
7921
102
{ACAD_REACTORS
330
7970
102
}
330
2
100
AcDbEntity
  8
KIJUN
100
AcDbCircle
 10
175.3738514213079
 20
53.54566111639065
 30
0.0
 40
5.283374891296559
100
AcDbArc
 50
26.54585324421077
 51
58.6014680448412
  0
ARC
  5
7922
102
{ACAD_REACTORS
330
7970
102
}
330
2
100
AcDbEntity
  8
KIJUN
100
AcDbCircle
 10
177.1832840729527
 20
56.66565468253389
 30
0.0
 40
1.679522910710401
100
AcDbArc
 50
55.83673878178566
 51
168.2823185912423
  0
ARC
  5
7923
102
{ACAD_REACTORS
330
7970
102
}
330
2
100
AcDbEntity
  8
KIJUN
100
AcDbCircle
 10
153.1695837448664
 20
70.51788674656139
 30
0.0
 40
24.44794218428088
100
AcDbArc
 50
269.9961622192156
 51
308.1717639639549
  0
ARC
  5
7924
102
{ACAD_REACTORS
330
7970
102
}
330
2
100
AcDbEntity
  8
KIJUN
100
AcDbCircle
 10
163.0833695038027
 20
46.58030459803842
 30
0.0
 40
8.01808397258704
100
AcDbArc
 50
10.27802104710308
 51
34.06822740702278
  0
ARC
  5
7925
102
{ACAD_REACTORS
330
7970
102
}
330
2
100
AcDbEntity
  8
KIJUN
100
AcDbCircle
 10
168.8969474580671
 20
50.5116929044734
 30
0.0
 40
1.0
100
AcDbArc
 50
34.06822740702281
 51
128.1717639639547
  0
ARC
  5
7926
102
{ACAD_REACTORS
330
7970
102
}
330
2
100
AcDbEntity
  8
KIJUN
100
AcDbCircle
 10
143.3370259485561
 20
87.11437902173059
 30
0.0
 40
37.76753078419517
100
AcDbArc
 50
246.4624920031342
 51
286.7402422777853
  0
ARC
  5
7927
102
{ACAD_REACTORS
330
7970
102
}
330
2
100
AcDbEntity
  8
KIJUN
100
AcDbCircle
 10
139.30610743328
 20
57.41524863876366
 30
0.0
 40
17.91274676437323
100
AcDbArc
 50
320.7011869216729
 51
333.9547653474096
  0
ARC
  5
7928
102
{ACAD_REACTORS
330
7970
102
}
330
2
100
AcDbEntity
  8
KIJUN
100
AcDbCircle
 10
154.5013254416065
 20
49.98918960349822
 30
0.0
 40
1.0
100
AcDbArc
 50
333.9547653474099
 51
106.6184711071962
  0
ARC
  5
7929
102
{ACAD_REACTORS
330
7970
102
}
330
2
100
AcDbEntity
  8
KIJUN
100
AcDbCircle
 10
126.9139224239006
 20
50.67193091805989
 30
0.0
 40
2.258245192522317
100
AcDbArc
 50
53.58170821425586
 51
189.5661006294829
  0
ARC
  5
792A
102
{ACAD_REACTORS
330
7970
102
}
330
2
100
AcDbEntity
  8
KIJUN
100
AcDbCircle
 10
117.5810131018977
 20
54.63323793328704
 30
0.0
 40
5.003719878602783
100
AcDbArc
 50
73.8502270056751
 51
149.7525919670357
  0
ARC
  5
792B
102
{ACAD_REACTORS
330
7970
102
}
330
2
100
AcDbEntity
  8
KIJUN
100
AcDbCircle
 10
112.6162756179449
 20
52.84261860492082
 30
0.0
 40
4.358741697316173
100
AcDbArc
 50
81.52698618014968
 51
121.4568257444169
  0
ARC
  5
792C
102
{ACAD_REACTORS
330
7970
102
}
330
2
100
AcDbEntity
  8
KIJUN
100
AcDbCircle
 10
124.5246621594558
 20
44.51432724574316
 30
0.0
 40
21.87200743168504
100
AcDbArc
 50
145.2567716211483
 51
151.7461532231083
  0
ARC
  5
792D
102
{ACAD_REACTORS
330
7970
102
}
330
2
100
AcDbEntity
  8
KIJUN
100
AcDbCircle
 10
107.6597075215832
 20
55.97837481503002
 30
0.0
 40
1.492766685073129
100
AcDbArc
 50
72.33984923694459
 51
137.899415373109
  0
ARC
  5
792E
102
{ACAD_REACTORS
330
7970
102
}
330
2
100
AcDbEntity
  8
KIJUN
100
AcDbCircle
 10
107.2395926143007
 20
54.84459631962552
 30
0.0
 40
2.701151769247696
100
AcDbArc
 50
41.16717730343494
 51
71.14425105996781
  0
ARC
  5
792F
102
{ACAD_REACTORS
330
7970
102
}
330
2
100
AcDbEntity
  8
KIJUN
100
AcDbCircle
 10
109.8439790235427
 20
57.22480779701576
 30
0.0
 40
0.8298256121761387
100
AcDbArc
 50
226.5222340647781
 51
306.8497088969668
  0
ENDSEC
  0
SECTION
  2
OBJECTS
  0
DICTIONARY
  5
1A
330
0
100
AcDbDictionary
281
     1
  3
ACAD_COLOR
350
144
  3
ACAD_GROUP
350
18
  3
ACAD_LAYOUT
350
58
  3
ACAD_MATERIAL
350
143
  3
ACAD_MLINESTYLE
350
19
  3
ACAD_PLOTSETTINGS
350
59
  3
ACAD_PLOTSTYLENAME
350
56
  3
ACAD_TABLESTYLE
350
145
  3
ACDBHEADERROUNDTRIPXREC
350
79A8
  3
AcDbVariableDictionary
350
1D1
  0
DICTIONARY
  5
1B4
330
A
100
AcDbDictionary
280
     1
281
     1
  3
ACAD_LAYERFILTERS
360
7795
  3
ACLYDICTIONARY
360
7794
  0
DICTIONARY
  5
D13
330
2
100
AcDbDictionary
280
     1
281
     1
  3
ACAD_SORTENTS
360
D14
  0
DICTIONARY
  5
144
102
{ACAD_REACTORS
330
1A
102
}
330
1A
100
AcDbDictionary
281
     1
  0
DICTIONARY
  5
18
102
{ACAD_REACTORS
330
1A
102
}
330
1A
100
AcDbDictionary
281
     1
  3
*A1
350
E0D
  3
*A10
350
31DF
  3
*A11
350
32E4
  3
*A12
350
2C6B
  3
*A13
350
3349
  3
*A14
350
24D6
  3
*A15
350
2037
  3
*A16
350
3A25
  3
*A17
350
3467
  3
*A18
350
422E
  3
*A19
350
4407
  3
*A2
350
265A
  3
*A20
350
4516
  3
*A21
350
307D
  3
*A22
350
FF8
  3
*A23
350
2D78
  3
*A24
350
136A
  3
*A25
350
1555
  3
*A26
350
2A17
  3
*A27
350
17BC
  3
*A28
350
34BB
  3
*A29
350
45E5
  3
*A3
350
26DD
  3
*A30
350
46A5
  3
*A31
350
4781
  3
*A32
350
48BA
  3
*A33
350
4A53
  3
*A34
350
1A98
  3
*A35
350
3695
  3
*A36
350
4B49
  3
*A37
350
4C3E
  3
*A38
350
4CEC
  3
*A39
350
4D76
  3
*A4
350
3988
  3
*A40
350
3C81
  3
*A41
350
4E16
  3
*A42
350
4EE5
  3
*A43
350
4F64
  3
*A44
350
5011
  3
*A45
350
22C8
  3
*A46
350
519C
  3
*A47
350
52B0
  3
*A48
350
36C9
  3
*A49
350
5396
  3
*A5
350
275E
  3
*A50
350
5464
  3
*A51
350
556A
  3
*A52
350
213E
  3
*A53
350
57BF
  3
*A54
350
58EE
  3
*A55
350
382B
  3
*A56
350
1EFE
  3
*A57
350
2573
  3
*A58
350
3878
  3
*A59
350
5D92
  3
*A6
350
2905
  3
*A60
350
3E5C
  3
*A61
350
3181
  3
*A62
350
2B84
  3
*A63
350
5F6F
  3
*A64
350
626B
  3
*A65
350
6417
  3
*A66
350
668C
  3
*A67
350
241A
  3
*A68
350
68C5
  3
*A69
350
6A30
  3
*A7
350
2EE1
  3
*A70
350
6A98
  3
*A71
350
6C32
  3
*A72
350
6D00
  3
*A73
350
6DE3
  3
*A74
350
6EB7
  3
*A75
350
706D
  3
*A76
350
7170
  3
*A77
350
35A5
  3
*A78
350
401B
  3
*A8
350
1CBC
  3
*A80
350
7453
  3
*A84
350
76E3
  3
*A85
350
7793
  3
*A86
350
7970
  3
*A9
350
2F81
  0
DICTIONARY
  5
58
102
{ACAD_REACTORS
330
1A
102
}
330
1A
100
AcDbDictionary
281
     1
  3
Model
350
5A
  3
ﾚｲｱｳﾄ1
350
5B
  0
DICTIONARY
  5
143
102
{ACAD_REACTORS
330
1A
102
}
330
1A
100
AcDbDictionary
281
     1
  0
DICTIONARY
  5
19
102
{ACAD_REACTORS
330
1A
102
}
330
1A
100
AcDbDictionary
281
     1
  3
STANDARD
350
1D
  0
DICTIONARY
  5
59
102
{ACAD_REACTORS
330
1A
102
}
330
1A
100
AcDbDictionary
281
     1
  0
ACDBDICTIONARYWDFLT
  5
56
102
{ACAD_REACTORS
330
1A
102
}
330
1A
100
AcDbDictionary
281
     1
  3
Normal
350
57
100
AcDbDictionaryWithDefault
340
57
  0
DICTIONARY
  5
145
102
{ACAD_REACTORS
330
1A
102
}
330
1A
100
AcDbDictionary
281
     1
  3
Standard
350
146
  0
DICTIONARY
  5
79A8
102
{ACAD_REACTORS
330
1A
102
}
330
1A
100
AcDbDictionary
281
     1
  0
DICTIONARY
  5
1D1
102
{ACAD_REACTORS
330
1A
102
}
330
1A
100
AcDbDictionary
281
     1
  3
CTABLESTYLE
350
1D2
  3
DIMASSOC
350
D03
  3
PROJECTNAME
350
D04
  0
DICTIONARY
  5
7795
102
{ACAD_REACTORS
330
1B4
102
}
330
1B4
100
AcDbDictionary
281
     1
  0
DICTIONARY
  5
7794
102
{ACAD_REACTORS
330
1B4
102
}
330
1B4
100
AcDbDictionary
281
     1
1001
ACAD
1000
<All
  0
SORTENTSTABLE
  5
D14
102
{ACAD_REACTORS
330
D13
102
}
330
D13
100
AcDbSortentsTable
330
2
331
78F1
  5
78F1
331
78B2
  5
78B2
331
783C
  5
783C
331
78BA
  5
78BA
331
20
  5
20
331
78FD
  5
78FD
331
7905
  5
7905
331
78C2
  5
78C2
331
784C
  5
784C
331
780D
  5
780D
331
78CA
  5
78CA
331
7854
  5
7854
331
78D2
  5
78D2
331
7864
  5
7864
331
7825
  5
7825
331
78E2
  5
78E1
331
78A3
  5
78A3
331
786C
  5
786C
331
78EA
  5
78EA
331
78AB
  5
78AB
331
7835
  5
7835
331
78F2
  5
78F3
331
78B3
  5
78B3
331
783D
  5
783D
331
78BB
  5
78BB
331
7845
  5
7845
331
21
  5
21
331
78FE
  5
78FE
331
7906
  5
7906
331
78C3
  5
78C3
331
780E
  5
780E
331
78CB
  5
78CB
331
7855
  5
7855
331
7816
  5
7816
331
78D3
  5
78D3
331
781E
  5
781E
331
78DB
  5
78D7
331
789C
  5
789C
331
7865
  5
7865
331
7826
  5
7826
331
78E3
  5
78E3
331
78A4
  5
78A8
331
78EB
  5
78EB
331
78AC
  5
78AC
331
7836
  5
7836
331
78F3
  5
78F4
331
78B4
  5
78B4
331
783E
  5
783E
331
78BC
  5
78BD
331
78FF
  5
78FF
331
7907
  5
7907
331
78C4
  5
78C4
331
780F
  5
780F
331
78CC
  5
78CC
331
7856
  5
7856
331
78D4
  5
78D4
331
781F
  5
781F
331
78DC
  5
78DC
331
789D
  5
789F
331
7866
  5
7866
331
7827
  5
7827
331
78E4
  5
78E4
331
782F
  5
782F
331
78EC
  5
78EC
331
78AD
  5
78AD
331
78F4
  5
78F5
331
78B5
  5
78B5
331
783F
  5
783F
331
78BD
  5
78BC
331
23
  5
23
331
7900
  5
7900
331
7908
  5
7908
331
78C5
  5
78C5
331
784F
  5
784F
331
7810
  5
7810
331
78CD
  5
78CD
331
78D5
  5
78D5
331
7820
  5
7820
331
78DD
  5
78DD
331
789E
  5
78A0
331
7867
  5
7867
331
7828
  5
7828
331
78E5
  5
78E5
331
78A6
  5
78A6
331
7830
  5
7830
331
78ED
  5
78ED
331
78AE
  5
78AE
331
7838
  5
7838
331
78F5
  5
78F6
331
78B6
  5
78B6
331
78BE
  5
78BE
331
78F9
  5
78F9
331
7901
  5
7901
331
7909
  5
7909
331
7848
  5
7848
331
7809
  5
7809
331
78C6
  5
78C6
331
78CE
  5
78CE
331
7819
  5
7819
331
78D6
  5
78D6
331
7821
  5
7821
331
78DE
  5
78DE
331
789F
  5
78A1
331
7868
  5
7868
331
78E6
  5
78E6
331
78A7
  5
78A9
331
7831
  5
7831
331
78EE
  5
78EE
331
78AF
  5
78AF
331
7839
  5
7839
331
78F6
  5
78F7
331
78B7
  5
78B7
331
7841
  5
7841
331
78BF
  5
78BF
331
7902
  5
7902
331
7849
  5
7849
331
780A
  5
780A
331
78C7
  5
78C7
331
7851
  5
7851
331
78CF
  5
78CF
331
7859
  5
7859
331
781A
  5
781A
331
78D7
  5
78DB
331
78DF
  5
78DF
331
78A0
  5
78A4
331
7869
  5
7869
331
78E7
  5
78E7
331
7832
  5
7832
331
78EF
  5
78EF
331
78B0
  5
78B0
331
7879
  5
7879
331
783A
  5
783A
331
78F7
  5
78F2
331
78B8
  5
78B8
331
78FB
  5
78FB
331
7903
  5
7903
331
78C0
  5
78C0
331
784A
  5
784A
331
78C8
  5
78C8
331
7852
  5
7852
331
7813
  5
7813
331
78D0
  5
78D0
331
785A
  5
785A
331
7862
  5
7862
331
1F
  5
1F
331
78E0
  5
78E0
331
78A1
  5
78A7
331
786A
  5
786A
331
78E8
  5
78E8
331
78A9
  5
789D
331
7833
  5
7833
331
78F0
  5
78F0
331
78B1
  5
78B1
331
78B9
  5
78B9
331
7843
  5
7843
331
78FC
  5
78FC
331
7904
  5
7904
331
78C1
  5
78C1
331
78C9
  5
78C9
331
7814
  5
7814
331
785B
  5
785B
331
7863
  5
7863
331
7824
  5
7824
331
78E9
  5
78E9
331
7834
  5
7834
  0
GROUP
  5
E0D
102
{ACAD_REACTORS
330
18
102
}
330
18
100
AcDbGroup
300

 70
     1
 71
     1
  0
GROUP
  5
31DF
102
{ACAD_REACTORS
330
18
102
}
330
18
100
AcDbGroup
300

 70
     1
 71
     1
  0
GROUP
  5
32E4
102
{ACAD_REACTORS
330
18
102
}
330
18
100
AcDbGroup
300

 70
     1
 71
     1
  0
GROUP
  5
2C6B
102
{ACAD_REACTORS
330
18
102
}
330
18
100
AcDbGroup
300

 70
     1
 71
     1
  0
GROUP
  5
3349
102
{ACAD_REACTORS
330
18
102
}
330
18
100
AcDbGroup
300

 70
     1
 71
     1
  0
GROUP
  5
24D6
102
{ACAD_REACTORS
330
18
102
}
330
18
100
AcDbGroup
300

 70
     1
 71
     1
  0
GROUP
  5
2037
102
{ACAD_REACTORS
330
18
102
}
330
18
100
AcDbGroup
300

 70
     1
 71
     1
  0
GROUP
  5
3A25
102
{ACAD_REACTORS
330
18
102
}
330
18
100
AcDbGroup
300

 70
     1
 71
     1
  0
GROUP
  5
3467
102
{ACAD_REACTORS
330
18
102
}
330
18
100
AcDbGroup
300

 70
     1
 71
     1
  0
GROUP
  5
422E
102
{ACAD_REACTORS
330
18
102
}
330
18
100
AcDbGroup
300

 70
     1
 71
     1
  0
GROUP
  5
4407
102
{ACAD_REACTORS
330
18
102
}
330
18
100
AcDbGroup
300

 70
     1
 71
     1
  0
GROUP
  5
265A
102
{ACAD_REACTORS
330
18
102
}
330
18
100
AcDbGroup
300

 70
     1
 71
     1
  0
GROUP
  5
4516
102
{ACAD_REACTORS
330
18
102
}
330
18
100
AcDbGroup
300

 70
     1
 71
     1
  0
GROUP
  5
307D
102
{ACAD_REACTORS
330
18
102
}
330
18
100
AcDbGroup
300

 70
     1
 71
     1
  0
GROUP
  5
FF8
102
{ACAD_REACTORS
330
18
102
}
330
18
100
AcDbGroup
300

 70
     1
 71
     1
  0
GROUP
  5
2D78
102
{ACAD_REACTORS
330
18
102
}
330
18
100
AcDbGroup
300

 70
     1
 71
     1
  0
GROUP
  5
136A
102
{ACAD_REACTORS
330
18
102
}
330
18
100
AcDbGroup
300

 70
     1
 71
     1
  0
GROUP
  5
1555
102
{ACAD_REACTORS
330
18
102
}
330
18
100
AcDbGroup
300

 70
     1
 71
     1
  0
GROUP
  5
2A17
102
{ACAD_REACTORS
330
18
102
}
330
18
100
AcDbGroup
300

 70
     1
 71
     1
  0
GROUP
  5
17BC
102
{ACAD_REACTORS
330
18
102
}
330
18
100
AcDbGroup
300

 70
     1
 71
     1
  0
GROUP
  5
34BB
102
{ACAD_REACTORS
330
18
102
}
330
18
100
AcDbGroup
300

 70
     1
 71
     1
  0
GROUP
  5
45E5
102
{ACAD_REACTORS
330
18
102
}
330
18
100
AcDbGroup
300

 70
     1
 71
     1
  0
GROUP
  5
26DD
102
{ACAD_REACTORS
330
18
102
}
330
18
100
AcDbGroup
300

 70
     1
 71
     1
  0
GROUP
  5
46A5
102
{ACAD_REACTORS
330
18
102
}
330
18
100
AcDbGroup
300

 70
     1
 71
     1
  0
GROUP
  5
4781
102
{ACAD_REACTORS
330
18
102
}
330
18
100
AcDbGroup
300

 70
     1
 71
     1
  0
GROUP
  5
48BA
102
{ACAD_REACTORS
330
18
102
}
330
18
100
AcDbGroup
300

 70
     1
 71
     1
  0
GROUP
  5
4A53
102
{ACAD_REACTORS
330
18
102
}
330
18
100
AcDbGroup
300

 70
     1
 71
     1
  0
GROUP
  5
1A98
102
{ACAD_REACTORS
330
18
102
}
330
18
100
AcDbGroup
300

 70
     1
 71
     1
  0
GROUP
  5
3695
102
{ACAD_REACTORS
330
18
102
}
330
18
100
AcDbGroup
300

 70
     1
 71
     1
  0
GROUP
  5
4B49
102
{ACAD_REACTORS
330
18
102
}
330
18
100
AcDbGroup
300

 70
     1
 71
     1
  0
GROUP
  5
4C3E
102
{ACAD_REACTORS
330
18
102
}
330
18
100
AcDbGroup
300

 70
     1
 71
     1
  0
GROUP
  5
4CEC
102
{ACAD_REACTORS
330
18
102
}
330
18
100
AcDbGroup
300

 70
     1
 71
     1
  0
GROUP
  5
4D76
102
{ACAD_REACTORS
330
18
102
}
330
18
100
AcDbGroup
300

 70
     1
 71
     1
  0
GROUP
  5
3988
102
{ACAD_REACTORS
330
18
102
}
330
18
100
AcDbGroup
300

 70
     1
 71
     1
  0
GROUP
  5
3C81
102
{ACAD_REACTORS
330
18
102
}
330
18
100
AcDbGroup
300

 70
     1
 71
     1
  0
GROUP
  5
4E16
102
{ACAD_REACTORS
330
18
102
}
330
18
100
AcDbGroup
300

 70
     1
 71
     1
  0
GROUP
  5
4EE5
102
{ACAD_REACTORS
330
18
102
}
330
18
100
AcDbGroup
300

 70
     1
 71
     1
  0
GROUP
  5
4F64
102
{ACAD_REACTORS
330
18
102
}
330
18
100
AcDbGroup
300

 70
     1
 71
     1
  0
GROUP
  5
5011
102
{ACAD_REACTORS
330
18
102
}
330
18
100
AcDbGroup
300

 70
     1
 71
     1
  0
GROUP
  5
22C8
102
{ACAD_REACTORS
330
18
102
}
330
18
100
AcDbGroup
300

 70
     1
 71
     1
  0
GROUP
  5
519C
102
{ACAD_REACTORS
330
18
102
}
330
18
100
AcDbGroup
300

 70
     1
 71
     1
  0
GROUP
  5
52B0
102
{ACAD_REACTORS
330
18
102
}
330
18
100
AcDbGroup
300

 70
     1
 71
     1
  0
GROUP
  5
36C9
102
{ACAD_REACTORS
330
18
102
}
330
18
100
AcDbGroup
300

 70
     1
 71
     1
  0
GROUP
  5
5396
102
{ACAD_REACTORS
330
18
102
}
330
18
100
AcDbGroup
300

 70
     1
 71
     1
  0
GROUP
  5
275E
102
{ACAD_REACTORS
330
18
102
}
330
18
100
AcDbGroup
300

 70
     1
 71
     1
  0
GROUP
  5
5464
102
{ACAD_REACTORS
330
18
102
}
330
18
100
AcDbGroup
300

 70
     1
 71
     1
  0
GROUP
  5
556A
102
{ACAD_REACTORS
330
18
102
}
330
18
100
AcDbGroup
300

 70
     1
 71
     1
  0
GROUP
  5
213E
102
{ACAD_REACTORS
330
18
102
}
330
18
100
AcDbGroup
300

 70
     1
 71
     1
  0
GROUP
  5
57BF
102
{ACAD_REACTORS
330
18
102
}
330
18
100
AcDbGroup
300

 70
     1
 71
     1
  0
GROUP
  5
58EE
102
{ACAD_REACTORS
330
18
102
}
330
18
100
AcDbGroup
300

 70
     1
 71
     1
  0
GROUP
  5
382B
102
{ACAD_REACTORS
330
18
102
}
330
18
100
AcDbGroup
300

 70
     1
 71
     1
  0
GROUP
  5
1EFE
102
{ACAD_REACTORS
330
18
102
}
330
18
100
AcDbGroup
300

 70
     1
 71
     1
  0
GROUP
  5
2573
102
{ACAD_REACTORS
330
18
102
}
330
18
100
AcDbGroup
300

 70
     1
 71
     1
  0
GROUP
  5
3878
102
{ACAD_REACTORS
330
18
102
}
330
18
100
AcDbGroup
300

 70
     1
 71
     1
  0
GROUP
  5
5D92
102
{ACAD_REACTORS
330
18
102
}
330
18
100
AcDbGroup
300

 70
     1
 71
     1
  0
GROUP
  5
2905
102
{ACAD_REACTORS
330
18
102
}
330
18
100
AcDbGroup
300

 70
     1
 71
     1
  0
GROUP
  5
3E5C
102
{ACAD_REACTORS
330
18
102
}
330
18
100
AcDbGroup
300

 70
     1
 71
     1
  0
GROUP
  5
3181
102
{ACAD_REACTORS
330
18
102
}
330
18
100
AcDbGroup
300

 70
     1
 71
     1
  0
GROUP
  5
2B84
102
{ACAD_REACTORS
330
18
102
}
330
18
100
AcDbGroup
300

 70
     1
 71
     1
  0
GROUP
  5
5F6F
102
{ACAD_REACTORS
330
18
102
}
330
18
100
AcDbGroup
300

 70
     1
 71
     1
  0
GROUP
  5
626B
102
{ACAD_REACTORS
330
18
102
}
330
18
100
AcDbGroup
300

 70
     1
 71
     1
  0
GROUP
  5
6417
102
{ACAD_REACTORS
330
18
102
}
330
18
100
AcDbGroup
300

 70
     1
 71
     1
  0
GROUP
  5
668C
102
{ACAD_REACTORS
330
18
102
}
330
18
100
AcDbGroup
300

 70
     1
 71
     1
  0
GROUP
  5
241A
102
{ACAD_REACTORS
330
18
102
}
330
18
100
AcDbGroup
300

 70
     1
 71
     1
  0
GROUP
  5
68C5
102
{ACAD_REACTORS
330
18
102
}
330
18
100
AcDbGroup
300

 70
     1
 71
     1
  0
GROUP
  5
6A30
102
{ACAD_REACTORS
330
18
102
}
330
18
100
AcDbGroup
300

 70
     1
 71
     1
  0
GROUP
  5
2EE1
102
{ACAD_REACTORS
330
18
102
}
330
18
100
AcDbGroup
300

 70
     1
 71
     1
  0
GROUP
  5
6A98
102
{ACAD_REACTORS
330
18
102
}
330
18
100
AcDbGroup
300

 70
     1
 71
     1
  0
GROUP
  5
6C32
102
{ACAD_REACTORS
330
18
102
}
330
18
100
AcDbGroup
300

 70
     1
 71
     1
  0
GROUP
  5
6D00
102
{ACAD_REACTORS
330
18
102
}
330
18
100
AcDbGroup
300

 70
     1
 71
     1
  0
GROUP
  5
6DE3
102
{ACAD_REACTORS
330
18
102
}
330
18
100
AcDbGroup
300

 70
     1
 71
     1
  0
GROUP
  5
6EB7
102
{ACAD_REACTORS
330
18
102
}
330
18
100
AcDbGroup
300

 70
     1
 71
     1
  0
GROUP
  5
706D
102
{ACAD_REACTORS
330
18
102
}
330
18
100
AcDbGroup
300

 70
     1
 71
     1
  0
GROUP
  5
7170
102
{ACAD_REACTORS
330
18
102
}
330
18
100
AcDbGroup
300

 70
     1
 71
     1
  0
GROUP
  5
35A5
102
{ACAD_REACTORS
330
18
102
}
330
18
100
AcDbGroup
300

 70
     1
 71
     1
  0
GROUP
  5
401B
102
{ACAD_REACTORS
330
18
102
}
330
18
100
AcDbGroup
300

 70
     1
 71
     1
  0
GROUP
  5
1CBC
102
{ACAD_REACTORS
330
18
102
}
330
18
100
AcDbGroup
300

 70
     1
 71
     1
  0
GROUP
  5
7453
102
{ACAD_REACTORS
330
18
102
}
330
18
100
AcDbGroup
300

 70
     1
 71
     1
  0
GROUP
  5
76E3
102
{ACAD_REACTORS
330
18
102
}
330
18
100
AcDbGroup
300

 70
     1
 71
     1
  0
GROUP
  5
7793
102
{ACAD_REACTORS
330
18
102
}
330
18
100
AcDbGroup
300

 70
     1
 71
     1
  0
GROUP
  5
7970
102
{ACAD_REACTORS
330
18
102
}
330
18
100
AcDbGroup
300

 70
     1
 71
     1
340
792F
340
792E
340
792D
340
792C
340
792B
340
792A
340
7929
340
7928
340
7927
340
7926
340
7925
340
7924
340
7923
340
7922
340
7921
340
7920
340
791F
340
791E
340
791D
340
791C
340
791B
340
791A
340
7919
340
7918
340
7917
340
7916
340
7915
340
7914
340
7913
340
7912
340
7911
340
790F
340
790E
340
790D
340
790C
340
790B
340
790A
340
7909
340
7908
340
7907
340
7906
340
7905
340
7904
340
7903
340
7902
340
7901
340
7900
340
78FF
340
78FE
340
78FD
340
78FC
340
78FB
340
78F9
340
78F6
340
78F5
340
78F4
340
78F3
340
78F2
340
78F7
340
78F1
340
78F0
340
78EF
340
78EE
340
78ED
340
78EC
340
78EB
340
78EA
340
78E9
340
78E8
340
78E7
340
78E6
340
78E5
340
78E4
340
78E3
340
78E2
340
78E0
340
78DF
340
78DE
340
78DD
340
78DC
340
78D7
340
78DB
340
78D6
340
78D5
340
78D4
340
78D3
340
78D2
340
78D0
340
78CF
340
78CE
340
78CD
340
78CC
340
78CB
340
78CA
340
78C9
340
78C8
340
78C7
340
78C6
340
78C5
340
78C4
340
78C3
340
78C2
340
78C1
340
78C0
340
78BF
340
78BE
340
78BC
340
78BD
340
78BB
340
78BA
340
78B9
340
78B8
340
78B7
340
78B6
340
78B5
340
78B4
340
78B3
340
78B2
340
78B1
340
78B0
340
78AF
340
78AE
340
78AD
340
78AC
340
78AB
340
78A7
340
78A4
340
78A1
340
78A6
340
78A0
340
78A3
340
789F
340
789E
340
789D
340
78A9
340
789C
340
786A
340
7869
340
7868
340
7867
340
7866
340
7865
340
7864
340
7863
340
7862
340
785B
340
785A
340
7859
340
7856
340
7855
340
7854
340
7852
340
7851
340
784F
340
784C
340
784A
340
7849
340
7848
340
7845
340
7843
340
7841
340
783F
340
783E
340
783D
340
783C
340
783A
340
7839
340
7838
340
7836
340
7835
340
7834
340
7833
340
7832
340
7831
340
7830
340
782F
340
7828
340
7827
340
7826
340
7825
340
7824
340
7821
340
7820
340
781F
340
781E
340
781A
340
7819
340
7816
340
7814
340
7813
340
7810
340
780F
340
780E
340
780D
340
780A
340
7809
  0
GROUP
  5
2F81
102
{ACAD_REACTORS
330
18
102
}
330
18
100
AcDbGroup
300

 70
     1
 71
     1
  0
LAYOUT
  5
5A
102
{ACAD_XDICTIONARY
360
79A9
102
}
102
{ACAD_REACTORS
330
58
102
}
330
58
100
AcDbPlotSettings
  1

  2
なし
  4

  6

 40
0.0
 41
0.0
 42
0.0
 43
0.0
 44
0.0
 45
0.0
 46
0.0
 47
0.0
 48
0.0
 49
0.0
140
0.0
141
0.0
142
1.0
143
1.0
 70
  1712
 72
     0
 73
     0
 74
     0
  7
monochrome.ctb
 75
     0
147
1.0
148
0.0
149
0.0
100
AcDbLayout
  1
Model
 70
     1
 71
     0
 10
0.0
 20
0.0
 11
12.0
 21
9.0
 12
0.0
 22
0.0
 32
0.0
 14
0.0
 24
0.0
 34
0.0
 15
0.0
 25
0.0
 35
0.0
146
0.0
 13
0.0
 23
0.0
 33
0.0
 16
1.0
 26
0.0
 36
0.0
 17
0.0
 27
1.0
 37
0.0
 76
     0
330
2
  0
LAYOUT
  5
5B
102
{ACAD_XDICTIONARY
360
79AB
102
}
102
{ACAD_REACTORS
330
58
102
}
330
58
100
AcDbPlotSettings
  1

  2
なし
  4

  6

 40
0.0
 41
0.0
 42
0.0
 43
0.0
 44
0.0
 45
0.0
 46
0.0
 47
0.0
 48
0.0
 49
0.0
140
0.0
141
0.0
142
1.0
143
1.0
 70
   688
 72
     0
 73
     0
 74
     5
  7
monochrome.ctb
 75
    16
147
1.0
148
0.0
149
0.0
100
AcDbLayout
  1
ﾚｲｱｳﾄ1
 70
     1
 71
     1
 10
0.0
 20
0.0
 11
12.0
 21
9.0
 12
0.0
 22
0.0
 32
0.0
 14
1.000000000000000E+20
 24
1.000000000000000E+20
 34
1.000000000000000E+20
 15
-1.000000000000000E+20
 25
-1.000000000000000E+20
 35
-1.000000000000000E+20
146
0.0
 13
0.0
 23
0.0
 33
0.0
 16
1.0
 26
0.0
 36
0.0
 17
0.0
 27
1.0
 37
0.0
 76
     0
330
7
  0
MLINESTYLE
  5
1D
102
{ACAD_REACTORS
330
19
102
}
330
19
100
AcDbMlineStyle
  2
STANDARD
 70
     0
  3

 62
   256
 51
90.0
 52
90.0
 71
     2
 49
0.5
 62
   256
  6
BYLAYER
 49
-0.5
 62
   256
  6
BYLAYER
  0
ACDBPLACEHOLDER
  5
57
102
{ACAD_REACTORS
330
56
102
}
330
56
  0
TABLESTYLE
  5
146
102
{ACAD_REACTORS
330
145
102
}
330
145
100
AcDbTableStyle
  3
Standard
 70
     0
 71
     0
 40
0.06
 41
0.06
280
     0
281
     0
  7
STANDARD
140
0.18
170
     2
 62
     0
 63
     7
283
     0
274
    -2
284
     1
 64
     0
275
    -2
285
     1
 65
     0
276
    -2
286
     1
 66
     0
277
    -2
287
     1
 67
     0
278
    -2
288
     1
 68
     0
279
    -2
289
     1
 69
     0
  7
STANDARD
140
0.25
170
     5
 62
     0
 63
     7
283
     0
274
    -2
284
     1
 64
     0
275
    -2
285
     1
 65
     0
276
    -2
286
     1
 66
     0
277
    -2
287
     1
 67
     0
278
    -2
288
     1
 68
     0
279
    -2
289
     1
 69
     0
  7
STANDARD
140
0.18
170
     5
 62
     0
 63
     7
283
     0
274
    -2
284
     1
 64
     0
275
    -2
285
     1
 65
     0
276
    -2
286
     1
 66
     0
277
    -2
287
     1
 67
     0
278
    -2
288
     1
 68
     0
279
    -2
289
     1
 69
     0
  0
DICTIONARYVAR
  5
1D2
102
{ACAD_REACTORS
330
1D1
102
}
330
1D1
100
DictionaryVariables
280
     0
  1
STANDARD
  0
DICTIONARYVAR
  5
D03
102
{ACAD_REACTORS
330
1D1
102
}
330
1D1
100
DictionaryVariables
280
     0
  1
1
  0
DICTIONARYVAR
  5
D04
102
{ACAD_REACTORS
330
1D1
102
}
330
1D1
100
DictionaryVariables
280
     0
  1

  0
DICTIONARY
  5
79A9
330
5A
100
AcDbDictionary
280
     1
281
     1
  3
ACAD_XREC_ROUNDTRIP
360
79AA
  0
DICTIONARY
  5
79AB
330
5B
100
AcDbDictionary
280
     1
281
     1
  3
ACAD_XREC_ROUNDTRIP
360
79AC
  0
XRECORD
  5
79AA
102
{ACAD_REACTORS
330
79A9
102
}
330
79A9
100
AcDbXrecord
280
     1
102
SHADEPLOT
 70
     0
102
SHADEPLOTRESLEVEL
 70
     2
102
SHADEPLOTCUSTOMDPI
 70
   300
  0
XRECORD
  5
79AC
102
{ACAD_REACTORS
330
79AB
102
}
330
79AB
100
AcDbXrecord
280
     1
102
SHADEPLOT
 70
     0
102
SHADEPLOTRESLEVEL
 70
     2
102
SHADEPLOTCUSTOMDPI
 70
   300
  0
ENDSEC
  0
EOF
