  0
SECTION
  2
HEADER
  9
$ACADVER
  1
AC1015
  9
$ACADMAINTVER
 70
    20
  9
$DWGCODEPAGE
  3
ANSI_932
  9
$INSBASE
 10
922.019522
 20
-675.4306699999999
 30
0.0
  9
$EXTMIN
 10
-168.6893540952025
 20
-0.0101541432070462
 30
-0.000000000000013
  9
$EXTMAX
 10
253.7501819835238
 20
225.1240507389951
 30
0.0000000000000023
  9
$LIMMIN
 10
0.0
 20
0.0
  9
$LIMMAX
 10
420.0
 20
297.0
  9
$ORTHOMODE
 70
     1
  9
$REGENMODE
 70
     1
  9
$FILLMODE
 70
     1
  9
$QTEXTMODE
 70
     0
  9
$MIRRTEXT
 70
     1
  9
$LTSCALE
 40
1.0
  9
$ATTMODE
 70
     1
  9
$TEXTSIZE
 40
30.0
  9
$TRACEWID
 40
0.05
  9
$TEXTSTYLE
  7
SUNPOU
  9
$CLAYER
  8
0
  9
$CELTYPE
  6
BYLAYER
  9
$CECOLOR
 62
   256
  9
$CELTSCALE
 40
1.0
  9
$DISPSILH
 70
     0
  9
$DIMSCALE
 40
1.0
  9
$DIMASZ
 40
2.0
  9
$DIMEXO
 40
10.0
  9
$DIMDLI
 40
0.38
  9
$DIMRND
 40
0.0
  9
$DIMDLE
 40
0.0
  9
$DIMEXE
 40
0.0
  9
$DIMTP
 40
0.0
  9
$DIMTM
 40
0.0
  9
$DIMTXT
 40
10.0
  9
$DIMCEN
 40
0.0
  9
$DIMTSZ
 40
0.0
  9
$DIMTOL
 70
     0
  9
$DIMLIM
 70
     0
  9
$DIMTIH
 70
     0
  9
$DIMTOH
 70
     0
  9
$DIMSE1
 70
     0
  9
$DIMSE2
 70
     0
  9
$DIMTAD
 70
     1
  9
$DIMZIN
 70
     0
  9
$DIMBLK
  1
Dot
  9
$DIMASO
 70
     1
  9
$DIMSHO
 70
     1
  9
$DIMPOST
  1

  9
$DIMAPOST
  1

  9
$DIMALT
 70
     0
  9
$DIMALTD
 70
     2
  9
$DIMALTF
 40
25.4
  9
$DIMLFAC
 40
1.0
  9
$DIMTOFL
 70
     0
  9
$DIMTVP
 40
0.0
  9
$DIMTIX
 70
     0
  9
$DIMSOXD
 70
     0
  9
$DIMSAH
 70
     0
  9
$DIMBLK1
  1

  9
$DIMBLK2
  1

  9
$DIMSTYLE
  2
STANDARD
  9
$DIMCLRD
 70
    60
  9
$DIMCLRE
 70
    70
  9
$DIMCLRT
 70
    60
  9
$DIMTFAC
 40
0.064286
  9
$DIMGAP
 40
3.0
  9
$DIMJUST
 70
     0
  9
$DIMSD1
 70
     0
  9
$DIMSD2
 70
     0
  9
$DIMTOLJ
 70
     1
  9
$DIMTZIN
 70
     0
  9
$DIMALTZ
 70
     0
  9
$DIMALTTZ
 70
     0
  9
$DIMUPT
 70
     0
  9
$DIMDEC
 70
     0
  9
$DIMTDEC
 70
     0
  9
$DIMALTU
 70
     2
  9
$DIMALTTD
 70
     2
  9
$DIMTXSTY
  7
SUNPOU
  9
$DIMAUNIT
 70
     0
  9
$DIMADEC
 70
     0
  9
$DIMALTRND
 40
0.0
  9
$DIMAZIN
 70
     0
  9
$DIMDSEP
 70
    46
  9
$DIMATFIT
 70
     3
  9
$DIMFRAC
 70
     0
  9
$DIMLDRBLK
  1

  9
$DIMLUNIT
 70
     2
  9
$DIMLWD
 70
    -2
  9
$DIMLWE
 70
    -2
  9
$DIMTMOVE
 70
     0
  9
$LUNITS
 70
     2
  9
$LUPREC
 70
     5
  9
$SKETCHINC
 40
0.1
  9
$FILLETRAD
 40
0.5
  9
$AUNITS
 70
     0
  9
$AUPREC
 70
     0
  9
$MENU
  1
acad
  9
$ELEVATION
 40
0.0
  9
$PELEVATION
 40
0.0
  9
$THICKNESS
 40
0.0
  9
$LIMCHECK
 70
     0
  9
$CHAMFERA
 40
0.0
  9
$CHAMFERB
 40
0.0
  9
$CHAMFERC
 40
0.0
  9
$CHAMFERD
 40
0.0
  9
$SKPOLY
 70
     0
  9
$TDCREATE
 40
2450623.654673033
  9
$TDUCREATE
 40
2450623.279673032
  9
$TDUPDATE
 40
2453858.743951042
  9
$TDUUPDATE
 40
2453858.368951042
  9
$TDINDWG
 40
0.2984842708
  9
$TDUSRTIMER
 40
0.2984840972
  9
$USRTIMER
 70
     1
  9
$ANGBASE
 50
0.0
  9
$ANGDIR
 70
     0
  9
$PDMODE
 70
     0
  9
$PDSIZE
 40
0.0
  9
$PLINEWID
 40
0.0
  9
$SPLFRAME
 70
     0
  9
$SPLINETYPE
 70
     6
  9
$SPLINESEGS
 70
     8
  9
$HANDSEED
  5
5507
  9
$SURFTAB1
 70
     6
  9
$SURFTAB2
 70
     6
  9
$SURFTYPE
 70
     6
  9
$SURFU
 70
     6
  9
$SURFV
 70
     6
  9
$UCSBASE
  2

  9
$UCSNAME
  2

  9
$UCSORG
 10
0.0
 20
0.0
 30
0.0
  9
$UCSXDIR
 10
1.0
 20
0.0
 30
0.0
  9
$UCSYDIR
 10
0.0
 20
1.0
 30
0.0
  9
$UCSORTHOREF
  2

  9
$UCSORTHOVIEW
 70
     0
  9
$UCSORGTOP
 10
0.0
 20
0.0
 30
0.0
  9
$UCSORGBOTTOM
 10
0.0
 20
0.0
 30
0.0
  9
$UCSORGLEFT
 10
0.0
 20
0.0
 30
0.0
  9
$UCSORGRIGHT
 10
0.0
 20
0.0
 30
0.0
  9
$UCSORGFRONT
 10
0.0
 20
0.0
 30
0.0
  9
$UCSORGBACK
 10
0.0
 20
0.0
 30
0.0
  9
$PUCSBASE
  2

  9
$PUCSNAME
  2

  9
$PUCSORG
 10
0.0
 20
0.0
 30
0.0
  9
$PUCSXDIR
 10
1.0
 20
0.0
 30
0.0
  9
$PUCSYDIR
 10
0.0
 20
1.0
 30
0.0
  9
$PUCSORTHOREF
  2

  9
$PUCSORTHOVIEW
 70
     0
  9
$PUCSORGTOP
 10
0.0
 20
0.0
 30
0.0
  9
$PUCSORGBOTTOM
 10
0.0
 20
0.0
 30
0.0
  9
$PUCSORGLEFT
 10
0.0
 20
0.0
 30
0.0
  9
$PUCSORGRIGHT
 10
0.0
 20
0.0
 30
0.0
  9
$PUCSORGFRONT
 10
0.0
 20
0.0
 30
0.0
  9
$PUCSORGBACK
 10
0.0
 20
0.0
 30
0.0
  9
$USERI1
 70
     0
  9
$USERI2
 70
     0
  9
$USERI3
 70
     0
  9
$USERI4
 70
     0
  9
$USERI5
 70
     0
  9
$USERR1
 40
0.0
  9
$USERR2
 40
0.0
  9
$USERR3
 40
0.0
  9
$USERR4
 40
0.0
  9
$USERR5
 40
0.0
  9
$WORLDVIEW
 70
     1
  9
$SHADEDGE
 70
     3
  9
$SHADEDIF
 70
    70
  9
$TILEMODE
 70
     1
  9
$MAXACTVP
 70
    16
  9
$PINSBASE
 10
0.0
 20
0.0
 30
0.0
  9
$PLIMCHECK
 70
     0
  9
$PEXTMIN
 10
1.000000000000000E+20
 20
1.000000000000000E+20
 30
1.000000000000000E+20
  9
$PEXTMAX
 10
-1.000000000000000E+20
 20
-1.000000000000000E+20
 30
-1.000000000000000E+20
  9
$PLIMMIN
 10
0.0
 20
0.0
  9
$PLIMMAX
 10
12.0
 20
9.0
  9
$UNITMODE
 70
     0
  9
$VISRETAIN
 70
     0
  9
$PLINEGEN
 70
     0
  9
$PSLTSCALE
 70
     1
  9
$TREEDEPTH
 70
  3020
  9
$CMLSTYLE
  2
STANDARD
  9
$CMLJUST
 70
     0
  9
$CMLSCALE
 40
1.0
  9
$PROXYGRAPHICS
 70
     1
  9
$MEASUREMENT
 70
     0
  9
$CELWEIGHT
370
    -1
  9
$ENDCAPS
280
     0
  9
$JOINSTYLE
280
     0
  9
$LWDISPLAY
290
     0
  9
$INSUNITS
 70
     0
  9
$HYPERLINKBASE
  1

  9
$STYLESHEET
  1
monochrome.ctb
  9
$XEDIT
290
     1
  9
$CEPSNTYPE
380
     0
  9
$PSTYLEMODE
290
     1
  9
$FINGERPRINTGUID
  2
{FB88A696-E29C-4009-92AF-A3599A8169D5}
  9
$VERSIONGUID
  2
{9A20BED0-3FFC-41EA-95D6-8FFAE5A6A2BF}
  9
$EXTNAMES
290
     1
  9
$PSVPSCALE
 40
0.0
  9
$OLESTARTUP
290
     0
  0
ENDSEC
  0
SECTION
  2
CLASSES
  0
CLASS
  1
DICTIONARYVAR
  2
AcDbDictionaryVar
  3
ObjectDBX Classes
 90
        0
280
     0
281
     0
  0
CLASS
  1
ACDBDICTIONARYWDFLT
  2
AcDbDictionaryWithDefault
  3
ObjectDBX Classes
 90
        0
280
     0
281
     0
  0
CLASS
  1
ACDBPLACEHOLDER
  2
AcDbPlaceHolder
  3
ObjectDBX Classes
 90
        0
280
     0
281
     0
  0
CLASS
  1
LAYOUT
  2
AcDbLayout
  3
ObjectDBX Classes
 90
        0
280
     0
281
     0
  0
CLASS
  1
TABLESTYLE
  2
AcDbTableStyle
  3
ObjectDBX Classes
 90
     2047
280
     0
281
     0
  0
CLASS
  1
SORTENTSTABLE
  2
AcDbSortentsTable
  3
ObjectDBX Classes
 90
        0
280
     0
281
     0
  0
ENDSEC
  0
SECTION
  2
TABLES
  0
TABLE
  2
VPORT
  5
12
330
0
100
AcDbSymbolTable
 70
     3
  0
VPORT
  5
5501
330
12
100
AcDbSymbolTableRecord
100
AcDbViewportTableRecord
  2
*Active
 70
     0
 10
0.0
 20
0.0
 11
1.0
 21
1.0
 12
42.53041394416061
 22
112.556948297894
 13
0.0
 23
0.0
 14
1.0
 24
1.0
 15
0.0
 25
0.0
 16
0.0
 26
0.0
 36
1.0
 17
0.0
 27
0.0
 37
0.0
 40
272.1068059014362
 41
1.560102301790281
 42
50.0
 43
0.0
 44
0.0
 50
0.0
 51
0.0
 71
     0
 72
 20000
 73
     1
 74
     1
 75
     0
 76
     0
 77
     0
 78
     0
281
     0
 65
     1
110
0.0
120
0.0
130
0.0
111
1.0
121
0.0
131
0.0
112
0.0
122
1.0
132
0.0
 79
     0
146
0.0
  0
ENDTAB
  0
TABLE
  2
LTYPE
  5
D
330
0
100
AcDbSymbolTable
 70
     2
  0
LTYPE
  5
E
330
D
100
AcDbSymbolTableRecord
100
AcDbLinetypeTableRecord
  2
BYBLOCK
 70
     0
  3

 72
    65
 73
     0
 40
0.0
  0
LTYPE
  5
F
330
D
100
AcDbSymbolTableRecord
100
AcDbLinetypeTableRecord
  2
BYLAYER
 70
     0
  3

 72
    65
 73
     0
 40
0.0
  0
LTYPE
  5
5
330
D
100
AcDbSymbolTableRecord
100
AcDbLinetypeTableRecord
  2
CONTINUOUS
 70
     0
  3
Solid line
 72
    65
 73
     0
 40
0.0
  0
ENDTAB
  0
TABLE
  2
LAYER
  5
A
102
{ACAD_XDICTIONARY
360
1B4
102
}
330
0
100
AcDbSymbolTable
 70
     6
  0
LAYER
  5
4
330
A
100
AcDbSymbolTableRecord
100
AcDbLayerTableRecord
  2
0
 70
     0
 62
     7
  6
CONTINUOUS
370
    -3
390
57
  0
LAYER
  5
25
330
A
100
AcDbSymbolTableRecord
100
AcDbLayerTableRecord
  2
KIJUN
 70
     0
 62
     7
  6
CONTINUOUS
370
    -3
390
57
  0
LAYER
  5
22
330
A
100
AcDbSymbolTableRecord
100
AcDbLayerTableRecord
  2
HOJO
 70
     0
 62
     3
  6
CONTINUOUS
370
    -3
390
57
  0
LAYER
  5
1B
330
A
100
AcDbSymbolTableRecord
100
AcDbLayerTableRecord
  2
WAKU
 70
     0
 62
     1
  6
CONTINUOUS
370
    -3
390
57
  0
LAYER
  5
31
330
A
100
AcDbSymbolTableRecord
100
AcDbLayerTableRecord
  2
DEFPOINTS
 70
     0
 62
     7
  6
CONTINUOUS
290
     0
370
    -3
390
57
  0
LAYER
  5
28
330
A
100
AcDbSymbolTableRecord
100
AcDbLayerTableRecord
  2
SUNPOU
 70
     0
 62
    70
  6
CONTINUOUS
370
    -3
390
57
  0
ENDTAB
  0
TABLE
  2
STYLE
  5
B
330
0
100
AcDbSymbolTable
 70
     3
  0
STYLE
  5
C
330
B
100
AcDbSymbolTableRecord
100
AcDbTextStyleTableRecord
  2
STANDARD
 70
     0
 40
0.0
 41
1.0
 50
0.0
 71
     0
 42
0.2
  3
txt
  4

  0
STYLE
  5
1C
330
B
100
AcDbSymbolTableRecord
100
AcDbTextStyleTableRecord
  2
SUNPOU
 70
     0
 40
0.0
 41
1.0
 50
0.0
 71
     0
 42
30.0
  3
txt
  4
bigfont
  0
STYLE
  5
14A
330
B
100
AcDbSymbolTableRecord
100
AcDbTextStyleTableRecord
  2
LIFE
 70
     0
 40
0.0
 41
0.7
 50
0.0
 71
     0
 42
10.0
  3
romans
  4
extfont
  0
ENDTAB
  0
TABLE
  2
VIEW
  5
10
330
0
100
AcDbSymbolTable
 70
     0
  0
ENDTAB
  0
TABLE
  2
UCS
  5
11
330
0
100
AcDbSymbolTable
 70
     0
  0
ENDTAB
  0
TABLE
  2
APPID
  5
14
330
0
100
AcDbSymbolTable
 70
    11
  0
APPID
  5
15
330
14
100
AcDbSymbolTableRecord
100
AcDbRegAppTableRecord
  2
ACAD
 70
     0
  0
APPID
  5
1D3
330
14
100
AcDbSymbolTableRecord
100
AcDbRegAppTableRecord
  2
ACAD_DSTYLE_DIMTEXT_FILL
 70
     0
  0
APPID
  5
1D4
330
14
100
AcDbSymbolTableRecord
100
AcDbRegAppTableRecord
  2
ACAD_DSTYLE_DIMEXT_LENGTH
 70
     0
  0
APPID
  5
1D5
330
14
100
AcDbSymbolTableRecord
100
AcDbRegAppTableRecord
  2
ACAD_DSTYLE_DIMEXT_ENABLED
 70
     0
  0
APPID
  5
1D6
330
14
100
AcDbSymbolTableRecord
100
AcDbRegAppTableRecord
  2
ACAD_DSTYLE_DIM_LINETYPE
 70
     0
  0
APPID
  5
1D7
330
14
100
AcDbSymbolTableRecord
100
AcDbRegAppTableRecord
  2
ACAD_DSTYLE_DIM_EXT1_LINETYPE
 70
     0
  0
APPID
  5
1D8
330
14
100
AcDbSymbolTableRecord
100
AcDbRegAppTableRecord
  2
ACAD_DSTYLE_DIM_EXT2_LINETYPE
 70
     0
  0
APPID
  5
294
330
14
100
AcDbSymbolTableRecord
100
AcDbRegAppTableRecord
  2
ACAD_DSTYLE_DIMJOGGED_JOGANGLE_SYMBOL
 70
     0
  0
APPID
  5
478
330
14
100
AcDbSymbolTableRecord
100
AcDbRegAppTableRecord
  2
ACAD_DSTYLE_DIMARC_LENGTH_SYMBOL
 70
     0
  0
APPID
  5
157B
330
14
100
AcDbSymbolTableRecord
100
AcDbRegAppTableRecord
  2
ACAD_EXEMPT_FROM_CAD_STANDARDS
 70
     0
  0
APPID
  5
5228
330
14
100
AcDbSymbolTableRecord
100
AcDbRegAppTableRecord
  2
ACAD_PSEXT
 70
     0
  0
ENDTAB
  0
TABLE
  2
DIMSTYLE
  5
16
330
0
100
AcDbSymbolTable
 70
     2
100
AcDbDimStyleTable
 71
     1
340
1E
  0
DIMSTYLE
105
1E
102
{ACAD_REACTORS
330
5476
330
5483
102
}
330
16
100
AcDbSymbolTableRecord
100
AcDbDimStyleTableRecord
  2
STANDARD
 70
     0
340
C
  0
ENDTAB
  0
TABLE
  2
BLOCK_RECORD
  5
1
330
0
100
AcDbSymbolTable
 70
    23
  0
BLOCK_RECORD
  5
2
102
{ACAD_XDICTIONARY
360
1578
102
}
330
1
100
AcDbSymbolTableRecord
100
AcDbBlockTableRecord
  2
*MODEL_SPACE
340
5A
  0
BLOCK_RECORD
  5
7
330
1
100
AcDbSymbolTableRecord
100
AcDbBlockTableRecord
  2
*PAPER_SPACE
340
5B
  0
BLOCK_RECORD
  5
109
330
1
100
AcDbSymbolTableRecord
100
AcDbBlockTableRecord
  2
_Dot
340
0
102
{BLKREFS
331
4802
331
4803
331
4814
331
4815
331
4958
331
4959
331
4979
331
497A
331
4B31
331
4B32
331
4B3A
331
4B3B
331
4CDE
331
4CDF
331
4CE7
331
4CE8
331
4E9D
331
4E9E
331
4EA6
331
4EA7
331
5066
331
5067
331
506F
331
5070
331
5145
331
5146
331
514E
331
514F
331
5222
331
5223
331
5265
331
5266
331
5277
331
5278
331
54E2
331
54E3
331
54F4
331
54F5
102
}
  0
BLOCK_RECORD
  5
5477
330
1
100
AcDbSymbolTableRecord
100
AcDbBlockTableRecord
  2
*D21
340
0
  0
BLOCK_RECORD
  5
5484
330
1
100
AcDbSymbolTableRecord
100
AcDbBlockTableRecord
  2
*D22
340
0
  0
ENDTAB
  0
ENDSEC
  0
SECTION
  2
BLOCKS
  0
BLOCK
  5
3
330
2
100
AcDbEntity
  8
0
100
AcDbBlockBegin
  2
*MODEL_SPACE
 70
     0
 10
0.0
 20
0.0
 30
0.0
  3
*MODEL_SPACE
  1

  0
ENDBLK
  5
6
330
2
100
AcDbEntity
  8
0
100
AcDbBlockEnd
  0
BLOCK
  5
8
330
7
100
AcDbEntity
 67
     1
  8
0
100
AcDbBlockBegin
  2
*PAPER_SPACE
 70
     0
 10
0.0
 20
0.0
 30
0.0
  3
*PAPER_SPACE
  1

  0
ENDBLK
  5
9
330
7
100
AcDbEntity
 67
     1
  8
0
100
AcDbBlockEnd
  0
BLOCK
  5
10C
330
109
100
AcDbEntity
  8
0
100
AcDbBlockBegin
  2
_Dot
 70
     0
 10
0.0
 20
0.0
 30
0.0
  3
_Dot
  1

  0
LWPOLYLINE
  5
10A
330
109
100
AcDbEntity
  8
0
  6
ByBlock
 62
     0
100
AcDbPolyline
 90
        2
 70
     1
 43
0.5
 10
-0.25
 20
0.0
 42
1.0
 10
0.25
 20
0.0
 42
1.0
  0
LINE
  5
10B
330
109
100
AcDbEntity
  8
0
  6
ByBlock
 62
     0
370
    -2
100
AcDbLine
 10
-0.5
 20
0.0
 30
0.0
 11
-1.0
 21
0.0
 31
0.0
  0
ENDBLK
  5
10D
330
109
100
AcDbEntity
  8
0
100
AcDbBlockEnd
  0
BLOCK
  5
5481
330
5477
100
AcDbEntity
  8
0
100
AcDbBlockBegin
  2
*D21
 70
     1
 10
0.0
 20
0.0
 30
0.0
  3
*D21
  1

  0
LINE
  5
54F1
330
5477
100
AcDbEntity
  8
SUNPOU
 62
    70
370
    -2
100
AcDbLine
 10
-117.3016085583576
 20
187.5212699576576
 30
0.0
 11
-117.3016085583576
 21
212.1143294005983
 31
0.0
  0
LINE
  5
54F2
330
5477
100
AcDbEntity
  8
SUNPOU
 62
    70
370
    -2
100
AcDbLine
 10
252.6983914416423
 20
190.4707910792899
 30
0.0
 11
252.6983914416423
 21
212.1143294005983
 31
0.0
  0
LINE
  5
54F3
330
5477
100
AcDbEntity
  8
SUNPOU
 62
    60
370
    -2
100
AcDbLine
 10
-115.3016085583576
 20
212.1143294005983
 30
0.0
 11
250.6983914416423
 21
212.1143294005983
 31
0.0
  0
INSERT
  5
54F4
330
5477
100
AcDbEntity
  8
SUNPOU
 62
    60
370
    -2
100
AcDbBlockReference
  2
_Dot
 10
-117.3016085583576
 20
212.1143294005983
 30
0.0
 41
2.0
 42
2.0
 43
2.0
 50
180.0
  0
INSERT
  5
54F5
330
5477
100
AcDbEntity
  8
SUNPOU
 62
    60
370
    -2
100
AcDbBlockReference
  2
_Dot
 10
252.6983914416423
 20
212.1143294005983
 30
0.0
 41
2.0
 42
2.0
 43
2.0
  0
MTEXT
  5
54F6
330
5477
100
AcDbEntity
  8
SUNPOU
 62
    60
100
AcDbMText
 10
67.69839144164234
 20
220.1143294005983
 30
0.0
 40
10.0
 41
0.0
 71
     5
 72
     1
  1
\A1;370
  7
SUNPOU
 73
     1
 44
1.0
1001
ACAD
1000
MTEXTBEGIN
1070
    73
1070
     1
1070
    44
1040
1.0
1070
    74
1070
     0
1000
MTEXTEND
  0
POINT
  5
54F7
330
5477
100
AcDbEntity
  8
DEFPOINTS
 62
     0
100
AcDbPoint
 10
-117.3016085583576
 20
177.5212699576576
 30
0.0
  0
POINT
  5
54F8
330
5477
100
AcDbEntity
  8
DEFPOINTS
 62
     0
100
AcDbPoint
 10
252.6983914416423
 20
180.4707910792899
 30
0.0
  0
POINT
  5
54F9
330
5477
100
AcDbEntity
  8
DEFPOINTS
 62
     0
100
AcDbPoint
 10
252.6983914416423
 20
212.1143294005983
 30
0.0
  0
ENDBLK
  5
5482
330
5477
100
AcDbEntity
  8
0
100
AcDbBlockEnd
  0
BLOCK
  5
548E
330
5484
100
AcDbEntity
  8
0
100
AcDbBlockBegin
  2
*D22
 70
     1
 10
0.0
 20
0.0
 30
0.0
  3
*D22
  1

  0
LINE
  5
54DF
330
5484
100
AcDbEntity
  8
SUNPOU
 62
    70
370
    -2
100
AcDbLine
 10
-127.3016085583576
 20
177.5212699576576
 30
0.0
 11
-155.6732829511165
 21
177.5212699576576
 31
0.0
  0
LINE
  5
54E0
330
5484
100
AcDbEntity
  8
SUNPOU
 62
    70
370
    -2
100
AcDbLine
 10
-124.7008986169198
 20
62.52126995765753
 30
0.0
 11
-155.6732829511166
 21
62.52126995765753
 31
0.0
  0
LINE
  5
54E1
330
5484
100
AcDbEntity
  8
SUNPOU
 62
    60
370
    -2
100
AcDbLine
 10
-155.6732829511165
 20
175.5212699576575
 30
0.0
 11
-155.6732829511165
 21
64.52126995765752
 31
0.0
  0
INSERT
  5
54E2
330
5484
100
AcDbEntity
  8
SUNPOU
 62
    60
370
    -2
100
AcDbBlockReference
  2
_Dot
 10
-155.6732829511165
 20
177.5212699576576
 30
0.0
 41
2.0
 42
2.0
 43
2.0
 50
90.0
  0
INSERT
  5
54E3
330
5484
100
AcDbEntity
  8
SUNPOU
 62
    60
370
    -2
100
AcDbBlockReference
  2
_Dot
 10
-155.6732829511166
 20
62.52126995765753
 30
0.0
 41
2.0
 42
2.0
 43
2.0
 50
270.0
  0
MTEXT
  5
54E4
330
5484
100
AcDbEntity
  8
SUNPOU
 62
    60
100
AcDbMText
 10
-163.6732829511166
 20
120.0212699576575
 30
0.0
 40
10.0
 41
0.0
 71
     5
 72
     1
  1
\A1;115
  7
SUNPOU
 11
0.0000000000000001
 21
1.0
 31
0.0
 73
     1
 44
1.0
1001
ACAD
1000
MTEXTBEGIN
1070
    73
1070
     1
1070
    44
1040
1.0
1070
    74
1070
     0
1000
MTEXTEND
  0
POINT
  5
54E5
330
5484
100
AcDbEntity
  8
DEFPOINTS
 62
     0
100
AcDbPoint
 10
-117.3016085583576
 20
177.5212699576576
 30
0.0
  0
POINT
  5
54E6
330
5484
100
AcDbEntity
  8
DEFPOINTS
 62
     0
100
AcDbPoint
 10
-114.7008986169198
 20
62.52126995765753
 30
0.0
  0
POINT
  5
54E7
330
5484
100
AcDbEntity
  8
DEFPOINTS
 62
     0
100
AcDbPoint
 10
-155.6732829511166
 20
62.52126995765753
 30
0.0
  0
ENDBLK
  5
548F
330
5484
100
AcDbEntity
  8
0
100
AcDbBlockEnd
  0
ENDSEC
  0
SECTION
  2
ENTITIES
  0
LINE
  5
1F
330
2
100
AcDbEntity
  8
WAKU
100
AcDbLine
 10
0.0
 20
14.0
 30
0.0
 11
141.2350666841796
 21
14.0
 31
0.0
  0
LINE
  5
20
330
2
100
AcDbEntity
  8
WAKU
100
AcDbLine
 10
0.0
 20
0.0
 30
0.0
 11
141.2350666841796
 21
0.0
 31
0.0
  0
TEXT
  5
21
330
2
100
AcDbEntity
  8
HOJO
100
AcDbText
 10
9.653966000000025
 20
2.366626000000024
 30
0.0
 40
9.0
  1
TC313
  7
SUNPOU
100
AcDbText
  0
TEXT
  5
23
330
2
100
AcDbEntity
  8
HOJO
100
AcDbText
 10
75.65253479254602
 20
5.044386000000031
 30
0.0
 40
6.0
  1
370×115×6
  7
SUNPOU
100
AcDbText
  0
ELLIPSE
  5
5337
102
{ACAD_REACTORS
330
54FA
102
}
330
2
100
AcDbEntity
  8
KIJUN
100
AcDbEllipse
 10
67.69839144164234
 20
120.3758582243524
 30
0.0
 11
-8.926646750536749
 21
-0.0000000000000022
 31
0.0
210
0.0
220
0.0
230
-1.0
 40
0.1444826207160872
 41
3.141592653589792
 42
6.283185307179584
  0
ELLIPSE
  5
5338
102
{ACAD_REACTORS
330
54FA
102
}
330
2
100
AcDbEntity
  8
KIJUN
100
AcDbEllipse
 10
67.69839144164234
 20
125.6451723365524
 30
0.0
 11
-8.926646750536749
 21
-0.0000000000000022
 31
0.0
210
0.0
220
0.0
230
-1.0
 40
0.1444826207160872
 41
3.141592653589792
 42
6.283185307179584
  0
ELLIPSE
  5
5339
102
{ACAD_REACTORS
330
54FA
102
}
330
2
100
AcDbEntity
  8
KIJUN
100
AcDbEllipse
 10
67.69839144164234
 20
123.1202815090863
 30
0.0
 11
-8.926646750536749
 21
-0.0000000000000022
 31
0.0
210
0.0
220
0.0
230
-1.0
 40
0.1444826207160872
 41
3.141592653589792
 42
6.283185307179584
  0
ELLIPSE
  5
533A
102
{ACAD_REACTORS
330
54FA
102
}
330
2
100
AcDbEntity
  8
KIJUN
100
AcDbEllipse
 10
67.69839144164234
 20
127.9504992280625
 30
0.0
 11
-8.926646750536749
 21
-0.0000000000000022
 31
0.0
210
0.0
220
0.0
230
-1.0
 40
0.1444826207160872
 41
3.141592653589792
 42
6.283185307179584
  0
ELLIPSE
  5
5341
102
{ACAD_REACTORS
330
54FA
102
}
330
2
100
AcDbEntity
  8
KIJUN
100
AcDbEllipse
 10
67.69839144162824
 20
127.9504992280625
 30
0.0
 11
8.926646750536749
 21
0.0000000000000022
 31
0.0
210
0.0
220
0.0
230
1.0
 40
0.1444826207160872
 41
3.141592653589792
 42
6.283185307179584
  0
ARC
  5
5352
102
{ACAD_REACTORS
330
54FA
102
}
330
2
100
AcDbEntity
  8
KIJUN
100
AcDbCircle
 10
90.30849639661846
 20
147.1741968477498
 30
0.0
 40
13.94313809720555
100
AcDbArc
 50
128.4260848751359
 51
220.9421429250961
  0
ARC
  5
5353
102
{ACAD_REACTORS
330
54FA
102
}
330
2
100
AcDbEntity
  8
KIJUN
100
AcDbCircle
 10
165.6193553836989
 20
144.1780249150984
 30
0.0
 40
93.99497236694836
100
AcDbArc
 50
166.2590849741613
 51
185.076249563352
  0
ARC
  5
5354
102
{ACAD_REACTORS
330
54FA
102
}
330
2
100
AcDbEntity
  8
KIJUN
100
AcDbCircle
 10
138.1114967063836
 20
142.7857114911368
 30
0.0
 40
69.61482019660886
100
AcDbArc
 50
165.3231441534246
 51
184.3122518657436
  0
ARC
  5
5355
102
{ACAD_REACTORS
330
54FA
102
}
330
2
100
AcDbEntity
  8
KIJUN
100
AcDbCircle
 10
-2.714713823100737
 20
142.7857114911368
 30
0.0
 40
69.61482019660886
100
AcDbArc
 50
355.6877481342563
 51
14.67685584657539
  0
ARC
  5
5356
102
{ACAD_REACTORS
330
54FA
102
}
330
2
100
AcDbEntity
  8
KIJUN
100
AcDbCircle
 10
-30.22257249953341
 20
144.1780249150811
 30
0.0
 40
93.99497236606944
100
AcDbArc
 50
354.923750436611
 51
13.7409150259806
  0
ARC
  5
5357
102
{ACAD_REACTORS
330
54FA
102
}
330
2
100
AcDbEntity
  8
KIJUN
100
AcDbCircle
 10
45.08828648666622
 20
147.1741968477498
 30
0.0
 40
13.94313809720555
100
AcDbArc
 50
319.0578570749039
 51
51.57391512486409
  0
LINE
  5
5358
102
{ACAD_REACTORS
330
54FA
102
}
330
2
100
AcDbEntity
  8
KIJUN
100
AcDbLine
 10
72.6820897982916
 20
74.85071625318119
 30
0.0
 11
75.84028593588346
 21
69.34564241363012
 31
0.0
  0
LINE
  5
5359
102
{ACAD_REACTORS
330
54FA
102
}
330
2
100
AcDbEntity
  8
KIJUN
100
AcDbLine
 10
62.85651793823536
 20
74.04997680930614
 30
0.0
 11
59.2471405287879
 21
68.79512715999476
 31
0.0
  0
LINE
  5
535A
102
{ACAD_REACTORS
330
54FA
102
}
330
2
100
AcDbEntity
  8
KIJUN
100
AcDbLine
 10
73.383911162201
 20
76.50224627472107
 30
0.0
 11
78.19642650234982
 21
71.59770734389076
 31
0.0
  0
LINE
  5
535B
102
{ACAD_REACTORS
330
54FA
102
}
330
2
100
AcDbEntity
  8
KIJUN
100
AcDbLine
 10
63.65860989203065
 20
76.70241933118723
 30
0.0
 11
57.89363309590453
 21
72.39844678776648
 31
0.0
  0
LINE
  5
535C
102
{ACAD_REACTORS
330
54FA
102
}
330
2
100
AcDbEntity
  8
KIJUN
100
AcDbLine
 10
68.47112523217948
 20
72.29836025954046
 30
0.0
 11
66.16511996066447
 21
71.19734549162149
 31
0.0
  0
LINE
  5
535D
102
{ACAD_REACTORS
330
54FA
102
}
330
2
100
AcDbEntity
  8
KIJUN
100
AcDbLine
 10
68.32071934734358
 20
68.94526482200944
 30
0.0
 11
65.61370448157777
 21
67.94433658233083
 31
0.0
  0
LINE
  5
535E
102
{ACAD_REACTORS
330
54FA
102
}
330
2
100
AcDbEntity
  8
KIJUN
100
AcDbLine
 10
76.62503819217954
 20
114.0270970871997
 30
0.0
 11
76.62503819217954
 21
129.240244544816
 31
0.0
  0
LINE
  5
535F
102
{ACAD_REACTORS
330
54FA
102
}
330
2
100
AcDbEntity
  8
KIJUN
100
AcDbLine
 10
58.77174469110468
 20
114.0270970871997
 30
0.0
 11
58.77174469110468
 21
129.240244544816
 31
0.0
  0
LINE
  5
5360
102
{ACAD_REACTORS
330
54FA
102
}
330
2
100
AcDbEntity
  8
KIJUN
100
AcDbLine
 10
76.62503819217954
 20
129.240244544816
 30
0.0
 11
67.69839144164234
 21
129.2402445448015
 31
0.0
  0
LINE
  5
5361
102
{ACAD_REACTORS
330
54FA
102
}
330
2
100
AcDbEntity
  8
KIJUN
100
AcDbLine
 10
58.77174469110468
 20
129.240244544816
 30
0.0
 11
67.69839144164234
 21
129.2402445448015
 31
0.0
  0
ARC
  5
5362
102
{ACAD_REACTORS
330
54FA
102
}
330
2
100
AcDbEntity
  8
KIJUN
100
AcDbCircle
 10
73.67959605040323
 20
137.9271966071007
 30
0.0
 40
5.0
100
AcDbArc
 50
184.3122518665661
 51
218.0374321469774
  0
ARC
  5
5363
102
{ACAD_REACTORS
330
54FA
102
}
330
2
100
AcDbEntity
  8
KIJUN
100
AcDbCircle
 10
61.71718683288145
 20
137.9271966071007
 30
0.0
 40
5.0
100
AcDbArc
 50
321.9625678530226
 51
355.6877481334338
  0
LINE
  5
5364
102
{ACAD_REACTORS
330
54FA
102
}
330
2
100
AcDbEntity
  8
KIJUN
100
AcDbLine
 10
76.62503819216408
 20
129.240244544816
 30
0.0
 11
67.69839144162824
 21
129.2402445448015
 31
0.0
  0
LINE
  5
5365
102
{ACAD_REACTORS
330
54FA
102
}
330
2
100
AcDbEntity
  8
KIJUN
100
AcDbLine
 10
58.77174469109104
 20
129.240244544816
 30
0.0
 11
67.69839144162824
 21
129.2402445448015
 31
0.0
  0
ARC
  5
5366
102
{ACAD_REACTORS
330
54FA
102
}
330
2
100
AcDbEntity
  8
KIJUN
100
AcDbCircle
 10
68.49095478056643
 20
112.9774970999924
 30
0.0
 40
5.0
100
AcDbArc
 50
337.5000000005751
 51
86.97122063433626
  0
ARC
  5
5367
102
{ACAD_REACTORS
330
54FA
102
}
330
2
100
AcDbEntity
  8
KIJUN
100
AcDbCircle
 10
66.90582810274645
 20
112.9774970999924
 30
0.0
 40
5.0
100
AcDbArc
 50
93.02877936566373
 51
202.5000000001904
  0
LINE
  5
5368
102
{ACAD_REACTORS
330
54FA
102
}
330
2
100
AcDbEntity
  8
KIJUN
100
AcDbLine
 10
68.75514256019141
 20
117.9705127035041
 30
0.0
 11
66.64164032310555
 21
117.9705127035041
 31
0.0
  0
LINE
  5
5369
102
{ACAD_REACTORS
330
54FA
102
}
330
2
100
AcDbEntity
  8
KIJUN
100
AcDbLine
 10
72.31778910419371
 20
99.91186745122002
 30
0.0
 11
80.76402109038554
 21
103.4104112908451
 31
0.0
  0
ARC
  5
536A
102
{ACAD_REACTORS
330
54FA
102
}
330
2
100
AcDbEntity
  8
KIJUN
100
AcDbCircle
 10
77.72975010565369
 20
109.1506627763364
 30
0.0
 40
5.0
100
AcDbArc
 50
48.0287793654735
 51
157.5000000005751
  0
LINE
  5
536B
102
{ACAD_REACTORS
330
54FA
102
}
330
2
100
AcDbEntity
  8
KIJUN
100
AcDbLine
 10
80.76402109039964
 20
92.58648928792444
 30
0.0
 11
72.31778910419371
 21
96.0850331275642
 31
0.0
  0
ARC
  5
536C
102
{ACAD_REACTORS
330
54FA
102
}
330
2
100
AcDbEntity
  8
KIJUN
100
AcDbCircle
 10
77.7297501056396
 20
86.84623780244772
 30
0.0
 40
5.0
100
AcDbArc
 50
202.5000000001904
 51
311.9712206345265
  0
LINE
  5
536D
102
{ACAD_REACTORS
330
54FA
102
}
330
2
100
AcDbEntity
  8
KIJUN
100
AcDbLine
 10
72.31778910419371
 20
96.0850331275642
 30
0.0
 11
80.76402109038554
 21
92.58648928792444
 31
0.0
  0
ARC
  5
536E
102
{ACAD_REACTORS
330
54FA
102
}
330
2
100
AcDbEntity
  8
KIJUN
100
AcDbCircle
 10
68.49095478053641
 20
83.01940347880634
 30
0.0
 40
5.0
100
AcDbArc
 50
273.0287793656637
 51
22.50000000019042
  0
LINE
  5
536F
102
{ACAD_REACTORS
330
54FA
102
}
330
2
100
AcDbEntity
  8
KIJUN
100
AcDbLine
 10
82.56800809087327
 20
111.373595174743
 30
0.0
 11
81.0735363269714
 21
112.868066938644
 31
0.0
  0
LINE
  5
5370
102
{ACAD_REACTORS
330
54FA
102
}
330
2
100
AcDbEntity
  8
KIJUN
100
AcDbLine
 10
82.56800809087327
 20
84.62330540401206
 30
0.0
 11
81.0735363269714
 21
83.12883364011112
 31
0.0
  0
LINE
  5
5371
102
{ACAD_REACTORS
330
54FA
102
}
330
2
100
AcDbEntity
  8
KIJUN
100
AcDbLine
 10
87.67045385574647
 20
99.05520140795022
 30
0.0
 11
87.67045385576148
 21
96.94169917086311
 31
0.0
  0
ARC
  5
5372
102
{ACAD_REACTORS
330
54FA
102
}
330
2
100
AcDbEntity
  8
KIJUN
100
AcDbCircle
 10
78.85060392857941
 20
108.0298089534109
 30
0.0
 40
5.0
100
AcDbArc
 50
292.4999999999635
 51
41.97122063485323
  0
ARC
  5
5373
102
{ACAD_REACTORS
330
54FA
102
}
330
2
100
AcDbEntity
  8
KIJUN
100
AcDbCircle
 10
82.67743825223305
 20
97.20588695050436
 30
0.0
 40
5.0
100
AcDbArc
 50
247.5000000000365
 51
356.9712206347542
  0
ARC
  5
5374
102
{ACAD_REACTORS
330
54FA
102
}
330
2
100
AcDbEntity
  8
KIJUN
100
AcDbCircle
 10
82.67743825221987
 20
98.79101362832352
 30
0.0
 40
5.0
100
AcDbArc
 50
3.028779365245773
 51
112.4999999999635
  0
ARC
  5
5375
102
{ACAD_REACTORS
330
54FA
102
}
330
2
100
AcDbEntity
  8
KIJUN
100
AcDbCircle
 10
78.8506039285644
 20
87.96709162537343
 30
0.0
 40
5.0
100
AcDbArc
 50
318.0287793651467
 51
67.50000000003651
  0
LINE
  5
5376
102
{ACAD_REACTORS
330
54FA
102
}
330
2
100
AcDbEntity
  8
KIJUN
100
AcDbLine
 10
47.72632902750729
 20
97.99845028923938
 30
0.0
 11
47.72632902753776
 21
95.88494805215203
 31
0.0
  0
LINE
  5
5377
102
{ACAD_REACTORS
330
54FA
102
}
330
2
100
AcDbEntity
  8
KIJUN
100
AcDbLine
 10
54.32324655628327
 20
112.8680669386292
 30
0.0
 11
52.82877479238277
 21
111.373595174743
 31
0.0
  0
LINE
  5
5378
102
{ACAD_REACTORS
330
54FA
102
}
330
2
100
AcDbEntity
  8
KIJUN
100
AcDbLine
 10
47.72632902750729
 20
99.05520140787757
 30
0.0
 11
47.7263290275223
 21
96.94169917083412
 31
0.0
  0
LINE
  5
5379
102
{ACAD_REACTORS
330
54FA
102
}
330
2
100
AcDbEntity
  8
KIJUN
100
AcDbLine
 10
54.32324655628327
 20
83.12883364014044
 30
0.0
 11
52.82877479238277
 21
84.62330540404115
 31
0.0
  0
LINE
  5
537A
102
{ACAD_REACTORS
330
54FA
102
}
330
2
100
AcDbEntity
  8
KIJUN
100
AcDbLine
 10
68.75514256016322
 20
78.02638787526553
 30
0.0
 11
66.64164032309145
 21
78.02638787526553
 31
0.0
  0
LINE
  5
537B
102
{ACAD_REACTORS
330
54FA
102
}
330
2
100
AcDbEntity
  8
KIJUN
100
AcDbLine
 10
69.61180860346257
 20
102.6178479519504
 30
0.0
 11
73.11035244308823
 21
111.0640799381279
 31
0.0
  0
LINE
  5
537C
102
{ACAD_REACTORS
330
54FA
102
}
330
2
100
AcDbEntity
  8
KIJUN
100
AcDbLine
 10
73.11035244310232
 20
84.93282064061236
 30
0.0
 11
69.61180860346257
 21
93.37905262683397
 31
0.0
  0
LINE
  5
537D
102
{ACAD_REACTORS
330
54FA
102
}
330
2
100
AcDbEntity
  8
KIJUN
100
AcDbLine
 10
69.61180860346257
 20
93.37905262683397
 30
0.0
 11
73.11035244310232
 21
84.93282064061236
 31
0.0
  0
ARC
  5
537E
102
{ACAD_REACTORS
330
54FA
102
}
330
2
100
AcDbEntity
  8
KIJUN
100
AcDbCircle
 10
66.90582810273236
 20
83.01940347880634
 30
0.0
 40
5.0
100
AcDbArc
 50
157.4999999998096
 51
266.9712206343362
  0
LINE
  5
537F
102
{ACAD_REACTORS
330
54FA
102
}
330
2
100
AcDbEntity
  8
KIJUN
100
AcDbLine
 10
62.28643044016644
 20
84.93282064061236
 30
0.0
 11
65.78497427980528
 21
93.37905262683397
 31
0.0
  0
ARC
  5
5380
102
{ACAD_REACTORS
330
54FA
102
}
330
2
100
AcDbEntity
  8
KIJUN
100
AcDbCircle
 10
57.66703277761644
 20
86.84623780246239
 30
0.0
 40
5.0
100
AcDbArc
 50
228.0287793654735
 51
337.4999999998096
  0
LINE
  5
5381
102
{ACAD_REACTORS
330
54FA
102
}
330
2
100
AcDbEntity
  8
KIJUN
100
AcDbLine
 10
65.78497427980528
 20
93.37905262683397
 30
0.0
 11
62.28643044018054
 21
84.93282064062714
 31
0.0
  0
ARC
  5
5382
102
{ACAD_REACTORS
330
54FA
102
}
330
2
100
AcDbEntity
  8
KIJUN
100
AcDbCircle
 10
56.54617895470574
 20
87.96709162538808
 30
0.0
 40
5.0
100
AcDbArc
 50
112.4999999999635
 51
221.9712206342301
  0
LINE
  5
5383
102
{ACAD_REACTORS
330
54FA
102
}
330
2
100
AcDbEntity
  8
KIJUN
100
AcDbLine
 10
63.07899377907642
 20
96.0850331275642
 30
0.0
 11
54.63276179286913
 21
92.58648928791002
 31
0.0
  0
LINE
  5
5384
102
{ACAD_REACTORS
330
54FA
102
}
330
2
100
AcDbEntity
  8
KIJUN
100
AcDbLine
 10
54.63276179286913
 20
92.58648928792444
 30
0.0
 11
63.07899377907642
 21
96.0850331275642
 31
0.0
  0
LINE
  5
5385
102
{ACAD_REACTORS
330
54FA
102
}
330
2
100
AcDbEntity
  8
KIJUN
100
AcDbLine
 10
54.63276179286913
 20
103.4104112908307
 30
0.0
 11
63.07899377907642
 21
99.91186745120536
 31
0.0
  0
ARC
  5
5386
102
{ACAD_REACTORS
330
54FA
102
}
330
2
100
AcDbEntity
  8
KIJUN
100
AcDbCircle
 10
56.54617895470574
 20
108.0298089534253
 30
0.0
 40
5.0
100
AcDbArc
 50
138.0287793657698
 51
247.5000000000365
  0
ARC
  5
5387
102
{ACAD_REACTORS
330
54FA
102
}
330
2
100
AcDbEntity
  8
KIJUN
100
AcDbCircle
 10
57.66703277761644
 20
109.1506627763364
 30
0.0
 40
5.0
100
AcDbArc
 50
22.49999999942486
 51
131.9712206345265
  0
LINE
  5
5388
102
{ACAD_REACTORS
330
54FA
102
}
330
2
100
AcDbEntity
  8
KIJUN
100
AcDbLine
 10
62.28643044018054
 20
111.0640799381279
 30
0.0
 11
65.78497427980528
 21
102.6178479519361
 31
0.0
  0
LINE
  5
5389
102
{ACAD_REACTORS
330
54FA
102
}
330
2
100
AcDbEntity
  8
KIJUN
100
AcDbLine
 10
73.11035244310232
 20
111.0640799381717
 30
0.0
 11
69.61180860346257
 21
102.6178479519361
 31
0.0
  0
CIRCLE
  5
538A
102
{ACAD_REACTORS
330
54FA
102
}
330
2
100
AcDbEntity
  8
KIJUN
100
AcDbCircle
 10
67.69839144164234
 20
97.99845028939945
 30
0.0
 40
5.0
  0
ARC
  5
538B
102
{ACAD_REACTORS
330
54FA
102
}
330
2
100
AcDbEntity
  8
KIJUN
100
AcDbCircle
 10
52.7193446310639
 20
97.20588695048958
 30
0.0
 40
5.0
100
AcDbArc
 50
183.0287793652457
 51
292.4999999999635
  0
ARC
  5
538C
102
{ACAD_REACTORS
330
54FA
102
}
330
2
100
AcDbEntity
  8
KIJUN
100
AcDbCircle
 10
52.7193446310498
 20
98.7910136282651
 30
0.0
 40
5.0
100
AcDbArc
 50
67.50000000003651
 51
176.9712206347542
  0
LINE
  5
538D
102
{ACAD_REACTORS
330
54FA
102
}
330
2
100
AcDbEntity
  8
KIJUN
100
AcDbLine
 10
83.6091284825602
 20
139.9207549455377
 30
0.0
 11
85.35067487860942
 21
145.4072801572968
 31
0.0
  0
LINE
  5
538E
102
{ACAD_REACTORS
330
54FA
102
}
330
2
100
AcDbEntity
  8
KIJUN
100
AcDbLine
 10
51.78765440069446
 20
139.9207549455377
 30
0.0
 11
50.04610800467435
 21
145.4072801572968
 31
0.0
  0
CIRCLE
  5
538F
102
{ACAD_REACTORS
330
54FA
102
}
330
2
100
AcDbEntity
  8
KIJUN
100
AcDbCircle
 10
67.69839144164234
 20
173.2194537052189
 30
0.0
 40
4.301816252438584
  0
ARC
  5
5390
102
{ACAD_REACTORS
330
54FA
102
}
330
2
100
AcDbEntity
  8
KIJUN
100
AcDbCircle
 10
591.6559254304894
 20
61.52373224693253
 30
0.0
 40
530.1936014782112
100
AcDbArc
 50
168.4314670666077
 51
169.2493134923373
  0
LINE
  5
5391
102
{ACAD_REACTORS
330
54FA
102
}
330
2
100
AcDbEntity
  8
KIJUN
100
AcDbLine
 10
84.89368440947874
 20
154.2822675871188
 30
0.0
 11
85.95111402052181
 21
151.8761328757158
 31
0.0
  0
LINE
  5
5392
102
{ACAD_REACTORS
330
54FA
102
}
330
2
100
AcDbEntity
  8
KIJUN
100
AcDbLine
 10
85.95111402052181
 20
151.8761328757158
 30
0.0
 11
86.70019030004278
 21
150.6027365026588
 31
0.0
  0
LINE
  5
5393
102
{ACAD_REACTORS
330
54FA
102
}
330
2
100
AcDbEntity
  8
KIJUN
100
AcDbLine
 10
49.44566886274788
 20
151.8761328757158
 30
0.0
 11
48.69659258321144
 21
150.6027365026588
 31
0.0
  0
LINE
  5
5394
102
{ACAD_REACTORS
330
54FA
102
}
330
2
100
AcDbEntity
  8
KIJUN
100
AcDbLine
 10
50.50309847377684
 20
154.2822675871188
 30
0.0
 11
49.44566886274788
 21
151.8761328757158
 31
0.0
  0
ARC
  5
5395
102
{ACAD_REACTORS
330
54FA
102
}
330
2
100
AcDbEntity
  8
KIJUN
100
AcDbCircle
 10
34.45378926463719
 20
158.3280721510475
 30
0.0
 40
30.24748917611186
100
AcDbArc
 50
3.97302434329149
 51
18.34619509817532
  0
CIRCLE
  5
5396
102
{ACAD_REACTORS
330
54FA
102
}
330
2
100
AcDbEntity
  8
KIJUN
100
AcDbCircle
 10
67.69839144161415
 20
173.2194537052189
 30
0.0
 40
4.301816252438584
  0
ARC
  5
5397
102
{ACAD_REACTORS
330
54FA
102
}
330
2
100
AcDbEntity
  8
KIJUN
100
AcDbCircle
 10
81.03298030291204
 20
48.7694501829695
 30
0.0
 40
36.5300143231515
100
AcDbArc
 50
120.1657710889219
 51
126.4960837338658
  0
ARC
  5
5398
102
{ACAD_REACTORS
330
54FA
102
}
330
2
100
AcDbEntity
  8
KIJUN
100
AcDbCircle
 10
66.32146902975446
 20
68.24599603240928
 30
0.0
 40
12.12535936394293
100
AcDbArc
 50
125.350011067242
 51
180.9799908265499
  0
ARC
  5
5399
102
{ACAD_REACTORS
330
54FA
102
}
330
2
100
AcDbEntity
  8
KIJUN
100
AcDbCircle
 10
23.57916867374025
 20
78.69384152252846
 30
0.0
 40
42.7978667924751
100
AcDbArc
 50
355.8909547288001
 51
359.1352980003766
  0
ARC
  5
539A
102
{ACAD_REACTORS
330
54FA
102
}
330
2
100
AcDbEntity
  8
KIJUN
100
AcDbCircle
 10
56.02424359123989
 20
76.00548226691778
 30
0.0
 40
10.24976346422185
100
AcDbArc
 50
314.9484800286547
 51
357.8847365938391
  0
ARC
  5
539B
102
{ACAD_REACTORS
330
54FA
102
}
330
2
100
AcDbEntity
  8
KIJUN
100
AcDbCircle
 10
52.11329712909986
 20
79.61568141753154
 30
0.0
 40
15.56934163917563
100
AcDbArc
 50
294.6687460759031
 51
315.7487029049936
  0
ARC
  5
539C
102
{ACAD_REACTORS
330
54FA
102
}
330
2
100
AcDbEntity
  8
KIJUN
100
AcDbCircle
 10
55.79050221915431
 20
72.04881654596815
 30
0.0
 40
7.16064831043583
100
AcDbArc
 50
282.4772048082289
 51
293.2009915883071
  0
ARC
  5
539D
102
{ACAD_REACTORS
330
54FA
102
}
330
2
100
AcDbEntity
  8
KIJUN
100
AcDbCircle
 10
60.21115677201223
 20
68.15581146209765
 30
0.0
 40
6.01441550252978
100
AcDbArc
 50
181.1165492884136
 51
195.2927490987073
  0
ARC
  5
539E
102
{ACAD_REACTORS
330
54FA
102
}
330
2
100
AcDbEntity
  8
KIJUN
100
AcDbCircle
 10
57.14921135542429
 20
67.38003229078529
 30
0.0
 40
2.856893717372115
100
AcDbArc
 50
196.4817440833547
 51
220.0352561829336
  0
ARC
  5
539F
102
{ACAD_REACTORS
330
54FA
102
}
330
2
100
AcDbEntity
  8
KIJUN
100
AcDbCircle
 10
56.25871425098312
 20
66.76451114481586
 30
0.0
 40
1.782041887553871
100
AcDbArc
 50
223.3019450403244
 51
257.6172513519392
  0
ARC
  5
53A1
102
{ACAD_REACTORS
330
54FA
102
}
330
2
100
AcDbEntity
  8
KIJUN
100
AcDbCircle
 10
56.52688383491696
 20
68.55202410633438
 30
0.0
 40
3.587532503638236
100
AcDbArc
 50
259.5562436806019
 51
283.060090691112
  0
ARC
  5
53A2
102
{ACAD_REACTORS
330
54FA
102
}
330
2
100
AcDbEntity
  8
KIJUN
100
AcDbCircle
 10
70.82420131152169
 20
165.8572738140505
 30
0.0
 40
10.71553014204656
100
AcDbArc
 50
133.7583127453535
 51
143.4142152871803
  0
ARC
  5
53A3
102
{ACAD_REACTORS
330
54FA
102
}
330
2
100
AcDbEntity
  8
KIJUN
100
AcDbCircle
 10
66.16453231343186
 20
171.3449134968379
 30
0.0
 40
4.607331389903611
100
AcDbArc
 50
200.5918972621383
 51
229.361655710967
  0
ARC
  5
53A4
102
{ACAD_REACTORS
330
54FA
102
}
330
2
100
AcDbEntity
  8
KIJUN
100
AcDbCircle
 10
64.30436902789644
 20
170.65250007454
 30
0.0
 40
2.622494057797279
100
AcDbArc
 50
142.6366978678132
 51
200.7243396224885
  0
ARC
  5
53A5
102
{ACAD_REACTORS
330
54FA
102
}
330
2
100
AcDbEntity
  8
KIJUN
100
AcDbCircle
 10
65.26354712238291
 20
165.0461227593853
 30
0.0
 40
7.167496155617396
100
AcDbArc
 50
119.3107440784839
 51
133.6446635856382
  0
ARC
  5
53A6
102
{ACAD_REACTORS
330
54FA
102
}
330
2
100
AcDbEntity
  8
KIJUN
100
AcDbCircle
 10
70.79274577108328
 20
173.07990874378
 30
0.0
 40
11.72713226345037
100
AcDbArc
 50
202.6142831999648
 51
214.1023280501922
  0
ARC
  5
53A9
102
{ACAD_REACTORS
330
54FA
102
}
330
2
100
AcDbEntity
  8
KIJUN
100
AcDbCircle
 10
61.35193283192074
 20
169.1473160389797
 30
0.0
 40
1.5
100
AcDbArc
 50
133.6446635856384
 51
202.614283199965
  0
ARC
  5
53AA
102
{ACAD_REACTORS
330
54FA
102
}
330
2
100
AcDbEntity
  8
KIJUN
100
AcDbCircle
 10
54.60803009496802
 20
145.5511527111489
 30
0.0
 40
24.21106146035518
100
AcDbArc
 50
77.48980664243193
 51
85.01295873221833
  0
ARC
  5
53AB
102
{ACAD_REACTORS
330
54FA
102
}
330
2
100
AcDbEntity
  8
KIJUN
100
AcDbCircle
 10
24.87427042028777
 20
163.4579677399263
 30
0.0
 40
29.47403894473835
100
AcDbArc
 50
355.0691564830542
 51
8.002682465416851
  0
ARC
  5
53AC
102
{ACAD_REACTORS
330
54FA
102
}
330
2
100
AcDbEntity
  8
KIJUN
100
AcDbCircle
 10
57.46025288793152
 20
168.0372034991418
 30
0.0
 40
3.432125927115089
100
AcDbArc
 50
169.0367725217852
 51
187.9699310430734
  0
ARC
  5
53AD
102
{ACAD_REACTORS
330
54FA
102
}
330
2
100
AcDbEntity
  8
KIJUN
100
AcDbCircle
 10
56.19066184913193
 20
162.6987535726067
 30
0.0
 40
6.991324825408122
100
AcDbArc
 50
85.7177058314887
 51
95.04851624952054
  0
ARC
  5
53AE
102
{ACAD_REACTORS
330
54FA
102
}
330
2
100
AcDbEntity
  8
KIJUN
100
AcDbCircle
 10
55.7617162313985
 20
167.4043620803047
 30
0.0
 40
2.266263033603235
100
AcDbArc
 50
94.71500653905023
 51
125.0944188450688
  0
ARC
  5
53AF
102
{ACAD_REACTORS
330
54FA
102
}
330
2
100
AcDbEntity
  8
KIJUN
100
AcDbCircle
 10
55.34902003615982
 20
168.2791201706737
 30
0.0
 40
1.323617434099536
100
AcDbArc
 50
132.266370756887
 51
161.9189129002657
  0
ARC
  5
53B0
102
{ACAD_REACTORS
330
54FA
102
}
330
2
100
AcDbEntity
  8
KIJUN
100
AcDbCircle
 10
51.35815422377547
 20
160.7632656817012
 30
0.0
 40
2.885589158257437
100
AcDbArc
 50
348.1573338818129
 51
3.204658911845919
  0
ARC
  5
53B2
102
{ACAD_REACTORS
330
54FA
102
}
330
2
100
AcDbEntity
  8
KIJUN
100
AcDbCircle
 10
53.11397009543911
 20
160.3250424307043
 30
0.0
 40
1.079391254306517
100
AcDbArc
 50
295.3559103569284
 51
351.7989736808245
  0
ARC
  5
53B3
102
{ACAD_REACTORS
330
54FA
102
}
330
2
100
AcDbEntity
  8
KIJUN
100
AcDbCircle
 10
51.5908331095586
 20
164.6948220946509
 30
0.0
 40
5.701995147260207
100
AcDbArc
 50
284.0027027187082
 51
290.3766224396064
  0
ARC
  5
53B4
102
{ACAD_REACTORS
330
54FA
102
}
330
2
100
AcDbEntity
  8
KIJUN
100
AcDbCircle
 10
55.67807664569761
 20
161.2371226249462
 30
0.0
 40
3.6823768344894
100
AcDbArc
 50
219.2635624763845
 51
238.4994452739728
  0
ARC
  5
53B5
102
{ACAD_REACTORS
330
54FA
102
}
330
2
100
AcDbEntity
  8
KIJUN
100
AcDbCircle
 10
52.97030598890006
 20
158.9942785949906
 30
0.0
 40
0.1679872045494268
100
AcDbArc
 50
160.7327267969246
 51
211.4669161270047
  0
ARC
  5
53B6
102
{ACAD_REACTORS
330
54FA
102
}
330
2
100
AcDbEntity
  8
KIJUN
100
AcDbCircle
 10
53.03504672211147
 20
158.9029363055853
 30
0.0
 40
0.2672338180676301
100
AcDbArc
 50
103.9702700285732
 51
146.685519357602
  0
ARC
  5
53B7
102
{ACAD_REACTORS
330
54FA
102
}
330
2
100
AcDbEntity
  8
KIJUN
100
AcDbCircle
 10
50.36056890048665
 20
139.5966004058859
 30
0.0
 40
18.80943868413557
100
AcDbArc
 50
79.60626534208464
 51
83.59813961639124
  0
ARC
  5
53B8
102
{ACAD_REACTORS
330
54FA
102
}
330
2
100
AcDbEntity
  8
KIJUN
100
AcDbCircle
 10
52.05110454132238
 20
153.7592590045755
 30
0.0
 40
4.547715585191888
100
AcDbArc
 50
84.86871403644693
 51
94.87474746030491
  0
ARC
  5
53B9
102
{ACAD_REACTORS
330
54FA
102
}
330
2
100
AcDbEntity
  8
KIJUN
100
AcDbCircle
 10
51.72535740514079
 20
156.9210699620547
 30
0.0
 40
1.370799759413761
100
AcDbArc
 50
92.53824885814603
 51
163.2766117228486
  0
ARC
  5
53BA
102
{ACAD_REACTORS
330
54FA
102
}
330
2
100
AcDbEntity
  8
KIJUN
100
AcDbCircle
 10
54.6661389943137
 20
156.0505368378607
 30
0.0
 40
4.437716127427137
100
AcDbArc
 50
163.438003658322
 51
189.470473776885
  0
ARC
  5
53BB
102
{ACAD_REACTORS
330
54FA
102
}
330
2
100
AcDbEntity
  8
KIJUN
100
AcDbCircle
 10
58.29028105739368
 20
156.3387997315499
 30
0.0
 40
8.065929365714527
100
AcDbArc
 50
187.2537931985827
 51
226.0975474176717
  0
ARC
  5
53BC
102
{ACAD_REACTORS
330
54FA
102
}
330
2
100
AcDbEntity
  8
KIJUN
100
AcDbCircle
 10
48.87303165161213
 20
145.6806302649984
 30
0.0
 40
6.173493655074469
100
AcDbArc
 50
309.2254512211311
 51
51.72520273634886
  0
ARC
  5
53BD
102
{ACAD_REACTORS
330
54FA
102
}
330
2
100
AcDbEntity
  8
KIJUN
100
AcDbCircle
 10
54.22172986665911
 20
138.3928900053511
 30
0.0
 40
2.892077270808335
100
AcDbArc
 50
119.9704012353207
 51
208.3448801717908
  0
ARC
  5
53BE
102
{ACAD_REACTORS
330
54FA
102
}
330
2
100
AcDbEntity
  8
KIJUN
100
AcDbCircle
 10
53.26436946961949
 20
137.5998640369526
 30
0.0
 40
1.690602931388447
100
AcDbArc
 50
200.0666530873347
 51
240.1821852922254
  0
ARC
  5
53BF
102
{ACAD_REACTORS
330
54FA
102
}
330
2
100
AcDbEntity
  8
KIJUN
100
AcDbCircle
 10
50.22410645788255
 20
143.4868868272102
 30
0.0
 40
7.983082941606378
100
AcDbArc
 50
293.0866385014958
 51
305.2595266189273
  0
ARC
  5
53C0
102
{ACAD_REACTORS
330
54FA
102
}
330
2
100
AcDbEntity
  8
KIJUN
100
AcDbCircle
 10
52.87614159500923
 20
137.3353238894404
 30
0.0
 40
1.284551370035707
100
AcDbArc
 50
249.3783083856051
 51
291.8610734026267
  0
ARC
  5
53C1
102
{ACAD_REACTORS
330
54FA
102
}
330
2
100
AcDbEntity
  8
KIJUN
100
AcDbCircle
 10
58.80848089616677
 20
134.5117674213287
 30
0.0
 40
4.753146434263594
100
AcDbArc
 50
132.121234856474
 51
145.7059241692092
  0
ARC
  5
53C2
102
{ACAD_REACTORS
330
54FA
102
}
330
2
100
AcDbEntity
  8
KIJUN
100
AcDbCircle
 10
55.34095737201482
 20
135.7246089198732
 30
0.0
 40
1.092469823392574
100
AcDbArc
 50
19.00807860303785
 51
84.43618033810565
  0
ARC
  5
53C3
102
{ACAD_REACTORS
330
54FA
102
}
330
2
100
AcDbEntity
  8
KIJUN
100
AcDbCircle
 10
42.01028692229438
 20
16.87124781989447
 30
0.0
 40
120.6909676006375
100
AcDbArc
 50
83.60797912464308
 51
83.80295458118807
  0
ARC
  5
53C5
102
{ACAD_REACTORS
330
54FA
102
}
330
2
100
AcDbEntity
  8
KIJUN
100
AcDbCircle
 10
55.00648432659742
 20
137.0452778007429
 30
0.0
 40
0.1910428967108659
100
AcDbArc
 50
130.8060050400496
 51
279.6918856616778
  0
ARC
  5
53C6
102
{ACAD_REACTORS
330
54FA
102
}
330
2
100
AcDbEntity
  8
KIJUN
100
AcDbCircle
 10
50.13285270835014
 20
134.269538010521
 30
0.0
 40
6.498420266173876
100
AcDbArc
 50
356.7317451870875
 51
16.18061412896547
  0
ARC
  5
53C7
102
{ACAD_REACTORS
330
54FA
102
}
330
2
100
AcDbEntity
  8
KIJUN
100
AcDbCircle
 10
59.62271150265361
 20
133.7570075432258
 30
0.0
 40
3.005366733730048
100
AcDbArc
 50
177.2908835608581
 51
205.9777865418002
  0
ARC
  5
53C8
102
{ACAD_REACTORS
330
54FA
102
}
330
2
100
AcDbEntity
  8
KIJUN
100
AcDbCircle
 10
58.09551286711747
 20
133.3412576120969
 30
0.0
 40
1.480099997227231
100
AcDbArc
 50
217.482484584014
 51
263.4458968297561
  0
ARC
  5
53C9
102
{ACAD_REACTORS
330
54FA
102
}
330
2
100
AcDbEntity
  8
KIJUN
100
AcDbCircle
 10
57.5250611121272
 20
143.7738218905398
 30
0.0
 40
11.90976105914392
100
AcDbArc
 50
271.931965882205
 51
295.5438922306798
  0
ARC
  5
53CA
102
{ACAD_REACTORS
330
54FA
102
}
330
2
100
AcDbEntity
  8
KIJUN
100
AcDbCircle
 10
71.33673035384816
 20
131.9436183536174
 30
0.0
 40
8.847598031036854
100
AcDbArc
 50
153.7181777641141
 51
172.0636563166525
  0
ARC
  5
53CB
102
{ACAD_REACTORS
330
54FA
102
}
330
2
100
AcDbEntity
  8
KIJUN
100
AcDbCircle
 10
67.85199422214105
 20
139.271685294161
 30
0.0
 40
8.574857983628458
100
AcDbArc
 50
235.5252229128235
 51
249.4571746961019
  0
ARC
  5
53CC
102
{ACAD_REACTORS
330
54FA
102
}
330
2
100
AcDbEntity
  8
KIJUN
100
AcDbCircle
 10
63.56429598446329
 20
133.0271583068901
 30
0.0
 40
1.0
100
AcDbArc
 50
172.0636563166519
 51
235.5252229128233
  0
ARC
  5
53CD
102
{ACAD_REACTORS
330
54FA
102
}
330
2
100
AcDbEntity
  8
KIJUN
100
AcDbCircle
 10
68.08332637874332
 20
132.433888027186
 30
0.0
 40
3.422786331578089
100
AcDbArc
 50
135.18547966537
 51
248.9159491369447
  0
ARC
  5
53CE
102
{ACAD_REACTORS
330
54FA
102
}
330
2
100
AcDbEntity
  8
KIJUN
100
AcDbCircle
 10
-93.33510089052206
 20
169.7527046209782
 30
0.0
 40
31.79812538910407
100
AcDbArc
 50
224.8619291453673
 51
286.4935346186213
  0
ARC
  5
53CF
102
{ACAD_REACTORS
330
54FA
102
}
330
2
100
AcDbEntity
  8
KIJUN
100
AcDbCircle
 10
-114.851881983421
 20
124.6870180453313
 30
0.0
 40
26.15376569269759
100
AcDbArc
 50
66.28828091612708
 51
90.75973850808043
  0
ARC
  5
53D0
102
{ACAD_REACTORS
330
54FA
102
}
330
2
100
AcDbEntity
  8
KIJUN
100
AcDbCircle
 10
0.7112381171959968
 20
402.9501128989605
 30
0.0
 40
275.1578880534129
100
AcDbArc
 50
247.5569185486195
 51
248.7979893651141
  0
ARC
  5
53D1
102
{ACAD_REACTORS
330
54FA
102
}
330
2
100
AcDbEntity
  8
KIJUN
100
AcDbCircle
 10
-90.48234207184313
 20
182.8007756206766
 30
0.0
 40
37.32242634444699
100
AcDbArc
 50
257.1204113122933
 51
273.9541440280376
  0
ARC
  5
53D2
102
{ACAD_REACTORS
330
54FA
102
}
330
2
100
AcDbEntity
  8
KIJUN
100
AcDbCircle
 10
-95.38355113714901
 20
207.7874526639721
 30
0.0
 40
62.66765275093801
100
AcDbArc
 50
276.8504532682275
 51
288.7845921247291
  0
ARC
  5
53D3
102
{ACAD_REACTORS
330
54FA
102
}
330
2
100
AcDbEntity
  8
KIJUN
100
AcDbCircle
 10
-190.8861718132212
 20
462.1750440297907
 30
0.0
 40
334.3664811614125
100
AcDbArc
 50
290.2412988038836
 51
296.8574979942151
  0
ARC
  5
53D4
102
{ACAD_REACTORS
330
54FA
102
}
330
2
100
AcDbEntity
  8
KIJUN
100
AcDbCircle
 10
16.87191712739986
 20
42.52565200265964
 30
0.0
 40
133.9431305496161
100
AcDbArc
 50
107.7578495870237
 51
115.0441435851899
  0
ARC
  5
53D5
102
{ACAD_REACTORS
330
54FA
102
}
330
2
100
AcDbEntity
  8
KIJUN
100
AcDbCircle
 10
-7.623613403209714
 20
116.7883809636351
 30
0.0
 40
55.75184388805275
100
AcDbArc
 50
68.08770299524877
 51
107.0603651548364
  0
ARC
  5
53D7
102
{ACAD_REACTORS
330
54FA
102
}
330
2
100
AcDbEntity
  8
KIJUN
100
AcDbCircle
 10
-62.11942645260941
 20
-24.97437918636189
 30
0.0
 40
207.6234900694549
100
AcDbArc
 50
57.74180597613881
 51
68.73489234595751
  0
ARC
  5
53D8
102
{ACAD_REACTORS
330
54FA
102
}
330
2
100
AcDbEntity
  8
KIJUN
100
AcDbCircle
 10
-109.2652960492313
 20
153.693204075353
 30
0.0
 40
9.179440867422467
100
AcDbArc
 50
213.4706222253199
 51
223.9509560566655
  0
ARC
  5
53D9
102
{ACAD_REACTORS
330
54FA
102
}
330
2
100
AcDbEntity
  8
KIJUN
100
AcDbCircle
 10
-114.6897141705696
 20
144.4051388217092
 30
0.0
 40
6.45344652015515
100
AcDbArc
 50
94.52336373962728
 51
105.5898180977173
  0
ARC
  5
53DA
102
{ACAD_REACTORS
330
54FA
102
}
330
2
100
AcDbEntity
  8
KIJUN
100
AcDbCircle
 10
-115.8600775125455
 20
148.8162790565392
 30
0.0
 40
1.890952357506505
100
AcDbArc
 50
107.3530065338213
 51
125.9782101954709
  0
ARC
  5
53DB
102
{ACAD_REACTORS
330
54FA
102
}
330
2
100
AcDbEntity
  8
KIJUN
100
AcDbCircle
 10
-114.8533160014161
 20
150.0000730619554
 30
0.0
 40
2.48129345429499
100
AcDbArc
 50
193.8296541268638
 51
213.4971976418329
  0
ARC
  5
53DC
102
{ACAD_REACTORS
330
54FA
102
}
330
2
100
AcDbEntity
  8
KIJUN
100
AcDbCircle
 10
-116.4322574086355
 20
149.6641941844553
 30
0.0
 40
0.8693511497221182
100
AcDbArc
 50
128.292150260853
 51
197.2114233480683
  0
ARC
  5
53DD
102
{ACAD_REACTORS
330
54FA
102
}
330
2
100
AcDbEntity
  8
KIJUN
100
AcDbCircle
 10
-64.55369880854592
 20
176.0255876672329
 30
0.0
 40
44.86516844789045
100
AcDbArc
 50
237.2811261913041
 51
247.4223360649236
  0
ARC
  5
53DE
102
{ACAD_REACTORS
330
54FA
102
}
330
2
100
AcDbEntity
  8
KIJUN
100
AcDbCircle
 10
-88.27364597950248
 20
163.7273498913381
 30
0.0
 40
32.55856449046174
100
AcDbArc
 50
296.5512223557118
 51
311.7884248750182
  0
ARC
  5
53E0
102
{ACAD_REACTORS
330
54FA
102
}
330
2
100
AcDbEntity
  8
KIJUN
100
AcDbCircle
 10
-77.75365535733882
 20
143.6185854866397
 30
0.0
 40
9.877173198887703
100
AcDbArc
 50
245.9494381970185
 51
294.1029378346483
  0
ARC
  5
53E1
102
{ACAD_REACTORS
330
54FA
102
}
330
2
100
AcDbEntity
  8
KIJUN
100
AcDbCircle
 10
730.5523933948709
 20
-832.5094737039659
 30
0.0
 40
1257.029602996022
100
AcDbArc
 50
128.7233352505689
 51
129.3560433562833
  0
ARC
  5
53E2
102
{ACAD_REACTORS
330
54FA
102
}
330
2
100
AcDbEntity
  8
KIJUN
100
AcDbCircle
 10
-40.62575361628233
 20
139.035822230879
 30
0.0
 40
17.72531196705431
100
AcDbArc
 50
115.7791349080479
 51
166.0621775423808
  0
ARC
  5
53E3
102
{ACAD_REACTORS
330
54FA
102
}
330
2
100
AcDbEntity
  8
KIJUN
100
AcDbCircle
 10
-62.68388794483803
 20
154.2798330421906
 30
0.0
 40
13.76550640131763
100
AcDbArc
 50
293.2665304738895
 51
306.7030174615444
  0
ARC
  5
53E4
102
{ACAD_REACTORS
330
54FA
102
}
330
2
100
AcDbEntity
  8
KIJUN
100
AcDbCircle
 10
-54.47050933314402
 20
142.3706316416279
 30
0.0
 40
3.486308086886582
100
AcDbArc
 50
164.4490059021211
 51
185.332197744106
  0
ARC
  5
53E6
102
{ACAD_REACTORS
330
54FA
102
}
330
2
100
AcDbEntity
  8
KIJUN
100
AcDbCircle
 10
-57.44389456806529
 20
142.0931136520193
 30
0.0
 40
0.5
100
AcDbArc
 50
185.3321977441062
 51
293.2665304738901
  0
ARC
  5
53E7
102
{ACAD_REACTORS
330
54FA
102
}
330
2
100
AcDbEntity
  8
KIJUN
100
AcDbCircle
 10
-31.79608315357377
 20
133.2392858086523
 30
0.0
 40
25.77861123739586
100
AcDbArc
 50
141.9716299367319
 51
155.8679675144226
  0
ARC
  5
53E8
102
{ACAD_REACTORS
330
54FA
102
}
330
2
100
AcDbEntity
  8
KIJUN
100
AcDbCircle
 10
-50.72530077294159
 20
141.5576573726984
 30
0.0
 40
5.10494470571606
100
AcDbArc
 50
154.2106687027236
 51
211.5389711374147
  0
ARC
  5
53E9
102
{ACAD_REACTORS
330
54FA
102
}
330
2
100
AcDbEntity
  8
KIJUN
100
AcDbCircle
 10
-52.07170818598516
 20
140.5213404432293
 30
0.0
 40
3.420032888887288
100
AcDbArc
 50
208.5394807103251
 51
275.8973805333846
  0
ARC
  5
53EA
102
{ACAD_REACTORS
330
54FA
102
}
330
2
100
AcDbEntity
  8
KIJUN
100
AcDbCircle
 10
-52.29604511514969
 20
143.1483371390357
 30
0.0
 40
6.056356771602696
100
AcDbArc
 50
275.4549440672759
 51
336.9443668815216
  0
ARC
  5
53EB
102
{ACAD_REACTORS
330
54FA
102
}
330
2
100
AcDbEntity
  8
KIJUN
100
AcDbCircle
 10
-13.67915724898754
 20
134.2137720500161
 30
0.0
 40
36.74411727499943
100
AcDbArc
 50
137.8416200703941
 51
149.5206091211047
  0
ARC
  5
53EC
102
{ACAD_REACTORS
330
54FA
102
}
330
2
100
AcDbEntity
  8
KIJUN
100
AcDbCircle
 10
-34.69932008270389
 20
146.9079854072151
 30
0.0
 40
12.19299971041797
100
AcDbArc
 50
150.82705243327
 51
179.3128447213713
  0
ARC
  5
53ED
102
{ACAD_REACTORS
330
54FA
102
}
330
2
100
AcDbEntity
  8
KIJUN
100
AcDbCircle
 10
-51.93242314832679
 20
141.9454284917885
 30
0.0
 40
5.33852606222385
100
AcDbArc
 50
347.3521888969141
 51
7.384080940298767
  0
ARC
  5
53EE
102
{ACAD_REACTORS
330
54FA
102
}
330
2
100
AcDbEntity
  8
KIJUN
100
AcDbCircle
 10
-13.98265982394483
 20
146.7202062560738
 30
0.0
 40
32.91047805253501
100
AcDbArc
 50
179.4184963033508
 51
187.1366447268339
  0
ARC
  5
53EF
102
{ACAD_REACTORS
330
54FA
102
}
330
2
100
AcDbEntity
  8
KIJUN
100
AcDbCircle
 10
-7.608655788086778
 20
96.31052467445959
 30
0.0
 40
68.82514831080377
100
AcDbArc
 50
82.83888749168191
 51
122.1977684876604
  0
ARC
  5
53F1
102
{ACAD_REACTORS
330
54FA
102
}
330
2
100
AcDbEntity
  8
KIJUN
100
AcDbCircle
 10
11.32633714749294
 20
149.4609724914584
 30
0.0
 40
18.34081245616786
100
AcDbArc
 50
124.374663484702
 51
137.8465296135533
  0
ARC
  5
53F2
102
{ACAD_REACTORS
330
54FA
102
}
330
2
100
AcDbEntity
  8
KIJUN
100
AcDbCircle
 10
3.249329787490907
 20
157.5703665253349
 30
0.0
 40
6.935805990548679
100
AcDbArc
 50
142.7368428488854
 51
207.5307956302441
  0
ARC
  5
53F3
102
{ACAD_REACTORS
330
54FA
102
}
330
2
100
AcDbEntity
  8
KIJUN
100
AcDbCircle
 10
22.45469462305264
 20
146.1264157419043
 30
0.0
 40
25.8126231694931
100
AcDbArc
 50
139.3467732269504
 51
161.2241445552724
  0
ARC
  5
53F4
102
{ACAD_REACTORS
330
54FA
102
}
330
2
100
AcDbEntity
  8
KIJUN
100
AcDbCircle
 10
-2.457701764089132
 20
154.5955741599332
 30
0.0
 40
0.5
100
AcDbArc
 50
207.5307956302453
 51
341.2241445552744
  0
ARC
  5
53F5
102
{ACAD_REACTORS
330
54FA
102
}
330
2
100
AcDbEntity
  8
KIJUN
100
AcDbCircle
 10
-55.27937060691949
 20
-44.31368503079754
 30
0.0
 40
216.9965462321082
100
AcDbArc
 50
60.96272013691256
 51
67.65204809568356
  0
ARC
  5
53F6
102
{ACAD_REACTORS
330
54FA
102
}
330
2
100
AcDbEntity
  8
KIJUN
100
AcDbCircle
 10
5.662478917984043
 20
100.1365725502649
 30
0.0
 40
60.24096286623906
100
AcDbArc
 50
69.02201083731084
 51
81.24547809665754
  0
ARC
  5
53F7
102
{ACAD_REACTORS
330
54FA
102
}
330
2
100
AcDbEntity
  8
KIJUN
100
AcDbCircle
 10
10.62111320920126
 20
126.66724422907
 30
0.0
 40
33.27586475416931
100
AcDbArc
 50
82.73135083970721
 51
93.5231447739032
  0
ARC
  5
53F8
102
{ACAD_REACTORS
330
54FA
102
}
330
2
100
AcDbEntity
  8
KIJUN
100
AcDbCircle
 10
9.590266450687723
 20
148.3939197354251
 30
0.0
 40
11.53097149508093
100
AcDbArc
 50
95.04500399953377
 51
114.4278301711275
  0
ARC
  5
53F9
102
{ACAD_REACTORS
330
54FA
102
}
330
2
100
AcDbEntity
  8
KIJUN
100
AcDbCircle
 10
-64.63911387674881
 20
285.4957927178531
 30
0.0
 40
144.4062006512427
100
AcDbArc
 50
296.6351562749692
 51
298.7513686048132
  0
ARC
  5
53FA
102
{ACAD_REACTORS
330
54FA
102
}
330
2
100
AcDbEntity
  8
KIJUN
100
AcDbCircle
 10
-0.9999061361427894
 20
158.818133271717
 30
0.0
 40
2.643431143852896
100
AcDbArc
 50
284.2093603763635
 51
294.5710901246945
  0
ARC
  5
53FB
102
{ACAD_REACTORS
330
54FA
102
}
330
2
100
AcDbEntity
  8
KIJUN
100
AcDbCircle
 10
0.935299915016662
 20
156.6574562441904
 30
0.0
 40
1.911499142430652
100
AcDbArc
 50
168.4828439767968
 51
176.6360800796786
  0
ARC
  5
53FC
102
{ACAD_REACTORS
330
54FA
102
}
330
2
100
AcDbEntity
  8
KIJUN
100
AcDbCircle
 10
-0.4737671807730042
 20
156.740279843758
 30
0.0
 40
0.5
100
AcDbArc
 50
176.6360800796774
 51
284.2093603763633
  0
ARC
  5
5400
102
{ACAD_REACTORS
330
54FA
102
}
330
2
100
AcDbEntity
  8
KIJUN
100
AcDbCircle
 10
54.36380258037264
 20
48.7694501829695
 30
0.0
 40
36.5300143231515
100
AcDbArc
 50
53.50391626613392
 51
59.83422891107837
  0
ARC
  5
5401
102
{ACAD_REACTORS
330
54FA
102
}
330
2
100
AcDbEntity
  8
KIJUN
100
AcDbCircle
 10
69.07531385353023
 20
68.24599603240928
 30
0.0
 40
12.12535936394293
100
AcDbArc
 50
359.0200091734501
 51
54.64998893275845
  0
ARC
  5
5402
102
{ACAD_REACTORS
330
54FA
102
}
330
2
100
AcDbEntity
  8
KIJUN
100
AcDbCircle
 10
111.8176142095444
 20
78.69384152252846
 30
0.0
 40
42.7978667924751
100
AcDbArc
 50
180.8647019996234
 51
184.1090452712
  0
ARC
  5
5403
102
{ACAD_REACTORS
330
54FA
102
}
330
2
100
AcDbEntity
  8
KIJUN
100
AcDbCircle
 10
79.37253929204479
 20
76.00548226691778
 30
0.0
 40
10.24976346422185
100
AcDbArc
 50
182.1152634061609
 51
225.0515199713455
  0
ARC
  5
5404
102
{ACAD_REACTORS
330
54FA
102
}
330
2
100
AcDbEntity
  8
KIJUN
100
AcDbCircle
 10
83.28348575418482
 20
79.61568141753154
 30
0.0
 40
15.56934163917563
100
AcDbArc
 50
224.2512970950064
 51
245.3312539240965
  0
ARC
  5
5405
102
{ACAD_REACTORS
330
54FA
102
}
330
2
100
AcDbEntity
  8
KIJUN
100
AcDbCircle
 10
79.60628066413036
 20
72.04881654596815
 30
0.0
 40
7.16064831043583
100
AcDbArc
 50
246.7990084116925
 51
257.5227951917705
  0
ARC
  5
5406
102
{ACAD_REACTORS
330
54FA
102
}
330
2
100
AcDbEntity
  8
KIJUN
100
AcDbCircle
 10
75.18562611127245
 20
68.15581146209765
 30
0.0
 40
6.01441550252978
100
AcDbArc
 50
344.7072509012927
 51
358.8834507115863
  0
ARC
  5
5407
102
{ACAD_REACTORS
330
54FA
102
}
330
2
100
AcDbEntity
  8
KIJUN
100
AcDbCircle
 10
78.2475715278604
 20
67.38003229078529
 30
0.0
 40
2.856893717372115
100
AcDbArc
 50
319.9647438170668
 51
343.5182559166451
  0
ARC
  5
5408
102
{ACAD_REACTORS
330
54FA
102
}
330
2
100
AcDbEntity
  8
KIJUN
100
AcDbCircle
 10
79.13806863230156
 20
66.76451114481586
 30
0.0
 40
1.782041887553871
100
AcDbArc
 50
282.382748648061
 51
316.6980549596762
  0
ARC
  5
5409
102
{ACAD_REACTORS
330
54FA
102
}
330
2
100
AcDbEntity
  8
KIJUN
100
AcDbCircle
 10
78.86989904836773
 20
68.55202410633438
 30
0.0
 40
3.587532503638236
100
AcDbArc
 50
256.939909308888
 51
280.443756319398
  0
ARC
  5
540A
102
{ACAD_REACTORS
330
54FA
102
}
330
2
100
AcDbEntity
  8
KIJUN
100
AcDbCircle
 10
64.5725815717348
 20
165.8572738140505
 30
0.0
 40
10.71553014204656
100
AcDbArc
 50
36.58578471282006
 51
46.24168725464651
  0
ARC
  5
540B
102
{ACAD_REACTORS
330
54FA
102
}
330
2
100
AcDbEntity
  8
KIJUN
100
AcDbCircle
 10
69.23225056982463
 20
171.3449134968379
 30
0.0
 40
4.607331389903611
100
AcDbArc
 50
310.6383442890329
 51
339.4081027378615
  0
ARC
  5
540C
102
{ACAD_REACTORS
330
54FA
102
}
330
2
100
AcDbEntity
  8
KIJUN
100
AcDbCircle
 10
71.09241385536005
 20
170.65250007454
 30
0.0
 40
2.622494057797279
100
AcDbArc
 50
339.2756603775113
 51
37.36330213218657
  0
ARC
  5
540D
102
{ACAD_REACTORS
330
54FA
102
}
330
2
100
AcDbEntity
  8
KIJUN
100
AcDbCircle
 10
70.13323576087358
 20
165.0461227593853
 30
0.0
 40
7.167496155617396
100
AcDbArc
 50
46.35533641436139
 51
60.68925592151652
  0
ARC
  5
540E
102
{ACAD_REACTORS
330
54FA
102
}
330
2
100
AcDbEntity
  8
KIJUN
100
AcDbCircle
 10
74.04485005133574
 20
169.1473160389797
 30
0.0
 40
1.5
100
AcDbArc
 50
337.3857168000349
 51
46.35533641436134
  0
ARC
  5
540F
102
{ACAD_REACTORS
330
54FA
102
}
330
2
100
AcDbEntity
  8
KIJUN
100
AcDbCircle
 10
64.6040371121732
 20
173.07990874378
 30
0.0
 40
11.72713226345037
100
AcDbArc
 50
325.8976719498075
 51
337.385716800035
  0
ARC
  5
5410
102
{ACAD_REACTORS
330
54FA
102
}
330
2
100
AcDbEntity
  8
KIJUN
100
AcDbCircle
 10
80.78875278828846
 20
145.5511527111489
 30
0.0
 40
24.21106146035518
100
AcDbArc
 50
94.98704126778195
 51
102.5101933575683
  0
ARC
  5
5411
102
{ACAD_REACTORS
330
54FA
102
}
330
2
100
AcDbEntity
  8
KIJUN
100
AcDbCircle
 10
110.5225124617162
 20
163.4579677400846
 30
0.0
 40
29.474038943476
100
AcDbArc
 50
171.997317534549
 51
184.9308435174664
  0
ARC
  5
5412
102
{ACAD_REACTORS
330
54FA
102
}
330
2
100
AcDbEntity
  8
KIJUN
100
AcDbCircle
 10
77.93652999532497
 20
168.0372034991418
 30
0.0
 40
3.432125927115089
100
AcDbArc
 50
352.0300689569265
 51
10.96322747821497
  0
ARC
  5
5413
102
{ACAD_REACTORS
330
54FA
102
}
330
2
100
AcDbEntity
  8
KIJUN
100
AcDbCircle
 10
79.20612103412456
 20
162.6987535726067
 30
0.0
 40
6.991324825408122
100
AcDbArc
 50
84.95148375047946
 51
94.28229416851205
  0
ARC
  5
5414
102
{ACAD_REACTORS
330
54FA
102
}
330
2
100
AcDbEntity
  8
KIJUN
100
AcDbCircle
 10
79.63506665185798
 20
167.4043620803047
 30
0.0
 40
2.266263033603235
100
AcDbArc
 50
54.90558115493102
 51
85.2849934609495
  0
ARC
  5
5415
102
{ACAD_REACTORS
330
54FA
102
}
330
2
100
AcDbEntity
  8
KIJUN
100
AcDbCircle
 10
80.04776284709667
 20
168.2791201706737
 30
0.0
 40
1.323617434099536
100
AcDbArc
 50
18.08108709973425
 51
47.73362924311352
  0
ARC
  5
5416
102
{ACAD_REACTORS
330
54FA
102
}
330
2
100
AcDbEntity
  8
KIJUN
100
AcDbCircle
 10
84.03862865950921
 20
160.7632656817012
 30
0.0
 40
2.885589158257437
100
AcDbArc
 50
176.795341088154
 51
191.8426661181871
  0
ARC
  5
5417
102
{ACAD_REACTORS
330
54FA
102
}
330
2
100
AcDbEntity
  8
KIJUN
100
AcDbCircle
 10
82.28281278784557
 20
160.3250424307043
 30
0.0
 40
1.079391254306517
100
AcDbArc
 50
188.2010263191756
 51
244.6440896430722
  0
ARC
  5
5418
102
{ACAD_REACTORS
330
54FA
102
}
330
2
100
AcDbEntity
  8
KIJUN
100
AcDbCircle
 10
83.80594977372608
 20
164.6948220946509
 30
0.0
 40
5.701995147260207
100
AcDbArc
 50
249.6233775603931
 51
255.9972972812921
  0
ARC
  5
5419
102
{ACAD_REACTORS
330
54FA
102
}
330
2
100
AcDbEntity
  8
KIJUN
100
AcDbCircle
 10
79.71870623758707
 20
161.2371226249462
 30
0.0
 40
3.6823768344894
100
AcDbArc
 50
301.5005547260271
 51
320.7364375236151
  0
ARC
  5
541A
102
{ACAD_REACTORS
330
54FA
102
}
330
2
100
AcDbEntity
  8
KIJUN
100
AcDbCircle
 10
82.42647689438461
 20
158.9942785949906
 30
0.0
 40
0.1679872045494268
100
AcDbArc
 50
328.5330838729957
 51
19.26727320307567
  0
ARC
  5
541B
102
{ACAD_REACTORS
330
54FA
102
}
330
2
100
AcDbEntity
  8
KIJUN
100
AcDbCircle
 10
82.36173616117321
 20
158.9029363055853
 30
0.0
 40
0.2672338180676301
100
AcDbArc
 50
33.31448064239829
 51
76.02972997142742
  0
ARC
  5
541C
102
{ACAD_REACTORS
330
54FA
102
}
330
2
100
AcDbEntity
  8
KIJUN
100
AcDbCircle
 10
85.03621398279804
 20
139.5966004058859
 30
0.0
 40
18.80943868413557
100
AcDbArc
 50
96.40186038360901
 51
100.3937346579146
  0
ARC
  5
541D
102
{ACAD_REACTORS
330
54FA
102
}
330
2
100
AcDbEntity
  8
KIJUN
100
AcDbCircle
 10
83.3456783419623
 20
153.7592590045755
 30
0.0
 40
4.547715585191888
100
AcDbArc
 50
85.12525253969547
 51
95.13128596355324
  0
ARC
  5
541E
102
{ACAD_REACTORS
330
54FA
102
}
330
2
100
AcDbEntity
  8
KIJUN
100
AcDbCircle
 10
83.6714254781439
 20
156.9210699620547
 30
0.0
 40
1.370799759413761
100
AcDbArc
 50
16.72338827715148
 51
87.46175114185398
  0
ARC
  5
541F
102
{ACAD_REACTORS
330
54FA
102
}
330
2
100
AcDbEntity
  8
KIJUN
100
AcDbCircle
 10
80.73064388897098
 20
156.0505368378607
 30
0.0
 40
4.437716127427137
100
AcDbArc
 50
350.5295262231149
 51
16.56199634167819
  0
ARC
  5
5420
102
{ACAD_REACTORS
330
54FA
102
}
330
2
100
AcDbEntity
  8
KIJUN
100
AcDbCircle
 10
77.106501825891
 20
156.3387997315499
 30
0.0
 40
8.065929365714527
100
AcDbArc
 50
313.902452582328
 51
352.7462068014173
  0
ARC
  5
5421
102
{ACAD_REACTORS
330
54FA
102
}
330
2
100
AcDbEntity
  8
KIJUN
100
AcDbCircle
 10
86.52375123167255
 20
145.6806302649984
 30
0.0
 40
6.173493655074469
100
AcDbArc
 50
128.2747972636517
 51
230.7745487788689
  0
ARC
  5
5422
102
{ACAD_REACTORS
330
54FA
102
}
330
2
100
AcDbEntity
  8
KIJUN
100
AcDbCircle
 10
81.17505301662559
 20
138.3928900053511
 30
0.0
 40
2.892077270808335
100
AcDbArc
 50
331.6551198282091
 51
60.02959876467894
  0
ARC
  5
5423
102
{ACAD_REACTORS
330
54FA
102
}
330
2
100
AcDbEntity
  8
KIJUN
100
AcDbCircle
 10
82.13241341366519
 20
137.5998640369526
 30
0.0
 40
1.690602931388447
100
AcDbArc
 50
299.8178147077752
 51
339.9333469126651
  0
ARC
  5
5424
102
{ACAD_REACTORS
330
54FA
102
}
330
2
100
AcDbEntity
  8
KIJUN
100
AcDbCircle
 10
85.17267642540213
 20
143.4868868272102
 30
0.0
 40
7.983082941606378
100
AcDbArc
 50
234.7404733810722
 51
246.9133614985043
  0
ARC
  5
5425
102
{ACAD_REACTORS
330
54FA
102
}
330
2
100
AcDbEntity
  8
KIJUN
100
AcDbCircle
 10
82.52064128827546
 20
137.3353238894404
 30
0.0
 40
1.284551370035707
100
AcDbArc
 50
248.1389265973731
 51
290.6216916143947
  0
ARC
  5
5426
102
{ACAD_REACTORS
330
54FA
102
}
330
2
100
AcDbEntity
  8
KIJUN
100
AcDbCircle
 10
76.58830198711791
 20
134.5117674213287
 30
0.0
 40
4.753146434263594
100
AcDbArc
 50
34.29407583079121
 51
47.87876514352601
  0
ARC
  5
5427
102
{ACAD_REACTORS
330
54FA
102
}
330
2
100
AcDbEntity
  8
KIJUN
100
AcDbCircle
 10
80.05582551126986
 20
135.7246089198732
 30
0.0
 40
1.092469823392574
100
AcDbArc
 50
95.56381966189395
 51
160.9919213969621
  0
ARC
  5
5428
102
{ACAD_REACTORS
330
54FA
102
}
330
2
100
AcDbEntity
  8
KIJUN
100
AcDbCircle
 10
93.38649596099029
 20
16.87124781989447
 30
0.0
 40
120.6909676006375
100
AcDbArc
 50
96.19704541881114
 51
96.3920208753575
  0
ARC
  5
5429
102
{ACAD_REACTORS
330
54FA
102
}
330
2
100
AcDbEntity
  8
KIJUN
100
AcDbCircle
 10
80.39029855668728
 20
137.0452778007429
 30
0.0
 40
0.1910428967108659
100
AcDbArc
 50
260.3081143383217
 51
49.19399495994978
  0
ARC
  5
542A
102
{ACAD_REACTORS
330
54FA
102
}
330
2
100
AcDbEntity
  8
KIJUN
100
AcDbCircle
 10
85.26393017493454
 20
134.269538010521
 30
0.0
 40
6.498420266173876
100
AcDbArc
 50
163.8193858710344
 51
183.2682548129124
  0
ARC
  5
542B
102
{ACAD_REACTORS
330
54FA
102
}
330
2
100
AcDbEntity
  8
KIJUN
100
AcDbCircle
 10
75.77407138063108
 20
133.7570075432258
 30
0.0
 40
3.005366733730048
100
AcDbArc
 50
334.0222134581998
 51
2.7091164391419
  0
ARC
  5
542C
102
{ACAD_REACTORS
330
54FA
102
}
330
2
100
AcDbEntity
  8
KIJUN
100
AcDbCircle
 10
77.30127001616722
 20
133.3412576120969
 30
0.0
 40
1.480099997227231
100
AcDbArc
 50
276.5541031702444
 51
322.5175154159863
  0
ARC
  5
542D
102
{ACAD_REACTORS
330
54FA
102
}
330
2
100
AcDbEntity
  8
KIJUN
100
AcDbCircle
 10
77.87172177115749
 20
143.7738218905398
 30
0.0
 40
11.90976105914392
100
AcDbArc
 50
244.4561077693197
 51
268.0680341177949
  0
ARC
  5
542E
102
{ACAD_REACTORS
330
54FA
102
}
330
2
100
AcDbEntity
  8
KIJUN
100
AcDbCircle
 10
64.06005252943652
 20
131.9436183536174
 30
0.0
 40
8.847598031036854
100
AcDbArc
 50
7.936343683347578
 51
26.28182223588622
  0
ARC
  5
542F
102
{ACAD_REACTORS
330
54FA
102
}
330
2
100
AcDbEntity
  8
KIJUN
100
AcDbCircle
 10
67.54478866114363
 20
139.271685294161
 30
0.0
 40
8.574857983628458
100
AcDbArc
 50
290.5428253038981
 51
304.4747770871769
  0
ARC
  5
5430
102
{ACAD_REACTORS
330
54FA
102
}
330
2
100
AcDbEntity
  8
KIJUN
100
AcDbCircle
 10
71.8324868988214
 20
133.0271583068901
 30
0.0
 40
1.0
100
AcDbArc
 50
304.474777087177
 51
7.936343683348174
  0
ARC
  5
5431
102
{ACAD_REACTORS
330
54FA
102
}
330
2
100
AcDbEntity
  8
KIJUN
100
AcDbCircle
 10
67.31345650454136
 20
132.433888027186
 30
0.0
 40
3.422786331578089
100
AcDbArc
 50
291.0840508630546
 51
44.81452033463036
  0
ARC
  5
5432
102
{ACAD_REACTORS
330
54FA
102
}
330
2
100
AcDbEntity
  8
KIJUN
100
AcDbCircle
 10
228.7318837738067
 20
169.7527046209782
 30
0.0
 40
31.79812538910407
100
AcDbArc
 50
253.5064653813787
 51
315.1380708546325
  0
ARC
  5
5433
102
{ACAD_REACTORS
330
54FA
102
}
330
2
100
AcDbEntity
  8
KIJUN
100
AcDbCircle
 10
250.2486648667057
 20
124.6870180453313
 30
0.0
 40
26.15376569269759
100
AcDbArc
 50
89.24026149191917
 51
113.7117190838725
  0
ARC
  5
5434
102
{ACAD_REACTORS
330
54FA
102
}
330
2
100
AcDbEntity
  8
KIJUN
100
AcDbCircle
 10
134.6855447660887
 20
402.9501128989605
 30
0.0
 40
275.1578880534129
100
AcDbArc
 50
291.202010634886
 51
292.4430814513802
  0
ARC
  5
5435
102
{ACAD_REACTORS
330
54FA
102
}
330
2
100
AcDbEntity
  8
KIJUN
100
AcDbCircle
 10
225.8791249551277
 20
182.8007756206761
 30
0.0
 40
37.32242634444651
100
AcDbArc
 50
266.0458559719625
 51
282.8795886877077
  0
ARC
  5
5436
102
{ACAD_REACTORS
330
54FA
102
}
330
2
100
AcDbEntity
  8
KIJUN
100
AcDbCircle
 10
230.7803340204337
 20
207.7874526639721
 30
0.0
 40
62.66765275093801
100
AcDbArc
 50
251.2154078752705
 51
263.1495467317731
  0
ARC
  5
5437
102
{ACAD_REACTORS
330
54FA
102
}
330
2
100
AcDbEntity
  8
KIJUN
100
AcDbCircle
 10
326.2829546965059
 20
462.1750440297907
 30
0.0
 40
334.3664811614125
100
AcDbArc
 50
243.1425020057848
 51
249.7587011961164
  0
ARC
  5
5438
102
{ACAD_REACTORS
330
54FA
102
}
330
2
100
AcDbEntity
  8
KIJUN
100
AcDbCircle
 10
118.5248657558848
 20
42.52565200265964
 30
0.0
 40
133.9431305496161
100
AcDbArc
 50
64.95585641481061
 51
72.24215041297646
  0
ARC
  5
5439
102
{ACAD_REACTORS
330
54FA
102
}
330
2
100
AcDbEntity
  8
KIJUN
100
AcDbCircle
 10
143.0203962864944
 20
116.7883809636351
 30
0.0
 40
55.75184388805275
100
AcDbArc
 50
72.9396348451631
 51
111.9122970047513
  0
ARC
  5
543A
102
{ACAD_REACTORS
330
54FA
102
}
330
2
100
AcDbEntity
  8
KIJUN
100
AcDbCircle
 10
197.5162093358941
 20
-24.97437918636189
 30
0.0
 40
207.6234900694549
100
AcDbArc
 50
111.2651076540419
 51
122.2581940238613
  0
ARC
  5
543B
102
{ACAD_REACTORS
330
54FA
102
}
330
2
100
AcDbEntity
  8
KIJUN
100
AcDbCircle
 10
244.662078932516
 20
153.693204075353
 30
0.0
 40
9.179440867422467
100
AcDbArc
 50
316.0490439433345
 51
326.5293777746797
  0
ARC
  5
543C
102
{ACAD_REACTORS
330
54FA
102
}
330
2
100
AcDbEntity
  8
KIJUN
100
AcDbCircle
 10
250.0864970538543
 20
144.4051388217092
 30
0.0
 40
6.45344652015515
100
AcDbArc
 50
74.41018190228307
 51
85.47663626037211
  0
ARC
  5
543D
102
{ACAD_REACTORS
330
54FA
102
}
330
2
100
AcDbEntity
  8
KIJUN
100
AcDbCircle
 10
251.2568603958302
 20
148.8162790565392
 30
0.0
 40
1.890952357506505
100
AcDbArc
 50
54.02178980452876
 51
72.64699346617817
  0
ARC
  5
543E
102
{ACAD_REACTORS
330
54FA
102
}
330
2
100
AcDbEntity
  8
KIJUN
100
AcDbCircle
 10
250.2500988847008
 20
150.0000730619554
 30
0.0
 40
2.48129345429499
100
AcDbArc
 50
326.5028023581667
 51
346.1703458731362
  0
ARC
  5
543F
102
{ACAD_REACTORS
330
54FA
102
}
330
2
100
AcDbEntity
  8
KIJUN
100
AcDbCircle
 10
251.8290402919202
 20
149.6641941844553
 30
0.0
 40
0.8693511497221182
100
AcDbArc
 50
342.7885766519319
 51
51.70784973914739
  0
ARC
  5
5440
102
{ACAD_REACTORS
330
54FA
102
}
330
2
100
AcDbEntity
  8
KIJUN
100
AcDbCircle
 10
199.9504816918306
 20
176.0255876672329
 30
0.0
 40
44.86516844789045
100
AcDbArc
 50
292.5776639350766
 51
302.7188738086959
  0
ARC
  5
5441
102
{ACAD_REACTORS
330
54FA
102
}
330
2
100
AcDbEntity
  8
KIJUN
100
AcDbCircle
 10
223.6704288627872
 20
163.7273498913381
 30
0.0
 40
32.55856449046174
100
AcDbArc
 50
228.2115751249818
 51
243.4487776442878
  0
ARC
  5
5442
102
{ACAD_REACTORS
330
54FA
102
}
330
2
100
AcDbEntity
  8
KIJUN
100
AcDbCircle
 10
213.1504382406235
 20
143.6185854866397
 30
0.0
 40
9.877173198887703
100
AcDbArc
 50
245.8970621653516
 51
294.0505618029816
  0
ARC
  5
5443
102
{ACAD_REACTORS
330
54FA
102
}
330
2
100
AcDbEntity
  8
KIJUN
100
AcDbCircle
 10
-595.1556105115862
 20
-832.5094737039659
 30
0.0
 40
1257.029602996022
100
AcDbArc
 50
50.64395664371732
 51
51.27666474943165
  0
ARC
  5
5444
102
{ACAD_REACTORS
330
54FA
102
}
330
2
100
AcDbEntity
  8
KIJUN
100
AcDbCircle
 10
176.022536499567
 20
139.035822230879
 30
0.0
 40
17.72531196705431
100
AcDbArc
 50
13.9378224576191
 51
64.22086509195143
  0
ARC
  5
5445
102
{ACAD_REACTORS
330
54FA
102
}
330
2
100
AcDbEntity
  8
KIJUN
100
AcDbCircle
 10
198.0806708281227
 20
154.2798330421906
 30
0.0
 40
13.76550640131763
100
AcDbArc
 50
233.2969825384559
 51
246.7334695261107
  0
ARC
  5
5446
102
{ACAD_REACTORS
330
54FA
102
}
330
2
100
AcDbEntity
  8
KIJUN
100
AcDbCircle
 10
189.8672922164287
 20
142.3706316416279
 30
0.0
 40
3.486308086886582
100
AcDbArc
 50
354.667802255894
 51
15.55099409787904
  0
ARC
  5
5447
102
{ACAD_REACTORS
330
54FA
102
}
330
2
100
AcDbEntity
  8
KIJUN
100
AcDbCircle
 10
192.8406774513499
 20
142.0931136520193
 30
0.0
 40
0.5
100
AcDbArc
 50
246.7334695261107
 51
354.6678022558939
  0
ARC
  5
5448
102
{ACAD_REACTORS
330
54FA
102
}
330
2
100
AcDbEntity
  8
KIJUN
100
AcDbCircle
 10
167.1928660368584
 20
133.2392858086523
 30
0.0
 40
25.77861123739586
100
AcDbArc
 50
24.13203248557727
 51
38.02837006326769
  0
ARC
  5
5449
102
{ACAD_REACTORS
330
54FA
102
}
330
2
100
AcDbEntity
  8
KIJUN
100
AcDbCircle
 10
186.1220836562262
 20
141.5576573726984
 30
0.0
 40
5.10494470571606
100
AcDbArc
 50
328.4610288625856
 51
25.78933129727675
  0
ARC
  5
544A
102
{ACAD_REACTORS
330
54FA
102
}
330
2
100
AcDbEntity
  8
KIJUN
100
AcDbCircle
 10
187.4684910692698
 20
140.5213404432293
 30
0.0
 40
3.420032888887288
100
AcDbArc
 50
264.1026194666148
 51
331.4605192896747
  0
ARC
  5
544B
102
{ACAD_REACTORS
330
54FA
102
}
330
2
100
AcDbEntity
  8
KIJUN
100
AcDbCircle
 10
187.6928279984344
 20
143.1483371390357
 30
0.0
 40
6.056356771602696
100
AcDbArc
 50
203.0556331184786
 51
264.5450559327242
  0
ARC
  5
544C
102
{ACAD_REACTORS
330
54FA
102
}
330
2
100
AcDbEntity
  8
KIJUN
100
AcDbCircle
 10
149.0759401322722
 20
134.2137720500161
 30
0.0
 40
36.74411727499943
100
AcDbArc
 50
30.47939087889514
 51
42.15837992960598
  0
ARC
  5
544D
102
{ACAD_REACTORS
330
54FA
102
}
330
2
100
AcDbEntity
  8
KIJUN
100
AcDbCircle
 10
170.0961029659885
 20
146.9079854072151
 30
0.0
 40
12.19299971041797
100
AcDbArc
 50
0.6871552786286291
 51
29.17294756673038
  0
ARC
  5
544E
102
{ACAD_REACTORS
330
54FA
102
}
330
2
100
AcDbEntity
  8
KIJUN
100
AcDbCircle
 10
187.3292060316114
 20
141.9454284917885
 30
0.0
 40
5.33852606222385
100
AcDbArc
 50
172.6159190597012
 51
192.647811103086
  0
ARC
  5
544F
102
{ACAD_REACTORS
330
54FA
102
}
330
2
100
AcDbEntity
  8
KIJUN
100
AcDbCircle
 10
149.3794427072295
 20
146.7202062560738
 30
0.0
 40
32.91047805253501
100
AcDbArc
 50
352.8633552731661
 51
0.5815036966491979
  0
ARC
  5
5450
102
{ACAD_REACTORS
330
54FA
102
}
330
2
100
AcDbEntity
  8
KIJUN
100
AcDbCircle
 10
143.0054386713714
 20
96.31052467445959
 30
0.0
 40
68.82514831080377
100
AcDbArc
 50
57.8022315123395
 51
97.16111250831799
  0
ARC
  5
5451
102
{ACAD_REACTORS
330
54FA
102
}
330
2
100
AcDbEntity
  8
KIJUN
100
AcDbCircle
 10
124.0704457357917
 20
149.4609724914584
 30
0.0
 40
18.34081245616786
100
AcDbArc
 50
42.15347038644652
 51
55.62533651529764
  0
ARC
  5
5452
102
{ACAD_REACTORS
330
54FA
102
}
330
2
100
AcDbEntity
  8
KIJUN
100
AcDbCircle
 10
132.1474530957937
 20
157.5703665253349
 30
0.0
 40
6.935805990548679
100
AcDbArc
 50
332.4692043697556
 51
37.26315715111464
  0
ARC
  5
5453
102
{ACAD_REACTORS
330
54FA
102
}
330
2
100
AcDbEntity
  8
KIJUN
100
AcDbCircle
 10
137.8544846473738
 20
154.5955741599332
 30
0.0
 40
0.5
100
AcDbArc
 50
198.7758554447255
 51
332.4692043697547
  0
ARC
  5
5454
102
{ACAD_REACTORS
330
54FA
102
}
330
2
100
AcDbEntity
  8
KIJUN
100
AcDbCircle
 10
112.942088260232
 20
146.1264157419043
 30
0.0
 40
25.8126231694931
100
AcDbArc
 50
18.77585544472779
 51
40.65322677304943
  0
ARC
  5
5455
102
{ACAD_REACTORS
330
54FA
102
}
330
2
100
AcDbEntity
  8
KIJUN
100
AcDbCircle
 10
190.6761534902041
 20
-44.31368503079754
 30
0.0
 40
216.9965462321082
100
AcDbArc
 50
112.347951904316
 51
119.0372798630876
  0
ARC
  5
5456
102
{ACAD_REACTORS
330
54FA
102
}
330
2
100
AcDbEntity
  8
KIJUN
100
AcDbCircle
 10
129.7343039653006
 20
100.1365725502649
 30
0.0
 40
60.24096286623906
100
AcDbArc
 50
98.75452190334195
 51
110.9779891626885
  0
ARC
  5
5457
102
{ACAD_REACTORS
330
54FA
102
}
330
2
100
AcDbEntity
  8
KIJUN
100
AcDbCircle
 10
124.7756696740834
 20
126.66724422907
 30
0.0
 40
33.27586475416931
100
AcDbArc
 50
86.4768552260967
 51
97.26864916029295
  0
ARC
  5
5458
102
{ACAD_REACTORS
330
54FA
102
}
330
2
100
AcDbEntity
  8
KIJUN
100
AcDbCircle
 10
125.8065164325969
 20
148.3939197354251
 30
0.0
 40
11.53097149508093
100
AcDbArc
 50
65.57216982887188
 51
84.95499600046651
  0
ARC
  5
5459
102
{ACAD_REACTORS
330
54FA
102
}
330
2
100
AcDbEntity
  8
KIJUN
100
AcDbCircle
 10
200.0358967600335
 20
285.4957927178531
 30
0.0
 40
144.4062006512427
100
AcDbArc
 50
241.2486313951866
 51
243.3648437250306
  0
ARC
  5
545A
102
{ACAD_REACTORS
330
54FA
102
}
330
2
100
AcDbEntity
  8
KIJUN
100
AcDbCircle
 10
136.3966890194274
 20
158.818133271717
 30
0.0
 40
2.643431143852896
100
AcDbArc
 50
245.4289098753054
 51
255.7906396236368
  0
ARC
  5
545B
102
{ACAD_REACTORS
330
54FA
102
}
330
2
100
AcDbEntity
  8
KIJUN
100
AcDbCircle
 10
134.461482968268
 20
156.6574562441904
 30
0.0
 40
1.911499142430652
100
AcDbArc
 50
3.363919920321432
 51
11.5171560232031
  0
ARC
  5
545C
102
{ACAD_REACTORS
330
54FA
102
}
330
2
100
AcDbEntity
  8
KIJUN
100
AcDbCircle
 10
135.8705500640577
 20
156.740279843758
 30
0.0
 40
0.5
100
AcDbArc
 50
255.7906396236368
 51
3.363919920322623
  0
ARC
  5
545F
102
{ACAD_REACTORS
330
54FA
102
}
330
2
100
AcDbEntity
  8
KIJUN
100
AcDbCircle
 10
83.74679591809899
 20
79.62603747633171
 30
0.0
 40
24.10576915872615
100
AcDbArc
 50
208.5842784097409
 51
222.1411472775821
  0
ARC
  5
546D
102
{ACAD_REACTORS
330
54FA
102
}
330
2
100
AcDbEntity
  8
KIJUN
100
AcDbCircle
 10
51.64998696518569
 20
79.62603747633171
 30
0.0
 40
24.10576915872615
100
AcDbArc
 50
317.8588527224181
 51
331.415721590259
  0
ARC
  5
546E
102
{ACAD_REACTORS
330
54FA
102
}
330
2
100
AcDbEntity
  8
KIJUN
100
AcDbCircle
 10
67.69839144164234
 20
64.77755332235132
 30
0.0
 40
2.2562833646938
100
AcDbArc
 50
215.9778980469718
 51
324.0221019530297
  0
DIMENSION
  5
5476
330
2
100
AcDbEntity
  8
SUNPOU
100
AcDbDimension
  2
*D21
 10
252.6983914416423
 20
212.1143294005983
 30
0.0
 11
67.69839144164234
 21
220.1143294005983
 31
0.0
 70
    32
 71
     5
 42
370.0
  3
STANDARD
100
AcDbAlignedDimension
 13
-117.3016085583576
 23
177.5212699576576
 33
0.0
 14
252.6983914416423
 24
180.4707910792899
 34
0.0
100
AcDbRotatedDimension
1001
ACAD
1000
DSTYLE
1002
{
1070
    41
1040
2.0
1070
    42
1040
10.0
1070
    44
1040
0.0
1070
    73
1070
     0
1070
    74
1070
     0
1070
    77
1070
     1
1070
   140
1040
10.0
1070
   141
1040
0.0
1070
   146
1040
0.064286
1070
   147
1040
3.0
1070
   176
1070
    60
1070
   177
1070
    70
1070
   178
1070
    60
1070
   271
1070
     0
1070
   272
1070
     0
1070
   340
1005
1C
1070
   342
1005
109
1002
}
  0
DIMENSION
  5
5483
330
2
100
AcDbEntity
  8
SUNPOU
100
AcDbDimension
  2
*D22
 10
-155.6732829511166
 20
62.52126995765753
 30
0.0
 11
-163.6732829511166
 21
120.0212699576575
 31
0.0
 70
    32
 71
     5
 42
115.0
  3
STANDARD
100
AcDbAlignedDimension
 13
-117.3016085583576
 23
177.5212699576576
 33
0.0
 14
-114.7008986169198
 24
62.52126995765753
 34
0.0
 50
90.0
100
AcDbRotatedDimension
1001
ACAD
1000
DSTYLE
1002
{
1070
    41
1040
2.0
1070
    42
1040
10.0
1070
    44
1040
0.0
1070
    73
1070
     0
1070
    74
1070
     0
1070
    77
1070
     1
1070
   140
1040
10.0
1070
   141
1040
0.0
1070
   146
1040
0.064286
1070
   147
1040
3.0
1070
   176
1070
    60
1070
   177
1070
    70
1070
   178
1070
    60
1070
   271
1070
     0
1070
   272
1070
     0
1070
   340
1005
1C
1070
   342
1005
109
1002
}
  0
ENDSEC
  0
SECTION
  2
OBJECTS
  0
DICTIONARY
  5
1A
330
0
100
AcDbDictionary
281
     1
  3
ACAD_COLOR
350
144
  3
ACAD_GROUP
350
18
  3
ACAD_LAYOUT
350
58
  3
ACAD_MATERIAL
350
143
  3
ACAD_MLINESTYLE
350
19
  3
ACAD_PLOTSETTINGS
350
59
  3
ACAD_PLOTSTYLENAME
350
56
  3
ACAD_TABLESTYLE
350
145
  3
ACDBHEADERROUNDTRIPXREC
350
5502
  3
AcDbVariableDictionary
350
1D1
  0
DICTIONARY
  5
1B4
330
A
100
AcDbDictionary
280
     1
281
     1
  3
ACAD_LAYERFILTERS
360
545E
  3
ACLYDICTIONARY
360
545D
  0
DICTIONARY
  5
1578
330
2
100
AcDbDictionary
280
     1
281
     1
  3
ACAD_SORTENTS
360
1579
  0
DICTIONARY
  5
144
102
{ACAD_REACTORS
330
1A
102
}
330
1A
100
AcDbDictionary
281
     1
  0
DICTIONARY
  5
18
102
{ACAD_REACTORS
330
1A
102
}
330
1A
100
AcDbDictionary
281
     1
  3
*A1
350
CFC
  3
*A10
350
37CF
  3
*A11
350
3837
  3
*A12
350
2FE9
  3
*A13
350
38C3
  3
*A14
350
39C3
  3
*A15
350
2335
  3
*A16
350
3AB4
  3
*A17
350
3BBC
  3
*A18
350
3D8C
  3
*A19
350
3FA3
  3
*A2
350
1682
  3
*A20
350
419F
  3
*A21
350
439B
  3
*A22
350
4590
  3
*A23
350
312A
  3
*A24
350
46F3
  3
*A25
350
481A
  3
*A26
350
2862
  3
*A27
350
299B
  3
*A28
350
2C07
  3
*A29
350
2DB5
  3
*A3
350
1827
  3
*A30
350
2E88
  3
*A31
350
2FBC
  3
*A32
350
4989
  3
*A33
350
4B40
  3
*A34
350
15D1
  3
*A35
350
4CED
  3
*A36
350
4EB3
  3
*A37
350
5075
  3
*A38
350
5141
  3
*A39
350
5167
  3
*A4
350
218C
  3
*A40
350
527D
  3
*A41
350
52B3
  3
*A42
350
3154
  3
*A43
350
327B
  3
*A44
350
32AA
  3
*A45
350
3650
  3
*A46
350
367C
  3
*A47
350
54FA
  3
*A5
350
18ED
  3
*A6
350
19E5
  3
*A7
350
1F8A
  3
*A8
350
2108
  3
*A9
350
3732
  0
DICTIONARY
  5
58
102
{ACAD_REACTORS
330
1A
102
}
330
1A
100
AcDbDictionary
281
     1
  3
Model
350
5A
  3
ﾚｲｱｳﾄ1
350
5B
  0
DICTIONARY
  5
143
102
{ACAD_REACTORS
330
1A
102
}
330
1A
100
AcDbDictionary
281
     1
  0
DICTIONARY
  5
19
102
{ACAD_REACTORS
330
1A
102
}
330
1A
100
AcDbDictionary
281
     1
  3
STANDARD
350
1D
  0
DICTIONARY
  5
59
102
{ACAD_REACTORS
330
1A
102
}
330
1A
100
AcDbDictionary
281
     1
  0
ACDBDICTIONARYWDFLT
  5
56
102
{ACAD_REACTORS
330
1A
102
}
330
1A
100
AcDbDictionary
281
     1
  3
Normal
350
57
100
AcDbDictionaryWithDefault
340
57
  0
DICTIONARY
  5
145
102
{ACAD_REACTORS
330
1A
102
}
330
1A
100
AcDbDictionary
281
     1
  3
Standard
350
146
  0
DICTIONARY
  5
5502
102
{ACAD_REACTORS
330
1A
102
}
330
1A
100
AcDbDictionary
281
     1
  0
DICTIONARY
  5
1D1
102
{ACAD_REACTORS
330
1A
102
}
330
1A
100
AcDbDictionary
281
     1
  3
CTABLESTYLE
350
1D2
  3
DIMASSOC
350
D03
  3
PROJECTNAME
350
D04
  0
DICTIONARY
  5
545E
102
{ACAD_REACTORS
330
1B4
102
}
330
1B4
100
AcDbDictionary
281
     1
  0
DICTIONARY
  5
545D
102
{ACAD_REACTORS
330
1B4
102
}
330
1B4
100
AcDbDictionary
281
     1
1001
ACAD
1000
<All
  0
SORTENTSTABLE
  5
1579
102
{ACAD_REACTORS
330
1578
102
}
330
1578
100
AcDbSortentsTable
330
2
331
20
  5
20
331
5386
  5
5386
331
53C5
  5
53C5
331
53FC
  5
53FC
331
538E
  5
538E
331
53CD
  5
53CD
331
5357
  5
5357
331
535F
  5
535F
331
5396
  5
5396
331
53D5
  5
53D5
331
539E
  5
539E
331
53DD
  5
53DD
331
5367
  5
5367
331
53A6
  5
53A8
331
53AE
  5
53AE
331
536F
  5
536F
331
5377
  5
5377
331
53B6
  5
53B6
331
5338
  5
5338
331
53ED
  5
53ED
331
53F5
  5
53F5
331
537F
  5
537F
331
53BE
  5
53BE
331
21
  5
21
331
5387
  5
5387
331
53C6
  5
53C6
331
53CE
  5
53CE
331
5358
  5
5358
331
538F
  5
538F
331
5397
  5
5397
331
539F
  5
539F
331
5360
  5
5360
331
53DE
  5
53DE
331
5368
  5
5368
331
5370
  5
5370
331
53AF
  5
53AF
331
53E6
  5
53E5
331
53EE
  5
53EE
331
5339
  5
5339
331
5378
  5
5378
331
53B7
  5
53B7
331
53BF
  5
53BF
331
53F6
  5
53F6
331
5341
  5
5341
331
5380
  5
5380
331
5388
  5
5388
331
53C7
  5
53C7
331
5390
  5
5390
331
53CF
  5
53CF
331
5359
  5
5359
331
5398
  5
5398
331
53D7
  5
53D7
331
5361
  5
5361
331
5369
  5
5369
331
53B0
  5
53B0
331
53E7
  5
53E7
331
5371
  5
5371
331
5379
  5
5379
331
53B8
  5
53B8
331
533A
  5
533A
331
53EF
  5
53EF
331
53F7
  5
53F7
331
23
  5
23
331
5381
  5
5381
331
53C0
  5
53C0
331
5352
  5
5352
331
5389
  5
5389
331
53C8
  5
53C8
331
53D0
  5
53D0
331
535A
  5
535A
331
5391
  5
5391
331
5399
  5
5399
331
53A1
  5
53A1
331
53D8
  5
53D8
331
5362
  5
5362
331
53A9
  5
53A6
331
53E0
  5
53E0
331
536A
  5
536A
331
53E8
  5
53E8
331
5372
  5
5372
331
53B9
  5
53B9
331
537A
  5
537A
331
53C1
  5
53C1
331
53F8
  5
53F8
331
5382
  5
5382
331
538A
  5
538A
331
53C9
  5
53C9
331
5353
  5
5353
331
535B
  5
535B
331
5392
  5
5392
331
53D1
  5
53D1
331
539A
  5
539A
331
5363
  5
5363
331
53A2
  5
53A2
331
53D9
  5
53D9
331
53AA
  5
53AA
331
53E1
  5
53E1
331
536B
  5
536B
331
53B2
  5
53B2
331
53E9
  5
53E9
331
5373
  5
5373
331
537B
  5
537B
331
53BA
  5
53BA
331
53F1
  5
53F1
331
53F9
  5
53F9
331
5383
  5
5383
331
53C2
  5
53C2
331
53CA
  5
53CA
331
5354
  5
5354
331
538B
  5
538B
331
53D2
  5
53D2
331
535C
  5
535C
331
5393
  5
5393
331
539B
  5
539B
331
53A3
  5
53A3
331
53DA
  5
53DA
331
5364
  5
5364
331
536C
  5
536C
331
53AB
  5
53AB
331
53E2
  5
53E2
331
53EA
  5
53EA
331
5374
  5
5374
331
53B3
  5
53B3
331
53BB
  5
53BB
331
53F2
  5
53F2
331
537C
  5
537C
331
53C3
  5
53C3
331
53FA
  5
53FA
331
5384
  5
5384
331
538C
  5
538C
331
53CB
  5
53CB
331
5355
  5
5355
331
535D
  5
535D
331
5394
  5
5394
331
53D3
  5
53D3
331
539C
  5
539C
331
1F
  5
1F
331
53DB
  5
53DB
331
5365
  5
5365
331
53A4
  5
53A4
331
53AC
  5
53AC
331
53E3
  5
53E3
331
536D
  5
536D
331
5375
  5
5375
331
53B4
  5
53B4
331
53EB
  5
53EB
331
537D
  5
537D
331
53BC
  5
53BC
331
53F3
  5
53F4
331
53FB
  5
53FB
331
5385
  5
5385
331
53CC
  5
53CC
331
5356
  5
5356
331
538D
  5
538D
331
53D4
  5
53D4
331
535E
  5
535E
331
5395
  5
5395
331
539D
  5
539D
331
53A5
  5
53A5
331
53DC
  5
53DC
331
5366
  5
5366
331
536E
  5
536E
331
53AD
  5
53AD
331
53E4
  5
53E4
331
53EC
  5
53EC
331
5376
  5
5376
331
53B5
  5
53B5
331
5337
  5
5337
331
53BD
  5
53BD
331
53F4
  5
53F3
331
537E
  5
537E
  0
GROUP
  5
CFC
102
{ACAD_REACTORS
330
18
102
}
330
18
100
AcDbGroup
300

 70
     1
 71
     1
  0
GROUP
  5
37CF
102
{ACAD_REACTORS
330
18
102
}
330
18
100
AcDbGroup
300

 70
     1
 71
     1
  0
GROUP
  5
3837
102
{ACAD_REACTORS
330
18
102
}
330
18
100
AcDbGroup
300

 70
     1
 71
     1
  0
GROUP
  5
2FE9
102
{ACAD_REACTORS
330
18
102
}
330
18
100
AcDbGroup
300

 70
     1
 71
     1
  0
GROUP
  5
38C3
102
{ACAD_REACTORS
330
18
102
}
330
18
100
AcDbGroup
300

 70
     1
 71
     1
  0
GROUP
  5
39C3
102
{ACAD_REACTORS
330
18
102
}
330
18
100
AcDbGroup
300

 70
     1
 71
     1
  0
GROUP
  5
2335
102
{ACAD_REACTORS
330
18
102
}
330
18
100
AcDbGroup
300

 70
     1
 71
     1
  0
GROUP
  5
3AB4
102
{ACAD_REACTORS
330
18
102
}
330
18
100
AcDbGroup
300

 70
     1
 71
     1
  0
GROUP
  5
3BBC
102
{ACAD_REACTORS
330
18
102
}
330
18
100
AcDbGroup
300

 70
     1
 71
     1
  0
GROUP
  5
3D8C
102
{ACAD_REACTORS
330
18
102
}
330
18
100
AcDbGroup
300

 70
     1
 71
     1
  0
GROUP
  5
3FA3
102
{ACAD_REACTORS
330
18
102
}
330
18
100
AcDbGroup
300

 70
     1
 71
     1
  0
GROUP
  5
1682
102
{ACAD_REACTORS
330
18
102
}
330
18
100
AcDbGroup
300

 70
     1
 71
     1
  0
GROUP
  5
419F
102
{ACAD_REACTORS
330
18
102
}
330
18
100
AcDbGroup
300

 70
     1
 71
     1
  0
GROUP
  5
439B
102
{ACAD_REACTORS
330
18
102
}
330
18
100
AcDbGroup
300

 70
     1
 71
     1
  0
GROUP
  5
4590
102
{ACAD_REACTORS
330
18
102
}
330
18
100
AcDbGroup
300

 70
     1
 71
     1
  0
GROUP
  5
312A
102
{ACAD_REACTORS
330
18
102
}
330
18
100
AcDbGroup
300

 70
     1
 71
     1
  0
GROUP
  5
46F3
102
{ACAD_REACTORS
330
18
102
}
330
18
100
AcDbGroup
300

 70
     1
 71
     1
  0
GROUP
  5
481A
102
{ACAD_REACTORS
330
18
102
}
330
18
100
AcDbGroup
300

 70
     1
 71
     1
  0
GROUP
  5
2862
102
{ACAD_REACTORS
330
18
102
}
330
18
100
AcDbGroup
300

 70
     1
 71
     1
  0
GROUP
  5
299B
102
{ACAD_REACTORS
330
18
102
}
330
18
100
AcDbGroup
300

 70
     1
 71
     1
  0
GROUP
  5
2C07
102
{ACAD_REACTORS
330
18
102
}
330
18
100
AcDbGroup
300

 70
     1
 71
     1
  0
GROUP
  5
2DB5
102
{ACAD_REACTORS
330
18
102
}
330
18
100
AcDbGroup
300

 70
     1
 71
     1
  0
GROUP
  5
1827
102
{ACAD_REACTORS
330
18
102
}
330
18
100
AcDbGroup
300

 70
     1
 71
     1
  0
GROUP
  5
2E88
102
{ACAD_REACTORS
330
18
102
}
330
18
100
AcDbGroup
300

 70
     1
 71
     1
  0
GROUP
  5
2FBC
102
{ACAD_REACTORS
330
18
102
}
330
18
100
AcDbGroup
300

 70
     1
 71
     1
  0
GROUP
  5
4989
102
{ACAD_REACTORS
330
18
102
}
330
18
100
AcDbGroup
300

 70
     1
 71
     1
  0
GROUP
  5
4B40
102
{ACAD_REACTORS
330
18
102
}
330
18
100
AcDbGroup
300

 70
     1
 71
     1
  0
GROUP
  5
15D1
102
{ACAD_REACTORS
330
18
102
}
330
18
100
AcDbGroup
300

 70
     1
 71
     1
  0
GROUP
  5
4CED
102
{ACAD_REACTORS
330
18
102
}
330
18
100
AcDbGroup
300

 70
     1
 71
     1
  0
GROUP
  5
4EB3
102
{ACAD_REACTORS
330
18
102
}
330
18
100
AcDbGroup
300

 70
     1
 71
     1
  0
GROUP
  5
5075
102
{ACAD_REACTORS
330
18
102
}
330
18
100
AcDbGroup
300

 70
     1
 71
     1
  0
GROUP
  5
5141
102
{ACAD_REACTORS
330
18
102
}
330
18
100
AcDbGroup
300

 70
     1
 71
     1
  0
GROUP
  5
5167
102
{ACAD_REACTORS
330
18
102
}
330
18
100
AcDbGroup
300

 70
     1
 71
     1
  0
GROUP
  5
218C
102
{ACAD_REACTORS
330
18
102
}
330
18
100
AcDbGroup
300

 70
     1
 71
     1
  0
GROUP
  5
527D
102
{ACAD_REACTORS
330
18
102
}
330
18
100
AcDbGroup
300

 70
     1
 71
     1
  0
GROUP
  5
52B3
102
{ACAD_REACTORS
330
18
102
}
330
18
100
AcDbGroup
300

 70
     1
 71
     1
  0
GROUP
  5
3154
102
{ACAD_REACTORS
330
18
102
}
330
18
100
AcDbGroup
300

 70
     1
 71
     1
  0
GROUP
  5
327B
102
{ACAD_REACTORS
330
18
102
}
330
18
100
AcDbGroup
300

 70
     1
 71
     1
  0
GROUP
  5
32AA
102
{ACAD_REACTORS
330
18
102
}
330
18
100
AcDbGroup
300

 70
     1
 71
     1
  0
GROUP
  5
3650
102
{ACAD_REACTORS
330
18
102
}
330
18
100
AcDbGroup
300

 70
     1
 71
     1
  0
GROUP
  5
367C
102
{ACAD_REACTORS
330
18
102
}
330
18
100
AcDbGroup
300

 70
     1
 71
     1
  0
GROUP
  5
54FA
102
{ACAD_REACTORS
330
18
102
}
330
18
100
AcDbGroup
300

 70
     1
 71
     1
340
546E
340
546D
340
545F
340
545C
340
545B
340
545A
340
5459
340
5458
340
5457
340
5456
340
5455
340
5454
340
5453
340
5452
340
5451
340
5450
340
544F
340
544E
340
544D
340
544C
340
544B
340
544A
340
5449
340
5448
340
5447
340
5446
340
5445
340
5444
340
5443
340
5442
340
5441
340
5440
340
543F
340
543E
340
543D
340
543C
340
543B
340
543A
340
5439
340
5438
340
5437
340
5436
340
5435
340
5434
340
5433
340
5432
340
5431
340
5430
340
542F
340
542E
340
542D
340
542C
340
542B
340
542A
340
5429
340
5428
340
5427
340
5426
340
5425
340
5424
340
5423
340
5422
340
5421
340
5420
340
541F
340
541E
340
541D
340
541C
340
541B
340
541A
340
5419
340
5418
340
5417
340
5416
340
5415
340
5414
340
5413
340
5412
340
5411
340
5410
340
540F
340
540E
340
540D
340
540C
340
540B
340
540A
340
5409
340
5408
340
5407
340
5406
340
5405
340
5404
340
5403
340
5402
340
5401
340
5400
340
53FC
340
53FB
340
53FA
340
53F9
340
53F8
340
53F7
340
53F6
340
53F5
340
53F3
340
53F4
340
53F2
340
53F1
340
53EF
340
53EE
340
53ED
340
53EC
340
53EB
340
53EA
340
53E9
340
53E8
340
53E7
340
53E6
340
53E4
340
53E3
340
53E2
340
53E1
340
53E0
340
53DE
340
53DD
340
53DC
340
53DB
340
53DA
340
53D9
340
53D8
340
53D7
340
53D5
340
53D4
340
53D3
340
53D2
340
53D1
340
53D0
340
53CF
340
53CE
340
53CD
340
53CC
340
53CB
340
53CA
340
53C9
340
53C8
340
53C7
340
53C6
340
53C5
340
53C3
340
53C2
340
53C1
340
53C0
340
53BF
340
53BE
340
53BD
340
53BC
340
53BB
340
53BA
340
53B9
340
53B8
340
53B7
340
53B6
340
53B5
340
53B4
340
53B3
340
53B2
340
53B0
340
53AF
340
53AE
340
53AD
340
53AC
340
53AB
340
53AA
340
53A6
340
53A9
340
53A5
340
53A4
340
53A3
340
53A2
340
53A1
340
539F
340
539E
340
539D
340
539C
340
539B
340
539A
340
5399
340
5398
340
5397
340
5396
340
5395
340
5394
340
5393
340
5392
340
5391
340
5390
340
538F
340
538E
340
538D
340
538C
340
538B
340
538A
340
5389
340
5388
340
5387
340
5386
340
5385
340
5384
340
5383
340
5382
340
5381
340
5380
340
537F
340
537E
340
537D
340
537C
340
537B
340
537A
340
5379
340
5378
340
5377
340
5376
340
5375
340
5374
340
5373
340
5372
340
5371
340
5370
340
536F
340
536E
340
536D
340
536C
340
536B
340
536A
340
5369
340
5368
340
5367
340
5366
340
5365
340
5364
340
5363
340
5362
340
5361
340
5360
340
535F
340
535E
340
535D
340
535C
340
535B
340
535A
340
5359
340
5358
340
5357
340
5356
340
5355
340
5354
340
5353
340
5352
340
5341
340
533A
340
5339
340
5338
340
5337
  0
GROUP
  5
18ED
102
{ACAD_REACTORS
330
18
102
}
330
18
100
AcDbGroup
300

 70
     1
 71
     1
  0
GROUP
  5
19E5
102
{ACAD_REACTORS
330
18
102
}
330
18
100
AcDbGroup
300

 70
     1
 71
     1
  0
GROUP
  5
1F8A
102
{ACAD_REACTORS
330
18
102
}
330
18
100
AcDbGroup
300

 70
     1
 71
     1
  0
GROUP
  5
2108
102
{ACAD_REACTORS
330
18
102
}
330
18
100
AcDbGroup
300

 70
     1
 71
     1
  0
GROUP
  5
3732
102
{ACAD_REACTORS
330
18
102
}
330
18
100
AcDbGroup
300

 70
     1
 71
     1
  0
LAYOUT
  5
5A
102
{ACAD_XDICTIONARY
360
5503
102
}
102
{ACAD_REACTORS
330
58
102
}
330
58
100
AcDbPlotSettings
  1

  2
none_device
  4
Letter_(8.50_x_11.00_Inches)
  6

 40
6.349999904632568
 41
6.349999904632568
 42
6.350006103515625
 43
6.350006103515625
 44
215.8999938964844
 45
279.3999938964844
 46
0.0
 47
0.0
 48
0.0
 49
0.0
140
0.0
141
0.0
142
1.0
143
76.54229552604896
 70
 11952
 72
     0
 73
     1
 74
     0
  7
monochrome.ctb
 75
     0
147
0.0130646721936851
148
9973.459437949902
149
463.9633285297773
100
AcDbLayout
  1
Model
 70
     1
 71
     0
 10
0.0
 20
0.0
 11
12.0
 21
9.0
 12
0.0
 22
0.0
 32
0.0
 14
0.0
 24
0.0
 34
0.0
 15
0.0
 25
0.0
 35
0.0
146
0.0
 13
0.0
 23
0.0
 33
0.0
 16
1.0
 26
0.0
 36
0.0
 17
0.0
 27
1.0
 37
0.0
 76
     0
330
2
1001
ACAD_PSEXT
1000
なし
1000
なし
1000
適切ではありません
1000
新しいプロッタ環境設定名を選択しない限り、レイアウトは印刷されません。
1070
     0
  0
LAYOUT
  5
5B
102
{ACAD_XDICTIONARY
360
5505
102
}
102
{ACAD_REACTORS
330
58
102
}
330
58
100
AcDbPlotSettings
  1

  2
なし
  4

  6

 40
0.0
 41
0.0
 42
0.0
 43
0.0
 44
0.0
 45
0.0
 46
0.0
 47
0.0
 48
0.0
 49
0.0
140
0.0
141
0.0
142
1.0
143
1.0
 70
   688
 72
     0
 73
     0
 74
     5
  7
monochrome.ctb
 75
    16
147
1.0
148
0.0
149
0.0
100
AcDbLayout
  1
ﾚｲｱｳﾄ1
 70
     1
 71
     1
 10
0.0
 20
0.0
 11
12.0
 21
9.0
 12
0.0
 22
0.0
 32
0.0
 14
1.000000000000000E+20
 24
1.000000000000000E+20
 34
1.000000000000000E+20
 15
-1.000000000000000E+20
 25
-1.000000000000000E+20
 35
-1.000000000000000E+20
146
0.0
 13
0.0
 23
0.0
 33
0.0
 16
1.0
 26
0.0
 36
0.0
 17
0.0
 27
1.0
 37
0.0
 76
     0
330
7
  0
MLINESTYLE
  5
1D
102
{ACAD_REACTORS
330
19
102
}
330
19
100
AcDbMlineStyle
  2
STANDARD
 70
     0
  3

 62
   256
 51
90.0
 52
90.0
 71
     2
 49
0.5
 62
   256
  6
BYLAYER
 49
-0.5
 62
   256
  6
BYLAYER
  0
ACDBPLACEHOLDER
  5
57
102
{ACAD_REACTORS
330
56
102
}
330
56
  0
TABLESTYLE
  5
146
102
{ACAD_REACTORS
330
145
102
}
330
145
100
AcDbTableStyle
  3
Standard
 70
     0
 71
     0
 40
0.06
 41
0.06
280
     0
281
     0
  7
STANDARD
140
0.18
170
     2
 62
     0
 63
     7
283
     0
274
    -2
284
     1
 64
     0
275
    -2
285
     1
 65
     0
276
    -2
286
     1
 66
     0
277
    -2
287
     1
 67
     0
278
    -2
288
     1
 68
     0
279
    -2
289
     1
 69
     0
  7
STANDARD
140
0.25
170
     5
 62
     0
 63
     7
283
     0
274
    -2
284
     1
 64
     0
275
    -2
285
     1
 65
     0
276
    -2
286
     1
 66
     0
277
    -2
287
     1
 67
     0
278
    -2
288
     1
 68
     0
279
    -2
289
     1
 69
     0
  7
STANDARD
140
0.18
170
     5
 62
     0
 63
     7
283
     0
274
    -2
284
     1
 64
     0
275
    -2
285
     1
 65
     0
276
    -2
286
     1
 66
     0
277
    -2
287
     1
 67
     0
278
    -2
288
     1
 68
     0
279
    -2
289
     1
 69
     0
  0
DICTIONARYVAR
  5
1D2
102
{ACAD_REACTORS
330
1D1
102
}
330
1D1
100
DictionaryVariables
280
     0
  1
STANDARD
  0
DICTIONARYVAR
  5
D03
102
{ACAD_REACTORS
330
1D1
102
}
330
1D1
100
DictionaryVariables
280
     0
  1
1
  0
DICTIONARYVAR
  5
D04
102
{ACAD_REACTORS
330
1D1
102
}
330
1D1
100
DictionaryVariables
280
     0
  1

  0
DICTIONARY
  5
5503
330
5A
100
AcDbDictionary
280
     1
281
     1
  3
ACAD_XREC_ROUNDTRIP
360
5504
  0
DICTIONARY
  5
5505
330
5B
100
AcDbDictionary
280
     1
281
     1
  3
ACAD_XREC_ROUNDTRIP
360
5506
  0
XRECORD
  5
5504
102
{ACAD_REACTORS
330
5503
102
}
330
5503
100
AcDbXrecord
280
     1
102
SHADEPLOT
 70
     0
102
SHADEPLOTRESLEVEL
 70
     2
102
SHADEPLOTCUSTOMDPI
 70
   300
  0
XRECORD
  5
5506
102
{ACAD_REACTORS
330
5505
102
}
330
5505
100
AcDbXrecord
280
     1
102
SHADEPLOT
 70
     0
102
SHADEPLOTRESLEVEL
 70
     2
102
SHADEPLOTCUSTOMDPI
 70
   300
  0
ENDSEC
  0
EOF
