  0
SECTION
  2
HEADER
  9
$ACADVER
  1
AC1015
  9
$ACADMAINTVER
 70
    20
  9
$DWGCODEPAGE
  3
ANSI_932
  9
$INSBASE
 10
922.019522
 20
-675.4306699999999
 30
0.0
  9
$EXTMIN
 10
-48.88800139664181
 20
-0.0007292373305745
 30
-0.0000000000112498
  9
$EXTMAX
 10
148.8908216395789
 20
167.4595878699075
 30
0.0000000000002956
  9
$LIMMIN
 10
0.0
 20
0.0
  9
$LIMMAX
 10
420.0
 20
297.0
  9
$ORTHOMODE
 70
     1
  9
$REGENMODE
 70
     1
  9
$FILLMODE
 70
     1
  9
$QTEXTMODE
 70
     0
  9
$MIRRTEXT
 70
     1
  9
$LTSCALE
 40
1.0
  9
$ATTMODE
 70
     1
  9
$TEXTSIZE
 40
30.0
  9
$TRACEWID
 40
0.05
  9
$TEXTSTYLE
  7
SUNPOU
  9
$CLAYER
  8
0
  9
$CELTYPE
  6
BYLAYER
  9
$CECOLOR
 62
   256
  9
$CELTSCALE
 40
1.0
  9
$DISPSILH
 70
     0
  9
$DIMSCALE
 40
1.0
  9
$DIMASZ
 40
2.0
  9
$DIMEXO
 40
10.0
  9
$DIMDLI
 40
0.38
  9
$DIMRND
 40
0.0
  9
$DIMDLE
 40
0.0
  9
$DIMEXE
 40
0.0
  9
$DIMTP
 40
0.0
  9
$DIMTM
 40
0.0
  9
$DIMTXT
 40
5.0
  9
$DIMCEN
 40
0.0
  9
$DIMTSZ
 40
0.0
  9
$DIMTOL
 70
     0
  9
$DIMLIM
 70
     0
  9
$DIMTIH
 70
     0
  9
$DIMTOH
 70
     0
  9
$DIMSE1
 70
     0
  9
$DIMSE2
 70
     0
  9
$DIMTAD
 70
     1
  9
$DIMZIN
 70
     0
  9
$DIMBLK
  1
Dot
  9
$DIMASO
 70
     1
  9
$DIMSHO
 70
     1
  9
$DIMPOST
  1

  9
$DIMAPOST
  1

  9
$DIMALT
 70
     0
  9
$DIMALTD
 70
     2
  9
$DIMALTF
 40
25.4
  9
$DIMLFAC
 40
1.0
  9
$DIMTOFL
 70
     0
  9
$DIMTVP
 40
0.0
  9
$DIMTIX
 70
     0
  9
$DIMSOXD
 70
     0
  9
$DIMSAH
 70
     0
  9
$DIMBLK1
  1

  9
$DIMBLK2
  1

  9
$DIMSTYLE
  2
STANDARD
  9
$DIMCLRD
 70
    60
  9
$DIMCLRE
 70
    70
  9
$DIMCLRT
 70
    60
  9
$DIMTFAC
 40
0.064286
  9
$DIMGAP
 40
3.0
  9
$DIMJUST
 70
     0
  9
$DIMSD1
 70
     0
  9
$DIMSD2
 70
     0
  9
$DIMTOLJ
 70
     1
  9
$DIMTZIN
 70
     0
  9
$DIMALTZ
 70
     0
  9
$DIMALTTZ
 70
     0
  9
$DIMUPT
 70
     0
  9
$DIMDEC
 70
     0
  9
$DIMTDEC
 70
     0
  9
$DIMALTU
 70
     2
  9
$DIMALTTD
 70
     2
  9
$DIMTXSTY
  7
SUNPOU
  9
$DIMAUNIT
 70
     0
  9
$DIMADEC
 70
     0
  9
$DIMALTRND
 40
0.0
  9
$DIMAZIN
 70
     0
  9
$DIMDSEP
 70
    46
  9
$DIMATFIT
 70
     3
  9
$DIMFRAC
 70
     0
  9
$DIMLDRBLK
  1

  9
$DIMLUNIT
 70
     2
  9
$DIMLWD
 70
    -2
  9
$DIMLWE
 70
    -2
  9
$DIMTMOVE
 70
     0
  9
$LUNITS
 70
     2
  9
$LUPREC
 70
     5
  9
$SKETCHINC
 40
0.1
  9
$FILLETRAD
 40
0.0
  9
$AUNITS
 70
     0
  9
$AUPREC
 70
     0
  9
$MENU
  1
acad
  9
$ELEVATION
 40
0.0
  9
$PELEVATION
 40
0.0
  9
$THICKNESS
 40
0.0
  9
$LIMCHECK
 70
     0
  9
$CHAMFERA
 40
0.0
  9
$CHAMFERB
 40
0.0
  9
$CHAMFERC
 40
0.0
  9
$CHAMFERD
 40
0.0
  9
$SKPOLY
 70
     0
  9
$TDCREATE
 40
2450623.654673033
  9
$TDUCREATE
 40
2450623.279673032
  9
$TDUPDATE
 40
2454585.413330382
  9
$TDUUPDATE
 40
2454585.038330382
  9
$TDINDWG
 40
0.6457989236
  9
$TDUSRTIMER
 40
0.6457987500
  9
$USRTIMER
 70
     1
  9
$ANGBASE
 50
0.0
  9
$ANGDIR
 70
     0
  9
$PDMODE
 70
     0
  9
$PDSIZE
 40
0.0
  9
$PLINEWID
 40
0.0
  9
$SPLFRAME
 70
     0
  9
$SPLINETYPE
 70
     6
  9
$SPLINESEGS
 70
     8
  9
$HANDSEED
  5
4283
  9
$SURFTAB1
 70
     6
  9
$SURFTAB2
 70
     6
  9
$SURFTYPE
 70
     6
  9
$SURFU
 70
     6
  9
$SURFV
 70
     6
  9
$UCSBASE
  2

  9
$UCSNAME
  2

  9
$UCSORG
 10
0.0
 20
0.0
 30
0.0
  9
$UCSXDIR
 10
1.0
 20
0.0
 30
0.0
  9
$UCSYDIR
 10
0.0
 20
1.0
 30
0.0
  9
$UCSORTHOREF
  2

  9
$UCSORTHOVIEW
 70
     0
  9
$UCSORGTOP
 10
0.0
 20
0.0
 30
0.0
  9
$UCSORGBOTTOM
 10
0.0
 20
0.0
 30
0.0
  9
$UCSORGLEFT
 10
0.0
 20
0.0
 30
0.0
  9
$UCSORGRIGHT
 10
0.0
 20
0.0
 30
0.0
  9
$UCSORGFRONT
 10
0.0
 20
0.0
 30
0.0
  9
$UCSORGBACK
 10
0.0
 20
0.0
 30
0.0
  9
$PUCSBASE
  2

  9
$PUCSNAME
  2

  9
$PUCSORG
 10
0.0
 20
0.0
 30
0.0
  9
$PUCSXDIR
 10
1.0
 20
0.0
 30
0.0
  9
$PUCSYDIR
 10
0.0
 20
1.0
 30
0.0
  9
$PUCSORTHOREF
  2

  9
$PUCSORTHOVIEW
 70
     0
  9
$PUCSORGTOP
 10
0.0
 20
0.0
 30
0.0
  9
$PUCSORGBOTTOM
 10
0.0
 20
0.0
 30
0.0
  9
$PUCSORGLEFT
 10
0.0
 20
0.0
 30
0.0
  9
$PUCSORGRIGHT
 10
0.0
 20
0.0
 30
0.0
  9
$PUCSORGFRONT
 10
0.0
 20
0.0
 30
0.0
  9
$PUCSORGBACK
 10
0.0
 20
0.0
 30
0.0
  9
$USERI1
 70
     0
  9
$USERI2
 70
     0
  9
$USERI3
 70
     0
  9
$USERI4
 70
     0
  9
$USERI5
 70
     0
  9
$USERR1
 40
0.0
  9
$USERR2
 40
0.0
  9
$USERR3
 40
0.0
  9
$USERR4
 40
0.0
  9
$USERR5
 40
0.0
  9
$WORLDVIEW
 70
     1
  9
$SHADEDGE
 70
     3
  9
$SHADEDIF
 70
    70
  9
$TILEMODE
 70
     1
  9
$MAXACTVP
 70
    16
  9
$PINSBASE
 10
0.0
 20
0.0
 30
0.0
  9
$PLIMCHECK
 70
     0
  9
$PEXTMIN
 10
1.000000000000000E+20
 20
1.000000000000000E+20
 30
1.000000000000000E+20
  9
$PEXTMAX
 10
-1.000000000000000E+20
 20
-1.000000000000000E+20
 30
-1.000000000000000E+20
  9
$PLIMMIN
 10
0.0
 20
0.0
  9
$PLIMMAX
 10
12.0
 20
9.0
  9
$UNITMODE
 70
     0
  9
$VISRETAIN
 70
     0
  9
$PLINEGEN
 70
     0
  9
$PSLTSCALE
 70
     1
  9
$TREEDEPTH
 70
  3020
  9
$CMLSTYLE
  2
STANDARD
  9
$CMLJUST
 70
     0
  9
$CMLSCALE
 40
1.0
  9
$PROXYGRAPHICS
 70
     1
  9
$MEASUREMENT
 70
     0
  9
$CELWEIGHT
370
    -1
  9
$ENDCAPS
280
     0
  9
$JOINSTYLE
280
     0
  9
$LWDISPLAY
290
     0
  9
$INSUNITS
 70
     0
  9
$HYPERLINKBASE
  1

  9
$STYLESHEET
  1

  9
$XEDIT
290
     1
  9
$CEPSNTYPE
380
     0
  9
$PSTYLEMODE
290
     1
  9
$FINGERPRINTGUID
  2
{FB88A696-E29C-4009-92AF-A3599A8169D5}
  9
$VERSIONGUID
  2
{1243F42E-C61C-429A-8ED5-E4FDC8BDB7CB}
  9
$EXTNAMES
290
     1
  9
$PSVPSCALE
 40
0.0
  9
$OLESTARTUP
290
     0
  0
ENDSEC
  0
SECTION
  2
CLASSES
  0
CLASS
  1
DICTIONARYVAR
  2
AcDbDictionaryVar
  3
ObjectDBX Classes
 90
        0
280
     0
281
     0
  0
CLASS
  1
ACDBDICTIONARYWDFLT
  2
AcDbDictionaryWithDefault
  3
ObjectDBX Classes
 90
        0
280
     0
281
     0
  0
CLASS
  1
ACDBPLACEHOLDER
  2
AcDbPlaceHolder
  3
ObjectDBX Classes
 90
        0
280
     0
281
     0
  0
CLASS
  1
LAYOUT
  2
AcDbLayout
  3
ObjectDBX Classes
 90
        0
280
     0
281
     0
  0
CLASS
  1
TABLESTYLE
  2
AcDbTableStyle
  3
ObjectDBX Classes
 90
     2047
280
     0
281
     0
  0
CLASS
  1
SORTENTSTABLE
  2
AcDbSortentsTable
  3
ObjectDBX Classes
 90
        0
280
     0
281
     0
  0
ENDSEC
  0
SECTION
  2
TABLES
  0
TABLE
  2
VPORT
  5
12
330
0
100
AcDbSymbolTable
 70
     3
  0
VPORT
  5
427D
330
12
100
AcDbSymbolTableRecord
100
AcDbViewportTableRecord
  2
*Active
 70
     0
 10
0.0
 20
0.0
 11
1.0
 21
1.0
 12
50.00141012146854
 22
83.72942931628847
 13
0.0
 23
0.0
 14
1.0
 24
1.0
 15
0.0
 25
0.0
 16
0.0
 26
0.0
 36
1.0
 17
0.0
 27
0.0
 37
0.0
 40
168.7370158399489
 41
1.530534351145037
 42
50.0
 43
0.0
 44
0.0
 50
0.0
 51
0.0
 71
     0
 72
 20000
 73
     1
 74
     1
 75
     0
 76
     0
 77
     0
 78
     0
281
     0
 65
     1
110
0.0
120
0.0
130
0.0
111
1.0
121
0.0
131
0.0
112
0.0
122
1.0
132
0.0
 79
     0
146
0.0
  0
ENDTAB
  0
TABLE
  2
LTYPE
  5
D
330
0
100
AcDbSymbolTable
 70
     2
  0
LTYPE
  5
E
330
D
100
AcDbSymbolTableRecord
100
AcDbLinetypeTableRecord
  2
BYBLOCK
 70
     0
  3

 72
    65
 73
     0
 40
0.0
  0
LTYPE
  5
F
330
D
100
AcDbSymbolTableRecord
100
AcDbLinetypeTableRecord
  2
BYLAYER
 70
     0
  3

 72
    65
 73
     0
 40
0.0
  0
LTYPE
  5
5
330
D
100
AcDbSymbolTableRecord
100
AcDbLinetypeTableRecord
  2
CONTINUOUS
 70
     0
  3
Solid line
 72
    65
 73
     0
 40
0.0
  0
ENDTAB
  0
TABLE
  2
LAYER
  5
A
102
{ACAD_XDICTIONARY
360
1B4
102
}
330
0
100
AcDbSymbolTable
 70
     6
  0
LAYER
  5
4
330
A
100
AcDbSymbolTableRecord
100
AcDbLayerTableRecord
  2
0
 70
     0
 62
     7
  6
CONTINUOUS
370
    -3
390
57
  0
LAYER
  5
25
330
A
100
AcDbSymbolTableRecord
100
AcDbLayerTableRecord
  2
KIJUN
 70
     0
 62
     7
  6
CONTINUOUS
370
    -3
390
57
  0
LAYER
  5
22
330
A
100
AcDbSymbolTableRecord
100
AcDbLayerTableRecord
  2
HOJO
 70
     0
 62
     3
  6
CONTINUOUS
370
    -3
390
57
  0
LAYER
  5
1B
330
A
100
AcDbSymbolTableRecord
100
AcDbLayerTableRecord
  2
WAKU
 70
     0
 62
     1
  6
CONTINUOUS
370
    -3
390
57
  0
LAYER
  5
31
330
A
100
AcDbSymbolTableRecord
100
AcDbLayerTableRecord
  2
DEFPOINTS
 70
     0
 62
     7
  6
CONTINUOUS
290
     0
370
    -3
390
57
  0
LAYER
  5
28
330
A
100
AcDbSymbolTableRecord
100
AcDbLayerTableRecord
  2
SUNPOU
 70
     0
 62
    70
  6
CONTINUOUS
370
    -3
390
57
  0
ENDTAB
  0
TABLE
  2
STYLE
  5
B
330
0
100
AcDbSymbolTable
 70
     3
  0
STYLE
  5
C
330
B
100
AcDbSymbolTableRecord
100
AcDbTextStyleTableRecord
  2
STANDARD
 70
     0
 40
0.0
 41
1.0
 50
0.0
 71
     0
 42
0.2
  3
txt
  4

  0
STYLE
  5
1C
330
B
100
AcDbSymbolTableRecord
100
AcDbTextStyleTableRecord
  2
SUNPOU
 70
     0
 40
0.0
 41
1.0
 50
0.0
 71
     0
 42
30.0
  3
txt
  4
bigfont
  0
ENDTAB
  0
TABLE
  2
VIEW
  5
10
330
0
100
AcDbSymbolTable
 70
     0
  0
ENDTAB
  0
TABLE
  2
UCS
  5
11
330
0
100
AcDbSymbolTable
 70
     0
  0
ENDTAB
  0
TABLE
  2
APPID
  5
14
330
0
100
AcDbSymbolTable
 70
    10
  0
APPID
  5
15
330
14
100
AcDbSymbolTableRecord
100
AcDbRegAppTableRecord
  2
ACAD
 70
     0
  0
APPID
  5
1D3
330
14
100
AcDbSymbolTableRecord
100
AcDbRegAppTableRecord
  2
ACAD_DSTYLE_DIMTEXT_FILL
 70
     0
  0
APPID
  5
1D4
330
14
100
AcDbSymbolTableRecord
100
AcDbRegAppTableRecord
  2
ACAD_DSTYLE_DIMEXT_LENGTH
 70
     0
  0
APPID
  5
1D5
330
14
100
AcDbSymbolTableRecord
100
AcDbRegAppTableRecord
  2
ACAD_DSTYLE_DIMEXT_ENABLED
 70
     0
  0
APPID
  5
1D6
330
14
100
AcDbSymbolTableRecord
100
AcDbRegAppTableRecord
  2
ACAD_DSTYLE_DIM_LINETYPE
 70
     0
  0
APPID
  5
1D7
330
14
100
AcDbSymbolTableRecord
100
AcDbRegAppTableRecord
  2
ACAD_DSTYLE_DIM_EXT1_LINETYPE
 70
     0
  0
APPID
  5
1D8
330
14
100
AcDbSymbolTableRecord
100
AcDbRegAppTableRecord
  2
ACAD_DSTYLE_DIM_EXT2_LINETYPE
 70
     0
  0
APPID
  5
294
330
14
100
AcDbSymbolTableRecord
100
AcDbRegAppTableRecord
  2
ACAD_DSTYLE_DIMJOGGED_JOGANGLE_SYMBOL
 70
     0
  0
APPID
  5
478
330
14
100
AcDbSymbolTableRecord
100
AcDbRegAppTableRecord
  2
ACAD_DSTYLE_DIMARC_LENGTH_SYMBOL
 70
     0
  0
APPID
  5
F55
330
14
100
AcDbSymbolTableRecord
100
AcDbRegAppTableRecord
  2
ACAD_EXEMPT_FROM_CAD_STANDARDS
 70
     0
  0
ENDTAB
  0
TABLE
  2
DIMSTYLE
  5
16
330
0
100
AcDbSymbolTable
 70
     3
100
AcDbDimStyleTable
 71
     1
340
1E
  0
DIMSTYLE
105
1E
102
{ACAD_REACTORS
330
4172
330
417F
102
}
330
16
100
AcDbSymbolTableRecord
100
AcDbDimStyleTableRecord
  2
STANDARD
 70
     0
340
C
  0
ENDTAB
  0
TABLE
  2
BLOCK_RECORD
  5
1
330
0
100
AcDbSymbolTable
 70
     9
  0
BLOCK_RECORD
  5
2
102
{ACAD_XDICTIONARY
360
D13
102
}
330
1
100
AcDbSymbolTableRecord
100
AcDbBlockTableRecord
  2
*MODEL_SPACE
340
5A
  0
BLOCK_RECORD
  5
7
330
1
100
AcDbSymbolTableRecord
100
AcDbBlockTableRecord
  2
*PAPER_SPACE
340
5B
  0
BLOCK_RECORD
  5
109
330
1
100
AcDbSymbolTableRecord
100
AcDbBlockTableRecord
  2
_Dot
340
0
102
{BLKREFS
331
3E4D
331
3E4E
331
3E56
331
3E57
331
414C
331
414D
331
4155
331
4156
331
4268
331
4269
331
4271
331
4272
102
}
  0
BLOCK_RECORD
  5
4173
330
1
100
AcDbSymbolTableRecord
100
AcDbBlockTableRecord
  2
*D7
340
0
  0
BLOCK_RECORD
  5
4180
330
1
100
AcDbSymbolTableRecord
100
AcDbBlockTableRecord
  2
*D8
340
0
  0
ENDTAB
  0
ENDSEC
  0
SECTION
  2
BLOCKS
  0
BLOCK
  5
3
330
2
100
AcDbEntity
  8
0
100
AcDbBlockBegin
  2
*MODEL_SPACE
 70
     0
 10
0.0
 20
0.0
 30
0.0
  3
*MODEL_SPACE
  1

  0
ENDBLK
  5
6
330
2
100
AcDbEntity
  8
0
100
AcDbBlockEnd
  0
BLOCK
  5
8
330
7
100
AcDbEntity
 67
     1
  8
0
100
AcDbBlockBegin
  2
*PAPER_SPACE
 70
     0
 10
0.0
 20
0.0
 30
0.0
  3
*PAPER_SPACE
  1

  0
ENDBLK
  5
9
330
7
100
AcDbEntity
 67
     1
  8
0
100
AcDbBlockEnd
  0
BLOCK
  5
10C
330
109
100
AcDbEntity
  8
0
100
AcDbBlockBegin
  2
_Dot
 70
     0
 10
0.0
 20
0.0
 30
0.0
  3
_Dot
  1

  0
LWPOLYLINE
  5
10A
330
109
100
AcDbEntity
  8
0
  6
ByBlock
 62
     0
100
AcDbPolyline
 90
        2
 70
     1
 43
0.5
 10
-0.25
 20
0.0
 42
1.0
 10
0.25
 20
0.0
 42
1.0
  0
LINE
  5
10B
330
109
100
AcDbEntity
  8
0
  6
ByBlock
 62
     0
370
    -2
100
AcDbLine
 10
-0.5
 20
0.0
 30
0.0
 11
-1.0
 21
0.0
 31
0.0
  0
ENDBLK
  5
10D
330
109
100
AcDbEntity
  8
0
100
AcDbBlockEnd
  0
BLOCK
  5
417D
330
4173
100
AcDbEntity
  8
0
100
AcDbBlockBegin
  2
*D7
 70
     1
 10
0.0
 20
0.0
 30
0.0
  3
*D7
  1

  0
LINE
  5
4265
330
4173
100
AcDbEntity
  8
SUNPOU
 62
    70
370
    -2
100
AcDbLine
 10
147.867807779566
 20
56.55902271655839
 30
0.0
 11
147.867807779566
 21
159.4490315256543
 31
0.0
  0
LINE
  5
4266
330
4173
100
AcDbEntity
  8
SUNPOU
 62
    70
370
    -2
100
AcDbLine
 10
-12.13219222043395
 20
56.5590227165584
 30
0.0
 11
-12.13219222043394
 21
159.4490315256543
 31
0.0
  0
LINE
  5
4267
330
4173
100
AcDbEntity
  8
SUNPOU
 62
    60
370
    -2
100
AcDbLine
 10
145.867807779566
 20
159.4490315256543
 30
0.0
 11
-10.13219222043394
 21
159.4490315256543
 31
0.0
  0
INSERT
  5
4268
330
4173
100
AcDbEntity
  8
SUNPOU
 62
    60
370
    -2
100
AcDbBlockReference
  2
_Dot
 10
147.867807779566
 20
159.4490315256543
 30
0.0
 41
2.0
 42
2.0
 43
2.0
  0
INSERT
  5
4269
330
4173
100
AcDbEntity
  8
SUNPOU
 62
    60
370
    -2
100
AcDbBlockReference
  2
_Dot
 10
-12.13219222043394
 20
159.4490315256543
 30
0.0
 41
2.0
 42
2.0
 43
2.0
 50
180.0
  0
MTEXT
  5
426A
330
4173
100
AcDbEntity
  8
SUNPOU
 62
    60
100
AcDbMText
 10
67.86780777956605
 20
164.9490315256543
 30
0.0
 40
5.0
 41
0.0
 71
     5
 72
     1
  1
\A1;160
  7
SUNPOU
 73
     1
 44
1.0
1001
ACAD
1000
MTEXTBEGIN
1070
    73
1070
     1
1070
    44
1040
1.0
1070
    74
1070
     0
1000
MTEXTEND
  0
POINT
  5
426B
330
4173
100
AcDbEntity
  8
DEFPOINTS
 62
     0
100
AcDbPoint
 10
147.867807779566
 20
46.55902271655839
 30
0.0
  0
POINT
  5
426C
330
4173
100
AcDbEntity
  8
DEFPOINTS
 62
     0
100
AcDbPoint
 10
-12.13219222043395
 20
46.5590227165584
 30
0.0
  0
POINT
  5
426D
330
4173
100
AcDbEntity
  8
DEFPOINTS
 62
     0
100
AcDbPoint
 10
-12.13219222043394
 20
159.4490315256543
 30
0.0
  0
ENDBLK
  5
417E
330
4173
100
AcDbEntity
  8
0
100
AcDbBlockEnd
  0
BLOCK
  5
418A
330
4180
100
AcDbEntity
  8
0
100
AcDbBlockBegin
  2
*D8
 70
     1
 10
0.0
 20
0.0
 30
0.0
  3
*D8
  1

  0
LINE
  5
426E
330
4180
100
AcDbEntity
  8
SUNPOU
 62
    70
370
    -2
100
AcDbLine
 10
57.8678077795669
 20
138.6134647816627
 30
0.0
 11
-40.87129395253396
 21
138.6134647816627
 31
0.0
  0
LINE
  5
426F
330
4180
100
AcDbEntity
  8
SUNPOU
 62
    70
370
    -2
100
AcDbLine
 10
-15.50333493516322
 20
33.61346478166272
 30
0.0
 11
-40.87129395253398
 21
33.61346478166272
 31
0.0
  0
LINE
  5
4270
330
4180
100
AcDbEntity
  8
SUNPOU
 62
    60
370
    -2
100
AcDbLine
 10
-40.87129395253395
 20
136.6134647816627
 30
0.0
 11
-40.87129395253398
 21
35.61346478166272
 31
0.0
  0
INSERT
  5
4271
330
4180
100
AcDbEntity
  8
SUNPOU
 62
    60
370
    -2
100
AcDbBlockReference
  2
_Dot
 10
-40.87129395253395
 20
138.6134647816627
 30
0.0
 41
2.0
 42
2.0
 43
2.0
 50
90.0
  0
INSERT
  5
4272
330
4180
100
AcDbEntity
  8
SUNPOU
 62
    60
370
    -2
100
AcDbBlockReference
  2
_Dot
 10
-40.87129395253398
 20
33.61346478166272
 30
0.0
 41
2.0
 42
2.0
 43
2.0
 50
270.0
  0
MTEXT
  5
4273
330
4180
100
AcDbEntity
  8
SUNPOU
 62
    60
100
AcDbMText
 10
-46.37129395253397
 20
86.11346478166272
 30
0.0
 40
5.0
 41
0.0
 71
     5
 72
     1
  1
\A1;105
  7
SUNPOU
 11
0.0000000000000001
 21
1.0
 31
0.0
 73
     1
 44
1.0
1001
ACAD
1000
MTEXTBEGIN
1070
    73
1070
     1
1070
    44
1040
1.0
1070
    74
1070
     0
1000
MTEXTEND
  0
POINT
  5
4274
330
4180
100
AcDbEntity
  8
DEFPOINTS
 62
     0
100
AcDbPoint
 10
67.8678077795669
 20
138.6134647816627
 30
0.0
  0
POINT
  5
4275
330
4180
100
AcDbEntity
  8
DEFPOINTS
 62
     0
100
AcDbPoint
 10
-5.503334935163222
 20
33.61346478166272
 30
0.0
  0
POINT
  5
4276
330
4180
100
AcDbEntity
  8
DEFPOINTS
 62
     0
100
AcDbPoint
 10
-40.87129395253398
 20
33.61346478166272
 30
0.0
  0
ENDBLK
  5
418B
330
4180
100
AcDbEntity
  8
0
100
AcDbBlockEnd
  0
ENDSEC
  0
SECTION
  2
ENTITIES
  0
LINE
  5
1F
330
2
100
AcDbEntity
  8
WAKU
100
AcDbLine
 10
0.0
 20
14.0
 30
0.0
 11
148.6829221395387
 21
14.0
 31
0.0
  0
LINE
  5
20
330
2
100
AcDbEntity
  8
WAKU
100
AcDbLine
 10
0.0
 20
0.0
 30
0.0
 11
148.6829221395387
 21
0.0
 31
0.0
  0
TEXT
  5
21
330
2
100
AcDbEntity
  8
HOJO
100
AcDbText
 10
9.653966000000025
 20
2.366626000000024
 30
0.0
 40
9.0
  1
TC158
  7
SUNPOU
100
AcDbText
  0
TEXT
  5
23
330
2
100
AcDbEntity
  8
HOJO
100
AcDbText
 10
85.84696046283864
 20
5.044386000000031
 30
0.0
 40
6.0
  1
160×105×10
  7
SUNPOU
100
AcDbText
  0
SPLINE
  5
3EC9
330
2
100
AcDbEntity
  8
KIJUN
100
AcDbSpline
210
0.0
220
0.0
230
1.0
 70
     8
 71
     3
 72
    10
 73
     6
 74
     4
 42
0.0000000001
 43
0.0000000001
 44
0.0000000001
 40
0.0
 40
0.0
 40
0.0
 40
0.0
 40
4.260796866761119
 40
12.65118594912913
 40
20.85677965264371
 40
20.85677965264371
 40
20.85677965264371
 40
20.85677965264371
 10
14.38229401880803
 20
79.29195455627375
 30
0.0
 10
15.80165427551767
 20
79.49199530527242
 30
0.0
 10
20.01602804125164
 20
80.08595760670198
 30
0.0
 10
24.76279780539995
 20
85.98969241238089
 30
0.0
 10
26.59671699485104
 20
91.0821053422101
 30
0.0
 10
27.5034662936174
 20
93.59995993460335
 30
0.0
 11
14.38229401880803
 21
79.29195455627375
 31
0.0
 11
18.48893684071819
 21
80.2308957473572
 31
0.0
 11
24.30819133462124
 21
86.14289625097006
 31
0.0
 11
27.5034662936174
 21
93.59995993460335
 31
0.0
  0
SPLINE
  5
3ECA
330
2
100
AcDbEntity
  8
KIJUN
100
AcDbSpline
210
0.0
220
0.0
230
1.0
 70
     8
 71
     3
 72
    13
 73
     9
 74
     7
 42
0.0000000001
 43
0.0000000001
 44
0.0000000001
 40
0.0
 40
0.0
 40
0.0
 40
0.0
 40
4.983336223632401
 40
11.05667106658644
 40
19.96463145116063
 40
27.98894288834939
 40
36.92501554725402
 40
40.76186140817924
 40
40.76186140817924
 40
40.76186140817924
 40
40.76186140817924
 10
16.45583225089333
 20
70.3937280224564
 30
0.0
 10
18.15621195441974
 20
70.90807330662915
 30
0.0
 10
21.92889319173099
 20
72.04926594672524
 30
0.0
 10
22.83735208938733
 20
79.43468572867963
 30
0.0
 10
26.53018231978119
 20
85.84880514245165
 30
0.0
 10
26.6908386569174
 20
95.06170753400649
 30
0.0
 10
32.71575013718898
 20
99.4247895797778
 30
0.0
 10
35.94466915580205
 20
102.0640150931269
 30
0.0
 10
36.91460132540243
 20
102.8568097446303
 30
0.0
 11
16.45583225089333
 21
70.3937280224564
 31
0.0
 11
20.89279782143957
 21
72.53580793302576
 31
0.0
 11
22.99154570970305
 21
78.16174412040535
 31
0.0
 11
25.94887142737404
 21
86.45761566402224
 31
0.0
 11
27.76142670583502
 21
94.18135799582243
 31
0.0
 11
33.96227164371518
 21
100.4747781670773
 31
0.0
 11
36.91460132540243
 21
102.8568097446303
 31
0.0
  0
SPLINE
  5
3ECB
330
2
100
AcDbEntity
  8
KIJUN
100
AcDbSpline
210
0.0
220
0.0
230
1.0
 70
     8
 71
     3
 72
    10
 73
     6
 74
     4
 42
0.0000000001
 43
0.0000000001
 44
0.0000000001
 40
0.0
 40
0.0
 40
0.0
 40
0.0
 40
5.849190149056094
 40
14.81515636336255
 40
32.32614207982059
 40
32.32614207982059
 40
32.32614207982059
 40
32.32614207982059
 10
21.39929143634262
 20
56.55204230320414
 30
0.0
 10
21.39117115682069
 20
58.48477616931266
 30
0.0
 10
21.37060365807479
 20
63.38011273818687
 30
0.0
 10
23.92448703583359
 20
73.81792994081118
 30
0.0
 10
27.09531154283818
 20
81.94249133691116
 30
0.0
 10
29.19239064758322
 20
87.31580919207225
 30
0.0
 11
21.39929143634262
 21
56.55204230320414
 31
0.0
 11
21.56058176796924
 21
62.33283920981274
 31
0.0
 11
23.37313615369454
 21
71.01013042110047
 31
0.0
 11
29.19239064758322
 21
87.31580919207225
 31
0.0
  0
SPLINE
  5
3ECC
330
2
100
AcDbEntity
  8
KIJUN
100
AcDbSpline
210
0.0
220
0.0
230
1.0
 70
     8
 71
     3
 72
     9
 73
     5
 74
     3
 42
0.0000000001
 43
0.0000000001
 44
0.0000000001
 40
0.0
 40
0.0
 40
0.0
 40
0.0
 40
5.723218233051978
 40
18.58670501952396
 40
18.58670501952396
 40
18.58670501952396
 40
18.58670501952396
 10
36.22966899269048
 20
70.3937280224564
 30
0.0
 10
35.04903428761742
 20
71.91843112704535
 30
0.0
 10
31.21480883867908
 20
76.87005199719791
 30
0.0
 10
31.76732853473527
 20
83.32514374387839
 30
0.0
 10
32.14971636526859
 20
87.79258363177286
 30
0.0
 11
36.22966899269048
 21
70.3937280224564
 31
0.0
 11
33.10369292158638
 21
75.11038851717576
 31
0.0
 11
32.14971636526859
 21
87.79258363177286
 31
0.0
  0
SPLINE
  5
3ECD
330
2
100
AcDbEntity
  8
KIJUN
100
AcDbSpline
210
0.0
220
0.0
230
1.0
 70
     8
 71
     3
 72
     9
 73
     5
 74
     3
 42
0.0000000001
 43
0.0000000001
 44
0.0000000001
 40
0.0
 40
0.0
 40
0.0
 40
0.0
 40
6.756322215519313
 40
21.33524163627547
 40
21.33524163627547
 40
21.33524163627547
 40
21.33524163627547
 10
38.20705266702558
 20
74.34849537069498
 30
0.0
 10
37.17377094425127
 20
76.35228110147531
 30
0.0
 10
33.91085444471452
 20
82.67987344972441
 30
0.0
 10
34.45144852501812
 20
89.90899634746213
 30
0.0
 10
34.82085036588714
 20
94.84884197966897
 30
0.0
 11
38.20705266702558
 21
74.34849537069498
 31
0.0
 11
35.48863341965236
 21
80.45026038832206
 31
0.0
 11
34.82085036588714
 21
94.84884197966897
 31
0.0
  0
SPLINE
  5
3ECF
330
2
100
AcDbEntity
  8
KIJUN
100
AcDbSpline
210
0.0
220
0.0
230
1.0
 70
     8
 71
     3
 72
    18
 73
    14
 74
    12
 42
0.0000000001
 43
0.0000000001
 44
0.0000000001
 40
0.0
 40
0.0
 40
0.0
 40
0.0
 40
3.737687876652767
 40
11.2751825563466
 40
14.45480044997316
 40
21.93606975704679
 40
26.59982895693969
 40
31.42423321109399
 40
37.68820394109759
 40
43.61958591737471
 40
47.73798464420684
 40
51.94025973051208
 40
54.90572505250884
 40
54.90572505250884
 40
54.90572505250884
 40
54.90572505250884
 10
54.02612206029641
 20
80.28064639335497
 30
0.0
 10
52.7726815584079
 20
80.28049888873265
 30
0.0
 10
48.99152835656329
 20
80.28005392334589
 30
0.0
 10
45.06626231943523
 20
84.05334684484136
 30
0.0
 10
42.83974835419264
 20
89.65392344251759
 30
0.0
 10
44.50910898183941
 20
95.30217019946665
 30
0.0
 10
49.15854370502059
 20
98.50300151964084
 30
0.0
 10
54.73017180722622
 20
99.84134022235704
 30
0.0
 10
59.07442604641957
 20
94.99362262819813
 30
0.0
 10
59.98548651726243
 20
89.29532645092093
 30
0.0
 10
56.77049830272126
 20
85.10795618492249
 30
0.0
 10
51.78854491231962
 20
85.79362468162971
 30
0.0
 10
51.59321864383846
 20
88.37276703208383
 30
0.0
 10
51.51240750354336
 20
89.43981979417621
 30
0.0
 11
54.02612206029641
 21
80.28064639335497
 31
0.0
 11
50.34484749740112
 21
80.60369067175399
 31
0.0
 11
44.6738448140877
 21
85.43855361252864
 31
0.0
 11
43.58536981870581
 21
88.38776275526459
 31
0.0
 11
45.57667518315199
 21
95.51134531484184
 31
0.0
 11
49.29727284708235
 21
98.23506785373389
 31
0.0
 11
54.01432039954716
 21
98.94282690321
 31
0.0
 11
58.51776396946842
 21
94.69148140413194
 31
0.0
 11
59.10154307981824
 21
88.85630177312943
 31
0.0
 11
56.34943862638905
 21
85.85535228173849
 31
0.0
 11
52.26298128308388
 21
86.60558965459342
 31
0.0
 11
51.51240750354336
 21
89.43981979417621
 31
0.0
  0
SPLINE
  5
3ED0
330
2
100
AcDbEntity
  8
KIJUN
100
AcDbSpline
210
0.0
220
0.0
230
1.0
 70
     8
 71
     3
 72
    13
 73
     9
 74
     7
 42
0.0000000001
 43
0.0000000001
 44
0.0000000001
 40
0.0
 40
0.0
 40
0.0
 40
0.0
 40
1.801629305777065
 40
3.841808364237824
 40
7.791498580749702
 40
12.67312180721058
 40
16.3748530758239
 40
20.41757764276559
 40
20.41757764276559
 40
20.41757764276559
 40
20.41757764276559
 10
67.86780777956305
 20
93.133640275526
 30
0.0
 10
67.25842015551084
 20
93.13588736666886
 30
0.0
 10
65.95895723953383
 20
93.14067908131056
 30
0.0
 10
63.86170860237047
 20
91.22866891207486
 30
0.0
 10
63.8532875427044
 20
87.41958789701019
 30
0.0
 10
61.20027504177798
 20
83.92021169756459
 30
0.0
 10
57.62088055907855
 20
81.76430469786083
 30
0.0
 10
55.25903934833675
 20
80.78950616063011
 30
0.0
 10
54.02612206029641
 20
80.28064639335497
 30
0.0
 11
67.86780777956305
 21
93.133640275526
 31
0.0
 11
66.09800172320096
 21
92.93199670242101
 31
0.0
 11
64.56220202415533
 21
91.62430961965275
 31
0.0
 11
63.48145359182081
 21
87.87181516852731
 31
0.0
 11
60.75114331330384
 21
83.89189735552157
 31
0.0
 11
57.67954391519817
 21
81.90193844900433
 31
0.0
 11
54.02612206029641
 21
80.28064639335497
 31
0.0
  0
ARC
  5
3ED1
330
2
100
AcDbEntity
  8
KIJUN
100
AcDbCircle
 10
57.98088940866809
 20
83.1004723417802
 30
0.0
 40
4.857118812529483
100
AcDbArc
 50
215.4896072141832
 51
324.5103927858047
  0
SPLINE
  5
3ED2
330
2
100
AcDbEntity
  8
KIJUN
100
AcDbSpline
210
0.0
220
0.0
230
1.0
 70
     8
 71
     3
 72
    10
 73
     6
 74
     4
 42
0.0000000001
 43
0.0000000001
 44
0.0000000001
 40
0.0
 40
0.0
 40
0.0
 40
0.0
 40
4.099136616065038
 40
12.16432318089088
 40
23.86867492993244
 40
23.86867492993244
 40
23.86867492993244
 40
23.86867492993244
 10
8.546297554171585
 20
45.67643209522434
 30
0.0
 10
9.091351919249216
 20
46.94841262061273
 30
0.0
 10
10.70881873460446
 20
50.72305680550162
 30
0.0
 10
18.96409561975179
 20
53.77857785535507
 30
0.0
 10
20.76492328261499
 20
60.4888370725639
 30
0.0
 10
21.83108477160758
 20
64.46157699994026
 30
0.0
 11
8.546297554171585
 21
45.67643209522434
 31
0.0
 11
10.47553751711272
 21
49.24057048945507
 31
0.0
 11
16.86717723060641
 21
54.00831256940567
 31
0.0
 11
21.83108477160758
 21
64.46157699994026
 31
0.0
  0
SPLINE
  5
3ED3
330
2
100
AcDbEntity
  8
KIJUN
100
AcDbSpline
210
0.0
220
0.0
230
1.0
 70
     8
 71
     3
 72
    10
 73
     6
 74
     4
 42
0.0000000001
 43
0.0000000001
 44
0.0000000001
 40
0.0
 40
0.0
 40
0.0
 40
0.0
 40
4.242887463476982
 40
15.19816760485455
 40
25.29630589193663
 40
25.29630589193663
 40
25.29630589193663
 40
25.29630589193663
 10
6.568913879994747
 20
53.58596679193169
 30
0.0
 10
7.994146624606061
 20
53.77480060588362
 30
0.0
 10
13.09937892569709
 20
54.4512097679524
 30
0.0
 10
17.78929620703981
 20
62.68054117396424
 30
0.0
 10
20.51870799328268
 20
68.87063142251938
 30
0.0
 10
21.82785300238067
 20
71.83966885233153
 30
0.0
 11
6.568913879994747
 21
53.58596679193169
 31
0.0
 11
10.66633229274063
 21
54.48508700916383
 31
0.0
 11
17.630358118575
 21
62.78095855275196
 31
0.0
 11
21.82785300238067
 21
71.83966885233153
 31
0.0
  0
SPLINE
  5
3ED5
330
2
100
AcDbEntity
  8
KIJUN
100
AcDbSpline
210
0.0
220
0.0
230
1.0
 70
     8
 71
     3
 72
    10
 73
     6
 74
     4
 42
0.0000000001
 43
0.0000000001
 44
0.0000000001
 40
0.0
 40
0.0
 40
0.0
 40
0.0
 40
4.155756003814811
 40
7.791604548910893
 40
12.16182864136434
 40
12.16182864136434
 40
12.16182864136434
 40
12.16182864136434
 10
-1.759133004037802
 20
51.79683131797413
 30
0.0
 10
-3.170111134055413
 20
51.47857610840641
 30
0.0
 10
-5.81554643058197
 20
50.88188113013224
 30
0.0
 10
-7.522008441181323
 20
46.50087690348358
 30
0.0
 10
-6.061536769242674
 20
44.15277897091494
 30
0.0
 10
-5.264318360659753
 20
42.871037645186
 30
0.0
 11
-1.759133004037802
 21
51.79683131797413
 31
0.0
 11
-5.550510970462791
 21
50.21336088863666
 31
0.0
 11
-6.886077970755731
 21
46.87594096917076
 31
0.0
 11
-5.264318360659753
 21
42.871037645186
 31
0.0
  0
SPLINE
  5
3ED6
330
2
100
AcDbEntity
  8
KIJUN
100
AcDbSpline
210
0.0
220
0.0
230
1.0
 70
     8
 71
     3
 72
    11
 73
     7
 74
     5
 42
0.0000000001
 43
0.0000000001
 44
0.0000000001
 40
0.0
 40
0.0
 40
0.0
 40
0.0
 40
4.583133726623755
 40
8.455950358137782
 40
15.87607677473175
 40
19.47419297268724
 40
19.47419297268724
 40
19.47419297268724
 40
19.47419297268724
 10
-1.759133004037802
 20
51.79683131797413
 30
0.0
 10
-2.464724023092323
 20
50.29726116107723
 30
0.0
 10
-3.766550019487187
 20
47.53053176551008
 30
0.0
 10
0.1582509270534838
 20
42.68491079179038
 30
0.0
 10
6.353910004372039
 20
44.12435179117366
 30
0.0
 10
8.528329844066291
 20
47.07788899995239
 30
0.0
 10
9.238408167811712
 20
48.04239581323839
 30
0.0
 11
-1.759133004037802
 21
51.79683131797413
 31
0.0
 11
-2.879377862591435
 21
47.35271540893212
 31
0.0
 11
-0.494437364512204
 21
44.30136038502008
 31
0.0
 11
6.851178905299012
 21
45.35026345724385
 31
0.0
 11
9.238408167811712
 21
48.04239581323839
 31
0.0
  0
ARC
  5
3EDC
330
2
100
AcDbEntity
  8
KIJUN
100
AcDbCircle
 10
-2.95413831345863
 20
36.27526459434417
 30
0.0
 40
3.685591086773077
100
AcDbArc
 50
154.5951486787769
 51
226.2378983145222
  0
ARC
  5
3EDD
330
2
100
AcDbEntity
  8
KIJUN
100
AcDbCircle
 10
36.33700938477849
 20
72.81178741914307
 30
0.0
 40
2.420440704840884
100
AcDbArc
 50
267.4582442255744
 51
39.41165342027311
  0
ARC
  5
3EE9
330
2
100
AcDbEntity
  8
KIJUN
100
AcDbCircle
 10
67.86780777956647
 20
81.36820741415961
 30
0.0
 40
6.031020206248165
100
AcDbArc
 50
190.388857815472
 51
349.6111421845279
  0
SPLINE
  5
3EF2
330
2
100
AcDbEntity
  8
KIJUN
100
AcDbSpline
210
0.0
220
0.0
230
1.0
 70
     8
 71
     3
 72
    11
 73
     7
 74
     5
 42
0.0000000001
 43
0.0000000001
 44
0.0000000001
 40
0.0
 40
0.0
 40
0.0
 40
0.0
 40
5.011608805301188
 40
14.56771544077816
 40
20.44807101175369
 40
27.78136648543941
 40
27.78136648543941
 40
27.78136648543941
 40
27.78136648543941
 10
58.29430132957785
 20
95.13072231815751
 30
0.0
 10
57.78614656470102
 20
96.75692105300655
 30
0.0
 10
56.3090452381629
 20
101.4839461141935
 30
0.0
 10
47.35776440033249
 20
103.4611912870269
 30
0.0
 10
41.96144482371347
 20
96.83748251385113
 30
0.0
 10
42.94339668189757
 20
92.37365768165672
 30
0.0
 10
43.48835909179081
 20
89.89632977833483
 30
0.0
 11
58.29430132957785
 21
95.13072231815751
 31
0.0
 11
56.18991612155632
 21
99.61658463902731
 31
0.0
 11
46.93634763183057
 21
101.5236812392732
 31
0.0
 11
43.12044229929511
 21
97.13735824761446
 31
0.0
 11
43.48835909179081
 21
89.89632977833483
 31
0.0
  0
SPLINE
  5
3EF3
330
2
100
AcDbEntity
  8
KIJUN
100
AcDbSpline
210
0.0
220
0.0
230
1.0
 70
     8
 71
     3
 72
    12
 73
     8
 74
     6
 42
0.0000000001
 43
0.0000000001
 44
0.0000000001
 40
0.0
 40
0.0
 40
0.0
 40
0.0
 40
5.037365206153668
 40
16.76153776306079
 40
23.50146539417519
 40
27.63763281646216
 40
32.07355702591024
 40
32.07355702591024
 40
32.07355702591024
 40
32.07355702591024
 10
61.93565675703254
 20
100.6439409878788
 30
0.0
 10
60.78793381258705
 20
101.863005617756
 30
0.0
 10
56.96895291936804
 20
105.9193717919523
 30
0.0
 10
48.5017936427049
 20
107.5412567800493
 30
0.0
 10
41.35814102501611
 20
105.820141450198
 30
0.0
 10
37.96444006462329
 20
99.20175527223436
 30
0.0
 10
36.82125137462722
 20
103.0213575159435
 30
0.0
 10
36.22966899269048
 20
104.9979423206158
 30
0.0
 11
61.93565675703254
 21
100.6439409878788
 31
0.0
 11
58.29198852985211
 21
104.0392442933364
 31
0.0
 11
47.03506998603748
 21
106.8045344216324
 31
0.0
 11
40.92962198959623
 21
104.134599065395
 31
0.0
 11
38.20705266686732
 21
101.0832440415156
 31
0.0
 11
36.22966899269048
 21
104.9979423206158
 31
0.0
  0
SPLINE
  5
3EF4
330
2
100
AcDbEntity
  8
KIJUN
100
AcDbSpline
210
0.0
220
0.0
230
1.0
 70
     8
 71
     3
 72
    12
 73
     8
 74
     6
 42
0.0000000001
 43
0.0000000001
 44
0.0000000001
 40
0.0
 40
0.0
 40
0.0
 40
0.0
 40
3.608772695430499
 40
7.087550813797566
 40
10.97223771368958
 40
16.99565695670375
 40
22.22390328704987
 40
22.22390328704987
 40
22.22390328704987
 40
22.22390328704987
 10
48.09397103776589
 20
118.839628039868
 30
0.0
 10
47.94992407764218
 20
117.4533555508327
 30
0.0
 10
47.6670189917402
 20
114.7307466371829
 30
0.0
 10
52.0312336991731
 20
114.1602219113852
 30
0.0
 10
56.05075008396354
 20
113.18337055579
 30
0.0
 10
60.80903387877819
 20
110.6266545971227
 30
0.0
 10
62.3471575894896
 20
107.1707547762913
 30
0.0
 10
63.06186863324839
 20
105.5649218052905
 30
0.0
 11
48.09397103776589
 21
118.839628039868
 31
0.0
 11
48.46603392777129
 21
115.2911160887454
 31
0.0
 11
51.70955314799484
 21
114.1468576651119
 31
0.0
 11
55.43005975363442
 21
113.1933093649746
 31
0.0
 11
60.48613335958328
 21
110.0465995690366
 31
0.0
 11
63.06186863324839
 21
105.5649218052905
 31
0.0
  0
ARC
  5
3EF5
330
2
100
AcDbEntity
  8
KIJUN
100
AcDbCircle
 10
47.4204803981937
 20
105.2987865198284
 30
0.0
 40
19.49434512406803
100
AcDbArc
 50
6.68273879102165
 51
68.17839175419931
  0
ARC
  5
3EF7
330
2
100
AcDbEntity
  8
KIJUN
100
AcDbCircle
 10
44.71685442275904
 20
106.3154670406898
 30
0.0
 40
8.588840894578691
100
AcDbArc
 50
93.85639365988382
 51
188.8239898319288
  0
ARC
  5
3EF8
330
2
100
AcDbEntity
  8
KIJUN
100
AcDbCircle
 10
49.03313271140226
 20
113.9456990178729
 30
0.0
 40
4.983228463709181
100
AcDbArc
 50
100.8631878726754
 51
169.136812127324
  0
CIRCLE
  5
3F03
330
2
100
AcDbEntity
  8
KIJUN
100
AcDbCircle
 10
67.86780777956647
 20
96.09971578679857
 30
0.0
 40
2.966075511269586
  0
ARC
  5
3F06
330
2
100
AcDbEntity
  8
KIJUN
100
AcDbCircle
 10
55.30877835379603
 20
121.5661047387513
 30
0.0
 40
5.831317835486994
100
AcDbArc
 50
9.595000100913674
 51
62.72675796730018
  0
ARC
  5
3F07
330
2
100
AcDbEntity
  8
KIJUN
100
AcDbCircle
 10
70.15297016821891
 20
146.8935039036395
 30
0.0
 40
15.66040284467514
100
AcDbArc
 50
237.6223200348944
 51
261.4760811699041
  0
SPLINE
  5
3F08
330
2
100
AcDbEntity
  8
KIJUN
100
AcDbSpline
210
0.0
220
0.0
230
1.0
 70
     8
 71
     3
 72
     9
 73
     5
 74
     3
 42
0.0000000001
 43
0.0000000001
 44
0.0000000001
 40
0.0
 40
0.0
 40
0.0
 40
0.0
 40
5.488629372448995
 40
12.23980702462109
 40
12.23980702462109
 40
12.23980702462109
 40
12.23980702462109
 10
61.93565675703254
 20
100.6439409878788
 30
0.0
 10
63.21053437620764
 20
99.18997968867547
 30
0.0
 10
66.05354944975568
 20
95.9476026732924
 30
0.0
 10
64.62693061176565
 20
91.79843636028289
 30
0.0
 10
63.84004261607169
 20
89.50985788585368
 30
0.0
 11
61.93565675703254
 21
100.6439409878788
 31
0.0
 11
64.90173226827621
 21
96.09971578679846
 31
0.0
 11
63.84004261607169
 21
89.50985788585368
 31
0.0
  0
CIRCLE
  5
3F09
330
2
100
AcDbEntity
  8
KIJUN
100
AcDbCircle
 10
67.86780777956647
 20
96.09971578679857
 30
0.0
 40
2.966075511269586
  0
ARC
  5
3F0B
330
2
100
AcDbEntity
  8
KIJUN
100
AcDbCircle
 10
67.86780777956675
 20
132.3776013808902
 30
0.0
 40
6.235863400772502
100
AcDbArc
 50
11.93998574631889
 51
168.0600142536883
  0
ARC
  5
3F9B
330
2
100
AcDbEntity
  8
KIJUN
100
AcDbCircle
 10
64.39597374723909
 20
128.2237494783315
 30
0.0
 40
6.04558264030167
100
AcDbArc
 50
115.7777897934998
 51
155.8744593241466
  0
ARC
  5
3F9C
330
2
100
AcDbEntity
  8
KIJUN
100
AcDbCircle
 10
75.26914695332637
 20
124.8912715236603
 30
0.0
 40
17.38780057080324
100
AcDbArc
 50
160.5022156112764
 51
173.8662208811114
  0
ARC
  5
3F9D
330
2
100
AcDbEntity
  8
KIJUN
100
AcDbCircle
 10
61.86757774465371
 20
94.61889412574684
 30
0.0
 40
32.36449454625788
100
AcDbArc
 50
96.89736128944474
 51
110.7139770064873
  0
ARC
  5
3F9E
330
2
100
AcDbEntity
  8
KIJUN
100
AcDbCircle
 10
58.92846357441868
 20
120.4074024559615
 30
0.0
 40
10.94733507053088
100
AcDbArc
 50
169.5291531770581
 51
188.2336726578339
  0
ARC
  5
3F9F
330
2
100
AcDbEntity
  8
KIJUN
100
AcDbCircle
 10
51.745086329658
 20
121.4245203450397
 30
0.0
 40
3.711310823459502
100
AcDbArc
 50
110.9159110672497
 51
164.8106744588448
  0
ARC
  5
3FA5
330
2
100
AcDbEntity
  8
KIJUN
100
AcDbCircle
 10
45.94104663238146
 20
82.16861276980518
 30
0.0
 40
24.80905365788313
100
AcDbArc
 50
113.0444354955453
 51
163.1788607667608
  0
ARC
  5
3FA6
330
2
100
AcDbEntity
  8
KIJUN
100
AcDbCircle
 10
17.10913952432224
 20
87.98495081885031
 30
0.0
 40
4.257929512650863
100
AcDbArc
 50
280.89905010742
 51
331.3928554318906
  0
ARC
  5
3FA7
330
2
100
AcDbEntity
  8
KIJUN
100
AcDbCircle
 10
7.534139328290912
 20
93.18214286778609
 30
0.0
 40
15.1524832236407
100
AcDbArc
 50
331.475238214575
 51
345.3426080491746
  0
ARC
  5
3FA8
330
2
100
AcDbEntity
  8
KIJUN
100
AcDbCircle
 10
20.2621410482857
 20
67.06203171815587
 30
0.0
 40
16.90563221525271
100
AcDbArc
 50
97.98325258539753
 51
108.0283340707568
  0
ARC
  5
3FA9
330
2
100
AcDbEntity
  8
KIJUN
100
AcDbCircle
 10
22.92345876107253
 20
81.58571668219408
 30
0.0
 40
8.843802340878035
100
AcDbArc
 50
178.6874084388356
 51
195.0323152724079
  0
ARC
  5
3FAA
330
2
100
AcDbEntity
  8
KIJUN
100
AcDbCircle
 10
15.58561121811685
 20
81.73956751320988
 30
0.0
 40
1.504423741517784
100
AcDbArc
 50
111.6709997762854
 51
178.143627899366
  0
ARC
  5
3FAB
330
2
100
AcDbEntity
  8
KIJUN
100
AcDbCircle
 10
17.09601647950915
 20
67.59725386502123
 30
0.0
 40
12.00542851594787
100
AcDbArc
 50
103.064116876024
 51
114.2661852411497
  0
ARC
  5
3FAD
330
2
100
AcDbEntity
  8
KIJUN
100
AcDbCircle
 10
14.13343065409912
 20
74.50188961193568
 30
0.0
 40
4.495374586789003
100
AcDbArc
 50
116.0102020937242
 51
165.9386803856618
  0
ARC
  5
3FAE
330
2
100
AcDbEntity
  8
KIJUN
100
AcDbCircle
 10
15.91266418547692
 20
73.75685308427181
 30
0.0
 40
6.40889387213101
100
AcDbArc
 50
163.3413388266711
 51
212.8648771820916
  0
ARC
  5
3FAF
330
2
100
AcDbEntity
  8
KIJUN
100
AcDbCircle
 10
12.37061262626868
 20
71.55378696022606
 30
0.0
 40
2.23936984767455
100
AcDbArc
 50
214.6985872756655
 51
263.1648431667483
  0
ARC
  5
3FB0
330
2
100
AcDbEntity
  8
KIJUN
100
AcDbCircle
 10
12.54744740836871
 20
73.25081317134466
 30
0.0
 40
3.945468671733711
100
AcDbArc
 50
263.5480884284361
 51
278.0254198381193
  0
ARC
  5
3FB1
330
2
100
AcDbEntity
  8
KIJUN
100
AcDbCircle
 10
10.1212092317711
 20
84.76035424254837
 30
0.0
 40
15.70119096572192
100
AcDbArc
 50
280.9299204088897
 51
293.7939429378472
  0
ARC
  5
3FB2
330
2
100
AcDbEntity
  8
KIJUN
100
AcDbCircle
 10
2.548297909123613
 20
70.49637096256443
 30
0.0
 40
13.90791310875459
100
AcDbArc
 50
313.1825704306552
 51
359.5771428389802
  0
ARC
  5
3FB3
330
2
100
AcDbEntity
  8
KIJUN
100
AcDbCircle
 10
8.359070666917302
 20
64.21262824538954
 30
0.0
 40
5.349866024059151
100
AcDbArc
 50
256.6479122758885
 51
313.8577652201874
  0
ARC
  5
3FB4
330
2
100
AcDbEntity
  8
KIJUN
100
AcDbCircle
 10
4.652511193564834
 20
50.09426039073435
 30
0.0
 40
9.249316957357567
100
AcDbArc
 50
74.50437680644597
 51
81.95626168976083
  0
ARC
  5
3FB5
330
2
100
AcDbEntity
  8
KIJUN
100
AcDbCircle
 10
5.506554978280918
 20
57.1387573269116
 30
0.0
 40
2.159170822565065
100
AcDbArc
 50
78.2362676754405
 51
178.0309553331487
  0
ARC
  5
3FB6
330
2
100
AcDbEntity
  8
KIJUN
100
AcDbCircle
 10
7.261136751478021
 20
57.44362435528863
 30
0.0
 40
3.919272174767662
100
AcDbArc
 50
183.3742412984916
 51
259.8270389532641
  0
ARC
  5
3FB7
330
2
100
AcDbEntity
  8
KIJUN
100
AcDbCircle
 10
-4.384588732947384
 20
59.78827651335704
 30
0.0
 40
12.58760761114746
100
AcDbArc
 50
296.7625834266448
 51
330.4797317287926
  0
ARC
  5
3FB8
330
2
100
AcDbEntity
  8
KIJUN
100
AcDbCircle
 10
8.917207185762926
 20
59.72759238880836
 30
0.0
 40
26.63464319938618
100
AcDbArc
 50
225.3094866540871
 51
235.200566140966
  0
ARC
  5
3FB9
330
2
100
AcDbEntity
  8
KIJUN
100
AcDbCircle
 10
-3.800365880716492
 20
46.5590227165584
 30
0.0
 40
8.331826339717459
100
AcDbArc
 50
165.592541007636
 51
223.7962431031581
  0
ARC
  5
3FBA
330
2
100
AcDbEntity
  8
KIJUN
100
AcDbCircle
 10
-4.974295698088386
 20
46.44958332298842
 30
0.0
 40
7.233009315511155
100
AcDbArc
 50
92.53839250812305
 51
162.4375037247372
  0
ARC
  5
3FBC
330
2
100
AcDbEntity
  8
KIJUN
100
AcDbCircle
 10
-6.175612717801961
 20
45.16093983516304
 30
0.0
 40
8.560010177446734
100
AcDbArc
 50
69.65440284177107
 51
84.09279686100509
  0
ARC
  5
3FBD
330
2
100
AcDbEntity
  8
KIJUN
100
AcDbCircle
 10
-4.052517055709663
 20
50.8634364510567
 30
0.0
 40
2.475128726172271
100
AcDbArc
 50
26.26014328171886
 51
69.83926952004853
  0
ARC
  5
3FBE
330
2
100
AcDbEntity
  8
KIJUN
100
AcDbCircle
 10
-15.05077706347292
 20
46.14231125271108
 30
0.0
 40
14.44100498284832
100
AcDbArc
 50
15.32258556312936
 51
23.7507484320362
  0
ARC
  5
3FBF
330
2
100
AcDbEntity
  8
KIJUN
100
AcDbCircle
 10
0.7032019974858827
 20
50.31755016593903
 30
0.0
 40
1.861284169211076
100
AcDbArc
 50
191.1256714756866
 51
288.1674795051156
  0
ARC
  5
3FD9
330
2
100
AcDbEntity
  8
KIJUN
100
AcDbCircle
 10
-8.161119983138512
 20
42.34985170431747
 30
0.0
 40
9.131718229532415
100
AcDbArc
 50
286.920818328145
 51
293.0441492375089
  0
ARC
  5
3FDA
330
2
100
AcDbEntity
  8
KIJUN
100
AcDbCircle
 10
-5.555372319623971
 20
36.27402184154595
 30
0.0
 40
2.520799016451322
100
AcDbArc
 50
292.6010747197759
 51
330.7531716253816
  0
ARC
  5
3FDB
330
2
100
AcDbEntity
  8
KIJUN
100
AcDbCircle
 10
0.1885816705095541
 20
35.88623688661906
 30
0.0
 40
2.881927883628691
100
AcDbArc
 50
115.7559006948861
 51
155.2502257773885
  0
ARC
  5
3FDC
330
2
100
AcDbEntity
  8
KIJUN
100
AcDbCircle
 10
-30.90489223171965
 20
48.73660650497256
 30
0.0
 40
30.76485929401618
100
AcDbArc
 50
333.5687240871495
 51
337.7605408914728
  0
ARC
  5
3FDD
330
2
100
AcDbEntity
  8
KIJUN
100
AcDbCircle
 10
2.292927256618818
 20
31.54871993698751
 30
0.0
 40
7.702952942656793
100
AcDbArc
 50
103.0596926596469
 51
115.8337796940306
  0
ARC
  5
3FDE
330
2
100
AcDbEntity
  8
KIJUN
100
AcDbCircle
 10
-5.788865950583632
 20
51.89307209448433
 30
0.0
 40
15.62509281856152
100
AcDbArc
 50
316.7292379388731
 51
336.5553731088186
  0
ARC
  5
3FE0
330
2
100
AcDbEntity
  8
KIJUN
100
AcDbCircle
 10
1.339508461789041
 20
45.35929407900976
 30
0.0
 40
5.957595238484943
100
AcDbArc
 50
281.4571484523908
 51
315.4911074941942
  0
ARC
  5
3FE1
330
2
100
AcDbEntity
  8
KIJUN
100
AcDbCircle
 10
-29.50216640777905
 20
169.9902798712182
 30
0.0
 40
134.3428108860817
100
AcDbArc
 50
282.9273208234659
 51
283.7911318978931
  0
ARC
  5
3FE2
330
2
100
AcDbEntity
  8
KIJUN
100
AcDbCircle
 10
-39.79151361449335
 20
82.74532960637147
 30
0.0
 40
66.56127194184121
100
AcDbArc
 50
328.0591627845638
 51
336.8262083418399
  0
ARC
  5
3FE3
330
2
100
AcDbEntity
  8
KIJUN
100
AcDbCircle
 10
15.93720345272793
 20
55.68400879205931
 30
0.0
 40
12.44094374814381
100
AcDbArc
 50
233.5529819031891
 51
243.1995544684534
  0
ARC
  5
3FE4
330
2
100
AcDbEntity
  8
KIJUN
100
AcDbCircle
 10
11.99577208427239
 20
47.82894051081679
 30
0.0
 40
3.652595236300169
100
AcDbArc
 50
242.8281552738918
 51
301.3113398648882
  0
ARC
  5
3FE5
330
2
100
AcDbEntity
  8
KIJUN
100
AcDbCircle
 10
8.676910577374215
 20
52.6770770104229
 30
0.0
 40
9.524645332779508
100
AcDbArc
 50
303.2124142060925
 51
327.3003938471254
  0
ARC
  5
3FE6
330
2
100
AcDbEntity
  8
KIJUN
100
AcDbCircle
 10
10.60612878948886
 20
50.27142690253986
 30
0.0
 40
12.48753337262843
100
AcDbArc
 50
21.13934038263677
 51
30.19541879525193
  0
ARC
  5
3FE7
330
2
100
AcDbEntity
  8
KIJUN
100
AcDbCircle
 10
17.92987441605345
 20
53.24826621089444
 30
0.0
 40
4.585068308181992
100
AcDbArc
 50
352.6774489198746
 51
19.44835871896957
  0
ARC
  5
3FE8
330
2
100
AcDbEntity
  8
KIJUN
100
AcDbCircle
 10
30.53804351053818
 20
51.51754755288036
 30
0.0
 40
8.141599902822974
100
AcDbArc
 50
171.9059188829565
 51
179.062411515658
  0
ARC
  5
3FE9
330
2
100
AcDbEntity
  8
KIJUN
100
AcDbCircle
 10
23.41950716269491
 20
51.62301980286333
 30
0.0
 40
1.022350207911936
100
AcDbArc
 50
178.4445543561683
 51
223.0957890670309
  0
ARC
  5
3FEA
330
2
100
AcDbEntity
  8
KIJUN
100
AcDbCircle
 10
23.41617599880974
 20
51.83340541957415
 30
0.0
 40
1.17405455439506
100
AcDbArc
 50
230.7266061204702
 51
256.3479015293371
  0
ARC
  5
3FEB
330
2
100
AcDbEntity
  8
KIJUN
100
AcDbCircle
 10
24.04714228768218
 20
54.78090788195059
 30
0.0
 40
4.188018524622838
100
AcDbArc
 50
257.4772929152914
 51
297.8157163006865
  0
ARC
  5
3FEC
330
2
100
AcDbEntity
  8
KIJUN
100
AcDbCircle
 10
23.02603742797759
 20
56.88153940819981
 30
0.0
 40
6.522861452358992
100
AcDbArc
 50
297.1384938153404
 51
322.4047628718212
  0
ARC
  5
3FED
330
2
100
AcDbEntity
  8
KIJUN
100
AcDbCircle
 10
8.659372205260792
 20
67.29828110978411
 30
0.0
 40
24.26657372188004
100
AcDbArc
 50
323.6118463547837
 51
338.8165467481631
  0
ARC
  5
3FEE
330
2
100
AcDbEntity
  8
KIJUN
100
AcDbCircle
 10
21.92886258679475
 20
69.39035900541114
 30
0.0
 40
14.3359622363935
100
AcDbArc
 50
310.7468772041088
 51
4.013392899810021
  0
ARC
  5
3FEF
330
2
100
AcDbEntity
  8
KIJUN
100
AcDbCircle
 10
17.24869691256284
 20
45.26186355749853
 30
0.0
 40
35.8508692526129
100
AcDbArc
 50
46.48032376054767
 51
54.22538606785392
  0
ARC
  5
3FF0
330
2
100
AcDbEntity
  8
KIJUN
100
AcDbCircle
 10
37.64643962456626
 20
67.08776581689893
 30
0.0
 40
5.982864083195222
100
AcDbArc
 50
26.11817751479347
 51
44.19838435405561
  0
ARC
  5
3FF1
330
2
100
AcDbEntity
  8
KIJUN
100
AcDbCircle
 10
41.10894319065241
 20
68.75617750769388
 30
0.0
 40
2.139609667183887
100
AcDbArc
 50
322.1324097409863
 51
26.82061398537689
  0
ARC
  5
3FF2
330
2
100
AcDbEntity
  8
KIJUN
100
AcDbCircle
 10
31.27611178940186
 20
76.56275742545109
 30
0.0
 40
14.69448582525889
100
AcDbArc
 50
317.6158900696667
 51
321.6372656245379
  0
ARC
  5
3FF3
330
2
100
AcDbEntity
  8
KIJUN
100
AcDbCircle
 10
43.51502273688904
 20
65.47751760918443
 30
0.0
 40
1.819288233999917
100
AcDbArc
 50
139.5749414144296
 51
155.0725696433402
  0
ARC
  5
3FF5
330
2
100
AcDbEntity
  8
KIJUN
100
AcDbCircle
 10
42.44834503327096
 20
66.01238293793571
 30
0.0
 40
0.6275530027113411
100
AcDbArc
 50
158.3123396514023
 51
205.4220461348253
  0
ARC
  5
3FF6
330
2
100
AcDbEntity
  8
KIJUN
100
AcDbCircle
 10
44.65997834043624
 20
67.94840017394458
 30
0.0
 40
3.547319418141735
100
AcDbArc
 50
218.4413407014815
 51
315.7900543791982
  0
ARC
  5
3FF7
330
2
100
AcDbEntity
  8
KIJUN
100
AcDbCircle
 10
89.29275973174204
 20
69.86009148576624
 30
0.0
 40
40.72662885632767
100
AcDbArc
 50
170.8650306350103
 51
180.0234363132549
  0
ARC
  5
3FF8
330
2
100
AcDbEntity
  8
KIJUN
100
AcDbCircle
 10
36.16642963324101
 20
69.57219227902402
 30
0.0
 40
12.40267095095891
100
AcDbArc
 50
351.8581814138189
 51
1.253130604053567
  0
ARC
  5
3FF9
330
2
100
AcDbEntity
  8
KIJUN
100
AcDbCircle
 10
44.61509820445405
 20
68.34678333991302
 30
0.0
 40
3.865648546300958
100
AcDbArc
 50
312.0187103910009
 51
352.1031131399985
  0
ARC
  5
3FFA
330
2
100
AcDbEntity
  8
KIJUN
100
AcDbCircle
 10
46.18238813375817
 20
82.15972853513163
 30
0.0
 40
6.515012927643545
100
AcDbArc
 50
296.4340826137408
 51
343.4490393444699
  0
DIMENSION
  5
4172
330
2
100
AcDbEntity
  8
SUNPOU
100
AcDbDimension
  2
*D7
 10
-12.13219222043394
 20
159.4490315256543
 30
0.0
 11
67.86780777956605
 21
164.9490315256543
 31
0.0
 70
    32
 71
     5
 42
160.0
  3
STANDARD
100
AcDbAlignedDimension
 13
147.867807779566
 23
46.55902271655839
 33
0.0
 14
-12.13219222043395
 24
46.5590227165584
 34
0.0
100
AcDbRotatedDimension
1001
ACAD
1000
DSTYLE
1002
{
1070
    78
1070
     8
1070
    41
1040
2.0
1070
    42
1040
10.0
1070
    44
1040
0.0
1070
    73
1070
     0
1070
    74
1070
     0
1070
    77
1070
     1
1070
   140
1040
5.0
1070
   141
1040
0.0
1070
   146
1040
0.064286
1070
   147
1040
3.0
1070
   176
1070
    60
1070
   177
1070
    70
1070
   178
1070
    60
1070
   271
1070
     8
1070
   272
1070
     0
1070
   340
1005
1C
1070
   342
1005
109
1002
}
  0
DIMENSION
  5
417F
330
2
100
AcDbEntity
  8
SUNPOU
100
AcDbDimension
  2
*D8
 10
-40.87129395253398
 20
33.61346478166272
 30
0.0
 11
-46.37129395253397
 21
86.11346478166272
 31
0.0
 70
    32
 71
     5
 42
105.0
  3
STANDARD
100
AcDbAlignedDimension
 13
67.8678077795669
 23
138.6134647816627
 33
0.0
 14
-5.503334935163222
 24
33.61346478166272
 34
0.0
 50
90.0
100
AcDbRotatedDimension
1001
ACAD
1000
DSTYLE
1002
{
1070
    78
1070
     8
1070
    41
1040
2.0
1070
    42
1040
10.0
1070
    44
1040
0.0
1070
    73
1070
     0
1070
    74
1070
     0
1070
    77
1070
     1
1070
   140
1040
5.0
1070
   141
1040
0.0
1070
   146
1040
0.064286
1070
   147
1040
3.0
1070
   176
1070
    60
1070
   177
1070
    70
1070
   178
1070
    60
1070
   271
1070
     8
1070
   272
1070
     0
1070
   340
1005
1C
1070
   342
1005
109
1002
}
  0
SPLINE
  5
4206
330
2
100
AcDbEntity
  8
KIJUN
100
AcDbSpline
210
0.0
220
0.0
230
1.0
 70
     8
 71
     3
 72
    10
 73
     6
 74
     4
 42
0.0000000001
 43
0.0000000001
 44
0.0000000001
 40
0.0
 40
0.0
 40
0.0
 40
0.0
 40
4.212615081758536
 40
12.50812427767469
 40
20.62092779097085
 40
20.62092779097085
 40
20.62092779097085
 40
20.62092779097085
 10
121.353321540324
 20
79.29195455627375
 30
0.0
 10
119.9339612836158
 20
79.4919953052665
 30
0.0
 10
115.7195875178816
 20
80.08595760669654
 30
0.0
 10
110.9728177537248
 20
85.98969241236845
 30
0.0
 10
109.1388985642893
 20
91.08210534220768
 30
0.0
 10
108.2321492655147
 20
93.59995993460335
 30
0.0
 11
121.353321540324
 21
79.29195455627375
 31
0.0
 11
117.2466787184139
 21
80.2308957473572
 31
0.0
 11
111.4274242245108
 21
86.14289625097006
 31
0.0
 11
108.2321492655147
 21
93.59995993460335
 31
0.0
  0
SPLINE
  5
4207
330
2
100
AcDbEntity
  8
KIJUN
100
AcDbSpline
210
0.0
220
0.0
230
1.0
 70
     8
 71
     3
 72
    13
 73
     9
 74
     7
 42
0.0000000001
 43
0.0000000001
 44
0.0000000001
 40
0.0
 40
0.0
 40
0.0
 40
0.0
 40
4.926983845871392
 40
10.93164042913721
 40
19.73886814667641
 40
27.67243936306559
 40
36.50746145673303
 40
40.30091963968841
 40
40.30091963968841
 40
40.30091963968841
 40
40.30091963968841
 10
119.2797833082388
 20
70.3937280224564
 30
0.0
 10
117.5794036047214
 20
70.90807330661796
 30
0.0
 10
113.8067223674102
 20
72.04926594673352
 30
0.0
 10
112.8982634697488
 20
79.43468572867573
 30
0.0
 10
109.2054332393784
 20
85.84880514247199
 30
0.0
 10
109.0447769022281
 20
95.06170753401553
 30
0.0
 10
103.0198654219465
 20
99.42478957980931
 30
0.0
 10
99.79094640331851
 20
102.0640150931125
 30
0.0
 10
98.82101423372967
 20
102.8568097446303
 30
0.0
 11
119.2797833082388
 21
70.3937280224564
 31
0.0
 11
114.8428177376925
 21
72.53580793302576
 31
0.0
 11
112.744069849429
 21
78.16174412040535
 31
0.0
 11
109.786744131758
 21
86.45761566402224
 31
0.0
 11
107.9741888532971
 21
94.18135799582243
 31
0.0
 11
101.7733439154169
 21
100.4747781670773
 31
0.0
 11
98.82101423372967
 21
102.8568097446303
 31
0.0
  0
SPLINE
  5
4208
330
2
100
AcDbEntity
  8
KIJUN
100
AcDbSpline
210
0.0
220
0.0
230
1.0
 70
     8
 71
     3
 72
    10
 73
     6
 74
     4
 42
0.0000000001
 43
0.0000000001
 44
0.0000000001
 40
0.0
 40
0.0
 40
0.0
 40
0.0
 40
5.783046554069205
 40
14.64762416198168
 40
31.96059279958868
 40
31.96059279958868
 40
31.96059279958868
 40
31.96059279958868
 10
114.3363241227895
 20
56.55204230320414
 30
0.0
 10
114.3444444023165
 20
58.48477616930596
 30
0.0
 10
114.365011901037
 20
63.38011273820718
 30
0.0
 10
111.8111285232948
 20
73.81792994081653
 30
0.0
 10
108.6403040162959
 20
81.94249133692164
 30
0.0
 10
106.5432249115489
 20
87.31580919207225
 30
0.0
 11
114.3363241227895
 21
56.55204230320414
 31
0.0
 11
114.1750337911628
 21
62.33283920981274
 31
0.0
 11
112.3624794054375
 21
71.01013042110047
 31
0.0
 11
106.5432249115489
 21
87.31580919207225
 31
0.0
  0
SPLINE
  5
4209
330
2
100
AcDbEntity
  8
KIJUN
100
AcDbSpline
210
0.0
220
0.0
230
1.0
 70
     8
 71
     3
 72
     9
 73
     5
 74
     3
 42
0.0000000001
 43
0.0000000001
 44
0.0000000001
 40
0.0
 40
0.0
 40
0.0
 40
0.0
 40
5.658499149028986
 40
18.37652353156239
 40
18.37652353156239
 40
18.37652353156239
 40
18.37652353156239
 10
99.50594656644163
 20
70.3937280224564
 30
0.0
 10
100.6865812715151
 20
71.91843112703608
 30
0.0
 10
104.5208067204464
 20
76.87005199716783
 30
0.0
 10
103.9682870244035
 20
83.32514374386482
 30
0.0
 10
103.5858991938635
 20
87.79258363177286
 30
0.0
 11
99.50594656644163
 21
70.3937280224564
 31
0.0
 11
102.6319226375457
 21
75.11038851717576
 31
0.0
 11
103.5858991938635
 21
87.79258363177286
 31
0.0
  0
SPLINE
  5
420A
330
2
100
AcDbEntity
  8
KIJUN
100
AcDbSpline
210
0.0
220
0.0
230
1.0
 70
     8
 71
     3
 72
     9
 73
     5
 74
     3
 42
0.0000000001
 43
0.0000000001
 44
0.0000000001
 40
0.0
 40
0.0
 40
0.0
 40
0.0
 40
6.679920623392682
 40
21.09397924855339
 40
21.09397924855339
 40
21.09397924855339
 40
21.09397924855339
 10
97.52856289210653
 20
74.34849537069498
 30
0.0
 10
98.56184461486368
 20
76.35228110146759
 30
0.0
 10
101.8247611144131
 20
82.67987344971279
 30
0.0
 10
101.284167034119
 20
89.90899634746714
 30
0.0
 10
100.9147651932449
 20
94.84884197966897
 30
0.0
 11
97.52856289210653
 21
74.34849537069498
 31
0.0
 11
100.2469821394797
 21
80.45026038832206
 31
0.0
 11
100.9147651932449
 21
94.84884197966897
 31
0.0
  0
SPLINE
  5
420B
330
2
100
AcDbEntity
  8
KIJUN
100
AcDbSpline
210
0.0
220
0.0
230
1.0
 70
     8
 71
     3
 72
    18
 73
    14
 74
    12
 42
0.0000000001
 43
0.0000000001
 44
0.0000000001
 40
0.0
 40
0.0
 40
0.0
 40
0.0
 40
3.695421493311182
 40
11.14768095539542
 40
14.29134321193141
 40
21.68801310706565
 40
26.29903375825695
 40
31.06888286324231
 40
37.26201959191192
 40
43.12632853463887
 40
47.19815573780754
 40
51.35291081293303
 40
54.28484217001716
 40
54.28484217001716
 40
54.28484217001716
 40
54.28484217001716
 10
81.70949349883569
 20
80.28064639335497
 30
0.0
 10
82.9629340007253
 20
80.28049888871406
 30
0.0
 10
86.74408720257991
 20
80.2800539233212
 30
0.0
 10
90.66935323968086
 20
84.05334684484035
 30
0.0
 10
92.89586720494062
 20
89.65392344252427
 30
0.0
 10
91.22650657730686
 20
95.30217019947889
 30
0.0
 10
86.57707185411032
 20
98.50300151962983
 30
0.0
 10
81.00544375190054
 20
99.8413402223575
 30
0.0
 10
76.66118951271108
 20
94.99362262819394
 30
0.0
 10
75.75012904184958
 20
89.29532645090887
 30
0.0
 10
78.96511725640883
 20
85.10795618492679
 30
0.0
 10
83.9470706467943
 20
85.79362468162907
 30
0.0
 10
84.14239691529616
 20
88.37276703207287
 30
0.0
 10
84.22320805558875
 20
89.43981979417621
 30
0.0
 11
81.70949349883569
 21
80.28064639335497
 31
0.0
 11
85.39076806173099
 21
80.60369067175399
 31
0.0
 11
91.0617707450444
 21
85.43855361252864
 31
0.0
 11
92.15024574042629
 21
88.38776275526459
 31
0.0
 11
90.15894037598011
 21
95.51134531484184
 31
0.0
 11
86.43834271204978
 21
98.23506785373389
 31
0.0
 11
81.72129515958495
 21
98.94282690321
 31
0.0
 11
77.21785158966369
 21
94.69148140413194
 31
0.0
 11
76.63407247931387
 21
88.85630177312943
 31
0.0
 11
79.38617693274307
 21
85.85535228173849
 31
0.0
 11
83.47263427604824
 21
86.60558965459342
 31
0.0
 11
84.22320805558875
 21
89.43981979417621
 31
0.0
  0
SPLINE
  5
420C
330
2
100
AcDbEntity
  8
KIJUN
100
AcDbSpline
210
0.0
220
0.0
230
1.0
 70
     8
 71
     3
 72
    13
 73
     9
 74
     7
 42
0.0000000001
 43
0.0000000001
 44
0.0000000001
 40
0.0
 40
0.0
 40
0.0
 40
0.0
 40
1.781256188118506
 40
3.798364569447487
 40
7.703391045634397
 40
12.52981208148028
 40
16.18968356994411
 40
20.18669234896694
 40
20.18669234896694
 40
20.18669234896694
 40
20.18669234896694
 10
67.86780777956906
 20
93.133640275526
 30
0.0
 10
68.47719540362764
 20
93.13588736666437
 30
0.0
 10
69.77665831958742
 20
93.14067908131011
 30
0.0
 10
71.87390695675317
 20
91.22866891208278
 30
0.0
 10
71.8823280164228
 20
87.41958789704328
 30
0.0
 10
74.53534051735066
 20
83.92021169758312
 30
0.0
 10
78.11473500006112
 20
81.76430469786282
 30
0.0
 10
80.47657621081908
 20
80.78950616064135
 30
0.0
 10
81.70949349883569
 20
80.28064639335497
 30
0.0
 11
67.86780777956906
 21
93.133640275526
 31
0.0
 11
69.63761383593115
 21
92.93199670242101
 31
0.0
 11
71.17341353497678
 21
91.62430961965275
 31
0.0
 11
72.25416196731131
 21
87.87181516852731
 31
0.0
 11
74.98447224582827
 21
83.89189735552157
 31
0.0
 11
78.05607164393393
 21
81.90193844900433
 31
0.0
 11
81.70949349883569
 21
80.28064639335497
 31
0.0
  0
ARC
  5
420D
330
2
100
AcDbEntity
  8
KIJUN
100
AcDbCircle
 10
77.75472615046402
 20
83.1004723417802
 30
0.0
 40
4.857118812529482
100
AcDbArc
 50
215.4896072141954
 51
324.5103927858165
  0
SPLINE
  5
420E
330
2
100
AcDbEntity
  8
KIJUN
100
AcDbSpline
210
0.0
220
0.0
230
1.0
 70
     8
 71
     3
 72
    10
 73
     6
 74
     4
 42
0.0000000001
 43
0.0000000001
 44
0.0000000001
 40
0.0
 40
0.0
 40
0.0
 40
0.0
 40
4.052782911511391
 40
12.0267670328927
 40
23.59876406582907
 40
23.59876406582907
 40
23.59876406582907
 40
23.59876406582907
 10
127.1893180049605
 20
45.67643209522434
 30
0.0
 10
126.6442636398762
 20
46.94841262063601
 30
0.0
 10
125.0267968245404
 20
50.72305680551231
 30
0.0
 10
116.7715199393696
 20
53.77857785535372
 30
0.0
 10
114.9706922765187
 20
60.4888370725547
 30
0.0
 10
113.9045307875245
 20
64.46157699994026
 30
0.0
 11
127.1893180049605
 21
45.67643209522434
 31
0.0
 11
125.2600780420193
 21
49.24057048945507
 31
0.0
 11
118.8684383285257
 21
54.00831256940567
 31
0.0
 11
113.9045307875245
 21
64.46157699994026
 31
0.0
  0
SPLINE
  5
420F
330
2
100
AcDbEntity
  8
KIJUN
100
AcDbSpline
210
0.0
220
0.0
230
1.0
 70
     8
 71
     3
 72
    10
 73
     6
 74
     4
 42
0.0000000001
 43
0.0000000001
 44
0.0000000001
 40
0.0
 40
0.0
 40
0.0
 40
0.0
 40
4.194908200919846
 40
15.02630424993418
 40
25.01025114438848
 40
25.01025114438848
 40
25.01025114438848
 40
25.01025114438848
 10
129.1667016791373
 20
53.58596679193169
 30
0.0
 10
127.7414689345289
 20
53.77480060588587
 30
0.0
 10
122.6362366334363
 20
54.45120976795737
 30
0.0
 10
117.9463193520926
 20
62.68054117394313
 30
0.0
 10
115.2169075658444
 20
68.87063142251516
 30
0.0
 10
113.9077625567514
 20
71.83966885233153
 30
0.0
 11
129.1667016791373
 21
53.58596679193169
 31
0.0
 11
125.0692832663914
 21
54.48508700916383
 31
0.0
 11
118.1052574405571
 21
62.78095855275196
 31
0.0
 11
113.9077625567514
 21
71.83966885233153
 31
0.0
  0
SPLINE
  5
4210
330
2
100
AcDbEntity
  8
KIJUN
100
AcDbSpline
210
0.0
220
0.0
230
1.0
 70
     8
 71
     3
 72
    10
 73
     6
 74
     4
 42
0.0000000001
 43
0.0000000001
 44
0.0000000001
 40
0.0
 40
0.0
 40
0.0
 40
0.0
 40
4.108762037996245
 40
7.703495815499006
 40
12.02430070202221
 40
12.02430070202221
 40
12.02430070202221
 40
12.02430070202221
 10
137.4947485631699
 20
51.79683131797413
 30
0.0
 10
138.9057266931947
 20
51.47857610841309
 30
0.0
 10
141.5511619897368
 20
50.8818811301101
 30
0.0
 10
143.2576240003214
 20
46.50087690347997
 30
0.0
 10
141.7971523283719
 20
44.15277897091287
 30
0.0
 10
140.9999339197918
 20
42.871037645186
 30
0.0
 11
137.4947485631699
 21
51.79683131797413
 31
0.0
 11
141.2861265295949
 21
50.21336088863666
 31
0.0
 11
142.6216935298878
 21
46.87594096917076
 31
0.0
 11
140.9999339197918
 21
42.871037645186
 31
0.0
  0
SPLINE
  5
4211
330
2
100
AcDbEntity
  8
KIJUN
100
AcDbSpline
210
0.0
220
0.0
230
1.0
 70
     8
 71
     3
 72
    11
 73
     7
 74
     5
 42
0.0000000001
 43
0.0000000001
 44
0.0000000001
 40
0.0
 40
0.0
 40
0.0
 40
0.0
 40
4.583133726623755
 40
8.455950358137782
 40
15.87607677473175
 40
19.47419297268724
 40
19.47419297268724
 40
19.47419297268724
 40
19.47419297268724
 10
137.4947485631699
 20
51.79683131797413
 30
0.0
 10
138.2003395822244
 20
50.29726116107723
 30
0.0
 10
139.5021655786193
 20
47.53053176551008
 30
0.0
 10
135.5773646320786
 20
42.68491079179038
 30
0.0
 10
129.38170555476
 20
44.12435179117366
 30
0.0
 10
127.2072857150658
 20
47.07788899995239
 30
0.0
 10
126.4972073913204
 20
48.04239581323839
 30
0.0
 11
137.4947485631699
 21
51.79683131797413
 31
0.0
 11
138.6149934217235
 21
47.35271540893212
 31
0.0
 11
136.2300529236443
 21
44.30136038502008
 31
0.0
 11
128.8844366538331
 21
45.35026345724385
 31
0.0
 11
126.4972073913204
 21
48.04239581323839
 31
0.0
  0
ARC
  5
4212
330
2
100
AcDbEntity
  8
KIJUN
100
AcDbCircle
 10
138.6897538725907
 20
36.27526459434417
 30
0.0
 40
3.685591086773076
100
AcDbArc
 50
313.7621016854783
 51
25.40485132122294
  0
ARC
  5
4213
330
2
100
AcDbEntity
  8
KIJUN
100
AcDbCircle
 10
99.39860617435362
 20
72.81178741914307
 30
0.0
 40
2.420440704840883
100
AcDbArc
 50
140.5883465797271
 51
272.5417557744255
  0
SPLINE
  5
4214
330
2
100
AcDbEntity
  8
KIJUN
100
AcDbSpline
210
0.0
220
0.0
230
1.0
 70
     8
 71
     3
 72
    11
 73
     7
 74
     5
 42
0.0000000001
 43
0.0000000001
 44
0.0000000001
 40
0.0
 40
0.0
 40
0.0
 40
0.0
 40
4.954936716602867
 40
14.40298134164115
 40
20.21684089395465
 40
27.46721026793267
 40
27.46721026793267
 40
27.46721026793267
 40
27.46721026793267
 10
77.44131422955425
 20
95.13072231815751
 30
0.0
 10
77.94946899442708
 20
96.756921053016
 30
0.0
 10
79.42657032098998
 20
101.4839461142009
 30
0.0
 10
88.37785115881187
 20
103.4611912870507
 30
0.0
 10
93.77417073540845
 20
96.83748251385061
 30
0.0
 10
92.79221887724224
 20
92.3736576816397
 30
0.0
 10
92.24725646734128
 20
89.89632977833483
 30
0.0
 11
77.44131422955425
 21
95.13072231815751
 31
0.0
 11
79.54569943757579
 21
99.61658463902731
 31
0.0
 11
88.79926792730154
 21
101.5236812392732
 31
0.0
 11
92.61517325983701
 21
97.13735824761446
 31
0.0
 11
92.24725646734128
 21
89.89632977833483
 31
0.0
  0
SPLINE
  5
4215
330
2
100
AcDbEntity
  8
KIJUN
100
AcDbSpline
210
0.0
220
0.0
230
1.0
 70
     8
 71
     3
 72
    12
 73
     8
 74
     6
 42
0.0000000001
 43
0.0000000001
 44
0.0000000001
 40
0.0
 40
0.0
 40
0.0
 40
0.0
 40
4.980401859871924
 40
16.57199556374752
 40
23.23570699535487
 40
27.32510196268421
 40
31.71086401862054
 40
31.71086401862054
 40
31.71086401862054
 40
31.71086401862054
 10
73.79995880209958
 20
100.6439409878788
 30
0.0
 10
74.94768174652532
 20
101.8630056177537
 30
0.0
 10
78.7666626397506
 20
105.9193717919338
 30
0.0
 10
87.23382191643745
 20
107.541256780078
 30
0.0
 10
94.37747453411914
 20
105.8201414501939
 30
0.0
 10
97.77117549452993
 20
99.20175527221241
 30
0.0
 10
98.91436418449274
 20
103.0213575159492
 30
0.0
 10
99.50594656644163
 20
104.9979423206158
 30
0.0
 11
73.79995880209958
 21
100.6439409878788
 31
0.0
 11
77.44362702928
 21
104.0392442933364
 31
0.0
 11
88.70054557309464
 21
106.8045344216324
 31
0.0
 11
94.80599356953588
 21
104.134599065395
 31
0.0
 11
97.52856289226478
 21
101.0832440415156
 31
0.0
 11
99.50594656644163
 21
104.9979423206158
 31
0.0
  0
SPLINE
  5
4216
330
2
100
AcDbEntity
  8
KIJUN
100
AcDbSpline
210
0.0
220
0.0
230
1.0
 70
     8
 71
     3
 72
    12
 73
     8
 74
     6
 42
0.0000000001
 43
0.0000000001
 44
0.0000000001
 40
0.0
 40
0.0
 40
0.0
 40
0.0
 40
3.567964105954476
 40
7.007403634717229
 40
10.84816186237262
 40
16.80346729942827
 40
21.97259176862603
 40
21.97259176862603
 40
21.97259176862603
 40
21.97259176862603
 10
87.64164452136622
 20
118.839628039868
 30
0.0
 10
87.78569148149381
 20
117.453355550828
 30
0.0
 10
88.0685965674176
 20
114.7307466371912
 30
0.0
 10
83.70438185995505
 20
114.1602219114046
 30
0.0
 10
79.68486547515556
 20
113.1833705557784
 30
0.0
 10
74.926581680315
 20
110.6266545971605
 30
0.0
 10
73.38845796964071
 20
107.1707547762976
 30
0.0
 10
72.67374692588372
 20
105.5649218052905
 30
0.0
 11
87.64164452136622
 21
118.839628039868
 31
0.0
 11
87.26958163136083
 21
115.2911160887454
 31
0.0
 11
84.02606241113728
 21
114.1468576651119
 31
0.0
 11
80.30555580549769
 21
113.1933093649746
 31
0.0
 11
75.24948219954883
 21
110.0465995690366
 31
0.0
 11
72.67374692588372
 21
105.5649218052905
 31
0.0
  0
ARC
  5
4217
330
2
100
AcDbEntity
  8
KIJUN
100
AcDbCircle
 10
88.3151351609384
 20
105.2987865198284
 30
0.0
 40
19.49434512406802
100
AcDbArc
 50
111.8216082458007
 51
173.3172612089784
  0
ARC
  5
4218
330
2
100
AcDbEntity
  8
KIJUN
100
AcDbCircle
 10
91.01876113637306
 20
106.3154670406898
 30
0.0
 40
8.588840894578689
100
AcDbArc
 50
351.1760101680711
 51
86.1436063401164
  0
ARC
  5
4219
330
2
100
AcDbEntity
  8
KIJUN
100
AcDbCircle
 10
86.70248284772986
 20
113.9456990178729
 30
0.0
 40
4.98322846370918
100
AcDbArc
 50
10.86318787267601
 51
79.13681212732483
  0
ARC
  5
421A
330
2
100
AcDbEntity
  8
KIJUN
100
AcDbCircle
 10
80.42683720533608
 20
121.5661047387513
 30
0.0
 40
5.831317835486993
100
AcDbArc
 50
117.2732420326997
 51
170.4049998990862
  0
ARC
  5
421B
330
2
100
AcDbEntity
  8
KIJUN
100
AcDbCircle
 10
65.5826453909132
 20
146.8935039036395
 30
0.0
 40
15.66040284467514
100
AcDbArc
 50
278.5239188300954
 51
302.3776799651109
  0
SPLINE
  5
421C
330
2
100
AcDbEntity
  8
KIJUN
100
AcDbSpline
210
0.0
220
0.0
230
1.0
 70
     8
 71
     3
 72
     9
 73
     5
 74
     3
 42
0.0000000001
 43
0.0000000001
 44
0.0000000001
 40
0.0
 40
0.0
 40
0.0
 40
0.0
 40
5.426563057454826
 40
12.10139729301771
 40
12.10139729301771
 40
12.10139729301771
 40
12.10139729301771
 10
73.79995880209958
 20
100.6439409878788
 30
0.0
 10
72.52508118291354
 20
99.18997968869739
 30
0.0
 10
69.6820661093943
 20
95.94760267330537
 30
0.0
 10
71.10868494737728
 20
91.79843636027706
 30
0.0
 10
71.89557294306041
 20
89.50985788585368
 30
0.0
 11
73.79995880209958
 21
100.6439409878788
 31
0.0
 11
70.8338832908559
 21
96.09971578679846
 31
0.0
 11
71.89557294306041
 21
89.50985788585368
 31
0.0
  0
ARC
  5
421E
330
2
100
AcDbEntity
  8
KIJUN
100
AcDbCircle
 10
71.33964181189302
 20
128.2237494783315
 30
0.0
 40
6.045582640301669
100
AcDbArc
 50
24.12554067585335
 51
64.22221020650019
  0
ARC
  5
421F
330
2
100
AcDbEntity
  8
KIJUN
100
AcDbCircle
 10
60.46646860580574
 20
124.8912715236603
 30
0.0
 40
17.38780057080324
100
AcDbArc
 50
6.133779118888521
 51
19.49778438872362
  0
ARC
  5
4220
330
2
100
AcDbEntity
  8
KIJUN
100
AcDbCircle
 10
73.8680378144784
 20
94.61889412574684
 30
0.0
 40
32.36449454625788
100
AcDbArc
 50
69.28602299351229
 51
83.10263871055587
  0
ARC
  5
4221
330
2
100
AcDbEntity
  8
KIJUN
100
AcDbCircle
 10
76.80715198471343
 20
120.4074024559615
 30
0.0
 40
10.94733507053088
100
AcDbArc
 50
351.7663273421661
 51
10.47084682294197
  0
ARC
  5
4222
330
2
100
AcDbEntity
  8
KIJUN
100
AcDbCircle
 10
83.99052922947412
 20
121.4245203450397
 30
0.0
 40
3.711310823459501
100
AcDbArc
 50
15.18932554115514
 51
69.08408893275005
  0
ARC
  5
4223
330
2
100
AcDbEntity
  8
KIJUN
100
AcDbCircle
 10
89.79456892675065
 20
82.16861276980518
 30
0.0
 40
24.80905365788312
100
AcDbArc
 50
16.82113923323905
 51
66.9555645044554
  0
ARC
  5
4224
330
2
100
AcDbEntity
  8
KIJUN
100
AcDbCircle
 10
118.6264760348098
 20
87.98495081885031
 30
0.0
 40
4.257929512650862
100
AcDbArc
 50
208.6071445681091
 51
259.1009498925797
  0
ARC
  5
4225
330
2
100
AcDbEntity
  8
KIJUN
100
AcDbCircle
 10
128.2014762308412
 20
93.18214286778609
 30
0.0
 40
15.15248322364069
100
AcDbArc
 50
194.6573919508256
 51
208.5247617854252
  0
ARC
  5
4226
330
2
100
AcDbEntity
  8
KIJUN
100
AcDbCircle
 10
115.4734745108464
 20
67.06203171815587
 30
0.0
 40
16.9056322152527
100
AcDbArc
 50
71.97166592924363
 51
82.01674741460205
  0
ARC
  5
4227
330
2
100
AcDbEntity
  8
KIJUN
100
AcDbCircle
 10
112.8121567980596
 20
81.58571668219408
 30
0.0
 40
8.843802340878033
100
AcDbArc
 50
344.9676847275921
 51
1.312591561164308
  0
ARC
  5
4228
330
2
100
AcDbEntity
  8
KIJUN
100
AcDbCircle
 10
120.1500043410152
 20
81.73956751320988
 30
0.0
 40
1.504423741517784
100
AcDbArc
 50
1.856372100634005
 51
68.32900022371427
  0
ARC
  5
4229
330
2
100
AcDbEntity
  8
KIJUN
100
AcDbCircle
 10
118.6395990796229
 20
67.59725386502123
 30
0.0
 40
12.00542851594787
100
AcDbArc
 50
65.73381475885056
 51
76.93588312397579
  0
ARC
  5
422A
330
2
100
AcDbEntity
  8
KIJUN
100
AcDbCircle
 10
121.602184905033
 20
74.50188961193568
 30
0.0
 40
4.495374586789002
100
AcDbArc
 50
14.06131961433804
 51
63.9897979062762
  0
ARC
  5
422B
330
2
100
AcDbEntity
  8
KIJUN
100
AcDbCircle
 10
119.8229513736552
 20
73.75685308427181
 30
0.0
 40
6.408893872131008
100
AcDbArc
 50
327.1351228179083
 51
16.658661173329
  0
ARC
  5
422C
330
2
100
AcDbEntity
  8
KIJUN
100
AcDbCircle
 10
123.3650029328634
 20
71.55378696022606
 30
0.0
 40
2.239369847674549
100
AcDbArc
 50
276.8351568332511
 51
325.3014127243344
  0
ARC
  5
422D
330
2
100
AcDbEntity
  8
KIJUN
100
AcDbCircle
 10
123.1881681507634
 20
73.25081317134466
 30
0.0
 40
3.94546867173371
100
AcDbArc
 50
261.9745801618801
 51
276.4519115715646
  0
ARC
  5
422E
330
2
100
AcDbEntity
  8
KIJUN
100
AcDbCircle
 10
125.614406327361
 20
84.76035424254837
 30
0.0
 40
15.70119096572192
100
AcDbArc
 50
246.2060570621536
 51
259.0700795911105
  0
ARC
  5
422F
330
2
100
AcDbEntity
  8
KIJUN
100
AcDbCircle
 10
133.1873176500085
 20
70.49637096256443
 30
0.0
 40
13.90791310875458
100
AcDbArc
 50
180.4228571610198
 51
226.8174295693443
  0
ARC
  5
4230
330
2
100
AcDbEntity
  8
KIJUN
100
AcDbCircle
 10
127.3765448922148
 20
64.21262824538954
 30
0.0
 40
5.34986602405915
100
AcDbArc
 50
226.142234779813
 51
283.3520877241123
  0
ARC
  5
4231
330
2
100
AcDbEntity
  8
KIJUN
100
AcDbCircle
 10
131.0831043655672
 20
50.09426039073435
 30
0.0
 40
9.249316957357565
100
AcDbArc
 50
98.04373831023918
 51
105.4956231935535
  0
ARC
  5
4232
330
2
100
AcDbEntity
  8
KIJUN
100
AcDbCircle
 10
130.2290605808511
 20
57.1387573269116
 30
0.0
 40
2.159170822565064
100
AcDbArc
 50
1.969044666851264
 51
101.7637323245598
  0
ARC
  5
4233
330
2
100
AcDbEntity
  8
KIJUN
100
AcDbCircle
 10
128.474478807654
 20
57.44362435528863
 30
0.0
 40
3.919272174767661
100
AcDbArc
 50
280.1729610467366
 51
356.6257587015084
  0
ARC
  5
4234
330
2
100
AcDbEntity
  8
KIJUN
100
AcDbCircle
 10
140.1202042920794
 20
59.78827651335704
 30
0.0
 40
12.58760761114746
100
AcDbArc
 50
209.5202682712076
 51
243.2374165733558
  0
ARC
  5
4235
330
2
100
AcDbEntity
  8
KIJUN
100
AcDbCircle
 10
126.8184083733691
 20
59.72759238880836
 30
0.0
 40
26.63464319938617
100
AcDbArc
 50
304.799433859034
 51
314.6905133459126
  0
ARC
  5
4236
330
2
100
AcDbEntity
  8
KIJUN
100
AcDbCircle
 10
139.5359814398486
 20
46.5590227165584
 30
0.0
 40
8.331826339717457
100
AcDbArc
 50
316.203756896842
 51
14.4074589923642
  0
ARC
  5
4237
330
2
100
AcDbEntity
  8
KIJUN
100
AcDbCircle
 10
140.7099112572204
 20
46.44958332298842
 30
0.0
 40
7.233009315511154
100
AcDbArc
 50
17.56249627526294
 51
87.46160749187733
  0
ARC
  5
4238
330
2
100
AcDbEntity
  8
KIJUN
100
AcDbCircle
 10
141.911228276934
 20
45.16093983516304
 30
0.0
 40
8.560010177446732
100
AcDbArc
 50
95.90720313899534
 51
110.3455971582293
  0
ARC
  5
4239
330
2
100
AcDbEntity
  8
KIJUN
100
AcDbCircle
 10
139.7881326148417
 20
50.8634364510567
 30
0.0
 40
2.47512872617227
100
AcDbArc
 50
110.1607304799517
 51
153.7398567182812
  0
ARC
  5
423A
330
2
100
AcDbEntity
  8
KIJUN
100
AcDbCircle
 10
150.786392622605
 20
46.14231125271108
 30
0.0
 40
14.44100498284832
100
AcDbArc
 50
156.249251567964
 51
164.6774144368706
  0
ARC
  5
423B
330
2
100
AcDbEntity
  8
KIJUN
100
AcDbCircle
 10
135.0324135616462
 20
50.31755016593903
 30
0.0
 40
1.861284169211076
100
AcDbArc
 50
251.832520494885
 51
348.8743285243133
  0
ARC
  5
423C
330
2
100
AcDbEntity
  8
KIJUN
100
AcDbCircle
 10
143.8967355422706
 20
42.34985170431747
 30
0.0
 40
9.131718229532413
100
AcDbArc
 50
246.9558507624908
 51
253.0791816718547
  0
ARC
  5
423D
330
2
100
AcDbEntity
  8
KIJUN
100
AcDbCircle
 10
141.2909878787561
 20
36.27402184154595
 30
0.0
 40
2.520799016451322
100
AcDbArc
 50
209.2468283746181
 51
247.3989252802244
  0
ARC
  5
423E
330
2
100
AcDbEntity
  8
KIJUN
100
AcDbCircle
 10
135.5470338886225
 20
35.88623688661906
 30
0.0
 40
2.881927883628691
100
AcDbArc
 50
24.74977422261146
 51
64.24409930511387
  0
ARC
  5
423F
330
2
100
AcDbEntity
  8
KIJUN
100
AcDbCircle
 10
166.6405077908517
 20
48.73660650497256
 30
0.0
 40
30.76485929401617
100
AcDbArc
 50
202.2394591085275
 51
206.4312759128507
  0
ARC
  5
4240
330
2
100
AcDbEntity
  8
KIJUN
100
AcDbCircle
 10
133.4426883025133
 20
31.54871993698751
 30
0.0
 40
7.702952942656791
100
AcDbArc
 50
64.16622030596947
 51
76.94030734035381
  0
ARC
  5
4241
330
2
100
AcDbEntity
  8
KIJUN
100
AcDbCircle
 10
141.5244815097157
 20
51.89307209448433
 30
0.0
 40
15.62509281856152
100
AcDbArc
 50
203.4446268911814
 51
223.2707620611275
  0
ARC
  5
4242
330
2
100
AcDbEntity
  8
KIJUN
100
AcDbCircle
 10
134.396107097343
 20
45.35929407900976
 30
0.0
 40
5.957595238484942
100
AcDbArc
 50
224.5088925058063
 51
258.5428515476086
  0
ARC
  5
4243
330
2
100
AcDbEntity
  8
KIJUN
100
AcDbCircle
 10
165.2377819669111
 20
169.9902798712182
 30
0.0
 40
134.3428108860817
100
AcDbArc
 50
256.2088681021075
 51
257.0726791765341
  0
ARC
  5
4244
330
2
100
AcDbEntity
  8
KIJUN
100
AcDbCircle
 10
175.5271291736254
 20
82.74532960637147
 30
0.0
 40
66.5612719418412
100
AcDbArc
 50
203.1737916581598
 51
211.9408372154361
  0
ARC
  5
4245
330
2
100
AcDbEntity
  8
KIJUN
100
AcDbCircle
 10
119.7984121064042
 20
55.68400879205931
 30
0.0
 40
12.44094374814381
100
AcDbArc
 50
296.8004455315467
 51
306.4470180968113
  0
ARC
  5
4246
330
2
100
AcDbEntity
  8
KIJUN
100
AcDbCircle
 10
123.7398434748597
 20
47.82894051081679
 30
0.0
 40
3.652595236300168
100
AcDbArc
 50
238.6886601351113
 51
297.1718447261088
  0
ARC
  5
4247
330
2
100
AcDbEntity
  8
KIJUN
100
AcDbCircle
 10
127.0587049817579
 20
52.6770770104229
 30
0.0
 40
9.524645332779506
100
AcDbArc
 50
212.6996061528748
 51
236.7875857939079
  0
ARC
  5
4248
330
2
100
AcDbEntity
  8
KIJUN
100
AcDbCircle
 10
125.1294867696432
 20
50.27142690253986
 30
0.0
 40
12.48753337262843
100
AcDbArc
 50
149.8045812047477
 51
158.8606596173631
  0
ARC
  5
4249
330
2
100
AcDbEntity
  8
KIJUN
100
AcDbCircle
 10
117.8057411430786
 20
53.24826621089444
 30
0.0
 40
4.585068308181991
100
AcDbArc
 50
160.5516412810306
 51
187.3225510801255
  0
ARC
  5
424A
330
2
100
AcDbEntity
  8
KIJUN
100
AcDbCircle
 10
105.1975720485939
 20
51.51754755288036
 30
0.0
 40
8.141599902822973
100
AcDbArc
 50
0.9375884843419775
 51
8.094081117043513
  0
ARC
  5
424B
330
2
100
AcDbEntity
  8
KIJUN
100
AcDbCircle
 10
112.3161083964372
 20
51.62301980286333
 30
0.0
 40
1.022350207911935
100
AcDbArc
 50
316.904210932969
 51
1.555445643831719
  0
ARC
  5
424C
330
2
100
AcDbEntity
  8
KIJUN
100
AcDbCircle
 10
112.3194395603223
 20
51.83340541957415
 30
0.0
 40
1.174054554395059
100
AcDbArc
 50
283.6520984706636
 51
309.2733938795299
  0
ARC
  5
424D
330
2
100
AcDbEntity
  8
KIJUN
100
AcDbCircle
 10
111.6884732714499
 20
54.78090788195059
 30
0.0
 40
4.188018524622837
100
AcDbArc
 50
242.1842836993135
 51
282.5227070847081
  0
ARC
  5
424E
330
2
100
AcDbEntity
  8
KIJUN
100
AcDbCircle
 10
112.7095781311545
 20
56.88153940819981
 30
0.0
 40
6.52286145235899
100
AcDbArc
 50
217.5952371281791
 51
242.8615061846599
  0
ARC
  5
424F
330
2
100
AcDbEntity
  8
KIJUN
100
AcDbCircle
 10
127.0762433538713
 20
67.29828110978411
 30
0.0
 40
24.26657372188003
100
AcDbArc
 50
201.1834532518371
 51
216.3881536452164
  0
ARC
  5
4250
330
2
100
AcDbEntity
  8
KIJUN
100
AcDbCircle
 10
113.8067529723373
 20
69.39035900541114
 30
0.0
 40
14.3359622363935
100
AcDbArc
 50
175.9866071001899
 51
229.253122795891
  0
ARC
  5
4251
330
2
100
AcDbEntity
  8
KIJUN
100
AcDbCircle
 10
118.4869186465692
 20
45.26186355749853
 30
0.0
 40
35.8508692526129
100
AcDbArc
 50
125.7746139321461
 51
133.519676239452
  0
ARC
  5
4252
330
2
100
AcDbEntity
  8
KIJUN
100
AcDbCircle
 10
98.08917593456584
 20
67.08776581689893
 30
0.0
 40
5.982864083195221
100
AcDbArc
 50
135.8016156459438
 51
153.8818224852068
  0
ARC
  5
4253
330
2
100
AcDbEntity
  8
KIJUN
100
AcDbCircle
 10
94.62667236847968
 20
68.75617750769388
 30
0.0
 40
2.139609667183887
100
AcDbArc
 50
153.1793860146234
 51
217.867590259014
  0
ARC
  5
4254
330
2
100
AcDbEntity
  8
KIJUN
100
AcDbCircle
 10
104.4595037697302
 20
76.56275742545109
 30
0.0
 40
14.69448582525889
100
AcDbArc
 50
218.3627343754623
 51
222.3841099303337
  0
ARC
  5
4255
330
2
100
AcDbEntity
  8
KIJUN
100
AcDbCircle
 10
92.22059282224305
 20
65.47751760918443
 30
0.0
 40
1.819288233999917
100
AcDbArc
 50
24.92743035666013
 51
40.42505858557041
  0
ARC
  5
4256
330
2
100
AcDbEntity
  8
KIJUN
100
AcDbCircle
 10
93.28727052586115
 20
66.01238293793571
 30
0.0
 40
0.627553002711341
100
AcDbArc
 50
334.5779538651748
 51
21.68766034859776
  0
ARC
  5
4257
330
2
100
AcDbEntity
  8
KIJUN
100
AcDbCircle
 10
91.07563721869587
 20
67.94840017394458
 30
0.0
 40
3.547319418141734
100
AcDbArc
 50
224.2099456208014
 51
321.5586592985183
  0
ARC
  5
4258
330
2
100
AcDbEntity
  8
KIJUN
100
AcDbCircle
 10
46.44285582739006
 20
69.86009148576624
 30
0.0
 40
40.72662885632766
100
AcDbArc
 50
359.9765636867451
 51
9.134969364989633
  0
ARC
  5
4259
330
2
100
AcDbEntity
  8
KIJUN
100
AcDbCircle
 10
99.56918592589111
 20
69.57219227902402
 30
0.0
 40
12.40267095095891
100
AcDbArc
 50
178.7468693959464
 51
188.1418185861812
  0
ARC
  5
425A
330
2
100
AcDbEntity
  8
KIJUN
100
AcDbCircle
 10
91.12051735467806
 20
68.34678333991302
 30
0.0
 40
3.865648546300957
100
AcDbArc
 50
187.8968868600014
 51
227.9812896089988
  0
ARC
  5
425B
330
2
100
AcDbEntity
  8
KIJUN
100
AcDbCircle
 10
89.55322742537394
 20
82.15972853513163
 30
0.0
 40
6.515012927643543
100
AcDbArc
 50
196.5509606555303
 51
243.5659173862596
  0
ENDSEC
  0
SECTION
  2
OBJECTS
  0
DICTIONARY
  5
1A
330
0
100
AcDbDictionary
281
     1
  3
ACAD_COLOR
350
144
  3
ACAD_GROUP
350
18
  3
ACAD_LAYOUT
350
58
  3
ACAD_MATERIAL
350
143
  3
ACAD_MLINESTYLE
350
19
  3
ACAD_PLOTSETTINGS
350
59
  3
ACAD_PLOTSTYLENAME
350
56
  3
ACAD_TABLESTYLE
350
145
  3
ACDBHEADERROUNDTRIPXREC
350
427E
  3
AcDbVariableDictionary
350
1D1
  0
DICTIONARY
  5
1B4
330
A
100
AcDbDictionary
280
     1
281
     1
  3
ACAD_LAYERFILTERS
360
1A2A
  3
ACLYDICTIONARY
360
1A29
  0
DICTIONARY
  5
D13
330
2
100
AcDbDictionary
280
     1
281
     1
  3
ACAD_SORTENTS
360
D14
  0
DICTIONARY
  5
144
102
{ACAD_REACTORS
330
1A
102
}
330
1A
100
AcDbDictionary
281
     1
  0
DICTIONARY
  5
18
102
{ACAD_REACTORS
330
1A
102
}
330
1A
100
AcDbDictionary
281
     1
  3
*A1
350
E0D
  3
*A10
350
34BB
  3
*A11
350
35A5
  3
*A12
350
24D6
  3
*A13
350
FF8
  3
*A14
350
136A
  3
*A15
350
1555
  3
*A16
350
2A17
  3
*A17
350
17BC
  3
*A18
350
1A98
  3
*A19
350
1CBC
  3
*A2
350
307D
  3
*A20
350
3695
  3
*A21
350
36C9
  3
*A22
350
382B
  3
*A23
350
2573
  3
*A24
350
3878
  3
*A25
350
3988
  3
*A26
350
3A25
  3
*A27
350
3C81
  3
*A28
350
213E
  3
*A29
350
3E5C
  3
*A3
350
3181
  3
*A30
350
2B84
  3
*A31
350
2C6B
  3
*A32
350
2D78
  3
*A33
350
22C8
  3
*A34
350
1EFE
  3
*A35
350
241A
  3
*A37
350
265A
  3
*A38
350
26DD
  3
*A39
350
275E
  3
*A4
350
2905
  3
*A40
350
2EE1
  3
*A41
350
2F81
  3
*A5
350
31DF
  3
*A6
350
32E4
  3
*A7
350
3349
  3
*A8
350
2037
  3
*A9
350
3467
  0
DICTIONARY
  5
58
102
{ACAD_REACTORS
330
1A
102
}
330
1A
100
AcDbDictionary
281
     1
  3
Model
350
5A
  3
ﾚｲｱｳﾄ1
350
5B
  0
DICTIONARY
  5
143
102
{ACAD_REACTORS
330
1A
102
}
330
1A
100
AcDbDictionary
281
     1
  0
DICTIONARY
  5
19
102
{ACAD_REACTORS
330
1A
102
}
330
1A
100
AcDbDictionary
281
     1
  3
STANDARD
350
1D
  0
DICTIONARY
  5
59
102
{ACAD_REACTORS
330
1A
102
}
330
1A
100
AcDbDictionary
281
     1
  0
ACDBDICTIONARYWDFLT
  5
56
102
{ACAD_REACTORS
330
1A
102
}
330
1A
100
AcDbDictionary
281
     1
  3
Normal
350
57
100
AcDbDictionaryWithDefault
340
57
  0
DICTIONARY
  5
145
102
{ACAD_REACTORS
330
1A
102
}
330
1A
100
AcDbDictionary
281
     1
  3
Standard
350
146
  0
DICTIONARY
  5
427E
102
{ACAD_REACTORS
330
1A
102
}
330
1A
100
AcDbDictionary
281
     1
  0
DICTIONARY
  5
1D1
102
{ACAD_REACTORS
330
1A
102
}
330
1A
100
AcDbDictionary
281
     1
  3
CTABLESTYLE
350
1D2
  3
DIMASSOC
350
D03
  3
PROJECTNAME
350
D04
  0
DICTIONARY
  5
1A2A
102
{ACAD_REACTORS
330
1B4
102
}
330
1B4
100
AcDbDictionary
281
     1
  0
DICTIONARY
  5
1A29
102
{ACAD_REACTORS
330
1B4
102
}
330
1B4
100
AcDbDictionary
281
     1
1001
ACAD
1000
<All
  0
SORTENTSTABLE
  5
D14
102
{ACAD_REACTORS
330
D13
102
}
330
D13
100
AcDbSortentsTable
330
2
331
3EF3
  5
3EF3
331
3EC9
  5
3EC9
331
3EF5
  5
3EF5
331
3EF7
  5
3EF7
331
3ECB
  5
3ECB
331
3ECD
  5
3ECD
331
3ECF
  5
3ECF
331
3ED1
  5
3ED1
331
3ED3
  5
3ED3
331
3ED5
  5
3ED5
331
1F
  5
1F
331
3EDD
  5
3EDD
331
3F03
  5
3F03
331
3F07
  5
3F07
331
3F09
  5
3F09
331
21
  5
21
331
3F0B
  5
3F0B
331
23
  5
23
331
3EF2
  5
3EF2
331
3EF4
  5
3EF4
331
3ECA
  5
3ECA
331
3ECC
  5
3ECC
331
3EF8
  5
3EF8
331
3ED0
  5
3ED0
331
3ED2
  5
3ED2
331
3ED6
  5
3ED6
331
3EDC
  5
3EDC
331
3F06
  5
3F06
331
3F08
  5
3F08
331
20
  5
20
331
3EE9
  5
3EE9
  0
GROUP
  5
E0D
102
{ACAD_REACTORS
330
18
102
}
330
18
100
AcDbGroup
300

 70
     1
 71
     1
  0
GROUP
  5
34BB
102
{ACAD_REACTORS
330
18
102
}
330
18
100
AcDbGroup
300

 70
     1
 71
     1
  0
GROUP
  5
35A5
102
{ACAD_REACTORS
330
18
102
}
330
18
100
AcDbGroup
300

 70
     1
 71
     1
  0
GROUP
  5
24D6
102
{ACAD_REACTORS
330
18
102
}
330
18
100
AcDbGroup
300

 70
     1
 71
     1
  0
GROUP
  5
FF8
102
{ACAD_REACTORS
330
18
102
}
330
18
100
AcDbGroup
300

 70
     1
 71
     1
  0
GROUP
  5
136A
102
{ACAD_REACTORS
330
18
102
}
330
18
100
AcDbGroup
300

 70
     1
 71
     1
  0
GROUP
  5
1555
102
{ACAD_REACTORS
330
18
102
}
330
18
100
AcDbGroup
300

 70
     1
 71
     1
  0
GROUP
  5
2A17
102
{ACAD_REACTORS
330
18
102
}
330
18
100
AcDbGroup
300

 70
     1
 71
     1
  0
GROUP
  5
17BC
102
{ACAD_REACTORS
330
18
102
}
330
18
100
AcDbGroup
300

 70
     1
 71
     1
  0
GROUP
  5
1A98
102
{ACAD_REACTORS
330
18
102
}
330
18
100
AcDbGroup
300

 70
     1
 71
     1
  0
GROUP
  5
1CBC
102
{ACAD_REACTORS
330
18
102
}
330
18
100
AcDbGroup
300

 70
     1
 71
     1
  0
GROUP
  5
307D
102
{ACAD_REACTORS
330
18
102
}
330
18
100
AcDbGroup
300

 70
     1
 71
     1
  0
GROUP
  5
3695
102
{ACAD_REACTORS
330
18
102
}
330
18
100
AcDbGroup
300

 70
     1
 71
     1
  0
GROUP
  5
36C9
102
{ACAD_REACTORS
330
18
102
}
330
18
100
AcDbGroup
300

 70
     1
 71
     1
  0
GROUP
  5
382B
102
{ACAD_REACTORS
330
18
102
}
330
18
100
AcDbGroup
300

 70
     1
 71
     1
  0
GROUP
  5
2573
102
{ACAD_REACTORS
330
18
102
}
330
18
100
AcDbGroup
300

 70
     1
 71
     1
  0
GROUP
  5
3878
102
{ACAD_REACTORS
330
18
102
}
330
18
100
AcDbGroup
300

 70
     1
 71
     1
  0
GROUP
  5
3988
102
{ACAD_REACTORS
330
18
102
}
330
18
100
AcDbGroup
300

 70
     1
 71
     1
  0
GROUP
  5
3A25
102
{ACAD_REACTORS
330
18
102
}
330
18
100
AcDbGroup
300

 70
     1
 71
     1
  0
GROUP
  5
3C81
102
{ACAD_REACTORS
330
18
102
}
330
18
100
AcDbGroup
300

 70
     1
 71
     1
  0
GROUP
  5
213E
102
{ACAD_REACTORS
330
18
102
}
330
18
100
AcDbGroup
300

 70
     1
 71
     1
  0
GROUP
  5
3E5C
102
{ACAD_REACTORS
330
18
102
}
330
18
100
AcDbGroup
300

 70
     1
 71
     1
  0
GROUP
  5
3181
102
{ACAD_REACTORS
330
18
102
}
330
18
100
AcDbGroup
300

 70
     1
 71
     1
  0
GROUP
  5
2B84
102
{ACAD_REACTORS
330
18
102
}
330
18
100
AcDbGroup
300

 70
     1
 71
     1
  0
GROUP
  5
2C6B
102
{ACAD_REACTORS
330
18
102
}
330
18
100
AcDbGroup
300

 70
     1
 71
     1
  0
GROUP
  5
2D78
102
{ACAD_REACTORS
330
18
102
}
330
18
100
AcDbGroup
300

 70
     1
 71
     1
  0
GROUP
  5
22C8
102
{ACAD_REACTORS
330
18
102
}
330
18
100
AcDbGroup
300

 70
     1
 71
     1
  0
GROUP
  5
1EFE
102
{ACAD_REACTORS
330
18
102
}
330
18
100
AcDbGroup
300

 70
     1
 71
     1
  0
GROUP
  5
241A
102
{ACAD_REACTORS
330
18
102
}
330
18
100
AcDbGroup
300

 70
     1
 71
     1
  0
GROUP
  5
265A
102
{ACAD_REACTORS
330
18
102
}
330
18
100
AcDbGroup
300

 70
     1
 71
     1
  0
GROUP
  5
26DD
102
{ACAD_REACTORS
330
18
102
}
330
18
100
AcDbGroup
300

 70
     1
 71
     1
  0
GROUP
  5
275E
102
{ACAD_REACTORS
330
18
102
}
330
18
100
AcDbGroup
300

 70
     1
 71
     1
  0
GROUP
  5
2905
102
{ACAD_REACTORS
330
18
102
}
330
18
100
AcDbGroup
300

 70
     1
 71
     1
  0
GROUP
  5
2EE1
102
{ACAD_REACTORS
330
18
102
}
330
18
100
AcDbGroup
300

 70
     1
 71
     1
  0
GROUP
  5
2F81
102
{ACAD_REACTORS
330
18
102
}
330
18
100
AcDbGroup
300

 70
     1
 71
     1
  0
GROUP
  5
31DF
102
{ACAD_REACTORS
330
18
102
}
330
18
100
AcDbGroup
300

 70
     1
 71
     1
  0
GROUP
  5
32E4
102
{ACAD_REACTORS
330
18
102
}
330
18
100
AcDbGroup
300

 70
     1
 71
     1
  0
GROUP
  5
3349
102
{ACAD_REACTORS
330
18
102
}
330
18
100
AcDbGroup
300

 70
     1
 71
     1
  0
GROUP
  5
2037
102
{ACAD_REACTORS
330
18
102
}
330
18
100
AcDbGroup
300

 70
     1
 71
     1
  0
GROUP
  5
3467
102
{ACAD_REACTORS
330
18
102
}
330
18
100
AcDbGroup
300

 70
     1
 71
     1
  0
LAYOUT
  5
5A
102
{ACAD_XDICTIONARY
360
427F
102
}
102
{ACAD_REACTORS
330
58
102
}
330
58
100
AcDbPlotSettings
  1

  2
なし
  4

  6

 40
0.0
 41
0.0
 42
0.0
 43
0.0
 44
0.0
 45
0.0
 46
0.0
 47
0.0
 48
0.0
 49
0.0
140
0.0
141
0.0
142
1.0
143
1.0
 70
  1712
 72
     0
 73
     0
 74
     0
  7
monochrome.ctb
 75
     0
147
1.0
148
0.0
149
0.0
100
AcDbLayout
  1
Model
 70
     1
 71
     0
 10
0.0
 20
0.0
 11
12.0
 21
9.0
 12
0.0
 22
0.0
 32
0.0
 14
0.0
 24
0.0
 34
0.0
 15
0.0
 25
0.0
 35
0.0
146
0.0
 13
0.0
 23
0.0
 33
0.0
 16
1.0
 26
0.0
 36
0.0
 17
0.0
 27
1.0
 37
0.0
 76
     0
330
2
  0
LAYOUT
  5
5B
102
{ACAD_XDICTIONARY
360
4281
102
}
102
{ACAD_REACTORS
330
58
102
}
330
58
100
AcDbPlotSettings
  1

  2
なし
  4

  6

 40
0.0
 41
0.0
 42
0.0
 43
0.0
 44
0.0
 45
0.0
 46
0.0
 47
0.0
 48
0.0
 49
0.0
140
0.0
141
0.0
142
1.0
143
1.0
 70
   688
 72
     0
 73
     0
 74
     5
  7
monochrome.ctb
 75
    16
147
1.0
148
0.0
149
0.0
100
AcDbLayout
  1
ﾚｲｱｳﾄ1
 70
     1
 71
     1
 10
0.0
 20
0.0
 11
12.0
 21
9.0
 12
0.0
 22
0.0
 32
0.0
 14
1.000000000000000E+20
 24
1.000000000000000E+20
 34
1.000000000000000E+20
 15
-1.000000000000000E+20
 25
-1.000000000000000E+20
 35
-1.000000000000000E+20
146
0.0
 13
0.0
 23
0.0
 33
0.0
 16
1.0
 26
0.0
 36
0.0
 17
0.0
 27
1.0
 37
0.0
 76
     0
330
7
  0
MLINESTYLE
  5
1D
102
{ACAD_REACTORS
330
19
102
}
330
19
100
AcDbMlineStyle
  2
STANDARD
 70
     0
  3

 62
   256
 51
90.0
 52
90.0
 71
     2
 49
0.5
 62
   256
  6
BYLAYER
 49
-0.5
 62
   256
  6
BYLAYER
  0
ACDBPLACEHOLDER
  5
57
102
{ACAD_REACTORS
330
56
102
}
330
56
  0
TABLESTYLE
  5
146
102
{ACAD_REACTORS
330
145
102
}
330
145
100
AcDbTableStyle
  3
Standard
 70
     0
 71
     0
 40
0.06
 41
0.06
280
     0
281
     0
  7
STANDARD
140
0.18
170
     2
 62
     0
 63
     7
283
     0
274
    -2
284
     1
 64
     0
275
    -2
285
     1
 65
     0
276
    -2
286
     1
 66
     0
277
    -2
287
     1
 67
     0
278
    -2
288
     1
 68
     0
279
    -2
289
     1
 69
     0
  7
STANDARD
140
0.25
170
     5
 62
     0
 63
     7
283
     0
274
    -2
284
     1
 64
     0
275
    -2
285
     1
 65
     0
276
    -2
286
     1
 66
     0
277
    -2
287
     1
 67
     0
278
    -2
288
     1
 68
     0
279
    -2
289
     1
 69
     0
  7
STANDARD
140
0.18
170
     5
 62
     0
 63
     7
283
     0
274
    -2
284
     1
 64
     0
275
    -2
285
     1
 65
     0
276
    -2
286
     1
 66
     0
277
    -2
287
     1
 67
     0
278
    -2
288
     1
 68
     0
279
    -2
289
     1
 69
     0
  0
DICTIONARYVAR
  5
1D2
102
{ACAD_REACTORS
330
1D1
102
}
330
1D1
100
DictionaryVariables
280
     0
  1
STANDARD
  0
DICTIONARYVAR
  5
D03
102
{ACAD_REACTORS
330
1D1
102
}
330
1D1
100
DictionaryVariables
280
     0
  1
1
  0
DICTIONARYVAR
  5
D04
102
{ACAD_REACTORS
330
1D1
102
}
330
1D1
100
DictionaryVariables
280
     0
  1

  0
DICTIONARY
  5
427F
330
5A
100
AcDbDictionary
280
     1
281
     1
  3
ACAD_XREC_ROUNDTRIP
360
4280
  0
DICTIONARY
  5
4281
330
5B
100
AcDbDictionary
280
     1
281
     1
  3
ACAD_XREC_ROUNDTRIP
360
4282
  0
XRECORD
  5
4280
102
{ACAD_REACTORS
330
427F
102
}
330
427F
100
AcDbXrecord
280
     1
102
SHADEPLOT
 70
     0
102
SHADEPLOTRESLEVEL
 70
     2
102
SHADEPLOTCUSTOMDPI
 70
   300
  0
XRECORD
  5
4282
102
{ACAD_REACTORS
330
4281
102
}
330
4281
100
AcDbXrecord
280
     1
102
SHADEPLOT
 70
     0
102
SHADEPLOTRESLEVEL
 70
     2
102
SHADEPLOTCUSTOMDPI
 70
   300
  0
ENDSEC
  0
EOF
