  0
SECTION
  2
HEADER
  9
$ACADVER
  1
AC1015
  9
$ACADMAINTVER
 70
    20
  9
$DWGCODEPAGE
  3
ANSI_932
  9
$INSBASE
 10
922.019522
 20
-675.4306699999999
 30
0.0
  9
$EXTMIN
 10
-74.35830243146757
 20
-0.0007292373305745
 30
-0.0000000000112498
  9
$EXTMAX
 10
205.9396123241063
 20
225.3568965427676
 30
0.0000000000002956
  9
$LIMMIN
 10
0.0
 20
0.0
  9
$LIMMAX
 10
420.0
 20
297.0
  9
$ORTHOMODE
 70
     1
  9
$REGENMODE
 70
     1
  9
$FILLMODE
 70
     1
  9
$QTEXTMODE
 70
     0
  9
$MIRRTEXT
 70
     1
  9
$LTSCALE
 40
1.0
  9
$ATTMODE
 70
     1
  9
$TEXTSIZE
 40
30.0
  9
$TRACEWID
 40
0.05
  9
$TEXTSTYLE
  7
SUNPOU
  9
$CLAYER
  8
0
  9
$CELTYPE
  6
BYLAYER
  9
$CECOLOR
 62
   256
  9
$CELTSCALE
 40
1.0
  9
$DISPSILH
 70
     0
  9
$DIMSCALE
 40
1.0
  9
$DIMASZ
 40
2.0
  9
$DIMEXO
 40
10.0
  9
$DIMDLI
 40
0.38
  9
$DIMRND
 40
0.0
  9
$DIMDLE
 40
0.0
  9
$DIMEXE
 40
0.0
  9
$DIMTP
 40
0.0
  9
$DIMTM
 40
0.0
  9
$DIMTXT
 40
5.0
  9
$DIMCEN
 40
0.0
  9
$DIMTSZ
 40
0.0
  9
$DIMTOL
 70
     0
  9
$DIMLIM
 70
     0
  9
$DIMTIH
 70
     0
  9
$DIMTOH
 70
     0
  9
$DIMSE1
 70
     0
  9
$DIMSE2
 70
     0
  9
$DIMTAD
 70
     1
  9
$DIMZIN
 70
     0
  9
$DIMBLK
  1
Dot
  9
$DIMASO
 70
     1
  9
$DIMSHO
 70
     1
  9
$DIMPOST
  1

  9
$DIMAPOST
  1

  9
$DIMALT
 70
     0
  9
$DIMALTD
 70
     2
  9
$DIMALTF
 40
25.4
  9
$DIMLFAC
 40
1.0
  9
$DIMTOFL
 70
     0
  9
$DIMTVP
 40
0.0
  9
$DIMTIX
 70
     0
  9
$DIMSOXD
 70
     0
  9
$DIMSAH
 70
     0
  9
$DIMBLK1
  1

  9
$DIMBLK2
  1

  9
$DIMSTYLE
  2
STANDARD
  9
$DIMCLRD
 70
    60
  9
$DIMCLRE
 70
    70
  9
$DIMCLRT
 70
    60
  9
$DIMTFAC
 40
0.064286
  9
$DIMGAP
 40
3.0
  9
$DIMJUST
 70
     0
  9
$DIMSD1
 70
     0
  9
$DIMSD2
 70
     0
  9
$DIMTOLJ
 70
     1
  9
$DIMTZIN
 70
     0
  9
$DIMALTZ
 70
     0
  9
$DIMALTTZ
 70
     0
  9
$DIMUPT
 70
     0
  9
$DIMDEC
 70
     0
  9
$DIMTDEC
 70
     0
  9
$DIMALTU
 70
     2
  9
$DIMALTTD
 70
     2
  9
$DIMTXSTY
  7
SUNPOU
  9
$DIMAUNIT
 70
     0
  9
$DIMADEC
 70
     0
  9
$DIMALTRND
 40
0.0
  9
$DIMAZIN
 70
     0
  9
$DIMDSEP
 70
    46
  9
$DIMATFIT
 70
     3
  9
$DIMFRAC
 70
     0
  9
$DIMLDRBLK
  1

  9
$DIMLUNIT
 70
     2
  9
$DIMLWD
 70
    -2
  9
$DIMLWE
 70
    -2
  9
$DIMTMOVE
 70
     0
  9
$LUNITS
 70
     2
  9
$LUPREC
 70
     5
  9
$SKETCHINC
 40
0.1
  9
$FILLETRAD
 40
0.0
  9
$AUNITS
 70
     0
  9
$AUPREC
 70
     0
  9
$MENU
  1
acad
  9
$ELEVATION
 40
0.0
  9
$PELEVATION
 40
0.0
  9
$THICKNESS
 40
0.0
  9
$LIMCHECK
 70
     0
  9
$CHAMFERA
 40
0.0
  9
$CHAMFERB
 40
0.0
  9
$CHAMFERC
 40
0.0
  9
$CHAMFERD
 40
0.0
  9
$SKPOLY
 70
     0
  9
$TDCREATE
 40
2450623.654673033
  9
$TDUCREATE
 40
2450623.279673032
  9
$TDUPDATE
 40
2454585.408049861
  9
$TDUUPDATE
 40
2454585.033049861
  9
$TDINDWG
 40
0.6522212153
  9
$TDUSRTIMER
 40
0.6522210417
  9
$USRTIMER
 70
     1
  9
$ANGBASE
 50
0.0
  9
$ANGDIR
 70
     0
  9
$PDMODE
 70
     0
  9
$PDSIZE
 40
0.0
  9
$PLINEWID
 40
0.0
  9
$SPLFRAME
 70
     0
  9
$SPLINETYPE
 70
     6
  9
$SPLINESEGS
 70
     8
  9
$HANDSEED
  5
41E8
  9
$SURFTAB1
 70
     6
  9
$SURFTAB2
 70
     6
  9
$SURFTYPE
 70
     6
  9
$SURFU
 70
     6
  9
$SURFV
 70
     6
  9
$UCSBASE
  2

  9
$UCSNAME
  2

  9
$UCSORG
 10
0.0
 20
0.0
 30
0.0
  9
$UCSXDIR
 10
1.0
 20
0.0
 30
0.0
  9
$UCSYDIR
 10
0.0
 20
1.0
 30
0.0
  9
$UCSORTHOREF
  2

  9
$UCSORTHOVIEW
 70
     0
  9
$UCSORGTOP
 10
0.0
 20
0.0
 30
0.0
  9
$UCSORGBOTTOM
 10
0.0
 20
0.0
 30
0.0
  9
$UCSORGLEFT
 10
0.0
 20
0.0
 30
0.0
  9
$UCSORGRIGHT
 10
0.0
 20
0.0
 30
0.0
  9
$UCSORGFRONT
 10
0.0
 20
0.0
 30
0.0
  9
$UCSORGBACK
 10
0.0
 20
0.0
 30
0.0
  9
$PUCSBASE
  2

  9
$PUCSNAME
  2

  9
$PUCSORG
 10
0.0
 20
0.0
 30
0.0
  9
$PUCSXDIR
 10
1.0
 20
0.0
 30
0.0
  9
$PUCSYDIR
 10
0.0
 20
1.0
 30
0.0
  9
$PUCSORTHOREF
  2

  9
$PUCSORTHOVIEW
 70
     0
  9
$PUCSORGTOP
 10
0.0
 20
0.0
 30
0.0
  9
$PUCSORGBOTTOM
 10
0.0
 20
0.0
 30
0.0
  9
$PUCSORGLEFT
 10
0.0
 20
0.0
 30
0.0
  9
$PUCSORGRIGHT
 10
0.0
 20
0.0
 30
0.0
  9
$PUCSORGFRONT
 10
0.0
 20
0.0
 30
0.0
  9
$PUCSORGBACK
 10
0.0
 20
0.0
 30
0.0
  9
$USERI1
 70
     0
  9
$USERI2
 70
     0
  9
$USERI3
 70
     0
  9
$USERI4
 70
     0
  9
$USERI5
 70
     0
  9
$USERR1
 40
0.0
  9
$USERR2
 40
0.0
  9
$USERR3
 40
0.0
  9
$USERR4
 40
0.0
  9
$USERR5
 40
0.0
  9
$WORLDVIEW
 70
     1
  9
$SHADEDGE
 70
     3
  9
$SHADEDIF
 70
    70
  9
$TILEMODE
 70
     1
  9
$MAXACTVP
 70
    16
  9
$PINSBASE
 10
0.0
 20
0.0
 30
0.0
  9
$PLIMCHECK
 70
     0
  9
$PEXTMIN
 10
1.000000000000000E+20
 20
1.000000000000000E+20
 30
1.000000000000000E+20
  9
$PEXTMAX
 10
-1.000000000000000E+20
 20
-1.000000000000000E+20
 30
-1.000000000000000E+20
  9
$PLIMMIN
 10
0.0
 20
0.0
  9
$PLIMMAX
 10
12.0
 20
9.0
  9
$UNITMODE
 70
     0
  9
$VISRETAIN
 70
     0
  9
$PLINEGEN
 70
     0
  9
$PSLTSCALE
 70
     1
  9
$TREEDEPTH
 70
  3020
  9
$CMLSTYLE
  2
STANDARD
  9
$CMLJUST
 70
     0
  9
$CMLSCALE
 40
1.0
  9
$PROXYGRAPHICS
 70
     1
  9
$MEASUREMENT
 70
     0
  9
$CELWEIGHT
370
    -1
  9
$ENDCAPS
280
     0
  9
$JOINSTYLE
280
     0
  9
$LWDISPLAY
290
     0
  9
$INSUNITS
 70
     0
  9
$HYPERLINKBASE
  1

  9
$STYLESHEET
  1

  9
$XEDIT
290
     1
  9
$CEPSNTYPE
380
     0
  9
$PSTYLEMODE
290
     1
  9
$FINGERPRINTGUID
  2
{FB88A696-E29C-4009-92AF-A3599A8169D5}
  9
$VERSIONGUID
  2
{52B4C16C-F72D-4C0F-A4AC-91915CD5385C}
  9
$EXTNAMES
290
     1
  9
$PSVPSCALE
 40
0.0
  9
$OLESTARTUP
290
     0
  0
ENDSEC
  0
SECTION
  2
CLASSES
  0
CLASS
  1
DICTIONARYVAR
  2
AcDbDictionaryVar
  3
ObjectDBX Classes
 90
        0
280
     0
281
     0
  0
CLASS
  1
ACDBDICTIONARYWDFLT
  2
AcDbDictionaryWithDefault
  3
ObjectDBX Classes
 90
        0
280
     0
281
     0
  0
CLASS
  1
ACDBPLACEHOLDER
  2
AcDbPlaceHolder
  3
ObjectDBX Classes
 90
        0
280
     0
281
     0
  0
CLASS
  1
LAYOUT
  2
AcDbLayout
  3
ObjectDBX Classes
 90
        0
280
     0
281
     0
  0
CLASS
  1
TABLESTYLE
  2
AcDbTableStyle
  3
ObjectDBX Classes
 90
     2047
280
     0
281
     0
  0
CLASS
  1
SORTENTSTABLE
  2
AcDbSortentsTable
  3
ObjectDBX Classes
 90
        0
280
     0
281
     0
  0
ENDSEC
  0
SECTION
  2
TABLES
  0
TABLE
  2
VPORT
  5
12
330
0
100
AcDbSymbolTable
 70
     4
  0
VPORT
  5
41E2
330
12
100
AcDbSymbolTableRecord
100
AcDbViewportTableRecord
  2
*Active
 70
     0
 10
0.0
 20
0.0
 11
1.0
 21
1.0
 12
65.79065494631937
 22
112.6780836527185
 13
0.0
 23
0.0
 14
1.0
 24
1.0
 15
0.0
 25
0.0
 16
0.0
 26
0.0
 36
1.0
 17
0.0
 27
0.0
 37
0.0
 40
227.075727120226
 41
1.530534351145038
 42
50.0
 43
0.0
 44
0.0
 50
0.0
 51
0.0
 71
     0
 72
 20000
 73
     1
 74
     1
 75
     0
 76
     0
 77
     0
 78
     0
281
     0
 65
     1
110
0.0
120
0.0
130
0.0
111
1.0
121
0.0
131
0.0
112
0.0
122
1.0
132
0.0
 79
     0
146
0.0
  0
ENDTAB
  0
TABLE
  2
LTYPE
  5
D
330
0
100
AcDbSymbolTable
 70
     2
  0
LTYPE
  5
E
330
D
100
AcDbSymbolTableRecord
100
AcDbLinetypeTableRecord
  2
BYBLOCK
 70
     0
  3

 72
    65
 73
     0
 40
0.0
  0
LTYPE
  5
F
330
D
100
AcDbSymbolTableRecord
100
AcDbLinetypeTableRecord
  2
BYLAYER
 70
     0
  3

 72
    65
 73
     0
 40
0.0
  0
LTYPE
  5
5
330
D
100
AcDbSymbolTableRecord
100
AcDbLinetypeTableRecord
  2
CONTINUOUS
 70
     0
  3
Solid line
 72
    65
 73
     0
 40
0.0
  0
ENDTAB
  0
TABLE
  2
LAYER
  5
A
102
{ACAD_XDICTIONARY
360
1B4
102
}
330
0
100
AcDbSymbolTable
 70
     6
  0
LAYER
  5
4
330
A
100
AcDbSymbolTableRecord
100
AcDbLayerTableRecord
  2
0
 70
     0
 62
     7
  6
CONTINUOUS
370
    -3
390
57
  0
LAYER
  5
25
330
A
100
AcDbSymbolTableRecord
100
AcDbLayerTableRecord
  2
KIJUN
 70
     0
 62
     7
  6
CONTINUOUS
370
    -3
390
57
  0
LAYER
  5
22
330
A
100
AcDbSymbolTableRecord
100
AcDbLayerTableRecord
  2
HOJO
 70
     0
 62
     3
  6
CONTINUOUS
370
    -3
390
57
  0
LAYER
  5
1B
330
A
100
AcDbSymbolTableRecord
100
AcDbLayerTableRecord
  2
WAKU
 70
     0
 62
     1
  6
CONTINUOUS
370
    -3
390
57
  0
LAYER
  5
31
330
A
100
AcDbSymbolTableRecord
100
AcDbLayerTableRecord
  2
DEFPOINTS
 70
     0
 62
     7
  6
CONTINUOUS
290
     0
370
    -3
390
57
  0
LAYER
  5
28
330
A
100
AcDbSymbolTableRecord
100
AcDbLayerTableRecord
  2
SUNPOU
 70
     0
 62
    70
  6
CONTINUOUS
370
    -3
390
57
  0
ENDTAB
  0
TABLE
  2
STYLE
  5
B
330
0
100
AcDbSymbolTable
 70
     3
  0
STYLE
  5
C
330
B
100
AcDbSymbolTableRecord
100
AcDbTextStyleTableRecord
  2
STANDARD
 70
     0
 40
0.0
 41
1.0
 50
0.0
 71
     0
 42
0.2
  3
txt
  4

  0
STYLE
  5
1C
330
B
100
AcDbSymbolTableRecord
100
AcDbTextStyleTableRecord
  2
SUNPOU
 70
     0
 40
0.0
 41
1.0
 50
0.0
 71
     0
 42
30.0
  3
txt
  4
bigfont
  0
ENDTAB
  0
TABLE
  2
VIEW
  5
10
330
0
100
AcDbSymbolTable
 70
     0
  0
ENDTAB
  0
TABLE
  2
UCS
  5
11
330
0
100
AcDbSymbolTable
 70
     0
  0
ENDTAB
  0
TABLE
  2
APPID
  5
14
330
0
100
AcDbSymbolTable
 70
    10
  0
APPID
  5
15
330
14
100
AcDbSymbolTableRecord
100
AcDbRegAppTableRecord
  2
ACAD
 70
     0
  0
APPID
  5
1D3
330
14
100
AcDbSymbolTableRecord
100
AcDbRegAppTableRecord
  2
ACAD_DSTYLE_DIMTEXT_FILL
 70
     0
  0
APPID
  5
1D4
330
14
100
AcDbSymbolTableRecord
100
AcDbRegAppTableRecord
  2
ACAD_DSTYLE_DIMEXT_LENGTH
 70
     0
  0
APPID
  5
1D5
330
14
100
AcDbSymbolTableRecord
100
AcDbRegAppTableRecord
  2
ACAD_DSTYLE_DIMEXT_ENABLED
 70
     0
  0
APPID
  5
1D6
330
14
100
AcDbSymbolTableRecord
100
AcDbRegAppTableRecord
  2
ACAD_DSTYLE_DIM_LINETYPE
 70
     0
  0
APPID
  5
1D7
330
14
100
AcDbSymbolTableRecord
100
AcDbRegAppTableRecord
  2
ACAD_DSTYLE_DIM_EXT1_LINETYPE
 70
     0
  0
APPID
  5
1D8
330
14
100
AcDbSymbolTableRecord
100
AcDbRegAppTableRecord
  2
ACAD_DSTYLE_DIM_EXT2_LINETYPE
 70
     0
  0
APPID
  5
294
330
14
100
AcDbSymbolTableRecord
100
AcDbRegAppTableRecord
  2
ACAD_DSTYLE_DIMJOGGED_JOGANGLE_SYMBOL
 70
     0
  0
APPID
  5
478
330
14
100
AcDbSymbolTableRecord
100
AcDbRegAppTableRecord
  2
ACAD_DSTYLE_DIMARC_LENGTH_SYMBOL
 70
     0
  0
APPID
  5
F55
330
14
100
AcDbSymbolTableRecord
100
AcDbRegAppTableRecord
  2
ACAD_EXEMPT_FROM_CAD_STANDARDS
 70
     0
  0
ENDTAB
  0
TABLE
  2
DIMSTYLE
  5
16
330
0
100
AcDbSymbolTable
 70
     3
100
AcDbDimStyleTable
 71
     1
340
1E
  0
DIMSTYLE
105
1E
102
{ACAD_REACTORS
330
4125
330
4132
102
}
330
16
100
AcDbSymbolTableRecord
100
AcDbDimStyleTableRecord
  2
STANDARD
 70
     0
340
C
  0
ENDTAB
  0
TABLE
  2
BLOCK_RECORD
  5
1
330
0
100
AcDbSymbolTable
 70
     9
  0
BLOCK_RECORD
  5
2
102
{ACAD_XDICTIONARY
360
D13
102
}
330
1
100
AcDbSymbolTableRecord
100
AcDbBlockTableRecord
  2
*MODEL_SPACE
340
5A
  0
BLOCK_RECORD
  5
7
330
1
100
AcDbSymbolTableRecord
100
AcDbBlockTableRecord
  2
*PAPER_SPACE
340
5B
  0
BLOCK_RECORD
  5
109
330
1
100
AcDbSymbolTableRecord
100
AcDbBlockTableRecord
  2
_Dot
340
0
102
{BLKREFS
331
3E4D
331
3E4E
331
3E56
331
3E57
331
40F8
331
40F9
331
4101
331
4102
331
41CD
331
41CE
331
41D6
331
41D7
102
}
  0
BLOCK_RECORD
  5
4126
330
1
100
AcDbSymbolTableRecord
100
AcDbBlockTableRecord
  2
*D7
340
0
  0
BLOCK_RECORD
  5
4133
330
1
100
AcDbSymbolTableRecord
100
AcDbBlockTableRecord
  2
*D8
340
0
  0
ENDTAB
  0
ENDSEC
  0
SECTION
  2
BLOCKS
  0
BLOCK
  5
3
330
2
100
AcDbEntity
  8
0
100
AcDbBlockBegin
  2
*MODEL_SPACE
 70
     0
 10
0.0
 20
0.0
 30
0.0
  3
*MODEL_SPACE
  1

  0
ENDBLK
  5
6
330
2
100
AcDbEntity
  8
0
100
AcDbBlockEnd
  0
BLOCK
  5
8
330
7
100
AcDbEntity
 67
     1
  8
0
100
AcDbBlockBegin
  2
*PAPER_SPACE
 70
     0
 10
0.0
 20
0.0
 30
0.0
  3
*PAPER_SPACE
  1

  0
ENDBLK
  5
9
330
7
100
AcDbEntity
 67
     1
  8
0
100
AcDbBlockEnd
  0
BLOCK
  5
10C
330
109
100
AcDbEntity
  8
0
100
AcDbBlockBegin
  2
_Dot
 70
     0
 10
0.0
 20
0.0
 30
0.0
  3
_Dot
  1

  0
LWPOLYLINE
  5
10A
330
109
100
AcDbEntity
  8
0
  6
ByBlock
 62
     0
100
AcDbPolyline
 90
        2
 70
     1
 43
0.5
 10
-0.25
 20
0.0
 42
1.0
 10
0.25
 20
0.0
 42
1.0
  0
LINE
  5
10B
330
109
100
AcDbEntity
  8
0
  6
ByBlock
 62
     0
370
    -2
100
AcDbLine
 10
-0.5
 20
0.0
 30
0.0
 11
-1.0
 21
0.0
 31
0.0
  0
ENDBLK
  5
10D
330
109
100
AcDbEntity
  8
0
100
AcDbBlockEnd
  0
BLOCK
  5
4130
330
4126
100
AcDbEntity
  8
0
100
AcDbBlockBegin
  2
*D7
 70
     1
 10
0.0
 20
0.0
 30
0.0
  3
*D7
  1

  0
LINE
  5
41CA
330
4126
100
AcDbEntity
  8
SUNPOU
 62
    70
370
    -2
100
AcDbLine
 10
204.9113532254835
 20
64.45559581599394
 30
0.0
 11
204.9113532254835
 21
217.3535745515873
 31
0.0
  0
LINE
  5
41CB
330
4126
100
AcDbEntity
  8
SUNPOU
 62
    70
370
    -2
100
AcDbLine
 10
-35.08864677451644
 20
64.45559581599394
 30
0.0
 11
-35.08864677451643
 21
217.3535745515873
 31
0.0
  0
LINE
  5
41CC
330
4126
100
AcDbEntity
  8
SUNPOU
 62
    60
370
    -2
100
AcDbLine
 10
202.9113532254835
 20
217.3535745515873
 30
0.0
 11
-33.08864677451643
 21
217.3535745515873
 31
0.0
  0
INSERT
  5
41CD
330
4126
100
AcDbEntity
  8
SUNPOU
 62
    60
370
    -2
100
AcDbBlockReference
  2
_Dot
 10
204.9113532254835
 20
217.3535745515873
 30
0.0
 41
2.0
 42
2.0
 43
2.0
  0
INSERT
  5
41CE
330
4126
100
AcDbEntity
  8
SUNPOU
 62
    60
370
    -2
100
AcDbBlockReference
  2
_Dot
 10
-35.08864677451643
 20
217.3535745515873
 30
0.0
 41
2.0
 42
2.0
 43
2.0
 50
180.0
  0
MTEXT
  5
41CF
330
4126
100
AcDbEntity
  8
SUNPOU
 62
    60
100
AcDbMText
 10
84.91135322548357
 20
222.8535745515873
 30
0.0
 40
5.0
 41
0.0
 71
     5
 72
     1
  1
\A1;240
  7
SUNPOU
 73
     1
 44
1.0
1001
ACAD
1000
MTEXTBEGIN
1070
    73
1070
     1
1070
    44
1040
1.0
1070
    74
1070
     0
1000
MTEXTEND
  0
POINT
  5
41D0
330
4126
100
AcDbEntity
  8
DEFPOINTS
 62
     0
100
AcDbPoint
 10
204.9113532254835
 20
54.45559581599394
 30
0.0
  0
POINT
  5
41D1
330
4126
100
AcDbEntity
  8
DEFPOINTS
 62
     0
100
AcDbPoint
 10
-35.08864677451644
 20
54.45559581599394
 30
0.0
  0
POINT
  5
41D2
330
4126
100
AcDbEntity
  8
DEFPOINTS
 62
     0
100
AcDbPoint
 10
-35.08864677451643
 20
217.3535745515873
 30
0.0
  0
ENDBLK
  5
4131
330
4126
100
AcDbEntity
  8
0
100
AcDbBlockEnd
  0
BLOCK
  5
413D
330
4133
100
AcDbEntity
  8
0
100
AcDbBlockBegin
  2
*D8
 70
     1
 10
0.0
 20
0.0
 30
0.0
  3
*D8
  1

  0
LINE
  5
41D3
330
4133
100
AcDbEntity
  8
SUNPOU
 62
    70
370
    -2
100
AcDbLine
 10
74.91135322548474
 20
182.9958521826699
 30
0.0
 11
-66.35687616565142
 21
182.99585218267
 31
0.0
  0
LINE
  5
41D4
330
4133
100
AcDbEntity
  8
SUNPOU
 62
    70
370
    -2
100
AcDbLine
 10
-35.63621477557256
 20
35.99585218266996
 30
0.0
 11
-66.35687616565144
 21
35.99585218266997
 31
0.0
  0
LINE
  5
41D5
330
4133
100
AcDbEntity
  8
SUNPOU
 62
    60
370
    -2
100
AcDbLine
 10
-66.35687616565141
 20
180.99585218267
 30
0.0
 11
-66.35687616565144
 21
37.99585218266996
 31
0.0
  0
INSERT
  5
41D6
330
4133
100
AcDbEntity
  8
SUNPOU
 62
    60
370
    -2
100
AcDbBlockReference
  2
_Dot
 10
-66.35687616565141
 20
182.99585218267
 30
0.0
 41
2.0
 42
2.0
 43
2.0
 50
90.0
  0
INSERT
  5
41D7
330
4133
100
AcDbEntity
  8
SUNPOU
 62
    60
370
    -2
100
AcDbBlockReference
  2
_Dot
 10
-66.35687616565144
 20
35.99585218266997
 30
0.0
 41
2.0
 42
2.0
 43
2.0
 50
270.0
  0
MTEXT
  5
41D8
330
4133
100
AcDbEntity
  8
SUNPOU
 62
    60
100
AcDbMText
 10
-71.85687616565146
 20
109.4958521826699
 30
0.0
 40
5.0
 41
0.0
 71
     5
 72
     1
  1
\A1;147
  7
SUNPOU
 11
0.0000000000000001
 21
1.0
 31
0.0
 73
     1
 44
1.0
1001
ACAD
1000
MTEXTBEGIN
1070
    73
1070
     1
1070
    44
1040
1.0
1070
    74
1070
     0
1000
MTEXTEND
  0
POINT
  5
41D9
330
4133
100
AcDbEntity
  8
DEFPOINTS
 62
     0
100
AcDbPoint
 10
84.91135322548474
 20
182.9958521826699
 30
0.0
  0
POINT
  5
41DA
330
4133
100
AcDbEntity
  8
DEFPOINTS
 62
     0
100
AcDbPoint
 10
-25.63621477557257
 20
35.99585218266996
 30
0.0
  0
POINT
  5
41DB
330
4133
100
AcDbEntity
  8
DEFPOINTS
 62
     0
100
AcDbPoint
 10
-66.35687616565144
 20
35.99585218266997
 30
0.0
  0
ENDBLK
  5
413E
330
4133
100
AcDbEntity
  8
0
100
AcDbBlockEnd
  0
ENDSEC
  0
SECTION
  2
ENTITIES
  0
LINE
  5
1F
330
2
100
AcDbEntity
  8
WAKU
100
AcDbLine
 10
0.0
 20
14.0
 30
0.0
 11
148.6829221395387
 21
14.0
 31
0.0
  0
LINE
  5
20
330
2
100
AcDbEntity
  8
WAKU
100
AcDbLine
 10
0.0
 20
0.0
 30
0.0
 11
148.6829221395387
 21
0.0
 31
0.0
  0
TEXT
  5
21
330
2
100
AcDbEntity
  8
HOJO
100
AcDbText
 10
9.653966000000025
 20
2.366626000000024
 30
0.0
 40
9.0
  1
TC157
  7
SUNPOU
100
AcDbText
  0
TEXT
  5
23
330
2
100
AcDbEntity
  8
HOJO
100
AcDbText
 10
85.84696046283864
 20
5.044386000000031
 30
0.0
 40
6.0
  1
240×147×13
  7
SUNPOU
100
AcDbText
  0
SPLINE
  5
3EC9
330
2
100
AcDbEntity
  8
KIJUN
100
AcDbSpline
210
0.0
220
0.0
230
1.0
 70
     8
 71
     3
 72
    10
 73
     6
 74
     4
 42
0.0000000001
 43
0.0000000001
 44
0.0000000001
 40
0.0
 40
0.0
 40
0.0
 40
0.0
 40
6.158182971507517
 40
18.2849171921507
 40
30.14456434179406
 40
30.14456434179406
 40
30.14456434179406
 40
30.14456434179406
 10
8.643580365847407
 20
98.40622876052881
 30
0.0
 10
10.66751989737354
 20
98.69147725744676
 30
0.0
 10
16.67701440364287
 20
99.53843896181036
 30
0.0
 10
23.44568002419002
 20
107.9568811440489
 30
0.0
 10
26.06076067590916
 20
115.2184173121046
 30
0.0
 10
27.35374161031836
 20
118.808756988109
 30
0.0
 11
8.643580365847407
 21
98.40622876052881
 31
0.0
 11
14.4994557222552
 21
99.74511378668939
 31
0.0
 11
22.79743303885371
 21
108.1753424570649
 31
0.0
 11
27.35374161031836
 21
118.808756988109
 31
0.0
  0
SPLINE
  5
3ECA
330
2
100
AcDbEntity
  8
KIJUN
100
AcDbSpline
210
0.0
220
0.0
230
1.0
 70
     8
 71
     3
 72
    13
 73
     9
 74
     7
 42
0.0000000001
 43
0.0000000001
 44
0.0000000001
 40
0.0
 40
0.0
 40
0.0
 40
0.0
 40
7.202478135738387
 40
15.98034490096941
 40
28.85513139433449
 40
40.45276901842808
 40
53.36818653328651
 40
58.91362781667013
 40
58.91362781667013
 40
58.91362781667013
 40
58.91362781667013
 10
11.60034625962861
 20
85.7177852472075
 30
0.0
 10
14.02500602046668
 20
86.45121691020017
 30
0.0
 10
19.40466820276945
 20
88.07850278528778
 30
0.0
 10
20.70008694304301
 20
98.60975655471447
 30
0.0
 10
25.96588542596697
 20
107.7559826662055
 30
0.0
 10
26.19497364385282
 20
120.8931388337481
 30
0.0
 10
34.7862079420451
 20
127.114684202547
 30
0.0
 10
39.39049132605272
 20
130.8780929804089
 30
0.0
 10
40.77356799854775
 20
132.0085800628945
 30
0.0
 11
11.60034625962861
 21
85.7177852472075
 31
0.0
 11
17.92724598494893
 21
88.77228828137011
 31
0.0
 11
20.91995963724182
 21
96.79460298103249
 31
0.0
 11
25.13696402307531
 21
108.6241172190481
 31
0.0
 11
27.72158076418784
 21
119.637802689516
 31
0.0
 11
36.56368772002288
 21
128.611917480297
 31
0.0
 11
40.77356799854775
 21
132.0085800628945
 31
0.0
  0
SPLINE
  5
3ECB
330
2
100
AcDbEntity
  8
KIJUN
100
AcDbSpline
210
0.0
220
0.0
230
1.0
 70
     8
 71
     3
 72
    10
 73
     6
 74
     4
 42
0.0000000001
 43
0.0000000001
 44
0.0000000001
 40
0.0
 40
0.0
 40
0.0
 40
0.0
 40
8.453907637330763
 40
21.412530681481
 40
46.72137722486843
 40
46.72137722486843
 40
46.72137722486843
 40
46.72137722486843
 10
18.64948154480704
 20
65.98020644870792
 30
0.0
 10
18.63790241634556
 20
68.73619208170679
 30
0.0
 10
18.60857415134874
 20
75.71670682777775
 30
0.0
 10
22.25028914424111
 20
90.60053266367685
 30
0.0
 10
26.77173254589549
 20
102.1857668621108
 30
0.0
 10
29.76206659307662
 20
109.8478599573087
 30
0.0
 11
18.64948154480704
 21
65.98020644870792
 31
0.0
 11
18.87947380835281
 21
74.22334509356954
 31
0.0
 11
21.46408927647788
 21
86.59674545199079
 31
0.0
 11
29.76206659307662
 21
109.8478599573087
 31
0.0
  0
SPLINE
  5
3ECC
330
2
100
AcDbEntity
  8
KIJUN
100
AcDbSpline
210
0.0
220
0.0
230
1.0
 70
     8
 71
     3
 72
     9
 73
     5
 74
     3
 42
0.0000000001
 43
0.0000000001
 44
0.0000000001
 40
0.0
 40
0.0
 40
0.0
 40
0.0
 40
8.271838852480543
 40
26.86359709860418
 40
26.86359709860418
 40
26.86359709860418
 40
26.86359709860418
 10
39.79688740034189
 20
85.7177852472075
 30
0.0
 10
38.11335903564511
 20
87.89193861849978
 30
0.0
 10
32.64593776453028
 20
94.95271207390294
 30
0.0
 10
33.43380430474908
 20
104.1573627635812
 30
0.0
 10
33.97907097891011
 20
110.5277174012856
 30
0.0
 11
39.79688740034189
 21
85.7177852472075
 31
0.0
 11
35.33939571349459
 21
92.44351649615232
 31
0.0
 11
33.97907097891011
 21
110.5277174012856
 31
0.0
  0
SPLINE
  5
3ECD
330
2
100
AcDbEntity
  8
KIJUN
100
AcDbSpline
210
0.0
220
0.0
230
1.0
 70
     8
 71
     3
 72
     9
 73
     5
 74
     3
 42
0.0000000001
 43
0.0000000001
 44
0.0000000001
 40
0.0
 40
0.0
 40
0.0
 40
0.0
 40
9.764996952144468
 40
30.83609142751373
 40
30.83609142751373
 40
30.83609142751373
 40
30.83609142751373
 10
42.61654151462708
 20
91.35709347519059
 30
0.0
 10
41.14313142300132
 20
94.21439565344146
 30
0.0
 10
36.49036926462551
 20
103.2372383267542
 30
0.0
 10
37.26123044974368
 20
113.5456202487585
 30
0.0
 10
37.78797972655141
 20
120.5896027806347
 30
0.0
 11
42.61654151462708
 21
91.35709347519059
 31
0.0
 11
38.7402062769676
 21
100.0579172251017
 31
0.0
 11
37.78797972655141
 21
120.5896027806347
 31
0.0
  0
SPLINE
  5
3ECF
330
2
100
AcDbEntity
  8
KIJUN
100
AcDbSpline
210
0.0
220
0.0
230
1.0
 70
     8
 71
     3
 72
    18
 73
    14
 74
    12
 42
0.0000000001
 43
0.0000000001
 44
0.0000000001
 40
0.0
 40
0.0
 40
0.0
 40
0.0
 40
5.402127009239469
 40
16.29616228851427
 40
20.89170377540899
 40
31.70447582081838
 40
38.44506528943202
 40
45.41783706303347
 40
54.47123225876656
 40
63.04393277137802
 40
68.99630593126883
 40
75.06990664196099
 40
79.35593074017116
 40
79.35593074017116
 40
79.35593074017116
 40
79.35593074017116
 10
65.17377442698469
 20
99.81605581756381
 30
0.0
 10
63.38642849405109
 20
99.81584548303956
 30
0.0
 10
57.994685697374
 20
99.81521098378841
 30
0.0
 10
52.39744492163394
 20
105.1957453983312
 30
0.0
 10
49.2225429822021
 20
113.1818985415289
 30
0.0
 10
51.60297103117212
 20
121.236027041464
 30
0.0
 10
58.23284155986177
 20
125.8002587169684
 30
0.0
 10
66.1777155393507
 20
127.7086654052916
 30
0.0
 10
72.37241336055696
 20
120.7960530292975
 30
0.0
 10
73.67154181918696
 20
112.6705564606415
 30
0.0
 10
69.087123092469
 20
106.6995676475726
 30
0.0
 10
61.98309692052123
 20
107.6772979802643
 30
0.0
 10
61.70457104629536
 20
111.3550310546177
 30
0.0
 10
61.58933824289487
 20
112.8765970258022
 30
0.0
 11
65.17377442698469
 21
99.81605581756381
 31
0.0
 11
59.92445377068944
 21
100.276701437601
 31
0.0
 11
51.83787641307802
 21
107.1709836954504
 31
0.0
 11
50.28576336649082
 21
111.3764142354202
 31
0.0
 11
53.12526914201187
 21
121.5343007059551
 31
0.0
 11
58.4306626510533
 21
125.4181981825284
 31
0.0
 11
65.15694582578288
 21
126.4274285821227
 31
0.0
 11
71.57863998417706
 21
120.365214160461
 31
0.0
 11
72.41108094729196
 21
112.0445283634933
 31
0.0
 11
68.48671222421856
 21
107.7653185722598
 31
0.0
 11
62.65962039046257
 21
108.8351210200682
 31
0.0
 11
61.58933824289487
 21
112.8765970258022
 31
0.0
  0
SPLINE
  5
3ED0
330
2
100
AcDbEntity
  8
KIJUN
100
AcDbSpline
210
0.0
220
0.0
230
1.0
 70
     8
 71
     3
 72
    13
 73
     9
 74
     7
 42
0.0000000001
 43
0.0000000001
 44
0.0000000001
 40
0.0
 40
0.0
 40
0.0
 40
0.0
 40
2.603917356013044
 40
5.552613651452681
 40
11.26115029252062
 40
18.31662136203412
 40
23.66677983621645
 40
29.50978018689035
 40
29.50978018689035
 40
29.50978018689035
 40
29.50978018689035
 10
84.9113532254843
 20
118.1438075590283
 30
0.0
 10
84.04239575219293
 20
118.1470118030257
 30
0.0
 10
82.18942406797742
 20
118.153844557883
 30
0.0
 10
79.19884827572855
 20
115.4274099209191
 30
0.0
 10
79.186840249229
 20
109.9958434044582
 30
0.0
 10
75.40377188947527
 20
105.0059010749295
 30
0.0
 10
70.2997273325912
 20
101.9316812759777
 30
0.0
 10
66.93185524299554
 20
100.5416653970498
 30
0.0
 10
65.1737744269856
 20
99.81605581756436
 30
0.0
 11
84.9113532254843
 21
118.1438075590283
 31
0.0
 11
82.38769482115243
 21
117.8562735119337
 31
0.0
 11
80.19771823928758
 21
115.9915745609717
 31
0.0
 11
78.65662290038966
 21
110.6406977658979
 31
0.0
 11
74.76333162362514
 21
104.9655261835396
 31
0.0
 11
70.38337845989497
 21
102.1279403923606
 31
0.0
 11
65.1737744269856
 21
99.81605581756436
 31
0.0
  0
ARC
  5
3ED1
330
2
100
AcDbEntity
  8
KIJUN
100
AcDbCircle
 10
70.81308265512766
 20
103.8369921387486
 30
0.0
 40
6.926018061701384
100
AcDbArc
 50
215.4896072141833
 51
324.5103927858046
  0
SPLINE
  5
3ED2
330
2
100
AcDbEntity
  8
KIJUN
100
AcDbSpline
210
0.0
220
0.0
230
1.0
 70
     8
 71
     3
 72
    10
 73
     6
 74
     4
 42
0.0000000001
 43
0.0000000001
 44
0.0000000001
 40
0.0
 40
0.0
 40
0.0
 40
0.0
 40
5.924533390422693
 40
17.58124834742944
 40
34.49769423476232
 40
34.49769423476232
 40
34.49769423476232
 40
34.49769423476232
 10
0.3217298033433489
 20
50.47210882131523
 30
0.0
 10
1.09895114028972
 20
52.28589193701361
 30
0.0
 10
3.405381106211538
 20
57.66835318822663
 30
0.0
 10
15.17700931171196
 20
62.02537939986858
 30
0.0
 10
17.74490303643169
 20
71.59388664272661
 30
0.0
 10
19.26519809497606
 20
77.2588229050522
 30
0.0
 11
0.3217298033433489
 21
50.47210882131523
 31
0.0
 11
3.072733298294874
 21
55.55439892900357
 31
0.0
 11
12.18690443725409
 21
62.35297006428395
 31
0.0
 11
19.26519809497606
 21
77.2588229050522
 31
0.0
  0
SPLINE
  5
3ED3
330
2
100
AcDbEntity
  8
KIJUN
100
AcDbSpline
210
0.0
220
0.0
230
1.0
 70
     8
 71
     3
 72
    10
 73
     6
 74
     4
 42
0.0000000001
 43
0.0000000001
 44
0.0000000001
 40
0.0
 40
0.0
 40
0.0
 40
0.0
 40
6.132298287073343
 40
21.9661016164514
 40
36.56106710953961
 40
36.56106710953961
 40
36.56106710953961
 40
36.56106710953961
 10
-2.497924310728028
 20
61.75072527760072
 30
0.0
 10
-0.4656108936014971
 20
62.01999322359156
 30
0.0
 10
6.814205081949245
 20
62.98452018995842
 30
0.0
 10
13.50180179353787
 20
74.71915138873547
 30
0.0
 10
17.39381186349883
 20
83.54592267433808
 30
0.0
 10
19.26058974732476
 20
87.77962739898136
 30
0.0
 11
-2.497924310728028
 21
61.75072527760072
 31
0.0
 11
3.344797481419055
 21
63.03282750826051
 31
0.0
 11
13.27516371572668
 21
74.86234174627604
 31
0.0
 11
19.26058974732476
 21
87.77962739898136
 31
0.0
  0
SPLINE
  5
3ED5
330
2
100
AcDbEntity
  8
KIJUN
100
AcDbSpline
210
0.0
220
0.0
230
1.0
 70
     8
 71
     3
 72
    10
 73
     6
 74
     4
 42
0.0000000001
 43
0.0000000001
 44
0.0000000001
 40
0.0
 40
0.0
 40
0.0
 40
0.0
 40
6.006366099280018
 40
11.26130344962855
 40
17.57764295826997
 40
17.57764295826997
 40
17.57764295826997
 40
17.57764295826997
 10
-20.29716271557901
 20
61.92445922603763
 30
0.0
 10
-22.3091497371838
 20
61.4706425880809
 30
0.0
 10
-26.08141336755459
 20
60.61978421780382
 30
0.0
 10
-28.51474620604829
 20
54.37268268020384
 30
0.0
 10
-26.43218377161185
 20
51.02440784498281
 30
0.0
 10
-25.29538862409764
 20
49.1967062969842
 30
0.0
 11
-20.29716271557901
 21
61.92445922603763
 31
0.0
 11
-25.70348553527775
 21
59.66650647316773
 31
0.0
 11
-27.60793990909828
 21
54.90750601757433
 31
0.0
 11
-25.29538862409764
 21
49.1967062969842
 31
0.0
  0
SPLINE
  5
3ED6
330
2
100
AcDbEntity
  8
KIJUN
100
AcDbSpline
210
0.0
220
0.0
230
1.0
 70
     8
 71
     3
 72
    11
 73
     7
 74
     5
 42
0.0000000001
 43
0.0000000001
 44
0.0000000001
 40
0.0
 40
0.0
 40
0.0
 40
0.0
 40
6.699823155892873
 40
12.36127405253344
 40
23.20833585581482
 40
30.5897974385037
 40
30.5897974385037
 40
30.5897974385037
 40
30.5897974385037
 10
-20.29716271557901
 20
61.9244592260374
 30
0.0
 10
-21.31168363611987
 20
59.79522539794995
 30
0.0
 10
-23.18348992697752
 20
55.86675709983319
 30
0.0
 10
-17.45523490923648
 20
48.81447384057321
 30
0.0
 10
-8.588723909388772
 20
51.96550633089192
 30
0.0
 10
-3.847620346370154
 20
55.24344535557652
 30
0.0
 10
-1.927757005332533
 20
56.5708145817492
 30
0.0
 11
-20.29716271557901
 21
61.9244592260374
 31
0.0
 11
-21.89457806062462
 21
55.58736346155088
 31
0.0
 11
-18.49376749715138
 21
51.23627780279218
 31
0.0
 11
-8.019271623607693
 21
52.73196318819498
 31
0.0
 11
-1.927757005332533
 21
56.5708145817492
 31
0.0
  0
ARC
  5
3EDC
330
2
100
AcDbEntity
  8
KIJUN
100
AcDbCircle
 10
-22.00118287163622
 20
39.79145082681025
 30
0.0
 40
5.255475811954109
100
AcDbArc
 50
154.5951486787773
 51
226.2378983145224
  0
ARC
  5
3EDD
330
2
100
AcDbEntity
  8
KIJUN
100
AcDbCircle
 10
39.94994964218633
 20
89.16582176887478
 30
0.0
 40
3.451432152691123
100
AcDbArc
 50
267.4582442255745
 51
39.41165342027288
  0
ARC
  5
3EE9
330
2
100
AcDbEntity
  8
KIJUN
100
AcDbCircle
 10
84.91135322548419
 20
101.3668655803036
 30
0.0
 40
8.599945047917692
100
AcDbArc
 50
190.388857815472
 51
349.6111421845279
  0
SPLINE
  5
3EF2
330
2
100
AcDbEntity
  8
KIJUN
100
AcDbSpline
210
0.0
220
0.0
230
1.0
 70
     8
 71
     3
 72
    11
 73
     7
 74
     5
 42
0.0000000001
 43
0.0000000001
 44
0.0000000001
 40
0.0
 40
0.0
 40
0.0
 40
0.0
 40
7.243340851431683
 40
21.05490122305726
 40
29.55385263425607
 40
40.15275624859643
 40
40.15275624859643
 40
40.15275624859643
 40
40.15275624859643
 10
71.25999299617049
 20
120.991550600079
 30
0.0
 10
70.53538871625176
 20
123.3104318636921
 30
0.0
 10
68.42911319333777
 20
130.0509424864559
 30
0.0
 10
55.6650167915322
 20
132.8703991042926
 30
0.0
 10
47.97012434668075
 20
123.425308636194
 30
0.0
 10
49.37034051762275
 20
117.0601088942474
 30
0.0
 10
50.14743073090631
 20
113.5275583297627
 30
0.0
 11
71.25999299617049
 21
120.991550600079
 31
0.0
 11
68.25924079676579
 21
127.3881747420364
 31
0.0
 11
55.06409672704157
 21
130.1076028656998
 31
0.0
 11
49.62279906169163
 21
123.8529170247038
 31
0.0
 11
50.14743073090631
 21
113.5275583297627
 31
0.0
  0
SPLINE
  5
3EF3
330
2
100
AcDbEntity
  8
KIJUN
100
AcDbSpline
210
0.0
220
0.0
230
1.0
 70
     8
 71
     3
 72
    12
 73
     8
 74
     6
 42
0.0000000001
 43
0.0000000001
 44
0.0000000001
 40
0.0
 40
0.0
 40
0.0
 40
0.0
 40
7.280566899538879
 40
24.22566004824002
 40
33.96696170261168
 40
39.94501618015219
 40
46.35631288913764
 40
46.35631288913764
 40
46.35631288913764
 40
46.35631288913764
 10
76.45239088326973
 20
128.8531355351749
 30
0.0
 10
74.81579310798142
 20
130.5914631262401
 30
0.0
 10
69.37010984087876
 20
136.3756463986017
 30
0.0
 10
57.29634752517433
 20
138.6883764666571
 30
0.0
 10
47.10984211604153
 20
136.2341486989127
 30
0.0
 10
42.27058760015049
 20
126.7966479958691
 30
0.0
 10
40.64045545385797
 20
132.2432172789417
 30
0.0
 10
39.79688740034257
 20
135.0617322434542
 30
0.0
 11
76.45239088326973
 21
128.8531355351749
 31
0.0
 11
71.25669505488552
 21
133.694674918134
 31
0.0
 11
55.20487006092366
 21
137.6378457800583
 31
0.0
 11
46.49879456015734
 21
133.8306462417051
 31
0.0
 11
42.61654151441372
 21
129.4795605829462
 31
0.0
 11
39.79688740034257
 21
135.0617322434542
 31
0.0
  0
SPLINE
  5
3EF4
330
2
100
AcDbEntity
  8
KIJUN
100
AcDbSpline
210
0.0
220
0.0
230
1.0
 70
     8
 71
     3
 72
    12
 73
     8
 74
     6
 42
0.0000000001
 43
0.0000000001
 44
0.0000000001
 40
0.0
 40
0.0
 40
0.0
 40
0.0
 40
5.215804286378649
 40
10.2437257855948
 40
15.85831232061034
 40
24.56403544530307
 40
32.1204852196521
 40
32.1204852196521
 40
32.1204852196521
 40
32.1204852196521
 10
56.71481208477057
 20
154.7993110419562
 30
0.0
 10
56.5094080405097
 20
152.8225530773851
 30
0.0
 10
56.10599898044288
 20
148.9402435769235
 30
0.0
 10
62.32915947034816
 20
148.1267027293483
 30
0.0
 10
68.06079671353433
 20
146.7337596300323
 30
0.0
 10
74.84588078859643
 20
143.0880055128604
 30
0.0
 10
77.03917129941231
 20
138.1600584103695
 30
0.0
 10
78.05831490884433
 20
135.8702177475134
 30
0.0
 11
56.71481208477057
 21
154.7993110419562
 31
0.0
 11
57.24535588981312
 21
149.7393034913372
 31
0.0
 11
61.87045845981445
 21
148.107645956242
 31
0.0
 11
67.17572212412029
 21
146.7479318944103
 31
0.0
 11
74.38544016224735
 21
142.2608749120805
 31
0.0
 11
78.05831490884433
 21
135.8702177475134
 31
0.0
  0
ARC
  5
3EF5
330
2
100
AcDbEntity
  8
KIJUN
100
AcDbCircle
 10
55.75444679124419
 20
135.4907216171955
 30
0.0
 40
27.79799952227664
100
AcDbArc
 50
6.68273879102207
 51
68.17839175419905
  0
ARC
  5
3EF7
330
2
100
AcDbEntity
  8
KIJUN
100
AcDbCircle
 10
51.89920604859623
 20
136.9404591925461
 30
0.0
 40
12.24727445651102
100
AcDbArc
 50
93.85639365988355
 51
188.8239898319284
  0
ARC
  5
3EF8
330
2
100
AcDbEntity
  8
KIJUN
100
AcDbCircle
 10
58.05401150844126
 20
147.8208033901426
 30
0.0
 40
7.105844365223612
100
AcDbArc
 50
100.8631878726752
 51
169.136812127324
  0
CIRCLE
  5
3F03
330
2
100
AcDbEntity
  8
KIJUN
100
AcDbCircle
 10
84.91135322548419
 20
122.3732887301353
 30
0.0
 40
4.229481171107059
  0
ARC
  5
3F06
330
2
100
AcDbEntity
  8
KIJUN
100
AcDbCircle
 10
67.00278067503719
 20
158.6871358183605
 30
0.0
 40
8.315179062105592
100
AcDbArc
 50
9.595000100913678
 51
62.72675796730033
  0
ARC
  5
3F07
330
2
100
AcDbEntity
  8
KIJUN
100
AcDbCircle
 10
88.74547954661771
 20
197.0527405558698
 30
0.0
 40
24.64252324162322
100
AcDbArc
 50
238.9663771280865
 51
260.9279501648523
  0
SPLINE
  5
3F08
330
2
100
AcDbEntity
  8
KIJUN
100
AcDbSpline
210
0.0
220
0.0
230
1.0
 70
     8
 71
     3
 72
     9
 73
     5
 74
     3
 42
0.0000000001
 43
0.0000000001
 44
0.0000000001
 40
0.0
 40
0.0
 40
0.0
 40
0.0
 40
7.932784639889423
 40
17.69034609032107
 40
17.69034609032107
 40
17.69034609032107
 40
17.69034609032107
 10
76.45239088327016
 20
128.8531355351751
 30
0.0
 10
78.27030511551862
 20
126.7798565795227
 30
0.0
 10
82.32430801499022
 20
122.1563827387173
 30
0.0
 10
80.29001809528113
 20
116.2398709270277
 30
0.0
 10
79.16795362021608
 20
112.9764679794532
 30
0.0
 11
76.45239088327016
 21
128.8531355351751
 31
0.0
 11
80.68187205437725
 21
122.3732887301353
 31
0.0
 11
79.16795362021608
 21
112.9764679794532
 31
0.0
  0
CIRCLE
  5
3F09
330
2
100
AcDbEntity
  8
KIJUN
100
AcDbCircle
 10
84.91135322548419
 20
122.3732887301353
 30
0.0
 40
4.229481171107059
  0
ARC
  5
3F0B
330
2
100
AcDbEntity
  8
KIJUN
100
AcDbCircle
 10
84.91135322548483
 20
173.8932464286498
 30
0.0
 40
9.10260575402005
100
AcDbArc
 50
12.97764822973806
 51
167.0223517702706
  0
ARC
  5
3F9B
330
2
100
AcDbEntity
  8
KIJUN
100
AcDbCircle
 10
80.5440130403989
 20
167.779874698825
 30
0.0
 40
9.317754447732987
100
AcDbArc
 50
118.8975974024052
 51
155.0915900924916
  0
ARC
  5
3F9C
330
2
100
AcDbEntity
  8
KIJUN
100
AcDbCircle
 10
95.46530728277499
 20
163.4286638927902
 30
0.0
 40
24.79416820028919
100
AcDbArc
 50
160.5022156112764
 51
173.8662208811114
  0
ARC
  5
3F9D
330
2
100
AcDbEntity
  8
KIJUN
100
AcDbCircle
 10
76.35531348254724
 20
120.2617081889829
 30
0.0
 40
46.15021423955694
100
AcDbArc
 50
96.89736128944481
 51
110.7139770064873
  0
ARC
  5
3F9E
330
2
100
AcDbEntity
  8
KIJUN
100
AcDbCircle
 10
72.16427788837179
 20
157.0348820340728
 30
0.0
 40
15.61037383528769
100
AcDbArc
 50
169.5291531770581
 51
188.2336726578339
  0
ARC
  5
3F9F
330
2
100
AcDbEntity
  8
KIJUN
100
AcDbCircle
 10
61.92112706964241
 20
158.4852432754868
 30
0.0
 40
5.292150920739355
100
AcDbArc
 50
110.9159110672499
 51
164.8106744588448
  0
ARC
  5
3FA5
330
2
100
AcDbEntity
  8
KIJUN
100
AcDbCircle
 10
53.64484532202043
 20
102.5082051612056
 30
0.0
 40
35.3765185411911
100
AcDbArc
 50
113.0444354955453
 51
163.1788607667608
  0
ARC
  5
3FA6
330
2
100
AcDbEntity
  8
KIJUN
100
AcDbCircle
 10
12.53193104275861
 20
110.8020237675634
 30
0.0
 40
6.071602908703243
100
AcDbArc
 50
280.8990501074201
 51
331.3928554318906
  0
ARC
  5
3FA7
330
2
100
AcDbEntity
  8
KIJUN
100
AcDbCircle
 10
-1.121559196647547
 20
118.212969925233
 30
0.0
 40
21.60671306121682
100
AcDbArc
 50
331.475238214575
 51
345.342608049175
  0
ARC
  5
3FA8
330
2
100
AcDbEntity
  8
KIJUN
100
AcDbCircle
 10
17.02795972692625
 20
80.96694639183436
 30
0.0
 40
24.10661929151857
100
AcDbArc
 50
97.98325258539742
 51
108.0283340707568
  0
ARC
  5
3FA9
330
2
100
AcDbEntity
  8
KIJUN
100
AcDbCircle
 10
20.82287091977974
 20
101.6770233460779
 30
0.0
 40
12.61083722906489
100
AcDbArc
 50
178.6874084388356
 51
195.0323152724079
  0
ARC
  5
3FAA
330
2
100
AcDbEntity
  8
KIJUN
100
AcDbCircle
 10
10.35945287749902
 20
101.8964072391946
 30
0.0
 40
2.145235973912322
100
AcDbArc
 50
111.6709997762852
 51
178.143627899366
  0
ARC
  5
3FAB
330
2
100
AcDbEntity
  8
KIJUN
100
AcDbCircle
 10
12.5132182113645
 20
81.73014745799925
 30
0.0
 40
17.11916425133055
100
AcDbArc
 50
103.064116876024
 51
114.2661852411498
  0
ARC
  5
3FAD
330
2
100
AcDbEntity
  8
KIJUN
100
AcDbCircle
 10
8.288713164627841
 20
91.57582629320442
 30
0.0
 40
6.410188176146254
100
AcDbArc
 50
116.010202093724
 51
165.9386803856618
  0
ARC
  5
3FAE
330
2
100
AcDbEntity
  8
KIJUN
100
AcDbCircle
 10
10.8258146953787
 20
90.5134400007555
 30
0.0
 40
9.1387747401613
100
AcDbArc
 50
163.3413388266712
 51
212.864877182092
  0
ARC
  5
3FAF
330
2
100
AcDbEntity
  8
KIJUN
100
AcDbCircle
 10
5.775019353236786
 20
87.37197355630648
 30
0.0
 40
3.19323381009619
100
AcDbArc
 50
214.6985872756657
 51
263.1648431667482
  0
ARC
  5
3FB0
330
2
100
AcDbEntity
  8
KIJUN
100
AcDbCircle
 10
6.027177256313482
 20
89.79185139809786
 30
0.0
 40
5.626048762038345
100
AcDbArc
 50
263.5480884284361
 51
278.0254198381192
  0
ARC
  5
3FB1
330
2
100
AcDbEntity
  8
KIJUN
100
AcDbCircle
 10
2.567478187442402
 20
106.2039039786146
 30
0.0
 40
22.38914393823108
100
AcDbArc
 50
280.9299204088899
 51
293.7939429378472
  0
ARC
  5
3FB2
330
2
100
AcDbEntity
  8
KIJUN
100
AcDbCircle
 10
-8.231129510812465
 20
85.86414914821414
 30
0.0
 40
19.83201587396273
100
AcDbArc
 50
313.1825704306554
 51
359.5771428389802
  0
ARC
  5
3FB3
330
2
100
AcDbEntity
  8
KIJUN
100
AcDbCircle
 10
0.0547532576105803
 20
76.90383394201212
 30
0.0
 40
7.628651910826884
100
AcDbArc
 50
256.6479122758884
 51
313.8577652201874
  0
ARC
  5
3FB4
330
2
100
AcDbEntity
  8
KIJUN
100
AcDbCircle
 10
-5.230622466159349
 20
56.77171971189671
 30
0.0
 40
13.1890815888232
100
AcDbArc
 50
74.50437680644601
 51
81.95626168976103
  0
ARC
  5
3FB5
330
2
100
AcDbEntity
  8
KIJUN
100
AcDbCircle
 10
-4.012797062512914
 20
66.8168338832247
 30
0.0
 40
3.078873853529705
100
AcDbArc
 50
78.23626767544057
 51
178.0309553331487
  0
ARC
  5
3FB6
330
2
100
AcDbEntity
  8
KIJUN
100
AcDbCircle
 10
-1.510847754510187
 20
67.25155961805945
 30
0.0
 40
5.588693816000763
100
AcDbArc
 50
183.3742412984917
 51
259.8270389532641
  0
ARC
  5
3FB7
330
2
100
AcDbEntity
  8
KIJUN
100
AcDbCircle
 10
-20.83379224648946
 20
94.56846010391057
 30
0.0
 40
37.59265582647321
100
AcDbArc
 50
277.4515972977298
 51
299.192889974087
  0
ARC
  5
3FB8
330
2
100
AcDbEntity
  8
KIJUN
100
AcDbCircle
 10
-5.073214560009328
 20
73.23334347197074
 30
0.0
 40
37.97972151516128
100
AcDbArc
 50
225.309486654087
 51
235.2005661409659
  0
ARC
  5
3FB9
330
2
100
AcDbEntity
  8
KIJUN
100
AcDbCircle
 10
-23.20786272472495
 20
54.45559581599394
 30
0.0
 40
11.88078404979148
100
AcDbArc
 50
165.592541007636
 51
223.7962431031583
  0
ARC
  5
3FBA
330
2
100
AcDbEntity
  8
KIJUN
100
AcDbCircle
 10
-24.8818302417051
 20
54.29954049888452
 30
0.0
 40
10.31392376699876
100
AcDbArc
 50
92.53839250812317
 51
162.4375037247371
  0
ARC
  5
3FBC
330
2
100
AcDbEntity
  8
KIJUN
100
AcDbCircle
 10
-26.59485059337989
 20
52.46199679936683
 30
0.0
 40
12.20616323908051
100
AcDbArc
 50
69.65440284177105
 51
84.09279686100502
  0
ARC
  5
3FBD
330
2
100
AcDbEntity
  8
KIJUN
100
AcDbCircle
 10
-23.56741818541841
 20
60.59348299167226
 30
0.0
 40
3.529414643570865
100
AcDbArc
 50
26.26014328171893
 51
69.83926952004845
  0
ARC
  5
3FBE
330
2
100
AcDbEntity
  8
KIJUN
100
AcDbCircle
 10
-39.25040853446167
 20
53.86138528985252
 30
0.0
 40
20.5921792735063
100
AcDbArc
 50
15.32258556312938
 51
23.75074843203619
  0
ARC
  5
3FBF
330
2
100
AcDbEntity
  8
KIJUN
100
AcDbCircle
 10
-16.78599130867782
 20
59.81507537672841
 30
0.0
 40
2.654101798098956
100
AcDbArc
 50
191.1256714756866
 51
288.1674795051153
  0
ARC
  5
3FD9
330
2
100
AcDbEntity
  8
KIJUN
100
AcDbCircle
 10
-29.42608855813512
 20
48.453520186226
 30
0.0
 40
13.02139145308901
100
AcDbArc
 50
286.9208183281448
 51
293.044149237509
  0
ARC
  5
3FDA
330
2
100
AcDbEntity
  8
KIJUN
100
AcDbCircle
 10
-25.7104175856272
 20
39.78967872102925
 30
0.0
 40
3.594538283235575
100
AcDbArc
 50
292.601074719776
 51
330.7531716253816
  0
ARC
  5
3FDB
330
2
100
AcDbEntity
  8
KIJUN
100
AcDbCircle
 10
-17.5198151695153
 20
39.23671600680627
 30
0.0
 40
4.109490697045204
100
AcDbArc
 50
115.7559006948863
 51
155.2502257773884
  0
ARC
  5
3FDC
330
2
100
AcDbEntity
  8
KIJUN
100
AcDbCircle
 10
-61.85761503810208
 20
57.56072567415571
 30
0.0
 40
43.86921122588132
100
AcDbArc
 50
333.5687240871496
 51
337.7605408914728
  0
ARC
  5
3FDD
330
2
100
AcDbEntity
  8
KIJUN
100
AcDbCircle
 10
-14.51911946904012
 20
33.05162523682387
 30
0.0
 40
10.98404080041287
100
AcDbArc
 50
103.0596926596468
 51
115.8337796940305
  0
ARC
  5
3FDE
330
2
100
AcDbEntity
  8
KIJUN
100
AcDbCircle
 10
-26.07046179207271
 20
97.61389994805764
 30
0.0
 40
54.02681045413054
100
AcDbArc
 50
287.876852086781
 51
299.242153607942
  0
ARC
  5
3FE0
330
2
100
AcDbEntity
  8
KIJUN
100
AcDbCircle
 10
-146.4617230907183
 20
401.8452904692093
 30
0.0
 40
381.1156439701067
100
AcDbArc
 50
290.307681878554
 51
291.0638398104847
  0
ARC
  5
3FE1
330
2
100
AcDbEntity
  8
KIJUN
100
AcDbCircle
 10
-59.85739540848012
 20
230.4626381445458
 30
0.0
 40
191.5663936934191
100
AcDbArc
 50
282.9273208234658
 51
283.7911318978929
  0
ARC
  5
3FE2
330
2
100
AcDbEntity
  8
KIJUN
100
AcDbCircle
 10
-68.60566648634243
 20
103.3305756612316
 30
0.0
 40
94.91317578845233
100
AcDbArc
 50
328.0591627845639
 51
336.8262083418397
  0
ARC
  5
3FE3
330
2
100
AcDbEntity
  8
KIJUN
100
AcDbCircle
 10
10.86080651146585
 20
64.7424323673241
 30
0.0
 40
17.74018804769189
100
AcDbArc
 50
233.552981903189
 51
243.1995544684535
  0
ARC
  5
3FE4
330
2
100
AcDbEntity
  8
KIJUN
100
AcDbCircle
 10
5.240514749926036
 20
53.54148240261638
 30
0.0
 40
5.208425314497255
100
AcDbArc
 50
242.8281552738918
 51
301.3113398648882
  0
ARC
  5
3FE5
330
2
100
AcDbEntity
  8
KIJUN
100
AcDbCircle
 10
0.5079776989965865
 20
60.45469211765291
 30
0.0
 40
13.5816866237571
100
AcDbArc
 50
303.2124142060926
 51
327.3003938471254
  0
ARC
  5
3FE6
330
2
100
AcDbEntity
  8
KIJUN
100
AcDbCircle
 10
3.258950178319304
 20
57.02435064559516
 30
0.0
 40
17.80662261376344
100
AcDbArc
 50
21.13934038263672
 51
30.19541879525184
  0
ARC
  5
3FE7
330
2
100
AcDbEntity
  8
KIJUN
100
AcDbCircle
 10
13.70225956536654
 20
61.26918047418839
 30
0.0
 40
6.538087113431163
100
AcDbArc
 50
352.6774489198746
 51
19.44835871896996
  0
ARC
  5
3FE8
330
2
100
AcDbEntity
  8
KIJUN
100
AcDbCircle
 10
31.68090292243727
 20
58.80125882191025
 30
0.0
 40
11.60953029039288
100
AcDbArc
 50
171.9059188829569
 51
179.062411515658
  0
ARC
  5
3FE9
330
2
100
AcDbEntity
  8
KIJUN
100
AcDbCircle
 10
21.53021210736859
 20
58.95165718286979
 30
0.0
 40
1.457822276679021
100
AcDbArc
 50
178.4445543561683
 51
223.0957890670308
  0
ARC
  5
3FEA
330
2
100
AcDbEntity
  8
KIJUN
100
AcDbCircle
 10
21.52546202771732
 20
59.25165696411923
 30
0.0
 40
1.674145385982072
100
AcDbArc
 50
230.7266061204702
 51
256.3479015293369
  0
ARC
  5
3FEB
330
2
100
AcDbEntity
  8
KIJUN
100
AcDbCircle
 10
22.42518964026452
 20
63.45465385986475
 30
0.0
 40
5.971913198716237
100
AcDbArc
 50
257.4772929152916
 51
297.8157163006865
  0
ARC
  5
3FEC
330
2
100
AcDbEntity
  8
KIJUN
100
AcDbCircle
 10
20.96914317029521
 20
66.4500534894251
 30
0.0
 40
9.301287033883911
100
AcDbArc
 50
297.1384938153403
 51
322.4047628718212
  0
ARC
  5
3FED
330
2
100
AcDbEntity
  8
KIJUN
100
AcDbCircle
 10
0.4829688230108762
 20
81.30382667346598
 30
0.0
 40
34.60296821642328
100
AcDbArc
 50
323.6118463547837
 51
338.8165467481631
  0
ARC
  5
3FEE
330
2
100
AcDbEntity
  8
KIJUN
100
AcDbCircle
 10
19.40462456159367
 20
84.2870292367265
 30
0.0
 40
20.44239336394197
100
AcDbArc
 50
310.7468772041089
 51
4.013392899809999
  0
ARC
  5
3FEF
330
2
100
AcDbEntity
  8
KIJUN
100
AcDbCircle
 10
12.73093317322016
 20
49.88095400487672
 30
0.0
 40
51.12161706457835
100
AcDbArc
 50
46.48032376054795
 51
54.22538606785385
  0
ARC
  5
3FF0
330
2
100
AcDbEntity
  8
KIJUN
100
AcDbCircle
 10
41.81713425128282
 20
81.00364198022234
 30
0.0
 40
8.531276730151651
100
AcDbArc
 50
26.11817751479345
 51
44.19838435405572
  0
ARC
  5
3FF1
330
2
100
AcDbEntity
  8
KIJUN
100
AcDbCircle
 10
46.75449797719282
 20
83.38271689084443
 30
0.0
 40
3.050980585790754
100
AcDbArc
 50
322.1324097409864
 51
26.82061398537685
  0
ARC
  5
3FF2
330
2
100
AcDbEntity
  8
KIJUN
100
AcDbCircle
 10
32.7333528268934
 20
94.5145247788924
 30
0.0
 40
20.95363077605183
100
AcDbArc
 50
317.6158900696667
 51
321.6372656245379
  0
ARC
  5
3FF3
330
2
100
AcDbEntity
  8
KIJUN
100
AcDbCircle
 10
50.18545180771001
 20
78.70750540195221
 30
0.0
 40
2.594217612223122
100
AcDbArc
 50
139.5749414144298
 51
155.0725696433398
  0
ARC
  5
3FF5
330
2
100
AcDbEntity
  8
KIJUN
100
AcDbCircle
 10
48.66442065191139
 20
79.4701976626301
 30
0.0
 40
0.8948604304760976
100
AcDbArc
 50
158.3123396514023
 51
205.4220461348253
  0
ARC
  5
3FF6
330
2
100
AcDbEntity
  8
KIJUN
100
AcDbCircle
 10
51.81810348787024
 20
82.2308652233603
 30
0.0
 40
5.058307055881716
100
AcDbArc
 50
218.4413407014816
 51
315.7900543791981
  0
ARC
  5
3FF7
330
2
100
AcDbEntity
  8
KIJUN
100
AcDbCircle
 10
115.462305326772
 20
84.9568451849621
 30
0.0
 40
58.07421599889512
100
AcDbArc
 50
170.8650306350103
 51
180.0234363132549
  0
ARC
  5
3FF8
330
2
100
AcDbEntity
  8
KIJUN
100
AcDbCircle
 10
39.70671111216282
 20
84.5463147485432
 30
0.0
 40
17.68561287775973
100
AcDbArc
 50
351.8581814138189
 51
1.253130604053166
  0
ARC
  5
3FF9
330
2
100
AcDbEntity
  8
KIJUN
100
AcDbCircle
 10
51.75410657026914
 20
82.79894047732723
 30
0.0
 40
5.512229098206276
100
AcDbArc
 50
312.0187103910012
 51
352.1031131399984
  0
ARC
  5
3FFA
330
2
100
AcDbEntity
  8
KIJUN
100
AcDbCircle
 10
53.98898670749803
 20
102.4955366694128
 30
0.0
 40
9.290095414729636
100
AcDbArc
 50
296.4340826137406
 51
343.4490393444699
  0
DIMENSION
  5
4125
330
2
100
AcDbEntity
  8
SUNPOU
100
AcDbDimension
  2
*D7
 10
-35.08864677451643
 20
217.3535745515873
 30
0.0
 11
84.91135322548357
 21
222.8535745515873
 31
0.0
 70
    32
 71
     5
 42
240.0
  3
STANDARD
100
AcDbAlignedDimension
 13
204.9113532254835
 23
54.45559581599394
 33
0.0
 14
-35.08864677451644
 24
54.45559581599394
 34
0.0
100
AcDbRotatedDimension
1001
ACAD
1000
DSTYLE
1002
{
1070
    78
1070
     8
1070
    41
1040
2.0
1070
    42
1040
10.0
1070
    44
1040
0.0
1070
    73
1070
     0
1070
    74
1070
     0
1070
    77
1070
     1
1070
   140
1040
5.0
1070
   141
1040
0.0
1070
   146
1040
0.064286
1070
   147
1040
3.0
1070
   176
1070
    60
1070
   177
1070
    70
1070
   178
1070
    60
1070
   271
1070
     8
1070
   272
1070
     0
1070
   340
1005
1C
1070
   342
1005
109
1002
}
  0
DIMENSION
  5
4132
330
2
100
AcDbEntity
  8
SUNPOU
100
AcDbDimension
  2
*D8
 10
-66.35687616565144
 20
35.99585218266997
 30
0.0
 11
-71.85687616565146
 21
109.4958521826699
 31
0.0
 70
    32
 71
     5
 42
147.0
  3
STANDARD
100
AcDbAlignedDimension
 13
84.91135322548474
 23
182.9958521826699
 33
0.0
 14
-25.63621477557257
 24
35.99585218266996
 34
0.0
 50
90.0
100
AcDbRotatedDimension
1001
ACAD
1000
DSTYLE
1002
{
1070
    78
1070
     8
1070
    41
1040
2.0
1070
    42
1040
10.0
1070
    44
1040
0.0
1070
    73
1070
     0
1070
    74
1070
     0
1070
    77
1070
     1
1070
   140
1040
5.0
1070
   141
1040
0.0
1070
   146
1040
0.064286
1070
   147
1040
3.0
1070
   176
1070
    60
1070
   177
1070
    70
1070
   178
1070
    60
1070
   271
1070
     8
1070
   272
1070
     0
1070
   340
1005
1C
1070
   342
1005
109
1002
}
  0
SPLINE
  5
4163
330
2
100
AcDbEntity
  8
KIJUN
100
AcDbSpline
210
0.0
220
0.0
230
1.0
 70
     8
 71
     3
 72
    10
 73
     6
 74
     4
 42
0.0000000001
 43
0.0000000001
 44
0.0000000001
 40
0.0
 40
0.0
 40
0.0
 40
0.0
 40
6.006986707415051
 40
17.83598425503523
 40
29.4044522775274
 40
29.4044522775274
 40
29.4044522775274
 40
29.4044522775274
 10
161.1791260851197
 20
98.40622876052881
 30
0.0
 10
159.1551865535936
 20
98.69147725744678
 30
0.0
 10
153.1456920473242
 20
99.53843896181036
 30
0.0
 10
146.3770264267771
 20
107.9568811440489
 30
0.0
 10
143.7619457750579
 20
115.2184173121046
 30
0.0
 10
142.4689648406487
 20
118.808756988109
 30
0.0
 11
161.1791260851197
 21
98.40622876052881
 31
0.0
 11
155.3232507287119
 21
99.74511378668939
 31
0.0
 11
147.0252734121134
 21
108.1753424570649
 31
0.0
 11
142.4689648406487
 21
118.808756988109
 31
0.0
  0
SPLINE
  5
4164
330
2
100
AcDbEntity
  8
KIJUN
100
AcDbSpline
210
0.0
220
0.0
230
1.0
 70
     8
 71
     3
 72
    13
 73
     9
 74
     7
 42
0.0000000001
 43
0.0000000001
 44
0.0000000001
 40
0.0
 40
0.0
 40
0.0
 40
0.0
 40
7.025642242526086
 40
15.58799403073469
 40
28.14667760416518
 40
39.45956898262524
 40
52.05788600104243
 40
57.46717510956035
 40
57.46717510956035
 40
57.46717510956035
 40
57.46717510956035
 10
158.2223601913385
 20
85.7177852472075
 30
0.0
 10
155.7977004305004
 20
86.45121691020017
 30
0.0
 10
150.4180382481977
 20
88.07850278528778
 30
0.0
 10
149.1226195079241
 20
98.60975655471449
 30
0.0
 10
143.8568210250001
 20
107.7559826662055
 30
0.0
 10
143.6277328071143
 20
120.8931388337481
 30
0.0
 10
135.036498508922
 20
127.1146842025469
 30
0.0
 10
130.4322151249144
 20
130.8780929804089
 30
0.0
 10
129.0491384524194
 20
132.0085800628945
 30
0.0
 11
158.2223601913385
 21
85.7177852472075
 31
0.0
 11
151.8954604660182
 21
88.77228828137011
 31
0.0
 11
148.9027468137253
 21
96.79460298103249
 31
0.0
 11
144.6857424278918
 21
108.6241172190481
 31
0.0
 11
142.1011256867793
 21
119.637802689516
 31
0.0
 11
133.2590187309442
 21
128.611917480297
 31
0.0
 11
129.0491384524194
 21
132.0085800628945
 31
0.0
  0
SPLINE
  5
4165
330
2
100
AcDbEntity
  8
KIJUN
100
AcDbSpline
210
0.0
220
0.0
230
1.0
 70
     8
 71
     3
 72
    10
 73
     6
 74
     4
 42
0.0000000001
 43
0.0000000001
 44
0.0000000001
 40
0.0
 40
0.0
 40
0.0
 40
0.0
 40
8.246346534053849
 40
20.88680829570838
 40
45.57426975463917
 40
45.57426975463917
 40
45.57426975463917
 40
45.57426975463917
 10
151.1732249061601
 20
65.98020644870792
 30
0.0
 10
151.1848040346215
 20
68.73619208170679
 30
0.0
 10
151.2141322996184
 20
75.71670682777774
 30
0.0
 10
147.572417306726
 20
90.60053266367686
 30
0.0
 10
143.0509739050716
 20
102.1857668621108
 30
0.0
 10
140.0606398578905
 20
109.8478599573087
 30
0.0
 11
151.1732249061601
 21
65.98020644870792
 31
0.0
 11
150.9432326426143
 21
74.22334509356954
 31
0.0
 11
148.3586171744892
 21
86.59674545199079
 31
0.0
 11
140.0606398578905
 21
109.8478599573087
 31
0.0
  0
SPLINE
  5
4166
330
2
100
AcDbEntity
  8
KIJUN
100
AcDbSpline
210
0.0
220
0.0
230
1.0
 70
     8
 71
     3
 72
     9
 73
     5
 74
     3
 42
0.0000000001
 43
0.0000000001
 44
0.0000000001
 40
0.0
 40
0.0
 40
0.0
 40
0.0
 40
8.068747918440987
 40
26.2040396381996
 40
26.2040396381996
 40
26.2040396381996
 40
26.2040396381996
 10
130.0258190506252
 20
85.7177852472075
 30
0.0
 10
131.709347415322
 20
87.89193861849977
 30
0.0
 10
137.1767686864368
 20
94.95271207390294
 30
0.0
 10
136.388902146218
 20
104.1573627635812
 30
0.0
 10
135.843635472057
 20
110.5277174012856
 30
0.0
 11
130.0258190506252
 21
85.7177852472075
 31
0.0
 11
134.4833107374725
 21
92.44351649615232
 31
0.0
 11
135.843635472057
 21
110.5277174012856
 31
0.0
  0
SPLINE
  5
4167
330
2
100
AcDbEntity
  8
KIJUN
100
AcDbSpline
210
0.0
220
0.0
230
1.0
 70
     8
 71
     3
 72
     9
 73
     5
 74
     3
 42
0.0000000001
 43
0.0000000001
 44
0.0000000001
 40
0.0
 40
0.0
 40
0.0
 40
0.0
 40
9.525245865684441
 40
30.07900092782815
 40
30.07900092782815
 40
30.07900092782815
 40
30.07900092782815
 10
127.20616493634
 20
91.35709347519059
 30
0.0
 10
128.6795750279658
 20
94.21439565344146
 30
0.0
 10
133.3323371863416
 20
103.2372383267541
 30
0.0
 10
132.5614760012234
 20
113.5456202487585
 30
0.0
 10
132.0347267244157
 20
120.5896027806347
 30
0.0
 11
127.20616493634
 21
91.35709347519059
 31
0.0
 11
131.0825001739995
 21
100.0579172251017
 31
0.0
 11
132.0347267244157
 21
120.5896027806347
 31
0.0
  0
SPLINE
  5
4168
330
2
100
AcDbEntity
  8
KIJUN
100
AcDbSpline
210
0.0
220
0.0
230
1.0
 70
     8
 71
     3
 72
    18
 73
    14
 74
    12
 42
0.0000000001
 43
0.0000000001
 44
0.0000000001
 40
0.0
 40
0.0
 40
0.0
 40
0.0
 40
5.269493499366655
 40
15.89605744127803
 40
20.37876877883887
 40
30.9260646691367
 40
37.50115857677875
 40
44.30273422850207
 40
53.13384964832062
 40
61.49607244426022
 40
67.30230240112771
 40
73.22678351902847
 40
77.40757676676572
 40
77.40757676676572
 40
77.40757676676572
 40
77.40757676676572
 10
104.6489320239824
 20
99.81605581756381
 30
0.0
 10
106.436277956916
 20
99.81584548303954
 30
0.0
 10
111.8280207535931
 20
99.81521098378836
 30
0.0
 10
117.4252615293331
 20
105.1957453983312
 30
0.0
 10
120.600163468765
 20
113.1818985415289
 30
0.0
 10
118.219735419795
 20
121.2360270414641
 30
0.0
 10
111.5898648911053
 20
125.8002587169685
 30
0.0
 10
103.6449909116164
 20
127.7086654052916
 30
0.0
 10
97.45029309041015
 20
120.7960530292976
 30
0.0
 10
96.15116463178019
 20
112.6705564606415
 30
0.0
 10
100.7355833584981
 20
106.6995676475726
 30
0.0
 10
107.8396095304459
 20
107.6772979802642
 30
0.0
 10
108.1181354046718
 20
111.3550310546177
 30
0.0
 10
108.2333682080722
 20
112.8765970258022
 30
0.0
 11
104.6489320239824
 21
99.81605581756381
 31
0.0
 11
109.8982526802777
 21
100.276701437601
 31
0.0
 11
117.9848300378891
 21
107.1709836954504
 31
0.0
 11
119.5369430844763
 21
111.3764142354202
 31
0.0
 11
116.6974373089552
 21
121.5343007059551
 31
0.0
 11
111.3920437999138
 21
125.4181981825284
 31
0.0
 11
104.6657606251842
 21
126.4274285821227
 31
0.0
 11
98.24406646679008
 21
120.365214160461
 31
0.0
 11
97.41162550367517
 21
112.0445283634933
 31
0.0
 11
101.3359942267485
 21
107.7653185722598
 31
0.0
 11
107.1630860605045
 21
108.8351210200682
 31
0.0
 11
108.2333682080722
 21
112.8765970258022
 31
0.0
  0
SPLINE
  5
4169
330
2
100
AcDbEntity
  8
KIJUN
100
AcDbSpline
210
0.0
220
0.0
230
1.0
 70
     8
 71
     3
 72
    13
 73
     9
 74
     7
 42
0.0000000001
 43
0.0000000001
 44
0.0000000001
 40
0.0
 40
0.0
 40
0.0
 40
0.0
 40
2.539985742084683
 40
5.416285379958843
 40
10.98466551421985
 40
17.8669100212784
 40
23.08571092175079
 40
28.78525340048417
 40
28.78525340048417
 40
28.78525340048417
 40
28.78525340048417
 10
84.91135322548283
 20
118.1438075590283
 30
0.0
 10
85.78031069877418
 20
118.1470118030257
 30
0.0
 10
87.63328238298969
 20
118.153844557883
 30
0.0
 10
90.62385817523859
 20
115.4274099209191
 30
0.0
 10
90.63586620173813
 20
109.9958434044582
 30
0.0
 10
94.41893456149182
 20
105.0059010749295
 30
0.0
 10
99.52297911837595
 20
101.9316812759777
 30
0.0
 10
102.8908512079716
 20
100.5416653970498
 30
0.0
 10
104.6489320239815
 20
99.81605581756436
 30
0.0
 11
84.91135322548283
 21
118.1438075590283
 31
0.0
 11
87.4350116298147
 21
117.8562735119337
 31
0.0
 11
89.62498821167955
 21
115.9915745609717
 31
0.0
 11
91.16608355057747
 21
110.6406977658979
 31
0.0
 11
95.05937482734198
 21
104.9655261835396
 31
0.0
 11
99.43932799107216
 21
102.1279403923606
 31
0.0
 11
104.6489320239815
 21
99.81605581756436
 31
0.0
  0
ARC
  5
416A
330
2
100
AcDbEntity
  8
KIJUN
100
AcDbCircle
 10
99.00962379583948
 20
103.8369921387486
 30
0.0
 40
6.926018061701384
100
AcDbArc
 50
215.4896072141954
 51
324.5103927858164
  0
SPLINE
  5
416B
330
2
100
AcDbEntity
  8
KIJUN
100
AcDbSpline
210
0.0
220
0.0
230
1.0
 70
     8
 71
     3
 72
    10
 73
     6
 74
     4
 42
0.0000000001
 43
0.0000000001
 44
0.0000000001
 40
0.0
 40
0.0
 40
0.0
 40
0.0
 40
5.779073711931889
 40
17.14959195129569
 40
33.65070373249352
 40
33.65070373249352
 40
33.65070373249352
 40
33.65070373249352
 10
169.5009766476237
 20
50.47210882131523
 30
0.0
 10
168.7237553106774
 20
52.28589193701363
 30
0.0
 10
166.4173253447556
 20
57.66835318822663
 30
0.0
 10
154.6456971392551
 20
62.02537939986857
 30
0.0
 10
152.0778034145354
 20
71.59388664272661
 30
0.0
 10
150.5575083559911
 20
77.2588229050522
 30
0.0
 11
169.5009766476237
 21
50.47210882131523
 31
0.0
 11
166.7499731526722
 21
55.55439892900357
 31
0.0
 11
157.635802013713
 21
62.35297006428395
 31
0.0
 11
150.5575083559911
 21
77.2588229050522
 31
0.0
  0
SPLINE
  5
416C
330
2
100
AcDbEntity
  8
KIJUN
100
AcDbSpline
210
0.0
220
0.0
230
1.0
 70
     8
 71
     3
 72
    10
 73
     6
 74
     4
 42
0.0000000001
 43
0.0000000001
 44
0.0000000001
 40
0.0
 40
0.0
 40
0.0
 40
0.0
 40
5.9817375460892
 40
21.42678790712361
 40
35.66341649022989
 40
35.66341649022989
 40
35.66341649022989
 40
35.66341649022989
 10
172.3206307616951
 20
61.75072527760072
 30
0.0
 10
170.2883173445686
 20
62.01999322359155
 30
0.0
 10
163.0085013690179
 20
62.98452018995842
 30
0.0
 10
156.3209046574292
 20
74.71915138873544
 30
0.0
 10
152.4288945874683
 20
83.54592267433812
 30
0.0
 10
150.5621167036423
 20
87.77962739898136
 30
0.0
 11
172.3206307616951
 21
61.75072527760072
 31
0.0
 11
166.4779089695481
 21
63.03282750826051
 31
0.0
 11
156.5475427352404
 21
74.86234174627604
 31
0.0
 11
150.5621167036423
 21
87.77962739898136
 31
0.0
  0
SPLINE
  5
416D
330
2
100
AcDbEntity
  8
KIJUN
100
AcDbSpline
210
0.0
220
0.0
230
1.0
 70
     8
 71
     3
 72
    10
 73
     6
 74
     4
 42
0.0000000001
 43
0.0000000001
 44
0.0000000001
 40
0.0
 40
0.0
 40
0.0
 40
0.0
 40
5.858897256735957
 40
10.98481491100063
 40
17.14607508197624
 40
17.14607508197624
 40
17.14607508197624
 40
17.14607508197624
 10
190.1198691665461
 20
61.92445922603763
 30
0.0
 10
192.1318561881509
 20
61.4706425880809
 30
0.0
 10
195.9041198185217
 20
60.61978421780382
 30
0.0
 10
198.3374526570154
 20
54.37268268020383
 30
0.0
 10
196.254890222579
 20
51.02440784498281
 30
0.0
 10
195.1180950750647
 20
49.1967062969842
 30
0.0
 11
190.1198691665461
 21
61.92445922603763
 31
0.0
 11
195.5261919862449
 21
59.66650647316773
 31
0.0
 11
197.4306463600654
 21
54.90750601757433
 31
0.0
 11
195.1180950750647
 21
49.1967062969842
 31
0.0
  0
SPLINE
  5
416E
330
2
100
AcDbEntity
  8
KIJUN
100
AcDbSpline
210
0.0
220
0.0
230
1.0
 70
     8
 71
     3
 72
    11
 73
     7
 74
     5
 42
0.0000000001
 43
0.0000000001
 44
0.0000000001
 40
0.0
 40
0.0
 40
0.0
 40
0.0
 40
6.535328493110363
 40
12.05777893639067
 40
22.63852269933055
 40
29.83875397106434
 40
29.83875397106434
 40
29.83875397106434
 40
29.83875397106434
 10
190.1198691665461
 20
61.9244592260374
 30
0.0
 10
191.134390087087
 20
59.79522539794995
 30
0.0
 10
193.0061963779446
 20
55.86675709983319
 30
0.0
 10
187.2779413602036
 20
48.81447384057322
 30
0.0
 10
178.4114303603559
 20
51.96550633089193
 30
0.0
 10
173.6703267973373
 20
55.24344535557653
 30
0.0
 10
171.7504634562996
 20
56.5708145817492
 30
0.0
 11
190.1198691665461
 21
61.9244592260374
 31
0.0
 11
191.7172845115917
 21
55.58736346155088
 31
0.0
 11
188.3164739481185
 21
51.23627780279218
 31
0.0
 11
177.8419780745748
 21
52.73196318819498
 31
0.0
 11
171.7504634562996
 21
56.5708145817492
 31
0.0
  0
ARC
  5
416F
330
2
100
AcDbEntity
  8
KIJUN
100
AcDbCircle
 10
191.8238893226033
 20
39.79145082681025
 30
0.0
 40
5.255475811954109
100
AcDbArc
 50
313.7621016854782
 51
25.40485132122259
  0
ARC
  5
4170
330
2
100
AcDbEntity
  8
KIJUN
100
AcDbCircle
 10
129.8727568087808
 20
89.16582176887478
 30
0.0
 40
3.451432152691123
100
AcDbArc
 50
140.5883465797272
 51
272.5417557744255
  0
SPLINE
  5
4171
330
2
100
AcDbEntity
  8
KIJUN
100
AcDbSpline
210
0.0
220
0.0
230
1.0
 70
     8
 71
     3
 72
    11
 73
     7
 74
     5
 42
0.0000000001
 43
0.0000000001
 44
0.0000000001
 40
0.0
 40
0.0
 40
0.0
 40
0.0
 40
7.065501693135821
 40
20.53795938802392
 40
28.82824377714459
 40
39.16692215339462
 40
39.16692215339462
 40
39.16692215339462
 40
39.16692215339462
 10
98.56271345479663
 20
120.991550600079
 30
0.0
 10
99.28731773471538
 20
123.3104318636921
 30
0.0
 10
101.3935932576293
 20
130.0509424864559
 30
0.0
 10
114.1576896594349
 20
132.8703991042925
 30
0.0
 10
121.8525821042864
 20
123.425308636194
 30
0.0
 10
120.4523659333444
 20
117.0601088942474
 30
0.0
 10
119.6752757200608
 20
113.5275583297627
 30
0.0
 11
98.56271345479663
 21
120.991550600079
 31
0.0
 11
101.5634656542013
 21
127.3881747420364
 31
0.0
 11
114.7586097239255
 21
130.1076028656998
 31
0.0
 11
120.1999073892755
 21
123.8529170247038
 31
0.0
 11
119.6752757200608
 21
113.5275583297627
 31
0.0
  0
SPLINE
  5
4172
330
2
100
AcDbEntity
  8
KIJUN
100
AcDbSpline
210
0.0
220
0.0
230
1.0
 70
     8
 71
     3
 72
    12
 73
     8
 74
     6
 42
0.0000000001
 43
0.0000000001
 44
0.0000000001
 40
0.0
 40
0.0
 40
0.0
 40
0.0
 40
7.101813763950232
 40
23.63086945636979
 40
33.13300179337084
 40
38.96428253785936
 40
45.21816851142628
 40
45.21816851142628
 40
45.21816851142628
 40
45.21816851142628
 10
93.37031556769741
 20
128.8531355351749
 30
0.0
 10
95.0069133429857
 20
130.5914631262402
 30
0.0
 10
100.4525966100884
 20
136.3756463986017
 30
0.0
 10
112.5263589257928
 20
138.6883764666571
 30
0.0
 10
122.7128643349256
 20
136.2341486989127
 30
0.0
 10
127.5521188508166
 20
126.796647995869
 30
0.0
 10
129.1822509971091
 20
132.2432172789417
 30
0.0
 10
130.0258190506245
 20
135.0617322434542
 30
0.0
 11
93.37031556769741
 21
128.8531355351749
 31
0.0
 11
98.5660113960816
 21
133.694674918134
 31
0.0
 11
114.6178363900434
 21
137.6378457800583
 31
0.0
 11
123.3239118908098
 21
133.8306462417051
 31
0.0
 11
127.2061649365534
 21
129.4795605829462
 31
0.0
 11
130.0258190506245
 21
135.0617322434542
 31
0.0
  0
SPLINE
  5
4173
330
2
100
AcDbEntity
  8
KIJUN
100
AcDbSpline
210
0.0
220
0.0
230
1.0
 70
     8
 71
     3
 72
    12
 73
     8
 74
     6
 42
0.0000000001
 43
0.0000000001
 44
0.0000000001
 40
0.0
 40
0.0
 40
0.0
 40
0.0
 40
5.087745388813168
 40
9.992220905610647
 40
15.46895760530205
 40
23.9609370301458
 40
31.33186016766543
 40
31.33186016766543
 40
31.33186016766543
 40
31.33186016766543
 10
113.1078943661965
 20
154.7993110419562
 30
0.0
 10
113.3132984104574
 20
152.8225530773851
 30
0.0
 10
113.7167074705242
 20
148.9402435769235
 30
0.0
 10
107.4935469806189
 20
148.1267027293483
 30
0.0
 10
101.7619097374328
 20
146.7337596300323
 30
0.0
 10
94.97682566237067
 20
143.0880055128604
 30
0.0
 10
92.78353515155478
 20
138.1600584103695
 30
0.0
 10
91.7643915421228
 20
135.8702177475134
 30
0.0
 11
113.1078943661965
 21
154.7993110419562
 31
0.0
 11
112.577350561154
 21
149.7393034913372
 31
0.0
 11
107.9522479911527
 21
148.107645956242
 31
0.0
 11
102.6469843268468
 21
146.7479318944103
 31
0.0
 11
95.43726628871977
 21
142.2608749120805
 31
0.0
 11
91.7643915421228
 21
135.8702177475134
 31
0.0
  0
ARC
  5
4174
330
2
100
AcDbEntity
  8
KIJUN
100
AcDbCircle
 10
114.0682596597229
 20
135.4907216171955
 30
0.0
 40
27.79799952227664
100
AcDbArc
 50
111.8216082458008
 51
173.317261208978
  0
ARC
  5
4175
330
2
100
AcDbEntity
  8
KIJUN
100
AcDbCircle
 10
117.9235004023709
 20
136.9404591925461
 30
0.0
 40
12.24727445651102
100
AcDbArc
 50
351.1760101680715
 51
86.1436063401164
  0
ARC
  5
4176
330
2
100
AcDbEntity
  8
KIJUN
100
AcDbCircle
 10
111.7686949425259
 20
147.8208033901426
 30
0.0
 40
7.105844365223612
100
AcDbArc
 50
10.86318787267599
 51
79.13681212732483
  0
ARC
  5
4177
330
2
100
AcDbEntity
  8
KIJUN
100
AcDbCircle
 10
102.8199257759299
 20
158.6871358183605
 30
0.0
 40
8.315179062105592
100
AcDbArc
 50
117.2732420326997
 51
170.4049998990862
  0
ARC
  5
4178
330
2
100
AcDbEntity
  8
KIJUN
100
AcDbCircle
 10
81.07722690434941
 20
197.0527405558698
 30
0.0
 40
24.64252324162322
100
AcDbArc
 50
279.0720498351476
 51
301.0336228719169
  0
SPLINE
  5
4179
330
2
100
AcDbEntity
  8
KIJUN
100
AcDbSpline
210
0.0
220
0.0
230
1.0
 70
     8
 71
     3
 72
     9
 73
     5
 74
     3
 42
0.0000000001
 43
0.0000000001
 44
0.0000000001
 40
0.0
 40
0.0
 40
0.0
 40
0.0
 40
7.738018195477056
 40
17.25601111655779
 40
17.25601111655779
 40
17.25601111655779
 40
17.25601111655779
 10
93.37031556769696
 20
128.8531355351751
 30
0.0
 10
91.5524013354485
 20
126.7798565795227
 30
0.0
 10
87.49839843597692
 20
122.1563827387173
 30
0.0
 10
89.532688355686
 20
116.2398709270277
 30
0.0
 10
90.65475283075105
 20
112.9764679794532
 30
0.0
 11
93.37031556769696
 21
128.8531355351751
 31
0.0
 11
89.14083439658988
 21
122.3732887301353
 31
0.0
 11
90.65475283075105
 21
112.9764679794532
 31
0.0
  0
ARC
  5
417A
330
2
100
AcDbEntity
  8
KIJUN
100
AcDbCircle
 10
89.27869341056823
 20
167.779874698825
 30
0.0
 40
9.317754447732987
100
AcDbArc
 50
24.90840990750822
 51
61.10240259759533
  0
ARC
  5
417B
330
2
100
AcDbEntity
  8
KIJUN
100
AcDbCircle
 10
74.35739916819215
 20
163.4286638927902
 30
0.0
 40
24.79416820028919
100
AcDbArc
 50
6.133779118888521
 51
19.49778438872362
  0
ARC
  5
417C
330
2
100
AcDbEntity
  8
KIJUN
100
AcDbCircle
 10
93.46739296841988
 20
120.2617081889829
 30
0.0
 40
46.15021423955694
100
AcDbArc
 50
69.28602299351229
 51
83.10263871055587
  0
ARC
  5
417D
330
2
100
AcDbEntity
  8
KIJUN
100
AcDbCircle
 10
97.65842856259533
 20
157.0348820340728
 30
0.0
 40
15.61037383528769
100
AcDbArc
 50
351.7663273421661
 51
10.47084682294197
  0
ARC
  5
417E
330
2
100
AcDbEntity
  8
KIJUN
100
AcDbCircle
 10
107.9015793813247
 20
158.4852432754868
 30
0.0
 40
5.292150920739355
100
AcDbArc
 50
15.18932554115519
 51
69.08408893275002
  0
ARC
  5
417F
330
2
100
AcDbEntity
  8
KIJUN
100
AcDbCircle
 10
116.1778611289467
 20
102.5082051612056
 30
0.0
 40
35.3765185411911
100
AcDbArc
 50
16.82113923323905
 51
66.9555645044554
  0
ARC
  5
4180
330
2
100
AcDbEntity
  8
KIJUN
100
AcDbCircle
 10
157.2907754082085
 20
110.8020237675634
 30
0.0
 40
6.071602908703243
100
AcDbArc
 50
208.6071445681092
 51
259.1009498925797
  0
ARC
  5
4181
330
2
100
AcDbEntity
  8
KIJUN
100
AcDbCircle
 10
170.9442656476147
 20
118.212969925233
 30
0.0
 40
21.60671306121682
100
AcDbArc
 50
194.6573919508252
 51
208.5247617854252
  0
ARC
  5
4182
330
2
100
AcDbEntity
  8
KIJUN
100
AcDbCircle
 10
152.7947467240409
 20
80.96694639183436
 30
0.0
 40
24.10661929151857
100
AcDbArc
 50
71.97166592924361
 51
82.01674741460205
  0
ARC
  5
4183
330
2
100
AcDbEntity
  8
KIJUN
100
AcDbCircle
 10
148.9998355311874
 20
101.6770233460779
 30
0.0
 40
12.61083722906489
100
AcDbArc
 50
344.9676847275921
 51
1.312591561164334
  0
ARC
  5
4184
330
2
100
AcDbEntity
  8
KIJUN
100
AcDbCircle
 10
159.4632535734681
 20
101.8964072391946
 30
0.0
 40
2.145235973912322
100
AcDbArc
 50
1.856372100634005
 51
68.32900022371429
  0
ARC
  5
4185
330
2
100
AcDbEntity
  8
KIJUN
100
AcDbCircle
 10
157.3094882396026
 20
81.73014745799925
 30
0.0
 40
17.11916425133055
100
AcDbArc
 50
65.73381475885054
 51
76.93588312397579
  0
ARC
  5
4186
330
2
100
AcDbEntity
  8
KIJUN
100
AcDbCircle
 10
161.5339932863393
 20
91.57582629320442
 30
0.0
 40
6.410188176146254
100
AcDbArc
 50
14.06131961433802
 51
63.98979790627623
  0
ARC
  5
4187
330
2
100
AcDbEntity
  8
KIJUN
100
AcDbCircle
 10
158.9968917555884
 20
90.5134400007555
 30
0.0
 40
9.1387747401613
100
AcDbArc
 50
327.135122817908
 51
16.65866117332897
  0
ARC
  5
4188
330
2
100
AcDbEntity
  8
KIJUN
100
AcDbCircle
 10
164.0476870977303
 20
87.37197355630648
 30
0.0
 40
3.19323381009619
100
AcDbArc
 50
276.8351568332511
 51
325.3014127243343
  0
ARC
  5
4189
330
2
100
AcDbEntity
  8
KIJUN
100
AcDbCircle
 10
163.7955291946536
 20
89.79185139809786
 30
0.0
 40
5.626048762038345
100
AcDbArc
 50
261.9745801618801
 51
276.4519115715646
  0
ARC
  5
418A
330
2
100
AcDbEntity
  8
KIJUN
100
AcDbCircle
 10
167.2552282635247
 20
106.2039039786146
 30
0.0
 40
22.38914393823108
100
AcDbArc
 50
246.2060570621536
 51
259.0700795911105
  0
ARC
  5
418B
330
2
100
AcDbEntity
  8
KIJUN
100
AcDbCircle
 10
178.0538359617796
 20
85.86414914821414
 30
0.0
 40
19.83201587396273
100
AcDbArc
 50
180.4228571610198
 51
226.8174295693442
  0
ARC
  5
418C
330
2
100
AcDbEntity
  8
KIJUN
100
AcDbCircle
 10
169.7679531933565
 20
76.90383394201212
 30
0.0
 40
7.628651910826884
100
AcDbArc
 50
226.142234779813
 51
283.3520877241123
  0
ARC
  5
418D
330
2
100
AcDbEntity
  8
KIJUN
100
AcDbCircle
 10
175.0533289171265
 20
56.77171971189671
 30
0.0
 40
13.1890815888232
100
AcDbArc
 50
98.04373831023918
 51
105.4956231935535
  0
ARC
  5
418E
330
2
100
AcDbEntity
  8
KIJUN
100
AcDbCircle
 10
173.83550351348
 20
66.8168338832247
 30
0.0
 40
3.078873853529705
100
AcDbArc
 50
1.969044666851289
 51
101.7637323245598
  0
ARC
  5
418F
330
2
100
AcDbEntity
  8
KIJUN
100
AcDbCircle
 10
171.3335542054773
 20
67.25155961805945
 30
0.0
 40
5.588693816000763
100
AcDbArc
 50
280.1729610467366
 51
356.6257587015083
  0
ARC
  5
4190
330
2
100
AcDbEntity
  8
KIJUN
100
AcDbCircle
 10
190.6564986974565
 20
94.56846010391057
 30
0.0
 40
37.59265582647321
100
AcDbArc
 50
240.8071100259132
 51
262.5484027022696
  0
ARC
  5
4191
330
2
100
AcDbEntity
  8
KIJUN
100
AcDbCircle
 10
174.8959210109764
 20
73.23334347197074
 30
0.0
 40
37.97972151516128
100
AcDbArc
 50
304.799433859034
 51
314.6905133459127
  0
ARC
  5
4192
330
2
100
AcDbEntity
  8
KIJUN
100
AcDbCircle
 10
193.030569175692
 20
54.45559581599394
 30
0.0
 40
11.88078404979148
100
AcDbArc
 50
316.2037568968419
 51
14.40745899236418
  0
ARC
  5
4193
330
2
100
AcDbEntity
  8
KIJUN
100
AcDbCircle
 10
194.7045366926722
 20
54.29954049888452
 30
0.0
 40
10.31392376699876
100
AcDbArc
 50
17.56249627526301
 51
87.46160749187733
  0
ARC
  5
4194
330
2
100
AcDbEntity
  8
KIJUN
100
AcDbCircle
 10
196.417557044347
 20
52.46199679936683
 30
0.0
 40
12.20616323908051
100
AcDbArc
 50
95.90720313899534
 51
110.3455971582293
  0
ARC
  5
4195
330
2
100
AcDbEntity
  8
KIJUN
100
AcDbCircle
 10
193.3901246363855
 20
60.59348299167226
 30
0.0
 40
3.529414643570865
100
AcDbArc
 50
110.1607304799517
 51
153.7398567182812
  0
ARC
  5
4196
330
2
100
AcDbEntity
  8
KIJUN
100
AcDbCircle
 10
209.0731149854288
 20
53.86138528985252
 30
0.0
 40
20.5921792735063
100
AcDbArc
 50
156.249251567964
 51
164.6774144368706
  0
ARC
  5
4197
330
2
100
AcDbEntity
  8
KIJUN
100
AcDbCircle
 10
186.6086977596449
 20
59.81507537672841
 30
0.0
 40
2.654101798098956
100
AcDbArc
 50
251.832520494885
 51
348.8743285243133
  0
ARC
  5
4198
330
2
100
AcDbEntity
  8
KIJUN
100
AcDbCircle
 10
199.2487950091022
 20
48.453520186226
 30
0.0
 40
13.02139145308901
100
AcDbArc
 50
246.9558507624908
 51
253.0791816718547
  0
ARC
  5
4199
330
2
100
AcDbEntity
  8
KIJUN
100
AcDbCircle
 10
195.5331240365943
 20
39.78967872102925
 30
0.0
 40
3.594538283235575
100
AcDbArc
 50
209.2468283746181
 51
247.3989252802244
  0
ARC
  5
419A
330
2
100
AcDbEntity
  8
KIJUN
100
AcDbCircle
 10
187.3425216204824
 20
39.23671600680627
 30
0.0
 40
4.109490697045204
100
AcDbArc
 50
24.74977422261148
 51
64.24409930511385
  0
ARC
  5
419B
330
2
100
AcDbEntity
  8
KIJUN
100
AcDbCircle
 10
231.6803214890692
 20
57.56072567415571
 30
0.0
 40
43.86921122588132
100
AcDbArc
 50
202.2394591085275
 51
206.4312759128506
  0
ARC
  5
419C
330
2
100
AcDbEntity
  8
KIJUN
100
AcDbCircle
 10
184.3418259200072
 20
33.05162523682387
 30
0.0
 40
10.98404080041287
100
AcDbArc
 50
64.16622030596949
 51
76.94030734035381
  0
ARC
  5
419D
330
2
100
AcDbEntity
  8
KIJUN
100
AcDbCircle
 10
195.8931682430398
 20
97.61389994805764
 30
0.0
 40
54.02681045413054
100
AcDbArc
 50
240.7578463920575
 51
252.123147913219
  0
ARC
  5
419E
330
2
100
AcDbEntity
  8
KIJUN
100
AcDbCircle
 10
316.2844295416854
 20
401.8452904692093
 30
0.0
 40
381.1156439701067
100
AcDbArc
 50
248.9361601895151
 51
249.6923181214468
  0
ARC
  5
419F
330
2
100
AcDbEntity
  8
KIJUN
100
AcDbCircle
 10
229.6801018594472
 20
230.4626381445458
 30
0.0
 40
191.5663936934191
100
AcDbArc
 50
256.2088681021075
 51
257.0726791765341
  0
ARC
  5
41A0
330
2
100
AcDbEntity
  8
KIJUN
100
AcDbCircle
 10
238.4283729373096
 20
103.3305756612316
 30
0.0
 40
94.91317578845233
100
AcDbArc
 50
203.17379165816
 51
211.940837215436
  0
ARC
  5
41A1
330
2
100
AcDbEntity
  8
KIJUN
100
AcDbCircle
 10
158.9618999395012
 20
64.7424323673241
 30
0.0
 40
17.74018804769189
100
AcDbArc
 50
296.8004455315467
 51
306.4470180968113
  0
ARC
  5
41A2
330
2
100
AcDbEntity
  8
KIJUN
100
AcDbCircle
 10
164.5821917010411
 20
53.54148240261638
 30
0.0
 40
5.208425314497255
100
AcDbArc
 50
238.6886601351113
 51
297.1718447261088
  0
ARC
  5
41A3
330
2
100
AcDbEntity
  8
KIJUN
100
AcDbCircle
 10
169.3147287519705
 20
60.45469211765291
 30
0.0
 40
13.5816866237571
100
AcDbArc
 50
212.6996061528748
 51
236.7875857939079
  0
ARC
  5
41A4
330
2
100
AcDbEntity
  8
KIJUN
100
AcDbCircle
 10
166.5637562726478
 20
57.02435064559516
 30
0.0
 40
17.80662261376344
100
AcDbArc
 50
149.8045812047485
 51
158.8606596173631
  0
ARC
  5
41A5
330
2
100
AcDbEntity
  8
KIJUN
100
AcDbCircle
 10
156.1204468856006
 20
61.26918047418839
 30
0.0
 40
6.538087113431163
100
AcDbArc
 50
160.5516412810302
 51
187.3225510801255
  0
ARC
  5
41A6
330
2
100
AcDbEntity
  8
KIJUN
100
AcDbCircle
 10
138.1418035285298
 20
58.80125882191025
 30
0.0
 40
11.60953029039288
100
AcDbArc
 50
0.9375884843419775
 51
8.094081117043117
  0
ARC
  5
41A7
330
2
100
AcDbEntity
  8
KIJUN
100
AcDbCircle
 10
148.2924943435985
 20
58.95165718286979
 30
0.0
 40
1.457822276679021
100
AcDbArc
 50
316.904210932969
 51
1.555445643831693
  0
ARC
  5
41A8
330
2
100
AcDbEntity
  8
KIJUN
100
AcDbCircle
 10
148.2972444232498
 20
59.25165696411923
 30
0.0
 40
1.674145385982072
100
AcDbArc
 50
283.6520984706636
 51
309.2733938795299
  0
ARC
  5
41A9
330
2
100
AcDbEntity
  8
KIJUN
100
AcDbCircle
 10
147.3975168107026
 20
63.45465385986475
 30
0.0
 40
5.971913198716237
100
AcDbArc
 50
242.1842836993135
 51
282.5227070847081
  0
ARC
  5
41AA
330
2
100
AcDbEntity
  8
KIJUN
100
AcDbCircle
 10
148.8535632806719
 20
66.4500534894251
 30
0.0
 40
9.301287033883911
100
AcDbArc
 50
217.5952371281792
 51
242.86150618466
  0
ARC
  5
41AB
330
2
100
AcDbEntity
  8
KIJUN
100
AcDbCircle
 10
169.3397376279562
 20
81.30382667346598
 30
0.0
 40
34.60296821642328
100
AcDbArc
 50
201.1834532518371
 51
216.3881536452164
  0
ARC
  5
41AC
330
2
100
AcDbEntity
  8
KIJUN
100
AcDbCircle
 10
150.4180818893734
 20
84.2870292367265
 30
0.0
 40
20.44239336394197
100
AcDbArc
 50
175.9866071001899
 51
229.2531227958909
  0
ARC
  5
41AD
330
2
100
AcDbEntity
  8
KIJUN
100
AcDbCircle
 10
157.0917732777469
 20
49.88095400487672
 30
0.0
 40
51.12161706457835
100
AcDbArc
 50
125.7746139321461
 51
133.5196762394519
  0
ARC
  5
41AE
330
2
100
AcDbEntity
  8
KIJUN
100
AcDbCircle
 10
128.0055721996843
 20
81.00364198022234
 30
0.0
 40
8.531276730151651
100
AcDbArc
 50
135.8016156459438
 51
153.8818224852069
  0
ARC
  5
41AF
330
2
100
AcDbEntity
  8
KIJUN
100
AcDbCircle
 10
123.0682084737743
 20
83.38271689084443
 30
0.0
 40
3.050980585790754
100
AcDbArc
 50
153.1793860146234
 51
217.867590259014
  0
ARC
  5
41B0
330
2
100
AcDbEntity
  8
KIJUN
100
AcDbCircle
 10
137.0893536240737
 20
94.5145247788924
 30
0.0
 40
20.95363077605183
100
AcDbArc
 50
218.3627343754623
 51
222.3841099303337
  0
ARC
  5
41B1
330
2
100
AcDbEntity
  8
KIJUN
100
AcDbCircle
 10
119.6372546432571
 20
78.70750540195221
 30
0.0
 40
2.594217612223122
100
AcDbArc
 50
24.92743035666042
 51
40.42505858557034
  0
ARC
  5
41B2
330
2
100
AcDbEntity
  8
KIJUN
100
AcDbCircle
 10
121.1582857990557
 20
79.4701976626301
 30
0.0
 40
0.8948604304760976
100
AcDbArc
 50
334.5779538651748
 51
21.68766034859778
  0
ARC
  5
41B3
330
2
100
AcDbEntity
  8
KIJUN
100
AcDbCircle
 10
118.0046029630969
 20
82.2308652233603
 30
0.0
 40
5.058307055881716
100
AcDbArc
 50
224.2099456208015
 51
321.5586592985183
  0
ARC
  5
41B4
330
2
100
AcDbEntity
  8
KIJUN
100
AcDbCircle
 10
54.36040112419511
 20
84.9568451849621
 30
0.0
 40
58.07421599889512
100
AcDbArc
 50
359.9765636867451
 51
9.134969364989608
  0
ARC
  5
41B5
330
2
100
AcDbEntity
  8
KIJUN
100
AcDbCircle
 10
130.1159953388043
 20
84.5463147485432
 30
0.0
 40
17.68561287775973
100
AcDbArc
 50
178.7468693959468
 51
188.1418185861812
  0
ARC
  5
41B6
330
2
100
AcDbEntity
  8
KIJUN
100
AcDbCircle
 10
118.068599880698
 20
82.79894047732723
 30
0.0
 40
5.512229098206276
100
AcDbArc
 50
187.8968868600015
 51
227.9812896089986
  0
ARC
  5
41B7
330
2
100
AcDbEntity
  8
KIJUN
100
AcDbCircle
 10
115.8337197434691
 20
102.4955366694128
 30
0.0
 40
9.290095414729636
100
AcDbArc
 50
196.5509606555303
 51
243.5659173862596
  0
ENDSEC
  0
SECTION
  2
OBJECTS
  0
DICTIONARY
  5
1A
330
0
100
AcDbDictionary
281
     1
  3
ACAD_COLOR
350
144
  3
ACAD_GROUP
350
18
  3
ACAD_LAYOUT
350
58
  3
ACAD_MATERIAL
350
143
  3
ACAD_MLINESTYLE
350
19
  3
ACAD_PLOTSETTINGS
350
59
  3
ACAD_PLOTSTYLENAME
350
56
  3
ACAD_TABLESTYLE
350
145
  3
ACDBHEADERROUNDTRIPXREC
350
41E3
  3
AcDbVariableDictionary
350
1D1
  0
DICTIONARY
  5
1B4
330
A
100
AcDbDictionary
280
     1
281
     1
  3
ACAD_LAYERFILTERS
360
1A2A
  3
ACLYDICTIONARY
360
1A29
  0
DICTIONARY
  5
D13
330
2
100
AcDbDictionary
280
     1
281
     1
  3
ACAD_SORTENTS
360
D14
  0
DICTIONARY
  5
144
102
{ACAD_REACTORS
330
1A
102
}
330
1A
100
AcDbDictionary
281
     1
  0
DICTIONARY
  5
18
102
{ACAD_REACTORS
330
1A
102
}
330
1A
100
AcDbDictionary
281
     1
  3
*A1
350
E0D
  3
*A10
350
34BB
  3
*A11
350
35A5
  3
*A12
350
24D6
  3
*A13
350
FF8
  3
*A14
350
136A
  3
*A15
350
1555
  3
*A16
350
2A17
  3
*A17
350
17BC
  3
*A18
350
1A98
  3
*A19
350
1CBC
  3
*A2
350
307D
  3
*A20
350
3695
  3
*A21
350
36C9
  3
*A22
350
382B
  3
*A23
350
2573
  3
*A24
350
3878
  3
*A25
350
3988
  3
*A26
350
3A25
  3
*A27
350
3C81
  3
*A28
350
213E
  3
*A29
350
3E5C
  3
*A3
350
3181
  3
*A30
350
2B84
  3
*A31
350
2C6B
  3
*A32
350
2D78
  3
*A33
350
22C8
  3
*A34
350
1EFE
  3
*A35
350
241A
  3
*A37
350
265A
  3
*A38
350
26DD
  3
*A39
350
275E
  3
*A4
350
2905
  3
*A40
350
2EE1
  3
*A41
350
2F81
  3
*A5
350
31DF
  3
*A6
350
32E4
  3
*A7
350
3349
  3
*A8
350
2037
  3
*A9
350
3467
  0
DICTIONARY
  5
58
102
{ACAD_REACTORS
330
1A
102
}
330
1A
100
AcDbDictionary
281
     1
  3
Model
350
5A
  3
ﾚｲｱｳﾄ1
350
5B
  0
DICTIONARY
  5
143
102
{ACAD_REACTORS
330
1A
102
}
330
1A
100
AcDbDictionary
281
     1
  0
DICTIONARY
  5
19
102
{ACAD_REACTORS
330
1A
102
}
330
1A
100
AcDbDictionary
281
     1
  3
STANDARD
350
1D
  0
DICTIONARY
  5
59
102
{ACAD_REACTORS
330
1A
102
}
330
1A
100
AcDbDictionary
281
     1
  0
ACDBDICTIONARYWDFLT
  5
56
102
{ACAD_REACTORS
330
1A
102
}
330
1A
100
AcDbDictionary
281
     1
  3
Normal
350
57
100
AcDbDictionaryWithDefault
340
57
  0
DICTIONARY
  5
145
102
{ACAD_REACTORS
330
1A
102
}
330
1A
100
AcDbDictionary
281
     1
  3
Standard
350
146
  0
DICTIONARY
  5
41E3
102
{ACAD_REACTORS
330
1A
102
}
330
1A
100
AcDbDictionary
281
     1
  0
DICTIONARY
  5
1D1
102
{ACAD_REACTORS
330
1A
102
}
330
1A
100
AcDbDictionary
281
     1
  3
CTABLESTYLE
350
1D2
  3
DIMASSOC
350
D03
  3
PROJECTNAME
350
D04
  0
DICTIONARY
  5
1A2A
102
{ACAD_REACTORS
330
1B4
102
}
330
1B4
100
AcDbDictionary
281
     1
  0
DICTIONARY
  5
1A29
102
{ACAD_REACTORS
330
1B4
102
}
330
1B4
100
AcDbDictionary
281
     1
1001
ACAD
1000
<All
  0
SORTENTSTABLE
  5
D14
102
{ACAD_REACTORS
330
D13
102
}
330
D13
100
AcDbSortentsTable
330
2
331
3EF3
  5
3EF3
331
3EC9
  5
3EC9
331
3EF5
  5
3EF5
331
3EF7
  5
3EF7
331
3ECB
  5
3ECB
331
3ECD
  5
3ECD
331
3ECF
  5
3ECF
331
3ED1
  5
3ED1
331
3ED3
  5
3ED3
331
3ED5
  5
3ED5
331
1F
  5
1F
331
3EDD
  5
3EDD
331
3F03
  5
3F03
331
3F07
  5
3F07
331
3F09
  5
3F09
331
21
  5
21
331
3F0B
  5
3F0B
331
23
  5
23
331
3EF2
  5
3EF2
331
3EF4
  5
3EF4
331
3ECA
  5
3ECA
331
3ECC
  5
3ECC
331
3EF8
  5
3EF8
331
3ED0
  5
3ED0
331
3ED2
  5
3ED2
331
3ED6
  5
3ED6
331
3EDC
  5
3EDC
331
3F06
  5
3F06
331
3F08
  5
3F08
331
20
  5
20
331
3EE9
  5
3EE9
  0
GROUP
  5
E0D
102
{ACAD_REACTORS
330
18
102
}
330
18
100
AcDbGroup
300

 70
     1
 71
     1
  0
GROUP
  5
34BB
102
{ACAD_REACTORS
330
18
102
}
330
18
100
AcDbGroup
300

 70
     1
 71
     1
  0
GROUP
  5
35A5
102
{ACAD_REACTORS
330
18
102
}
330
18
100
AcDbGroup
300

 70
     1
 71
     1
  0
GROUP
  5
24D6
102
{ACAD_REACTORS
330
18
102
}
330
18
100
AcDbGroup
300

 70
     1
 71
     1
  0
GROUP
  5
FF8
102
{ACAD_REACTORS
330
18
102
}
330
18
100
AcDbGroup
300

 70
     1
 71
     1
  0
GROUP
  5
136A
102
{ACAD_REACTORS
330
18
102
}
330
18
100
AcDbGroup
300

 70
     1
 71
     1
  0
GROUP
  5
1555
102
{ACAD_REACTORS
330
18
102
}
330
18
100
AcDbGroup
300

 70
     1
 71
     1
  0
GROUP
  5
2A17
102
{ACAD_REACTORS
330
18
102
}
330
18
100
AcDbGroup
300

 70
     1
 71
     1
  0
GROUP
  5
17BC
102
{ACAD_REACTORS
330
18
102
}
330
18
100
AcDbGroup
300

 70
     1
 71
     1
  0
GROUP
  5
1A98
102
{ACAD_REACTORS
330
18
102
}
330
18
100
AcDbGroup
300

 70
     1
 71
     1
  0
GROUP
  5
1CBC
102
{ACAD_REACTORS
330
18
102
}
330
18
100
AcDbGroup
300

 70
     1
 71
     1
  0
GROUP
  5
307D
102
{ACAD_REACTORS
330
18
102
}
330
18
100
AcDbGroup
300

 70
     1
 71
     1
  0
GROUP
  5
3695
102
{ACAD_REACTORS
330
18
102
}
330
18
100
AcDbGroup
300

 70
     1
 71
     1
  0
GROUP
  5
36C9
102
{ACAD_REACTORS
330
18
102
}
330
18
100
AcDbGroup
300

 70
     1
 71
     1
  0
GROUP
  5
382B
102
{ACAD_REACTORS
330
18
102
}
330
18
100
AcDbGroup
300

 70
     1
 71
     1
  0
GROUP
  5
2573
102
{ACAD_REACTORS
330
18
102
}
330
18
100
AcDbGroup
300

 70
     1
 71
     1
  0
GROUP
  5
3878
102
{ACAD_REACTORS
330
18
102
}
330
18
100
AcDbGroup
300

 70
     1
 71
     1
  0
GROUP
  5
3988
102
{ACAD_REACTORS
330
18
102
}
330
18
100
AcDbGroup
300

 70
     1
 71
     1
  0
GROUP
  5
3A25
102
{ACAD_REACTORS
330
18
102
}
330
18
100
AcDbGroup
300

 70
     1
 71
     1
  0
GROUP
  5
3C81
102
{ACAD_REACTORS
330
18
102
}
330
18
100
AcDbGroup
300

 70
     1
 71
     1
  0
GROUP
  5
213E
102
{ACAD_REACTORS
330
18
102
}
330
18
100
AcDbGroup
300

 70
     1
 71
     1
  0
GROUP
  5
3E5C
102
{ACAD_REACTORS
330
18
102
}
330
18
100
AcDbGroup
300

 70
     1
 71
     1
  0
GROUP
  5
3181
102
{ACAD_REACTORS
330
18
102
}
330
18
100
AcDbGroup
300

 70
     1
 71
     1
  0
GROUP
  5
2B84
102
{ACAD_REACTORS
330
18
102
}
330
18
100
AcDbGroup
300

 70
     1
 71
     1
  0
GROUP
  5
2C6B
102
{ACAD_REACTORS
330
18
102
}
330
18
100
AcDbGroup
300

 70
     1
 71
     1
  0
GROUP
  5
2D78
102
{ACAD_REACTORS
330
18
102
}
330
18
100
AcDbGroup
300

 70
     1
 71
     1
  0
GROUP
  5
22C8
102
{ACAD_REACTORS
330
18
102
}
330
18
100
AcDbGroup
300

 70
     1
 71
     1
  0
GROUP
  5
1EFE
102
{ACAD_REACTORS
330
18
102
}
330
18
100
AcDbGroup
300

 70
     1
 71
     1
  0
GROUP
  5
241A
102
{ACAD_REACTORS
330
18
102
}
330
18
100
AcDbGroup
300

 70
     1
 71
     1
  0
GROUP
  5
265A
102
{ACAD_REACTORS
330
18
102
}
330
18
100
AcDbGroup
300

 70
     1
 71
     1
  0
GROUP
  5
26DD
102
{ACAD_REACTORS
330
18
102
}
330
18
100
AcDbGroup
300

 70
     1
 71
     1
  0
GROUP
  5
275E
102
{ACAD_REACTORS
330
18
102
}
330
18
100
AcDbGroup
300

 70
     1
 71
     1
  0
GROUP
  5
2905
102
{ACAD_REACTORS
330
18
102
}
330
18
100
AcDbGroup
300

 70
     1
 71
     1
  0
GROUP
  5
2EE1
102
{ACAD_REACTORS
330
18
102
}
330
18
100
AcDbGroup
300

 70
     1
 71
     1
  0
GROUP
  5
2F81
102
{ACAD_REACTORS
330
18
102
}
330
18
100
AcDbGroup
300

 70
     1
 71
     1
  0
GROUP
  5
31DF
102
{ACAD_REACTORS
330
18
102
}
330
18
100
AcDbGroup
300

 70
     1
 71
     1
  0
GROUP
  5
32E4
102
{ACAD_REACTORS
330
18
102
}
330
18
100
AcDbGroup
300

 70
     1
 71
     1
  0
GROUP
  5
3349
102
{ACAD_REACTORS
330
18
102
}
330
18
100
AcDbGroup
300

 70
     1
 71
     1
  0
GROUP
  5
2037
102
{ACAD_REACTORS
330
18
102
}
330
18
100
AcDbGroup
300

 70
     1
 71
     1
  0
GROUP
  5
3467
102
{ACAD_REACTORS
330
18
102
}
330
18
100
AcDbGroup
300

 70
     1
 71
     1
  0
LAYOUT
  5
5A
102
{ACAD_XDICTIONARY
360
41E4
102
}
102
{ACAD_REACTORS
330
58
102
}
330
58
100
AcDbPlotSettings
  1

  2
なし
  4

  6

 40
0.0
 41
0.0
 42
0.0
 43
0.0
 44
0.0
 45
0.0
 46
0.0
 47
0.0
 48
0.0
 49
0.0
140
0.0
141
0.0
142
1.0
143
1.0
 70
  1712
 72
     0
 73
     0
 74
     0
  7
monochrome.ctb
 75
     0
147
1.0
148
0.0
149
0.0
100
AcDbLayout
  1
Model
 70
     1
 71
     0
 10
0.0
 20
0.0
 11
12.0
 21
9.0
 12
0.0
 22
0.0
 32
0.0
 14
0.0
 24
0.0
 34
0.0
 15
0.0
 25
0.0
 35
0.0
146
0.0
 13
0.0
 23
0.0
 33
0.0
 16
1.0
 26
0.0
 36
0.0
 17
0.0
 27
1.0
 37
0.0
 76
     0
330
2
  0
LAYOUT
  5
5B
102
{ACAD_XDICTIONARY
360
41E6
102
}
102
{ACAD_REACTORS
330
58
102
}
330
58
100
AcDbPlotSettings
  1

  2
なし
  4

  6

 40
0.0
 41
0.0
 42
0.0
 43
0.0
 44
0.0
 45
0.0
 46
0.0
 47
0.0
 48
0.0
 49
0.0
140
0.0
141
0.0
142
1.0
143
1.0
 70
   688
 72
     0
 73
     0
 74
     5
  7
monochrome.ctb
 75
    16
147
1.0
148
0.0
149
0.0
100
AcDbLayout
  1
ﾚｲｱｳﾄ1
 70
     1
 71
     1
 10
0.0
 20
0.0
 11
12.0
 21
9.0
 12
0.0
 22
0.0
 32
0.0
 14
1.000000000000000E+20
 24
1.000000000000000E+20
 34
1.000000000000000E+20
 15
-1.000000000000000E+20
 25
-1.000000000000000E+20
 35
-1.000000000000000E+20
146
0.0
 13
0.0
 23
0.0
 33
0.0
 16
1.0
 26
0.0
 36
0.0
 17
0.0
 27
1.0
 37
0.0
 76
     0
330
7
  0
MLINESTYLE
  5
1D
102
{ACAD_REACTORS
330
19
102
}
330
19
100
AcDbMlineStyle
  2
STANDARD
 70
     0
  3

 62
   256
 51
90.0
 52
90.0
 71
     2
 49
0.5
 62
   256
  6
BYLAYER
 49
-0.5
 62
   256
  6
BYLAYER
  0
ACDBPLACEHOLDER
  5
57
102
{ACAD_REACTORS
330
56
102
}
330
56
  0
TABLESTYLE
  5
146
102
{ACAD_REACTORS
330
145
102
}
330
145
100
AcDbTableStyle
  3
Standard
 70
     0
 71
     0
 40
0.06
 41
0.06
280
     0
281
     0
  7
STANDARD
140
0.18
170
     2
 62
     0
 63
     7
283
     0
274
    -2
284
     1
 64
     0
275
    -2
285
     1
 65
     0
276
    -2
286
     1
 66
     0
277
    -2
287
     1
 67
     0
278
    -2
288
     1
 68
     0
279
    -2
289
     1
 69
     0
  7
STANDARD
140
0.25
170
     5
 62
     0
 63
     7
283
     0
274
    -2
284
     1
 64
     0
275
    -2
285
     1
 65
     0
276
    -2
286
     1
 66
     0
277
    -2
287
     1
 67
     0
278
    -2
288
     1
 68
     0
279
    -2
289
     1
 69
     0
  7
STANDARD
140
0.18
170
     5
 62
     0
 63
     7
283
     0
274
    -2
284
     1
 64
     0
275
    -2
285
     1
 65
     0
276
    -2
286
     1
 66
     0
277
    -2
287
     1
 67
     0
278
    -2
288
     1
 68
     0
279
    -2
289
     1
 69
     0
  0
DICTIONARYVAR
  5
1D2
102
{ACAD_REACTORS
330
1D1
102
}
330
1D1
100
DictionaryVariables
280
     0
  1
STANDARD
  0
DICTIONARYVAR
  5
D03
102
{ACAD_REACTORS
330
1D1
102
}
330
1D1
100
DictionaryVariables
280
     0
  1
1
  0
DICTIONARYVAR
  5
D04
102
{ACAD_REACTORS
330
1D1
102
}
330
1D1
100
DictionaryVariables
280
     0
  1

  0
DICTIONARY
  5
41E4
330
5A
100
AcDbDictionary
280
     1
281
     1
  3
ACAD_XREC_ROUNDTRIP
360
41E5
  0
DICTIONARY
  5
41E6
330
5B
100
AcDbDictionary
280
     1
281
     1
  3
ACAD_XREC_ROUNDTRIP
360
41E7
  0
XRECORD
  5
41E5
102
{ACAD_REACTORS
330
41E4
102
}
330
41E4
100
AcDbXrecord
280
     1
102
SHADEPLOT
 70
     0
102
SHADEPLOTRESLEVEL
 70
     2
102
SHADEPLOTCUSTOMDPI
 70
   300
  0
XRECORD
  5
41E7
102
{ACAD_REACTORS
330
41E6
102
}
330
41E6
100
AcDbXrecord
280
     1
102
SHADEPLOT
 70
     0
102
SHADEPLOTRESLEVEL
 70
     2
102
SHADEPLOTCUSTOMDPI
 70
   300
  0
ENDSEC
  0
EOF
