  0
SECTION
  2
HEADER
  9
$ACADVER
  1
AC1015
  9
$ACADMAINTVER
 70
    20
  9
$DWGCODEPAGE
  3
ANSI_932
  9
$INSBASE
 10
922.019522
 20
-675.4306699999999
 30
0.0
  9
$EXTMIN
 10
-116.1826711863439
 20
-0.0005638866324489
 30
-0.0000000000112498
  9
$EXTMAX
 10
245.9302356282531
 20
281.7677690388745
 30
0.0000000000002956
  9
$LIMMIN
 10
0.0
 20
0.0
  9
$LIMMAX
 10
420.0
 20
297.0
  9
$ORTHOMODE
 70
     1
  9
$REGENMODE
 70
     1
  9
$FILLMODE
 70
     1
  9
$QTEXTMODE
 70
     0
  9
$MIRRTEXT
 70
     1
  9
$LTSCALE
 40
1.0
  9
$ATTMODE
 70
     1
  9
$TEXTSIZE
 40
30.0
  9
$TRACEWID
 40
0.05
  9
$TEXTSTYLE
  7
SUNPOU
  9
$CLAYER
  8
0
  9
$CELTYPE
  6
BYLAYER
  9
$CECOLOR
 62
   256
  9
$CELTSCALE
 40
1.0
  9
$DISPSILH
 70
     0
  9
$DIMSCALE
 40
1.0
  9
$DIMASZ
 40
2.0
  9
$DIMEXO
 40
10.0
  9
$DIMDLI
 40
0.38
  9
$DIMRND
 40
0.0
  9
$DIMDLE
 40
0.0
  9
$DIMEXE
 40
0.0
  9
$DIMTP
 40
0.0
  9
$DIMTM
 40
0.0
  9
$DIMTXT
 40
5.0
  9
$DIMCEN
 40
0.0
  9
$DIMTSZ
 40
0.0
  9
$DIMTOL
 70
     0
  9
$DIMLIM
 70
     0
  9
$DIMTIH
 70
     0
  9
$DIMTOH
 70
     0
  9
$DIMSE1
 70
     0
  9
$DIMSE2
 70
     0
  9
$DIMTAD
 70
     1
  9
$DIMZIN
 70
     0
  9
$DIMBLK
  1
Dot
  9
$DIMASO
 70
     1
  9
$DIMSHO
 70
     1
  9
$DIMPOST
  1

  9
$DIMAPOST
  1

  9
$DIMALT
 70
     0
  9
$DIMALTD
 70
     2
  9
$DIMALTF
 40
25.4
  9
$DIMLFAC
 40
1.0
  9
$DIMTOFL
 70
     0
  9
$DIMTVP
 40
0.0
  9
$DIMTIX
 70
     0
  9
$DIMSOXD
 70
     0
  9
$DIMSAH
 70
     0
  9
$DIMBLK1
  1

  9
$DIMBLK2
  1

  9
$DIMSTYLE
  2
STANDARD
  9
$DIMCLRD
 70
    60
  9
$DIMCLRE
 70
    70
  9
$DIMCLRT
 70
    60
  9
$DIMTFAC
 40
0.064286
  9
$DIMGAP
 40
3.0
  9
$DIMJUST
 70
     0
  9
$DIMSD1
 70
     0
  9
$DIMSD2
 70
     0
  9
$DIMTOLJ
 70
     1
  9
$DIMTZIN
 70
     0
  9
$DIMALTZ
 70
     0
  9
$DIMALTTZ
 70
     0
  9
$DIMUPT
 70
     0
  9
$DIMDEC
 70
     0
  9
$DIMTDEC
 70
     0
  9
$DIMALTU
 70
     2
  9
$DIMALTTD
 70
     2
  9
$DIMTXSTY
  7
SUNPOU
  9
$DIMAUNIT
 70
     0
  9
$DIMADEC
 70
     0
  9
$DIMALTRND
 40
0.0
  9
$DIMAZIN
 70
     0
  9
$DIMDSEP
 70
    46
  9
$DIMATFIT
 70
     3
  9
$DIMFRAC
 70
     0
  9
$DIMLDRBLK
  1

  9
$DIMLUNIT
 70
     2
  9
$DIMLWD
 70
    -2
  9
$DIMLWE
 70
    -2
  9
$DIMTMOVE
 70
     0
  9
$LUNITS
 70
     2
  9
$LUPREC
 70
     5
  9
$SKETCHINC
 40
0.1
  9
$FILLETRAD
 40
0.0
  9
$AUNITS
 70
     0
  9
$AUPREC
 70
     0
  9
$MENU
  1
acad
  9
$ELEVATION
 40
0.0
  9
$PELEVATION
 40
0.0
  9
$THICKNESS
 40
0.0
  9
$LIMCHECK
 70
     0
  9
$CHAMFERA
 40
0.0
  9
$CHAMFERB
 40
0.0
  9
$CHAMFERC
 40
0.0
  9
$CHAMFERD
 40
0.0
  9
$SKPOLY
 70
     0
  9
$TDCREATE
 40
2450623.654673033
  9
$TDUCREATE
 40
2450623.279673032
  9
$TDUPDATE
 40
2454585.395010104
  9
$TDUUPDATE
 40
2454585.020010104
  9
$TDINDWG
 40
0.6350884259
  9
$TDUSRTIMER
 40
0.6350882523
  9
$USRTIMER
 70
     1
  9
$ANGBASE
 50
0.0
  9
$ANGDIR
 70
     0
  9
$PDMODE
 70
     0
  9
$PDSIZE
 40
0.0
  9
$PLINEWID
 40
0.0
  9
$SPLFRAME
 70
     0
  9
$SPLINETYPE
 70
     6
  9
$SPLINESEGS
 70
     8
  9
$HANDSEED
  5
4195
  9
$SURFTAB1
 70
     6
  9
$SURFTAB2
 70
     6
  9
$SURFTYPE
 70
     6
  9
$SURFU
 70
     6
  9
$SURFV
 70
     6
  9
$UCSBASE
  2

  9
$UCSNAME
  2

  9
$UCSORG
 10
0.0
 20
0.0
 30
0.0
  9
$UCSXDIR
 10
1.0
 20
0.0
 30
0.0
  9
$UCSYDIR
 10
0.0
 20
1.0
 30
0.0
  9
$UCSORTHOREF
  2

  9
$UCSORTHOVIEW
 70
     0
  9
$UCSORGTOP
 10
0.0
 20
0.0
 30
0.0
  9
$UCSORGBOTTOM
 10
0.0
 20
0.0
 30
0.0
  9
$UCSORGLEFT
 10
0.0
 20
0.0
 30
0.0
  9
$UCSORGRIGHT
 10
0.0
 20
0.0
 30
0.0
  9
$UCSORGFRONT
 10
0.0
 20
0.0
 30
0.0
  9
$UCSORGBACK
 10
0.0
 20
0.0
 30
0.0
  9
$PUCSBASE
  2

  9
$PUCSNAME
  2

  9
$PUCSORG
 10
0.0
 20
0.0
 30
0.0
  9
$PUCSXDIR
 10
1.0
 20
0.0
 30
0.0
  9
$PUCSYDIR
 10
0.0
 20
1.0
 30
0.0
  9
$PUCSORTHOREF
  2

  9
$PUCSORTHOVIEW
 70
     0
  9
$PUCSORGTOP
 10
0.0
 20
0.0
 30
0.0
  9
$PUCSORGBOTTOM
 10
0.0
 20
0.0
 30
0.0
  9
$PUCSORGLEFT
 10
0.0
 20
0.0
 30
0.0
  9
$PUCSORGRIGHT
 10
0.0
 20
0.0
 30
0.0
  9
$PUCSORGFRONT
 10
0.0
 20
0.0
 30
0.0
  9
$PUCSORGBACK
 10
0.0
 20
0.0
 30
0.0
  9
$USERI1
 70
     0
  9
$USERI2
 70
     0
  9
$USERI3
 70
     0
  9
$USERI4
 70
     0
  9
$USERI5
 70
     0
  9
$USERR1
 40
0.0
  9
$USERR2
 40
0.0
  9
$USERR3
 40
0.0
  9
$USERR4
 40
0.0
  9
$USERR5
 40
0.0
  9
$WORLDVIEW
 70
     1
  9
$SHADEDGE
 70
     3
  9
$SHADEDIF
 70
    70
  9
$TILEMODE
 70
     1
  9
$MAXACTVP
 70
    16
  9
$PINSBASE
 10
0.0
 20
0.0
 30
0.0
  9
$PLIMCHECK
 70
     0
  9
$PEXTMIN
 10
1.000000000000000E+20
 20
1.000000000000000E+20
 30
1.000000000000000E+20
  9
$PEXTMAX
 10
-1.000000000000000E+20
 20
-1.000000000000000E+20
 30
-1.000000000000000E+20
  9
$PLIMMIN
 10
0.0
 20
0.0
  9
$PLIMMAX
 10
12.0
 20
9.0
  9
$UNITMODE
 70
     0
  9
$VISRETAIN
 70
     0
  9
$PLINEGEN
 70
     0
  9
$PSLTSCALE
 70
     1
  9
$TREEDEPTH
 70
  3020
  9
$CMLSTYLE
  2
STANDARD
  9
$CMLJUST
 70
     0
  9
$CMLSCALE
 40
1.0
  9
$PROXYGRAPHICS
 70
     1
  9
$MEASUREMENT
 70
     0
  9
$CELWEIGHT
370
    -1
  9
$ENDCAPS
280
     0
  9
$JOINSTYLE
280
     0
  9
$LWDISPLAY
290
     0
  9
$INSUNITS
 70
     0
  9
$HYPERLINKBASE
  1

  9
$STYLESHEET
  1

  9
$XEDIT
290
     1
  9
$CEPSNTYPE
380
     0
  9
$PSTYLEMODE
290
     1
  9
$FINGERPRINTGUID
  2
{FB88A696-E29C-4009-92AF-A3599A8169D5}
  9
$VERSIONGUID
  2
{23F6A423-8BB2-4A97-BEBD-7D3BD6CFA007}
  9
$EXTNAMES
290
     1
  9
$PSVPSCALE
 40
0.0
  9
$OLESTARTUP
290
     0
  0
ENDSEC
  0
SECTION
  2
CLASSES
  0
CLASS
  1
DICTIONARYVAR
  2
AcDbDictionaryVar
  3
ObjectDBX Classes
 90
        0
280
     0
281
     0
  0
CLASS
  1
ACDBDICTIONARYWDFLT
  2
AcDbDictionaryWithDefault
  3
ObjectDBX Classes
 90
        0
280
     0
281
     0
  0
CLASS
  1
ACDBPLACEHOLDER
  2
AcDbPlaceHolder
  3
ObjectDBX Classes
 90
        0
280
     0
281
     0
  0
CLASS
  1
LAYOUT
  2
AcDbLayout
  3
ObjectDBX Classes
 90
        0
280
     0
281
     0
  0
CLASS
  1
TABLESTYLE
  2
AcDbTableStyle
  3
ObjectDBX Classes
 90
     2047
280
     0
281
     0
  0
CLASS
  1
SORTENTSTABLE
  2
AcDbSortentsTable
  3
ObjectDBX Classes
 90
        0
280
     0
281
     0
  0
ENDSEC
  0
SECTION
  2
TABLES
  0
TABLE
  2
VPORT
  5
12
330
0
100
AcDbSymbolTable
 70
     3
  0
VPORT
  5
418F
330
12
100
AcDbSymbolTableRecord
100
AcDbViewportTableRecord
  2
*Active
 70
     0
 10
0.0
 20
0.0
 11
1.0
 21
1.0
 12
64.87378222095459
 22
140.883602576121
 13
0.0
 23
0.0
 14
1.0
 24
1.0
 15
0.0
 25
0.0
 16
0.0
 26
0.0
 36
1.0
 17
0.0
 27
0.0
 37
0.0
 40
283.9165031892338
 41
1.530534351145038
 42
50.0
 43
0.0
 44
0.0
 50
0.0
 51
0.0
 71
     0
 72
 20000
 73
     1
 74
     1
 75
     0
 76
     0
 77
     0
 78
     0
281
     0
 65
     1
110
0.0
120
0.0
130
0.0
111
1.0
121
0.0
131
0.0
112
0.0
122
1.0
132
0.0
 79
     0
146
0.0
  0
ENDTAB
  0
TABLE
  2
LTYPE
  5
D
330
0
100
AcDbSymbolTable
 70
     2
  0
LTYPE
  5
E
330
D
100
AcDbSymbolTableRecord
100
AcDbLinetypeTableRecord
  2
BYBLOCK
 70
     0
  3

 72
    65
 73
     0
 40
0.0
  0
LTYPE
  5
F
330
D
100
AcDbSymbolTableRecord
100
AcDbLinetypeTableRecord
  2
BYLAYER
 70
     0
  3

 72
    65
 73
     0
 40
0.0
  0
LTYPE
  5
5
330
D
100
AcDbSymbolTableRecord
100
AcDbLinetypeTableRecord
  2
CONTINUOUS
 70
     0
  3
Solid line
 72
    65
 73
     0
 40
0.0
  0
ENDTAB
  0
TABLE
  2
LAYER
  5
A
102
{ACAD_XDICTIONARY
360
1B4
102
}
330
0
100
AcDbSymbolTable
 70
     6
  0
LAYER
  5
4
330
A
100
AcDbSymbolTableRecord
100
AcDbLayerTableRecord
  2
0
 70
     0
 62
     7
  6
CONTINUOUS
370
    -3
390
57
  0
LAYER
  5
25
330
A
100
AcDbSymbolTableRecord
100
AcDbLayerTableRecord
  2
KIJUN
 70
     0
 62
     7
  6
CONTINUOUS
370
    -3
390
57
  0
LAYER
  5
22
330
A
100
AcDbSymbolTableRecord
100
AcDbLayerTableRecord
  2
HOJO
 70
     0
 62
     3
  6
CONTINUOUS
370
    -3
390
57
  0
LAYER
  5
1B
330
A
100
AcDbSymbolTableRecord
100
AcDbLayerTableRecord
  2
WAKU
 70
     0
 62
     1
  6
CONTINUOUS
370
    -3
390
57
  0
LAYER
  5
31
330
A
100
AcDbSymbolTableRecord
100
AcDbLayerTableRecord
  2
DEFPOINTS
 70
     0
 62
     7
  6
CONTINUOUS
290
     0
370
    -3
390
57
  0
LAYER
  5
28
330
A
100
AcDbSymbolTableRecord
100
AcDbLayerTableRecord
  2
SUNPOU
 70
     0
 62
    70
  6
CONTINUOUS
370
    -3
390
57
  0
ENDTAB
  0
TABLE
  2
STYLE
  5
B
330
0
100
AcDbSymbolTable
 70
     3
  0
STYLE
  5
C
330
B
100
AcDbSymbolTableRecord
100
AcDbTextStyleTableRecord
  2
STANDARD
 70
     0
 40
0.0
 41
1.0
 50
0.0
 71
     0
 42
0.2
  3
txt
  4

  0
STYLE
  5
1C
330
B
100
AcDbSymbolTableRecord
100
AcDbTextStyleTableRecord
  2
SUNPOU
 70
     0
 40
0.0
 41
1.0
 50
0.0
 71
     0
 42
30.0
  3
txt
  4
bigfont
  0
ENDTAB
  0
TABLE
  2
VIEW
  5
10
330
0
100
AcDbSymbolTable
 70
     0
  0
ENDTAB
  0
TABLE
  2
UCS
  5
11
330
0
100
AcDbSymbolTable
 70
     0
  0
ENDTAB
  0
TABLE
  2
APPID
  5
14
330
0
100
AcDbSymbolTable
 70
    10
  0
APPID
  5
15
330
14
100
AcDbSymbolTableRecord
100
AcDbRegAppTableRecord
  2
ACAD
 70
     0
  0
APPID
  5
1D3
330
14
100
AcDbSymbolTableRecord
100
AcDbRegAppTableRecord
  2
ACAD_DSTYLE_DIMTEXT_FILL
 70
     0
  0
APPID
  5
1D4
330
14
100
AcDbSymbolTableRecord
100
AcDbRegAppTableRecord
  2
ACAD_DSTYLE_DIMEXT_LENGTH
 70
     0
  0
APPID
  5
1D5
330
14
100
AcDbSymbolTableRecord
100
AcDbRegAppTableRecord
  2
ACAD_DSTYLE_DIMEXT_ENABLED
 70
     0
  0
APPID
  5
1D6
330
14
100
AcDbSymbolTableRecord
100
AcDbRegAppTableRecord
  2
ACAD_DSTYLE_DIM_LINETYPE
 70
     0
  0
APPID
  5
1D7
330
14
100
AcDbSymbolTableRecord
100
AcDbRegAppTableRecord
  2
ACAD_DSTYLE_DIM_EXT1_LINETYPE
 70
     0
  0
APPID
  5
1D8
330
14
100
AcDbSymbolTableRecord
100
AcDbRegAppTableRecord
  2
ACAD_DSTYLE_DIM_EXT2_LINETYPE
 70
     0
  0
APPID
  5
294
330
14
100
AcDbSymbolTableRecord
100
AcDbRegAppTableRecord
  2
ACAD_DSTYLE_DIMJOGGED_JOGANGLE_SYMBOL
 70
     0
  0
APPID
  5
478
330
14
100
AcDbSymbolTableRecord
100
AcDbRegAppTableRecord
  2
ACAD_DSTYLE_DIMARC_LENGTH_SYMBOL
 70
     0
  0
APPID
  5
F55
330
14
100
AcDbSymbolTableRecord
100
AcDbRegAppTableRecord
  2
ACAD_EXEMPT_FROM_CAD_STANDARDS
 70
     0
  0
ENDTAB
  0
TABLE
  2
DIMSTYLE
  5
16
330
0
100
AcDbSymbolTable
 70
     3
100
AcDbDimStyleTable
 71
     1
340
1E
  0
DIMSTYLE
105
1E
102
{ACAD_REACTORS
330
40C8
330
40D5
102
}
330
16
100
AcDbSymbolTableRecord
100
AcDbDimStyleTableRecord
  2
STANDARD
 70
     0
340
C
  0
ENDTAB
  0
TABLE
  2
BLOCK_RECORD
  5
1
330
0
100
AcDbSymbolTable
 70
     9
  0
BLOCK_RECORD
  5
2
102
{ACAD_XDICTIONARY
360
D13
102
}
330
1
100
AcDbSymbolTableRecord
100
AcDbBlockTableRecord
  2
*MODEL_SPACE
340
5A
  0
BLOCK_RECORD
  5
7
330
1
100
AcDbSymbolTableRecord
100
AcDbBlockTableRecord
  2
*PAPER_SPACE
340
5B
  0
BLOCK_RECORD
  5
109
330
1
100
AcDbSymbolTableRecord
100
AcDbBlockTableRecord
  2
_Dot
340
0
102
{BLKREFS
331
3E4D
331
3E4E
331
3E56
331
3E57
331
40A3
331
40A4
331
40AC
331
40AD
331
417A
331
417B
331
4183
331
4184
102
}
  0
BLOCK_RECORD
  5
40C9
330
1
100
AcDbSymbolTableRecord
100
AcDbBlockTableRecord
  2
*D7
340
0
  0
BLOCK_RECORD
  5
40D6
330
1
100
AcDbSymbolTableRecord
100
AcDbBlockTableRecord
  2
*D8
340
0
  0
ENDTAB
  0
ENDSEC
  0
SECTION
  2
BLOCKS
  0
BLOCK
  5
3
330
2
100
AcDbEntity
  8
0
100
AcDbBlockBegin
  2
*MODEL_SPACE
 70
     0
 10
0.0
 20
0.0
 30
0.0
  3
*MODEL_SPACE
  1

  0
ENDBLK
  5
6
330
2
100
AcDbEntity
  8
0
100
AcDbBlockEnd
  0
BLOCK
  5
8
330
7
100
AcDbEntity
 67
     1
  8
0
100
AcDbBlockBegin
  2
*PAPER_SPACE
 70
     0
 10
0.0
 20
0.0
 30
0.0
  3
*PAPER_SPACE
  1

  0
ENDBLK
  5
9
330
7
100
AcDbEntity
 67
     1
  8
0
100
AcDbBlockEnd
  0
BLOCK
  5
10C
330
109
100
AcDbEntity
  8
0
100
AcDbBlockBegin
  2
_Dot
 70
     0
 10
0.0
 20
0.0
 30
0.0
  3
_Dot
  1

  0
LWPOLYLINE
  5
10A
330
109
100
AcDbEntity
  8
0
  6
ByBlock
 62
     0
100
AcDbPolyline
 90
        2
 70
     1
 43
0.5
 10
-0.25
 20
0.0
 42
1.0
 10
0.25
 20
0.0
 42
1.0
  0
LINE
  5
10B
330
109
100
AcDbEntity
  8
0
  6
ByBlock
 62
     0
370
    -2
100
AcDbLine
 10
-0.5
 20
0.0
 30
0.0
 11
-1.0
 21
0.0
 31
0.0
  0
ENDBLK
  5
10D
330
109
100
AcDbEntity
  8
0
100
AcDbBlockEnd
  0
BLOCK
  5
40D3
330
40C9
100
AcDbEntity
  8
0
100
AcDbBlockBegin
  2
*D7
 70
     1
 10
0.0
 20
0.0
 30
0.0
  3
*D7
  1

  0
LINE
  5
4180
330
40C9
100
AcDbEntity
  8
SUNPOU
 62
    70
370
    -2
100
AcDbLine
 10
74.91135322548515
 20
248.520395622371
 30
0.0
 11
-108.1767630397864
 21
248.5203956223711
 31
0.0
  0
LINE
  5
4181
330
40C9
100
AcDbEntity
  8
SUNPOU
 62
    70
370
    -2
100
AcDbLine
 10
-72.09833927093306
 20
46.52039562237103
 30
0.0
 11
-108.1767630397864
 21
46.52039562237104
 31
0.0
  0
LINE
  5
4182
330
40C9
100
AcDbEntity
  8
SUNPOU
 62
    60
370
    -2
100
AcDbLine
 10
-108.1767630397864
 20
246.5203956223711
 30
0.0
 11
-108.1767630397864
 21
48.52039562237104
 31
0.0
  0
INSERT
  5
4183
330
40C9
100
AcDbEntity
  8
SUNPOU
 62
    60
370
    -2
100
AcDbBlockReference
  2
_Dot
 10
-108.1767630397864
 20
248.5203956223711
 30
0.0
 41
2.0
 42
2.0
 43
2.0
 50
90.0
  0
INSERT
  5
4184
330
40C9
100
AcDbEntity
  8
SUNPOU
 62
    60
370
    -2
100
AcDbBlockReference
  2
_Dot
 10
-108.1767630397864
 20
46.52039562237104
 30
0.0
 41
2.0
 42
2.0
 43
2.0
 50
270.0
  0
MTEXT
  5
4185
330
40C9
100
AcDbEntity
  8
SUNPOU
 62
    60
100
AcDbMText
 10
-113.6767630397864
 20
147.520395622371
 30
0.0
 40
5.0
 41
0.0
 71
     5
 72
     1
  1
\A1;202
  7
SUNPOU
 11
0.0000000000000001
 21
1.0
 31
0.0
 73
     1
 44
1.0
1001
ACAD
1000
MTEXTBEGIN
1070
    73
1070
     1
1070
    44
1040
1.0
1070
    74
1070
     0
1000
MTEXTEND
  0
POINT
  5
4186
330
40C9
100
AcDbEntity
  8
DEFPOINTS
 62
     0
100
AcDbPoint
 10
84.91135322548515
 20
248.520395622371
 30
0.0
  0
POINT
  5
4187
330
40C9
100
AcDbEntity
  8
DEFPOINTS
 62
     0
100
AcDbPoint
 10
-62.09833927093308
 20
46.52039562237103
 30
0.0
  0
POINT
  5
4188
330
40C9
100
AcDbEntity
  8
DEFPOINTS
 62
     0
100
AcDbPoint
 10
-108.1767630397864
 20
46.52039562237104
 30
0.0
  0
ENDBLK
  5
40D4
330
40C9
100
AcDbEntity
  8
0
100
AcDbBlockEnd
  0
BLOCK
  5
40E0
330
40D6
100
AcDbEntity
  8
0
100
AcDbBlockBegin
  2
*D8
 70
     1
 10
0.0
 20
0.0
 30
0.0
  3
*D8
  1

  0
LINE
  5
4177
330
40D6
100
AcDbEntity
  8
SUNPOU
 62
    70
370
    -2
100
AcDbLine
 10
-75.08864677451642
 20
81.88928970814552
 30
0.0
 11
-75.0886467745164
 21
273.746196871832
 31
0.0
  0
LINE
  5
4178
330
40D6
100
AcDbEntity
  8
SUNPOU
 62
    70
370
    -2
100
AcDbLine
 10
244.9113532254836
 20
81.88928970814552
 30
0.0
 11
244.9113532254836
 21
273.746196871832
 31
0.0
  0
LINE
  5
4179
330
40D6
100
AcDbEntity
  8
SUNPOU
 62
    60
370
    -2
100
AcDbLine
 10
-73.08864677451641
 20
273.746196871832
 30
0.0
 11
242.9113532254836
 21
273.746196871832
 31
0.0
  0
INSERT
  5
417A
330
40D6
100
AcDbEntity
  8
SUNPOU
 62
    60
370
    -2
100
AcDbBlockReference
  2
_Dot
 10
-75.0886467745164
 20
273.746196871832
 30
0.0
 41
2.0
 42
2.0
 43
2.0
 50
180.0
  0
INSERT
  5
417B
330
40D6
100
AcDbEntity
  8
SUNPOU
 62
    60
370
    -2
100
AcDbBlockReference
  2
_Dot
 10
244.9113532254836
 20
273.746196871832
 30
0.0
 41
2.0
 42
2.0
 43
2.0
  0
MTEXT
  5
417C
330
40D6
100
AcDbEntity
  8
SUNPOU
 62
    60
100
AcDbMText
 10
84.91135322548357
 20
279.246196871832
 30
0.0
 40
5.0
 41
0.0
 71
     5
 72
     1
  1
\A1;320
  7
SUNPOU
 73
     1
 44
1.0
1001
ACAD
1000
MTEXTBEGIN
1070
    73
1070
     1
1070
    44
1040
1.0
1070
    74
1070
     0
1000
MTEXTEND
  0
POINT
  5
417D
330
40D6
100
AcDbEntity
  8
DEFPOINTS
 62
     0
100
AcDbPoint
 10
-75.08864677451642
 20
71.88928970814552
 30
0.0
  0
POINT
  5
417E
330
40D6
100
AcDbEntity
  8
DEFPOINTS
 62
     0
100
AcDbPoint
 10
244.9113532254836
 20
71.88928970814552
 30
0.0
  0
POINT
  5
417F
330
40D6
100
AcDbEntity
  8
DEFPOINTS
 62
     0
100
AcDbPoint
 10
244.9113532254836
 20
273.746196871832
 30
0.0
  0
ENDBLK
  5
40E1
330
40D6
100
AcDbEntity
  8
0
100
AcDbBlockEnd
  0
ENDSEC
  0
SECTION
  2
ENTITIES
  0
LINE
  5
1F
330
2
100
AcDbEntity
  8
WAKU
100
AcDbLine
 10
0.0
 20
14.0
 30
0.0
 11
148.6829221395387
 21
14.0
 31
0.0
  0
LINE
  5
20
330
2
100
AcDbEntity
  8
WAKU
100
AcDbLine
 10
0.0
 20
0.0
 30
0.0
 11
148.6829221395387
 21
0.0
 31
0.0
  0
TEXT
  5
21
330
2
100
AcDbEntity
  8
HOJO
100
AcDbText
 10
9.653966000000025
 20
2.366626000000024
 30
0.0
 40
9.0
  1
TC156
  7
SUNPOU
100
AcDbText
  0
TEXT
  5
23
330
2
100
AcDbEntity
  8
HOJO
100
AcDbText
 10
85.84696046283864
 20
5.044386000000031
 30
0.0
 40
6.0
  1
320×202×16
  7
SUNPOU
100
AcDbText
  0
SPLINE
  5
3EC9
330
2
100
AcDbEntity
  8
KIJUN
100
AcDbSpline
210
0.0
220
0.0
230
1.0
 70
     8
 71
     3
 72
    10
 73
     6
 74
     4
 42
0.0000000001
 43
0.0000000001
 44
0.0000000001
 40
0.0
 40
0.0
 40
0.0
 40
0.0
 40
8.255293929432923
 40
24.5116727766849
 40
40.41001057740476
 40
40.41001057740476
 40
40.41001057740476
 40
40.41001057740476
 10
-19.90207702937733
 20
132.2703956235664
 30
0.0
 10
-17.12061328691185
 20
132.6624075090064
 30
0.0
 10
-8.861872934560697
 20
133.826371765472
 30
0.0
 10
0.440182643269865
 20
145.3956856373553
 30
0.0
 10
4.034041008640629
 20
155.37508435527
 30
0.0
 10
5.810961481183845
 20
160.3092236792899
 30
0.0
 11
-19.90207702937733
 21
132.2703956235664
 31
0.0
 11
-11.85445271524399
 21
134.1104012648355
 31
0.0
 11
-0.4506915443180866
 21
145.6959130956466
 31
0.0
 11
5.810961481183845
 21
160.3092236792899
 31
0.0
  0
SPLINE
  5
3ECA
330
2
100
AcDbEntity
  8
KIJUN
100
AcDbSpline
210
0.0
220
0.0
230
1.0
 70
     8
 71
     3
 72
    13
 73
     9
 74
     7
 42
0.0000000001
 43
0.0000000001
 44
0.0000000001
 40
0.0
 40
0.0
 40
0.0
 40
0.0
 40
9.65521393338515
 40
21.42230019172728
 40
38.68147343701384
 40
54.22857684672387
 40
71.54221762352623
 40
78.97610647914376
 40
78.97610647914376
 40
78.97610647914376
 40
78.97610647914376
 10
-15.83864677347952
 20
114.8328956237455
 30
0.0
 10
-12.50648041794579
 20
115.8408375836776
 30
0.0
 10
-5.113307314841847
 20
118.0771873311275
 30
0.0
 10
-3.333036609489139
 20
132.5501002151777
 30
0.0
 10
3.903655656874412
 20
145.1195944679633
 30
0.0
 10
4.218487479638939
 20
163.1737522083249
 30
0.0
 10
16.02526645263959
 20
171.7239102520138
 30
0.0
 10
22.35285040125527
 20
176.895895333903
 30
0.0
 10
24.25358782827411
 20
178.4495034245994
 30
0.0
 11
-15.83864677347952
 21
114.8328956237455
 31
0.0
 11
-7.143702130087152
 21
119.0306442760325
 31
0.0
 11
-3.030869515390723
 21
130.0555672641877
 31
0.0
 11
2.764483862666597
 21
146.312656189769
 31
0.0
 11
6.316476222909184
 21
161.4485662947146
 31
0.0
 11
18.46802498292179
 21
173.7815310510572
 31
0.0
 11
24.25358782827411
 21
178.4495034245994
 31
0.0
  0
SPLINE
  5
3ECB
330
2
100
AcDbEntity
  8
KIJUN
100
AcDbSpline
210
0.0
220
0.0
230
1.0
 70
     8
 71
     3
 72
    10
 73
     6
 74
     4
 42
0.0000000001
 43
0.0000000001
 44
0.0000000001
 40
0.0
 40
0.0
 40
0.0
 40
0.0
 40
11.33280591391052
 40
28.70436545430448
 40
62.63190028028408
 40
62.63190028028408
 40
62.63190028028408
 40
62.63190028028408
 10
-6.151146773579124
 20
87.7078956240245
 30
0.0
 10
-6.16705976182966
 20
91.49539717411375
 30
0.0
 10
-6.207365069595741
 20
101.0885931997387
 30
0.0
 10
-1.202621570423533
 20
121.5431676901673
 30
0.0
 10
5.011116878485757
 20
137.4645469453157
 30
0.0
 10
9.12067924462157
 20
147.9944238530601
 30
0.0
 11
-6.151146773579124
 21
87.7078956240245
 31
0.0
 11
-5.835072537103425
 21
99.03629299344096
 31
0.0
 11
-2.283081926304642
 21
116.0408348445538
 31
0.0
 11
9.12067924462157
 21
147.9944238530601
 31
0.0
  0
SPLINE
  5
3ECC
330
2
100
AcDbEntity
  8
KIJUN
100
AcDbSpline
210
0.0
220
0.0
230
1.0
 70
     8
 71
     3
 72
     9
 73
     5
 74
     3
 42
0.0000000001
 43
0.0000000001
 44
0.0000000001
 40
0.0
 40
0.0
 40
0.0
 40
0.0
 40
11.08873532665004
 40
36.01174097569089
 40
36.01174097569089
 40
36.01174097569089
 40
36.01174097569089
 10
22.91135322612142
 20
114.8328956237455
 30
0.0
 10
20.5977104354767
 20
117.8207955479338
 30
0.0
 10
13.08393159302119
 20
127.5242896761194
 30
0.0
 10
14.16668242691981
 20
140.1740757772361
 30
0.0
 10
14.91603262267889
 20
148.9287397261441
 30
0.0
 11
22.91135322612142
 21
114.8328956237455
 31
0.0
 11
16.78550247011677
 21
124.0759472659065
 31
0.0
 11
14.91603262267889
 21
148.9287397261441
 31
0.0
  0
SPLINE
  5
3ECD
330
2
100
AcDbEntity
  8
KIJUN
100
AcDbSpline
210
0.0
220
0.0
230
1.0
 70
     8
 71
     3
 72
     9
 73
     5
 74
     3
 42
0.0000000001
 43
0.0000000001
 44
0.0000000001
 40
0.0
 40
0.0
 40
0.0
 40
0.0
 40
13.09037429270069
 40
41.33703067070068
 40
41.33703067070068
 40
41.33703067070068
 40
41.33703067070068
 10
26.78635322637541
 20
122.5828956234464
 30
0.0
 10
24.76147220409038
 20
126.5096346817422
 30
0.0
 10
18.3672647466772
 20
138.9095652917569
 30
0.0
 10
19.42664542652556
 20
153.0761893993069
 30
0.0
 10
20.15054749572712
 20
162.756608062902
 30
0.0
 11
26.78635322637541
 21
122.5828956234464
 31
0.0
 11
21.45917533926673
 21
134.5402814114061
 31
0.0
 11
20.15054749572712
 21
162.756608062902
 31
0.0
  0
SPLINE
  5
3ECF
330
2
100
AcDbEntity
  8
KIJUN
100
AcDbSpline
210
0.0
220
0.0
230
1.0
 70
     8
 71
     3
 72
    18
 73
    14
 74
    12
 42
0.0000000001
 43
0.0000000001
 44
0.0000000001
 40
0.0
 40
0.0
 40
0.0
 40
0.0
 40
7.241770261087761
 40
21.84566620314186
 40
28.00617587210548
 40
42.50113515470679
 40
51.53716860459043
 40
60.88445184710867
 40
73.02089513661306
 40
84.51294771576582
 40
92.49234524908354
 40
100.634253228882
 40
106.3798422903087
 40
106.3798422903087
 40
106.3798422903087
 40
106.3798422903087
 10
57.78635322576343
 20
134.2078956235456
 30
0.0
 10
55.3300358159497
 20
134.2076065645871
 30
0.0
 10
47.92026054151331
 20
134.2067345836637
 30
0.0
 10
40.22807308577887
 20
141.6011063798673
 30
0.0
 10
35.86486238068727
 20
152.5763331905376
 30
0.0
 10
39.13624188912809
 20
163.6449773129414
 30
0.0
 10
48.24755386537354
 20
169.9175189180037
 30
0.0
 10
59.16605146285007
 20
172.5402079493538
 30
0.0
 10
67.67931340414069
 20
163.0403289312057
 30
0.0
 10
69.46468230879353
 20
151.8736049539322
 30
0.0
 10
63.16439800186535
 20
143.6677822840747
 30
0.0
 10
53.4014624422743
 20
145.011459517475
 30
0.0
 10
53.01868933644263
 20
150.065702019012
 30
0.0
 10
52.86032696463825
 20
152.156762801558
 30
0.0
 11
57.78635322576343
 21
134.2078956235456
 31
0.0
 11
50.57230614054707
 21
134.8409526246572
 31
0.0
 11
39.45906813591255
 21
144.3156408907
 31
0.0
 11
37.32602705635291
 21
150.0950885402861
 31
0.0
 11
41.22830883805105
 21
164.054889452208
 31
0.0
 11
48.51941583756857
 21
169.3924599884167
 31
0.0
 11
57.76322598142135
 21
170.7794271979305
 31
0.0
 11
66.58844491140945
 21
162.4482348128552
 31
0.0
 11
67.73245357401077
 21
151.0132657852668
 31
0.0
 11
62.33926413071578
 21
145.1324246359543
 31
0.0
 11
54.33119649472886
 21
146.6026349232825
 31
0.0
 11
52.86032696463825
 21
152.156762801558
 31
0.0
  0
SPLINE
  5
3ED0
330
2
100
AcDbEntity
  8
KIJUN
100
AcDbSpline
210
0.0
220
0.0
230
1.0
 70
     8
 71
     3
 72
    13
 73
     9
 74
     7
 42
0.0000000001
 43
0.0000000001
 44
0.0000000001
 40
0.0
 40
0.0
 40
0.0
 40
0.0
 40
3.490656779978292
 40
7.443503705785856
 40
15.09602850035483
 40
24.55417350171815
 40
31.72627783472878
 40
39.55905668325732
 40
39.55905668325732
 40
39.55905668325732
 40
39.55905668325732
 10
84.91135322548453
 20
159.3953956232874
 30
0.0
 10
83.71716057888809
 20
159.3997991582556
 30
0.0
 10
81.17065487791283
 20
159.4091892905204
 30
0.0
 10
77.0607602858727
 20
155.662299143462
 30
0.0
 10
77.04425787075281
 20
148.197794846274
 30
0.0
 10
71.84525497861156
 20
141.3402067363604
 30
0.0
 10
64.83085822724397
 20
137.1153616883928
 30
0.0
 10
60.20245211107501
 20
135.2050878346212
 30
0.0
 10
57.78635322576469
 20
134.2078956235464
 30
0.0
 11
84.91135322548453
 21
159.3953956232874
 31
0.0
 11
81.44313481249451
 21
159.0002427472946
 31
0.0
 11
78.43348933424623
 21
156.4376204742848
 31
0.0
 11
76.3155896924546
 21
149.0840066117821
 31
0.0
 11
70.96510942538256
 21
141.2847202483712
 31
0.0
 11
64.94581846888538
 21
137.3850770666659
 31
0.0
 11
57.78635322576469
 21
134.2078956235464
 31
0.0
  0
ARC
  5
3ED1
330
2
100
AcDbEntity
  8
KIJUN
100
AcDbCircle
 10
65.53635322568405
 20
139.7337961822964
 30
0.0
 40
9.518302211211413
100
AcDbArc
 50
215.4896072141833
 51
324.5103927858046
  0
SPLINE
  5
3ED2
330
2
100
AcDbEntity
  8
KIJUN
100
AcDbSpline
210
0.0
220
0.0
230
1.0
 70
     8
 71
     3
 72
    10
 73
     6
 74
     4
 42
0.0000000001
 43
0.0000000001
 44
0.0000000001
 40
0.0
 40
0.0
 40
0.0
 40
0.0
 40
7.942077193706096
 40
23.5683761632138
 40
46.24555767721051
 40
46.24555767721051
 40
46.24555767721051
 40
46.24555767721051
 10
-31.33864677331983
 20
66.39539562424349
 30
0.0
 10
-30.27052545106038
 20
68.88804517944389
 30
0.0
 10
-27.10084017893664
 20
76.28506499267196
 30
0.0
 10
-10.92330298804327
 20
82.27284785074758
 30
0.0
 10
-7.394292768836372
 20
95.42267547700056
 30
0.0
 10
-5.304978578702431
 20
103.2078956239459
 30
0.0
 11
-31.33864677331983
 21
66.39539562424349
 31
0.0
 11
-27.55799208605569
 21
73.37989562685314
 31
0.0
 11
-15.0325504062221
 21
82.72304981639347
 31
0.0
 11
-5.304978578702431
 21
103.2078956239459
 31
0.0
  0
SPLINE
  5
3ED3
330
2
100
AcDbEntity
  8
KIJUN
100
AcDbSpline
210
0.0
220
0.0
230
1.0
 70
     8
 71
     3
 72
    10
 73
     6
 74
     4
 42
0.0000000001
 43
0.0000000001
 44
0.0000000001
 40
0.0
 40
0.0
 40
0.0
 40
0.0
 40
8.220594460569561
 40
29.44644973470267
 40
49.0115926661215
 40
49.0115926661215
 40
49.0115926661215
 40
49.0115926661215
 10
-35.21364677327999
 20
81.89539562408411
 30
0.0
 10
-32.42067495025271
 20
82.26544572544108
 30
0.0
 10
-22.41615462125498
 20
83.59097780967122
 30
0.0
 10
-13.22551058877792
 20
99.71767067879616
 30
0.0
 10
-7.876791061201895
 20
111.8481439026806
 30
0.0
 10
-5.311311748100589
 20
117.6664482563786
 30
0.0
 11
-35.21364677327999
 21
81.89539562408411
 31
0.0
 11
-27.18409916623472
 21
83.65736568947696
 31
0.0
 11
-13.53697522804932
 21
99.91445461505804
 31
0.0
 11
-5.311311748100589
 21
117.6664482563786
 31
0.0
  0
SPLINE
  5
3ED5
330
2
100
AcDbEntity
  8
KIJUN
100
AcDbSpline
210
0.0
220
0.0
230
1.0
 70
     8
 71
     3
 72
    10
 73
     6
 74
     4
 42
0.0000000001
 43
0.0000000001
 44
0.0000000001
 40
0.0
 40
0.0
 40
0.0
 40
0.0
 40
8.051777257472407
 40
15.09623381366709
 40
23.56354299288108
 40
23.56354299288108
 40
23.56354299288108
 40
23.56354299288108
 10
-54.7609759294454
 20
82.15361453053725
 30
0.0
 10
-57.52601355222706
 20
81.52994247683096
 30
0.0
 10
-62.71016769886096
 20
80.36062310239566
 30
0.0
 10
-66.05425330922372
 20
71.77534367498498
 30
0.0
 10
-63.19222516432269
 20
67.1738697134806
 30
0.0
 10
-61.62994801316825
 20
64.66209230678464
 30
0.0
 11
-54.7609759294454
 21
82.15361453053725
 31
0.0
 11
-62.19078826762176
 21
79.05055062152212
 31
0.0
 11
-64.80804570414571
 21
72.51034178058484
 31
0.0
 11
-61.62994801316825
 21
64.66209230678464
 31
0.0
  0
SPLINE
  5
3ED6
330
2
100
AcDbEntity
  8
KIJUN
100
AcDbSpline
210
0.0
220
0.0
230
1.0
 70
     8
 71
     3
 72
    11
 73
     7
 74
     5
 42
0.0000000001
 43
0.0000000001
 44
0.0000000001
 40
0.0
 40
0.0
 40
0.0
 40
0.0
 40
8.981384554992684
 40
16.57078900027475
 40
31.11171509342911
 40
41.00686359353883
 40
41.00686359353883
 40
41.00686359353883
 40
41.00686359353883
 10
-54.7609759294454
 20
82.15361453053692
 30
0.0
 10
-56.15521380686325
 20
79.2274467276923
 30
0.0
 10
-58.72760356942377
 20
73.82862331205524
 30
0.0
 10
-50.85536559429588
 20
64.13679710792118
 30
0.0
 10
-38.67027879496268
 20
68.46720445785982
 30
0.0
 10
-32.15466533201182
 20
72.97201717837518
 30
0.0
 10
-29.51623162863029
 20
74.7961968625774
 30
0.0
 11
-54.7609759294454
 21
82.15361453053692
 31
0.0
 11
-56.95627514401828
 21
73.44465765366831
 31
0.0
 11
-52.28260227486803
 21
67.46503879071091
 31
0.0
 11
-37.88769074759656
 21
69.52053234910613
 31
0.0
 11
-29.51623162863029
 21
74.7961968625774
 31
0.0
  0
ARC
  5
3EDC
330
2
100
AcDbEntity
  8
KIJUN
100
AcDbCircle
 10
-57.1027802208659
 20
51.73661865926519
 30
0.0
 40
7.222506005074239
100
AcDbArc
 50
154.5951486787773
 51
226.2378983145227
  0
ARC
  5
3EDD
330
2
100
AcDbEntity
  8
KIJUN
100
AcDbCircle
 10
23.121703915655
 20
119.5714702789294
 30
0.0
 40
4.743241209904672
100
AcDbArc
 50
267.4582442255744
 51
39.41165342027253
  0
ARC
  5
3EE9
330
2
100
AcDbEntity
  8
KIJUN
100
AcDbCircle
 10
84.91135322548437
 20
136.3391456235244
 30
0.0
 40
11.81874999987848
100
AcDbArc
 50
190.388857815472
 51
349.6111421845279
  0
SPLINE
  5
3EF2
330
2
100
AcDbEntity
  8
KIJUN
100
AcDbSpline
210
0.0
220
0.0
230
1.0
 70
     8
 71
     3
 72
    11
 73
     7
 74
     5
 42
0.0000000001
 43
0.0000000001
 44
0.0000000001
 40
0.0
 40
0.0
 40
0.0
 40
0.0
 40
9.709992060368948
 40
28.22494866679234
 40
39.61813758567235
 40
53.8263975660817
 40
53.8263975660817
 40
53.8263975660817
 40
53.8263975660817
 10
66.15053407959831
 20
163.3089977310381
 30
0.0
 10
65.15472343365992
 20
166.4957945979184
 30
0.0
 10
62.2601068172187
 20
175.7591572680391
 30
0.0
 10
44.718638411695
 20
179.6338858524716
 30
0.0
 10
34.14368594689132
 20
166.6536676828542
 30
0.0
 10
36.0679778787517
 20
157.9060880145895
 30
0.0
 10
37.13591900011673
 20
153.0513672284743
 30
0.0
 11
66.15053407959831
 21
163.3089977310381
 31
0.0
 11
62.02665423400129
 21
172.099763387766
 31
0.0
 11
43.89280476129912
 21
175.8370246094524
 31
0.0
 11
36.41492712099203
 21
167.2413222101202
 31
0.0
 11
37.13591900011673
 21
153.0513672284743
 31
0.0
  0
SPLINE
  5
3EF3
330
2
100
AcDbEntity
  8
KIJUN
100
AcDbSpline
210
0.0
220
0.0
230
1.0
 70
     8
 71
     3
 72
    12
 73
     8
 74
     6
 42
0.0000000001
 43
0.0000000001
 44
0.0000000001
 40
0.0
 40
0.0
 40
0.0
 40
0.0
 40
9.759895087021153
 40
32.47547941625777
 40
45.53408920167363
 40
53.5479135824355
 40
62.14251673832787
 40
62.14251673832787
 40
62.14251673832787
 40
62.14251673832787
 10
73.28635322560344
 20
174.1130326909136
 30
0.0
 10
71.03720630097592
 20
176.5019850740065
 30
0.0
 10
63.55330160695792
 20
184.4510842448288
 30
0.0
 10
46.96054693559916
 20
187.629427634147
 30
0.0
 10
32.96141553043977
 20
184.2566264978473
 30
0.0
 10
26.31091497602655
 20
171.2868388060112
 30
0.0
 10
24.07065364918688
 20
178.7719611358613
 30
0.0
 10
22.91135322612235
 20
182.6453956230452
 30
0.0
 11
73.28635322560344
 21
174.1130326909136
 31
0.0
 11
66.1460017781308
 21
180.7666732970957
 31
0.0
 11
44.08626702536381
 21
186.1857021820736
 31
0.0
 11
32.12166385054026
 21
180.9535362446476
 31
0.0
 11
26.78635322608219
 21
174.97391738169
 31
0.0
 11
22.91135322612235
 21
182.6453956230452
 31
0.0
  0
SPLINE
  5
3EF4
330
2
100
AcDbEntity
  8
KIJUN
100
AcDbSpline
210
0.0
220
0.0
230
1.0
 70
     8
 71
     3
 72
    12
 73
     8
 74
     6
 42
0.0000000001
 43
0.0000000001
 44
0.0000000001
 40
0.0
 40
0.0
 40
0.0
 40
0.0
 40
6.991997097467076
 40
13.73212970187125
 40
21.25871057048795
 40
32.92908535394562
 40
43.05881261909338
 40
43.05881261909338
 40
43.05881261909338
 40
43.05881261909338
 10
46.16135322588297
 20
209.7703956227694
 30
0.0
 10
45.87907013749615
 20
207.0537726602552
 30
0.0
 10
45.3246723126205
 20
201.7183844510923
 30
0.0
 10
53.87704998823369
 20
200.6003498777773
 30
0.0
 10
61.75393609503649
 20
198.6860531976075
 30
0.0
 10
71.07855525998484
 20
193.6757588024922
 30
0.0
 10
74.09275501126289
 20
186.9033696194859
 30
0.0
 10
75.4933457669872
 20
183.7564827285744
 30
0.0
 11
46.16135322588297
 21
209.7703956227694
 31
0.0
 11
46.89047004707712
 21
202.8165181380822
 31
0.0
 11
53.24666542903211
 21
200.5741604968112
 31
0.0
 11
60.5375939852619
 21
198.7055298859681
 31
0.0
 11
70.44577997801659
 21
192.5390480754586
 31
0.0
 11
75.4933457669872
 21
183.7564827285744
 31
0.0
  0
ARC
  5
3EF5
330
2
100
AcDbEntity
  8
KIJUN
100
AcDbCircle
 10
44.84154045388199
 20
183.2349480135085
 30
0.0
 40
38.20229141232456
100
AcDbArc
 50
6.682738791022055
 51
68.17839175419914
  0
ARC
  5
3EF7
330
2
100
AcDbEntity
  8
KIJUN
100
AcDbCircle
 10
39.54335235235053
 20
185.2272963219022
 30
0.0
 40
16.83120928969763
100
AcDbArc
 50
93.85639365988355
 51
188.8239898319288
  0
ARC
  5
3EF8
330
2
100
AcDbEntity
  8
KIJUN
100
AcDbCircle
 10
48.00179093800271
 20
200.1799579107292
 30
0.0
 40
9.7654342699501
100
AcDbArc
 50
100.8631878726752
 51
169.136812127324
  0
CIRCLE
  5
3F03
330
2
100
AcDbEntity
  8
KIJUN
100
AcDbCircle
 10
84.91135322548437
 20
165.2078956232276
 30
0.0
 40
5.812499999940233
  0
ARC
  5
3F06
330
2
100
AcDbEntity
  8
KIJUN
100
AcDbCircle
 10
60.29992365830732
 20
215.1133633765904
 30
0.0
 40
11.42740122078401
100
AcDbArc
 50
9.595000100913273
 51
62.72675796730018
  0
ARC
  5
3F07
330
2
100
AcDbEntity
  8
KIJUN
100
AcDbCircle
 10
89.54341071455049
 20
265.3481022484083
 30
0.0
 40
31.30694285478897
100
AcDbArc
 50
237.900892438613
 51
261.3607121775134
  0
SPLINE
  5
3F08
330
2
100
AcDbEntity
  8
KIJUN
100
AcDbSpline
210
0.0
220
0.0
230
1.0
 70
     8
 71
     3
 72
     9
 73
     5
 74
     3
 42
0.0000000001
 43
0.0000000001
 44
0.0000000001
 40
0.0
 40
0.0
 40
0.0
 40
0.0
 40
10.63421940922719
 40
23.71462611044258
 40
23.71462611044258
 40
23.71462611044258
 40
23.71462611044258
 10
73.28635322560406
 20
174.1130326909138
 30
0.0
 10
75.78468010007259
 20
171.263762664148
 30
0.0
 10
81.35602346339309
 20
164.9098056154704
 30
0.0
 10
78.56033536837021
 20
156.7788497100464
 30
0.0
 10
77.01830231575789
 20
152.2940136591942
 30
0.0
 11
73.28635322560406
 21
174.1130326909138
 31
0.0
 11
79.0988532255443
 21
165.2078956232276
 31
0.0
 11
77.01830231575789
 21
152.2940136591942
 31
0.0
  0
CIRCLE
  5
3F09
330
2
100
AcDbEntity
  8
KIJUN
100
AcDbCircle
 10
84.91135322548437
 20
165.2078956232276
 30
0.0
 40
5.812499999940233
  0
ARC
  5
3F0B
330
2
100
AcDbEntity
  8
KIJUN
100
AcDbCircle
 10
84.9113532254857
 20
236.2410022783834
 30
0.0
 40
12.27939334398764
100
AcDbArc
 50
12.15753050880845
 51
167.8424694912024
  0
ARC
  5
3F9B
330
2
100
AcDbEntity
  8
KIJUN
100
AcDbCircle
 10
78.25357513428592
 20
228.0598956537585
 30
0.0
 40
12.0213786763625
100
AcDbArc
 50
116.4057917736502
 51
155.7227588113101
  0
ARC
  5
3F9C
330
2
100
AcDbEntity
  8
KIJUN
100
AcDbCircle
 10
99.4154627073845
 20
221.6295602379481
 30
0.0
 40
34.07417998387186
100
AcDbArc
 50
160.5022156112765
 51
173.866220881111
  0
ARC
  5
3F9D
330
2
100
AcDbEntity
  8
KIJUN
100
AcDbCircle
 10
73.15294149757679
 20
162.3059884155145
 30
0.0
 40
63.42341044030537
100
AcDbArc
 50
96.89736128944501
 51
110.7139770064872
  0
ARC
  5
3F9E
330
2
100
AcDbEntity
  8
KIJUN
100
AcDbCircle
 10
67.39327656342175
 20
212.8427006800215
 30
0.0
 40
21.45305635511954
100
AcDbArc
 50
169.5291531770577
 51
188.2336726578339
  0
ARC
  5
3F9F
330
2
100
AcDbEntity
  8
KIJUN
100
AcDbCircle
 10
53.31629838936633
 20
214.8359060814834
 30
0.0
 40
7.272907948288529
100
AcDbArc
 50
110.9159110672499
 51
164.8106744588448
  0
ARC
  5
3FA5
330
2
100
AcDbEntity
  8
KIJUN
100
AcDbCircle
 10
41.94235304917073
 20
137.9076681078527
 30
0.0
 40
48.61731396826073
100
AcDbArc
 50
113.0444354955453
 51
163.1788607667608
  0
ARC
  5
3FA6
330
2
100
AcDbEntity
  8
KIJUN
100
AcDbCircle
 10
-14.55838653993647
 20
149.3057140379971
 30
0.0
 40
8.344094814172519
100
AcDbArc
 50
280.8990501074201
 51
331.3928554318902
  0
ARC
  5
3FA7
330
2
100
AcDbEntity
  8
KIJUN
100
AcDbCircle
 10
-33.32213292043158
 20
159.4904442208097
 30
0.0
 40
29.69371764200541
100
AcDbArc
 50
331.4752382145746
 51
345.342608049175
  0
ARC
  5
3FA8
330
2
100
AcDbEntity
  8
KIJUN
100
AcDbCircle
 10
-8.379575080748587
 20
108.3039031233854
 30
0.0
 40
33.12929386888247
100
AcDbArc
 50
97.98325258539739
 51
108.0283340707568
  0
ARC
  5
3FA9
330
2
100
AcDbEntity
  8
KIJUN
100
AcDbCircle
 10
-3.164296795809335
 20
136.7653898697123
 30
0.0
 40
17.33084707739689
100
AcDbArc
 50
178.6874084388361
 51
195.0323152724079
  0
ARC
  5
3FAA
330
2
100
AcDbEntity
  8
KIJUN
100
AcDbCircle
 10
-17.54398425856546
 20
137.0668852132638
 30
0.0
 40
2.948159264407689
100
AcDbArc
 50
111.6709997762855
 51
178.1436278993664
  0
ARC
  5
3FAB
330
2
100
AcDbEntity
  8
KIJUN
100
AcDbCircle
 10
-14.58410324798572
 20
109.3527566393538
 30
0.0
 40
23.52655992171976
100
AcDbArc
 50
103.0641168760241
 51
114.2661852411496
  0
ARC
  5
3FAD
330
2
100
AcDbEntity
  8
KIJUN
100
AcDbCircle
 10
-20.38976464958906
 20
122.8834962061793
 30
0.0
 40
8.809406465264972
100
AcDbArc
 50
116.0102020937242
 51
165.9386803856618
  0
ARC
  5
3FAE
330
2
100
AcDbEntity
  8
KIJUN
100
AcDbCircle
 10
-16.90307158943819
 20
121.4234778079464
 30
0.0
 40
12.55925396701495
100
AcDbArc
 50
163.3413388266715
 51
212.8648771820921
  0
ARC
  5
3FAF
330
2
100
AcDbEntity
  8
KIJUN
100
AcDbCircle
 10
-23.84428890149297
 20
117.1062169030131
 30
0.0
 40
4.38840386565311
100
AcDbArc
 50
214.6985872756661
 51
263.1648431667481
  0
ARC
  5
3FB0
330
2
100
AcDbEntity
  8
KIJUN
100
AcDbCircle
 10
-23.49775282476784
 20
120.4318115530978
 30
0.0
 40
7.73177775383076
100
AcDbArc
 50
263.5480884284362
 51
278.0254198381192
  0
ARC
  5
3FB1
330
2
100
AcDbEntity
  8
KIJUN
100
AcDbCircle
 10
-28.2523551090813
 20
142.9866006073551
 30
0.0
 40
30.76899834160202
100
AcDbArc
 50
280.9299204088899
 51
293.7939429378472
  0
ARC
  5
3FB2
330
2
100
AcDbEntity
  8
KIJUN
100
AcDbCircle
 10
-43.09268769508307
 20
115.034040903787
 30
0.0
 40
27.25478317617156
100
AcDbArc
 50
313.1825704306557
 51
359.5771428389797
  0
ARC
  5
3FB3
330
2
100
AcDbEntity
  8
KIJUN
100
AcDbCircle
 10
-31.70554784446223
 20
102.7200406686515
 30
0.0
 40
10.48391928876208
100
AcDbArc
 50
256.6479122758884
 51
313.8577652201878
  0
ARC
  5
3FB4
330
2
100
AcDbEntity
  8
KIJUN
100
AcDbCircle
 10
-38.96914476125748
 20
75.05283771223938
 30
0.0
 40
18.12551791409928
100
AcDbArc
 50
74.50437680644604
 51
81.95626168976106
  0
ARC
  5
3FB5
330
2
100
AcDbEntity
  8
KIJUN
100
AcDbCircle
 10
-37.29550918463443
 20
88.85765767907249
 30
0.0
 40
4.231241031573895
100
AcDbArc
 50
78.23626767544052
 51
178.0309553331483
  0
ARC
  5
3FB6
330
2
100
AcDbEntity
  8
KIJUN
100
AcDbCircle
 10
-33.85712519277241
 20
89.45509344754517
 30
0.0
 40
7.680441522492395
100
AcDbArc
 50
183.3742412984916
 51
259.827038953264
  0
ARC
  5
3FB7
330
2
100
AcDbEntity
  8
KIJUN
100
AcDbCircle
 10
-58.05773897548331
 20
114.5524731207594
 30
0.0
 40
39.8539491037791
100
AcDbArc
 50
283.4344422691288
 51
304.9733384580864
  0
ARC
  5
3FB8
330
2
100
AcDbEntity
  8
KIJUN
100
AcDbCircle
 10
-33.83897744465797
 20
97.69521100999497
 30
0.0
 40
52.19484905445796
100
AcDbArc
 50
225.3094866540871
 51
235.2005661409661
  0
ARC
  5
3FB9
330
2
100
AcDbEntity
  8
KIJUN
100
AcDbCircle
 10
-58.7610986675633
 20
71.88928970814552
 30
0.0
 40
16.32754810695312
100
AcDbArc
 50
165.592541007636
 51
223.7962431031582
  0
ARC
  5
3FBA
330
2
100
AcDbEntity
  8
KIJUN
100
AcDbCircle
 10
-61.06160215693106
 20
71.67482568903944
 30
0.0
 40
14.17424016557855
100
AcDbArc
 50
92.5383925081233
 51
162.4375037247368
  0
ARC
  5
3FBC
330
2
100
AcDbEntity
  8
KIJUN
100
AcDbCircle
 10
-63.41577525551969
 20
69.14952239030384
 30
0.0
 40
16.77471088205727
100
AcDbArc
 50
69.6544028417712
 51
84.09279686100516
  0
ARC
  5
3FBD
330
2
100
AcDbEntity
  8
KIJUN
100
AcDbCircle
 10
-59.25522927855553
 20
80.32447779976791
 30
0.0
 40
4.850411146333351
100
AcDbArc
 50
26.26014328171929
 51
69.83926952004835
  0
ARC
  5
3FBE
330
2
100
AcDbEntity
  8
KIJUN
100
AcDbCircle
 10
-80.80808120413022
 20
71.0726768557806
 30
0.0
 40
28.29946208146743
100
AcDbArc
 50
15.32258556312976
 51
23.75074843203622
  0
ARC
  5
3FBF
330
2
100
AcDbEntity
  8
KIJUN
100
AcDbCircle
 10
-49.93563613556678
 20
79.25472619696546
 30
0.0
 40
3.647484425909758
100
AcDbArc
 50
191.1256714756866
 51
288.1674795051152
  0
ARC
  5
3FD9
330
2
100
AcDbEntity
  8
KIJUN
100
AcDbCircle
 10
-67.30669473339574
 20
63.64074498450612
 30
0.0
 40
17.8950643727516
100
AcDbArc
 50
286.9208183281451
 51
293.044149237509
  0
ARC
  5
3FDA
330
2
100
AcDbEntity
  8
KIJUN
100
AcDbCircle
 10
-62.20031485989767
 20
51.73418328612241
 30
0.0
 40
4.939909394518755
100
AcDbArc
 50
292.6010747197761
 51
330.753171625382
  0
ARC
  5
3FDB
330
2
100
AcDbEntity
  8
KIJUN
100
AcDbCircle
 10
-50.94411708595188
 20
50.97425656074897
 30
0.0
 40
5.647599246807243
100
AcDbArc
 50
115.7559006948863
 51
155.250225777388
  0
ARC
  5
3FDC
330
2
100
AcDbEntity
  8
KIJUN
100
AcDbCircle
 10
-111.8767590123503
 20
76.15661389525278
 30
0.0
 40
60.28866897191321
100
AcDbArc
 50
333.5687240871501
 51
337.7605408914728
  0
ARC
  5
3FDD
330
2
100
AcDbEntity
  8
KIJUN
100
AcDbCircle
 10
-46.82031488581882
 20
42.47419741738531
 30
0.0
 40
15.09516996739156
100
AcDbArc
 50
103.0596926596467
 51
115.8337796940305
  0
ARC
  5
3FDE
330
2
100
AcDbEntity
  8
KIJUN
100
AcDbCircle
 10
-70.48758007760871
 20
117.7772335698666
 30
0.0
 40
64.59668915303559
100
AcDbArc
 50
298.2597374151129
 51
307.3045594769912
  0
ARC
  5
3FE0
330
2
100
AcDbEntity
  8
KIJUN
100
AcDbCircle
 10
-56.93345841443591
 20
91.53793042795713
 30
0.0
 40
35.07073197441875
100
AcDbArc
 50
287.5305459986776
 51
299.0519480960227
  0
ARC
  5
3FE1
330
2
100
AcDbEntity
  8
KIJUN
100
AcDbCircle
 10
-109.1278931049948
 20
313.7726063931585
 30
0.0
 40
263.2662537755424
100
AcDbArc
 50
282.9273208234659
 51
283.791131897893
  0
ARC
  5
3FE2
330
2
100
AcDbEntity
  8
KIJUN
100
AcDbCircle
 10
-126.0643293621401
 20
139.0378371139251
 30
0.0
 40
130.4374725754612
100
AcDbArc
 50
328.0591627845642
 51
336.8262083418398
  0
ARC
  5
3FE3
330
2
100
AcDbEntity
  8
KIJUN
100
AcDbCircle
 10
-16.85498296514218
 20
86.00684493792199
 30
0.0
 40
24.38002176970532
100
AcDbArc
 50
233.5529819031893
 51
243.1995544684532
  0
ARC
  5
3FE4
330
2
100
AcDbEntity
  8
KIJUN
100
AcDbCircle
 10
-24.57884897659991
 20
70.61358060234559
 30
0.0
 40
7.15784535158005
100
AcDbArc
 50
242.8281552738918
 51
301.3113398648881
  0
ARC
  5
3FE5
330
2
100
AcDbEntity
  8
KIJUN
100
AcDbCircle
 10
-31.08268963586556
 20
80.11428053280985
 30
0.0
 40
18.66506796130578
100
AcDbArc
 50
303.2124142060925
 51
327.3003938471258
  0
ARC
  5
3FE6
330
2
100
AcDbEntity
  8
KIJUN
100
AcDbCircle
 10
-27.30207757282296
 20
75.40002386645098
 30
0.0
 40
24.47132160050369
100
AcDbArc
 50
21.13934038263675
 51
30.19541879525152
  0
ARC
  5
3FE7
330
2
100
AcDbEntity
  8
KIJUN
100
AcDbCircle
 10
-12.95002507374555
 20
81.23361725066891
 30
0.0
 40
8.985175677346912
100
AcDbArc
 50
352.6774489198742
 51
19.44835871896996
  0
ARC
  5
3FE8
330
2
100
AcDbEntity
  8
KIJUN
100
AcDbCircle
 10
11.75770154430348
 20
77.84199685483571
 30
0.0
 40
15.9547689379007
100
AcDbArc
 50
171.9059188829565
 51
179.062411515658
  0
ARC
  5
3FE9
330
2
100
AcDbEntity
  8
KIJUN
100
AcDbCircle
 10
-2.192210507565665
 20
78.04868662072007
 30
0.0
 40
2.003458968205249
100
AcDbArc
 50
178.4445543561683
 51
223.0957890670309
  0
ARC
  5
3FEA
330
2
100
AcDbEntity
  8
KIJUN
100
AcDbCircle
 10
-2.198738456705463
 20
78.46097093124178
 30
0.0
 40
2.300747931542078
100
AcDbArc
 50
230.7266061204702
 51
256.3479015293368
  0
ARC
  5
3FEB
330
2
100
AcDbEntity
  8
KIJUN
100
AcDbCircle
 10
-0.9622589604489668
 20
84.23707406728555
 30
0.0
 40
8.207093036448126
100
AcDbArc
 50
257.4772929152914
 51
297.8157163006865
  0
ARC
  5
3FEC
330
2
100
AcDbEntity
  8
KIJUN
100
AcDbCircle
 10
-2.963277469391595
 20
88.35359797229285
 30
0.0
 40
12.78259169309489
100
AcDbArc
 50
297.1384938153403
 51
322.4047628718212
  0
ARC
  5
3FED
330
2
100
AcDbEntity
  8
KIJUN
100
AcDbCircle
 10
-31.11705888490217
 20
108.7668716431037
 30
0.0
 40
47.55423765209643
100
AcDbArc
 50
323.6118463547837
 51
338.816546748163
  0
ARC
  5
3FEE
330
2
100
AcDbEntity
  8
KIJUN
100
AcDbCircle
 10
-5.113367290125786
 20
112.8666333389892
 30
0.0
 40
28.09361399653415
100
AcDbArc
 50
310.7468772041089
 51
4.013392899810426
  0
ARC
  5
3FEF
330
2
100
AcDbEntity
  8
KIJUN
100
AcDbCircle
 10
-14.28490148668746
 20
65.58298217883404
 30
0.0
 40
70.25552004219687
100
AcDbArc
 50
46.48032376054767
 51
54.22538606785392
  0
ARC
  5
3FF0
330
2
100
AcDbEntity
  8
KIJUN
100
AcDbCircle
 10
25.68774218398969
 20
108.3543332113499
 30
0.0
 40
11.72438036425092
100
AcDbArc
 50
26.1181775147934
 51
44.19838435405572
  0
ARC
  5
3FF1
330
2
100
AcDbEntity
  8
KIJUN
100
AcDbCircle
 10
32.47307246341141
 20
111.6238531260653
 30
0.0
 40
4.192907814762683
100
AcDbArc
 50
322.1324097409863
 51
26.82061398537687
  0
ARC
  5
3FF2
330
2
100
AcDbEntity
  8
KIJUN
100
AcDbCircle
 10
13.20406454300366
 20
126.9220967476766
 30
0.0
 40
28.79619838871864
100
AcDbArc
 50
317.6158900696671
 51
321.6372656245383
  0
ARC
  5
3FF3
330
2
100
AcDbEntity
  8
KIJUN
100
AcDbCircle
 10
37.18817068300136
 20
105.1987939569773
 30
0.0
 40
3.565186664950911
100
AcDbArc
 50
139.5749414144301
 51
155.0725696433403
  0
ARC
  5
3FF5
330
2
100
AcDbEntity
  8
KIJUN
100
AcDbCircle
 10
35.09784488763332
 20
106.2469482307045
 30
0.0
 40
1.229790615364622
100
AcDbArc
 50
158.3123396514019
 51
205.4220461348249
  0
ARC
  5
3FF6
330
2
100
AcDbEntity
  8
KIJUN
100
AcDbCircle
 10
39.43189455997746
 20
110.0408840699742
 30
0.0
 40
6.951540525315636
100
AcDbArc
 50
218.4413407014819
 51
315.7900543791984
  0
ARC
  5
3FF7
330
2
100
AcDbEntity
  8
KIJUN
100
AcDbCircle
 10
126.8969779162851
 20
113.7871493648496
 30
0.0
 40
79.81035186917555
100
AcDbArc
 50
170.8650306350103
 51
180.0234363132553
  0
ARC
  5
3FF8
330
2
100
AcDbEntity
  8
KIJUN
100
AcDbCircle
 10
22.78742557309957
 20
113.2229647603735
 30
0.0
 40
24.30502009399285
100
AcDbArc
 50
351.8581814138185
 51
1.253130604052751
  0
ARC
  5
3FF9
330
2
100
AcDbEntity
  8
KIJUN
100
AcDbCircle
 10
39.34394474568494
 20
110.8215796872535
 30
0.0
 40
7.575357434351261
100
AcDbArc
 50
312.0187103910009
 51
352.103113139998
  0
ARC
  5
3FFA
330
2
100
AcDbEntity
  8
KIJUN
100
AcDbCircle
 10
42.41530037347444
 20
137.890258027144
 30
0.0
 40
12.76721125192448
100
AcDbArc
 50
296.434082613741
 51
343.4490393444695
  0
DIMENSION
  5
40C8
330
2
100
AcDbEntity
  8
SUNPOU
100
AcDbDimension
  2
*D7
 10
-108.1767630397864
 20
46.52039562237104
 30
0.0
 11
-113.6767630397864
 21
147.520395622371
 31
0.0
 70
    32
 71
     5
 42
202.0
  3
STANDARD
100
AcDbAlignedDimension
 13
84.91135322548515
 23
248.520395622371
 33
0.0
 14
-62.09833927093308
 24
46.52039562237103
 34
0.0
 50
90.0
100
AcDbRotatedDimension
1001
ACAD
1000
DSTYLE
1002
{
1070
    78
1070
     8
1070
    41
1040
2.0
1070
    42
1040
10.0
1070
    44
1040
0.0
1070
    73
1070
     0
1070
    74
1070
     0
1070
    77
1070
     1
1070
   140
1040
5.0
1070
   141
1040
0.0
1070
   146
1040
0.064286
1070
   147
1040
3.0
1070
   176
1070
    60
1070
   177
1070
    70
1070
   178
1070
    60
1070
   271
1070
     6
1070
   272
1070
     0
1070
   340
1005
1C
1070
   342
1005
109
1002
}
  0
DIMENSION
  5
40D5
330
2
100
AcDbEntity
  8
SUNPOU
100
AcDbDimension
  2
*D8
 10
244.9113532254836
 20
273.746196871832
 30
0.0
 11
84.91135322548357
 21
279.246196871832
 31
0.0
 70
    32
 71
     5
 42
320.0
  3
STANDARD
100
AcDbAlignedDimension
 13
-75.08864677451642
 23
71.88928970814552
 33
0.0
 14
244.9113532254836
 24
71.88928970814552
 34
0.0
100
AcDbRotatedDimension
1001
ACAD
1000
DSTYLE
1002
{
1070
    78
1070
     8
1070
    41
1040
2.0
1070
    42
1040
10.0
1070
    44
1040
0.0
1070
    73
1070
     0
1070
    74
1070
     0
1070
    77
1070
     1
1070
   140
1040
5.0
1070
   141
1040
0.0
1070
   146
1040
0.064286
1070
   147
1040
3.0
1070
   176
1070
    60
1070
   177
1070
    70
1070
   178
1070
    60
1070
   271
1070
     6
1070
   272
1070
     0
1070
   340
1005
1C
1070
   342
1005
109
1002
}
  0
SPLINE
  5
40FE
330
2
100
AcDbEntity
  8
KIJUN
100
AcDbSpline
210
0.0
220
0.0
230
1.0
 70
     8
 71
     3
 72
    10
 73
     6
 74
     4
 42
0.0000000001
 43
0.0000000001
 44
0.0000000001
 40
0.0
 40
0.0
 40
0.0
 40
0.0
 40
8.255293929432923
 40
24.5116727766849
 40
40.41001057740476
 40
40.41001057740476
 40
40.41001057740476
 40
40.41001057740476
 10
189.7247834803445
 20
132.2703956235664
 30
0.0
 10
186.943319737879
 20
132.6624075090064
 30
0.0
 10
178.6845793855278
 20
133.826371765472
 30
0.0
 10
169.3825238076973
 20
145.3956856373553
 30
0.0
 10
165.7886654423265
 20
155.37508435527
 30
0.0
 10
164.0117449697833
 20
160.3092236792899
 30
0.0
 11
189.7247834803445
 21
132.2703956235664
 31
0.0
 11
181.6771591662111
 21
134.1104012648355
 31
0.0
 11
170.2733979952852
 21
145.6959130956466
 31
0.0
 11
164.0117449697833
 21
160.3092236792899
 31
0.0
  0
SPLINE
  5
40FF
330
2
100
AcDbEntity
  8
KIJUN
100
AcDbSpline
210
0.0
220
0.0
230
1.0
 70
     8
 71
     3
 72
    13
 73
     9
 74
     7
 42
0.0000000001
 43
0.0000000001
 44
0.0000000001
 40
0.0
 40
0.0
 40
0.0
 40
0.0
 40
9.65521393338515
 40
21.42230019172728
 40
38.68147343701384
 40
54.22857684672387
 40
71.54221762352623
 40
78.97610647914376
 40
78.97610647914376
 40
78.97610647914376
 40
78.97610647914376
 10
185.6613532244466
 20
114.8328956237455
 30
0.0
 10
182.3291868689129
 20
115.8408375836776
 30
0.0
 10
174.936013765809
 20
118.0771873311275
 30
0.0
 10
173.1557430604563
 20
132.5501002151777
 30
0.0
 10
165.9190507940927
 20
145.1195944679633
 30
0.0
 10
165.6042189713282
 20
163.1737522083249
 30
0.0
 10
153.7974399983276
 20
171.7239102520138
 30
0.0
 10
147.4698560497119
 20
176.895895333903
 30
0.0
 10
145.569118622693
 20
178.4495034245994
 30
0.0
 11
185.6613532244466
 21
114.8328956237455
 31
0.0
 11
176.9664085810543
 21
119.0306442760325
 31
0.0
 11
172.8535759663579
 21
130.0555672641877
 31
0.0
 11
167.0582225883005
 21
146.312656189769
 31
0.0
 11
163.5062302280579
 21
161.4485662947146
 31
0.0
 11
151.3546814680453
 21
173.7815310510572
 31
0.0
 11
145.569118622693
 21
178.4495034245994
 31
0.0
  0
SPLINE
  5
4100
330
2
100
AcDbEntity
  8
KIJUN
100
AcDbSpline
210
0.0
220
0.0
230
1.0
 70
     8
 71
     3
 72
    10
 73
     6
 74
     4
 42
0.0000000001
 43
0.0000000001
 44
0.0000000001
 40
0.0
 40
0.0
 40
0.0
 40
0.0
 40
11.33280591391052
 40
28.70436545430448
 40
62.63190028028408
 40
62.63190028028408
 40
62.63190028028408
 40
62.63190028028408
 10
175.9738532245463
 20
87.7078956240245
 30
0.0
 10
175.9897662127968
 20
91.49539717411375
 30
0.0
 10
176.0300715205629
 20
101.0885931997387
 30
0.0
 10
171.0253280213907
 20
121.5431676901673
 30
0.0
 10
164.8115895724814
 20
137.4645469453157
 30
0.0
 10
160.7020272063456
 20
147.9944238530601
 30
0.0
 11
175.9738532245463
 21
87.7078956240245
 31
0.0
 11
175.6577789880706
 21
99.03629299344096
 31
0.0
 11
172.1057883772718
 21
116.0408348445538
 31
0.0
 11
160.7020272063456
 21
147.9944238530601
 31
0.0
  0
SPLINE
  5
4101
330
2
100
AcDbEntity
  8
KIJUN
100
AcDbSpline
210
0.0
220
0.0
230
1.0
 70
     8
 71
     3
 72
     9
 73
     5
 74
     3
 42
0.0000000001
 43
0.0000000001
 44
0.0000000001
 40
0.0
 40
0.0
 40
0.0
 40
0.0
 40
11.08873532665004
 40
36.01174097569089
 40
36.01174097569089
 40
36.01174097569089
 40
36.01174097569089
 10
146.9113532248457
 20
114.8328956237455
 30
0.0
 10
149.2249960154904
 20
117.8207955479338
 30
0.0
 10
156.738774857946
 20
127.5242896761194
 30
0.0
 10
155.6560240240473
 20
140.1740757772361
 30
0.0
 10
154.9066738282882
 20
148.9287397261441
 30
0.0
 11
146.9113532248457
 21
114.8328956237455
 31
0.0
 11
153.0372039808504
 21
124.0759472659065
 31
0.0
 11
154.9066738282882
 21
148.9287397261441
 31
0.0
  0
SPLINE
  5
4102
330
2
100
AcDbEntity
  8
KIJUN
100
AcDbSpline
210
0.0
220
0.0
230
1.0
 70
     8
 71
     3
 72
     9
 73
     5
 74
     3
 42
0.0000000001
 43
0.0000000001
 44
0.0000000001
 40
0.0
 40
0.0
 40
0.0
 40
0.0
 40
13.09037429270069
 40
41.33703067070068
 40
41.33703067070068
 40
41.33703067070068
 40
41.33703067070068
 10
143.0363532245917
 20
122.5828956234464
 30
0.0
 10
145.0612342468768
 20
126.5096346817422
 30
0.0
 10
151.4554417042899
 20
138.9095652917569
 30
0.0
 10
150.3960610244416
 20
153.0761893993069
 30
0.0
 10
149.67215895524
 20
162.756608062902
 30
0.0
 11
143.0363532245917
 21
122.5828956234464
 31
0.0
 11
148.3635311117004
 21
134.5402814114061
 31
0.0
 11
149.67215895524
 21
162.756608062902
 31
0.0
  0
SPLINE
  5
4103
330
2
100
AcDbEntity
  8
KIJUN
100
AcDbSpline
210
0.0
220
0.0
230
1.0
 70
     8
 71
     3
 72
    18
 73
    14
 74
    12
 42
0.0000000001
 43
0.0000000001
 44
0.0000000001
 40
0.0
 40
0.0
 40
0.0
 40
0.0
 40
7.241770261087761
 40
21.84566620314186
 40
28.00617587210548
 40
42.50113515470679
 40
51.53716860459043
 40
60.88445184710867
 40
73.02089513661306
 40
84.51294771576582
 40
92.49234524908354
 40
100.634253228882
 40
106.3798422903087
 40
106.3798422903087
 40
106.3798422903087
 40
106.3798422903087
 10
112.0363532252037
 20
134.2078956235456
 30
0.0
 10
114.4926706350174
 20
134.2076065645871
 30
0.0
 10
121.9024459094538
 20
134.2067345836637
 30
0.0
 10
129.5946333651883
 20
141.6011063798673
 30
0.0
 10
133.9578440702799
 20
152.5763331905376
 30
0.0
 10
130.686464561839
 20
163.6449773129414
 30
0.0
 10
121.5751525855936
 20
169.9175189180037
 30
0.0
 10
110.656654988117
 20
172.5402079493538
 30
0.0
 10
102.1433930468264
 20
163.0403289312057
 30
0.0
 10
100.3580241421736
 20
151.8736049539322
 30
0.0
 10
106.6583084491018
 20
143.6677822840747
 30
0.0
 10
116.4212440086928
 20
145.011459517475
 30
0.0
 10
116.8040171145245
 20
150.065702019012
 30
0.0
 10
116.9623794863289
 20
152.156762801558
 30
0.0
 11
112.0363532252037
 21
134.2078956235456
 31
0.0
 11
119.2504003104201
 21
134.8409526246572
 31
0.0
 11
130.3636383150546
 21
144.3156408907
 31
0.0
 11
132.4966793946142
 21
150.0950885402861
 31
0.0
 11
128.5943976129161
 21
164.054889452208
 31
0.0
 11
121.3032906133986
 21
169.3924599884167
 31
0.0
 11
112.0594804695458
 21
170.7794271979305
 31
0.0
 11
103.2342615395577
 21
162.4482348128552
 31
0.0
 11
102.0902528769564
 21
151.0132657852668
 31
0.0
 11
107.4834423202513
 21
145.1324246359543
 31
0.0
 11
115.4915099562383
 21
146.6026349232825
 31
0.0
 11
116.9623794863289
 21
152.156762801558
 31
0.0
  0
SPLINE
  5
4104
330
2
100
AcDbEntity
  8
KIJUN
100
AcDbSpline
210
0.0
220
0.0
230
1.0
 70
     8
 71
     3
 72
    13
 73
     9
 74
     7
 42
0.0000000001
 43
0.0000000001
 44
0.0000000001
 40
0.0
 40
0.0
 40
0.0
 40
0.0
 40
3.490656779978292
 40
7.443503705785856
 40
15.09602850035483
 40
24.55417350171815
 40
31.72627783472878
 40
39.55905668325732
 40
39.55905668325732
 40
39.55905668325732
 40
39.55905668325732
 10
84.91135322548263
 20
159.3953956232874
 30
0.0
 10
86.10554587207905
 20
159.3997991582556
 30
0.0
 10
88.65205157305434
 20
159.4091892905204
 30
0.0
 10
92.76194616509446
 20
155.662299143462
 30
0.0
 10
92.77844858021435
 20
148.197794846274
 30
0.0
 10
97.97745147235559
 20
141.3402067363604
 30
0.0
 10
104.9918482237232
 20
137.1153616883928
 30
0.0
 10
109.6202543398921
 20
135.2050878346212
 30
0.0
 10
112.0363532252024
 20
134.2078956235464
 30
0.0
 11
84.91135322548263
 21
159.3953956232874
 31
0.0
 11
88.37957163847265
 21
159.0002427472946
 31
0.0
 11
91.38921711672093
 21
156.4376204742848
 31
0.0
 11
93.50711675851256
 21
149.0840066117821
 31
0.0
 11
98.85759702558459
 21
141.2847202483712
 31
0.0
 11
104.8768879820818
 21
137.3850770666659
 31
0.0
 11
112.0363532252024
 21
134.2078956235464
 31
0.0
  0
ARC
  5
4105
330
2
100
AcDbEntity
  8
KIJUN
100
AcDbCircle
 10
104.2863532252831
 20
139.7337961822964
 30
0.0
 40
9.518302211211413
100
AcDbArc
 50
215.4896072141954
 51
324.5103927858164
  0
SPLINE
  5
4106
330
2
100
AcDbEntity
  8
KIJUN
100
AcDbSpline
210
0.0
220
0.0
230
1.0
 70
     8
 71
     3
 72
    10
 73
     6
 74
     4
 42
0.0000000001
 43
0.0000000001
 44
0.0000000001
 40
0.0
 40
0.0
 40
0.0
 40
0.0
 40
7.942077193706096
 40
23.5683761632138
 40
46.24555767721051
 40
46.24555767721051
 40
46.24555767721051
 40
46.24555767721051
 10
201.161353224287
 20
66.39539562424349
 30
0.0
 10
200.0932319020275
 20
68.88804517944389
 30
0.0
 10
196.9235466299038
 20
76.28506499267196
 30
0.0
 10
180.7460094390104
 20
82.27284785074758
 30
0.0
 10
177.2169992198035
 20
95.42267547700056
 30
0.0
 10
175.1276850296695
 20
103.2078956239459
 30
0.0
 11
201.161353224287
 21
66.39539562424349
 31
0.0
 11
197.3806985370228
 21
73.37989562685314
 31
0.0
 11
184.8552568571892
 21
82.72304981639347
 31
0.0
 11
175.1276850296695
 21
103.2078956239459
 31
0.0
  0
SPLINE
  5
4107
330
2
100
AcDbEntity
  8
KIJUN
100
AcDbSpline
210
0.0
220
0.0
230
1.0
 70
     8
 71
     3
 72
    10
 73
     6
 74
     4
 42
0.0000000001
 43
0.0000000001
 44
0.0000000001
 40
0.0
 40
0.0
 40
0.0
 40
0.0
 40
8.220594460569561
 40
29.44644973470267
 40
49.0115926661215
 40
49.0115926661215
 40
49.0115926661215
 40
49.0115926661215
 10
205.0363532242471
 20
81.89539562408411
 30
0.0
 10
202.2433814012198
 20
82.26544572544108
 30
0.0
 10
192.2388610722221
 20
83.59097780967122
 30
0.0
 10
183.048217039745
 20
99.71767067879616
 30
0.0
 10
177.699497512169
 20
111.8481439026806
 30
0.0
 10
175.1340181990677
 20
117.6664482563786
 30
0.0
 11
205.0363532242471
 21
81.89539562408411
 31
0.0
 11
197.0068056172019
 21
83.65736568947696
 31
0.0
 11
183.3596816790165
 21
99.91445461505804
 31
0.0
 11
175.1340181990677
 21
117.6664482563786
 31
0.0
  0
SPLINE
  5
4108
330
2
100
AcDbEntity
  8
KIJUN
100
AcDbSpline
210
0.0
220
0.0
230
1.0
 70
     8
 71
     3
 72
    10
 73
     6
 74
     4
 42
0.0000000001
 43
0.0000000001
 44
0.0000000001
 40
0.0
 40
0.0
 40
0.0
 40
0.0
 40
8.051777257472412
 40
15.09623381366708
 40
23.56354299288106
 40
23.56354299288106
 40
23.56354299288106
 40
23.56354299288106
 10
224.5836823804125
 20
82.15361453053725
 30
0.0
 10
227.3487200031942
 20
81.52994247683096
 30
0.0
 10
232.5328741498281
 20
80.36062310239568
 30
0.0
 10
235.8769597601909
 20
71.77534367498498
 30
0.0
 10
233.0149316152898
 20
67.1738697134806
 30
0.0
 10
231.4526544641354
 20
64.66209230678464
 30
0.0
 11
224.5836823804125
 21
82.15361453053725
 31
0.0
 11
232.0134947185889
 21
79.05055062152212
 31
0.0
 11
234.6307521551129
 21
72.51034178058484
 31
0.0
 11
231.4526544641354
 21
64.66209230678464
 31
0.0
  0
SPLINE
  5
4109
330
2
100
AcDbEntity
  8
KIJUN
100
AcDbSpline
210
0.0
220
0.0
230
1.0
 70
     8
 71
     3
 72
    11
 73
     7
 74
     5
 42
0.0000000001
 43
0.0000000001
 44
0.0000000001
 40
0.0
 40
0.0
 40
0.0
 40
0.0
 40
8.981384554992684
 40
16.57078900027475
 40
31.11171509342911
 40
41.00686359353882
 40
41.00686359353882
 40
41.00686359353882
 40
41.00686359353882
 10
224.5836823804125
 20
82.15361453053692
 30
0.0
 10
225.9779202578304
 20
79.2274467276923
 30
0.0
 10
228.5503100203909
 20
73.82862331205524
 30
0.0
 10
220.6780720452631
 20
64.13679710792116
 30
0.0
 10
208.4929852459298
 20
68.46720445785985
 30
0.0
 10
201.977371782979
 20
72.9720171783752
 30
0.0
 10
199.3389380795974
 20
74.7961968625774
 30
0.0
 11
224.5836823804125
 21
82.15361453053692
 31
0.0
 11
226.7789815949854
 21
73.44465765366831
 31
0.0
 11
222.1053087258352
 21
67.46503879071091
 31
0.0
 11
207.7103971985637
 21
69.52053234910613
 31
0.0
 11
199.3389380795974
 21
74.7961968625774
 31
0.0
  0
ARC
  5
410A
330
2
100
AcDbEntity
  8
KIJUN
100
AcDbCircle
 10
226.925486671833
 20
51.73661865926519
 30
0.0
 40
7.222506005074239
100
AcDbArc
 50
313.7621016854768
 51
25.40485132122259
  0
ARC
  5
410B
330
2
100
AcDbEntity
  8
KIJUN
100
AcDbCircle
 10
146.7010025353121
 20
119.5714702789294
 30
0.0
 40
4.743241209904672
100
AcDbArc
 50
140.5883465797274
 51
272.5417557744255
  0
SPLINE
  5
410C
330
2
100
AcDbEntity
  8
KIJUN
100
AcDbSpline
210
0.0
220
0.0
230
1.0
 70
     8
 71
     3
 72
    11
 73
     7
 74
     5
 42
0.0000000001
 43
0.0000000001
 44
0.0000000001
 40
0.0
 40
0.0
 40
0.0
 40
0.0
 40
9.709992060368948
 40
28.22494866679234
 40
39.61813758567235
 40
53.8263975660817
 40
53.8263975660817
 40
53.8263975660817
 40
53.8263975660817
 10
103.6721723713688
 20
163.3089977310381
 30
0.0
 10
104.6679830173072
 20
166.4957945979184
 30
0.0
 10
107.5625996337484
 20
175.7591572680391
 30
0.0
 10
125.1040680392721
 20
179.6338858524716
 30
0.0
 10
135.6790205040758
 20
166.6536676828542
 30
0.0
 10
133.7547285722154
 20
157.9060880145895
 30
0.0
 10
132.6867874508504
 20
153.0513672284743
 30
0.0
 11
103.6721723713688
 21
163.3089977310381
 31
0.0
 11
107.7960522169659
 21
172.099763387766
 31
0.0
 11
125.929901689668
 21
175.8370246094524
 31
0.0
 11
133.4077793299751
 21
167.2413222101202
 31
0.0
 11
132.6867874508504
 21
153.0513672284743
 31
0.0
  0
SPLINE
  5
410D
330
2
100
AcDbEntity
  8
KIJUN
100
AcDbSpline
210
0.0
220
0.0
230
1.0
 70
     8
 71
     3
 72
    12
 73
     8
 74
     6
 42
0.0000000001
 43
0.0000000001
 44
0.0000000001
 40
0.0
 40
0.0
 40
0.0
 40
0.0
 40
9.759895087021153
 40
32.47547941625777
 40
45.53408920167363
 40
53.5479135824355
 40
62.14251673832787
 40
62.14251673832787
 40
62.14251673832787
 40
62.14251673832787
 10
96.53635322536374
 20
174.1130326909136
 30
0.0
 10
98.78550014999124
 20
176.5019850740065
 30
0.0
 10
106.2694048440092
 20
184.4510842448288
 30
0.0
 10
122.862159515368
 20
187.629427634147
 30
0.0
 10
136.8612909205274
 20
184.2566264978473
 30
0.0
 10
143.5117914749406
 20
171.2868388060112
 30
0.0
 10
145.7520528017802
 20
178.7719611358613
 30
0.0
 10
146.9113532248448
 20
182.6453956230452
 30
0.0
 11
96.53635322536374
 21
174.1130326909136
 31
0.0
 11
103.6767046728363
 21
180.7666732970957
 31
0.0
 11
125.7364394256033
 21
186.1857021820736
 31
0.0
 11
137.7010426004269
 21
180.9535362446476
 31
0.0
 11
143.0363532248849
 21
174.97391738169
 31
0.0
 11
146.9113532248448
 21
182.6453956230452
 31
0.0
  0
SPLINE
  5
410E
330
2
100
AcDbEntity
  8
KIJUN
100
AcDbSpline
210
0.0
220
0.0
230
1.0
 70
     8
 71
     3
 72
    12
 73
     8
 74
     6
 42
0.0000000001
 43
0.0000000001
 44
0.0000000001
 40
0.0
 40
0.0
 40
0.0
 40
0.0
 40
6.991997097467076
 40
13.73212970187125
 40
21.25871057048795
 40
32.92908535394562
 40
43.05881261909338
 40
43.05881261909338
 40
43.05881261909338
 40
43.05881261909338
 10
123.6613532250842
 20
209.7703956227694
 30
0.0
 10
123.943636313471
 20
207.0537726602552
 30
0.0
 10
124.4980341383466
 20
201.7183844510923
 30
0.0
 10
115.9456564627334
 20
200.6003498777773
 30
0.0
 10
108.0687703559306
 20
198.6860531976075
 30
0.0
 10
98.74415119098232
 20
193.6757588024922
 30
0.0
 10
95.72995143970427
 20
186.9033696194859
 30
0.0
 10
94.32936068397996
 20
183.7564827285744
 30
0.0
 11
123.6613532250842
 21
209.7703956227694
 31
0.0
 11
122.93223640389
 21
202.8165181380822
 31
0.0
 11
116.576041021935
 21
200.5741604968112
 31
0.0
 11
109.2851124657052
 21
198.7055298859681
 31
0.0
 11
99.37692647295058
 21
192.5390480754586
 31
0.0
 11
94.32936068397996
 21
183.7564827285744
 31
0.0
  0
ARC
  5
410F
330
2
100
AcDbEntity
  8
KIJUN
100
AcDbCircle
 10
124.9811659970851
 20
183.2349480135085
 30
0.0
 40
38.20229141232456
100
AcDbArc
 50
111.8216082458008
 51
173.317261208978
  0
ARC
  5
4110
330
2
100
AcDbEntity
  8
KIJUN
100
AcDbCircle
 10
130.2793540986166
 20
185.2272963219022
 30
0.0
 40
16.83120928969763
100
AcDbArc
 50
351.1760101680711
 51
86.1436063401164
  0
ARC
  5
4111
330
2
100
AcDbEntity
  8
KIJUN
100
AcDbCircle
 10
121.8209155129644
 20
200.1799579107292
 30
0.0
 40
9.7654342699501
100
AcDbArc
 50
10.86318787267601
 51
79.13681212732483
  0
ARC
  5
4112
330
2
100
AcDbEntity
  8
KIJUN
100
AcDbCircle
 10
109.5227827926598
 20
215.1133633765904
 30
0.0
 40
11.42740122078401
100
AcDbArc
 50
117.2732420326997
 51
170.4049998990866
  0
ARC
  5
4113
330
2
100
AcDbEntity
  8
KIJUN
100
AcDbCircle
 10
80.27929573641667
 20
265.3481022484083
 30
0.0
 40
31.30694285478897
100
AcDbArc
 50
278.6392878224868
 51
302.099107561392
  0
SPLINE
  5
4114
330
2
100
AcDbEntity
  8
KIJUN
100
AcDbSpline
210
0.0
220
0.0
230
1.0
 70
     8
 71
     3
 72
     9
 73
     5
 74
     3
 42
0.0000000001
 43
0.0000000001
 44
0.0000000001
 40
0.0
 40
0.0
 40
0.0
 40
0.0
 40
10.63421940922719
 40
23.71462611044258
 40
23.71462611044258
 40
23.71462611044258
 40
23.71462611044258
 10
96.5363532253631
 20
174.1130326909138
 30
0.0
 10
94.03802635089457
 20
171.263762664148
 30
0.0
 10
88.46668298757407
 20
164.9098056154704
 30
0.0
 10
91.26237108259694
 20
156.7788497100464
 30
0.0
 10
92.80440413520926
 20
152.2940136591942
 30
0.0
 11
96.5363532253631
 21
174.1130326909138
 31
0.0
 11
90.72385322542286
 21
165.2078956232276
 31
0.0
 11
92.80440413520926
 21
152.2940136591942
 31
0.0
  0
ARC
  5
4115
330
2
100
AcDbEntity
  8
KIJUN
100
AcDbCircle
 10
91.56913131668124
 20
228.0598956537585
 30
0.0
 40
12.0213786763625
100
AcDbArc
 50
24.27724118868962
 51
63.59420822634913
  0
ARC
  5
4116
330
2
100
AcDbEntity
  8
KIJUN
100
AcDbCircle
 10
70.40724374358266
 20
221.6295602379481
 30
0.0
 40
34.07417998387186
100
AcDbArc
 50
6.133779118888925
 51
19.4977843887236
  0
ARC
  5
4117
330
2
100
AcDbEntity
  8
KIJUN
100
AcDbCircle
 10
96.66976495339037
 20
162.3059884155145
 30
0.0
 40
63.42341044030537
100
AcDbArc
 50
69.28602299351232
 51
83.10263871055425
  0
ARC
  5
4118
330
2
100
AcDbEntity
  8
KIJUN
100
AcDbCircle
 10
102.4294298875454
 20
212.8427006800215
 30
0.0
 40
21.45305635511954
100
AcDbArc
 50
351.7663273421661
 51
10.47084682294238
  0
ARC
  5
4119
330
2
100
AcDbEntity
  8
KIJUN
100
AcDbCircle
 10
116.5064080616008
 20
214.8359060814834
 30
0.0
 40
7.272907948288529
100
AcDbArc
 50
15.18932554115516
 51
69.08408893275002
  0
ARC
  5
411A
330
2
100
AcDbEntity
  8
KIJUN
100
AcDbCircle
 10
127.8803534017964
 20
137.9076681078527
 30
0.0
 40
48.61731396826073
100
AcDbArc
 50
16.82113923323905
 51
66.9555645044554
  0
ARC
  5
411B
330
2
100
AcDbEntity
  8
KIJUN
100
AcDbCircle
 10
184.3810929909036
 20
149.3057140379971
 30
0.0
 40
8.344094814172519
100
AcDbArc
 50
208.6071445681102
 51
259.1009498925797
  0
ARC
  5
411C
330
2
100
AcDbEntity
  8
KIJUN
100
AcDbCircle
 10
203.1448393713987
 20
159.4904442208097
 30
0.0
 40
29.69371764200541
100
AcDbArc
 50
194.6573919508252
 51
208.5247617854255
  0
ARC
  5
411D
330
2
100
AcDbEntity
  8
KIJUN
100
AcDbCircle
 10
178.2022815317157
 20
108.3039031233854
 30
0.0
 40
33.12929386888247
100
AcDbArc
 50
71.97166592924363
 51
82.01674741460205
  0
ARC
  5
411E
330
2
100
AcDbEntity
  8
KIJUN
100
AcDbCircle
 10
172.9870032467765
 20
136.7653898697123
 30
0.0
 40
17.33084707739689
100
AcDbArc
 50
344.9676847275921
 51
1.312591561163901
  0
ARC
  5
411F
330
2
100
AcDbEntity
  8
KIJUN
100
AcDbCircle
 10
187.3666907095326
 20
137.0668852132638
 30
0.0
 40
2.948159264407689
100
AcDbArc
 50
1.856372100633573
 51
68.32900022371425
  0
ARC
  5
4120
330
2
100
AcDbEntity
  8
KIJUN
100
AcDbCircle
 10
184.4068096989529
 20
109.3527566393538
 30
0.0
 40
23.52655992171976
100
AcDbArc
 50
65.73381475885057
 51
76.93588312397579
  0
ARC
  5
4121
330
2
100
AcDbEntity
  8
KIJUN
100
AcDbCircle
 10
190.2124711005562
 20
122.8834962061793
 30
0.0
 40
8.809406465264972
100
AcDbArc
 50
14.06131961433802
 51
63.98979790627618
  0
ARC
  5
4122
330
2
100
AcDbEntity
  8
KIJUN
100
AcDbCircle
 10
186.7257780404053
 20
121.4234778079464
 30
0.0
 40
12.55925396701495
100
AcDbArc
 50
327.1351228179079
 51
16.65866117332859
  0
ARC
  5
4123
330
2
100
AcDbEntity
  8
KIJUN
100
AcDbCircle
 10
193.6669953524601
 20
117.1062169030131
 30
0.0
 40
4.38840386565311
100
AcDbArc
 50
276.8351568332511
 51
325.3014127243341
  0
ARC
  5
4124
330
2
100
AcDbEntity
  8
KIJUN
100
AcDbCircle
 10
193.320459275735
 20
120.4318115530978
 30
0.0
 40
7.73177775383076
100
AcDbArc
 50
261.9745801618801
 51
276.4519115715646
  0
ARC
  5
4125
330
2
100
AcDbEntity
  8
KIJUN
100
AcDbCircle
 10
198.0750615600484
 20
142.9866006073551
 30
0.0
 40
30.76899834160202
100
AcDbArc
 50
246.2060570621536
 51
259.0700795911105
  0
ARC
  5
4126
330
2
100
AcDbEntity
  8
KIJUN
100
AcDbCircle
 10
212.9153941460502
 20
115.034040903787
 30
0.0
 40
27.25478317617156
100
AcDbArc
 50
180.4228571610202
 51
226.8174295693441
  0
ARC
  5
4127
330
2
100
AcDbEntity
  8
KIJUN
100
AcDbCircle
 10
201.5282542954294
 20
102.7200406686515
 30
0.0
 40
10.48391928876208
100
AcDbArc
 50
226.1422347798129
 51
283.3520877241123
  0
ARC
  5
4128
330
2
100
AcDbEntity
  8
KIJUN
100
AcDbCircle
 10
208.7918512122246
 20
75.05283771223938
 30
0.0
 40
18.12551791409928
100
AcDbArc
 50
98.04373831023918
 51
105.4956231935535
  0
ARC
  5
4129
330
2
100
AcDbEntity
  8
KIJUN
100
AcDbCircle
 10
207.1182156356016
 20
88.85765767907249
 30
0.0
 40
4.231241031573895
100
AcDbArc
 50
1.96904466685167
 51
101.7637323245598
  0
ARC
  5
412A
330
2
100
AcDbEntity
  8
KIJUN
100
AcDbCircle
 10
203.6798316437395
 20
89.45509344754517
 30
0.0
 40
7.680441522492395
100
AcDbArc
 50
280.1729610467366
 51
356.6257587015083
  0
ARC
  5
412B
330
2
100
AcDbEntity
  8
KIJUN
100
AcDbCircle
 10
227.8804454264505
 20
114.5524731207594
 30
0.0
 40
39.8539491037791
100
AcDbArc
 50
235.0266615419132
 51
256.5655577308705
  0
ARC
  5
412C
330
2
100
AcDbEntity
  8
KIJUN
100
AcDbCircle
 10
203.6616838956251
 20
97.69521100999497
 30
0.0
 40
52.19484905445796
100
AcDbArc
 50
304.799433859034
 51
314.6905133459126
  0
ARC
  5
412D
330
2
100
AcDbEntity
  8
KIJUN
100
AcDbCircle
 10
228.5838051185304
 20
71.88928970814552
 30
0.0
 40
16.32754810695312
100
AcDbArc
 50
316.203756896842
 51
14.4074589923642
  0
ARC
  5
412E
330
2
100
AcDbEntity
  8
KIJUN
100
AcDbCircle
 10
230.8843086078982
 20
71.67482568903944
 30
0.0
 40
14.17424016557855
100
AcDbArc
 50
17.56249627526333
 51
87.46160749187733
  0
ARC
  5
412F
330
2
100
AcDbEntity
  8
KIJUN
100
AcDbCircle
 10
233.2384817064868
 20
69.14952239030384
 30
0.0
 40
16.77471088205727
100
AcDbArc
 50
95.90720313899534
 51
110.3455971582293
  0
ARC
  5
4130
330
2
100
AcDbEntity
  8
KIJUN
100
AcDbCircle
 10
229.0779357295227
 20
80.32447779976791
 30
0.0
 40
4.850411146333351
100
AcDbArc
 50
110.1607304799517
 51
153.7398567182809
  0
ARC
  5
4131
330
2
100
AcDbEntity
  8
KIJUN
100
AcDbCircle
 10
250.6307876550974
 20
71.0726768557806
 30
0.0
 40
28.29946208146743
100
AcDbArc
 50
156.249251567964
 51
164.6774144368702
  0
ARC
  5
4132
330
2
100
AcDbEntity
  8
KIJUN
100
AcDbCircle
 10
219.758342586534
 20
79.25472619696546
 30
0.0
 40
3.647484425909758
100
AcDbArc
 50
251.8325204948851
 51
348.8743285243133
  0
ARC
  5
4133
330
2
100
AcDbEntity
  8
KIJUN
100
AcDbCircle
 10
237.1294011843629
 20
63.64074498450612
 30
0.0
 40
17.8950643727516
100
AcDbArc
 50
246.9558507624908
 51
253.0791816718547
  0
ARC
  5
4134
330
2
100
AcDbEntity
  8
KIJUN
100
AcDbCircle
 10
232.0230213108648
 20
51.73418328612241
 30
0.0
 40
4.939909394518755
100
AcDbArc
 50
209.2468283746178
 51
247.3989252802243
  0
ARC
  5
4135
330
2
100
AcDbEntity
  8
KIJUN
100
AcDbCircle
 10
220.766823536919
 20
50.97425656074897
 30
0.0
 40
5.647599246807243
100
AcDbArc
 50
24.74977422261182
 51
64.24409930511384
  0
ARC
  5
4136
330
2
100
AcDbEntity
  8
KIJUN
100
AcDbCircle
 10
281.6994654633175
 20
76.15661389525278
 30
0.0
 40
60.28866897191321
100
AcDbArc
 50
202.2394591085275
 51
206.4312759128503
  0
ARC
  5
4137
330
2
100
AcDbEntity
  8
KIJUN
100
AcDbCircle
 10
216.643021336786
 20
42.47419741738531
 30
0.0
 40
15.09516996739156
100
AcDbArc
 50
64.16622030596951
 51
76.94030734035383
  0
ARC
  5
4138
330
2
100
AcDbEntity
  8
KIJUN
100
AcDbCircle
 10
240.3102865285759
 20
117.7772335698666
 30
0.0
 40
64.59668915303559
100
AcDbArc
 50
232.695440523009
 51
241.7402625848869
  0
ARC
  5
4139
330
2
100
AcDbEntity
  8
KIJUN
100
AcDbCircle
 10
226.7561648654031
 20
91.53793042795713
 30
0.0
 40
35.07073197441875
100
AcDbArc
 50
240.9480519039779
 51
252.4694540013231
  0
ARC
  5
413A
330
2
100
AcDbEntity
  8
KIJUN
100
AcDbCircle
 10
278.950599555962
 20
313.7726063931585
 30
0.0
 40
263.2662537755424
100
AcDbArc
 50
256.2088681021075
 51
257.0726791765341
  0
ARC
  5
413B
330
2
100
AcDbEntity
  8
KIJUN
100
AcDbCircle
 10
295.8870358131072
 20
139.0378371139251
 30
0.0
 40
130.4374725754612
100
AcDbArc
 50
203.1737916581599
 51
211.9408372154357
  0
ARC
  5
413C
330
2
100
AcDbEntity
  8
KIJUN
100
AcDbCircle
 10
186.6776894161093
 20
86.00684493792199
 30
0.0
 40
24.38002176970532
100
AcDbArc
 50
296.8004455315468
 51
306.4470180968112
  0
ARC
  5
413D
330
2
100
AcDbEntity
  8
KIJUN
100
AcDbCircle
 10
194.401555427567
 20
70.61358060234559
 30
0.0
 40
7.15784535158005
100
AcDbArc
 50
238.6886601351113
 51
297.1718447261088
  0
ARC
  5
413E
330
2
100
AcDbEntity
  8
KIJUN
100
AcDbCircle
 10
200.9053960868327
 20
80.11428053280985
 30
0.0
 40
18.66506796130578
100
AcDbArc
 50
212.6996061528746
 51
236.7875857939079
  0
ARC
  5
413F
330
2
100
AcDbEntity
  8
KIJUN
100
AcDbCircle
 10
197.1247840237901
 20
75.40002386645098
 30
0.0
 40
24.47132160050369
100
AcDbArc
 50
149.8045812047488
 51
158.8606596173631
  0
ARC
  5
4140
330
2
100
AcDbEntity
  8
KIJUN
100
AcDbCircle
 10
182.7727315247127
 20
81.23361725066891
 30
0.0
 40
8.985175677346912
100
AcDbArc
 50
160.5516412810302
 51
187.3225510801258
  0
ARC
  5
4141
330
2
100
AcDbEntity
  8
KIJUN
100
AcDbCircle
 10
158.0650049066637
 20
77.84199685483571
 30
0.0
 40
15.9547689379007
100
AcDbArc
 50
0.9375884843419775
 51
8.094081117043513
  0
ARC
  5
4142
330
2
100
AcDbEntity
  8
KIJUN
100
AcDbCircle
 10
172.0149169585328
 20
78.04868662072007
 30
0.0
 40
2.003458968205249
100
AcDbArc
 50
316.904210932969
 51
1.555445643831719
  0
ARC
  5
4143
330
2
100
AcDbEntity
  8
KIJUN
100
AcDbCircle
 10
172.0214449076726
 20
78.46097093124178
 30
0.0
 40
2.300747931542078
100
AcDbArc
 50
283.6520984706636
 51
309.2733938795299
  0
ARC
  5
4144
330
2
100
AcDbEntity
  8
KIJUN
100
AcDbCircle
 10
170.7849654114161
 20
84.23707406728555
 30
0.0
 40
8.207093036448126
100
AcDbArc
 50
242.1842836993135
 51
282.5227070847081
  0
ARC
  5
4145
330
2
100
AcDbEntity
  8
KIJUN
100
AcDbCircle
 10
172.7859839203587
 20
88.35359797229285
 30
0.0
 40
12.78259169309489
100
AcDbArc
 50
217.5952371281792
 51
242.86150618466
  0
ARC
  5
4146
330
2
100
AcDbEntity
  8
KIJUN
100
AcDbCircle
 10
200.9397653358693
 20
108.7668716431037
 30
0.0
 40
47.55423765209643
100
AcDbArc
 50
201.1834532518371
 51
216.3881536452164
  0
ARC
  5
4147
330
2
100
AcDbEntity
  8
KIJUN
100
AcDbCircle
 10
174.9360737410929
 20
112.8666333389892
 30
0.0
 40
28.09361399653415
100
AcDbArc
 50
175.9866071001895
 51
229.2531227958909
  0
ARC
  5
4148
330
2
100
AcDbEntity
  8
KIJUN
100
AcDbCircle
 10
184.1076079376546
 20
65.58298217883404
 30
0.0
 40
70.25552004219687
100
AcDbArc
 50
125.7746139321461
 51
133.519676239452
  0
ARC
  5
4149
330
2
100
AcDbEntity
  8
KIJUN
100
AcDbCircle
 10
144.1349642669774
 20
108.3543332113499
 30
0.0
 40
11.72438036425092
100
AcDbArc
 50
135.8016156459438
 51
153.8818224852069
  0
ARC
  5
414A
330
2
100
AcDbEntity
  8
KIJUN
100
AcDbCircle
 10
137.3496339875557
 20
111.6238531260653
 30
0.0
 40
4.192907814762683
100
AcDbArc
 50
153.1793860146234
 51
217.867590259014
  0
ARC
  5
414B
330
2
100
AcDbEntity
  8
KIJUN
100
AcDbCircle
 10
156.6186419079635
 20
126.9220967476766
 30
0.0
 40
28.79619838871864
100
AcDbArc
 50
218.3627343754621
 51
222.3841099303335
  0
ARC
  5
414C
330
2
100
AcDbEntity
  8
KIJUN
100
AcDbCircle
 10
132.6345357679658
 20
105.1987939569773
 30
0.0
 40
3.565186664950911
100
AcDbArc
 50
24.92743035666006
 51
40.42505858557015
  0
ARC
  5
414D
330
2
100
AcDbEntity
  8
KIJUN
100
AcDbCircle
 10
134.7248615633338
 20
106.2469482307045
 30
0.0
 40
1.229790615364622
100
AcDbArc
 50
334.5779538651751
 51
21.68766034859811
  0
ARC
  5
414E
330
2
100
AcDbEntity
  8
KIJUN
100
AcDbCircle
 10
130.3908118909897
 20
110.0408840699742
 30
0.0
 40
6.951540525315636
100
AcDbArc
 50
224.2099456208014
 51
321.5586592985181
  0
ARC
  5
414F
330
2
100
AcDbEntity
  8
KIJUN
100
AcDbCircle
 10
42.92572853468199
 20
113.7871493648496
 30
0.0
 40
79.81035186917555
100
AcDbArc
 50
359.9765636867447
 51
9.134969364989633
  0
ARC
  5
4150
330
2
100
AcDbEntity
  8
KIJUN
100
AcDbCircle
 10
147.0352808778676
 20
113.2229647603735
 30
0.0
 40
24.30502009399285
100
AcDbArc
 50
178.7468693959472
 51
188.1418185861816
  0
ARC
  5
4151
330
2
100
AcDbEntity
  8
KIJUN
100
AcDbCircle
 10
130.4787617052822
 20
110.8215796872535
 30
0.0
 40
7.575357434351261
100
AcDbArc
 50
187.8968868600019
 51
227.9812896089988
  0
ARC
  5
4152
330
2
100
AcDbEntity
  8
KIJUN
100
AcDbCircle
 10
127.4074060774927
 20
137.890258027144
 30
0.0
 40
12.76721125192448
100
AcDbArc
 50
196.5509606555306
 51
243.5659173862596
  0
ENDSEC
  0
SECTION
  2
OBJECTS
  0
DICTIONARY
  5
1A
330
0
100
AcDbDictionary
281
     1
  3
ACAD_COLOR
350
144
  3
ACAD_GROUP
350
18
  3
ACAD_LAYOUT
350
58
  3
ACAD_MATERIAL
350
143
  3
ACAD_MLINESTYLE
350
19
  3
ACAD_PLOTSETTINGS
350
59
  3
ACAD_PLOTSTYLENAME
350
56
  3
ACAD_TABLESTYLE
350
145
  3
ACDBHEADERROUNDTRIPXREC
350
4190
  3
AcDbVariableDictionary
350
1D1
  0
DICTIONARY
  5
1B4
330
A
100
AcDbDictionary
280
     1
281
     1
  3
ACAD_LAYERFILTERS
360
1A2A
  3
ACLYDICTIONARY
360
1A29
  0
DICTIONARY
  5
D13
330
2
100
AcDbDictionary
280
     1
281
     1
  3
ACAD_SORTENTS
360
D14
  0
DICTIONARY
  5
144
102
{ACAD_REACTORS
330
1A
102
}
330
1A
100
AcDbDictionary
281
     1
  0
DICTIONARY
  5
18
102
{ACAD_REACTORS
330
1A
102
}
330
1A
100
AcDbDictionary
281
     1
  3
*A1
350
E0D
  3
*A10
350
34BB
  3
*A11
350
35A5
  3
*A12
350
24D6
  3
*A13
350
FF8
  3
*A14
350
136A
  3
*A15
350
1555
  3
*A16
350
2A17
  3
*A17
350
17BC
  3
*A18
350
1A98
  3
*A19
350
1CBC
  3
*A2
350
307D
  3
*A20
350
3695
  3
*A21
350
36C9
  3
*A22
350
382B
  3
*A23
350
2573
  3
*A24
350
3878
  3
*A25
350
3988
  3
*A26
350
3A25
  3
*A27
350
3C81
  3
*A28
350
213E
  3
*A29
350
3E5C
  3
*A3
350
3181
  3
*A30
350
2B84
  3
*A31
350
2C6B
  3
*A32
350
2D78
  3
*A33
350
22C8
  3
*A34
350
1EFE
  3
*A35
350
241A
  3
*A37
350
265A
  3
*A38
350
26DD
  3
*A39
350
275E
  3
*A4
350
2905
  3
*A40
350
2EE1
  3
*A41
350
2F81
  3
*A5
350
31DF
  3
*A6
350
32E4
  3
*A7
350
3349
  3
*A8
350
2037
  3
*A9
350
3467
  0
DICTIONARY
  5
58
102
{ACAD_REACTORS
330
1A
102
}
330
1A
100
AcDbDictionary
281
     1
  3
Model
350
5A
  3
ﾚｲｱｳﾄ1
350
5B
  0
DICTIONARY
  5
143
102
{ACAD_REACTORS
330
1A
102
}
330
1A
100
AcDbDictionary
281
     1
  0
DICTIONARY
  5
19
102
{ACAD_REACTORS
330
1A
102
}
330
1A
100
AcDbDictionary
281
     1
  3
STANDARD
350
1D
  0
DICTIONARY
  5
59
102
{ACAD_REACTORS
330
1A
102
}
330
1A
100
AcDbDictionary
281
     1
  0
ACDBDICTIONARYWDFLT
  5
56
102
{ACAD_REACTORS
330
1A
102
}
330
1A
100
AcDbDictionary
281
     1
  3
Normal
350
57
100
AcDbDictionaryWithDefault
340
57
  0
DICTIONARY
  5
145
102
{ACAD_REACTORS
330
1A
102
}
330
1A
100
AcDbDictionary
281
     1
  3
Standard
350
146
  0
DICTIONARY
  5
4190
102
{ACAD_REACTORS
330
1A
102
}
330
1A
100
AcDbDictionary
281
     1
  0
DICTIONARY
  5
1D1
102
{ACAD_REACTORS
330
1A
102
}
330
1A
100
AcDbDictionary
281
     1
  3
CTABLESTYLE
350
1D2
  3
DIMASSOC
350
D03
  3
PROJECTNAME
350
D04
  0
DICTIONARY
  5
1A2A
102
{ACAD_REACTORS
330
1B4
102
}
330
1B4
100
AcDbDictionary
281
     1
  0
DICTIONARY
  5
1A29
102
{ACAD_REACTORS
330
1B4
102
}
330
1B4
100
AcDbDictionary
281
     1
1001
ACAD
1000
<All
  0
SORTENTSTABLE
  5
D14
102
{ACAD_REACTORS
330
D13
102
}
330
D13
100
AcDbSortentsTable
330
2
331
3EF3
  5
3EF3
331
3EC9
  5
3EC9
331
3EF5
  5
3EF5
331
3EF7
  5
3EF7
331
3ECB
  5
3ECB
331
3ECD
  5
3ECD
331
3ECF
  5
3ECF
331
3ED1
  5
3ED1
331
3ED3
  5
3ED3
331
3ED5
  5
3ED5
331
1F
  5
1F
331
3EDD
  5
3EDD
331
3F03
  5
3F03
331
3F07
  5
3F07
331
3F09
  5
3F09
331
21
  5
21
331
3F0B
  5
3F0B
331
23
  5
23
331
3EF2
  5
3EF2
331
3EF4
  5
3EF4
331
3ECA
  5
3ECA
331
3ECC
  5
3ECC
331
3EF8
  5
3EF8
331
3ED0
  5
3ED0
331
3ED2
  5
3ED2
331
3ED6
  5
3ED6
331
3EDC
  5
3EDC
331
3F06
  5
3F06
331
3F08
  5
3F08
331
20
  5
20
331
3EE9
  5
3EE9
  0
GROUP
  5
E0D
102
{ACAD_REACTORS
330
18
102
}
330
18
100
AcDbGroup
300

 70
     1
 71
     1
  0
GROUP
  5
34BB
102
{ACAD_REACTORS
330
18
102
}
330
18
100
AcDbGroup
300

 70
     1
 71
     1
  0
GROUP
  5
35A5
102
{ACAD_REACTORS
330
18
102
}
330
18
100
AcDbGroup
300

 70
     1
 71
     1
  0
GROUP
  5
24D6
102
{ACAD_REACTORS
330
18
102
}
330
18
100
AcDbGroup
300

 70
     1
 71
     1
  0
GROUP
  5
FF8
102
{ACAD_REACTORS
330
18
102
}
330
18
100
AcDbGroup
300

 70
     1
 71
     1
  0
GROUP
  5
136A
102
{ACAD_REACTORS
330
18
102
}
330
18
100
AcDbGroup
300

 70
     1
 71
     1
  0
GROUP
  5
1555
102
{ACAD_REACTORS
330
18
102
}
330
18
100
AcDbGroup
300

 70
     1
 71
     1
  0
GROUP
  5
2A17
102
{ACAD_REACTORS
330
18
102
}
330
18
100
AcDbGroup
300

 70
     1
 71
     1
  0
GROUP
  5
17BC
102
{ACAD_REACTORS
330
18
102
}
330
18
100
AcDbGroup
300

 70
     1
 71
     1
  0
GROUP
  5
1A98
102
{ACAD_REACTORS
330
18
102
}
330
18
100
AcDbGroup
300

 70
     1
 71
     1
  0
GROUP
  5
1CBC
102
{ACAD_REACTORS
330
18
102
}
330
18
100
AcDbGroup
300

 70
     1
 71
     1
  0
GROUP
  5
307D
102
{ACAD_REACTORS
330
18
102
}
330
18
100
AcDbGroup
300

 70
     1
 71
     1
  0
GROUP
  5
3695
102
{ACAD_REACTORS
330
18
102
}
330
18
100
AcDbGroup
300

 70
     1
 71
     1
  0
GROUP
  5
36C9
102
{ACAD_REACTORS
330
18
102
}
330
18
100
AcDbGroup
300

 70
     1
 71
     1
  0
GROUP
  5
382B
102
{ACAD_REACTORS
330
18
102
}
330
18
100
AcDbGroup
300

 70
     1
 71
     1
  0
GROUP
  5
2573
102
{ACAD_REACTORS
330
18
102
}
330
18
100
AcDbGroup
300

 70
     1
 71
     1
  0
GROUP
  5
3878
102
{ACAD_REACTORS
330
18
102
}
330
18
100
AcDbGroup
300

 70
     1
 71
     1
  0
GROUP
  5
3988
102
{ACAD_REACTORS
330
18
102
}
330
18
100
AcDbGroup
300

 70
     1
 71
     1
  0
GROUP
  5
3A25
102
{ACAD_REACTORS
330
18
102
}
330
18
100
AcDbGroup
300

 70
     1
 71
     1
  0
GROUP
  5
3C81
102
{ACAD_REACTORS
330
18
102
}
330
18
100
AcDbGroup
300

 70
     1
 71
     1
  0
GROUP
  5
213E
102
{ACAD_REACTORS
330
18
102
}
330
18
100
AcDbGroup
300

 70
     1
 71
     1
  0
GROUP
  5
3E5C
102
{ACAD_REACTORS
330
18
102
}
330
18
100
AcDbGroup
300

 70
     1
 71
     1
  0
GROUP
  5
3181
102
{ACAD_REACTORS
330
18
102
}
330
18
100
AcDbGroup
300

 70
     1
 71
     1
  0
GROUP
  5
2B84
102
{ACAD_REACTORS
330
18
102
}
330
18
100
AcDbGroup
300

 70
     1
 71
     1
  0
GROUP
  5
2C6B
102
{ACAD_REACTORS
330
18
102
}
330
18
100
AcDbGroup
300

 70
     1
 71
     1
  0
GROUP
  5
2D78
102
{ACAD_REACTORS
330
18
102
}
330
18
100
AcDbGroup
300

 70
     1
 71
     1
  0
GROUP
  5
22C8
102
{ACAD_REACTORS
330
18
102
}
330
18
100
AcDbGroup
300

 70
     1
 71
     1
  0
GROUP
  5
1EFE
102
{ACAD_REACTORS
330
18
102
}
330
18
100
AcDbGroup
300

 70
     1
 71
     1
  0
GROUP
  5
241A
102
{ACAD_REACTORS
330
18
102
}
330
18
100
AcDbGroup
300

 70
     1
 71
     1
  0
GROUP
  5
265A
102
{ACAD_REACTORS
330
18
102
}
330
18
100
AcDbGroup
300

 70
     1
 71
     1
  0
GROUP
  5
26DD
102
{ACAD_REACTORS
330
18
102
}
330
18
100
AcDbGroup
300

 70
     1
 71
     1
  0
GROUP
  5
275E
102
{ACAD_REACTORS
330
18
102
}
330
18
100
AcDbGroup
300

 70
     1
 71
     1
  0
GROUP
  5
2905
102
{ACAD_REACTORS
330
18
102
}
330
18
100
AcDbGroup
300

 70
     1
 71
     1
  0
GROUP
  5
2EE1
102
{ACAD_REACTORS
330
18
102
}
330
18
100
AcDbGroup
300

 70
     1
 71
     1
  0
GROUP
  5
2F81
102
{ACAD_REACTORS
330
18
102
}
330
18
100
AcDbGroup
300

 70
     1
 71
     1
  0
GROUP
  5
31DF
102
{ACAD_REACTORS
330
18
102
}
330
18
100
AcDbGroup
300

 70
     1
 71
     1
  0
GROUP
  5
32E4
102
{ACAD_REACTORS
330
18
102
}
330
18
100
AcDbGroup
300

 70
     1
 71
     1
  0
GROUP
  5
3349
102
{ACAD_REACTORS
330
18
102
}
330
18
100
AcDbGroup
300

 70
     1
 71
     1
  0
GROUP
  5
2037
102
{ACAD_REACTORS
330
18
102
}
330
18
100
AcDbGroup
300

 70
     1
 71
     1
  0
GROUP
  5
3467
102
{ACAD_REACTORS
330
18
102
}
330
18
100
AcDbGroup
300

 70
     1
 71
     1
  0
LAYOUT
  5
5A
102
{ACAD_XDICTIONARY
360
4191
102
}
102
{ACAD_REACTORS
330
58
102
}
330
58
100
AcDbPlotSettings
  1

  2
なし
  4

  6

 40
0.0
 41
0.0
 42
0.0
 43
0.0
 44
0.0
 45
0.0
 46
0.0
 47
0.0
 48
0.0
 49
0.0
140
0.0
141
0.0
142
1.0
143
1.0
 70
  1712
 72
     0
 73
     0
 74
     0
  7
monochrome.ctb
 75
     0
147
1.0
148
0.0
149
0.0
100
AcDbLayout
  1
Model
 70
     1
 71
     0
 10
0.0
 20
0.0
 11
12.0
 21
9.0
 12
0.0
 22
0.0
 32
0.0
 14
0.0
 24
0.0
 34
0.0
 15
0.0
 25
0.0
 35
0.0
146
0.0
 13
0.0
 23
0.0
 33
0.0
 16
1.0
 26
0.0
 36
0.0
 17
0.0
 27
1.0
 37
0.0
 76
     0
330
2
  0
LAYOUT
  5
5B
102
{ACAD_XDICTIONARY
360
4193
102
}
102
{ACAD_REACTORS
330
58
102
}
330
58
100
AcDbPlotSettings
  1

  2
なし
  4

  6

 40
0.0
 41
0.0
 42
0.0
 43
0.0
 44
0.0
 45
0.0
 46
0.0
 47
0.0
 48
0.0
 49
0.0
140
0.0
141
0.0
142
1.0
143
1.0
 70
   688
 72
     0
 73
     0
 74
     5
  7
monochrome.ctb
 75
    16
147
1.0
148
0.0
149
0.0
100
AcDbLayout
  1
ﾚｲｱｳﾄ1
 70
     1
 71
     1
 10
0.0
 20
0.0
 11
12.0
 21
9.0
 12
0.0
 22
0.0
 32
0.0
 14
1.000000000000000E+20
 24
1.000000000000000E+20
 34
1.000000000000000E+20
 15
-1.000000000000000E+20
 25
-1.000000000000000E+20
 35
-1.000000000000000E+20
146
0.0
 13
0.0
 23
0.0
 33
0.0
 16
1.0
 26
0.0
 36
0.0
 17
0.0
 27
1.0
 37
0.0
 76
     0
330
7
  0
MLINESTYLE
  5
1D
102
{ACAD_REACTORS
330
19
102
}
330
19
100
AcDbMlineStyle
  2
STANDARD
 70
     0
  3

 62
   256
 51
90.0
 52
90.0
 71
     2
 49
0.5
 62
   256
  6
BYLAYER
 49
-0.5
 62
   256
  6
BYLAYER
  0
ACDBPLACEHOLDER
  5
57
102
{ACAD_REACTORS
330
56
102
}
330
56
  0
TABLESTYLE
  5
146
102
{ACAD_REACTORS
330
145
102
}
330
145
100
AcDbTableStyle
  3
Standard
 70
     0
 71
     0
 40
0.06
 41
0.06
280
     0
281
     0
  7
STANDARD
140
0.18
170
     2
 62
     0
 63
     7
283
     0
274
    -2
284
     1
 64
     0
275
    -2
285
     1
 65
     0
276
    -2
286
     1
 66
     0
277
    -2
287
     1
 67
     0
278
    -2
288
     1
 68
     0
279
    -2
289
     1
 69
     0
  7
STANDARD
140
0.25
170
     5
 62
     0
 63
     7
283
     0
274
    -2
284
     1
 64
     0
275
    -2
285
     1
 65
     0
276
    -2
286
     1
 66
     0
277
    -2
287
     1
 67
     0
278
    -2
288
     1
 68
     0
279
    -2
289
     1
 69
     0
  7
STANDARD
140
0.18
170
     5
 62
     0
 63
     7
283
     0
274
    -2
284
     1
 64
     0
275
    -2
285
     1
 65
     0
276
    -2
286
     1
 66
     0
277
    -2
287
     1
 67
     0
278
    -2
288
     1
 68
     0
279
    -2
289
     1
 69
     0
  0
DICTIONARYVAR
  5
1D2
102
{ACAD_REACTORS
330
1D1
102
}
330
1D1
100
DictionaryVariables
280
     0
  1
STANDARD
  0
DICTIONARYVAR
  5
D03
102
{ACAD_REACTORS
330
1D1
102
}
330
1D1
100
DictionaryVariables
280
     0
  1
1
  0
DICTIONARYVAR
  5
D04
102
{ACAD_REACTORS
330
1D1
102
}
330
1D1
100
DictionaryVariables
280
     0
  1

  0
DICTIONARY
  5
4191
330
5A
100
AcDbDictionary
280
     1
281
     1
  3
ACAD_XREC_ROUNDTRIP
360
4192
  0
DICTIONARY
  5
4193
330
5B
100
AcDbDictionary
280
     1
281
     1
  3
ACAD_XREC_ROUNDTRIP
360
4194
  0
XRECORD
  5
4192
102
{ACAD_REACTORS
330
4191
102
}
330
4191
100
AcDbXrecord
280
     1
102
SHADEPLOT
 70
     0
102
SHADEPLOTRESLEVEL
 70
     2
102
SHADEPLOTCUSTOMDPI
 70
   300
  0
XRECORD
  5
4194
102
{ACAD_REACTORS
330
4193
102
}
330
4193
100
AcDbXrecord
280
     1
102
SHADEPLOT
 70
     0
102
SHADEPLOTRESLEVEL
 70
     2
102
SHADEPLOTCUSTOMDPI
 70
   300
  0
ENDSEC
  0
EOF
