  0
SECTION
  2
HEADER
  9
$ACADVER
  1
AC1015
  9
$ACADMAINTVER
 70
    20
  9
$DWGCODEPAGE
  3
ANSI_932
  9
$INSBASE
 10
922.019522
 20
-675.4306699999999
 30
0.0
  9
$EXTMIN
 10
-182.7469383004875
 20
0.0
 30
0.0
  9
$EXTMAX
 10
278.4113532254835
 20
336.2456046066285
 30
0.0
  9
$LIMMIN
 10
0.0
 20
0.0
  9
$LIMMAX
 10
420.0
 20
297.0
  9
$ORTHOMODE
 70
     1
  9
$REGENMODE
 70
     1
  9
$FILLMODE
 70
     1
  9
$QTEXTMODE
 70
     0
  9
$MIRRTEXT
 70
     1
  9
$LTSCALE
 40
1.0
  9
$ATTMODE
 70
     1
  9
$TEXTSIZE
 40
30.0
  9
$TRACEWID
 40
0.05
  9
$TEXTSTYLE
  7
SUNPOU
  9
$CLAYER
  8
0
  9
$CELTYPE
  6
BYLAYER
  9
$CECOLOR
 62
   256
  9
$CELTSCALE
 40
1.0
  9
$DISPSILH
 70
     0
  9
$DIMSCALE
 40
1.0
  9
$DIMASZ
 40
2.0
  9
$DIMEXO
 40
10.0
  9
$DIMDLI
 40
0.38
  9
$DIMRND
 40
0.0
  9
$DIMDLE
 40
0.0
  9
$DIMEXE
 40
0.0
  9
$DIMTP
 40
0.0
  9
$DIMTM
 40
0.0
  9
$DIMTXT
 40
5.0
  9
$DIMCEN
 40
0.0
  9
$DIMTSZ
 40
0.0
  9
$DIMTOL
 70
     0
  9
$DIMLIM
 70
     0
  9
$DIMTIH
 70
     0
  9
$DIMTOH
 70
     0
  9
$DIMSE1
 70
     0
  9
$DIMSE2
 70
     0
  9
$DIMTAD
 70
     1
  9
$DIMZIN
 70
     0
  9
$DIMBLK
  1
Dot
  9
$DIMASO
 70
     1
  9
$DIMSHO
 70
     1
  9
$DIMPOST
  1

  9
$DIMAPOST
  1

  9
$DIMALT
 70
     0
  9
$DIMALTD
 70
     2
  9
$DIMALTF
 40
25.4
  9
$DIMLFAC
 40
1.0
  9
$DIMTOFL
 70
     0
  9
$DIMTVP
 40
0.0
  9
$DIMTIX
 70
     0
  9
$DIMSOXD
 70
     0
  9
$DIMSAH
 70
     0
  9
$DIMBLK1
  1

  9
$DIMBLK2
  1

  9
$DIMSTYLE
  2
STANDARD
  9
$DIMCLRD
 70
    60
  9
$DIMCLRE
 70
    70
  9
$DIMCLRT
 70
    60
  9
$DIMTFAC
 40
0.064286
  9
$DIMGAP
 40
3.0
  9
$DIMJUST
 70
     0
  9
$DIMSD1
 70
     0
  9
$DIMSD2
 70
     0
  9
$DIMTOLJ
 70
     1
  9
$DIMTZIN
 70
     0
  9
$DIMALTZ
 70
     0
  9
$DIMALTTZ
 70
     0
  9
$DIMUPT
 70
     0
  9
$DIMDEC
 70
     0
  9
$DIMTDEC
 70
     0
  9
$DIMALTU
 70
     2
  9
$DIMALTTD
 70
     2
  9
$DIMTXSTY
  7
SUNPOU
  9
$DIMAUNIT
 70
     0
  9
$DIMADEC
 70
     0
  9
$DIMALTRND
 40
0.0
  9
$DIMAZIN
 70
     0
  9
$DIMDSEP
 70
    46
  9
$DIMATFIT
 70
     3
  9
$DIMFRAC
 70
     0
  9
$DIMLDRBLK
  1

  9
$DIMLUNIT
 70
     2
  9
$DIMLWD
 70
    -2
  9
$DIMLWE
 70
    -2
  9
$DIMTMOVE
 70
     0
  9
$LUNITS
 70
     2
  9
$LUPREC
 70
     5
  9
$SKETCHINC
 40
0.1
  9
$FILLETRAD
 40
0.0
  9
$AUNITS
 70
     0
  9
$AUPREC
 70
     0
  9
$MENU
  1
acad
  9
$ELEVATION
 40
0.0
  9
$PELEVATION
 40
0.0
  9
$THICKNESS
 40
0.0
  9
$LIMCHECK
 70
     0
  9
$CHAMFERA
 40
0.0
  9
$CHAMFERB
 40
0.0
  9
$CHAMFERC
 40
0.0
  9
$CHAMFERD
 40
0.0
  9
$SKPOLY
 70
     0
  9
$TDCREATE
 40
2450623.654673033
  9
$TDUCREATE
 40
2450623.279673032
  9
$TDUPDATE
 40
2454585.387843982
  9
$TDUUPDATE
 40
2454585.012843982
  9
$TDINDWG
 40
0.6350061111
  9
$TDUSRTIMER
 40
0.6350059375
  9
$USRTIMER
 70
     1
  9
$ANGBASE
 50
0.0
  9
$ANGDIR
 70
     0
  9
$PDMODE
 70
     0
  9
$PDSIZE
 40
0.0
  9
$PLINEWID
 40
0.0
  9
$SPLFRAME
 70
     0
  9
$SPLINETYPE
 70
     6
  9
$SPLINESEGS
 70
     8
  9
$HANDSEED
  5
4145
  9
$SURFTAB1
 70
     6
  9
$SURFTAB2
 70
     6
  9
$SURFTYPE
 70
     6
  9
$SURFU
 70
     6
  9
$SURFV
 70
     6
  9
$UCSBASE
  2

  9
$UCSNAME
  2

  9
$UCSORG
 10
0.0
 20
0.0
 30
0.0
  9
$UCSXDIR
 10
1.0
 20
0.0
 30
0.0
  9
$UCSYDIR
 10
0.0
 20
1.0
 30
0.0
  9
$UCSORTHOREF
  2

  9
$UCSORTHOVIEW
 70
     0
  9
$UCSORGTOP
 10
0.0
 20
0.0
 30
0.0
  9
$UCSORGBOTTOM
 10
0.0
 20
0.0
 30
0.0
  9
$UCSORGLEFT
 10
0.0
 20
0.0
 30
0.0
  9
$UCSORGRIGHT
 10
0.0
 20
0.0
 30
0.0
  9
$UCSORGFRONT
 10
0.0
 20
0.0
 30
0.0
  9
$UCSORGBACK
 10
0.0
 20
0.0
 30
0.0
  9
$PUCSBASE
  2

  9
$PUCSNAME
  2

  9
$PUCSORG
 10
0.0
 20
0.0
 30
0.0
  9
$PUCSXDIR
 10
1.0
 20
0.0
 30
0.0
  9
$PUCSYDIR
 10
0.0
 20
1.0
 30
0.0
  9
$PUCSORTHOREF
  2

  9
$PUCSORTHOVIEW
 70
     0
  9
$PUCSORGTOP
 10
0.0
 20
0.0
 30
0.0
  9
$PUCSORGBOTTOM
 10
0.0
 20
0.0
 30
0.0
  9
$PUCSORGLEFT
 10
0.0
 20
0.0
 30
0.0
  9
$PUCSORGRIGHT
 10
0.0
 20
0.0
 30
0.0
  9
$PUCSORGFRONT
 10
0.0
 20
0.0
 30
0.0
  9
$PUCSORGBACK
 10
0.0
 20
0.0
 30
0.0
  9
$USERI1
 70
     0
  9
$USERI2
 70
     0
  9
$USERI3
 70
     0
  9
$USERI4
 70
     0
  9
$USERI5
 70
     0
  9
$USERR1
 40
0.0
  9
$USERR2
 40
0.0
  9
$USERR3
 40
0.0
  9
$USERR4
 40
0.0
  9
$USERR5
 40
0.0
  9
$WORLDVIEW
 70
     1
  9
$SHADEDGE
 70
     3
  9
$SHADEDIF
 70
    70
  9
$TILEMODE
 70
     1
  9
$MAXACTVP
 70
    16
  9
$PINSBASE
 10
0.0
 20
0.0
 30
0.0
  9
$PLIMCHECK
 70
     0
  9
$PEXTMIN
 10
1.000000000000000E+20
 20
1.000000000000000E+20
 30
1.000000000000000E+20
  9
$PEXTMAX
 10
-1.000000000000000E+20
 20
-1.000000000000000E+20
 30
-1.000000000000000E+20
  9
$PLIMMIN
 10
0.0
 20
0.0
  9
$PLIMMAX
 10
12.0
 20
9.0
  9
$UNITMODE
 70
     0
  9
$VISRETAIN
 70
     0
  9
$PLINEGEN
 70
     0
  9
$PSLTSCALE
 70
     1
  9
$TREEDEPTH
 70
  3020
  9
$CMLSTYLE
  2
STANDARD
  9
$CMLJUST
 70
     0
  9
$CMLSCALE
 40
1.0
  9
$PROXYGRAPHICS
 70
     1
  9
$MEASUREMENT
 70
     0
  9
$CELWEIGHT
370
    -1
  9
$ENDCAPS
280
     0
  9
$JOINSTYLE
280
     0
  9
$LWDISPLAY
290
     0
  9
$INSUNITS
 70
     0
  9
$HYPERLINKBASE
  1

  9
$STYLESHEET
  1

  9
$XEDIT
290
     1
  9
$CEPSNTYPE
380
     0
  9
$PSTYLEMODE
290
     1
  9
$FINGERPRINTGUID
  2
{FB88A696-E29C-4009-92AF-A3599A8169D5}
  9
$VERSIONGUID
  2
{ABB6AAA1-A2B2-472F-AA0B-55755D821E2A}
  9
$EXTNAMES
290
     1
  9
$PSVPSCALE
 40
0.0
  9
$OLESTARTUP
290
     0
  0
ENDSEC
  0
SECTION
  2
CLASSES
  0
CLASS
  1
DICTIONARYVAR
  2
AcDbDictionaryVar
  3
ObjectDBX Classes
 90
        0
280
     0
281
     0
  0
CLASS
  1
ACDBDICTIONARYWDFLT
  2
AcDbDictionaryWithDefault
  3
ObjectDBX Classes
 90
        0
280
     0
281
     0
  0
CLASS
  1
ACDBPLACEHOLDER
  2
AcDbPlaceHolder
  3
ObjectDBX Classes
 90
        0
280
     0
281
     0
  0
CLASS
  1
LAYOUT
  2
AcDbLayout
  3
ObjectDBX Classes
 90
        0
280
     0
281
     0
  0
CLASS
  1
TABLESTYLE
  2
AcDbTableStyle
  3
ObjectDBX Classes
 90
     2047
280
     0
281
     0
  0
CLASS
  1
SORTENTSTABLE
  2
AcDbSortentsTable
  3
ObjectDBX Classes
 90
        0
280
     0
281
     0
  0
ENDSEC
  0
SECTION
  2
TABLES
  0
TABLE
  2
VPORT
  5
12
330
0
100
AcDbSymbolTable
 70
     2
  0
VPORT
  5
413F
330
12
100
AcDbSymbolTableRecord
100
AcDbViewportTableRecord
  2
*Active
 70
     0
 10
0.0
 20
0.0
 11
1.0
 21
1.0
 12
47.83279495380054
 22
168.1286607315071
 13
0.0
 23
0.0
 14
1.0
 24
1.0
 15
0.0
 25
0.0
 16
0.0
 26
0.0
 36
1.0
 17
0.0
 27
0.0
 37
0.0
 40
338.8417631007371
 41
1.530534351145038
 42
50.0
 43
0.0
 44
0.0
 50
0.0
 51
0.0
 71
     0
 72
 20000
 73
     1
 74
     1
 75
     0
 76
     0
 77
     0
 78
     0
281
     0
 65
     1
110
0.0
120
0.0
130
0.0
111
1.0
121
0.0
131
0.0
112
0.0
122
1.0
132
0.0
 79
     0
146
0.0
  0
ENDTAB
  0
TABLE
  2
LTYPE
  5
D
330
0
100
AcDbSymbolTable
 70
     1
  0
LTYPE
  5
E
330
D
100
AcDbSymbolTableRecord
100
AcDbLinetypeTableRecord
  2
BYBLOCK
 70
     0
  3

 72
    65
 73
     0
 40
0.0
  0
LTYPE
  5
F
330
D
100
AcDbSymbolTableRecord
100
AcDbLinetypeTableRecord
  2
BYLAYER
 70
     0
  3

 72
    65
 73
     0
 40
0.0
  0
LTYPE
  5
5
330
D
100
AcDbSymbolTableRecord
100
AcDbLinetypeTableRecord
  2
CONTINUOUS
 70
     0
  3
Solid line
 72
    65
 73
     0
 40
0.0
  0
ENDTAB
  0
TABLE
  2
LAYER
  5
A
102
{ACAD_XDICTIONARY
360
1B4
102
}
330
0
100
AcDbSymbolTable
 70
     6
  0
LAYER
  5
4
330
A
100
AcDbSymbolTableRecord
100
AcDbLayerTableRecord
  2
0
 70
     0
 62
     7
  6
CONTINUOUS
370
    -3
390
57
  0
LAYER
  5
25
330
A
100
AcDbSymbolTableRecord
100
AcDbLayerTableRecord
  2
KIJUN
 70
     0
 62
     7
  6
CONTINUOUS
370
    -3
390
57
  0
LAYER
  5
22
330
A
100
AcDbSymbolTableRecord
100
AcDbLayerTableRecord
  2
HOJO
 70
     0
 62
     3
  6
CONTINUOUS
370
    -3
390
57
  0
LAYER
  5
1B
330
A
100
AcDbSymbolTableRecord
100
AcDbLayerTableRecord
  2
WAKU
 70
     0
 62
     1
  6
CONTINUOUS
370
    -3
390
57
  0
LAYER
  5
31
330
A
100
AcDbSymbolTableRecord
100
AcDbLayerTableRecord
  2
DEFPOINTS
 70
     0
 62
     7
  6
CONTINUOUS
290
     0
370
    -3
390
57
  0
LAYER
  5
28
330
A
100
AcDbSymbolTableRecord
100
AcDbLayerTableRecord
  2
SUNPOU
 70
     0
 62
    70
  6
CONTINUOUS
370
    -3
390
57
  0
ENDTAB
  0
TABLE
  2
STYLE
  5
B
330
0
100
AcDbSymbolTable
 70
     2
  0
STYLE
  5
C
330
B
100
AcDbSymbolTableRecord
100
AcDbTextStyleTableRecord
  2
STANDARD
 70
     0
 40
0.0
 41
1.0
 50
0.0
 71
     0
 42
0.2
  3
txt
  4

  0
STYLE
  5
1C
330
B
100
AcDbSymbolTableRecord
100
AcDbTextStyleTableRecord
  2
SUNPOU
 70
     0
 40
0.0
 41
1.0
 50
0.0
 71
     0
 42
30.0
  3
txt
  4
bigfont
  0
ENDTAB
  0
TABLE
  2
VIEW
  5
10
330
0
100
AcDbSymbolTable
 70
     0
  0
ENDTAB
  0
TABLE
  2
UCS
  5
11
330
0
100
AcDbSymbolTable
 70
     0
  0
ENDTAB
  0
TABLE
  2
APPID
  5
14
330
0
100
AcDbSymbolTable
 70
    10
  0
APPID
  5
15
330
14
100
AcDbSymbolTableRecord
100
AcDbRegAppTableRecord
  2
ACAD
 70
     0
  0
APPID
  5
1D3
330
14
100
AcDbSymbolTableRecord
100
AcDbRegAppTableRecord
  2
ACAD_DSTYLE_DIMTEXT_FILL
 70
     0
  0
APPID
  5
1D4
330
14
100
AcDbSymbolTableRecord
100
AcDbRegAppTableRecord
  2
ACAD_DSTYLE_DIMEXT_LENGTH
 70
     0
  0
APPID
  5
1D5
330
14
100
AcDbSymbolTableRecord
100
AcDbRegAppTableRecord
  2
ACAD_DSTYLE_DIMEXT_ENABLED
 70
     0
  0
APPID
  5
1D6
330
14
100
AcDbSymbolTableRecord
100
AcDbRegAppTableRecord
  2
ACAD_DSTYLE_DIM_LINETYPE
 70
     0
  0
APPID
  5
1D7
330
14
100
AcDbSymbolTableRecord
100
AcDbRegAppTableRecord
  2
ACAD_DSTYLE_DIM_EXT1_LINETYPE
 70
     0
  0
APPID
  5
1D8
330
14
100
AcDbSymbolTableRecord
100
AcDbRegAppTableRecord
  2
ACAD_DSTYLE_DIM_EXT2_LINETYPE
 70
     0
  0
APPID
  5
294
330
14
100
AcDbSymbolTableRecord
100
AcDbRegAppTableRecord
  2
ACAD_DSTYLE_DIMJOGGED_JOGANGLE_SYMBOL
 70
     0
  0
APPID
  5
478
330
14
100
AcDbSymbolTableRecord
100
AcDbRegAppTableRecord
  2
ACAD_DSTYLE_DIMARC_LENGTH_SYMBOL
 70
     0
  0
APPID
  5
F55
330
14
100
AcDbSymbolTableRecord
100
AcDbRegAppTableRecord
  2
ACAD_EXEMPT_FROM_CAD_STANDARDS
 70
     0
  0
ENDTAB
  0
TABLE
  2
DIMSTYLE
  5
16
330
0
100
AcDbSymbolTable
 70
     1
100
AcDbDimStyleTable
 71
     1
340
1E
  0
DIMSTYLE
105
1E
102
{ACAD_REACTORS
330
408E
330
409B
102
}
330
16
100
AcDbSymbolTableRecord
100
AcDbDimStyleTableRecord
  2
STANDARD
 70
     0
340
C
  0
ENDTAB
  0
TABLE
  2
BLOCK_RECORD
  5
1
330
0
100
AcDbSymbolTable
 70
     3
  0
BLOCK_RECORD
  5
2
102
{ACAD_XDICTIONARY
360
D13
102
}
330
1
100
AcDbSymbolTableRecord
100
AcDbBlockTableRecord
  2
*MODEL_SPACE
340
5A
  0
BLOCK_RECORD
  5
7
330
1
100
AcDbSymbolTableRecord
100
AcDbBlockTableRecord
  2
*PAPER_SPACE
340
5B
  0
BLOCK_RECORD
  5
109
330
1
100
AcDbSymbolTableRecord
100
AcDbBlockTableRecord
  2
_Dot
340
0
102
{BLKREFS
331
4114
331
4115
331
412F
331
4130
102
}
  0
BLOCK_RECORD
  5
408F
330
1
100
AcDbSymbolTableRecord
100
AcDbBlockTableRecord
  2
*D1
340
0
  0
BLOCK_RECORD
  5
409C
330
1
100
AcDbSymbolTableRecord
100
AcDbBlockTableRecord
  2
*D2
340
0
  0
ENDTAB
  0
ENDSEC
  0
SECTION
  2
BLOCKS
  0
BLOCK
  5
3
330
2
100
AcDbEntity
  8
0
100
AcDbBlockBegin
  2
*MODEL_SPACE
 70
     0
 10
0.0
 20
0.0
 30
0.0
  3
*MODEL_SPACE
  1

  0
ENDBLK
  5
6
330
2
100
AcDbEntity
  8
0
100
AcDbBlockEnd
  0
BLOCK
  5
8
330
7
100
AcDbEntity
 67
     1
  8
0
100
AcDbBlockBegin
  2
*PAPER_SPACE
 70
     0
 10
0.0
 20
0.0
 30
0.0
  3
*PAPER_SPACE
  1

  0
ENDBLK
  5
9
330
7
100
AcDbEntity
 67
     1
  8
0
100
AcDbBlockEnd
  0
BLOCK
  5
10C
330
109
100
AcDbEntity
  8
0
100
AcDbBlockBegin
  2
_Dot
 70
     0
 10
0.0
 20
0.0
 30
0.0
  3
_Dot
  1

  0
LWPOLYLINE
  5
10A
330
109
100
AcDbEntity
  8
0
  6
ByBlock
 62
     0
100
AcDbPolyline
 90
        2
 70
     1
 43
0.5
 10
-0.25
 20
0.0
 42
1.0
 10
0.25
 20
0.0
 42
1.0
  0
LINE
  5
10B
330
109
100
AcDbEntity
  8
0
  6
ByBlock
 62
     0
370
    -2
100
AcDbLine
 10
-0.5
 20
0.0
 30
0.0
 11
-1.0
 21
0.0
 31
0.0
  0
ENDBLK
  5
10D
330
109
100
AcDbEntity
  8
0
100
AcDbBlockEnd
  0
BLOCK
  5
4099
330
408F
100
AcDbEntity
  8
0
100
AcDbBlockBegin
  2
*D1
 70
     1
 10
0.0
 20
0.0
 30
0.0
  3
*D1
  1

  0
LINE
  5
412C
330
408F
100
AcDbEntity
  8
SUNPOU
 62
    70
370
    -2
100
AcDbLine
 10
-107.5886467745164
 20
82.77848197955306
 30
0.0
 11
-107.5886467745164
 21
328.2456046066284
 31
0.0
  0
LINE
  5
412D
330
408F
100
AcDbEntity
  8
SUNPOU
 62
    70
370
    -2
100
AcDbLine
 10
277.4113532254836
 20
82.77848197955306
 30
0.0
 11
277.4113532254836
 21
328.2456046066284
 31
0.0
  0
LINE
  5
412E
330
408F
100
AcDbEntity
  8
SUNPOU
 62
    60
370
    -2
100
AcDbLine
 10
-105.5886467745164
 20
328.2456046066284
 30
0.0
 11
275.4113532254836
 21
328.2456046066284
 31
0.0
  0
INSERT
  5
412F
330
408F
100
AcDbEntity
  8
SUNPOU
 62
    60
370
    -2
100
AcDbBlockReference
  2
_Dot
 10
-107.5886467745164
 20
328.2456046066284
 30
0.0
 41
2.0
 42
2.0
 43
2.0
 50
180.0
  0
INSERT
  5
4130
330
408F
100
AcDbEntity
  8
SUNPOU
 62
    60
370
    -2
100
AcDbBlockReference
  2
_Dot
 10
277.4113532254836
 20
328.2456046066284
 30
0.0
 41
2.0
 42
2.0
 43
2.0
  0
MTEXT
  5
4131
330
408F
100
AcDbEntity
  8
SUNPOU
 62
    60
100
AcDbMText
 10
84.91135322548357
 20
333.7456046066284
 30
0.0
 40
5.0
 41
0.0
 71
     5
 72
     1
  1
\A1;385
  7
SUNPOU
 73
     1
 44
1.0
1001
ACAD
1000
MTEXTBEGIN
1070
    73
1070
     1
1070
    44
1040
1.0
1070
    74
1070
     0
1000
MTEXTEND
  0
POINT
  5
4132
330
408F
100
AcDbEntity
  8
DEFPOINTS
 62
     0
100
AcDbPoint
 10
-107.5886467745164
 20
72.77848197955305
 30
0.0
  0
POINT
  5
4133
330
408F
100
AcDbEntity
  8
DEFPOINTS
 62
     0
100
AcDbPoint
 10
277.4113532254836
 20
72.77848197955305
 30
0.0
  0
POINT
  5
4134
330
408F
100
AcDbEntity
  8
DEFPOINTS
 62
     0
100
AcDbPoint
 10
277.4113532254836
 20
328.2456046066284
 30
0.0
  0
ENDBLK
  5
409A
330
408F
100
AcDbEntity
  8
0
100
AcDbBlockEnd
  0
BLOCK
  5
40A6
330
409C
100
AcDbEntity
  8
0
100
AcDbBlockBegin
  2
*D2
 70
     1
 10
0.0
 20
0.0
 30
0.0
  3
*D2
  1

  0
LINE
  5
4111
330
409C
100
AcDbEntity
  8
SUNPOU
 62
    70
370
    -2
100
AcDbLine
 10
74.91135322548358
 20
287.0252323515639
 30
0.0
 11
-174.7469383004874
 21
287.025232351564
 31
0.0
  0
LINE
  5
4112
330
409C
100
AcDbEntity
  8
SUNPOU
 62
    70
370
    -2
100
AcDbLine
 10
-101.8376776012897
 20
42.02523235156394
 30
0.0
 11
-174.7469383004875
 21
42.02523235156396
 31
0.0
  0
LINE
  5
4113
330
409C
100
AcDbEntity
  8
SUNPOU
 62
    60
370
    -2
100
AcDbLine
 10
-174.7469383004874
 20
285.025232351564
 30
0.0
 11
-174.7469383004875
 21
44.02523235156396
 31
0.0
  0
INSERT
  5
4114
330
409C
100
AcDbEntity
  8
SUNPOU
 62
    60
370
    -2
100
AcDbBlockReference
  2
_Dot
 10
-174.7469383004874
 20
287.025232351564
 30
0.0
 41
2.0
 42
2.0
 43
2.0
 50
90.0
  0
INSERT
  5
4115
330
409C
100
AcDbEntity
  8
SUNPOU
 62
    60
370
    -2
100
AcDbBlockReference
  2
_Dot
 10
-174.7469383004875
 20
42.02523235156396
 30
0.0
 41
2.0
 42
2.0
 43
2.0
 50
270.0
  0
MTEXT
  5
4116
330
409C
100
AcDbEntity
  8
SUNPOU
 62
    60
100
AcDbMText
 10
-180.2469383004875
 20
164.5252323515639
 30
0.0
 40
5.0
 41
0.0
 71
     5
 72
     1
  1
\A1;245
  7
SUNPOU
 11
0.0000000000000001
 21
1.0
 31
0.0
 73
     1
 44
1.0
1001
ACAD
1000
MTEXTBEGIN
1070
    73
1070
     1
1070
    44
1040
1.0
1070
    74
1070
     0
1000
MTEXTEND
  0
POINT
  5
4117
330
409C
100
AcDbEntity
  8
DEFPOINTS
 62
     0
100
AcDbPoint
 10
84.91135322548357
 20
287.0252323515639
 30
0.0
  0
POINT
  5
4118
330
409C
100
AcDbEntity
  8
DEFPOINTS
 62
     0
100
AcDbPoint
 10
-91.83767760128969
 20
42.02523235156394
 30
0.0
  0
POINT
  5
4119
330
409C
100
AcDbEntity
  8
DEFPOINTS
 62
     0
100
AcDbPoint
 10
-174.7469383004875
 20
42.02523235156396
 30
0.0
  0
ENDBLK
  5
40A7
330
409C
100
AcDbEntity
  8
0
100
AcDbBlockEnd
  0
ENDSEC
  0
SECTION
  2
ENTITIES
  0
LINE
  5
1F
330
2
100
AcDbEntity
  8
WAKU
100
AcDbLine
 10
0.0
 20
14.0
 30
0.0
 11
148.6829221395387
 21
14.0
 31
0.0
  0
LINE
  5
20
330
2
100
AcDbEntity
  8
WAKU
100
AcDbLine
 10
0.0
 20
0.0
 30
0.0
 11
148.6829221395387
 21
0.0
 31
0.0
  0
TEXT
  5
21
330
2
100
AcDbEntity
  8
HOJO
100
AcDbText
 10
9.653966000000025
 20
2.366626000000024
 30
0.0
 40
9.0
  1
TC155
  7
SUNPOU
100
AcDbText
  0
TEXT
  5
23
330
2
100
AcDbEntity
  8
HOJO
100
AcDbText
 10
85.84696046283864
 20
5.044386000000031
 30
0.0
 40
6.0
  1
385×245×20
  7
SUNPOU
100
AcDbText
  0
SPLINE
  5
3EC9
330
2
100
AcDbEntity
  8
KIJUN
100
AcDbSpline
210
0.0
220
0.0
230
1.0
 70
     8
 71
     3
 72
    10
 73
     6
 74
     4
 42
0.0000000001
 43
0.0000000001
 44
0.0000000001
 40
0.0
 40
0.0
 40
0.0
 40
0.0
 40
10.00968454076671
 40
29.72082086457811
 40
48.99782631926875
 40
48.99782631926875
 40
48.99782631926875
 40
48.99782631926875
 10
-42.17671673968609
 20
146.0701267188687
 30
0.0
 10
-38.80414456216552
 20
146.5454478089507
 30
0.0
 10
-28.7902811748913
 20
147.9567743012042
 30
0.0
 10
-17.51138030101779
 20
161.984764485513
 30
0.0
 10
-13.15376580187811
 20
174.0849554571164
 30
0.0
 10
-10.9992194542583
 20
180.0676834539407
 30
0.0
 11
-42.17671673968609
 21
146.0701267188687
 31
0.0
 11
-32.41883514568544
 21
148.3011649083956
 31
0.0
 11
-18.591580431927
 21
162.3487953938804
 31
0.0
 11
-10.9992194542583
 21
180.0676834539407
 31
0.0
  0
SPLINE
  5
3ECA
330
2
100
AcDbEntity
  8
KIJUN
100
AcDbSpline
210
0.0
220
0.0
230
1.0
 70
     8
 71
     3
 72
    13
 73
     9
 74
     7
 42
0.0000000001
 43
0.0000000001
 44
0.0000000001
 40
0.0
 40
0.0
 40
0.0
 40
0.0
 40
11.70711139699416
 40
25.97490396947334
 40
46.90194558622492
 40
65.75307335758535
 40
86.74615778430196
 40
95.75987467820359
 40
95.75987467820359
 40
95.75987467820359
 40
95.75987467820359
 10
-37.24973832285121
 20
124.9268608739642
 30
0.0
 10
-33.20942984427228
 20
126.1490076734076
 30
0.0
 10
-24.24508149399676
 20
128.8606198444761
 30
0.0
 10
-22.08647293201508
 20
146.4092733017239
 30
0.0
 10
-13.31186026236287
 20
161.6499992386631
 30
0.0
 10
-12.93012131324663
 20
183.5409731004107
 30
0.0
 10
1.385799352029168
 20
193.908185403523
 30
0.0
 10
9.058102697285383
 20
200.1793054341116
 30
0.0
 10
11.36277921176464
 20
202.0630817140099
 30
0.0
 11
-37.24973832285121
 21
124.9268608739642
 31
0.0
 11
-26.70696980076594
 21
130.0167026348993
 31
0.0
 11
-21.72009018218452
 21
143.384609597512
 31
0.0
 11
-14.69312547172201
 21
163.0966069033957
 31
0.0
 11
-10.38627421710121
 21
181.4491557869357
 31
0.0
 11
4.347685689015237
 21
196.403085679516
 31
0.0
 11
11.36277921176464
 21
202.0630817140099
 31
0.0
  0
SPLINE
  5
3ECB
330
2
100
AcDbEntity
  8
KIJUN
100
AcDbSpline
210
0.0
220
0.0
230
1.0
 70
     8
 71
     3
 72
    10
 73
     6
 74
     4
 42
0.0000000001
 43
0.0000000001
 44
0.0000000001
 40
0.0
 40
0.0
 40
0.0
 40
0.0
 40
13.74122025571198
 40
34.80453217008674
 40
75.94224619419063
 40
75.94224619419063
 40
75.94224619419063
 40
75.94224619419063
 10
-25.50347952012659
 20
92.0373362263353
 30
0.0
 10
-25.52277428950129
 20
96.62974638618319
 30
0.0
 10
-25.57164516187793
 20
108.2616600133749
 30
0.0
 10
-19.50330839974789
 20
133.0631800821906
 30
0.0
 10
-11.96904466255258
 20
152.3681236929496
 30
0.0
 10
-6.986130276068462
 20
165.1357788486111
 30
0.0
 11
-25.50347952012659
 21
92.0373362263353
 31
0.0
 11
-25.12023412321765
 21
105.7732110467367
 31
0.0
 11
-20.81338498982727
 21
126.3915077597161
 31
0.0
 11
-6.986130276068462
 21
165.1357788486111
 31
0.0
  0
SPLINE
  5
3ECC
330
2
100
AcDbEntity
  8
KIJUN
100
AcDbSpline
210
0.0
220
0.0
230
1.0
 70
     8
 71
     3
 72
     9
 73
     5
 74
     3
 42
0.0000000001
 43
0.0000000001
 44
0.0000000001
 40
0.0
 40
0.0
 40
0.0
 40
0.0
 40
13.44528051025399
 40
43.6648494907352
 40
43.6648494907352
 40
43.6648494907352
 40
43.6648494907352
 10
9.73529688804647
 20
124.9268608739642
 30
0.0
 10
6.929965585207736
 20
128.549740439024
 30
0.0
 10
-2.180619278877587
 20
140.3153923947978
 30
0.0
 10
-0.8677654451774584
 20
155.6534735658279
 30
0.0
 10
0.0408344343940548
 20
166.2686527633312
 30
0.0
 11
9.73529688804647
 21
124.9268608739642
 31
0.0
 11
2.30759847590334
 21
136.1342184705461
 31
0.0
 11
0.0408344343940548
 21
166.2686527633312
 31
0.0
  0
SPLINE
  5
3ECD
330
2
100
AcDbEntity
  8
KIJUN
100
AcDbSpline
210
0.0
220
0.0
230
1.0
 70
     8
 71
     3
 72
     9
 73
     5
 74
     3
 42
0.0000000001
 43
0.0000000001
 44
0.0000000001
 40
0.0
 40
0.0
 40
0.0
 40
0.0
 40
15.87230185994085
 40
50.12185397669239
 40
50.12185397669239
 40
50.12185397669239
 40
50.12185397669239
 10
14.4338004094926
 20
134.3238679158778
 30
0.0
 10
11.97859767063013
 20
139.0851059267148
 30
0.0
 10
4.22551218584469
 20
154.1202330578174
 30
0.0
 10
5.510029309584877
 20
171.2975061550985
 30
0.0
 10
6.387772902127513
 20
183.0351787169033
 30
0.0
 11
14.4338004094926
 21
134.3238679158778
 31
0.0
 11
7.974506458445
 21
148.8224019102871
 31
0.0
 11
6.387772902127513
 21
183.0351787169033
 31
0.0
  0
SPLINE
  5
3ECF
330
2
100
AcDbEntity
  8
KIJUN
100
AcDbSpline
210
0.0
220
0.0
230
1.0
 70
     8
 71
     3
 72
    18
 73
    14
 74
    12
 42
0.0000000001
 43
0.0000000001
 44
0.0000000001
 40
0.0
 40
0.0
 40
0.0
 40
0.0
 40
8.78076982477275
 40
26.48824247150221
 40
33.95796540611672
 40
51.53335049722798
 40
62.48969500855717
 40
73.82343519644042
 40
88.53907946220299
 40
102.4733890127202
 40
112.1485444725536
 40
122.0207466175513
 40
128.987371246229
 40
128.987371246229
 40
128.987371246229
 40
128.987371246229
 10
52.0218285778558
 20
148.4193784794124
 30
0.0
 10
49.0435018684254
 20
148.4190279905004
 30
0.0
 10
40.0590231025462
 20
148.4179706987742
 30
0.0
 10
30.73211475518546
 20
157.3837724848562
 30
0.0
 10
25.44164743612983
 20
170.6914219855592
 30
0.0
 10
29.40825082693979
 20
184.1123415683564
 30
0.0
 10
40.45587183405649
 20
191.7179051342586
 30
0.0
 10
53.69473619722604
 20
194.8979602693937
 30
0.0
 10
64.01721134755522
 20
183.3791951036763
 30
0.0
 10
66.18200156304985
 20
169.8393520257931
 30
0.0
 10
58.54279949846316
 20
159.8896522301386
 30
0.0
 10
46.70507379436419
 20
161.5188837688237
 30
0.0
 10
46.24095488196495
 20
167.6472389146709
 30
0.0
 10
46.0489378080195
 20
170.1826857404015
 30
0.0
 11
52.0218285778558
 21
148.4193784794124
 31
0.0
 11
43.27467357616664
 21
149.1869708791038
 31
0.0
 11
29.79968315138684
 21
160.675191828701
 31
0.0
 11
27.2133345002789
 21
167.6828705723948
 31
0.0
 11
31.94491764654524
 21
184.6093670211826
 31
0.0
 11
40.78550910724924
 21
191.081262236331
 31
0.0
 11
51.99378640005567
 21
192.7629836086157
 31
0.0
 11
62.69451471421419
 21
182.6612708972466
 31
0.0
 11
64.08164470890962
 21
168.7961761255744
 31
0.0
 11
57.54231062130016
 21
161.6655560359488
 31
0.0
 11
47.83239217350739
 21
163.4482110583553
 31
0.0
 11
46.0489378080195
 21
170.1826857404015
 31
0.0
  0
SPLINE
  5
3ED0
330
2
100
AcDbEntity
  8
KIJUN
100
AcDbSpline
210
0.0
220
0.0
230
1.0
 70
     8
 71
     3
 72
    13
 73
     9
 74
     7
 42
0.0000000001
 43
0.0000000001
 44
0.0000000001
 40
0.0
 40
0.0
 40
0.0
 40
0.0
 40
4.232480818532321
 40
9.025375063545711
 40
18.30419175848234
 40
29.77235371779608
 40
38.46865241782725
 40
47.96603022430668
 40
47.96603022430668
 40
47.96603022430668
 40
47.96603022430668
 10
84.91135322548471
 20
178.9596513664974
 30
0.0
 10
83.46337429517488
 20
178.9649907276726
 30
0.0
 10
80.37569274610886
 20
178.97637642303
 30
0.0
 10
75.39237553005546
 20
174.4332082812825
 30
0.0
 10
75.37236607055918
 20
165.3823696428597
 30
0.0
 10
69.06848648471829
 20
157.0674272219708
 30
0.0
 10
60.56341091440595
 20
151.9447306196123
 30
0.0
 10
54.95138964109566
 20
149.6284910252165
 30
0.0
 10
52.02182857785732
 20
148.4193784794134
 30
0.0
 11
84.91135322548471
 21
178.9596513664974
 31
0.0
 11
80.70607930922411
 21
178.4805217718549
 31
0.0
 11
77.05683288937199
 21
175.3732986046075
 31
0.0
 11
74.48884348953324
 21
166.4569165075599
 31
0.0
 11
68.00129500576078
 21
157.000148909921
 31
0.0
 11
60.70280216605572
 21
152.2717651111016
 31
0.0
 11
52.02182857785732
 21
148.4193784794134
 31
0.0
  0
ARC
  5
3ED1
330
2
100
AcDbEntity
  8
KIJUN
100
AcDbCircle
 10
61.41883562003588
 20
155.119627055606
 30
0.0
 40
11.54110360119585
100
AcDbArc
 50
215.4896072141834
 51
324.5103927858045
  0
SPLINE
  5
3ED2
330
2
100
AcDbEntity
  8
KIJUN
100
AcDbSpline
210
0.0
220
0.0
230
1.0
 70
     8
 71
     3
 72
    10
 73
     6
 74
     4
 42
0.0000000001
 43
0.0000000001
 44
0.0000000001
 40
0.0
 40
0.0
 40
0.0
 40
0.0
 40
9.629903912201044
 40
28.57705764912737
 40
56.07352660216032
 40
56.07352660216032
 40
56.07352660216032
 40
56.07352660216032
 10
-56.04375240721021
 20
66.19556686034099
 30
0.0
 10
-54.74863710562601
 20
69.21794691506939
 30
0.0
 10
-50.90533970898777
 20
78.18695946690957
 30
0.0
 10
-31.2898002367927
 20
85.44724820045253
 30
0.0
 10
-27.01081521974078
 20
101.3916382402743
 30
0.0
 10
-24.47748616706769
 20
110.8313503107926
 30
0.0
 11
-56.04375240721021
 21
66.19556686034099
 31
0.0
 11
-51.45964418519265
 21
74.66439211341216
 31
0.0
 11
-36.27233274351298
 21
85.99312575421009
 31
0.0
 11
-24.47748616706769
 21
110.8313503107926
 31
0.0
  0
SPLINE
  5
3ED3
330
2
100
AcDbEntity
  8
KIJUN
100
AcDbSpline
210
0.0
220
0.0
230
1.0
 70
     8
 71
     3
 72
    10
 73
     6
 74
     4
 42
0.0000000001
 43
0.0000000001
 44
0.0000000001
 40
0.0
 40
0.0
 40
0.0
 40
0.0
 40
9.967610843570305
 40
35.70432200348854
 40
59.42739115312537
 40
59.42739115312537
 40
59.42739115312537
 40
59.42739115312537
 10
-60.74225592830005
 20
84.98958094470033
 30
0.0
 10
-57.35573000702692
 20
85.43827299740312
 30
0.0
 10
-45.22507865397042
 20
87.04550323356755
 30
0.0
 10
-34.08126617703597
 20
106.5993930993473
 30
0.0
 10
-27.59585261990143
 20
121.3077985588295
 30
0.0
 10
-24.48516524286567
 20
128.3625917182884
 30
0.0
 11
-60.74225592830005
 21
84.98958094470033
 31
0.0
 11
-51.00629264962943
 21
87.12599966892963
 31
0.0
 11
-34.45892235879771
 21
106.8379969748131
 31
0.0
 11
-24.48516524286567
 21
128.3625917182884
 31
0.0
  0
SPLINE
  5
3ED5
330
2
100
AcDbEntity
  8
KIJUN
100
AcDbSpline
210
0.0
220
0.0
230
1.0
 70
     8
 71
     3
 72
    10
 73
     6
 74
     4
 42
0.0000000001
 43
0.0000000001
 44
0.0000000001
 40
0.0
 40
0.0
 40
0.0
 40
0.0
 40
9.762917108555939
 40
18.30444070437154
 40
28.57119734775277
 40
28.57119734775277
 40
28.57119734775277
 40
28.57119734775277
 10
-82.94099953784453
 20
85.22415070732419
 30
0.0
 10
-86.29365476538495
 20
84.46793771625985
 30
0.0
 10
-92.57952999430944
 20
83.05011805222907
 30
0.0
 10
-96.63429077244536
 20
72.64032047296601
 30
0.0
 10
-93.16403288433853
 20
67.06095489604891
 30
0.0
 10
-91.26974522093394
 20
64.01538199548731
 30
0.0
 11
-82.94099953784453
 21
85.22415070732419
 31
0.0
 11
-91.94977358489417
 21
81.46163284853082
 31
0.0
 11
-95.12324281876068
 21
73.53151819869269
 31
0.0
 11
-91.26974522093394
 21
64.01538199548731
 31
0.0
  0
SPLINE
  5
3ED6
330
2
100
AcDbEntity
  8
KIJUN
100
AcDbSpline
210
0.0
220
0.0
230
1.0
 70
     8
 71
     3
 72
    11
 73
     7
 74
     5
 42
0.0000000001
 43
0.0000000001
 44
0.0000000001
 40
0.0
 40
0.0
 40
0.0
 40
0.0
 40
10.89008179518168
 40
20.09236399118153
 40
37.72348462325776
 40
49.72152077034174
 40
49.72152077034174
 40
49.72152077034174
 40
49.72152077034174
 10
-82.94099953784453
 20
85.22415070732378
 30
0.0
 10
-84.63153671883862
 20
81.67612239116726
 30
0.0
 10
-87.75060313358192
 20
75.12995701610302
 30
0.0
 10
-78.20538046380743
 20
63.37845261703648
 30
0.0
 10
-63.43075511360331
 20
68.629145309075
 30
0.0
 10
-55.53046277862273
 20
74.09130748440644
 30
0.0
 10
-52.33131696039622
 20
76.30315643135169
 30
0.0
 11
-82.94099953784453
 21
85.22415070732378
 31
0.0
 11
-85.60283723839228
 21
74.66439211341217
 31
0.0
 11
-79.93592925585024
 21
67.41400236304585
 31
0.0
 11
-62.48185377266128
 21
69.90632332350952
 31
0.0
 11
-52.33131696039622
 21
76.30315643135169
 31
0.0
  0
ARC
  5
3EDC
330
2
100
AcDbEntity
  8
KIJUN
100
AcDbCircle
 10
-85.78047714018149
 20
48.34999165630954
 30
0.0
 40
8.757411586137493
100
AcDbArc
 50
154.6330872002139
 51
226.2378983145227
  0
ARC
  5
3EDD
330
2
100
AcDbEntity
  8
KIJUN
100
AcDbCircle
 10
9.990350683000631
 20
130.6724633778499
 30
0.0
 40
5.751260780992183
100
AcDbArc
 50
267.4582442255744
 51
39.41165342027254
  0
ARC
  5
3EE9
330
2
100
AcDbEntity
  8
KIJUN
100
AcDbCircle
 10
84.91135322548455
 20
151.0035554160128
 30
0.0
 40
14.33043573932403
100
AcDbArc
 50
190.388857815472
 51
349.6111421845279
  0
SPLINE
  5
3EF2
330
2
100
AcDbEntity
  8
KIJUN
100
AcDbSpline
210
0.0
220
0.0
230
1.0
 70
     8
 71
     3
 72
    11
 73
     7
 74
     5
 42
0.0000000001
 43
0.0000000001
 44
0.0000000001
 40
0.0
 40
0.0
 40
0.0
 40
0.0
 40
11.77353080925606
 40
34.22323114706264
 40
48.03766682508843
 40
65.26542412759162
 40
65.26542412759162
 40
65.26542412759162
 40
65.26542412759162
 10
62.16354036964407
 20
183.704960600975
 30
0.0
 10
60.95610299510773
 20
187.5690060977979
 30
0.0
 10
57.44633103002539
 20
198.8009911618346
 30
0.0
 10
36.17700172182229
 20
203.4991655869728
 30
0.0
 10
23.35469168524204
 20
187.760429903079
 30
0.0
 10
25.68792843815653
 20
177.1538405165555
 30
0.0
 10
26.98282524308603
 20
171.267408850051
 30
0.0
 11
62.16354036964407
 21
183.704960600975
 31
0.0
 11
57.16326579537613
 21
194.3639137343005
 31
0.0
 11
35.17566435040053
 21
198.8954066399797
 31
0.0
 11
26.10861030559457
 21
188.4729710296782
 31
0.0
 11
26.98282524308603
 21
171.267408850051
 31
0.0
  0
SPLINE
  5
3EF3
330
2
100
AcDbEntity
  8
KIJUN
100
AcDbSpline
210
0.0
220
0.0
230
1.0
 70
     8
 71
     3
 72
    12
 73
     8
 74
     6
 42
0.0000000001
 43
0.0000000001
 44
0.0000000001
 40
0.0
 40
0.0
 40
0.0
 40
0.0
 40
11.83403907930527
 40
39.37707210011273
 40
55.21085895377612
 40
64.92775755269024
 40
75.34886031159223
 40
75.34886031159223
 40
75.34886031159223
 40
75.34886031159223
 10
70.8158426622144
 20
196.8050370658717
 30
0.0
 10
68.08871369578358
 20
199.7016825326571
 30
0.0
 10
59.01435174566596
 20
209.34010071175
 30
0.0
 10
38.89535400405025
 20
213.193896223001
 30
0.0
 10
21.92116866211041
 20
209.1043173804195
 30
0.0
 10
13.85732343056411
 20
193.378228828547
 30
0.0
 10
11.14096840284132
 20
202.4540671828569
 30
0.0
 10
9.735296888047603
 20
207.1506724930327
 30
0.0
 11
70.8158426622144
 21
196.8050370658717
 31
0.0
 11
62.15804487689464
 21
204.8726896636871
 31
0.0
 11
35.41024064173351
 21
211.443354514582
 31
0.0
 11
20.90295544278404
 21
205.0992641713109
 31
0.0
 11
14.43380040913707
 21
197.8488744209444
 31
0.0
 11
9.735296888047603
 21
207.1506724930327
 31
0.0
  0
SPLINE
  5
3EF4
330
2
100
AcDbEntity
  8
KIJUN
100
AcDbSpline
210
0.0
220
0.0
230
1.0
 70
     8
 71
     3
 72
    12
 73
     8
 74
     6
 42
0.0000000001
 43
0.0000000001
 44
0.0000000001
 40
0.0
 40
0.0
 40
0.0
 40
0.0
 40
8.477915608319083
 40
16.65044122760454
 40
25.77654876652756
 40
39.92707702796698
 40
52.20954392434526
 40
52.20954392434526
 40
52.20954392434526
 40
52.20954392434526
 10
37.92631801458628
 20
240.0401971406654
 30
0.0
 10
37.58404496045902
 20
236.7462455135744
 30
0.0
 10
36.91182815212626
 20
230.276996407151
 30
0.0
 10
47.28173179676412
 20
228.9213604382542
 30
0.0
 10
56.8325904053879
 20
226.6002430983107
 30
0.0
 10
68.13885001307363
 20
220.5251757802752
 30
0.0
 10
71.79361856656878
 20
212.3135385098563
 30
0.0
 10
73.4918587207479
 20
208.4978845388702
 30
0.0
 11
37.92631801458628
 21
240.0401971406654
 31
0.0
 11
38.81038458276741
 21
231.6085022123129
 31
0.0
 11
46.51737977842095
 21
228.8896053676257
 31
0.0
 11
55.35775487359835
 21
226.6238589147862
 31
0.0
 11
67.37159920264343
 21
219.1468946567957
 31
0.0
 11
73.4918587207479
 21
208.4978845388702
 31
0.0
  0
ARC
  5
3EF5
330
2
100
AcDbEntity
  8
KIJUN
100
AcDbCircle
 10
36.32602254194378
 20
207.8655148110939
 30
0.0
 40
46.32092921712331
100
AcDbArc
 50
6.682738791022041
 51
68.17839175419931
  0
ARC
  5
3EF7
330
2
100
AcDbEntity
  8
KIJUN
100
AcDbCircle
 10
29.90187919982822
 20
210.2812710800802
 30
0.0
 40
20.40812802907292
100
AcDbArc
 50
93.85639365988359
 51
188.8239898319288
  0
ARC
  5
3EF8
330
2
100
AcDbEntity
  8
KIJUN
100
AcDbCircle
 10
40.15788009738114
 20
228.4116280156907
 30
0.0
 40
11.84075543298162
100
AcDbArc
 50
100.8631878726752
 51
169.1368121273236
  0
CIRCLE
  5
3F03
330
2
100
AcDbEntity
  8
KIJUN
100
AcDbCircle
 10
84.91135322548455
 20
186.0074066481322
 30
0.0
 40
7.047755281634765
  0
ARC
  5
3F06
330
2
100
AcDbEntity
  8
KIJUN
100
AcDbCircle
 10
55.06957555280711
 20
246.5186365741248
 30
0.0
 40
13.85591867698377
100
AcDbArc
 50
9.595000100913686
 51
62.72675796730018
  0
ARC
  5
3F07
330
2
100
AcDbEntity
  8
KIJUN
100
AcDbCircle
 10
91.85532192904604
 20
312.618277056183
 30
0.0
 40
43.29317905259284
100
AcDbArc
 50
239.6548065346007
 51
260.6553342420319
  0
SPLINE
  5
3F08
330
2
100
AcDbEntity
  8
KIJUN
100
AcDbSpline
210
0.0
220
0.0
230
1.0
 70
     8
 71
     3
 72
     9
 73
     5
 74
     3
 42
0.0000000001
 43
0.0000000001
 44
0.0000000001
 40
0.0
 40
0.0
 40
0.0
 40
0.0
 40
12.89417221646699
 40
28.7543882019069
 40
28.7543882019069
 40
28.7543882019069
 40
28.7543882019069
 10
70.8158426622152
 20
196.8050370658719
 30
0.0
 10
73.84510656328473
 20
193.3502486133732
 30
0.0
 10
80.60045531426046
 20
185.6459674349546
 30
0.0
 10
77.21063586691363
 20
175.7870448667343
 30
0.0
 10
75.34089451790453
 20
170.3491047437261
 30
0.0
 11
70.8158426622152
 21
196.8050370658719
 31
0.0
 11
77.86359794384996
 21
186.0074066481322
 31
0.0
 11
75.34089451790453
 21
170.3491047437261
 31
0.0
  0
CIRCLE
  5
3F09
330
2
100
AcDbEntity
  8
KIJUN
100
AcDbCircle
 10
84.91135322548455
 20
186.0074066481322
 30
0.0
 40
7.047755281634765
  0
ARC
  5
3F0B
330
2
100
AcDbEntity
  8
KIJUN
100
AcDbCircle
 10
84.91135322548673
 20
271.6730795822788
 30
0.0
 40
15.35215276928519
100
AcDbArc
 50
13.49773911400496
 51
166.5022608860072
  0
ARC
  5
3F9B
330
2
100
AcDbEntity
  8
KIJUN
100
AcDbCircle
 10
78.27574341074188
 20
261.229277289286
 30
0.0
 40
16.29494408168664
100
AcDbArc
 50
120.5906120219601
 51
154.6358665802848
  0
ARC
  5
3F9C
330
2
100
AcDbEntity
  8
KIJUN
100
AcDbCircle
 10
102.4978330891441
 20
254.4196362896137
 30
0.0
 40
41.31552377654637
100
AcDbArc
 50
160.5022156112764
 51
173.8662208811114
  0
ARC
  5
3F9D
330
2
100
AcDbEntity
  8
KIJUN
100
AcDbCircle
 10
70.65407866895139
 20
182.4887947169176
 30
0.0
 40
76.90196574873943
100
AcDbArc
 50
96.89736128944492
 51
110.7139770064871
  0
ARC
  5
3F9E
330
2
100
AcDbEntity
  8
KIJUN
100
AcDbCircle
 10
63.67038680476985
 20
243.7654193676357
 30
0.0
 40
26.01219634160115
100
AcDbArc
 50
169.5291531770573
 51
188.2336726578339
  0
ARC
  5
3F9F
330
2
100
AcDbEntity
  8
KIJUN
100
AcDbCircle
 10
46.60181092921261
 20
246.1822148765699
 30
0.0
 40
8.818524801018668
100
AcDbArc
 50
110.9159110672499
 51
164.8106744588447
  0
ARC
  5
3FA5
330
2
100
AcDbEntity
  8
KIJUN
100
AcDbCircle
 10
32.81070841820824
 20
152.905415652297
 30
0.0
 40
58.94932151436187
100
AcDbArc
 50
113.0444354955453
 51
163.1788607667612
  0
ARC
  5
3FA6
330
2
100
AcDbEntity
  8
KIJUN
100
AcDbCircle
 10
-35.69740097697375
 20
166.7257405392332
 30
0.0
 40
10.11735712647747
100
AcDbArc
 50
280.89905010742
 51
331.3928554318902
  0
ARC
  5
3FA7
330
2
100
AcDbEntity
  8
KIJUN
100
AcDbCircle
 10
-58.44876315465105
 20
179.074899410404
 30
0.0
 40
36.0041385539728
100
AcDbArc
 50
331.4752382145745
 51
345.342608049175
  0
ARC
  5
3FA8
330
2
100
AcDbEntity
  8
KIJUN
100
AcDbCircle
 10
-28.20548680989166
 20
117.0103462281766
 30
0.0
 40
40.16983326342322
100
AcDbArc
 50
97.98325258539733
 51
108.0283340707568
  0
ARC
  5
3FA9
330
2
100
AcDbEntity
  8
KIJUN
100
AcDbCircle
 10
-21.88187303298781
 20
151.5203838267428
 30
0.0
 40
21.01394735934354
100
AcDbArc
 50
178.6874084388356
 51
195.0323152724079
  0
ARC
  5
3FAA
330
2
100
AcDbEntity
  8
KIJUN
100
AcDbCircle
 10
-39.31748907856867
 20
151.8859520675902
 30
0.0
 40
3.574693337985963
100
AcDbArc
 50
111.6709997762854
 51
178.1436278993664
  0
ARC
  5
3FAB
330
2
100
AcDbEntity
  8
KIJUN
100
AcDbCircle
 10
-35.72858292363736
 20
118.2820989863536
 30
0.0
 40
28.52635474386273
100
AcDbArc
 50
103.064116876024
 51
114.2661852411497
  0
ARC
  5
3FAD
330
2
100
AcDbEntity
  8
KIJUN
100
AcDbCircle
 10
-42.76804628827455
 20
134.6883512439879
 30
0.0
 40
10.68155543127347
100
AcDbArc
 50
116.0102020937242
 51
165.9386803856622
  0
ARC
  5
3FAE
330
2
100
AcDbEntity
  8
KIJUN
100
AcDbCircle
 10
-38.5403715475657
 20
132.9180540607559
 30
0.0
 40
15.22830941597112
100
AcDbArc
 50
163.3413388266715
 51
212.8648771820921
  0
ARC
  5
3FAF
330
2
100
AcDbEntity
  8
KIJUN
100
AcDbCircle
 10
-46.95671580090105
 20
127.6833016572717
 30
0.0
 40
5.321014455470304
100
AcDbArc
 50
214.6985872756661
 51
263.1648431667481
  0
ARC
  5
3FB0
330
2
100
AcDbEntity
  8
KIJUN
100
AcDbCircle
 10
-46.53653490368959
 20
131.7156418310269
 30
0.0
 40
9.374912258330706
100
AcDbArc
 50
263.5480884284362
 51
278.0254198381193
  0
ARC
  5
3FB1
330
2
100
AcDbEntity
  8
KIJUN
100
AcDbCircle
 10
-52.30157118096916
 20
159.0637078413382
 30
0.0
 40
37.30793472255772
100
AcDbArc
 50
280.9299204088899
 51
293.7939429378472
  0
ARC
  5
3FB2
330
2
100
AcDbEntity
  8
KIJUN
100
AcDbCircle
 10
-70.2957272868248
 20
125.17075295307
 30
0.0
 40
33.04688896028363
100
AcDbArc
 50
313.1825704306556
 51
359.5771428389802
  0
ARC
  5
3FB3
330
2
100
AcDbEntity
  8
KIJUN
100
AcDbCircle
 10
-56.48862620712552
 20
110.2398178655654
 30
0.0
 40
12.71193075963274
100
AcDbArc
 50
256.6479122758884
 51
313.8577652201879
  0
ARC
  5
3FB4
330
2
100
AcDbEntity
  8
KIJUN
100
AcDbCircle
 10
-65.29586122381992
 20
76.69286289505025
 30
0.0
 40
21.97749928821888
100
AcDbArc
 50
74.50437680644597
 51
81.95626168976103
  0
ARC
  5
3FB5
330
2
100
AcDbEntity
  8
KIJUN
100
AcDbCircle
 10
-63.26654957224173
 20
93.43144230739699
 30
0.0
 40
5.130451841453984
100
AcDbArc
 50
78.23626767544069
 51
178.0309553331487
  0
ARC
  5
3FB6
330
2
100
AcDbEntity
  8
KIJUN
100
AcDbCircle
 10
-59.09745039990915
 20
94.15584335560934
 30
0.0
 40
9.312666203180958
100
AcDbArc
 50
183.3742412984916
 51
259.8270389532639
  0
ARC
  5
3FB7
330
2
100
AcDbEntity
  8
KIJUN
100
AcDbCircle
 10
-81.3164378941726
 20
107.4344891735154
 30
0.0
 40
30.44783849413208
100
AcDbArc
 50
280.6081999180754
 51
312.5100070120975
  0
ARC
  5
3FB8
330
2
100
AcDbEntity
  8
KIJUN
100
AcDbCircle
 10
-57.57271991203268
 20
104.0686012319282
 30
0.0
 40
63.28714375939233
100
AcDbArc
 50
225.3094866540871
 51
235.1978252674235
  0
ARC
  5
3FB9
330
2
100
AcDbEntity
  8
KIJUN
100
AcDbCircle
 10
-87.79121651075595
 20
72.77848197955305
 30
0.0
 40
19.79743026376048
100
AcDbArc
 50
165.592541007636
 51
223.7962431031581
  0
ARC
  5
3FBA
330
2
100
AcDbEntity
  8
KIJUN
100
AcDbCircle
 10
-90.58061618693274
 20
72.51844070241048
 30
0.0
 40
17.18650769740095
100
AcDbArc
 50
92.5383925081233
 51
162.4375037247367
  0
ARC
  5
3FBC
330
2
100
AcDbEntity
  8
KIJUN
100
AcDbCircle
 10
-93.4350911786972
 20
69.45646742730058
 30
0.0
 40
20.33962274720533
100
AcDbArc
 50
69.65440284177126
 51
84.09279686100511
  0
ARC
  5
3FBD
330
2
100
AcDbEntity
  8
KIJUN
100
AcDbCircle
 10
-88.39035829543959
 20
83.00629125695961
 30
0.0
 40
5.881206154842582
100
AcDbArc
 50
26.26014328171931
 51
69.83926952004852
  0
ARC
  5
3FBE
330
2
100
AcDbEntity
  8
KIJUN
100
AcDbCircle
 10
-114.5235584665059
 20
71.7883249828451
 30
0.0
 40
34.3135799318943
100
AcDbArc
 50
15.32258556312973
 51
23.75074843203583
  0
ARC
  5
3FBF
330
2
100
AcDbEntity
  8
KIJUN
100
AcDbCircle
 10
-77.09019282501181
 20
81.70919921244076
 30
0.0
 40
4.422637011208665
100
AcDbArc
 50
191.1256714756866
 51
288.1674795051154
  0
ARC
  5
3FD9
330
2
100
AcDbEntity
  8
KIJUN
100
AcDbCircle
 10
-98.15289733799161
 20
62.78394764475287
 30
0.0
 40
21.69807044293352
100
AcDbArc
 50
286.9208183281452
 51
293.044149237509
  0
ARC
  5
3FDA
330
2
100
AcDbEntity
  8
KIJUN
100
AcDbCircle
 10
-91.96132474034007
 20
48.34703872488073
 30
0.0
 40
5.989724305612859
100
AcDbArc
 50
292.6010747197762
 51
330.753171625382
  0
ARC
  5
3FDB
330
2
100
AcDbEntity
  8
KIJUN
100
AcDbCircle
 10
-78.31299315956285
 20
47.42561462295192
 30
0.0
 40
6.847810308929298
100
AcDbArc
 50
115.7559006948863
 51
155.250225777388
  0
ARC
  5
3FDC
330
2
100
AcDbEntity
  8
KIJUN
100
AcDbCircle
 10
-152.1948596481908
 20
77.95965194081652
 30
0.0
 40
73.10103830948823
100
AcDbArc
 50
333.5687240871504
 51
337.7605408914727
  0
ARC
  5
3FDD
330
2
100
AcDbEntity
  8
KIJUN
100
AcDbCircle
 10
-73.16688661318908
 20
36.61163610975024
 30
0.0
 40
18.82374631666356
100
AcDbArc
 50
103.1481015225174
 51
115.5604092463953
  0
ARC
  5
3FDE
330
2
100
AcDbEntity
  8
KIJUN
100
AcDbCircle
 10
-72.67638522940337
 20
77.10564443557614
 30
0.0
 40
19.89156271627576
100
AcDbArc
 50
300.7131164855612
 51
326.737364032887
  0
ARC
  5
3FE0
330
2
100
AcDbEntity
  8
KIJUN
100
AcDbCircle
 10
-81.63349334506461
 20
94.33228759385071
 30
0.0
 40
39.29200141839893
100
AcDbArc
 50
283.0424095206688
 51
299.1123993290738
  0
ARC
  5
3FE1
330
2
100
AcDbEntity
  8
KIJUN
100
AcDbCircle
 10
-148.8618129011337
 20
366.0661245986779
 30
0.0
 40
319.2148181577388
100
AcDbArc
 50
282.9273208234659
 51
283.7911318978929
  0
ARC
  5
3FE2
330
2
100
AcDbEntity
  8
KIJUN
100
AcDbCircle
 10
-170.9002564551553
 20
154.2757648276549
 30
0.0
 40
158.1576578539783
100
AcDbArc
 50
328.0591627845642
 51
336.8262083418398
  0
ARC
  5
3FE3
330
2
100
AcDbEntity
  8
KIJUN
100
AcDbCircle
 10
-38.4820632712866
 20
89.97478328742252
 30
0.0
 40
29.56119177558331
100
AcDbArc
 50
233.5529819031894
 51
243.1995544684532
  0
ARC
  5
3FE4
330
2
100
AcDbEntity
  8
KIJUN
100
AcDbCircle
 10
-47.847382407192
 20
71.31018801451514
 30
0.0
 40
8.679009442106128
100
AcDbArc
 50
242.8281552738918
 51
301.3113398648879
  0
ARC
  5
3FE5
330
2
100
AcDbEntity
  8
KIJUN
100
AcDbCircle
 10
-55.73340001712263
 20
82.82994855040243
 30
0.0
 40
22.63171291315567
100
AcDbArc
 50
303.2124142060924
 51
327.3003938471259
  0
ARC
  5
3FE6
330
2
100
AcDbEntity
  8
KIJUN
100
AcDbCircle
 10
-51.14934347769992
 20
77.1138320222899
 30
0.0
 40
29.67189437596665
100
AcDbArc
 50
21.13934038263676
 51
30.1954187952515
  0
ARC
  5
3FE7
330
2
100
AcDbEntity
  8
KIJUN
100
AcDbCircle
 10
-33.74723529641607
 20
84.18716339174439
 30
0.0
 40
10.89467859562823
100
AcDbArc
 50
352.6774489198742
 51
19.44835871896994
  0
ARC
  5
3FE8
330
2
100
AcDbEntity
  8
KIJUN
100
AcDbCircle
 10
-3.788695808874831
 20
80.07476587634149
 30
0.0
 40
19.3454291699799
100
AcDbArc
 50
171.9059188829569
 51
179.0624115156576
  0
ARC
  5
3FE9
330
2
100
AcDbEntity
  8
KIJUN
100
AcDbCircle
 10
-20.7032018463651
 20
80.3253807389972
 30
0.0
 40
2.429228133307918
100
AcDbArc
 50
178.4445543561683
 51
223.095789067031
  0
ARC
  5
3FEA
330
2
100
AcDbEntity
  8
KIJUN
100
AcDbCircle
 10
-20.71111709591843
 20
80.82528248988655
 30
0.0
 40
2.78969606647788
100
AcDbArc
 50
230.7266061204702
 51
256.3479015293368
  0
ARC
  5
3FEB
330
2
100
AcDbEntity
  8
KIJUN
100
AcDbCircle
 10
-19.21186463992455
 20
87.82890595392753
 30
0.0
 40
9.951240136789667
100
AcDbArc
 50
257.4772929152914
 51
297.8157163006865
  0
ARC
  5
3FEC
330
2
100
AcDbEntity
  8
KIJUN
100
AcDbCircle
 10
-21.6381336747967
 20
92.82026132490202
 30
0.0
 40
15.49911021400714
100
AcDbArc
 50
297.1384938153404
 51
322.4047628718212
  0
ARC
  5
3FED
330
2
100
AcDbEntity
  8
KIJUN
100
AcDbCircle
 10
-55.77507331715293
 20
117.5717034462598
 30
0.0
 40
57.66032336862342
100
AcDbArc
 50
323.6118463547837
 51
338.8165467481629
  0
ARC
  5
3FEE
330
2
100
AcDbEntity
  8
KIJUN
100
AcDbCircle
 10
-24.24515421505035
 20
122.5427343530844
 30
0.0
 40
34.0639856217321
100
AcDbArc
 50
310.7468772041088
 51
4.013392899810409
  0
ARC
  5
3FEF
330
2
100
AcDbEntity
  8
KIJUN
100
AcDbCircle
 10
-35.36579569034946
 20
65.21050171611486
 30
0.0
 40
85.18601504455594
100
AcDbArc
 50
46.48032376054765
 51
54.22538606785392
  0
ARC
  5
3FF0
330
2
100
AcDbEntity
  8
KIJUN
100
AcDbCircle
 10
13.10171580278019
 20
117.071493569047
 30
0.0
 40
14.21601094828283
100
AcDbArc
 50
26.11817751479299
 51
44.19838435405573
  0
ARC
  5
3FF1
330
2
100
AcDbEntity
  8
KIJUN
100
AcDbCircle
 10
21.32904437308944
 20
121.0358421707816
 30
0.0
 40
5.08397216296004
100
AcDbArc
 50
322.1324097409863
 51
26.82061398537691
  0
ARC
  5
3FF2
330
2
100
AcDbEntity
  8
KIJUN
100
AcDbCircle
 10
-2.034956030233099
 20
139.5852232090706
 30
0.0
 40
34.91588116768708
100
AcDbArc
 50
317.6158900696671
 51
321.6372656245383
  0
ARC
  5
3FF3
330
2
100
AcDbEntity
  8
KIJUN
100
AcDbCircle
 10
27.04618129883283
 20
113.2453484599478
 30
0.0
 40
4.322849573880427
100
AcDbArc
 50
139.5749414144301
 51
155.0725696433403
  0
ARC
  5
3FF5
330
2
100
AcDbEntity
  8
KIJUN
100
AcDbCircle
 10
24.51162565757794
 20
114.5162533749938
 30
0.0
 40
1.491142073949248
100
AcDbArc
 50
158.3123396514019
 51
205.4220461348249
  0
ARC
  5
3FF6
330
2
100
AcDbEntity
  8
KIJUN
100
AcDbCircle
 10
29.76673472758999
 20
119.1164652200985
 30
0.0
 40
8.428861325298091
100
AcDbArc
 50
218.4413407014821
 51
315.7900543791985
  0
ARC
  5
3FF7
330
2
100
AcDbEntity
  8
KIJUN
100
AcDbCircle
 10
135.8196385021071
 20
123.6588757179282
 30
0.0
 40
96.77141142725071
100
AcDbArc
 50
170.8650306350103
 51
180.0234363132553
  0
ARC
  5
3FF8
330
2
100
AcDbEntity
  8
KIJUN
100
AcDbCircle
 10
9.585032497313687
 20
122.9747922725854
 30
0.0
 40
29.4702509659249
100
AcDbArc
 50
351.8581814138185
 51
1.253130604052755
  0
ARC
  5
3FF9
330
2
100
AcDbEntity
  8
KIJUN
100
AcDbCircle
 10
29.66009407929659
 20
120.0630719573177
 30
0.0
 40
9.18524995591729
100
AcDbArc
 50
312.0187103910009
 51
352.103113139998
  0
ARC
  5
3FFA
330
2
100
AcDbEntity
  8
KIJUN
100
AcDbCircle
 10
33.3841651068673
 20
152.8843056328097
 30
0.0
 40
15.48046116704048
100
AcDbArc
 50
296.434082613741
 51
343.4490393444695
  0
DIMENSION
  5
408E
330
2
100
AcDbEntity
  8
SUNPOU
100
AcDbDimension
  2
*D1
 10
277.4113532254836
 20
328.2456046066284
 30
0.0
 11
84.91135322548357
 21
333.7456046066284
 31
0.0
 70
    32
 71
     5
 42
385.0
  3
STANDARD
100
AcDbAlignedDimension
 13
-107.5886467745164
 23
72.77848197955305
 33
0.0
 14
277.4113532254836
 24
72.77848197955305
 34
0.0
100
AcDbRotatedDimension
1001
ACAD
1000
DSTYLE
1002
{
1070
    41
1040
2.0
1070
    42
1040
10.0
1070
    44
1040
0.0
1070
    73
1070
     0
1070
    74
1070
     0
1070
    77
1070
     1
1070
   140
1040
5.0
1070
   141
1040
0.0
1070
   146
1040
0.064286
1070
   147
1040
3.0
1070
   176
1070
    60
1070
   177
1070
    70
1070
   178
1070
    60
1070
   271
1070
     0
1070
   272
1070
     0
1070
   340
1005
1C
1070
   342
1005
109
1002
}
  0
DIMENSION
  5
409B
330
2
100
AcDbEntity
  8
SUNPOU
100
AcDbDimension
  2
*D2
 10
-174.7469383004875
 20
42.02523235156396
 30
0.0
 11
-180.2469383004875
 21
164.5252323515639
 31
0.0
 70
    32
 71
     5
 42
245.0
  3
STANDARD
100
AcDbAlignedDimension
 13
84.91135322548357
 23
287.0252323515639
 33
0.0
 14
-91.83767760128969
 24
42.02523235156394
 34
0.0
 50
90.0
100
AcDbRotatedDimension
1001
ACAD
1000
DSTYLE
1002
{
1070
    41
1040
2.0
1070
    42
1040
10.0
1070
    44
1040
0.0
1070
    73
1070
     0
1070
    74
1070
     0
1070
    77
1070
     1
1070
   140
1040
5.0
1070
   141
1040
0.0
1070
   146
1040
0.064286
1070
   147
1040
3.0
1070
   176
1070
    60
1070
   177
1070
    70
1070
   178
1070
    60
1070
   271
1070
     0
1070
   272
1070
     0
1070
   340
1005
1C
1070
   342
1005
109
1002
}
  0
SPLINE
  5
40BC
330
2
100
AcDbEntity
  8
KIJUN
100
AcDbSpline
210
0.0
220
0.0
230
1.0
 70
     8
 71
     3
 72
    10
 73
     6
 74
     4
 42
0.0000000001
 43
0.0000000001
 44
0.0000000001
 40
0.0
 40
0.0
 40
0.0
 40
0.0
 40
10.00968454076672
 40
29.72082086457812
 40
48.99782631926875
 40
48.99782631926875
 40
48.99782631926875
 40
48.99782631926875
 10
211.9994231906532
 20
146.0701267188687
 30
0.0
 10
208.6268510131326
 20
146.5454478089507
 30
0.0
 10
198.6129876258584
 20
147.9567743012042
 30
0.0
 10
187.3340867519849
 20
161.984764485513
 30
0.0
 10
182.9764722528453
 20
174.0849554571164
 30
0.0
 10
180.8219259052254
 20
180.0676834539407
 30
0.0
 11
211.9994231906532
 21
146.0701267188687
 31
0.0
 11
202.2415415966526
 21
148.3011649083956
 31
0.0
 11
188.4142868828941
 21
162.3487953938804
 31
0.0
 11
180.8219259052254
 21
180.0676834539407
 31
0.0
  0
SPLINE
  5
40BD
330
2
100
AcDbEntity
  8
KIJUN
100
AcDbSpline
210
0.0
220
0.0
230
1.0
 70
     8
 71
     3
 72
    13
 73
     9
 74
     7
 42
0.0000000001
 43
0.0000000001
 44
0.0000000001
 40
0.0
 40
0.0
 40
0.0
 40
0.0
 40
11.70711139699418
 40
25.97490396947335
 40
46.90194558622493
 40
65.75307335758536
 40
86.74615778430197
 40
95.75987467820359
 40
95.75987467820359
 40
95.75987467820359
 40
95.75987467820359
 10
207.0724447738184
 20
124.9268608739642
 30
0.0
 10
203.0321362952394
 20
126.1490076734076
 30
0.0
 10
194.0677879449638
 20
128.860619844476
 30
0.0
 10
191.9091793829822
 20
146.4092733017239
 30
0.0
 10
183.1345667133299
 20
161.6499992386631
 30
0.0
 10
182.7528277642138
 20
183.5409731004108
 30
0.0
 10
168.4369070989379
 20
193.908185403523
 30
0.0
 10
160.7646037536817
 20
200.1793054341116
 30
0.0
 10
158.4599272392025
 20
202.0630817140099
 30
0.0
 11
207.0724447738184
 21
124.9268608739642
 31
0.0
 11
196.5296762517331
 21
130.0167026348993
 31
0.0
 11
191.5427966331516
 21
143.384609597512
 31
0.0
 11
184.5158319226891
 21
163.0966069033957
 31
0.0
 11
180.2089806680683
 21
181.4491557869357
 31
0.0
 11
165.4750207619519
 21
196.403085679516
 31
0.0
 11
158.4599272392025
 21
202.0630817140099
 31
0.0
  0
SPLINE
  5
40BE
330
2
100
AcDbEntity
  8
KIJUN
100
AcDbSpline
210
0.0
220
0.0
230
1.0
 70
     8
 71
     3
 72
    10
 73
     6
 74
     4
 42
0.0000000001
 43
0.0000000001
 44
0.0000000001
 40
0.0
 40
0.0
 40
0.0
 40
0.0
 40
13.74122025571198
 40
34.80453217008673
 40
75.94224619419062
 40
75.94224619419062
 40
75.94224619419062
 40
75.94224619419062
 10
195.3261859710937
 20
92.0373362263353
 30
0.0
 10
195.3454807404684
 20
96.62974638618321
 30
0.0
 10
195.3943516128451
 20
108.2616600133749
 30
0.0
 10
189.326014850715
 20
133.0631800821906
 30
0.0
 10
181.7917511135196
 20
152.3681236929495
 30
0.0
 10
176.8088367270356
 20
165.1357788486111
 30
0.0
 11
195.3261859710937
 21
92.0373362263353
 31
0.0
 11
194.9429405741847
 21
105.7732110467367
 31
0.0
 11
190.6360914407944
 21
126.3915077597161
 31
0.0
 11
176.8088367270356
 21
165.1357788486111
 31
0.0
  0
SPLINE
  5
40BF
330
2
100
AcDbEntity
  8
KIJUN
100
AcDbSpline
210
0.0
220
0.0
230
1.0
 70
     8
 71
     3
 72
     9
 73
     5
 74
     3
 42
0.0000000001
 43
0.0000000001
 44
0.0000000001
 40
0.0
 40
0.0
 40
0.0
 40
0.0
 40
13.44528051025398
 40
43.6648494907352
 40
43.6648494907352
 40
43.6648494907352
 40
43.6648494907352
 10
160.0874095629206
 20
124.9268608739642
 30
0.0
 10
162.8927408657594
 20
128.549740439024
 30
0.0
 10
172.0033257298446
 20
140.3153923947978
 30
0.0
 10
170.6904718961446
 20
155.6534735658279
 30
0.0
 10
169.7818720165731
 20
166.2686527633312
 30
0.0
 11
160.0874095629206
 21
124.9268608739642
 31
0.0
 11
167.5151079750638
 21
136.1342184705461
 31
0.0
 11
169.7818720165731
 21
166.2686527633312
 31
0.0
  0
SPLINE
  5
40C0
330
2
100
AcDbEntity
  8
KIJUN
100
AcDbSpline
210
0.0
220
0.0
230
1.0
 70
     8
 71
     3
 72
     9
 73
     5
 74
     3
 42
0.0000000001
 43
0.0000000001
 44
0.0000000001
 40
0.0
 40
0.0
 40
0.0
 40
0.0
 40
15.87230185994084
 40
50.12185397669238
 40
50.12185397669238
 40
50.12185397669238
 40
50.12185397669238
 10
155.3889060414745
 20
134.3238679158778
 30
0.0
 10
157.844108780337
 20
139.0851059267147
 30
0.0
 10
165.5971942651224
 20
154.1202330578174
 30
0.0
 10
164.3126771413823
 20
171.2975061550986
 30
0.0
 10
163.4349335488396
 20
183.0351787169033
 30
0.0
 11
155.3889060414745
 21
134.3238679158778
 31
0.0
 11
161.8481999925221
 21
148.8224019102871
 31
0.0
 11
163.4349335488396
 21
183.0351787169033
 31
0.0
  0
SPLINE
  5
40C1
330
2
100
AcDbEntity
  8
KIJUN
100
AcDbSpline
210
0.0
220
0.0
230
1.0
 70
     8
 71
     3
 72
    18
 73
    14
 74
    12
 42
0.0000000001
 43
0.0000000001
 44
0.0000000001
 40
0.0
 40
0.0
 40
0.0
 40
0.0
 40
8.780769824772734
 40
26.48824247150221
 40
33.95796540611671
 40
51.53335049722797
 40
62.48969500855716
 40
73.82343519644037
 40
88.53907946220294
 40
102.4733890127201
 40
112.1485444725535
 40
122.0207466175512
 40
128.987371246229
 40
128.987371246229
 40
128.987371246229
 40
128.987371246229
 10
117.8008778731113
 20
148.4193784794124
 30
0.0
 10
120.7792045825417
 20
148.4190279905004
 30
0.0
 10
129.7636833484209
 20
148.4179706987742
 30
0.0
 10
139.0905916957817
 20
157.3837724848562
 30
0.0
 10
144.3810590148373
 20
170.6914219855593
 30
0.0
 10
140.4144556240273
 20
184.1123415683564
 30
0.0
 10
129.3668346169107
 20
191.7179051342587
 30
0.0
 10
116.127970253741
 20
194.8979602693938
 30
0.0
 10
105.8054951034119
 20
183.3791951036763
 30
0.0
 10
103.6407048879173
 20
169.8393520257931
 30
0.0
 10
111.2799069525039
 20
159.8896522301386
 30
0.0
 10
123.1176326566029
 20
161.5188837688237
 30
0.0
 10
123.5817515690022
 20
167.6472389146709
 30
0.0
 10
123.7737686429476
 20
170.1826857404015
 30
0.0
 11
117.8008778731113
 21
148.4193784794124
 31
0.0
 11
126.5480328748005
 21
149.1869708791038
 31
0.0
 11
140.0230232995803
 21
160.675191828701
 31
0.0
 11
142.6093719506882
 21
167.6828705723948
 31
0.0
 11
137.8777888044219
 21
184.6093670211826
 31
0.0
 11
129.0371973437179
 21
191.081262236331
 31
0.0
 11
117.8289200509115
 21
192.7629836086157
 31
0.0
 11
107.1281917367529
 21
182.6612708972466
 31
0.0
 11
105.7410617420575
 21
168.7961761255744
 31
0.0
 11
112.280395829667
 21
161.6655560359488
 31
0.0
 11
121.9903142774597
 21
163.4482110583553
 31
0.0
 11
123.7737686429476
 21
170.1826857404015
 31
0.0
  0
SPLINE
  5
40C2
330
2
100
AcDbEntity
  8
KIJUN
100
AcDbSpline
210
0.0
220
0.0
230
1.0
 70
     8
 71
     3
 72
    13
 73
     9
 74
     7
 42
0.0000000001
 43
0.0000000001
 44
0.0000000001
 40
0.0
 40
0.0
 40
0.0
 40
0.0
 40
4.232480818532321
 40
9.025375063545711
 40
18.30419175848234
 40
29.77235371779608
 40
38.46865241782726
 40
47.96603022430667
 40
47.96603022430667
 40
47.96603022430667
 40
47.96603022430667
 10
84.91135322548243
 20
178.9596513664974
 30
0.0
 10
86.35933215579226
 20
178.9649907276726
 30
0.0
 10
89.44701370485828
 20
178.97637642303
 30
0.0
 10
94.43033092091168
 20
174.4332082812825
 30
0.0
 10
94.45034038040796
 20
165.3823696428597
 30
0.0
 10
100.7542199662489
 20
157.0674272219708
 30
0.0
 10
109.2592955365612
 20
151.9447306196123
 30
0.0
 10
114.8713168098715
 20
149.6284910252165
 30
0.0
 10
117.8008778731098
 20
148.4193784794134
 30
0.0
 11
84.91135322548243
 21
178.9596513664974
 31
0.0
 11
89.11662714174303
 21
178.4805217718549
 31
0.0
 11
92.76587356159515
 21
175.3732986046075
 31
0.0
 11
95.3338629614339
 21
166.4569165075599
 31
0.0
 11
101.8214114452064
 21
157.000148909921
 31
0.0
 11
109.1199042849114
 21
152.2717651111016
 31
0.0
 11
117.8008778731098
 21
148.4193784794134
 31
0.0
  0
ARC
  5
40C3
330
2
100
AcDbEntity
  8
KIJUN
100
AcDbCircle
 10
108.4038708309312
 20
155.119627055606
 30
0.0
 40
11.54110360119585
100
AcDbArc
 50
215.4896072141954
 51
324.5103927858164
  0
SPLINE
  5
40C4
330
2
100
AcDbEntity
  8
KIJUN
100
AcDbSpline
210
0.0
220
0.0
230
1.0
 70
     8
 71
     3
 72
    10
 73
     6
 74
     4
 42
0.0000000001
 43
0.0000000001
 44
0.0000000001
 40
0.0
 40
0.0
 40
0.0
 40
0.0
 40
9.629903912201047
 40
28.57705764912737
 40
56.07352660216033
 40
56.07352660216033
 40
56.07352660216033
 40
56.07352660216033
 10
225.8664588581773
 20
66.19556686034099
 30
0.0
 10
224.5713435565932
 20
69.21794691506939
 30
0.0
 10
220.7280461599548
 20
78.18695946690955
 30
0.0
 10
201.1125066877599
 20
85.44724820045251
 30
0.0
 10
196.8335216707079
 20
101.3916382402743
 30
0.0
 10
194.3001926180348
 20
110.8313503107926
 30
0.0
 11
225.8664588581773
 21
66.19556686034099
 31
0.0
 11
221.2823506361598
 21
74.66439211341216
 31
0.0
 11
206.0950391944801
 21
85.99312575421009
 31
0.0
 11
194.3001926180348
 21
110.8313503107926
 31
0.0
  0
SPLINE
  5
40C5
330
2
100
AcDbEntity
  8
KIJUN
100
AcDbSpline
210
0.0
220
0.0
230
1.0
 70
     8
 71
     3
 72
    10
 73
     6
 74
     4
 42
0.0000000001
 43
0.0000000001
 44
0.0000000001
 40
0.0
 40
0.0
 40
0.0
 40
0.0
 40
9.967610843570305
 40
35.70432200348854
 40
59.42739115312537
 40
59.42739115312537
 40
59.42739115312537
 40
59.42739115312537
 10
230.5649623792672
 20
84.98958094470033
 30
0.0
 10
227.178436457994
 20
85.43827299740312
 30
0.0
 10
215.0477851049375
 20
87.04550323356755
 30
0.0
 10
203.9039726280031
 20
106.5993930993473
 30
0.0
 10
197.4185590708686
 20
121.3077985588295
 30
0.0
 10
194.3078716938328
 20
128.3625917182884
 30
0.0
 11
230.5649623792672
 21
84.98958094470033
 31
0.0
 11
220.8289991005965
 21
87.12599966892963
 31
0.0
 11
204.2816288097649
 21
106.8379969748131
 31
0.0
 11
194.3078716938328
 21
128.3625917182884
 31
0.0
  0
SPLINE
  5
40C6
330
2
100
AcDbEntity
  8
KIJUN
100
AcDbSpline
210
0.0
220
0.0
230
1.0
 70
     8
 71
     3
 72
    10
 73
     6
 74
     4
 42
0.0000000001
 43
0.0000000001
 44
0.0000000001
 40
0.0
 40
0.0
 40
0.0
 40
0.0
 40
9.762917108555951
 40
18.30444070437155
 40
28.57119734775277
 40
28.57119734775277
 40
28.57119734775277
 40
28.57119734775277
 10
252.7637059888117
 20
85.22415070732419
 30
0.0
 10
256.1163612163521
 20
84.46793771625983
 30
0.0
 10
262.4022364452766
 20
83.05011805222909
 30
0.0
 10
266.4569972234124
 20
72.64032047296599
 30
0.0
 10
262.9867393353056
 20
67.06095489604891
 30
0.0
 10
261.0924516719011
 20
64.01538199548731
 30
0.0
 11
252.7637059888117
 21
85.22415070732419
 31
0.0
 11
261.7724800358613
 21
81.46163284853082
 31
0.0
 11
264.9459492697278
 21
73.53151819869269
 31
0.0
 11
261.0924516719011
 21
64.01538199548731
 31
0.0
  0
SPLINE
  5
40C7
330
2
100
AcDbEntity
  8
KIJUN
100
AcDbSpline
210
0.0
220
0.0
230
1.0
 70
     8
 71
     3
 72
    11
 73
     7
 74
     5
 42
0.0000000001
 43
0.0000000001
 44
0.0000000001
 40
0.0
 40
0.0
 40
0.0
 40
0.0
 40
10.89008179518168
 40
20.09236399118154
 40
37.72348462325777
 40
49.72152077034176
 40
49.72152077034176
 40
49.72152077034176
 40
49.72152077034176
 10
252.7637059888117
 20
85.22415070732378
 30
0.0
 10
254.4542431698057
 20
81.67612239116726
 30
0.0
 10
257.5733095845491
 20
75.12995701610304
 30
0.0
 10
248.0280869147746
 20
63.37845261703648
 30
0.0
 10
233.2534615645704
 20
68.629145309075
 30
0.0
 10
225.3531692295899
 20
74.09130748440645
 30
0.0
 10
222.1540234113633
 20
76.30315643135169
 30
0.0
 11
252.7637059888117
 21
85.22415070732378
 31
0.0
 11
255.4255436893594
 21
74.66439211341217
 31
0.0
 11
249.7586357068174
 21
67.41400236304585
 31
0.0
 11
232.3045602236284
 21
69.90632332350952
 31
0.0
 11
222.1540234113633
 21
76.30315643135169
 31
0.0
  0
ARC
  5
40C8
330
2
100
AcDbEntity
  8
KIJUN
100
AcDbCircle
 10
255.6031835911486
 20
48.34999165630954
 30
0.0
 40
8.757411586137491
100
AcDbArc
 50
313.7621016854769
 51
25.3669127997861
  0
ARC
  5
40C9
330
2
100
AcDbEntity
  8
KIJUN
100
AcDbCircle
 10
159.8323557679665
 20
130.6724633778499
 30
0.0
 40
5.751260780992182
100
AcDbArc
 50
140.5883465797274
 51
272.5417557744255
  0
SPLINE
  5
40CA
330
2
100
AcDbEntity
  8
KIJUN
100
AcDbSpline
210
0.0
220
0.0
230
1.0
 70
     8
 71
     3
 72
    11
 73
     7
 74
     5
 42
0.0000000001
 43
0.0000000001
 44
0.0000000001
 40
0.0
 40
0.0
 40
0.0
 40
0.0
 40
11.77353080925606
 40
34.22323114706264
 40
48.03766682508842
 40
65.26542412759159
 40
65.26542412759159
 40
65.26542412759159
 40
65.26542412759159
 10
107.6591660813231
 20
183.704960600975
 30
0.0
 10
108.8666034558594
 20
187.5690060977979
 30
0.0
 10
112.3763754209417
 20
198.8009911618346
 30
0.0
 10
133.6457047291448
 20
203.4991655869729
 30
0.0
 10
146.4680147657251
 20
187.7604299030789
 30
0.0
 10
144.1347780128106
 20
177.1538405165555
 30
0.0
 10
142.8398812078811
 20
171.267408850051
 30
0.0
 11
107.6591660813231
 21
183.704960600975
 31
0.0
 11
112.659440655591
 21
194.3639137343005
 31
0.0
 11
134.6470421005666
 21
198.8954066399797
 31
0.0
 11
143.7140961453725
 21
188.4729710296782
 31
0.0
 11
142.8398812078811
 21
171.267408850051
 31
0.0
  0
SPLINE
  5
40CB
330
2
100
AcDbEntity
  8
KIJUN
100
AcDbSpline
210
0.0
220
0.0
230
1.0
 70
     8
 71
     3
 72
    12
 73
     8
 74
     6
 42
0.0000000001
 43
0.0000000001
 44
0.0000000001
 40
0.0
 40
0.0
 40
0.0
 40
0.0
 40
11.83403907930528
 40
39.37707210011271
 40
55.2108589537761
 40
64.92775755269024
 40
75.34886031159223
 40
75.34886031159223
 40
75.34886031159223
 40
75.34886031159223
 10
99.00686378875274
 20
196.8050370658717
 30
0.0
 10
101.7339927551835
 20
199.7016825326571
 30
0.0
 10
110.8083547053011
 20
209.34010071175
 30
0.0
 10
130.9273524469169
 20
213.193896223001
 30
0.0
 10
147.9015377888567
 20
209.1043173804195
 30
0.0
 10
155.965383020403
 20
193.3782288285471
 30
0.0
 10
158.6817380481258
 20
202.4540671828569
 30
0.0
 10
160.0874095629195
 20
207.1506724930327
 30
0.0
 11
99.00686378875274
 21
196.8050370658717
 31
0.0
 11
107.6646615740725
 21
204.8726896636871
 31
0.0
 11
134.4124658092336
 21
211.443354514582
 31
0.0
 11
148.9197510081831
 21
205.0992641713109
 31
0.0
 11
155.38890604183
 21
197.8488744209444
 31
0.0
 11
160.0874095629195
 21
207.1506724930327
 31
0.0
  0
SPLINE
  5
40CC
330
2
100
AcDbEntity
  8
KIJUN
100
AcDbSpline
210
0.0
220
0.0
230
1.0
 70
     8
 71
     3
 72
    12
 73
     8
 74
     6
 42
0.0000000001
 43
0.0000000001
 44
0.0000000001
 40
0.0
 40
0.0
 40
0.0
 40
0.0
 40
8.477915608319081
 40
16.65044122760453
 40
25.77654876652756
 40
39.92707702796698
 40
52.20954392434525
 40
52.20954392434525
 40
52.20954392434525
 40
52.20954392434525
 10
131.8963884363808
 20
240.0401971406654
 30
0.0
 10
132.2386614905081
 20
236.7462455135743
 30
0.0
 10
132.9108782988409
 20
230.276996407151
 30
0.0
 10
122.540974654203
 20
228.9213604382542
 30
0.0
 10
112.9901160455792
 20
226.6002430983108
 30
0.0
 10
101.6838564378935
 20
220.5251757802752
 30
0.0
 10
98.0290878843984
 20
212.3135385098564
 30
0.0
 10
96.33084773021925
 20
208.4978845388702
 30
0.0
 11
131.8963884363808
 21
240.0401971406654
 31
0.0
 11
131.0123218681997
 21
231.6085022123129
 31
0.0
 11
123.3053266725462
 21
228.8896053676257
 31
0.0
 11
114.4649515773688
 21
226.6238589147862
 31
0.0
 11
102.4511072483237
 21
219.1468946567957
 31
0.0
 11
96.33084773021925
 21
208.4978845388702
 31
0.0
  0
ARC
  5
40CD
330
2
100
AcDbEntity
  8
KIJUN
100
AcDbCircle
 10
133.4966839090234
 20
207.8655148110939
 30
0.0
 40
46.3209292171233
100
AcDbArc
 50
111.8216082458007
 51
173.317261208978
  0
ARC
  5
40CE
330
2
100
AcDbEntity
  8
KIJUN
100
AcDbCircle
 10
139.9208272511389
 20
210.2812710800802
 30
0.0
 40
20.40812802907292
100
AcDbArc
 50
351.1760101680711
 51
86.1436063401164
  0
ARC
  5
40CF
330
2
100
AcDbEntity
  8
KIJUN
100
AcDbCircle
 10
129.664826353586
 20
228.4116280156907
 30
0.0
 40
11.84075543298161
100
AcDbArc
 50
10.8631878726764
 51
79.13681212732483
  0
ARC
  5
40D0
330
2
100
AcDbEntity
  8
KIJUN
100
AcDbCircle
 10
114.75313089816
 20
246.5186365741248
 30
0.0
 40
13.85591867698377
100
AcDbArc
 50
117.2732420326997
 51
170.4049998990862
  0
ARC
  5
40D1
330
2
100
AcDbEntity
  8
KIJUN
100
AcDbCircle
 10
77.9673845219211
 20
312.618277056183
 30
0.0
 40
43.29317905259284
100
AcDbArc
 50
279.3446657579686
 51
300.3451934654053
  0
SPLINE
  5
40D2
330
2
100
AcDbEntity
  8
KIJUN
100
AcDbSpline
210
0.0
220
0.0
230
1.0
 70
     8
 71
     3
 72
     9
 73
     5
 74
     3
 42
0.0000000001
 43
0.0000000001
 44
0.0000000001
 40
0.0
 40
0.0
 40
0.0
 40
0.0
 40
12.89417221646699
 40
28.7543882019069
 40
28.7543882019069
 40
28.7543882019069
 40
28.7543882019069
 10
99.00686378875194
 20
196.8050370658719
 30
0.0
 10
95.97759988768242
 20
193.3502486133732
 30
0.0
 10
89.22225113670668
 20
185.6459674349546
 30
0.0
 10
92.61207058405352
 20
175.7870448667343
 30
0.0
 10
94.48181193306261
 20
170.3491047437261
 30
0.0
 11
99.00686378875194
 21
196.8050370658719
 31
0.0
 11
91.95910850711719
 21
186.0074066481322
 31
0.0
 11
94.48181193306261
 21
170.3491047437261
 31
0.0
  0
ARC
  5
40D3
330
2
100
AcDbEntity
  8
KIJUN
100
AcDbCircle
 10
91.54696304022527
 20
261.229277289286
 30
0.0
 40
16.29494408168664
100
AcDbArc
 50
25.36413341971536
 51
59.40938797803942
  0
ARC
  5
40D4
330
2
100
AcDbEntity
  8
KIJUN
100
AcDbCircle
 10
67.32487336182298
 20
254.4196362896137
 30
0.0
 40
41.31552377654636
100
AcDbArc
 50
6.133779118888521
 51
19.49778438872362
  0
ARC
  5
40D5
330
2
100
AcDbEntity
  8
KIJUN
100
AcDbCircle
 10
99.16862778201576
 20
182.4887947169176
 30
0.0
 40
76.90196574873941
100
AcDbArc
 50
69.28602299351233
 51
83.10263871055587
  0
ARC
  5
40D6
330
2
100
AcDbEntity
  8
KIJUN
100
AcDbCircle
 10
106.1523196461973
 20
243.7654193676357
 30
0.0
 40
26.01219634160115
100
AcDbArc
 50
351.7663273421661
 51
10.47084682294278
  0
ARC
  5
40D7
330
2
100
AcDbEntity
  8
KIJUN
100
AcDbCircle
 10
123.2208955217545
 20
246.1822148765699
 30
0.0
 40
8.818524801018666
100
AcDbArc
 50
15.18932554115521
 51
69.08408893275002
  0
ARC
  5
40D8
330
2
100
AcDbEntity
  8
KIJUN
100
AcDbCircle
 10
137.0119980327589
 20
152.905415652297
 30
0.0
 40
58.94932151436186
100
AcDbArc
 50
16.82113923323871
 51
66.9555645044554
  0
ARC
  5
40D9
330
2
100
AcDbEntity
  8
KIJUN
100
AcDbCircle
 10
205.5201074279409
 20
166.7257405392332
 30
0.0
 40
10.11735712647747
100
AcDbArc
 50
208.6071445681102
 51
259.1009498925797
  0
ARC
  5
40DA
330
2
100
AcDbEntity
  8
KIJUN
100
AcDbCircle
 10
228.2714696056181
 20
179.074899410404
 30
0.0
 40
36.0041385539728
100
AcDbArc
 50
194.6573919508252
 51
208.5247617854255
  0
ARC
  5
40DB
330
2
100
AcDbEntity
  8
KIJUN
100
AcDbCircle
 10
198.0281932608588
 20
117.0103462281766
 30
0.0
 40
40.16983326342322
100
AcDbArc
 50
71.97166592924363
 51
82.01674741460205
  0
ARC
  5
40DC
330
2
100
AcDbEntity
  8
KIJUN
100
AcDbCircle
 10
191.7045794839549
 20
151.5203838267428
 30
0.0
 40
21.01394735934354
100
AcDbArc
 50
344.9676847275921
 51
1.312591561164334
  0
ARC
  5
40DD
330
2
100
AcDbEntity
  8
KIJUN
100
AcDbCircle
 10
209.1401955295358
 20
151.8859520675902
 30
0.0
 40
3.574693337985962
100
AcDbArc
 50
1.856372100633573
 51
68.32900022371427
  0
ARC
  5
40DE
330
2
100
AcDbEntity
  8
KIJUN
100
AcDbCircle
 10
205.5512893746045
 20
118.2820989863536
 30
0.0
 40
28.52635474386273
100
AcDbArc
 50
65.73381475885056
 51
76.93588312397579
  0
ARC
  5
40DF
330
2
100
AcDbEntity
  8
KIJUN
100
AcDbCircle
 10
212.5907527392417
 20
134.6883512439879
 30
0.0
 40
10.68155543127347
100
AcDbArc
 50
14.06131961433766
 51
63.9897979062762
  0
ARC
  5
40E0
330
2
100
AcDbEntity
  8
KIJUN
100
AcDbCircle
 10
208.3630779985328
 20
132.9180540607559
 30
0.0
 40
15.22830941597112
100
AcDbArc
 50
327.1351228179079
 51
16.65866117332862
  0
ARC
  5
40E1
330
2
100
AcDbEntity
  8
KIJUN
100
AcDbCircle
 10
216.7794222518682
 20
127.6833016572717
 30
0.0
 40
5.321014455470304
100
AcDbArc
 50
276.8351568332527
 51
325.3014127243341
  0
ARC
  5
40E2
330
2
100
AcDbEntity
  8
KIJUN
100
AcDbCircle
 10
216.3592413546567
 20
131.7156418310269
 30
0.0
 40
9.374912258330704
100
AcDbArc
 50
261.9745801618801
 51
276.4519115715646
  0
ARC
  5
40E3
330
2
100
AcDbEntity
  8
KIJUN
100
AcDbCircle
 10
222.1242776319363
 20
159.0637078413382
 30
0.0
 40
37.30793472255771
100
AcDbArc
 50
246.2060570621536
 51
259.0700795911105
  0
ARC
  5
40E4
330
2
100
AcDbEntity
  8
KIJUN
100
AcDbCircle
 10
240.1184337377919
 20
125.17075295307
 30
0.0
 40
33.04688896028363
100
AcDbArc
 50
180.4228571610198
 51
226.8174295693441
  0
ARC
  5
40E5
330
2
100
AcDbEntity
  8
KIJUN
100
AcDbCircle
 10
226.3113326580926
 20
110.2398178655654
 30
0.0
 40
12.71193075963273
100
AcDbArc
 50
226.1422347798116
 51
283.3520877241123
  0
ARC
  5
40E6
330
2
100
AcDbEntity
  8
KIJUN
100
AcDbCircle
 10
235.1185676747871
 20
76.69286289505025
 30
0.0
 40
21.97749928821888
100
AcDbArc
 50
98.04373831023918
 51
105.4956231935535
  0
ARC
  5
40E7
330
2
100
AcDbEntity
  8
KIJUN
100
AcDbCircle
 10
233.0892560232089
 20
93.43144230739699
 30
0.0
 40
5.130451841453983
100
AcDbArc
 50
1.969044666851239
 51
101.7637323245598
  0
ARC
  5
40E8
330
2
100
AcDbEntity
  8
KIJUN
100
AcDbCircle
 10
228.9201568508762
 20
94.15584335560934
 30
0.0
 40
9.312666203180956
100
AcDbArc
 50
280.1729610467366
 51
356.6257587015083
  0
ARC
  5
40E9
330
2
100
AcDbEntity
  8
KIJUN
100
AcDbCircle
 10
251.1391443451397
 20
107.4344891735154
 30
0.0
 40
30.44783849413207
100
AcDbArc
 50
227.4899929879024
 51
259.391800081924
  0
ARC
  5
40EA
330
2
100
AcDbEntity
  8
KIJUN
100
AcDbCircle
 10
227.3954263629998
 20
104.0686012319282
 30
0.0
 40
63.28714375939231
100
AcDbArc
 50
304.8021747325767
 51
314.6905133459126
  0
ARC
  5
40EB
330
2
100
AcDbEntity
  8
KIJUN
100
AcDbCircle
 10
257.613922961723
 20
72.77848197955305
 30
0.0
 40
19.79743026376048
100
AcDbArc
 50
316.203756896842
 51
14.40745899236415
  0
ARC
  5
40EC
330
2
100
AcDbEntity
  8
KIJUN
100
AcDbCircle
 10
260.4033226378998
 20
72.51844070241048
 30
0.0
 40
17.18650769740094
100
AcDbArc
 50
17.56249627526338
 51
87.46160749187733
  0
ARC
  5
40ED
330
2
100
AcDbEntity
  8
KIJUN
100
AcDbCircle
 10
263.2577976296643
 20
69.45646742730058
 30
0.0
 40
20.33962274720533
100
AcDbArc
 50
95.90720313899534
 51
110.3455971582293
  0
ARC
  5
40EE
330
2
100
AcDbEntity
  8
KIJUN
100
AcDbCircle
 10
258.2130647464067
 20
83.00629125695961
 30
0.0
 40
5.881206154842582
100
AcDbArc
 50
110.1607304799517
 51
153.7398567182809
  0
ARC
  5
40EF
330
2
100
AcDbEntity
  8
KIJUN
100
AcDbCircle
 10
284.346264917473
 20
71.7883249828451
 30
0.0
 40
34.3135799318943
100
AcDbArc
 50
156.2492515679644
 51
164.6774144368702
  0
ARC
  5
40F0
330
2
100
AcDbEntity
  8
KIJUN
100
AcDbCircle
 10
246.9128992759789
 20
81.70919921244076
 30
0.0
 40
4.422637011208665
100
AcDbArc
 50
251.832520494885
 51
348.8743285243133
  0
ARC
  5
40F1
330
2
100
AcDbEntity
  8
KIJUN
100
AcDbCircle
 10
267.9756037889587
 20
62.78394764475287
 30
0.0
 40
21.69807044293351
100
AcDbArc
 50
246.9558507624908
 51
253.0791816718547
  0
ARC
  5
40F2
330
2
100
AcDbEntity
  8
KIJUN
100
AcDbCircle
 10
261.7840311913072
 20
48.34703872488073
 30
0.0
 40
5.989724305612858
100
AcDbArc
 50
209.2468283746178
 51
247.3989252802243
  0
ARC
  5
40F3
330
2
100
AcDbEntity
  8
KIJUN
100
AcDbCircle
 10
248.13569961053
 20
47.42561462295192
 30
0.0
 40
6.847810308929296
100
AcDbArc
 50
24.74977422261182
 51
64.24409930511385
  0
ARC
  5
40F4
330
2
100
AcDbEntity
  8
KIJUN
100
AcDbCircle
 10
322.017566099158
 20
77.95965194081652
 30
0.0
 40
73.10103830948822
100
AcDbArc
 50
202.2394591085276
 51
206.4312759128493
  0
ARC
  5
40F5
330
2
100
AcDbEntity
  8
KIJUN
100
AcDbCircle
 10
242.9895930641562
 20
36.61163610975024
 30
0.0
 40
18.82374631666356
100
AcDbArc
 50
64.43959075360542
 51
76.85189847748334
  0
ARC
  5
40F6
330
2
100
AcDbEntity
  8
KIJUN
100
AcDbCircle
 10
242.4990916803705
 20
77.10564443557614
 30
0.0
 40
19.89156271627576
100
AcDbArc
 50
213.2626359671131
 51
239.2868835144394
  0
ARC
  5
40F7
330
2
100
AcDbEntity
  8
KIJUN
100
AcDbCircle
 10
251.4561997960317
 20
94.33228759385071
 30
0.0
 40
39.29200141839892
100
AcDbArc
 50
240.8876006709267
 51
256.9575904793313
  0
ARC
  5
40F8
330
2
100
AcDbEntity
  8
KIJUN
100
AcDbCircle
 10
318.6845193521008
 20
366.0661245986779
 30
0.0
 40
319.2148181577387
100
AcDbArc
 50
256.2088681021075
 51
257.0726791765341
  0
ARC
  5
40F9
330
2
100
AcDbEntity
  8
KIJUN
100
AcDbCircle
 10
340.7229629061224
 20
154.2757648276549
 30
0.0
 40
158.1576578539783
100
AcDbArc
 50
203.1737916581599
 51
211.9408372154357
  0
ARC
  5
40FA
330
2
100
AcDbEntity
  8
KIJUN
100
AcDbCircle
 10
208.3047697222537
 20
89.97478328742252
 30
0.0
 40
29.5611917755833
100
AcDbArc
 50
296.8004455315468
 51
306.4470180968111
  0
ARC
  5
40FB
330
2
100
AcDbEntity
  8
KIJUN
100
AcDbCircle
 10
217.6700888581592
 20
71.31018801451514
 30
0.0
 40
8.679009442106126
100
AcDbArc
 50
238.6886601351114
 51
297.1718447261088
  0
ARC
  5
40FC
330
2
100
AcDbEntity
  8
KIJUN
100
AcDbCircle
 10
225.5561064680898
 20
82.82994855040243
 30
0.0
 40
22.63171291315567
100
AcDbArc
 50
212.6996061528746
 51
236.7875857939079
  0
ARC
  5
40FD
330
2
100
AcDbEntity
  8
KIJUN
100
AcDbCircle
 10
220.9720499286671
 20
77.1138320222899
 30
0.0
 40
29.67189437596664
100
AcDbArc
 50
149.8045812047488
 51
158.8606596173631
  0
ARC
  5
40FE
330
2
100
AcDbEntity
  8
KIJUN
100
AcDbCircle
 10
203.5699417473832
 20
84.18716339174439
 30
0.0
 40
10.89467859562822
100
AcDbArc
 50
160.5516412810303
 51
187.3225510801258
  0
ARC
  5
40FF
330
2
100
AcDbEntity
  8
KIJUN
100
AcDbCircle
 10
173.6114022598419
 20
80.07476587634149
 30
0.0
 40
19.3454291699799
100
AcDbArc
 50
0.9375884843423845
 51
8.094081117043117
  0
ARC
  5
4100
330
2
100
AcDbEntity
  8
KIJUN
100
AcDbCircle
 10
190.5259082973322
 20
80.3253807389972
 30
0.0
 40
2.429228133307918
100
AcDbArc
 50
316.904210932969
 51
1.555445643831693
  0
ARC
  5
4101
330
2
100
AcDbEntity
  8
KIJUN
100
AcDbCircle
 10
190.5338235468855
 20
80.82528248988655
 30
0.0
 40
2.789696066477879
100
AcDbArc
 50
283.6520984706636
 51
309.2733938795299
  0
ARC
  5
4102
330
2
100
AcDbEntity
  8
KIJUN
100
AcDbCircle
 10
189.0345710908917
 20
87.82890595392753
 30
0.0
 40
9.951240136789666
100
AcDbArc
 50
242.1842836993135
 51
282.5227070847081
  0
ARC
  5
4103
330
2
100
AcDbEntity
  8
KIJUN
100
AcDbCircle
 10
191.4608401257638
 20
92.82026132490202
 30
0.0
 40
15.49911021400714
100
AcDbArc
 50
217.5952371281791
 51
242.8615061846599
  0
ARC
  5
4104
330
2
100
AcDbEntity
  8
KIJUN
100
AcDbCircle
 10
225.5977797681201
 20
117.5717034462598
 30
0.0
 40
57.66032336862341
100
AcDbArc
 50
201.1834532518372
 51
216.3881536452164
  0
ARC
  5
4105
330
2
100
AcDbEntity
  8
KIJUN
100
AcDbCircle
 10
194.0678606660175
 20
122.5427343530844
 30
0.0
 40
34.0639856217321
100
AcDbArc
 50
175.9866071001895
 51
229.253122795891
  0
ARC
  5
4106
330
2
100
AcDbEntity
  8
KIJUN
100
AcDbCircle
 10
205.1885021413166
 20
65.21050171611486
 30
0.0
 40
85.18601504455594
100
AcDbArc
 50
125.7746139321461
 51
133.519676239452
  0
ARC
  5
4107
330
2
100
AcDbEntity
  8
KIJUN
100
AcDbCircle
 10
156.7209906481869
 20
117.071493569047
 30
0.0
 40
14.21601094828283
100
AcDbArc
 50
135.8016156459438
 51
153.8818224852072
  0
ARC
  5
4108
330
2
100
AcDbEntity
  8
KIJUN
100
AcDbCircle
 10
148.4936620778777
 20
121.0358421707816
 30
0.0
 40
5.083972162960039
100
AcDbArc
 50
153.1793860146234
 51
217.867590259014
  0
ARC
  5
4109
330
2
100
AcDbEntity
  8
KIJUN
100
AcDbCircle
 10
171.8576624812002
 20
139.5852232090706
 30
0.0
 40
34.91588116768707
100
AcDbArc
 50
218.3627343754621
 51
222.3841099303323
  0
ARC
  5
410A
330
2
100
AcDbEntity
  8
KIJUN
100
AcDbCircle
 10
142.7765251521343
 20
113.2453484599478
 30
0.0
 40
4.322849573880426
100
AcDbArc
 50
24.92743035666003
 51
40.42505858557015
  0
ARC
  5
410B
330
2
100
AcDbEntity
  8
KIJUN
100
AcDbCircle
 10
145.3110807933892
 20
114.5162533749938
 30
0.0
 40
1.491142073949248
100
AcDbArc
 50
334.5779538651751
 51
21.68766034859811
  0
ARC
  5
410C
330
2
100
AcDbEntity
  8
KIJUN
100
AcDbCircle
 10
140.0559717233771
 20
119.1164652200985
 30
0.0
 40
8.42886132529809
100
AcDbArc
 50
224.2099456208013
 51
321.558659298518
  0
ARC
  5
410D
330
2
100
AcDbEntity
  8
KIJUN
100
AcDbCircle
 10
34.00306794886004
 20
123.6588757179282
 30
0.0
 40
96.77141142725069
100
AcDbArc
 50
359.9765636867447
 51
9.134969364989633
  0
ARC
  5
410E
330
2
100
AcDbEntity
  8
KIJUN
100
AcDbCircle
 10
160.2376739536534
 20
122.9747922725854
 30
0.0
 40
29.4702509659249
100
AcDbArc
 50
178.7468693959472
 51
188.1418185861816
  0
ARC
  5
410F
330
2
100
AcDbEntity
  8
KIJUN
100
AcDbCircle
 10
140.1626123716705
 20
120.0630719573177
 30
0.0
 40
9.185249955917289
100
AcDbArc
 50
187.8968868600019
 51
227.9812896089988
  0
ARC
  5
4110
330
2
100
AcDbEntity
  8
KIJUN
100
AcDbCircle
 10
136.4385413440998
 20
152.8843056328097
 30
0.0
 40
15.48046116704047
100
AcDbArc
 50
196.5509606555306
 51
243.5659173862596
  0
ENDSEC
  0
SECTION
  2
OBJECTS
  0
DICTIONARY
  5
1A
330
0
100
AcDbDictionary
281
     1
  3
ACAD_COLOR
350
144
  3
ACAD_GROUP
350
18
  3
ACAD_LAYOUT
350
58
  3
ACAD_MATERIAL
350
143
  3
ACAD_MLINESTYLE
350
19
  3
ACAD_PLOTSETTINGS
350
59
  3
ACAD_PLOTSTYLENAME
350
56
  3
ACAD_TABLESTYLE
350
145
  3
ACDBHEADERROUNDTRIPXREC
350
4140
  3
AcDbVariableDictionary
350
1D1
  0
DICTIONARY
  5
1B4
330
A
100
AcDbDictionary
280
     1
281
     1
  3
ACAD_LAYERFILTERS
360
1A2A
  3
ACLYDICTIONARY
360
1A29
  0
DICTIONARY
  5
D13
330
2
100
AcDbDictionary
280
     1
281
     1
  3
ACAD_SORTENTS
360
D14
  0
DICTIONARY
  5
144
102
{ACAD_REACTORS
330
1A
102
}
330
1A
100
AcDbDictionary
281
     1
  0
DICTIONARY
  5
18
102
{ACAD_REACTORS
330
1A
102
}
330
1A
100
AcDbDictionary
281
     1
  3
*A1
350
E0D
  3
*A10
350
3988
  3
*A11
350
3A25
  3
*A12
350
34BB
  3
*A13
350
3C81
  3
*A14
350
213E
  3
*A15
350
3E5C
  3
*A16
350
3181
  3
*A17
350
2B84
  3
*A18
350
2C6B
  3
*A19
350
2D78
  3
*A2
350
1A98
  3
*A20
350
22C8
  3
*A21
350
1EFE
  3
*A22
350
241A
  3
*A23
350
35A5
  3
*A24
350
265A
  3
*A25
350
26DD
  3
*A26
350
275E
  3
*A27
350
2905
  3
*A28
350
2EE1
  3
*A29
350
2F81
  3
*A3
350
1CBC
  3
*A30
350
31DF
  3
*A31
350
32E4
  3
*A32
350
3349
  3
*A33
350
24D6
  3
*A34
350
2037
  3
*A35
350
3467
  3
*A36
350
FF8
  3
*A37
350
136A
  3
*A38
350
1555
  3
*A39
350
2A17
  3
*A4
350
307D
  3
*A40
350
17BC
  3
*A5
350
3695
  3
*A6
350
36C9
  3
*A7
350
382B
  3
*A8
350
2573
  3
*A9
350
3878
  0
DICTIONARY
  5
58
102
{ACAD_REACTORS
330
1A
102
}
330
1A
100
AcDbDictionary
281
     1
  3
Model
350
5A
  3
ﾚｲｱｳﾄ1
350
5B
  0
DICTIONARY
  5
143
102
{ACAD_REACTORS
330
1A
102
}
330
1A
100
AcDbDictionary
281
     1
  0
DICTIONARY
  5
19
102
{ACAD_REACTORS
330
1A
102
}
330
1A
100
AcDbDictionary
281
     1
  3
STANDARD
350
1D
  0
DICTIONARY
  5
59
102
{ACAD_REACTORS
330
1A
102
}
330
1A
100
AcDbDictionary
281
     1
  0
ACDBDICTIONARYWDFLT
  5
56
102
{ACAD_REACTORS
330
1A
102
}
330
1A
100
AcDbDictionary
281
     1
  3
Normal
350
57
100
AcDbDictionaryWithDefault
340
57
  0
DICTIONARY
  5
145
102
{ACAD_REACTORS
330
1A
102
}
330
1A
100
AcDbDictionary
281
     1
  3
Standard
350
146
  0
DICTIONARY
  5
4140
102
{ACAD_REACTORS
330
1A
102
}
330
1A
100
AcDbDictionary
281
     1
  0
DICTIONARY
  5
1D1
102
{ACAD_REACTORS
330
1A
102
}
330
1A
100
AcDbDictionary
281
     1
  3
CTABLESTYLE
350
1D2
  3
DIMASSOC
350
D03
  3
PROJECTNAME
350
D04
  0
DICTIONARY
  5
1A2A
102
{ACAD_REACTORS
330
1B4
102
}
330
1B4
100
AcDbDictionary
281
     1
  0
DICTIONARY
  5
1A29
102
{ACAD_REACTORS
330
1B4
102
}
330
1B4
100
AcDbDictionary
281
     1
1001
ACAD
1000
<All
  0
SORTENTSTABLE
  5
D14
102
{ACAD_REACTORS
330
D13
102
}
330
D13
100
AcDbSortentsTable
330
2
331
3EF2
  5
3EF2
331
3ED3
  5
3ED3
331
3ECC
  5
3ECC
331
3F07
  5
3F07
331
3EE9
  5
3EE9
331
23
  5
23
331
3EF3
  5
3EF3
331
3ECD
  5
3ECD
331
3F08
  5
3F08
331
3ED5
  5
3ED5
331
3F09
  5
3F09
331
3EDC
  5
3EDC
331
3EF4
  5
3EF4
331
3EF5
  5
3EF5
331
3ECF
  5
3ECF
331
3F03
  5
3F03
331
3EDD
  5
3EDD
331
3ED6
  5
3ED6
331
20
  5
20
331
3EC9
  5
3EC9
331
3ED0
  5
3ED0
331
3F0B
  5
3F0B
331
21
  5
21
331
3EF7
  5
3EF7
331
1F
  5
1F
331
3ED1
  5
3ED1
331
3ECA
  5
3ECA
331
3ECB
  5
3ECB
331
3ED2
  5
3ED2
331
3F06
  5
3F06
331
3EF8
  5
3EF8
  0
GROUP
  5
E0D
102
{ACAD_REACTORS
330
18
102
}
330
18
100
AcDbGroup
300

 70
     1
 71
     1
  0
GROUP
  5
3988
102
{ACAD_REACTORS
330
18
102
}
330
18
100
AcDbGroup
300

 70
     1
 71
     1
  0
GROUP
  5
3A25
102
{ACAD_REACTORS
330
18
102
}
330
18
100
AcDbGroup
300

 70
     1
 71
     1
  0
GROUP
  5
34BB
102
{ACAD_REACTORS
330
18
102
}
330
18
100
AcDbGroup
300

 70
     1
 71
     1
  0
GROUP
  5
3C81
102
{ACAD_REACTORS
330
18
102
}
330
18
100
AcDbGroup
300

 70
     1
 71
     1
  0
GROUP
  5
213E
102
{ACAD_REACTORS
330
18
102
}
330
18
100
AcDbGroup
300

 70
     1
 71
     1
  0
GROUP
  5
3E5C
102
{ACAD_REACTORS
330
18
102
}
330
18
100
AcDbGroup
300

 70
     1
 71
     1
  0
GROUP
  5
3181
102
{ACAD_REACTORS
330
18
102
}
330
18
100
AcDbGroup
300

 70
     1
 71
     1
  0
GROUP
  5
2B84
102
{ACAD_REACTORS
330
18
102
}
330
18
100
AcDbGroup
300

 70
     1
 71
     1
  0
GROUP
  5
2C6B
102
{ACAD_REACTORS
330
18
102
}
330
18
100
AcDbGroup
300

 70
     1
 71
     1
  0
GROUP
  5
2D78
102
{ACAD_REACTORS
330
18
102
}
330
18
100
AcDbGroup
300

 70
     1
 71
     1
  0
GROUP
  5
1A98
102
{ACAD_REACTORS
330
18
102
}
330
18
100
AcDbGroup
300

 70
     1
 71
     1
  0
GROUP
  5
22C8
102
{ACAD_REACTORS
330
18
102
}
330
18
100
AcDbGroup
300

 70
     1
 71
     1
  0
GROUP
  5
1EFE
102
{ACAD_REACTORS
330
18
102
}
330
18
100
AcDbGroup
300

 70
     1
 71
     1
  0
GROUP
  5
241A
102
{ACAD_REACTORS
330
18
102
}
330
18
100
AcDbGroup
300

 70
     1
 71
     1
  0
GROUP
  5
35A5
102
{ACAD_REACTORS
330
18
102
}
330
18
100
AcDbGroup
300

 70
     1
 71
     1
  0
GROUP
  5
265A
102
{ACAD_REACTORS
330
18
102
}
330
18
100
AcDbGroup
300

 70
     1
 71
     1
  0
GROUP
  5
26DD
102
{ACAD_REACTORS
330
18
102
}
330
18
100
AcDbGroup
300

 70
     1
 71
     1
  0
GROUP
  5
275E
102
{ACAD_REACTORS
330
18
102
}
330
18
100
AcDbGroup
300

 70
     1
 71
     1
  0
GROUP
  5
2905
102
{ACAD_REACTORS
330
18
102
}
330
18
100
AcDbGroup
300

 70
     1
 71
     1
  0
GROUP
  5
2EE1
102
{ACAD_REACTORS
330
18
102
}
330
18
100
AcDbGroup
300

 70
     1
 71
     1
  0
GROUP
  5
2F81
102
{ACAD_REACTORS
330
18
102
}
330
18
100
AcDbGroup
300

 70
     1
 71
     1
  0
GROUP
  5
1CBC
102
{ACAD_REACTORS
330
18
102
}
330
18
100
AcDbGroup
300

 70
     1
 71
     1
  0
GROUP
  5
31DF
102
{ACAD_REACTORS
330
18
102
}
330
18
100
AcDbGroup
300

 70
     1
 71
     1
  0
GROUP
  5
32E4
102
{ACAD_REACTORS
330
18
102
}
330
18
100
AcDbGroup
300

 70
     1
 71
     1
  0
GROUP
  5
3349
102
{ACAD_REACTORS
330
18
102
}
330
18
100
AcDbGroup
300

 70
     1
 71
     1
  0
GROUP
  5
24D6
102
{ACAD_REACTORS
330
18
102
}
330
18
100
AcDbGroup
300

 70
     1
 71
     1
  0
GROUP
  5
2037
102
{ACAD_REACTORS
330
18
102
}
330
18
100
AcDbGroup
300

 70
     1
 71
     1
  0
GROUP
  5
3467
102
{ACAD_REACTORS
330
18
102
}
330
18
100
AcDbGroup
300

 70
     1
 71
     1
  0
GROUP
  5
FF8
102
{ACAD_REACTORS
330
18
102
}
330
18
100
AcDbGroup
300

 70
     1
 71
     1
  0
GROUP
  5
136A
102
{ACAD_REACTORS
330
18
102
}
330
18
100
AcDbGroup
300

 70
     1
 71
     1
  0
GROUP
  5
1555
102
{ACAD_REACTORS
330
18
102
}
330
18
100
AcDbGroup
300

 70
     1
 71
     1
  0
GROUP
  5
2A17
102
{ACAD_REACTORS
330
18
102
}
330
18
100
AcDbGroup
300

 70
     1
 71
     1
  0
GROUP
  5
307D
102
{ACAD_REACTORS
330
18
102
}
330
18
100
AcDbGroup
300

 70
     1
 71
     1
  0
GROUP
  5
17BC
102
{ACAD_REACTORS
330
18
102
}
330
18
100
AcDbGroup
300

 70
     1
 71
     1
  0
GROUP
  5
3695
102
{ACAD_REACTORS
330
18
102
}
330
18
100
AcDbGroup
300

 70
     1
 71
     1
  0
GROUP
  5
36C9
102
{ACAD_REACTORS
330
18
102
}
330
18
100
AcDbGroup
300

 70
     1
 71
     1
  0
GROUP
  5
382B
102
{ACAD_REACTORS
330
18
102
}
330
18
100
AcDbGroup
300

 70
     1
 71
     1
  0
GROUP
  5
2573
102
{ACAD_REACTORS
330
18
102
}
330
18
100
AcDbGroup
300

 70
     1
 71
     1
  0
GROUP
  5
3878
102
{ACAD_REACTORS
330
18
102
}
330
18
100
AcDbGroup
300

 70
     1
 71
     1
  0
LAYOUT
  5
5A
102
{ACAD_XDICTIONARY
360
4141
102
}
102
{ACAD_REACTORS
330
58
102
}
330
58
100
AcDbPlotSettings
  1

  2
なし
  4

  6

 40
0.0
 41
0.0
 42
0.0
 43
0.0
 44
0.0
 45
0.0
 46
0.0
 47
0.0
 48
0.0
 49
0.0
140
0.0
141
0.0
142
1.0
143
1.0
 70
  1712
 72
     0
 73
     0
 74
     0
  7
monochrome.ctb
 75
     0
147
1.0
148
0.0
149
0.0
100
AcDbLayout
  1
Model
 70
     1
 71
     0
 10
0.0
 20
0.0
 11
12.0
 21
9.0
 12
0.0
 22
0.0
 32
0.0
 14
0.0
 24
0.0
 34
0.0
 15
0.0
 25
0.0
 35
0.0
146
0.0
 13
0.0
 23
0.0
 33
0.0
 16
1.0
 26
0.0
 36
0.0
 17
0.0
 27
1.0
 37
0.0
 76
     0
330
2
  0
LAYOUT
  5
5B
102
{ACAD_XDICTIONARY
360
4143
102
}
102
{ACAD_REACTORS
330
58
102
}
330
58
100
AcDbPlotSettings
  1

  2
なし
  4

  6

 40
0.0
 41
0.0
 42
0.0
 43
0.0
 44
0.0
 45
0.0
 46
0.0
 47
0.0
 48
0.0
 49
0.0
140
0.0
141
0.0
142
1.0
143
1.0
 70
   688
 72
     0
 73
     0
 74
     5
  7
monochrome.ctb
 75
    16
147
1.0
148
0.0
149
0.0
100
AcDbLayout
  1
ﾚｲｱｳﾄ1
 70
     1
 71
     1
 10
0.0
 20
0.0
 11
12.0
 21
9.0
 12
0.0
 22
0.0
 32
0.0
 14
1.000000000000000E+20
 24
1.000000000000000E+20
 34
1.000000000000000E+20
 15
-1.000000000000000E+20
 25
-1.000000000000000E+20
 35
-1.000000000000000E+20
146
0.0
 13
0.0
 23
0.0
 33
0.0
 16
1.0
 26
0.0
 36
0.0
 17
0.0
 27
1.0
 37
0.0
 76
     0
330
7
  0
MLINESTYLE
  5
1D
102
{ACAD_REACTORS
330
19
102
}
330
19
100
AcDbMlineStyle
  2
STANDARD
 70
     0
  3

 62
   256
 51
90.0
 52
90.0
 71
     2
 49
0.5
 62
   256
  6
BYLAYER
 49
-0.5
 62
   256
  6
BYLAYER
  0
ACDBPLACEHOLDER
  5
57
102
{ACAD_REACTORS
330
56
102
}
330
56
  0
TABLESTYLE
  5
146
102
{ACAD_REACTORS
330
145
102
}
330
145
100
AcDbTableStyle
  3
Standard
 70
     0
 71
     0
 40
0.06
 41
0.06
280
     0
281
     0
  7
STANDARD
140
0.18
170
     2
 62
     0
 63
     7
283
     0
274
    -2
284
     1
 64
     0
275
    -2
285
     1
 65
     0
276
    -2
286
     1
 66
     0
277
    -2
287
     1
 67
     0
278
    -2
288
     1
 68
     0
279
    -2
289
     1
 69
     0
  7
STANDARD
140
0.25
170
     5
 62
     0
 63
     7
283
     0
274
    -2
284
     1
 64
     0
275
    -2
285
     1
 65
     0
276
    -2
286
     1
 66
     0
277
    -2
287
     1
 67
     0
278
    -2
288
     1
 68
     0
279
    -2
289
     1
 69
     0
  7
STANDARD
140
0.18
170
     5
 62
     0
 63
     7
283
     0
274
    -2
284
     1
 64
     0
275
    -2
285
     1
 65
     0
276
    -2
286
     1
 66
     0
277
    -2
287
     1
 67
     0
278
    -2
288
     1
 68
     0
279
    -2
289
     1
 69
     0
  0
DICTIONARYVAR
  5
1D2
102
{ACAD_REACTORS
330
1D1
102
}
330
1D1
100
DictionaryVariables
280
     0
  1
STANDARD
  0
DICTIONARYVAR
  5
D03
102
{ACAD_REACTORS
330
1D1
102
}
330
1D1
100
DictionaryVariables
280
     0
  1
1
  0
DICTIONARYVAR
  5
D04
102
{ACAD_REACTORS
330
1D1
102
}
330
1D1
100
DictionaryVariables
280
     0
  1

  0
DICTIONARY
  5
4141
330
5A
100
AcDbDictionary
280
     1
281
     1
  3
ACAD_XREC_ROUNDTRIP
360
4142
  0
DICTIONARY
  5
4143
330
5B
100
AcDbDictionary
280
     1
281
     1
  3
ACAD_XREC_ROUNDTRIP
360
4144
  0
XRECORD
  5
4142
102
{ACAD_REACTORS
330
4141
102
}
330
4141
100
AcDbXrecord
280
     1
102
SHADEPLOT
 70
     0
102
SHADEPLOTRESLEVEL
 70
     2
102
SHADEPLOTCUSTOMDPI
 70
   300
  0
XRECORD
  5
4144
102
{ACAD_REACTORS
330
4143
102
}
330
4143
100
AcDbXrecord
280
     1
102
SHADEPLOT
 70
     0
102
SHADEPLOTRESLEVEL
 70
     2
102
SHADEPLOTCUSTOMDPI
 70
   300
  0
ENDSEC
  0
EOF
