  0
SECTION
  2
HEADER
  9
$ACADVER
  1
AC1015
  9
$ACADMAINTVER
 70
    20
  9
$DWGCODEPAGE
  3
ANSI_932
  9
$INSBASE
 10
922.019522
 20
-675.4306699999999
 30
0.0
  9
$EXTMIN
 10
-238.883163784456
 20
-1.969231010181829
 30
-0.0015258207003583
  9
$EXTMAX
 10
291.478954565624
 20
365.2533238899196
 30
0.0000000349246037
  9
$LIMMIN
 10
0.0
 20
0.0
  9
$LIMMAX
 10
420.0
 20
297.0
  9
$ORTHOMODE
 70
     1
  9
$REGENMODE
 70
     1
  9
$FILLMODE
 70
     1
  9
$QTEXTMODE
 70
     0
  9
$MIRRTEXT
 70
     1
  9
$LTSCALE
 40
1.0
  9
$ATTMODE
 70
     1
  9
$TEXTSIZE
 40
30.0
  9
$TRACEWID
 40
0.05
  9
$TEXTSTYLE
  7
SUNPOU
  9
$CLAYER
  8
0
  9
$CELTYPE
  6
BYLAYER
  9
$CECOLOR
 62
   256
  9
$CELTSCALE
 40
1.0
  9
$DISPSILH
 70
     0
  9
$DIMSCALE
 40
1.0
  9
$DIMASZ
 40
2.0
  9
$DIMEXO
 40
10.0
  9
$DIMDLI
 40
0.38
  9
$DIMRND
 40
0.0
  9
$DIMDLE
 40
0.0
  9
$DIMEXE
 40
0.0
  9
$DIMTP
 40
0.0
  9
$DIMTM
 40
0.0
  9
$DIMTXT
 40
5.0
  9
$DIMCEN
 40
0.0
  9
$DIMTSZ
 40
0.0
  9
$DIMTOL
 70
     0
  9
$DIMLIM
 70
     0
  9
$DIMTIH
 70
     0
  9
$DIMTOH
 70
     0
  9
$DIMSE1
 70
     0
  9
$DIMSE2
 70
     0
  9
$DIMTAD
 70
     1
  9
$DIMZIN
 70
     0
  9
$DIMBLK
  1
Dot
  9
$DIMASO
 70
     1
  9
$DIMSHO
 70
     1
  9
$DIMPOST
  1

  9
$DIMAPOST
  1

  9
$DIMALT
 70
     0
  9
$DIMALTD
 70
     2
  9
$DIMALTF
 40
25.4
  9
$DIMLFAC
 40
1.0
  9
$DIMTOFL
 70
     0
  9
$DIMTVP
 40
0.0
  9
$DIMTIX
 70
     0
  9
$DIMSOXD
 70
     0
  9
$DIMSAH
 70
     0
  9
$DIMBLK1
  1

  9
$DIMBLK2
  1

  9
$DIMSTYLE
  2
STANDARD
  9
$DIMCLRD
 70
    60
  9
$DIMCLRE
 70
    70
  9
$DIMCLRT
 70
    60
  9
$DIMTFAC
 40
0.064286
  9
$DIMGAP
 40
3.0
  9
$DIMJUST
 70
     0
  9
$DIMSD1
 70
     0
  9
$DIMSD2
 70
     0
  9
$DIMTOLJ
 70
     1
  9
$DIMTZIN
 70
     0
  9
$DIMALTZ
 70
     0
  9
$DIMALTTZ
 70
     0
  9
$DIMUPT
 70
     0
  9
$DIMDEC
 70
     0
  9
$DIMTDEC
 70
     0
  9
$DIMALTU
 70
     2
  9
$DIMALTTD
 70
     2
  9
$DIMTXSTY
  7
SUNPOU
  9
$DIMAUNIT
 70
     0
  9
$DIMADEC
 70
     0
  9
$DIMALTRND
 40
0.0
  9
$DIMAZIN
 70
     0
  9
$DIMDSEP
 70
    46
  9
$DIMATFIT
 70
     3
  9
$DIMFRAC
 70
     0
  9
$DIMLDRBLK
  1

  9
$DIMLUNIT
 70
     2
  9
$DIMLWD
 70
    -2
  9
$DIMLWE
 70
    -2
  9
$DIMTMOVE
 70
     0
  9
$LUNITS
 70
     2
  9
$LUPREC
 70
     5
  9
$SKETCHINC
 40
0.1
  9
$FILLETRAD
 40
0.0
  9
$AUNITS
 70
     0
  9
$AUPREC
 70
     0
  9
$MENU
  1
acad
  9
$ELEVATION
 40
0.0
  9
$PELEVATION
 40
0.0
  9
$THICKNESS
 40
0.0
  9
$LIMCHECK
 70
     0
  9
$CHAMFERA
 40
0.0
  9
$CHAMFERB
 40
0.0
  9
$CHAMFERC
 40
0.0
  9
$CHAMFERD
 40
0.0
  9
$SKPOLY
 70
     0
  9
$TDCREATE
 40
2450623.654673033
  9
$TDUCREATE
 40
2450623.279673032
  9
$TDUPDATE
 40
2454585.378554480
  9
$TDUUPDATE
 40
2454585.003554480
  9
$TDINDWG
 40
0.6388391667
  9
$TDUSRTIMER
 40
0.6388389931
  9
$USRTIMER
 70
     1
  9
$ANGBASE
 50
0.0
  9
$ANGDIR
 70
     0
  9
$PDMODE
 70
     0
  9
$PDSIZE
 40
0.0
  9
$PLINEWID
 40
0.0
  9
$SPLFRAME
 70
     0
  9
$SPLINETYPE
 70
     6
  9
$SPLINESEGS
 70
     8
  9
$HANDSEED
  5
414D
  9
$SURFTAB1
 70
     6
  9
$SURFTAB2
 70
     6
  9
$SURFTYPE
 70
     6
  9
$SURFU
 70
     6
  9
$SURFV
 70
     6
  9
$UCSBASE
  2

  9
$UCSNAME
  2

  9
$UCSORG
 10
0.0
 20
0.0
 30
0.0
  9
$UCSXDIR
 10
1.0
 20
0.0
 30
0.0
  9
$UCSYDIR
 10
0.0
 20
1.0
 30
0.0
  9
$UCSORTHOREF
  2

  9
$UCSORTHOVIEW
 70
     0
  9
$UCSORGTOP
 10
0.0
 20
0.0
 30
0.0
  9
$UCSORGBOTTOM
 10
0.0
 20
0.0
 30
0.0
  9
$UCSORGLEFT
 10
0.0
 20
0.0
 30
0.0
  9
$UCSORGRIGHT
 10
0.0
 20
0.0
 30
0.0
  9
$UCSORGFRONT
 10
0.0
 20
0.0
 30
0.0
  9
$UCSORGBACK
 10
0.0
 20
0.0
 30
0.0
  9
$PUCSBASE
  2

  9
$PUCSNAME
  2

  9
$PUCSORG
 10
0.0
 20
0.0
 30
0.0
  9
$PUCSXDIR
 10
1.0
 20
0.0
 30
0.0
  9
$PUCSYDIR
 10
0.0
 20
1.0
 30
0.0
  9
$PUCSORTHOREF
  2

  9
$PUCSORTHOVIEW
 70
     0
  9
$PUCSORGTOP
 10
0.0
 20
0.0
 30
0.0
  9
$PUCSORGBOTTOM
 10
0.0
 20
0.0
 30
0.0
  9
$PUCSORGLEFT
 10
0.0
 20
0.0
 30
0.0
  9
$PUCSORGRIGHT
 10
0.0
 20
0.0
 30
0.0
  9
$PUCSORGFRONT
 10
0.0
 20
0.0
 30
0.0
  9
$PUCSORGBACK
 10
0.0
 20
0.0
 30
0.0
  9
$USERI1
 70
     0
  9
$USERI2
 70
     0
  9
$USERI3
 70
     0
  9
$USERI4
 70
     0
  9
$USERI5
 70
     0
  9
$USERR1
 40
0.0
  9
$USERR2
 40
0.0
  9
$USERR3
 40
0.0
  9
$USERR4
 40
0.0
  9
$USERR5
 40
0.0
  9
$WORLDVIEW
 70
     1
  9
$SHADEDGE
 70
     3
  9
$SHADEDIF
 70
    70
  9
$TILEMODE
 70
     1
  9
$MAXACTVP
 70
    16
  9
$PINSBASE
 10
0.0
 20
0.0
 30
0.0
  9
$PLIMCHECK
 70
     0
  9
$PEXTMIN
 10
1.000000000000000E+20
 20
1.000000000000000E+20
 30
1.000000000000000E+20
  9
$PEXTMAX
 10
-1.000000000000000E+20
 20
-1.000000000000000E+20
 30
-1.000000000000000E+20
  9
$PLIMMIN
 10
0.0
 20
0.0
  9
$PLIMMAX
 10
12.0
 20
9.0
  9
$UNITMODE
 70
     0
  9
$VISRETAIN
 70
     0
  9
$PLINEGEN
 70
     0
  9
$PSLTSCALE
 70
     1
  9
$TREEDEPTH
 70
  3020
  9
$CMLSTYLE
  2
STANDARD
  9
$CMLJUST
 70
     0
  9
$CMLSCALE
 40
1.0
  9
$PROXYGRAPHICS
 70
     1
  9
$MEASUREMENT
 70
     0
  9
$CELWEIGHT
370
    -1
  9
$ENDCAPS
280
     0
  9
$JOINSTYLE
280
     0
  9
$LWDISPLAY
290
     0
  9
$INSUNITS
 70
     0
  9
$HYPERLINKBASE
  1

  9
$STYLESHEET
  1

  9
$XEDIT
290
     1
  9
$CEPSNTYPE
380
     0
  9
$PSTYLEMODE
290
     1
  9
$FINGERPRINTGUID
  2
{FB88A696-E29C-4009-92AF-A3599A8169D5}
  9
$VERSIONGUID
  2
{1C685E87-584F-43DD-AED6-04F52598CD86}
  9
$EXTNAMES
290
     1
  9
$PSVPSCALE
 40
0.0
  9
$OLESTARTUP
290
     0
  0
ENDSEC
  0
SECTION
  2
CLASSES
  0
CLASS
  1
DICTIONARYVAR
  2
AcDbDictionaryVar
  3
ObjectDBX Classes
 90
        0
280
     0
281
     0
  0
CLASS
  1
ACDBDICTIONARYWDFLT
  2
AcDbDictionaryWithDefault
  3
ObjectDBX Classes
 90
        0
280
     0
281
     0
  0
CLASS
  1
ACDBPLACEHOLDER
  2
AcDbPlaceHolder
  3
ObjectDBX Classes
 90
        0
280
     0
281
     0
  0
CLASS
  1
LAYOUT
  2
AcDbLayout
  3
ObjectDBX Classes
 90
        0
280
     0
281
     0
  0
CLASS
  1
TABLESTYLE
  2
AcDbTableStyle
  3
ObjectDBX Classes
 90
     2047
280
     0
281
     0
  0
CLASS
  1
SORTENTSTABLE
  2
AcDbSortentsTable
  3
ObjectDBX Classes
 90
        0
280
     0
281
     0
  0
ENDSEC
  0
SECTION
  2
TABLES
  0
TABLE
  2
VPORT
  5
12
330
0
100
AcDbSymbolTable
 70
     4
  0
VPORT
  5
4147
330
12
100
AcDbSymbolTableRecord
100
AcDbViewportTableRecord
  2
*Active
 70
     0
 10
0.0
 20
0.0
 11
1.0
 21
1.0
 12
26.29789539058402
 22
181.6420464398689
 13
0.0
 23
0.0
 14
1.0
 24
1.0
 15
0.0
 25
0.0
 16
0.0
 26
0.0
 36
1.0
 17
0.0
 27
0.0
 37
0.0
 40
370.0222185969256
 41
1.530534351145038
 42
50.0
 43
0.0
 44
0.0
 50
0.0
 51
0.0
 71
     0
 72
 20000
 73
     1
 74
     1
 75
     0
 76
     0
 77
     0
 78
     0
281
     0
 65
     1
110
0.0
120
0.0
130
0.0
111
1.0
121
0.0
131
0.0
112
0.0
122
1.0
132
0.0
 79
     0
146
0.0
  0
ENDTAB
  0
TABLE
  2
LTYPE
  5
D
330
0
100
AcDbSymbolTable
 70
     2
  0
LTYPE
  5
E
330
D
100
AcDbSymbolTableRecord
100
AcDbLinetypeTableRecord
  2
BYBLOCK
 70
     0
  3

 72
    65
 73
     0
 40
0.0
  0
LTYPE
  5
F
330
D
100
AcDbSymbolTableRecord
100
AcDbLinetypeTableRecord
  2
BYLAYER
 70
     0
  3

 72
    65
 73
     0
 40
0.0
  0
LTYPE
  5
5
330
D
100
AcDbSymbolTableRecord
100
AcDbLinetypeTableRecord
  2
CONTINUOUS
 70
     0
  3
Solid line
 72
    65
 73
     0
 40
0.0
  0
ENDTAB
  0
TABLE
  2
LAYER
  5
A
102
{ACAD_XDICTIONARY
360
1B4
102
}
330
0
100
AcDbSymbolTable
 70
     6
  0
LAYER
  5
4
330
A
100
AcDbSymbolTableRecord
100
AcDbLayerTableRecord
  2
0
 70
     0
 62
     7
  6
CONTINUOUS
370
    -3
390
57
  0
LAYER
  5
25
330
A
100
AcDbSymbolTableRecord
100
AcDbLayerTableRecord
  2
KIJUN
 70
     0
 62
     7
  6
CONTINUOUS
370
    -3
390
57
  0
LAYER
  5
22
330
A
100
AcDbSymbolTableRecord
100
AcDbLayerTableRecord
  2
HOJO
 70
     0
 62
     3
  6
CONTINUOUS
370
    -3
390
57
  0
LAYER
  5
1B
330
A
100
AcDbSymbolTableRecord
100
AcDbLayerTableRecord
  2
WAKU
 70
     0
 62
     1
  6
CONTINUOUS
370
    -3
390
57
  0
LAYER
  5
31
330
A
100
AcDbSymbolTableRecord
100
AcDbLayerTableRecord
  2
DEFPOINTS
 70
     0
 62
     7
  6
CONTINUOUS
290
     0
370
    -3
390
57
  0
LAYER
  5
28
330
A
100
AcDbSymbolTableRecord
100
AcDbLayerTableRecord
  2
SUNPOU
 70
     0
 62
    70
  6
CONTINUOUS
370
    -3
390
57
  0
ENDTAB
  0
TABLE
  2
STYLE
  5
B
330
0
100
AcDbSymbolTable
 70
     3
  0
STYLE
  5
C
330
B
100
AcDbSymbolTableRecord
100
AcDbTextStyleTableRecord
  2
STANDARD
 70
     0
 40
0.0
 41
1.0
 50
0.0
 71
     0
 42
0.2
  3
txt
  4

  0
STYLE
  5
1C
330
B
100
AcDbSymbolTableRecord
100
AcDbTextStyleTableRecord
  2
SUNPOU
 70
     0
 40
0.0
 41
1.0
 50
0.0
 71
     0
 42
30.0
  3
txt
  4
bigfont
  0
ENDTAB
  0
TABLE
  2
VIEW
  5
10
330
0
100
AcDbSymbolTable
 70
     0
  0
ENDTAB
  0
TABLE
  2
UCS
  5
11
330
0
100
AcDbSymbolTable
 70
     0
  0
ENDTAB
  0
TABLE
  2
APPID
  5
14
330
0
100
AcDbSymbolTable
 70
    10
  0
APPID
  5
15
330
14
100
AcDbSymbolTableRecord
100
AcDbRegAppTableRecord
  2
ACAD
 70
     0
  0
APPID
  5
1D3
330
14
100
AcDbSymbolTableRecord
100
AcDbRegAppTableRecord
  2
ACAD_DSTYLE_DIMTEXT_FILL
 70
     0
  0
APPID
  5
1D4
330
14
100
AcDbSymbolTableRecord
100
AcDbRegAppTableRecord
  2
ACAD_DSTYLE_DIMEXT_LENGTH
 70
     0
  0
APPID
  5
1D5
330
14
100
AcDbSymbolTableRecord
100
AcDbRegAppTableRecord
  2
ACAD_DSTYLE_DIMEXT_ENABLED
 70
     0
  0
APPID
  5
1D6
330
14
100
AcDbSymbolTableRecord
100
AcDbRegAppTableRecord
  2
ACAD_DSTYLE_DIM_LINETYPE
 70
     0
  0
APPID
  5
1D7
330
14
100
AcDbSymbolTableRecord
100
AcDbRegAppTableRecord
  2
ACAD_DSTYLE_DIM_EXT1_LINETYPE
 70
     0
  0
APPID
  5
1D8
330
14
100
AcDbSymbolTableRecord
100
AcDbRegAppTableRecord
  2
ACAD_DSTYLE_DIM_EXT2_LINETYPE
 70
     0
  0
APPID
  5
294
330
14
100
AcDbSymbolTableRecord
100
AcDbRegAppTableRecord
  2
ACAD_DSTYLE_DIMJOGGED_JOGANGLE_SYMBOL
 70
     0
  0
APPID
  5
478
330
14
100
AcDbSymbolTableRecord
100
AcDbRegAppTableRecord
  2
ACAD_DSTYLE_DIMARC_LENGTH_SYMBOL
 70
     0
  0
APPID
  5
F55
330
14
100
AcDbSymbolTableRecord
100
AcDbRegAppTableRecord
  2
ACAD_EXEMPT_FROM_CAD_STANDARDS
 70
     0
  0
ENDTAB
  0
TABLE
  2
DIMSTYLE
  5
16
330
0
100
AcDbSymbolTable
 70
     3
100
AcDbDimStyleTable
 71
     1
340
1E
  0
DIMSTYLE
105
1E
102
{ACAD_REACTORS
330
4034
330
4041
102
}
330
16
100
AcDbSymbolTableRecord
100
AcDbDimStyleTableRecord
  2
STANDARD
 70
     0
340
C
  0
ENDTAB
  0
TABLE
  2
BLOCK_RECORD
  5
1
330
0
100
AcDbSymbolTable
 70
     7
  0
BLOCK_RECORD
  5
2
102
{ACAD_XDICTIONARY
360
D13
102
}
330
1
100
AcDbSymbolTableRecord
100
AcDbBlockTableRecord
  2
*MODEL_SPACE
340
5A
  0
BLOCK_RECORD
  5
7
330
1
100
AcDbSymbolTableRecord
100
AcDbBlockTableRecord
  2
*PAPER_SPACE
340
5B
  0
BLOCK_RECORD
  5
109
330
1
100
AcDbSymbolTableRecord
100
AcDbBlockTableRecord
  2
_Dot
340
0
102
{BLKREFS
331
4075
331
4076
331
4105
331
4106
331
410E
331
410F
331
413B
331
413C
102
}
  0
BLOCK_RECORD
  5
4035
330
1
100
AcDbSymbolTableRecord
100
AcDbBlockTableRecord
  2
*D4
340
0
  0
BLOCK_RECORD
  5
4042
330
1
100
AcDbSymbolTableRecord
100
AcDbBlockTableRecord
  2
*D5
340
0
  0
ENDTAB
  0
ENDSEC
  0
SECTION
  2
BLOCKS
  0
BLOCK
  5
3
330
2
100
AcDbEntity
  8
0
100
AcDbBlockBegin
  2
*MODEL_SPACE
 70
     0
 10
0.0
 20
0.0
 30
0.0
  3
*MODEL_SPACE
  1

  0
ENDBLK
  5
6
330
2
100
AcDbEntity
  8
0
100
AcDbBlockEnd
  0
BLOCK
  5
8
330
7
100
AcDbEntity
 67
     1
  8
0
100
AcDbBlockBegin
  2
*PAPER_SPACE
 70
     0
 10
0.0
 20
0.0
 30
0.0
  3
*PAPER_SPACE
  1

  0
ENDBLK
  5
9
330
7
100
AcDbEntity
 67
     1
  8
0
100
AcDbBlockEnd
  0
BLOCK
  5
10C
330
109
100
AcDbEntity
  8
0
100
AcDbBlockBegin
  2
_Dot
 70
     0
 10
0.0
 20
0.0
 30
0.0
  3
_Dot
  1

  0
LWPOLYLINE
  5
10A
330
109
100
AcDbEntity
  8
0
  6
ByBlock
 62
     0
100
AcDbPolyline
 90
        2
 70
     1
 43
0.5
 10
-0.25
 20
0.0
 42
1.0
 10
0.25
 20
0.0
 42
1.0
  0
LINE
  5
10B
330
109
100
AcDbEntity
  8
0
  6
ByBlock
 62
     0
370
    -2
100
AcDbLine
 10
-0.5
 20
0.0
 30
0.0
 11
-1.0
 21
0.0
 31
0.0
  0
ENDBLK
  5
10D
330
109
100
AcDbEntity
  8
0
100
AcDbBlockEnd
  0
BLOCK
  5
403F
330
4035
100
AcDbEntity
  8
0
100
AcDbBlockBegin
  2
*D4
 70
     1
 10
0.0
 20
0.0
 30
0.0
  3
*D4
  1

  0
LINE
  5
410B
330
4035
100
AcDbEntity
  8
SUNPOU
 62
    70
370
    -2
100
AcDbLine
 10
47.18201111981975
 20
359.9382939381928
 30
0.0
 11
-227.0416950082842
 21
359.9382939381928
 31
0.0
  0
LINE
  5
410C
330
4035
100
AcDbEntity
  8
SUNPOU
 62
    70
370
    -2
100
AcDbLine
 10
-163.7538722318609
 20
61.93829393819275
 30
0.0
 11
-227.0416950082843
 21
61.93829393819278
 31
0.0
  0
LINE
  5
410D
330
4035
100
AcDbEntity
  8
SUNPOU
 62
    60
370
    -2
100
AcDbLine
 10
-227.0416950082842
 20
357.9382939381928
 30
0.0
 11
-227.0416950082843
 21
63.93829393819277
 31
0.0
  0
INSERT
  5
410E
330
4035
100
AcDbEntity
  8
SUNPOU
 62
    60
370
    -2
100
AcDbBlockReference
  2
_Dot
 10
-227.0416950082842
 20
359.9382939381928
 30
0.0
 41
2.0
 42
2.0
 43
2.0
 50
90.0
  0
INSERT
  5
410F
330
4035
100
AcDbEntity
  8
SUNPOU
 62
    60
370
    -2
100
AcDbBlockReference
  2
_Dot
 10
-227.0416950082843
 20
61.93829393819278
 30
0.0
 41
2.0
 42
2.0
 43
2.0
 50
270.0
  0
MTEXT
  5
4110
330
4035
100
AcDbEntity
  8
SUNPOU
 62
    60
100
AcDbMText
 10
-232.5416950082843
 20
210.9382939381928
 30
0.0
 40
5.0
 41
0.0
 71
     5
 72
     1
  1
\A1;298
  7
SUNPOU
 11
0.0000000000000001
 21
1.0
 31
0.0
 73
     1
 44
1.0
1001
ACAD
1000
MTEXTBEGIN
1070
    73
1070
     1
1070
    44
1040
1.0
1070
    74
1070
     0
1000
MTEXTEND
  0
POINT
  5
4111
330
4035
100
AcDbEntity
  8
DEFPOINTS
 62
     0
100
AcDbPoint
 10
57.18201111981976
 20
359.9382939381928
 30
0.0
  0
POINT
  5
4112
330
4035
100
AcDbEntity
  8
DEFPOINTS
 62
     0
100
AcDbPoint
 10
-153.753872231861
 20
61.93829393819275
 30
0.0
  0
POINT
  5
4113
330
4035
100
AcDbEntity
  8
DEFPOINTS
 62
     0
100
AcDbPoint
 10
-227.0416950082843
 20
61.93829393819278
 30
0.0
  0
ENDBLK
  5
4040
330
4035
100
AcDbEntity
  8
0
100
AcDbBlockEnd
  0
BLOCK
  5
404C
330
4042
100
AcDbEntity
  8
0
100
AcDbBlockBegin
  2
*D5
 70
     1
 10
0.0
 20
0.0
 30
0.0
  3
*D5
  1

  0
LINE
  5
4102
330
4042
100
AcDbEntity
  8
SUNPOU
 62
    70
370
    -2
100
AcDbLine
 10
-172.8179888801802
 20
89.16878720839845
 30
0.0
 11
-172.8179888801802
 21
36.33826896250878
 31
0.0
  0
LINE
  5
4103
330
4042
100
AcDbEntity
  8
SUNPOU
 62
    70
370
    -2
100
AcDbLine
 10
287.1820111198198
 20
89.16878720839845
 30
0.0
 11
287.1820111198198
 21
36.33826896250878
 31
0.0
  0
LINE
  5
4104
330
4042
100
AcDbEntity
  8
SUNPOU
 62
    60
370
    -2
100
AcDbLine
 10
-170.8179888801802
 20
36.33826896250878
 30
0.0
 11
285.1820111198198
 21
36.33826896250878
 31
0.0
  0
INSERT
  5
4105
330
4042
100
AcDbEntity
  8
SUNPOU
 62
    60
370
    -2
100
AcDbBlockReference
  2
_Dot
 10
-172.8179888801802
 20
36.33826896250878
 30
0.0
 41
2.0
 42
2.0
 43
2.0
 50
180.0
  0
INSERT
  5
4106
330
4042
100
AcDbEntity
  8
SUNPOU
 62
    60
370
    -2
100
AcDbBlockReference
  2
_Dot
 10
287.1820111198198
 20
36.33826896250878
 30
0.0
 41
2.0
 42
2.0
 43
2.0
  0
MTEXT
  5
4107
330
4042
100
AcDbEntity
  8
SUNPOU
 62
    60
100
AcDbMText
 10
57.18201111981976
 20
41.83826896250877
 30
0.0
 40
5.0
 41
0.0
 71
     5
 72
     1
  1
\A1;460
  7
SUNPOU
 73
     1
 44
1.0
1001
ACAD
1000
MTEXTBEGIN
1070
    73
1070
     1
1070
    44
1040
1.0
1070
    74
1070
     0
1000
MTEXTEND
  0
POINT
  5
4108
330
4042
100
AcDbEntity
  8
DEFPOINTS
 62
     0
100
AcDbPoint
 10
-172.8179888801802
 20
99.16878720839845
 30
0.0
  0
POINT
  5
4109
330
4042
100
AcDbEntity
  8
DEFPOINTS
 62
     0
100
AcDbPoint
 10
287.1820111198198
 20
99.16878720839845
 30
0.0
  0
POINT
  5
410A
330
4042
100
AcDbEntity
  8
DEFPOINTS
 62
     0
100
AcDbPoint
 10
287.1820111198198
 20
36.33826896250878
 30
0.0
  0
ENDBLK
  5
404D
330
4042
100
AcDbEntity
  8
0
100
AcDbBlockEnd
  0
ENDSEC
  0
SECTION
  2
ENTITIES
  0
LINE
  5
1F
330
2
100
AcDbEntity
  8
WAKU
100
AcDbLine
 10
0.0
 20
14.0
 30
0.0
 11
148.6829221395387
 21
14.0
 31
0.0
  0
LINE
  5
20
330
2
100
AcDbEntity
  8
WAKU
100
AcDbLine
 10
0.0
 20
0.0
 30
0.0
 11
148.6829221395387
 21
0.0
 31
0.0
  0
TEXT
  5
21
330
2
100
AcDbEntity
  8
HOJO
100
AcDbText
 10
9.653966000000025
 20
2.366626000000024
 30
0.0
 40
9.0
  1
TC154
  7
SUNPOU
100
AcDbText
  0
TEXT
  5
23
330
2
100
AcDbEntity
  8
HOJO
100
AcDbText
 10
85.84696046283864
 20
5.044386000000031
 30
0.0
 40
6.0
  1
460×298×20
  7
SUNPOU
100
AcDbText
  0
SPLINE
  5
3EC9
330
2
100
AcDbEntity
  8
KIJUN
100
AcDbSpline
210
0.0
220
0.0
230
1.0
 70
     8
 71
     3
 72
    10
 73
     6
 74
     4
 42
0.0000000001
 43
0.0000000001
 44
0.0000000001
 40
0.0
 40
0.0
 40
0.0
 40
0.0
 40
11.98349118800972
 40
35.58146048265035
 40
58.65969277425525
 40
58.65969277425525
 40
58.65969277425525
 40
58.65969277425525
 10
-96.63847851354374
 20
189.3338983353179
 30
0.0
 10
-92.55650052920382
 20
189.9092011377723
 30
0.0
 10
-80.4362647763571
 20
191.6173939849094
 30
0.0
 10
-66.78489643453812
 20
208.5961105498379
 30
0.0
 10
-61.51067678453627
 20
223.2415237693426
 30
0.0
 10
-58.90293103609992
 20
230.4826924334584
 30
0.0
 11
-96.63847851354374
 21
189.3338983353179
 31
0.0
 11
-84.82806920459026
 21
192.0342256500518
 31
0.0
 11
-68.09231193847974
 21
209.0367137676071
 31
0.0
 11
-58.90293103609992
 21
230.4826924334584
 31
0.0
  0
SPLINE
  5
3ECA
330
2
100
AcDbEntity
  8
KIJUN
100
AcDbSpline
210
0.0
220
0.0
230
1.0
 70
     8
 71
     3
 72
    13
 73
     9
 74
     7
 42
0.0000000001
 43
0.0000000001
 44
0.0000000001
 40
0.0
 40
0.0
 40
0.0
 40
0.0
 40
14.01563312925159
 40
31.0968873754077
 40
56.15052595753295
 40
78.71890187508601
 40
103.8516062287672
 40
114.6427352128391
 40
114.6427352128391
 40
114.6427352128391
 40
114.6427352128391
 10
-90.67513173600387
 20
163.7432389948864
 30
0.0
 10
-85.78496204017667
 20
165.222459028252
 30
0.0
 10
-74.93500222206527
 20
168.5044469596435
 30
0.0
 10
-72.32233979024309
 20
189.7443829185409
 30
0.0
 10
-61.70202572332143
 20
208.190928897486
 30
0.0
 10
-61.23998965588186
 20
234.6865733658301
 30
0.0
 10
-43.91277769264553
 20
247.2344834335086
 30
0.0
 10
-34.62663889530253
 20
254.824706134342
 30
0.0
 10
-31.83718375603674
 20
257.1047265155868
 30
0.0
 11
-90.67513173600387
 21
163.7432389948864
 31
0.0
 11
-77.91473796652718
 21
169.9037067086375
 31
0.0
 11
-71.87889003144511
 21
186.0834944332122
 31
0.0
 11
-63.37383402818734
 21
209.9418241574229
 31
0.0
 11
-58.16105544916416
 21
232.1547514295111
 31
0.0
 11
-40.32787151916731
 21
250.2541750705349
 31
0.0
 11
-31.83718375603674
 21
257.1047265155868
 31
0.0
  0
SPLINE
  5
3ECB
330
2
100
AcDbEntity
  8
KIJUN
100
AcDbSpline
210
0.0
220
0.0
230
1.0
 70
     8
 71
     3
 72
    10
 73
     6
 74
     4
 42
0.0000000001
 43
0.0000000001
 44
0.0000000001
 40
0.0
 40
0.0
 40
0.0
 40
0.0
 40
16.45084729455537
 40
41.66762727280594
 40
90.91727460134725
 40
90.91727460134725
 40
90.91727460134725
 40
90.91727460134725
 10
-76.4580987690976
 20
123.9355466875489
 30
0.0
 10
-76.48145210882015
 20
129.493950238556
 30
0.0
 10
-76.54060275545315
 20
143.572586022371
 30
0.0
 10
-69.19581789667926
 20
173.590997362495
 30
0.0
 10
-60.07675473520469
 20
196.9566514271547
 30
0.0
 10
-54.04570610144873
 20
212.4099270025257
 30
0.0
 11
-76.4580987690976
 21
123.9355466875489
 31
0.0
 11
-75.99423937916096
 21
140.5607026994058
 31
0.0
 11
-70.78146336755975
 21
165.5159679470853
 31
0.0
 11
-54.04570610144873
 21
212.4099270025257
 31
0.0
  0
SPLINE
  5
3ECC
330
2
100
AcDbEntity
  8
KIJUN
100
AcDbSpline
210
0.0
220
0.0
230
1.0
 70
     8
 71
     3
 72
     9
 73
     5
 74
     3
 42
0.0000000001
 43
0.0000000001
 44
0.0000000001
 40
0.0
 40
0.0
 40
0.0
 40
0.0
 40
16.09655128078648
 40
52.27510786847588
 40
52.27510786847588
 40
52.27510786847588
 40
52.27510786847588
 10
-33.80699986837978
 20
163.7432389948864
 30
0.0
 10
-37.20242034100729
 20
168.1281754309574
 30
0.0
 10
-48.22937688400926
 20
182.3686808158363
 30
0.0
 10
-46.64036998845927
 20
200.9330602765577
 30
0.0
 10
-45.54065009819097
 20
213.7810959903218
 30
0.0
 11
-33.80699986837978
 21
163.7432389948864
 31
0.0
 11
-42.79708215476545
 21
177.3080152439465
 31
0.0
 11
-45.54065009819097
 21
213.7810959903218
 31
0.0
  0
SPLINE
  5
3ECD
330
2
100
AcDbEntity
  8
KIJUN
100
AcDbSpline
210
0.0
220
0.0
230
1.0
 70
     8
 71
     3
 72
     9
 73
     5
 74
     3
 42
0.0000000001
 43
0.0000000001
 44
0.0000000001
 40
0.0
 40
0.0
 40
0.0
 40
0.0
 40
19.00215623153514
 40
60.00536710324698
 40
60.00536710324698
 40
60.00536710324698
 40
60.00536710324698
 10
-28.12018668118606
 20
175.1168653680894
 30
0.0
 10
-31.09183057777293
 20
180.8796089701336
 30
0.0
 10
-40.4757436843758
 20
199.0773093336681
 30
0.0
 10
-38.92103400178872
 20
219.8677466981976
 30
0.0
 10
-37.85866088356872
 20
234.0743873459603
 30
0.0
 11
-28.12018668118606
 21
175.1168653680894
 31
0.0
 11
-35.93816486362496
 21
192.6651025755409
 31
0.0
 11
-37.85866088356872
 21
234.0743873459603
 31
0.0
  0
SPLINE
  5
3ECF
330
2
100
AcDbEntity
  8
KIJUN
100
AcDbSpline
210
0.0
220
0.0
230
1.0
 70
     8
 71
     3
 72
    18
 73
    14
 74
    12
 42
0.0000000001
 43
0.0000000001
 44
0.0000000001
 40
0.0
 40
0.0
 40
0.0
 40
0.0
 40
10.5122471533
 40
31.71145094037076
 40
40.65412626637765
 40
61.69519619295067
 40
74.81201894291666
 40
88.380655908002
 40
105.9980735864959
 40
122.6800853951151
 40
134.2630818145663
 40
146.0819804950405
 40
154.4223517133263
 40
154.4223517133263
 40
154.4223517133263
 40
154.4223517133263
 10
17.37431881248362
 20
192.1773049286978
 30
0.0
 10
13.76951410612319
 20
192.176880715976
 30
0.0
 10
2.895189527530949
 20
192.1756010275595
 30
0.0
 10
-8.393593197312771
 20
203.0273200053423
 30
0.0
 10
-14.79688717785297
 20
219.1341753744445
 30
0.0
 10
-9.995926112640782
 20
235.3781266919965
 30
0.0
 10
3.375513654004973
 20
244.5834872893001
 30
0.0
 10
19.39911523274117
 20
248.4324531134066
 30
0.0
 10
31.89287788321671
 20
234.490766075056
 30
0.0
 10
34.51302225233144
 20
218.1028762253661
 30
0.0
 10
25.26694744527075
 20
206.0603005950019
 30
0.0
 10
10.9392079143376
 20
208.0322338620296
 30
0.0
 10
10.37746361864627
 20
215.4496617090313
 30
0.0
 10
10.14505659302734
 20
218.518428685193
 30
0.0
 11
17.37431881248362
 21
192.1773049286978
 31
0.0
 11
6.787238013888575
 21
193.1063570324218
 31
0.0
 11
-9.522157710765785
 21
207.0110750123834
 31
0.0
 11
-12.65253348864207
 21
215.4927883301143
 31
0.0
 11
-6.925682522228567
 21
235.9796992749692
 31
0.0
 11
3.774488685869195
 21
243.8129293422979
 31
0.0
 11
17.34037808523217
 21
245.8483934498466
 31
0.0
 11
30.29195779817113
 21
233.6218296518109
 31
0.0
 11
31.97086452031785
 21
216.8402728371066
 31
0.0
 11
24.0560101086653
 21
208.2097579990395
 31
0.0
 11
12.30365278394668
 21
210.3673867085564
 31
0.0
 11
10.14505659302734
 21
218.518428685193
 31
0.0
  0
SPLINE
  5
3ED0
330
2
100
AcDbEntity
  8
KIJUN
100
AcDbSpline
210
0.0
220
0.0
230
1.0
 70
     8
 71
     3
 72
    13
 73
     9
 74
     7
 42
0.0000000001
 43
0.0000000001
 44
0.0000000001
 40
0.0
 40
0.0
 40
0.0
 40
0.0
 40
5.067082422601228
 40
10.80508602463892
 40
21.91358975880491
 40
35.64315508350575
 40
46.05427427669273
 40
57.42443712144788
 40
57.42443712144788
 40
57.42443712144788
 40
57.42443712144788
 10
57.18201111982113
 20
229.1415906426552
 30
0.0
 10
55.42945615459037
 20
229.1480531151007
 30
0.0
 10
51.69229429636557
 20
229.1618337416785
 30
0.0
 10
45.66075809960226
 20
223.6630300519079
 30
0.0
 10
45.63653973781697
 20
212.7083870918227
 30
0.0
 10
38.00666665256546
 20
202.6444329000178
 30
0.0
 10
27.71258563494706
 20
196.4441994726482
 30
0.0
 10
20.92010023226513
 20
193.6407490101792
 30
0.0
 10
17.37431881248546
 20
192.1773049286989
 30
0.0
 11
57.18201111982113
 21
229.1415906426552
 31
0.0
 11
52.0921762280103
 21
228.5616782333633
 31
0.0
 11
47.67532678456296
 21
224.8008642630425
 31
0.0
 11
44.56717204616194
 21
214.0089601897341
 31
0.0
 11
36.71499611361723
 21
202.5630028892857
 31
0.0
 11
27.88129722672164
 21
196.8400242390615
 31
0.0
 11
17.37431881248546
 21
192.1773049286989
 31
0.0
  0
ARC
  5
3ED1
330
2
100
AcDbEntity
  8
KIJUN
100
AcDbCircle
 10
28.74794518600909
 20
200.2869214878114
 30
0.0
 40
13.96872426602949
100
AcDbArc
 50
215.4896072141834
 51
324.5103927858046
  0
SPLINE
  5
3ED2
330
2
100
AcDbEntity
  8
KIJUN
100
AcDbSpline
210
0.0
220
0.0
230
1.0
 70
     8
 71
     3
 72
    10
 73
     6
 74
     4
 42
0.0000000001
 43
0.0000000001
 44
0.0000000001
 40
0.0
 40
0.0
 40
0.0
 40
0.0
 40
11.52882173291772
 40
34.21215894695246
 40
67.1306482418023
 40
67.1306482418023
 40
67.1306482418023
 40
67.1306482418023
 10
-113.4223844830533
 20
92.65807416035499
 30
0.0
 10
-111.8548473422663
 20
96.31619864051941
 30
0.0
 10
-107.2031291477927
 20
107.1718037545945
 30
0.0
 10
-83.46154674070644
 20
115.9592624686914
 30
0.0
 10
-78.28249594044534
 20
135.2574852169231
 30
0.0
 10
-75.21629220164128
 20
146.6827994347175
 30
0.0
 11
-113.4223844830533
 21
92.65807416035499
 31
0.0
 11
-107.8740291461888
 21
102.9082797650496
 31
0.0
 11
-89.49213316796052
 21
116.6199629783605
 31
0.0
 11
-75.21629220164128
 21
146.6827994347175
 31
0.0
  0
SPLINE
  5
3ED3
330
2
100
AcDbEntity
  8
KIJUN
100
AcDbSpline
210
0.0
220
0.0
230
1.0
 70
     8
 71
     3
 72
    10
 73
     6
 74
     4
 42
0.0000000001
 43
0.0000000001
 44
0.0000000001
 40
0.0
 40
0.0
 40
0.0
 40
0.0
 40
11.93312099127206
 40
42.74484638952401
 40
71.14586032252081
 40
71.14586032252081
 40
71.14586032252081
 40
71.14586032252081
 10
-119.1091976698158
 20
115.4053269074049
 30
0.0
 10
-115.010330832755
 20
115.9483993709356
 30
0.0
 10
-100.3280500237839
 20
117.8937034576851
 30
0.0
 10
-86.84018533235995
 20
141.5606685332854
 30
0.0
 10
-78.99059339893387
 20
159.3629227505668
 30
0.0
 10
-75.22558653744713
 20
167.9016607953532
 30
0.0
 11
-119.1091976698158
 21
115.4053269074049
 31
0.0
 11
-107.3253170979573
 21
117.9911319661559
 31
0.0
 11
-87.29727984018884
 21
141.8494616903664
 31
0.0
 11
-75.22558653744713
 21
167.9016607953532
 31
0.0
  0
SPLINE
  5
3ED5
330
2
100
AcDbEntity
  8
KIJUN
100
AcDbSpline
210
0.0
220
0.0
230
1.0
 70
     8
 71
     3
 72
    10
 73
     6
 74
     4
 42
0.0000000001
 43
0.0000000001
 44
0.0000000001
 40
0.0
 40
0.0
 40
0.0
 40
0.0
 40
11.68806376096723
 40
21.91388779425822
 40
34.20514305453395
 40
34.20514305453395
 40
34.20514305453395
 40
34.20514305453395
 10
-142.9858168494431
 20
114.2323479190542
 30
0.0
 10
-147.043688440486
 20
113.3170688327913
 30
0.0
 10
-154.6517700310899
 20
111.6010170035929
 30
0.0
 10
-159.5594320044755
 20
99.00156403318209
 30
0.0
 10
-155.3592205475785
 20
92.2486033098024
 30
0.0
 10
-153.0664777592807
 20
88.56240747012302
 30
0.0
 11
-142.9858168494431
 21
114.2323479190542
 31
0.0
 11
-153.889547115339
 21
109.6784008849031
 31
0.0
 11
-157.7305417226499
 21
100.0802213026566
 31
0.0
 11
-153.0664777592807
 21
88.56240747012302
 31
0.0
  0
SPLINE
  5
3ED6
330
2
100
AcDbEntity
  8
KIJUN
100
AcDbSpline
210
0.0
220
0.0
230
1.0
 70
     8
 71
     3
 72
    11
 73
     7
 74
     5
 42
0.0000000001
 43
0.0000000001
 44
0.0000000001
 40
0.0
 40
0.0
 40
0.0
 40
0.0
 40
13.18076287051424
 40
24.31870487813955
 40
45.6584546214013
 40
61.3506586647093
 40
61.3506586647093
 40
61.3506586647093
 40
61.3506586647093
 10
-142.9858168494431
 20
114.2323479190538
 30
0.0
 10
-145.0281699021112
 20
109.9321820815933
 30
0.0
 10
-148.7963418685387
 20
101.9983117164571
 30
0.0
 10
-137.3027245825387
 20
87.86644202742605
 30
0.0
 10
-118.5915957388758
 20
93.78920339147226
 30
0.0
 10
-109.7037326669213
 20
101.9829689435451
 30
0.0
 10
-105.9375214203337
 20
105.4550579850038
 30
0.0
 11
-142.9858168494431
 21
114.2323479190538
 31
0.0
 11
-146.2075604681402
 21
101.4513902904521
 31
0.0
 11
-139.3486431769992
 21
92.6759127673476
 31
0.0
 11
-118.2231792553454
 21
95.69248254110437
 31
0.0
 11
-105.9375214203337
 21
105.4550579850038
 31
0.0
  0
ARC
  5
3EDC
330
2
100
AcDbEntity
  8
KIJUN
100
AcDbCircle
 10
-146.4225661463216
 20
69.59343869989831
 30
0.0
 40
10.59949481072254
100
AcDbArc
 50
154.5951486787779
 51
226.2378983145227
  0
ARC
  5
3EDD
330
2
100
AcDbEntity
  8
KIJUN
100
AcDbCircle
 10
-33.49829662319361
 20
170.697403855747
 30
0.0
 40
6.961013331808661
100
AcDbArc
 50
267.4582442255744
 51
39.41165342027233
  0
ARC
  5
3EE9
330
2
100
AcDbEntity
  8
KIJUN
100
AcDbCircle
 10
57.18201111982089
 20
195.3050521814183
 30
0.0
 40
17.34478021962563
100
AcDbArc
 50
190.3888578154719
 51
349.6111421845281
  0
SPLINE
  5
3EF2
330
2
100
AcDbEntity
  8
KIJUN
100
AcDbSpline
210
0.0
220
0.0
230
1.0
 70
     8
 71
     3
 72
    11
 73
     7
 74
     5
 42
0.0000000001
 43
0.0000000001
 44
0.0000000001
 40
0.0
 40
0.0
 40
0.0
 40
0.0
 40
14.09514976519667
 40
40.97169967802311
 40
57.51019972172866
 40
78.13509324188983
 40
78.13509324188983
 40
78.13509324188983
 40
78.13509324188983
 10
29.64929532255942
 20
234.885054919901
 30
0.0
 10
28.18787877729513
 20
239.5618854866867
 30
0.0
 10
23.93984163015476
 20
253.1564694832667
 30
0.0
 10
-1.803398071712559
 20
258.8428843501836
 30
0.0
 10
-17.32282494315782
 20
239.7935744521723
 30
0.0
 10
-14.49880204421672
 20
226.9559353785582
 30
0.0
 10
-12.93152935990007
 20
219.8313185566707
 30
0.0
 11
29.64929532255942
 21
234.885054919901
 31
0.0
 11
23.59723486144809
 21
247.7860722254321
 31
0.0
 11
-3.015362379633003
 21
253.2707448442917
 31
0.0
 11
-13.98963158591224
 21
240.6559954882888
 31
0.0
 11
-12.93152935990007
 21
219.8313185566707
 31
0.0
  0
SPLINE
  5
3EF3
330
2
100
AcDbEntity
  8
KIJUN
100
AcDbSpline
210
0.0
220
0.0
230
1.0
 70
     8
 71
     3
 72
    12
 73
     8
 74
     6
 42
0.0000000001
 43
0.0000000001
 44
0.0000000001
 40
0.0
 40
0.0
 40
0.0
 40
0.0
 40
14.16758964259576
 40
47.14182495956859
 40
66.09787142246396
 40
77.73084229788304
 40
90.2068791372099
 40
90.2068791372099
 40
90.2068791372099
 40
90.2068791372099
 10
40.1215715595327
 20
250.7406751729835
 30
0.0
 10
36.82080294274054
 20
254.2466173445603
 30
0.0
 10
25.83768864523016
 20
265.9124346317811
 30
0.0
 10
1.48674772374151
 20
270.5768591733601
 30
0.0
 10
-19.05788326436173
 20
265.6270553079579
 30
0.0
 10
-28.81792307127715
 20
246.5930528108736
 30
0.0
 10
-32.10565149847634
 20
257.5779540677406
 30
0.0
 10
-33.80699986837842
 20
263.2624697632256
 30
0.0
 11
40.1215715595327
 21
250.7406751729835
 31
0.0
 11
29.64264387694596
 21
260.5053232090104
 31
0.0
 11
-2.73144399139164
 21
268.4580986729731
 31
0.0
 11
-20.29027318098304
 21
260.779556673337
 31
0.0
 11
-28.12018668161636
 21
252.0040791502323
 31
0.0
 11
-33.80699986837842
 21
263.2624697632256
 31
0.0
  0
SPLINE
  5
3EF4
330
2
100
AcDbEntity
  8
KIJUN
100
AcDbSpline
210
0.0
220
0.0
230
1.0
 70
     8
 71
     3
 72
    12
 73
     8
 74
     6
 42
0.0000000001
 43
0.0000000001
 44
0.0000000001
 40
0.0
 40
0.0
 40
0.0
 40
0.0
 40
10.14967320610481
 40
19.93373666421149
 40
30.85941857038033
 40
47.80028519170278
 40
62.50472799610067
 40
62.50472799610067
 40
62.50472799610067
 40
62.50472799610067
 10
0.3138792521961289
 20
303.0701620705678
 30
0.0
 10
-0.1003894418566757
 20
299.0833421255752
 30
0.0
 10
-0.9140041157270106
 20
291.2533147643683
 30
0.0
 10
11.63716340539558
 20
289.6125266986005
 30
0.0
 10
23.19700334946095
 20
286.803172478142
 30
0.0
 10
36.88148521508973
 20
279.4502413204653
 30
0.0
 10
41.30501834883959
 20
269.5113220657031
 30
0.0
 10
43.36047589180541
 20
264.8930619705626
 30
0.0
 11
0.3138792521961289
 21
303.0701620705678
 31
0.0
 11
1.383905356325157
 21
292.8648969919984
 31
0.0
 11
10.71203328306376
 21
289.5740920877535
 31
0.0
 11
21.41194261409271
 21
286.8317557783239
 31
0.0
 11
35.95284655243393
 21
277.7820447908923
 31
0.0
 11
43.36047589180541
 21
264.8930619705626
 31
0.0
  0
ARC
  5
3EF5
330
2
100
AcDbEntity
  8
KIJUN
100
AcDbCircle
 10
-1.623031373855468
 20
264.1276760363633
 30
0.0
 40
56.06433408267998
100
AcDbArc
 50
6.682738791021853
 51
68.17839175419924
  0
ARC
  5
3EF7
330
2
100
AcDbEntity
  8
KIJUN
100
AcDbCircle
 10
-9.398465170512771
 20
267.0515760706637
 30
0.0
 40
24.7008885003345
100
AcDbArc
 50
93.85639365988359
 51
188.8239898319288
  0
ARC
  5
3EF8
330
2
100
AcDbEntity
  8
KIJUN
100
AcDbCircle
 10
3.01484065885552
 20
288.9955742903831
 30
0.0
 40
14.33140655003501
100
AcDbArc
 50
100.8631878726751
 51
169.1368121273234
  0
CIRCLE
  5
3F03
330
2
100
AcDbEntity
  8
KIJUN
100
AcDbCircle
 10
57.18201111982089
 20
237.6718104227989
 30
0.0
 40
8.530219780143749
  0
ARC
  5
3F06
330
2
100
AcDbEntity
  8
KIJUN
100
AcDbCircle
 10
21.06314603359173
 20
310.9113129039066
 30
0.0
 40
16.77045056863189
100
AcDbArc
 50
9.595000100913678
 51
62.72675796730029
  0
ARC
  5
3F07
330
2
100
AcDbEntity
  8
KIJUN
100
AcDbCircle
 10
64.40905840626367
 20
386.3117612890537
 30
0.0
 40
47.66843066982821
100
AcDbArc
 50
238.4067350575429
 51
261.1535920139691
  0
SPLINE
  5
3F08
330
2
100
AcDbEntity
  8
KIJUN
100
AcDbSpline
210
0.0
220
0.0
230
1.0
 70
     8
 71
     3
 72
     9
 73
     5
 74
     3
 42
0.0000000001
 43
0.0000000001
 44
0.0000000001
 40
0.0
 40
0.0
 40
0.0
 40
0.0
 40
15.43677011032721
 40
34.424457257448
 40
34.424457257448
 40
34.424457257448
 40
34.424457257448
 10
40.12157155953363
 20
250.7406751729837
 30
0.0
 10
43.78802787300894
 20
246.5591870798158
 30
0.0
 10
51.96433468767692
 20
237.2343440519671
 30
0.0
 10
47.86148154573772
 20
225.301640241793
 30
0.0
 10
45.59844828170946
 20
218.7198531979951
 30
0.0
 11
40.12157155953363
 21
250.7406751729837
 31
0.0
 11
48.65179133967737
 21
237.671810422799
 31
0.0
 11
45.59844828170946
 21
218.7198531979951
 31
0.0
  0
CIRCLE
  5
3F09
330
2
100
AcDbEntity
  8
KIJUN
100
AcDbCircle
 10
57.18201111982089
 20
237.6718104227989
 30
0.0
 40
8.530219780143749
  0
ARC
  5
3F0B
330
2
100
AcDbEntity
  8
KIJUN
100
AcDbCircle
 10
57.18201111981978
 20
341.7582003972911
 30
0.0
 40
18.18009354090168
100
AcDbArc
 50
12.54922120101968
 51
167.4507787989802
  0
ARC
  5
3F9B
330
2
100
AcDbEntity
  8
KIJUN
100
AcDbCircle
 10
47.83717154600195
 20
329.6186095432864
 30
0.0
 40
18.15089423223195
100
AcDbArc
 50
117.5704001292719
 51
155.433604210625
  0
ARC
  5
3F9C
330
2
100
AcDbEntity
  8
KIJUN
100
AcDbCircle
 10
78.46773010427632
 20
320.4742533527043
 30
0.0
 40
50.00606349997259
100
AcDbArc
 50
160.5022156112763
 51
173.866220881111
  0
ARC
  5
3F9D
330
2
100
AcDbEntity
  8
KIJUN
100
AcDbCircle
 10
39.92578121779889
 20
233.413073861314
 30
0.0
 40
93.07795789550649
100
AcDbArc
 50
96.8973612894449
 51
110.7139770064871
  0
ARC
  5
3F9E
330
2
100
AcDbEntity
  8
KIJUN
100
AcDbCircle
 10
31.47310031477355
 20
307.5789684998627
 30
0.0
 40
31.48374807171802
100
AcDbArc
 50
169.5291531770571
 51
188.2336726578341
  0
ARC
  5
3F9F
330
2
100
AcDbEntity
  8
KIJUN
100
AcDbCircle
 10
10.81422415714532
 20
310.5041263736888
 30
0.0
 40
10.67346292306123
100
AcDbArc
 50
110.9159110672499
 51
164.8106744588446
  0
ARC
  5
3FA5
330
2
100
AcDbEntity
  8
KIJUN
100
AcDbCircle
 10
-5.877776448481858
 20
197.6069604001804
 30
0.0
 40
71.34905346645694
100
AcDbArc
 50
113.0444354955453
 51
163.1788607667612
  0
ARC
  5
3FA6
330
2
100
AcDbEntity
  8
KIJUN
100
AcDbCircle
 10
-88.79626701892641
 20
214.334330180706
 30
0.0
 40
12.24549894743762
100
AcDbArc
 50
280.89905010742
 51
331.3928554318904
  0
ARC
  5
3FA7
330
2
100
AcDbEntity
  8
KIJUN
100
AcDbCircle
 10
-116.3332787223493
 20
229.2810806085336
 30
0.0
 40
43.57745162639869
100
AcDbArc
 50
331.4752382145743
 51
345.3426080491748
  0
ARC
  5
3FA8
330
2
100
AcDbEntity
  8
KIJUN
100
AcDbCircle
 10
-79.72846147441281
 20
154.1615201180597
 30
0.0
 40
48.61938199835563
100
AcDbArc
 50
97.98325258539739
 51
108.0283340707568
  0
ARC
  5
3FA9
330
2
100
AcDbEntity
  8
KIJUN
100
AcDbCircle
 10
-72.07470319732026
 20
195.9305931878771
 30
0.0
 40
25.434139277037
100
AcDbArc
 50
178.6874084388356
 51
195.0323152724079
  0
ARC
  5
3FAA
330
2
100
AcDbEntity
  8
KIJUN
100
AcDbCircle
 10
-93.17782481940175
 20
196.3730571092897
 30
0.0
 40
4.326614446885696
100
AcDbArc
 50
111.6709997762853
 51
178.1436278993664
  0
ARC
  5
3FAB
330
2
100
AcDbEntity
  8
KIJUN
100
AcDbCircle
 10
-88.83400795168929
 20
155.7007805066152
 30
0.0
 40
34.5267486976438
100
AcDbArc
 50
103.064116876024
 51
114.2661852411499
  0
ARC
  5
3FAD
330
2
100
AcDbEntity
  8
KIJUN
100
AcDbCircle
 10
-97.35419164636164
 20
175.5580161701155
 30
0.0
 40
12.92837389799607
100
AcDbArc
 50
116.0102020937243
 51
165.9386803856622
  0
ARC
  5
3FAE
330
2
100
AcDbEntity
  8
KIJUN
100
AcDbCircle
 10
-92.23724401465501
 20
173.4153447171937
 30
0.0
 40
18.43151769709787
100
AcDbArc
 50
163.3413388266715
 51
212.8648771820921
  0
ARC
  5
3FAF
330
2
100
AcDbEntity
  8
KIJUN
100
AcDbCircle
 10
-102.4239294708571
 20
167.0794850410333
 30
0.0
 40
6.440266573494772
100
AcDbArc
 50
214.6985872756664
 51
263.1648431667481
  0
ARC
  5
3FB0
330
2
100
AcDbEntity
  8
KIJUN
100
AcDbCircle
 10
-101.9153653596752
 20
171.9600103339683
 30
0.0
 40
11.34688404853001
100
AcDbArc
 50
263.5480884284362
 51
278.0254198381194
  0
ARC
  5
3FB1
330
2
100
AcDbEntity
  8
KIJUN
100
AcDbCircle
 10
-108.893051803165
 20
205.0606224164755
 30
0.0
 40
45.15549561659226
100
AcDbArc
 50
280.9299204088899
 51
293.793942937847
  0
ARC
  5
3FB2
330
2
100
AcDbEntity
  8
KIJUN
100
AcDbCircle
 10
-130.6721999442963
 20
164.0384327061138
 30
0.0
 40
39.99815751489004
100
AcDbArc
 50
313.1825704306554
 51
359.5771428389797
  0
ARC
  5
3FB3
330
2
100
AcDbEntity
  8
KIJUN
100
AcDbCircle
 10
-113.9608355410227
 20
145.9668407268402
 30
0.0
 40
15.38582979636102
100
AcDbArc
 50
256.6479122758884
 51
313.857765220188
  0
ARC
  5
3FB4
330
2
100
AcDbEntity
  8
KIJUN
100
AcDbCircle
 10
-124.6206339230056
 20
105.3634305036204
 30
0.0
 40
26.60037013983473
100
AcDbArc
 50
74.50437680644585
 51
81.9562616897611
  0
ARC
  5
3FB5
330
2
100
AcDbEntity
  8
KIJUN
100
AcDbCircle
 10
-122.1644654411804
 20
125.6228968853174
 30
0.0
 40
6.209619947089653
100
AcDbArc
 50
78.23626767544078
 51
178.0309553331489
  0
ARC
  5
3FB6
330
2
100
AcDbEntity
  8
KIJUN
100
AcDbCircle
 10
-117.1184144924642
 20
126.4996725256863
 30
0.0
 40
11.27154480792699
100
AcDbArc
 50
183.3742412984918
 51
259.827038953264
  0
ARC
  5
3FB7
330
2
100
AcDbEntity
  8
KIJUN
100
AcDbCircle
 10
-140.214727956709
 20
129.6329036792593
 30
0.0
 40
25.45323848727259
100
AcDbArc
 50
283.5867953271248
 51
326.0154578756505
  0
ARC
  5
3FB8
330
2
100
AcDbEntity
  8
KIJUN
100
AcDbCircle
 10
-112.2814305583625
 20
137.0406461909589
 30
0.0
 40
76.59931764826369
100
AcDbArc
 50
225.309486654087
 51
235.200566140966
  0
ARC
  5
3FB9
330
2
100
AcDbEntity
  8
KIJUN
100
AcDbCircle
 10
-148.8562557490641
 20
99.16878720839845
 30
0.0
 40
23.96173313111609
100
AcDbArc
 50
165.5925410076362
 51
223.7962431031583
  0
ARC
  5
3FBA
330
2
100
AcDbEntity
  8
KIJUN
100
AcDbCircle
 10
-152.232393447042
 20
98.85404738595944
 30
0.0
 40
20.80161442239473
100
AcDbArc
 50
92.5383925081233
 51
162.4375037247368
  0
ARC
  5
3FBC
330
2
100
AcDbEntity
  8
KIJUN
100
AcDbCircle
 10
-155.6872947686195
 20
95.14800142467635
 30
0.0
 40
24.61797343204971
100
AcDbArc
 50
69.6544028417712
 51
84.09279686100498
  0
ARC
  5
3FBD
330
2
100
AcDbEntity
  8
KIJUN
100
AcDbCircle
 10
-149.5814243876712
 20
111.5479714336251
 30
0.0
 40
7.118292146702434
100
AcDbArc
 50
26.2601432817195
 51
69.83926952004849
  0
ARC
  5
3FBE
330
2
100
AcDbEntity
  8
KIJUN
100
AcDbCircle
 10
-181.2116289151443
 20
97.97035501811292
 30
0.0
 40
41.53129139221395
100
AcDbArc
 50
15.32258556312975
 51
23.75074843203579
  0
ARC
  5
3FBF
330
2
100
AcDbEntity
  8
KIJUN
100
AcDbCircle
 10
-135.9043185344184
 20
109.9780417506729
 30
0.0
 40
5.35291936309361
100
AcDbArc
 50
191.1256714756869
 51
288.1674795051154
  0
ARC
  5
3FD9
330
2
100
AcDbEntity
  8
KIJUN
100
AcDbCircle
 10
-161.3974708191084
 20
87.06351420027582
 30
0.0
 40
26.26216465909007
100
AcDbArc
 50
286.9208183281451
 51
293.0441492375093
  0
ARC
  5
3FDA
330
2
100
AcDbEntity
  8
KIJUN
100
AcDbCircle
 10
-153.9035280058113
 20
69.58986463225878
 30
0.0
 40
7.249636615858083
100
AcDbArc
 50
292.6010747197765
 51
330.7531716253822
  0
ARC
  5
3FDB
330
2
100
AcDbEntity
  8
KIJUN
100
AcDbCircle
 10
-137.384329571143
 20
68.47462300055005
 30
0.0
 40
8.288217256935132
100
AcDbArc
 50
115.7559006948864
 51
155.2502257773878
  0
ARC
  5
3FDC
330
2
100
AcDbEntity
  8
KIJUN
100
AcDbCircle
 10
-226.8069235362742
 20
105.4313615205743
 30
0.0
 40
88.47752199364142
100
AcDbArc
 50
333.5687240871503
 51
337.760540891473
  0
ARC
  5
3FDD
330
2
100
AcDbEntity
  8
KIJUN
100
AcDbCircle
 10
-131.3323830597732
 20
56.0002363101659
 30
0.0
 40
22.15313848461065
100
AcDbArc
 50
103.0596926596467
 51
115.8337796940307
  0
ARC
  5
3FDE
330
2
100
AcDbEntity
  8
KIJUN
100
AcDbCircle
 10
-136.1617858965458
 20
104.6583828076205
 30
0.0
 40
25.71162741394547
100
AcDbArc
 50
305.4281764437179
 51
332.1779573449819
  0
ARC
  5
3FE0
330
2
100
AcDbEntity
  8
KIJUN
100
AcDbCircle
 10
-136.8173158841857
 20
102.7835374309998
 30
0.0
 40
24.6173475862324
100
AcDbArc
 50
284.2746363645799
 51
309.2036387219191
  0
ARC
  5
3FE1
330
2
100
AcDbEntity
  8
KIJUN
100
AcDbCircle
 10
-182.1028254597157
 20
279.9754695338005
 30
0.0
 40
207.5046177038836
100
AcDbArc
 50
282.7411810706832
 51
284.3290590312862
  0
ARC
  5
3FE2
330
2
100
AcDbEntity
  8
KIJUN
100
AcDbCircle
 10
-252.4384518060782
 20
199.2655565310369
 30
0.0
 40
191.425429444576
100
AcDbArc
 50
328.0591627845641
 51
336.8262083418398
  0
ARC
  5
3FE3
330
2
100
AcDbEntity
  8
KIJUN
100
AcDbCircle
 10
-92.16667084748531
 20
121.4391447589867
 30
0.0
 40
35.77925917288842
100
AcDbArc
 50
233.5529819031897
 51
243.1995544684532
  0
ARC
  5
3FE4
330
2
100
AcDbEntity
  8
KIJUN
100
AcDbCircle
 10
-103.5019439022456
 20
98.84853350433459
 30
0.0
 40
10.50460111860403
100
AcDbArc
 50
242.8281552738918
 51
301.3113398648878
  0
ARC
  5
3FE5
330
2
100
AcDbEntity
  8
KIJUN
100
AcDbCircle
 10
-113.0467508251086
 20
112.7914252846167
 30
0.0
 40
27.39219473942281
100
AcDbArc
 50
303.2124142060926
 51
327.3003938471258
  0
ARC
  5
3FE6
330
2
100
AcDbEntity
  8
KIJUN
100
AcDbCircle
 10
-107.4984580420467
 20
105.8729486455694
 30
0.0
 40
35.91324758107905
100
AcDbArc
 50
21.13934038263717
 51
30.19541879525169
  0
ARC
  5
3FE7
330
2
100
AcDbEntity
  8
KIJUN
100
AcDbCircle
 10
-86.43589251696273
 20
114.4341243317429
 30
0.0
 40
13.18632658782955
100
AcDbArc
 50
352.6774489198742
 51
19.44835871897018
  0
ARC
  5
3FE8
330
2
100
AcDbEntity
  8
KIJUN
100
AcDbCircle
 10
-50.17570527879788
 20
109.4567019854938
 30
0.0
 40
23.41465558418978
100
AcDbArc
 50
171.9059188829567
 51
179.062411515658
  0
ARC
  5
3FE9
330
2
100
AcDbEntity
  8
KIJUN
100
AcDbCircle
 10
-70.64810368178171
 20
109.7600325883872
 30
0.0
 40
2.940205646359834
100
AcDbArc
 50
178.4445543561683
 51
223.095789067031
  0
ARC
  5
3FEA
330
2
100
AcDbEntity
  8
KIJUN
100
AcDbCircle
 10
-70.6576838694594
 20
110.3650864861406
 30
0.0
 40
3.37649643268247
100
AcDbArc
 50
230.7266061204698
 51
256.3479015293367
  0
ARC
  5
3FEB
330
2
100
AcDbEntity
  8
KIJUN
100
AcDbCircle
 10
-68.84307021667355
 20
118.8418915138804
 30
0.0
 40
12.04443997551994
100
AcDbArc
 50
257.4772929152914
 51
297.8157163006866
  0
ARC
  5
3FEC
330
2
100
AcDbEntity
  8
KIJUN
100
AcDbCircle
 10
-71.77969433118395
 20
124.8831566562956
 30
0.0
 40
18.75928025859103
100
AcDbArc
 50
297.1384938153403
 51
322.4047628718212
  0
ARC
  5
3FED
330
2
100
AcDbEntity
  8
KIJUN
100
AcDbCircle
 10
-113.0971899215325
 20
154.8409563717415
 30
0.0
 40
69.78892019849301
100
AcDbArc
 50
323.611846354784
 51
338.8165467481627
  0
ARC
  5
3FEE
330
2
100
AcDbEntity
  8
KIJUN
100
AcDbCircle
 10
-74.93509023967445
 20
160.8576218878666
 30
0.0
 40
41.2291960105674
100
AcDbArc
 50
310.7468772041086
 51
4.013392899810218
  0
ARC
  5
3FEF
330
2
100
AcDbEntity
  8
KIJUN
100
AcDbCircle
 10
-88.3949100106129
 20
91.4658048714504
 30
0.0
 40
103.1045207284982
100
AcDbArc
 50
46.48032376054739
 51
54.22538606785369
  0
ARC
  5
3FF0
330
2
100
AcDbEntity
  8
KIJUN
100
AcDbCircle
 10
-29.73246945874123
 20
154.2355295346401
 30
0.0
 40
17.20628667425213
100
AcDbArc
 50
26.11817751479321
 51
44.19838435405569
  0
ARC
  5
3FF1
330
2
100
AcDbEntity
  8
KIJUN
100
AcDbCircle
 10
-19.7745583077861
 20
159.0337615257569
 30
0.0
 40
6.1533634715141
100
AcDbArc
 50
322.1324097409866
 51
26.82061398537689
  0
ARC
  5
3FF2
330
2
100
AcDbEntity
  8
KIJUN
100
AcDbCircle
 10
-48.05307400810418
 20
181.4849237354547
 30
0.0
 40
42.26028405865239
100
AcDbArc
 50
317.6158900696671
 51
321.6372656245381
  0
ARC
  5
3FF3
330
2
100
AcDbEntity
  8
KIJUN
100
AcDbCircle
 10
-12.85484663492926
 20
149.6045715363698
 30
0.0
 40
5.232142074766744
100
AcDbArc
 50
139.5749414144298
 51
155.0725696433402
  0
ARC
  5
3FF5
330
2
100
AcDbEntity
  8
KIJUN
100
AcDbCircle
 10
-15.92253496985857
 20
151.1428057417001
 30
0.0
 40
1.804797287350765
100
AcDbArc
 50
158.3123396514019
 51
205.4220461348251
  0
ARC
  5
3FF6
330
2
100
AcDbEntity
  8
KIJUN
100
AcDbCircle
 10
-9.562036691400797
 20
156.7106520283352
 30
0.0
 40
10.2018354395059
100
AcDbArc
 50
218.4413407014822
 51
315.7900543791986
  0
ARC
  5
3FF7
330
2
100
AcDbEntity
  8
KIJUN
100
AcDbCircle
 10
118.7986315452563
 20
162.2085387071036
 30
0.0
 40
117.1268545688902
100
AcDbArc
 50
170.8650306350107
 51
180.0234363132553
  0
ARC
  5
3FF8
330
2
100
AcDbEntity
  8
KIJUN
100
AcDbCircle
 10
-33.98887171648725
 20
161.3805613010297
 30
0.0
 40
35.66918936166896
100
AcDbArc
 50
351.8581814138185
 51
1.253130604052557
  0
ARC
  5
3FF9
330
2
100
AcDbEntity
  8
KIJUN
100
AcDbCircle
 10
-9.69110873364524
 20
157.8563733525257
 30
0.0
 40
11.11732711033575
100
AcDbArc
 50
312.0187103910008
 51
352.1031131399983
  0
ARC
  5
3FFA
330
2
100
AcDbEntity
  8
KIJUN
100
AcDbCircle
 10
-5.183695653508423
 20
197.5814099804235
 30
0.0
 40
18.73670846616084
100
AcDbArc
 50
296.4340826137412
 51
343.4490393444697
  0
DIMENSION
  5
4034
330
2
100
AcDbEntity
  8
SUNPOU
100
AcDbDimension
  2
*D4
 10
-227.0416950082843
 20
61.93829393819278
 30
0.0
 11
-232.5416950082843
 21
210.9382939381928
 31
0.0
 70
    32
 71
     5
 42
298.0
  3
STANDARD
100
AcDbAlignedDimension
 13
57.18201111981976
 23
359.9382939381928
 33
0.0
 14
-153.753872231861
 24
61.93829393819275
 34
0.0
 50
90.0
100
AcDbRotatedDimension
1001
ACAD
1000
DSTYLE
1002
{
1070
    41
1040
2.0
1070
    42
1040
10.0
1070
    44
1040
0.0
1070
    73
1070
     0
1070
    74
1070
     0
1070
    77
1070
     1
1070
   140
1040
5.0
1070
   141
1040
0.0
1070
   146
1040
0.064286
1070
   147
1040
3.0
1070
   176
1070
    60
1070
   177
1070
    70
1070
   178
1070
    60
1070
   271
1070
     0
1070
   272
1070
     0
1070
   340
1005
1C
1070
   342
1005
109
1002
}
  0
DIMENSION
  5
4041
330
2
100
AcDbEntity
  8
SUNPOU
100
AcDbDimension
  2
*D5
 10
287.1820111198198
 20
36.33826896250878
 30
0.0
 11
57.18201111981976
 21
41.83826896250877
 31
0.0
 70
    32
 71
     5
 42
460.0
  3
STANDARD
100
AcDbAlignedDimension
 13
-172.8179888801802
 23
99.16878720839845
 33
0.0
 14
287.1820111198198
 24
99.16878720839845
 34
0.0
100
AcDbRotatedDimension
1001
ACAD
1000
DSTYLE
1002
{
1070
    41
1040
2.0
1070
    42
1040
10.0
1070
    44
1040
0.0
1070
    73
1070
     0
1070
    74
1070
     0
1070
    77
1070
     1
1070
   140
1040
5.0
1070
   141
1040
0.0
1070
   146
1040
0.064286
1070
   147
1040
3.0
1070
   176
1070
    60
1070
   177
1070
    70
1070
   178
1070
    60
1070
   271
1070
     0
1070
   272
1070
     0
1070
   340
1005
1C
1070
   342
1005
109
1002
}
  0
SPLINE
  5
40A4
330
2
100
AcDbEntity
  8
KIJUN
100
AcDbSpline
210
0.0
220
0.0
230
1.0
 70
     8
 71
     3
 72
    10
 73
     6
 74
     4
 42
0.0000000001
 43
0.0000000001
 44
0.0000000001
 40
0.0
 40
0.0
 40
0.0
 40
0.0
 40
12.11517790425352
 40
35.97246554257863
 40
59.30430478223502
 40
59.30430478223502
 40
59.30430478223502
 40
59.30430478223502
 10
211.0025007531833
 20
189.3338983353179
 30
0.0
 10
206.9205227688434
 20
189.9092011377723
 30
0.0
 10
194.8002870159966
 20
191.6173939849094
 30
0.0
 10
181.1489186741776
 20
208.5961105498378
 30
0.0
 10
175.8746990241758
 20
223.2415237693426
 30
0.0
 10
173.2669532757394
 20
230.4826924334584
 30
0.0
 11
211.0025007531833
 21
189.3338983353179
 31
0.0
 11
199.1920914442298
 21
192.0342256500518
 31
0.0
 11
182.4563341781192
 21
209.0367137676071
 31
0.0
 11
173.2669532757394
 21
230.4826924334584
 31
0.0
  0
SPLINE
  5
40A5
330
2
100
AcDbEntity
  8
KIJUN
100
AcDbSpline
210
0.0
220
0.0
230
1.0
 70
     8
 71
     3
 72
    13
 73
     9
 74
     7
 42
0.0000000001
 43
0.0000000001
 44
0.0000000001
 40
0.0
 40
0.0
 40
0.0
 40
0.0
 40
14.16965107560059
 40
31.43861141221988
 40
56.76756470381308
 40
79.58394475212486
 40
104.9928326699057
 40
115.9025454888702
 40
115.9025454888702
 40
115.9025454888702
 40
115.9025454888702
 10
205.0391539756434
 20
163.7432389948864
 30
0.0
 10
200.1489842798162
 20
165.222459028252
 30
0.0
 10
189.2990244617048
 20
168.5044469596435
 30
0.0
 10
186.6863620298826
 20
189.744382918541
 30
0.0
 10
176.0660479629609
 20
208.190928897486
 30
0.0
 10
175.6040118955214
 20
234.6865733658301
 30
0.0
 10
158.276799932285
 20
247.2344834335086
 30
0.0
 10
148.990661134942
 20
254.8247061343419
 30
0.0
 10
146.2012059956762
 20
257.1047265155868
 30
0.0
 11
205.0391539756434
 21
163.7432389948864
 31
0.0
 11
192.2787602061666
 21
169.9037067086375
 31
0.0
 11
186.2429122710846
 21
186.0834944332122
 31
0.0
 11
177.7378562678268
 21
209.9418241574229
 31
0.0
 11
172.5250776888036
 21
232.1547514295111
 31
0.0
 11
154.6918937588068
 21
250.2541750705349
 31
0.0
 11
146.2012059956762
 21
257.1047265155868
 31
0.0
  0
SPLINE
  5
40A6
330
2
100
AcDbEntity
  8
KIJUN
100
AcDbSpline
210
0.0
220
0.0
230
1.0
 70
     8
 71
     3
 72
    10
 73
     6
 74
     4
 42
0.0000000001
 43
0.0000000001
 44
0.0000000001
 40
0.0
 40
0.0
 40
0.0
 40
0.0
 40
16.63162583610553
 40
42.12551328641732
 40
91.91636553021309
 40
91.91636553021309
 40
91.91636553021309
 40
91.91636553021309
 10
190.8221210087371
 20
123.9355466875489
 30
0.0
 10
190.8454743484596
 20
129.493950238556
 30
0.0
 10
190.9046249950926
 20
143.572586022371
 30
0.0
 10
183.5598401363188
 20
173.5909973624951
 30
0.0
 10
174.4407769748442
 20
196.9566514271547
 30
0.0
 10
168.4097283410882
 20
212.4099270025257
 30
0.0
 11
190.8221210087371
 21
123.9355466875489
 31
0.0
 11
190.3582616188004
 21
140.5607026994058
 31
0.0
 11
185.1454856071992
 21
165.5159679470853
 31
0.0
 11
168.4097283410882
 21
212.4099270025257
 31
0.0
  0
SPLINE
  5
40A7
330
2
100
AcDbEntity
  8
KIJUN
100
AcDbSpline
210
0.0
220
0.0
230
1.0
 70
     8
 71
     3
 72
     9
 73
     5
 74
     3
 42
0.0000000001
 43
0.0000000001
 44
0.0000000001
 40
0.0
 40
0.0
 40
0.0
 40
0.0
 40
16.27343645955121
 40
52.84955960282325
 40
52.84955960282325
 40
52.84955960282325
 40
52.84955960282325
 10
148.1710221080193
 20
163.7432389948864
 30
0.0
 10
151.5664425806468
 20
168.1281754309574
 30
0.0
 10
162.5933991236487
 20
182.3686808158363
 30
0.0
 10
161.0043922280987
 20
200.9330602765578
 30
0.0
 10
159.9046723378305
 20
213.7810959903218
 30
0.0
 11
148.1710221080193
 21
163.7432389948864
 31
0.0
 11
157.1611043944049
 21
177.3080152439465
 31
0.0
 11
159.9046723378305
 21
213.7810959903218
 31
0.0
  0
SPLINE
  5
40A8
330
2
100
AcDbEntity
  8
KIJUN
100
AcDbSpline
210
0.0
220
0.0
230
1.0
 70
     8
 71
     3
 72
     9
 73
     5
 74
     3
 42
0.0000000001
 43
0.0000000001
 44
0.0000000001
 40
0.0
 40
0.0
 40
0.0
 40
0.0
 40
19.21097113500713
 40
60.66476674120349
 40
60.66476674120349
 40
60.66476674120349
 40
60.66476674120349
 10
142.4842089208255
 20
175.1168653680894
 30
0.0
 10
145.4558528174124
 20
180.8796089701335
 30
0.0
 10
154.8397659240153
 20
199.0773093336681
 30
0.0
 10
153.2850562414282
 20
219.8677466981975
 30
0.0
 10
152.2226831232082
 20
234.0743873459603
 30
0.0
 11
142.4842089208255
 21
175.1168653680894
 31
0.0
 11
150.3021871032645
 21
192.6651025755409
 31
0.0
 11
152.2226831232082
 21
234.0743873459603
 31
0.0
  0
SPLINE
  5
40A9
330
2
100
AcDbEntity
  8
KIJUN
100
AcDbSpline
210
0.0
220
0.0
230
1.0
 70
     8
 71
     3
 72
    18
 73
    14
 74
    12
 42
0.0000000001
 43
0.0000000001
 44
0.0000000001
 40
0.0
 40
0.0
 40
0.0
 40
0.0
 40
10.62776635269208
 40
32.05992842294623
 40
41.10087490630116
 40
62.37316538132825
 40
75.63412904051633
 40
89.35187190619462
 40
107.1628875809968
 40
124.0282182005493
 40
135.7385002948353
 40
147.6872769826807
 40
156.1193006318615
 40
156.1193006318615
 40
156.1193006318615
 40
156.1193006318615
 10
96.9897034271559
 20
192.1773049286978
 30
0.0
 10
100.5945081335163
 20
192.176880715976
 30
0.0
 10
111.4688327121085
 20
192.1756010275595
 30
0.0
 10
122.7576154369522
 20
203.0273200053423
 30
0.0
 10
129.1609094174925
 20
219.1341753744445
 30
0.0
 10
124.3599483522803
 20
235.3781266919964
 30
0.0
 10
110.9885085856345
 20
244.5834872893002
 30
0.0
 10
94.96490700689832
 20
248.4324531134066
 30
0.0
 10
82.47114435642281
 20
234.490766075056
 30
0.0
 10
79.85099998730809
 20
218.102876225366
 30
0.0
 10
89.09707479436875
 20
206.0603005950019
 30
0.0
 10
103.4248143253019
 20
208.0322338620297
 30
0.0
 10
103.9865586209932
 20
215.4496617090313
 30
0.0
 10
104.2189656466121
 20
218.518428685193
 30
0.0
 11
96.9897034271559
 21
192.1773049286978
 31
0.0
 11
107.5767842257509
 21
193.1063570324218
 31
0.0
 11
123.8861799504053
 21
207.0110750123834
 31
0.0
 11
127.0165557282816
 21
215.4927883301143
 31
0.0
 11
121.2897047618681
 21
235.9796992749692
 31
0.0
 11
110.5895335537703
 21
243.8129293422979
 31
0.0
 11
97.02364415440733
 21
245.8483934498466
 31
0.0
 11
84.07206444146838
 21
233.6218296518109
 31
0.0
 11
82.39315771932167
 21
216.8402728371066
 31
0.0
 11
90.3080121309742
 21
208.2097579990395
 31
0.0
 11
102.0603694556928
 21
210.3673867085564
 31
0.0
 11
104.2189656466121
 21
218.518428685193
 31
0.0
  0
SPLINE
  5
40AA
330
2
100
AcDbEntity
  8
KIJUN
100
AcDbSpline
210
0.0
220
0.0
230
1.0
 70
     8
 71
     3
 72
    13
 73
     9
 74
     7
 42
0.0000000001
 43
0.0000000001
 44
0.0000000001
 40
0.0
 40
0.0
 40
0.0
 40
0.0
 40
5.12276464697976
 40
10.92382323360353
 40
22.15439843727565
 40
36.03483810608023
 40
46.56036520239523
 40
58.05547489149578
 40
58.05547489149578
 40
58.05547489149578
 40
58.05547489149578
 10
57.18201111981838
 20
229.1415906426552
 30
0.0
 10
58.93456608504916
 20
229.1480531151007
 30
0.0
 10
62.67172794327393
 20
229.1618337416785
 30
0.0
 10
68.70326414003725
 20
223.663030051908
 30
0.0
 10
68.72748250182254
 20
212.7083870918227
 30
0.0
 10
76.35735558707404
 20
202.6444329000177
 30
0.0
 10
86.65143660469244
 20
196.4441994726482
 30
0.0
 10
93.44392200737436
 20
193.6407490101791
 30
0.0
 10
96.98970342715405
 20
192.1773049286989
 30
0.0
 11
57.18201111981838
 21
229.1415906426552
 31
0.0
 11
62.27184601162921
 21
228.5616782333633
 31
0.0
 11
66.68869545507655
 21
224.8008642630425
 31
0.0
 11
69.79685019347757
 21
214.0089601897341
 31
0.0
 11
77.64902612602227
 21
202.5630028892857
 31
0.0
 11
86.48272501291787
 21
196.8400242390615
 31
0.0
 11
96.98970342715405
 21
192.1773049286989
 31
0.0
  0
ARC
  5
40AB
330
2
100
AcDbEntity
  8
KIJUN
100
AcDbCircle
 10
85.61607705363043
 20
200.2869214878114
 30
0.0
 40
13.96872426602949
100
AcDbArc
 50
215.4896072141954
 51
324.5103927858164
  0
SPLINE
  5
40AC
330
2
100
AcDbEntity
  8
KIJUN
100
AcDbSpline
210
0.0
220
0.0
230
1.0
 70
     8
 71
     3
 72
    10
 73
     6
 74
     4
 42
0.0000000001
 43
0.0000000001
 44
0.0000000001
 40
0.0
 40
0.0
 40
0.0
 40
0.0
 40
11.65551208152721
 40
34.58811673726998
 40
67.86834767242591
 40
67.86834767242591
 40
67.86834767242591
 40
67.86834767242591
 10
227.7864067226929
 20
92.65807416035499
 30
0.0
 10
226.2188695819058
 20
96.31619864051941
 30
0.0
 10
221.5671513874322
 20
107.1718037545946
 30
0.0
 10
197.825568980346
 20
115.9592624686913
 30
0.0
 10
192.6465181800849
 20
135.2574852169231
 30
0.0
 10
189.5803144412808
 20
146.6827994347175
 30
0.0
 11
227.7864067226929
 21
92.65807416035499
 31
0.0
 11
222.2380513858283
 21
102.9082797650496
 31
0.0
 11
203.8561554076
 21
116.6199629783605
 31
0.0
 11
189.5803144412808
 21
146.6827994347175
 31
0.0
  0
SPLINE
  5
40AD
330
2
100
AcDbEntity
  8
KIJUN
100
AcDbSpline
210
0.0
220
0.0
230
1.0
 70
     8
 71
     3
 72
    10
 73
     6
 74
     4
 42
0.0000000001
 43
0.0000000001
 44
0.0000000001
 40
0.0
 40
0.0
 40
0.0
 40
0.0
 40
12.06425418887082
 40
43.21456997583691
 40
71.92768296278656
 40
71.92768296278656
 40
71.92768296278656
 40
71.92768296278656
 10
233.4732199094554
 20
115.4053269074049
 30
0.0
 10
229.3743530723944
 20
115.9483993709356
 30
0.0
 10
214.6920722634234
 20
117.8937034576851
 30
0.0
 10
201.2042075719995
 20
141.5606685332854
 30
0.0
 10
193.3546156385733
 20
159.3629227505667
 30
0.0
 10
189.5896087770866
 20
167.9016607953532
 30
0.0
 11
233.4732199094554
 21
115.4053269074049
 31
0.0
 11
221.6893393375968
 21
117.9911319661559
 31
0.0
 11
201.6613020798284
 21
141.8494616903664
 31
0.0
 11
189.5896087770866
 21
167.9016607953532
 31
0.0
  0
SPLINE
  5
40AE
330
2
100
AcDbEntity
  8
KIJUN
100
AcDbSpline
210
0.0
220
0.0
230
1.0
 70
     8
 71
     3
 72
    10
 73
     6
 74
     4
 42
0.0000000001
 43
0.0000000001
 44
0.0000000001
 40
0.0
 40
0.0
 40
0.0
 40
0.0
 40
11.81650402197144
 40
22.15469974784384
 40
34.5810237471327
 40
34.5810237471327
 40
34.5810237471327
 40
34.5810237471327
 10
257.3498390890827
 20
114.2323479190542
 30
0.0
 10
261.4077106801254
 20
113.3170688327913
 30
0.0
 10
269.0157922707294
 20
111.601017003593
 30
0.0
 10
273.9234542441151
 20
99.00156403318213
 30
0.0
 10
269.723242787218
 20
92.2486033098024
 30
0.0
 10
267.4304999989202
 20
88.56240747012302
 30
0.0
 11
257.3498390890827
 21
114.2323479190542
 31
0.0
 11
268.2535693549785
 21
109.6784008849031
 31
0.0
 11
272.0945639622895
 21
100.0802213026566
 31
0.0
 11
267.4304999989202
 21
88.56240747012302
 31
0.0
  0
SPLINE
  5
40AF
330
2
100
AcDbEntity
  8
KIJUN
100
AcDbSpline
210
0.0
220
0.0
230
1.0
 70
     8
 71
     3
 72
    11
 73
     7
 74
     5
 42
0.0000000001
 43
0.0000000001
 44
0.0000000001
 40
0.0
 40
0.0
 40
0.0
 40
0.0
 40
13.18076287051424
 40
24.31870487813955
 40
45.6584546214013
 40
61.3506586647093
 40
61.3506586647093
 40
61.3506586647093
 40
61.3506586647093
 10
257.3498390890827
 20
114.2323479190538
 30
0.0
 10
259.3921921417507
 20
109.9321820815933
 30
0.0
 10
263.1603641081783
 20
101.9983117164571
 30
0.0
 10
251.6667468221782
 20
87.86644202742605
 30
0.0
 10
232.9556179785154
 20
93.78920339147226
 30
0.0
 10
224.0677549065609
 20
101.9829689435451
 30
0.0
 10
220.3015436599732
 20
105.4550579850038
 30
0.0
 11
257.3498390890827
 21
114.2323479190538
 31
0.0
 11
260.5715827077797
 21
101.4513902904521
 31
0.0
 11
253.7126654166387
 21
92.6759127673476
 31
0.0
 11
232.5872014949849
 21
95.69248254110437
 31
0.0
 11
220.3015436599732
 21
105.4550579850038
 31
0.0
  0
ARC
  5
40B0
330
2
100
AcDbEntity
  8
KIJUN
100
AcDbCircle
 10
260.7865883859612
 20
69.59343869989831
 30
0.0
 40
10.59949481072254
100
AcDbArc
 50
313.7621016854774
 51
25.40485132122209
  0
ARC
  5
40B1
330
2
100
AcDbEntity
  8
KIJUN
100
AcDbCircle
 10
147.8623188628331
 20
170.697403855747
 30
0.0
 40
6.961013331808661
100
AcDbArc
 50
140.5883465797276
 51
272.5417557744255
  0
SPLINE
  5
40B2
330
2
100
AcDbEntity
  8
KIJUN
100
AcDbSpline
210
0.0
220
0.0
230
1.0
 70
     8
 71
     3
 72
    11
 73
     7
 74
     5
 42
0.0000000001
 43
0.0000000001
 44
0.0000000001
 40
0.0
 40
0.0
 40
0.0
 40
0.0
 40
14.25004152073114
 40
41.42193813565414
 40
58.1421799379327
 40
78.99372063944824
 40
78.99372063944824
 40
78.99372063944824
 40
78.99372063944824
 10
84.7147269170801
 20
234.885054919901
 30
0.0
 10
86.17614346234438
 20
239.5618854866867
 30
0.0
 10
90.42418060948476
 20
253.1564694832667
 30
0.0
 10
116.167420311352
 20
258.8428843501836
 30
0.0
 10
131.6868471827973
 20
239.7935744521722
 30
0.0
 10
128.8628242838562
 20
226.9559353785582
 30
0.0
 10
127.2955515995396
 20
219.8313185566707
 30
0.0
 11
84.7147269170801
 21
234.885054919901
 31
0.0
 11
90.76678737819142
 21
247.7860722254321
 31
0.0
 11
117.3793846192725
 21
253.2707448442917
 31
0.0
 11
128.3536538255517
 21
240.6559954882888
 31
0.0
 11
127.2955515995396
 21
219.8313185566707
 31
0.0
  0
SPLINE
  5
40B3
330
2
100
AcDbEntity
  8
KIJUN
100
AcDbSpline
210
0.0
220
0.0
230
1.0
 70
     8
 71
     3
 72
    12
 73
     8
 74
     6
 42
0.0000000001
 43
0.0000000001
 44
0.0000000001
 40
0.0
 40
0.0
 40
0.0
 40
0.0
 40
14.32327744073842
 40
47.65986699166655
 40
66.82422165728002
 40
78.58502737737911
 40
91.19816352252025
 40
91.19816352252025
 40
91.19816352252025
 40
91.19816352252025
 10
74.2424506801068
 20
250.7406751729835
 30
0.0
 10
77.54321929689897
 20
254.2466173445603
 30
0.0
 10
88.52633359440929
 20
265.9124346317812
 30
0.0
 10
112.8772745158979
 20
270.57685917336
 30
0.0
 10
133.4219055040012
 20
265.627055307958
 30
0.0
 10
143.1819453109166
 20
246.5930528108736
 30
0.0
 10
146.4696737381158
 20
257.5779540677407
 30
0.0
 10
148.1710221080179
 20
263.2624697632256
 30
0.0
 11
74.2424506801068
 21
250.7406751729835
 31
0.0
 11
84.72137836269356
 21
260.5053232090104
 31
0.0
 11
117.0954662310311
 21
268.4580986729731
 31
0.0
 11
134.6542954206225
 21
260.779556673337
 31
0.0
 11
142.4842089212559
 21
252.0040791502323
 31
0.0
 11
148.1710221080179
 21
263.2624697632256
 31
0.0
  0
SPLINE
  5
40B4
330
2
100
AcDbEntity
  8
KIJUN
100
AcDbSpline
210
0.0
220
0.0
230
1.0
 70
     8
 71
     3
 72
    12
 73
     8
 74
     6
 42
0.0000000001
 43
0.0000000001
 44
0.0000000001
 40
0.0
 40
0.0
 40
0.0
 40
0.0
 40
10.2612080764101
 40
20.15278871528694
 40
31.19853305988665
 40
48.32556305052154
 40
63.19159313835171
 40
63.19159313835171
 40
63.19159313835171
 40
63.19159313835171
 10
114.0501429874434
 20
303.0701620705678
 30
0.0
 10
114.4644116814962
 20
299.0833421255752
 30
0.0
 10
115.2780263553665
 20
291.2533147643683
 30
0.0
 10
102.7268588342439
 20
289.6125266986005
 30
0.0
 10
91.16701889017855
 20
286.8031724781421
 30
0.0
 10
77.4825370245498
 20
279.4502413204652
 30
0.0
 10
73.05900389079991
 20
269.5113220657031
 30
0.0
 10
71.00354634783409
 20
264.8930619705626
 30
0.0
 11
114.0501429874434
 21
303.0701620705678
 31
0.0
 11
112.9801168833143
 21
292.8648969919984
 31
0.0
 11
103.6519889565757
 21
289.5740920877535
 31
0.0
 11
92.9520796255468
 21
286.8317557783239
 31
0.0
 11
78.41117568720559
 21
277.7820447908923
 31
0.0
 11
71.00354634783409
 21
264.8930619705626
 31
0.0
  0
ARC
  5
40B5
330
2
100
AcDbEntity
  8
KIJUN
100
AcDbCircle
 10
115.9870536134949
 20
264.1276760363633
 30
0.0
 40
56.06433408267998
100
AcDbArc
 50
111.8216082458007
 51
173.3172612089781
  0
ARC
  5
40B6
330
2
100
AcDbEntity
  8
KIJUN
100
AcDbCircle
 10
123.7624874101523
 20
267.0515760706637
 30
0.0
 40
24.7008885003345
100
AcDbArc
 50
351.1760101680711
 51
86.1436063401164
  0
ARC
  5
40B7
330
2
100
AcDbEntity
  8
KIJUN
100
AcDbCircle
 10
111.349181580784
 20
288.9955742903831
 30
0.0
 40
14.33140655003501
100
AcDbArc
 50
10.8631878726766
 51
79.13681212732484
  0
ARC
  5
40B8
330
2
100
AcDbEntity
  8
KIJUN
100
AcDbCircle
 10
93.30087620604777
 20
310.9113129039066
 30
0.0
 40
16.77045056863189
100
AcDbArc
 50
117.2732420326997
 51
170.4049998990862
  0
ARC
  5
40B9
330
2
100
AcDbEntity
  8
KIJUN
100
AcDbCircle
 10
49.95496383337584
 20
386.3117612890537
 30
0.0
 40
47.66843066982821
100
AcDbArc
 50
278.8464079860308
 51
301.5932649424571
  0
SPLINE
  5
40BA
330
2
100
AcDbEntity
  8
KIJUN
100
AcDbSpline
210
0.0
220
0.0
230
1.0
 70
     8
 71
     3
 72
     9
 73
     5
 74
     3
 42
0.0000000001
 43
0.0000000001
 44
0.0000000001
 40
0.0
 40
0.0
 40
0.0
 40
0.0
 40
15.60640494656531
 40
34.80274799623066
 40
34.80274799623066
 40
34.80274799623066
 40
34.80274799623066
 10
74.24245068010589
 20
250.7406751729837
 30
0.0
 10
70.57599436663057
 20
246.5591870798158
 30
0.0
 10
62.39968755196257
 20
237.2343440519671
 30
0.0
 10
66.50254069390179
 20
225.301640241793
 30
0.0
 10
68.76557395793004
 20
218.7198531979951
 30
0.0
 11
74.24245068010589
 21
250.7406751729837
 31
0.0
 11
65.71223089996213
 21
237.671810422799
 31
0.0
 11
68.76557395793004
 21
218.7198531979951
 31
0.0
  0
ARC
  5
40BB
330
2
100
AcDbEntity
  8
KIJUN
100
AcDbCircle
 10
66.52685069363755
 20
329.6186095432864
 30
0.0
 40
18.15089423223195
100
AcDbArc
 50
24.56639578937496
 51
62.42959987072823
  0
ARC
  5
40BC
330
2
100
AcDbEntity
  8
KIJUN
100
AcDbCircle
 10
35.89629213536318
 20
320.4742533527043
 30
0.0
 40
50.00606349997259
100
AcDbArc
 50
6.133779118889013
 51
19.49778438872378
  0
ARC
  5
40BD
330
2
100
AcDbEntity
  8
KIJUN
100
AcDbCircle
 10
74.43824102184061
 20
233.413073861314
 30
0.0
 40
93.07795789550649
100
AcDbArc
 50
69.2860229935131
 51
83.10263871055505
  0
ARC
  5
40BE
330
2
100
AcDbEntity
  8
KIJUN
100
AcDbCircle
 10
82.89092192486597
 20
307.5789684998627
 30
0.0
 40
31.48374807171802
100
AcDbArc
 50
351.7663273421659
 51
10.47084682294297
  0
ARC
  5
40BF
330
2
100
AcDbEntity
  8
KIJUN
100
AcDbCircle
 10
103.5497980824942
 20
310.5041263736888
 30
0.0
 40
10.67346292306123
100
AcDbArc
 50
15.18932554115535
 51
69.08408893275002
  0
ARC
  5
40C0
330
2
100
AcDbEntity
  8
KIJUN
100
AcDbCircle
 10
120.2417986881213
 20
197.6069604001804
 30
0.0
 40
71.34905346645694
100
AcDbArc
 50
16.82113923323867
 51
66.95556450445462
  0
ARC
  5
40C1
330
2
100
AcDbEntity
  8
KIJUN
100
AcDbCircle
 10
203.1602892585659
 20
214.334330180706
 30
0.0
 40
12.24549894743762
100
AcDbArc
 50
208.6071445681096
 51
259.1009498925797
  0
ARC
  5
40C2
330
2
100
AcDbEntity
  8
KIJUN
100
AcDbCircle
 10
230.6973009619889
 20
229.2810806085336
 30
0.0
 40
43.57745162639869
100
AcDbArc
 50
194.6573919508252
 51
208.5247617854257
  0
ARC
  5
40C3
330
2
100
AcDbEntity
  8
KIJUN
100
AcDbCircle
 10
194.0924837140523
 20
154.1615201180597
 30
0.0
 40
48.61938199835563
100
AcDbArc
 50
71.97166592924283
 51
82.01674741460285
  0
ARC
  5
40C4
330
2
100
AcDbEntity
  8
KIJUN
100
AcDbCircle
 10
186.4387254369598
 20
195.9305931878771
 30
0.0
 40
25.434139277037
100
AcDbArc
 50
344.967684727592
 51
1.312591561164308
  0
ARC
  5
40C5
330
2
100
AcDbEntity
  8
KIJUN
100
AcDbCircle
 10
207.5418470590413
 20
196.3730571092897
 30
0.0
 40
4.326614446885696
100
AcDbArc
 50
1.856372100633573
 51
68.32900022371504
  0
ARC
  5
40C6
330
2
100
AcDbEntity
  8
KIJUN
100
AcDbCircle
 10
203.1980301913288
 20
155.7007805066152
 30
0.0
 40
34.5267486976438
100
AcDbArc
 50
65.73381475884978
 51
76.93588312397579
  0
ARC
  5
40C7
330
2
100
AcDbEntity
  8
KIJUN
100
AcDbCircle
 10
211.7182138860012
 20
175.5580161701155
 30
0.0
 40
12.92837389799607
100
AcDbArc
 50
14.06131961433786
 51
63.98979790627543
  0
ARC
  5
40C8
330
2
100
AcDbEntity
  8
KIJUN
100
AcDbCircle
 10
206.6012662542945
 20
173.4153447171937
 30
0.0
 40
18.43151769709787
100
AcDbArc
 50
327.1351228179079
 51
16.65866117332839
  0
ARC
  5
40C9
330
2
100
AcDbEntity
  8
KIJUN
100
AcDbCircle
 10
216.7879517104966
 20
167.0794850410333
 30
0.0
 40
6.440266573494772
100
AcDbArc
 50
276.8351568332519
 51
325.3014127243339
  0
ARC
  5
40CA
330
2
100
AcDbEntity
  8
KIJUN
100
AcDbCircle
 10
216.2793875993148
 20
171.9600103339683
 30
0.0
 40
11.34688404853001
100
AcDbArc
 50
261.9745801618809
 51
276.4519115715638
  0
ARC
  5
40CB
330
2
100
AcDbEntity
  8
KIJUN
100
AcDbCircle
 10
223.2570740428045
 20
205.0606224164755
 30
0.0
 40
45.15549561659226
100
AcDbArc
 50
246.2060570621528
 51
259.0700795911105
  0
ARC
  5
40CC
330
2
100
AcDbEntity
  8
KIJUN
100
AcDbCircle
 10
245.0362221839359
 20
164.0384327061138
 30
0.0
 40
39.99815751489004
100
AcDbArc
 50
180.4228571610202
 51
226.8174295693448
  0
ARC
  5
40CD
330
2
100
AcDbEntity
  8
KIJUN
100
AcDbCircle
 10
228.3248577806623
 20
145.9668407268402
 30
0.0
 40
15.38582979636102
100
AcDbArc
 50
226.1422347798121
 51
283.3520877241115
  0
ARC
  5
40CE
330
2
100
AcDbEntity
  8
KIJUN
100
AcDbCircle
 10
238.9846561626451
 20
105.3634305036204
 30
0.0
 40
26.60037013983473
100
AcDbArc
 50
98.04373831023918
 51
105.4956231935542
  0
ARC
  5
40CF
330
2
100
AcDbEntity
  8
KIJUN
100
AcDbCircle
 10
236.5284876808199
 20
125.6228968853174
 30
0.0
 40
6.209619947089653
100
AcDbArc
 50
1.969044666851086
 51
101.763732324559
  0
ARC
  5
40D0
330
2
100
AcDbEntity
  8
KIJUN
100
AcDbCircle
 10
231.4824367321037
 20
126.4996725256863
 30
0.0
 40
11.27154480792699
100
AcDbArc
 50
280.1729610467358
 51
356.6257587015082
  0
ARC
  5
40D1
330
2
100
AcDbEntity
  8
KIJUN
100
AcDbCircle
 10
254.5787501963486
 20
129.6329036792593
 30
0.0
 40
25.45323848727259
100
AcDbArc
 50
213.9845421243495
 51
256.4132046728755
  0
ARC
  5
40D2
330
2
100
AcDbEntity
  8
KIJUN
100
AcDbCircle
 10
226.6454527980021
 20
137.0406461909589
 30
0.0
 40
76.59931764826369
100
AcDbArc
 50
304.799433859034
 51
314.6905133459132
  0
ARC
  5
40D3
330
2
100
AcDbEntity
  8
KIJUN
100
AcDbCircle
 10
263.2202779887037
 20
99.16878720839845
 30
0.0
 40
23.96173313111609
100
AcDbArc
 50
316.2037568968419
 51
14.40745899236379
  0
ARC
  5
40D4
330
2
100
AcDbEntity
  8
KIJUN
100
AcDbCircle
 10
266.5964156866816
 20
98.85404738595944
 30
0.0
 40
20.80161442239473
100
AcDbArc
 50
17.56249627526308
 51
87.46160749187652
  0
ARC
  5
40D5
330
2
100
AcDbEntity
  8
KIJUN
100
AcDbCircle
 10
270.0513170082591
 20
95.14800142467635
 30
0.0
 40
24.61797343204971
100
AcDbArc
 50
95.90720313899534
 51
110.3455971582285
  0
ARC
  5
40D6
330
2
100
AcDbEntity
  8
KIJUN
100
AcDbCircle
 10
263.9454466273108
 20
111.5479714336251
 30
0.0
 40
7.118292146702434
100
AcDbArc
 50
110.1607304799517
 51
153.7398567182804
  0
ARC
  5
40D7
330
2
100
AcDbEntity
  8
KIJUN
100
AcDbCircle
 10
295.5756511547838
 20
97.97035501811292
 30
0.0
 40
41.53129139221395
100
AcDbArc
 50
156.249251567964
 51
164.6774144368702
  0
ARC
  5
40D8
330
2
100
AcDbEntity
  8
KIJUN
100
AcDbCircle
 10
250.268340774058
 20
109.9780417506729
 30
0.0
 40
5.35291936309361
100
AcDbArc
 50
251.8325204948842
 51
348.8743285243131
  0
ARC
  5
40D9
330
2
100
AcDbEntity
  8
KIJUN
100
AcDbCircle
 10
275.7614930587479
 20
87.06351420027582
 30
0.0
 40
26.26216465909007
100
AcDbArc
 50
246.9558507624907
 51
253.0791816718547
  0
ARC
  5
40DA
330
2
100
AcDbEntity
  8
KIJUN
100
AcDbCircle
 10
268.2675502454509
 20
69.58986463225878
 30
0.0
 40
7.249636615858083
100
AcDbArc
 50
209.2468283746177
 51
247.3989252802235
  0
ARC
  5
40DB
330
2
100
AcDbEntity
  8
KIJUN
100
AcDbCircle
 10
251.7483518107825
 20
68.47462300055005
 30
0.0
 40
8.288217256935132
100
AcDbArc
 50
24.74977422261235
 51
64.24409930511384
  0
ARC
  5
40DC
330
2
100
AcDbEntity
  8
KIJUN
100
AcDbCircle
 10
341.1709457759137
 20
105.4313615205743
 30
0.0
 40
88.47752199364142
100
AcDbArc
 50
202.239459108527
 51
206.4312759128497
  0
ARC
  5
40DD
330
2
100
AcDbEntity
  8
KIJUN
100
AcDbCircle
 10
245.6964052994127
 20
56.0002363101659
 30
0.0
 40
22.15313848461065
100
AcDbArc
 50
64.16622030596946
 51
76.94030734035303
  0
ARC
  5
40DE
330
2
100
AcDbEntity
  8
KIJUN
100
AcDbCircle
 10
250.5258081361853
 20
104.6583828076205
 30
0.0
 40
25.71162741394547
100
AcDbArc
 50
207.8220426550181
 51
234.5718235562822
  0
ARC
  5
40DF
330
2
100
AcDbEntity
  8
KIJUN
100
AcDbCircle
 10
251.1813381238253
 20
102.7835374309998
 30
0.0
 40
24.6173475862324
100
AcDbArc
 50
230.7963612780807
 51
255.7253636354202
  0
ARC
  5
40E0
330
2
100
AcDbEntity
  8
KIJUN
100
AcDbCircle
 10
296.4668476993552
 20
279.9754695338005
 30
0.0
 40
207.5046177038836
100
AcDbArc
 50
255.6709409687136
 51
257.2588189293169
  0
ARC
  5
40E1
330
2
100
AcDbEntity
  8
KIJUN
100
AcDbCircle
 10
366.8024740457177
 20
199.2655565310369
 30
0.0
 40
191.425429444576
100
AcDbArc
 50
203.1737916581602
 51
211.9408372154359
  0
ARC
  5
40E2
330
2
100
AcDbEntity
  8
KIJUN
100
AcDbCircle
 10
206.5306930871248
 20
121.4391447589867
 30
0.0
 40
35.77925917288842
100
AcDbArc
 50
296.8004455315468
 51
306.4470180968104
  0
ARC
  5
40E3
330
2
100
AcDbEntity
  8
KIJUN
100
AcDbCircle
 10
217.8659661418851
 20
98.84853350433459
 30
0.0
 40
10.50460111860403
100
AcDbArc
 50
238.6886601351121
 51
297.1718447261081
  0
ARC
  5
40E4
330
2
100
AcDbEntity
  8
KIJUN
100
AcDbCircle
 10
227.4107730647481
 20
112.7914252846167
 30
0.0
 40
27.39219473942281
100
AcDbArc
 50
212.6996061528741
 51
236.7875857939071
  0
ARC
  5
40E5
330
2
100
AcDbEntity
  8
KIJUN
100
AcDbCircle
 10
221.8624802816862
 20
105.8729486455694
 30
0.0
 40
35.91324758107905
100
AcDbArc
 50
149.8045812047482
 51
158.8606596173628
  0
ARC
  5
40E6
330
2
100
AcDbEntity
  8
KIJUN
100
AcDbCircle
 10
200.7999147566022
 20
114.4341243317429
 30
0.0
 40
13.18632658782955
100
AcDbArc
 50
160.5516412810298
 51
187.3225510801258
  0
ARC
  5
40E7
330
2
100
AcDbEntity
  8
KIJUN
100
AcDbCircle
 10
164.5397275184374
 20
109.4567019854938
 30
0.0
 40
23.41465558418978
100
AcDbArc
 50
0.9375884843419642
 51
8.094081117043339
  0
ARC
  5
40E8
330
2
100
AcDbEntity
  8
KIJUN
100
AcDbCircle
 10
185.0121259214212
 20
109.7600325883872
 30
0.0
 40
2.940205646359834
100
AcDbArc
 50
316.904210932969
 51
1.555445643831719
  0
ARC
  5
40E9
330
2
100
AcDbEntity
  8
KIJUN
100
AcDbCircle
 10
185.0217061090989
 20
110.3650864861406
 30
0.0
 40
3.37649643268247
100
AcDbArc
 50
283.6520984706636
 51
309.2733938795301
  0
ARC
  5
40EA
330
2
100
AcDbEntity
  8
KIJUN
100
AcDbCircle
 10
183.207092456313
 20
118.8418915138804
 30
0.0
 40
12.04443997551994
100
AcDbArc
 50
242.1842836993134
 51
282.5227070847089
  0
ARC
  5
40EB
330
2
100
AcDbEntity
  8
KIJUN
100
AcDbCircle
 10
186.1437165708234
 20
124.8831566562956
 30
0.0
 40
18.75928025859103
100
AcDbArc
 50
217.5952371281787
 51
242.86150618466
  0
ARC
  5
40EC
330
2
100
AcDbEntity
  8
KIJUN
100
AcDbCircle
 10
227.461212161172
 20
154.8409563717415
 30
0.0
 40
69.78892019849301
100
AcDbArc
 50
201.1834532518372
 51
216.3881536452162
  0
ARC
  5
40ED
330
2
100
AcDbEntity
  8
KIJUN
100
AcDbCircle
 10
189.2991124793139
 20
160.8576218878666
 30
0.0
 40
41.2291960105674
100
AcDbArc
 50
175.9866071001898
 51
229.2531227958916
  0
ARC
  5
40EE
330
2
100
AcDbEntity
  8
KIJUN
100
AcDbCircle
 10
202.7589322502524
 20
91.4658048714504
 30
0.0
 40
103.1045207284982
100
AcDbArc
 50
125.7746139321461
 51
133.5196762394527
  0
ARC
  5
40EF
330
2
100
AcDbEntity
  8
KIJUN
100
AcDbCircle
 10
144.0964916983807
 20
154.2355295346401
 30
0.0
 40
17.20628667425213
100
AcDbArc
 50
135.8016156459444
 51
153.8818224852067
  0
ARC
  5
40F0
330
2
100
AcDbEntity
  8
KIJUN
100
AcDbCircle
 10
134.1385805474256
 20
159.0337615257569
 30
0.0
 40
6.1533634715141
100
AcDbArc
 50
153.179386014623
 51
217.8675902590132
  0
ARC
  5
40F1
330
2
100
AcDbEntity
  8
KIJUN
100
AcDbCircle
 10
162.4170962477437
 20
181.4849237354547
 30
0.0
 40
42.26028405865239
100
AcDbArc
 50
218.3627343754617
 51
222.3841099303329
  0
ARC
  5
40F2
330
2
100
AcDbEntity
  8
KIJUN
100
AcDbCircle
 10
127.2188688745688
 20
149.6045715363698
 30
0.0
 40
5.232142074766744
100
AcDbArc
 50
24.92743035665976
 51
40.4250585855703
  0
ARC
  5
40F3
330
2
100
AcDbEntity
  8
KIJUN
100
AcDbCircle
 10
130.2865572094981
 20
151.1428057417001
 30
0.0
 40
1.804797287350765
100
AcDbArc
 50
334.5779538651749
 51
21.68766034859813
  0
ARC
  5
40F4
330
2
100
AcDbEntity
  8
KIJUN
100
AcDbCircle
 10
123.9260589310403
 20
156.7106520283352
 30
0.0
 40
10.2018354395059
100
AcDbArc
 50
224.2099456208012
 51
321.5586592985179
  0
ARC
  5
40F5
330
2
100
AcDbEntity
  8
KIJUN
100
AcDbCircle
 10
-4.434609305616817
 20
162.2085387071036
 30
0.0
 40
117.1268545688902
100
AcDbArc
 50
359.9765636867447
 51
9.134969364989341
  0
ARC
  5
40F6
330
2
100
AcDbEntity
  8
KIJUN
100
AcDbCircle
 10
148.3528939561267
 20
161.3805613010297
 30
0.0
 40
35.66918936166896
100
AcDbArc
 50
178.7468693959474
 51
188.1418185861815
  0
ARC
  5
40F7
330
2
100
AcDbEntity
  8
KIJUN
100
AcDbCircle
 10
124.0551309732847
 20
157.8563733525257
 30
0.0
 40
11.11732711033575
100
AcDbArc
 50
187.8968868600018
 51
227.9812896089994
  0
ARC
  5
40F8
330
2
100
AcDbEntity
  8
KIJUN
100
AcDbCircle
 10
119.5477178931479
 20
197.5814099804235
 30
0.0
 40
18.73670846616084
100
AcDbArc
 50
196.5509606555303
 51
243.5659173862588
  0
ENDSEC
  0
SECTION
  2
OBJECTS
  0
DICTIONARY
  5
1A
330
0
100
AcDbDictionary
281
     1
  3
ACAD_COLOR
350
144
  3
ACAD_GROUP
350
18
  3
ACAD_LAYOUT
350
58
  3
ACAD_MATERIAL
350
143
  3
ACAD_MLINESTYLE
350
19
  3
ACAD_PLOTSETTINGS
350
59
  3
ACAD_PLOTSTYLENAME
350
56
  3
ACAD_TABLESTYLE
350
145
  3
ACDBHEADERROUNDTRIPXREC
350
4148
  3
AcDbVariableDictionary
350
1D1
  0
DICTIONARY
  5
1B4
330
A
100
AcDbDictionary
280
     1
281
     1
  3
ACAD_LAYERFILTERS
360
1A2A
  3
ACLYDICTIONARY
360
1A29
  0
DICTIONARY
  5
D13
330
2
100
AcDbDictionary
280
     1
281
     1
  3
ACAD_SORTENTS
360
D14
  0
DICTIONARY
  5
144
102
{ACAD_REACTORS
330
1A
102
}
330
1A
100
AcDbDictionary
281
     1
  0
DICTIONARY
  5
18
102
{ACAD_REACTORS
330
1A
102
}
330
1A
100
AcDbDictionary
281
     1
  3
*A1
350
E0D
  3
*A10
350
1A98
  3
*A11
350
1CBC
  3
*A12
350
307D
  3
*A13
350
3695
  3
*A14
350
36C9
  3
*A15
350
382B
  3
*A16
350
2573
  3
*A17
350
3878
  3
*A18
350
3988
  3
*A19
350
3A25
  3
*A2
350
34BB
  3
*A20
350
3C81
  3
*A21
350
213E
  3
*A22
350
3E5C
  3
*A23
350
3181
  3
*A24
350
2B84
  3
*A25
350
2C6B
  3
*A26
350
2D78
  3
*A27
350
22C8
  3
*A28
350
1EFE
  3
*A29
350
241A
  3
*A3
350
35A5
  3
*A31
350
265A
  3
*A32
350
26DD
  3
*A33
350
275E
  3
*A34
350
2905
  3
*A35
350
2EE1
  3
*A36
350
2F81
  3
*A37
350
31DF
  3
*A38
350
32E4
  3
*A39
350
3349
  3
*A4
350
24D6
  3
*A40
350
2037
  3
*A41
350
3467
  3
*A5
350
FF8
  3
*A6
350
136A
  3
*A7
350
1555
  3
*A8
350
2A17
  3
*A9
350
17BC
  0
DICTIONARY
  5
58
102
{ACAD_REACTORS
330
1A
102
}
330
1A
100
AcDbDictionary
281
     1
  3
Model
350
5A
  3
ﾚｲｱｳﾄ1
350
5B
  0
DICTIONARY
  5
143
102
{ACAD_REACTORS
330
1A
102
}
330
1A
100
AcDbDictionary
281
     1
  0
DICTIONARY
  5
19
102
{ACAD_REACTORS
330
1A
102
}
330
1A
100
AcDbDictionary
281
     1
  3
STANDARD
350
1D
  0
DICTIONARY
  5
59
102
{ACAD_REACTORS
330
1A
102
}
330
1A
100
AcDbDictionary
281
     1
  0
ACDBDICTIONARYWDFLT
  5
56
102
{ACAD_REACTORS
330
1A
102
}
330
1A
100
AcDbDictionary
281
     1
  3
Normal
350
57
100
AcDbDictionaryWithDefault
340
57
  0
DICTIONARY
  5
145
102
{ACAD_REACTORS
330
1A
102
}
330
1A
100
AcDbDictionary
281
     1
  3
Standard
350
146
  0
DICTIONARY
  5
4148
102
{ACAD_REACTORS
330
1A
102
}
330
1A
100
AcDbDictionary
281
     1
  0
DICTIONARY
  5
1D1
102
{ACAD_REACTORS
330
1A
102
}
330
1A
100
AcDbDictionary
281
     1
  3
CTABLESTYLE
350
1D2
  3
DIMASSOC
350
D03
  3
PROJECTNAME
350
D04
  0
DICTIONARY
  5
1A2A
102
{ACAD_REACTORS
330
1B4
102
}
330
1B4
100
AcDbDictionary
281
     1
  0
DICTIONARY
  5
1A29
102
{ACAD_REACTORS
330
1B4
102
}
330
1B4
100
AcDbDictionary
281
     1
1001
ACAD
1000
<All
  0
SORTENTSTABLE
  5
D14
102
{ACAD_REACTORS
330
D13
102
}
330
D13
100
AcDbSortentsTable
330
2
331
23
  5
23
331
3F0B
  5
3F0B
331
3ED6
  5
3ED6
331
3EF4
  5
3EF4
331
3ECF
  5
3ECF
331
3ED0
  5
3ED0
331
3EF5
  5
3EF5
331
3EC9
  5
3EC9
331
3EF8
  5
3EF8
331
3F06
  5
3F06
331
3ECA
  5
3ECA
331
3ED1
  5
3ED1
331
3EE9
  5
3EE9
331
3F07
  5
3F07
331
3ED2
  5
3ED2
331
3ECB
  5
3ECB
331
3EF7
  5
3EF7
331
20
  5
20
331
3EDC
  5
3EDC
331
3F08
  5
3F08
331
3ECC
  5
3ECC
331
3ED3
  5
3ED3
331
21
  5
21
331
3F09
  5
3F09
331
3EDD
  5
3EDD
331
3EF2
  5
3EF2
331
1F
  5
1F
331
3ECD
  5
3ECD
331
3F03
  5
3F03
331
3ED5
  5
3ED5
331
3EF3
  5
3EF3
  0
GROUP
  5
E0D
102
{ACAD_REACTORS
330
18
102
}
330
18
100
AcDbGroup
300

 70
     1
 71
     1
  0
GROUP
  5
1A98
102
{ACAD_REACTORS
330
18
102
}
330
18
100
AcDbGroup
300

 70
     1
 71
     1
  0
GROUP
  5
1CBC
102
{ACAD_REACTORS
330
18
102
}
330
18
100
AcDbGroup
300

 70
     1
 71
     1
  0
GROUP
  5
307D
102
{ACAD_REACTORS
330
18
102
}
330
18
100
AcDbGroup
300

 70
     1
 71
     1
  0
GROUP
  5
3695
102
{ACAD_REACTORS
330
18
102
}
330
18
100
AcDbGroup
300

 70
     1
 71
     1
  0
GROUP
  5
36C9
102
{ACAD_REACTORS
330
18
102
}
330
18
100
AcDbGroup
300

 70
     1
 71
     1
  0
GROUP
  5
382B
102
{ACAD_REACTORS
330
18
102
}
330
18
100
AcDbGroup
300

 70
     1
 71
     1
  0
GROUP
  5
2573
102
{ACAD_REACTORS
330
18
102
}
330
18
100
AcDbGroup
300

 70
     1
 71
     1
  0
GROUP
  5
3878
102
{ACAD_REACTORS
330
18
102
}
330
18
100
AcDbGroup
300

 70
     1
 71
     1
  0
GROUP
  5
3988
102
{ACAD_REACTORS
330
18
102
}
330
18
100
AcDbGroup
300

 70
     1
 71
     1
  0
GROUP
  5
3A25
102
{ACAD_REACTORS
330
18
102
}
330
18
100
AcDbGroup
300

 70
     1
 71
     1
  0
GROUP
  5
34BB
102
{ACAD_REACTORS
330
18
102
}
330
18
100
AcDbGroup
300

 70
     1
 71
     1
  0
GROUP
  5
3C81
102
{ACAD_REACTORS
330
18
102
}
330
18
100
AcDbGroup
300

 70
     1
 71
     1
  0
GROUP
  5
213E
102
{ACAD_REACTORS
330
18
102
}
330
18
100
AcDbGroup
300

 70
     1
 71
     1
  0
GROUP
  5
3E5C
102
{ACAD_REACTORS
330
18
102
}
330
18
100
AcDbGroup
300

 70
     1
 71
     1
  0
GROUP
  5
3181
102
{ACAD_REACTORS
330
18
102
}
330
18
100
AcDbGroup
300

 70
     1
 71
     1
  0
GROUP
  5
2B84
102
{ACAD_REACTORS
330
18
102
}
330
18
100
AcDbGroup
300

 70
     1
 71
     1
  0
GROUP
  5
2C6B
102
{ACAD_REACTORS
330
18
102
}
330
18
100
AcDbGroup
300

 70
     1
 71
     1
  0
GROUP
  5
2D78
102
{ACAD_REACTORS
330
18
102
}
330
18
100
AcDbGroup
300

 70
     1
 71
     1
  0
GROUP
  5
22C8
102
{ACAD_REACTORS
330
18
102
}
330
18
100
AcDbGroup
300

 70
     1
 71
     1
  0
GROUP
  5
1EFE
102
{ACAD_REACTORS
330
18
102
}
330
18
100
AcDbGroup
300

 70
     1
 71
     1
  0
GROUP
  5
241A
102
{ACAD_REACTORS
330
18
102
}
330
18
100
AcDbGroup
300

 70
     1
 71
     1
  0
GROUP
  5
35A5
102
{ACAD_REACTORS
330
18
102
}
330
18
100
AcDbGroup
300

 70
     1
 71
     1
  0
GROUP
  5
265A
102
{ACAD_REACTORS
330
18
102
}
330
18
100
AcDbGroup
300

 70
     1
 71
     1
  0
GROUP
  5
26DD
102
{ACAD_REACTORS
330
18
102
}
330
18
100
AcDbGroup
300

 70
     1
 71
     1
  0
GROUP
  5
275E
102
{ACAD_REACTORS
330
18
102
}
330
18
100
AcDbGroup
300

 70
     1
 71
     1
  0
GROUP
  5
2905
102
{ACAD_REACTORS
330
18
102
}
330
18
100
AcDbGroup
300

 70
     1
 71
     1
  0
GROUP
  5
2EE1
102
{ACAD_REACTORS
330
18
102
}
330
18
100
AcDbGroup
300

 70
     1
 71
     1
  0
GROUP
  5
2F81
102
{ACAD_REACTORS
330
18
102
}
330
18
100
AcDbGroup
300

 70
     1
 71
     1
  0
GROUP
  5
31DF
102
{ACAD_REACTORS
330
18
102
}
330
18
100
AcDbGroup
300

 70
     1
 71
     1
  0
GROUP
  5
32E4
102
{ACAD_REACTORS
330
18
102
}
330
18
100
AcDbGroup
300

 70
     1
 71
     1
  0
GROUP
  5
3349
102
{ACAD_REACTORS
330
18
102
}
330
18
100
AcDbGroup
300

 70
     1
 71
     1
  0
GROUP
  5
24D6
102
{ACAD_REACTORS
330
18
102
}
330
18
100
AcDbGroup
300

 70
     1
 71
     1
  0
GROUP
  5
2037
102
{ACAD_REACTORS
330
18
102
}
330
18
100
AcDbGroup
300

 70
     1
 71
     1
  0
GROUP
  5
3467
102
{ACAD_REACTORS
330
18
102
}
330
18
100
AcDbGroup
300

 70
     1
 71
     1
  0
GROUP
  5
FF8
102
{ACAD_REACTORS
330
18
102
}
330
18
100
AcDbGroup
300

 70
     1
 71
     1
  0
GROUP
  5
136A
102
{ACAD_REACTORS
330
18
102
}
330
18
100
AcDbGroup
300

 70
     1
 71
     1
  0
GROUP
  5
1555
102
{ACAD_REACTORS
330
18
102
}
330
18
100
AcDbGroup
300

 70
     1
 71
     1
  0
GROUP
  5
2A17
102
{ACAD_REACTORS
330
18
102
}
330
18
100
AcDbGroup
300

 70
     1
 71
     1
  0
GROUP
  5
17BC
102
{ACAD_REACTORS
330
18
102
}
330
18
100
AcDbGroup
300

 70
     1
 71
     1
  0
LAYOUT
  5
5A
102
{ACAD_XDICTIONARY
360
4149
102
}
102
{ACAD_REACTORS
330
58
102
}
330
58
100
AcDbPlotSettings
  1

  2
なし
  4

  6

 40
0.0
 41
0.0
 42
0.0
 43
0.0
 44
0.0
 45
0.0
 46
0.0
 47
0.0
 48
0.0
 49
0.0
140
0.0
141
0.0
142
1.0
143
1.0
 70
  1712
 72
     0
 73
     0
 74
     0
  7
monochrome.ctb
 75
     0
147
1.0
148
0.0
149
0.0
100
AcDbLayout
  1
Model
 70
     1
 71
     0
 10
0.0
 20
0.0
 11
12.0
 21
9.0
 12
0.0
 22
0.0
 32
0.0
 14
0.0
 24
0.0
 34
0.0
 15
0.0
 25
0.0
 35
0.0
146
0.0
 13
0.0
 23
0.0
 33
0.0
 16
1.0
 26
0.0
 36
0.0
 17
0.0
 27
1.0
 37
0.0
 76
     0
330
2
  0
LAYOUT
  5
5B
102
{ACAD_XDICTIONARY
360
414B
102
}
102
{ACAD_REACTORS
330
58
102
}
330
58
100
AcDbPlotSettings
  1

  2
なし
  4

  6

 40
0.0
 41
0.0
 42
0.0
 43
0.0
 44
0.0
 45
0.0
 46
0.0
 47
0.0
 48
0.0
 49
0.0
140
0.0
141
0.0
142
1.0
143
1.0
 70
   688
 72
     0
 73
     0
 74
     5
  7
monochrome.ctb
 75
    16
147
1.0
148
0.0
149
0.0
100
AcDbLayout
  1
ﾚｲｱｳﾄ1
 70
     1
 71
     1
 10
0.0
 20
0.0
 11
12.0
 21
9.0
 12
0.0
 22
0.0
 32
0.0
 14
1.000000000000000E+20
 24
1.000000000000000E+20
 34
1.000000000000000E+20
 15
-1.000000000000000E+20
 25
-1.000000000000000E+20
 35
-1.000000000000000E+20
146
0.0
 13
0.0
 23
0.0
 33
0.0
 16
1.0
 26
0.0
 36
0.0
 17
0.0
 27
1.0
 37
0.0
 76
     0
330
7
  0
MLINESTYLE
  5
1D
102
{ACAD_REACTORS
330
19
102
}
330
19
100
AcDbMlineStyle
  2
STANDARD
 70
     0
  3

 62
   256
 51
90.0
 52
90.0
 71
     2
 49
0.5
 62
   256
  6
BYLAYER
 49
-0.5
 62
   256
  6
BYLAYER
  0
ACDBPLACEHOLDER
  5
57
102
{ACAD_REACTORS
330
56
102
}
330
56
  0
TABLESTYLE
  5
146
102
{ACAD_REACTORS
330
145
102
}
330
145
100
AcDbTableStyle
  3
Standard
 70
     0
 71
     0
 40
0.06
 41
0.06
280
     0
281
     0
  7
STANDARD
140
0.18
170
     2
 62
     0
 63
     7
283
     0
274
    -2
284
     1
 64
     0
275
    -2
285
     1
 65
     0
276
    -2
286
     1
 66
     0
277
    -2
287
     1
 67
     0
278
    -2
288
     1
 68
     0
279
    -2
289
     1
 69
     0
  7
STANDARD
140
0.25
170
     5
 62
     0
 63
     7
283
     0
274
    -2
284
     1
 64
     0
275
    -2
285
     1
 65
     0
276
    -2
286
     1
 66
     0
277
    -2
287
     1
 67
     0
278
    -2
288
     1
 68
     0
279
    -2
289
     1
 69
     0
  7
STANDARD
140
0.18
170
     5
 62
     0
 63
     7
283
     0
274
    -2
284
     1
 64
     0
275
    -2
285
     1
 65
     0
276
    -2
286
     1
 66
     0
277
    -2
287
     1
 67
     0
278
    -2
288
     1
 68
     0
279
    -2
289
     1
 69
     0
  0
DICTIONARYVAR
  5
1D2
102
{ACAD_REACTORS
330
1D1
102
}
330
1D1
100
DictionaryVariables
280
     0
  1
STANDARD
  0
DICTIONARYVAR
  5
D03
102
{ACAD_REACTORS
330
1D1
102
}
330
1D1
100
DictionaryVariables
280
     0
  1
1
  0
DICTIONARYVAR
  5
D04
102
{ACAD_REACTORS
330
1D1
102
}
330
1D1
100
DictionaryVariables
280
     0
  1

  0
DICTIONARY
  5
4149
330
5A
100
AcDbDictionary
280
     1
281
     1
  3
ACAD_XREC_ROUNDTRIP
360
414A
  0
DICTIONARY
  5
414B
330
5B
100
AcDbDictionary
280
     1
281
     1
  3
ACAD_XREC_ROUNDTRIP
360
414C
  0
XRECORD
  5
414A
102
{ACAD_REACTORS
330
4149
102
}
330
4149
100
AcDbXrecord
280
     1
102
SHADEPLOT
 70
     0
102
SHADEPLOTRESLEVEL
 70
     2
102
SHADEPLOTCUSTOMDPI
 70
   300
  0
XRECORD
  5
414C
102
{ACAD_REACTORS
330
414B
102
}
330
414B
100
AcDbXrecord
280
     1
102
SHADEPLOT
 70
     0
102
SHADEPLOTRESLEVEL
 70
     2
102
SHADEPLOTCUSTOMDPI
 70
   300
  0
ENDSEC
  0
EOF
