  0
SECTION
  2
HEADER
  9
$ACADVER
  1
AC1015
  9
$ACADMAINTVER
 70
    20
  9
$DWGCODEPAGE
  3
ANSI_932
  9
$INSBASE
 10
0.0
 20
0.0
 30
0.0
  9
$EXTMIN
 10
28.16767651833476
 20
7.844186297160828
 30
0.0
  9
$EXTMAX
 10
112.5597971124346
 20
76.83935234387341
 30
0.0
  9
$LIMMIN
 10
0.0
 20
0.0
  9
$LIMMAX
 10
12.0
 20
9.0
  9
$ORTHOMODE
 70
     1
  9
$REGENMODE
 70
     1
  9
$FILLMODE
 70
     1
  9
$QTEXTMODE
 70
     0
  9
$MIRRTEXT
 70
     1
  9
$LTSCALE
 40
1.0
  9
$ATTMODE
 70
     1
  9
$TEXTSIZE
 40
0.7453317137339326
  9
$TRACEWID
 40
0.05
  9
$TEXTSTYLE
  7
ADESK1
  9
$CLAYER
  8
0
  9
$CELTYPE
  6
BYLAYER
  9
$CECOLOR
 62
   256
  9
$CELTSCALE
 40
1.0
  9
$DISPSILH
 70
     0
  9
$DIMSCALE
 40
1.0
  9
$DIMASZ
 40
3.0
  9
$DIMEXO
 40
2.0
  9
$DIMDLI
 40
1.0
  9
$DIMRND
 40
0.0
  9
$DIMDLE
 40
0.0
  9
$DIMEXE
 40
0.0
  9
$DIMTP
 40
0.0
  9
$DIMTM
 40
0.0
  9
$DIMTXT
 40
2.799999999999998
  9
$DIMCEN
 40
2.0
  9
$DIMTSZ
 40
0.0
  9
$DIMTOL
 70
     0
  9
$DIMLIM
 70
     0
  9
$DIMTIH
 70
     0
  9
$DIMTOH
 70
     0
  9
$DIMSE1
 70
     0
  9
$DIMSE2
 70
     0
  9
$DIMTAD
 70
     1
  9
$DIMZIN
 70
     8
  9
$DIMBLK
  1

  9
$DIMASO
 70
     1
  9
$DIMSHO
 70
     1
  9
$DIMPOST
  1

  9
$DIMAPOST
  1

  9
$DIMALT
 70
     0
  9
$DIMALTD
 70
     3
  9
$DIMALTF
 40
0.03937007874016
  9
$DIMLFAC
 40
1.0
  9
$DIMTOFL
 70
     1
  9
$DIMTVP
 40
0.0
  9
$DIMTIX
 70
     0
  9
$DIMSOXD
 70
     1
  9
$DIMSAH
 70
     0
  9
$DIMBLK1
  1

  9
$DIMBLK2
  1

  9
$DIMSTYLE
  2
mihasi
  9
$DIMCLRD
 70
     2
  9
$DIMCLRE
 70
     2
  9
$DIMCLRT
 70
     2
  9
$DIMTFAC
 40
1.0
  9
$DIMGAP
 40
1.0
  9
$DIMJUST
 70
     0
  9
$DIMSD1
 70
     0
  9
$DIMSD2
 70
     0
  9
$DIMTOLJ
 70
     0
  9
$DIMTZIN
 70
     8
  9
$DIMALTZ
 70
     0
  9
$DIMALTTZ
 70
     0
  9
$DIMUPT
 70
     1
  9
$DIMDEC
 70
     3
  9
$DIMTDEC
 70
     3
  9
$DIMALTU
 70
     2
  9
$DIMALTTD
 70
     3
  9
$DIMTXSTY
  7
STANDARD
  9
$DIMAUNIT
 70
     0
  9
$DIMADEC
 70
     1
  9
$DIMALTRND
 40
0.0
  9
$DIMAZIN
 70
     2
  9
$DIMDSEP
 70
    46
  9
$DIMATFIT
 70
     0
  9
$DIMFRAC
 70
     0
  9
$DIMLDRBLK
  1

  9
$DIMLUNIT
 70
     2
  9
$DIMLWD
 70
    -2
  9
$DIMLWE
 70
    -2
  9
$DIMTMOVE
 70
     1
  9
$LUNITS
 70
     2
  9
$LUPREC
 70
     4
  9
$SKETCHINC
 40
0.1
  9
$FILLETRAD
 40
1.0
  9
$AUNITS
 70
     0
  9
$AUPREC
 70
     0
  9
$MENU
  1
.
  9
$ELEVATION
 40
0.0
  9
$PELEVATION
 40
0.0
  9
$THICKNESS
 40
0.0
  9
$LIMCHECK
 70
     0
  9
$CHAMFERA
 40
0.0
  9
$CHAMFERB
 40
0.0
  9
$CHAMFERC
 40
1.0
  9
$CHAMFERD
 40
0.0
  9
$SKPOLY
 70
     0
  9
$TDCREATE
 40
2454726.434688218
  9
$TDUCREATE
 40
2454726.059688218
  9
$TDUPDATE
 40
2454818.657669688
  9
$TDUUPDATE
 40
2454818.282669688
  9
$TDINDWG
 40
1.5006844097
  9
$TDUSRTIMER
 40
1.5004587153
  9
$USRTIMER
 70
     1
  9
$ANGBASE
 50
0.0
  9
$ANGDIR
 70
     0
  9
$PDMODE
 70
     0
  9
$PDSIZE
 40
0.0
  9
$PLINEWID
 40
0.0
  9
$SPLFRAME
 70
     0
  9
$SPLINETYPE
 70
     6
  9
$SPLINESEGS
 70
     8
  9
$HANDSEED
  5
258
  9
$SURFTAB1
 70
     6
  9
$SURFTAB2
 70
     6
  9
$SURFTYPE
 70
     6
  9
$SURFU
 70
     6
  9
$SURFV
 70
     6
  9
$UCSBASE
  2

  9
$UCSNAME
  2

  9
$UCSORG
 10
0.0
 20
0.0
 30
0.0
  9
$UCSXDIR
 10
1.0
 20
0.0
 30
0.0
  9
$UCSYDIR
 10
0.0
 20
1.0
 30
0.0
  9
$UCSORTHOREF
  2

  9
$UCSORTHOVIEW
 70
     0
  9
$UCSORGTOP
 10
0.0
 20
0.0
 30
0.0
  9
$UCSORGBOTTOM
 10
0.0
 20
0.0
 30
0.0
  9
$UCSORGLEFT
 10
0.0
 20
0.0
 30
0.0
  9
$UCSORGRIGHT
 10
0.0
 20
0.0
 30
0.0
  9
$UCSORGFRONT
 10
0.0
 20
0.0
 30
0.0
  9
$UCSORGBACK
 10
0.0
 20
0.0
 30
0.0
  9
$PUCSBASE
  2

  9
$PUCSNAME
  2

  9
$PUCSORG
 10
0.0
 20
0.0
 30
0.0
  9
$PUCSXDIR
 10
1.0
 20
0.0
 30
0.0
  9
$PUCSYDIR
 10
0.0
 20
1.0
 30
0.0
  9
$PUCSORTHOREF
  2

  9
$PUCSORTHOVIEW
 70
     0
  9
$PUCSORGTOP
 10
0.0
 20
0.0
 30
0.0
  9
$PUCSORGBOTTOM
 10
0.0
 20
0.0
 30
0.0
  9
$PUCSORGLEFT
 10
0.0
 20
0.0
 30
0.0
  9
$PUCSORGRIGHT
 10
0.0
 20
0.0
 30
0.0
  9
$PUCSORGFRONT
 10
0.0
 20
0.0
 30
0.0
  9
$PUCSORGBACK
 10
0.0
 20
0.0
 30
0.0
  9
$USERI1
 70
     0
  9
$USERI2
 70
     0
  9
$USERI3
 70
     0
  9
$USERI4
 70
     0
  9
$USERI5
 70
     0
  9
$USERR1
 40
0.0
  9
$USERR2
 40
0.0
  9
$USERR3
 40
0.0
  9
$USERR4
 40
0.0
  9
$USERR5
 40
0.0
  9
$WORLDVIEW
 70
     1
  9
$SHADEDGE
 70
     3
  9
$SHADEDIF
 70
    70
  9
$TILEMODE
 70
     1
  9
$MAXACTVP
 70
    48
  9
$PINSBASE
 10
0.0
 20
0.0
 30
0.0
  9
$PLIMCHECK
 70
     0
  9
$PEXTMIN
 10
28.48525948668254
 20
33.54685095069295
 30
0.0
  9
$PEXTMAX
 10
84.48525948668253
 20
51.40130877333174
 30
0.0
  9
$PLIMMIN
 10
-5.873748779296875
 20
-5.873749732971191
  9
$PLIMMAX
 10
291.1369018554688
 20
204.0995779037475
  9
$UNITMODE
 70
     0
  9
$VISRETAIN
 70
     1
  9
$PLINEGEN
 70
     0
  9
$PSLTSCALE
 70
     1
  9
$TREEDEPTH
 70
  3020
  9
$CMLSTYLE
  2
STANDARD
  9
$CMLJUST
 70
     0
  9
$CMLSCALE
 40
1.0
  9
$PROXYGRAPHICS
 70
     1
  9
$MEASUREMENT
 70
     1
  9
$CELWEIGHT
370
    -1
  9
$ENDCAPS
280
     0
  9
$JOINSTYLE
280
     0
  9
$LWDISPLAY
290
     0
  9
$INSUNITS
 70
     0
  9
$HYPERLINKBASE
  1

  9
$STYLESHEET
  1

  9
$XEDIT
290
     1
  9
$CEPSNTYPE
380
     0
  9
$PSTYLEMODE
290
     1
  9
$FINGERPRINTGUID
  2
{B6067C8A-3A2E-4076-A4F2-86BC7040321D}
  9
$VERSIONGUID
  2
{3F4BE2DE-6CA8-4772-826C-CC57136D91E5}
  9
$EXTNAMES
290
     1
  9
$PSVPSCALE
 40
0.0
  9
$OLESTARTUP
290
     0
  0
ENDSEC
  0
SECTION
  2
CLASSES
  0
CLASS
  1
ACMESTATEMGR
  2
AcMeStateMgr
  3
AcMeServices
 90
    32768
280
     1
281
     0
  0
CLASS
  1
ACMESCOPE
  2
AcMeScope
  3
AcMeServices
 90
    32768
280
     1
281
     0
  0
CLASS
  1
ACMECOMMANDHISTORY
  2
AcMeCommandHistory
  3
AcMeServices
 90
    32768
280
     1
281
     0
  0
CLASS
  1
AcRfInsAdjusterMgr
  2
AcRfInsAdjusterMgr
  3
AcMeServices
 90
    32768
280
     1
281
     0
  0
CLASS
  1
ACMEDRAWINGMAN
  2
AcMeDrawingMan
  3
AcMeServices
 90
    32768
280
     1
281
     0
  0
CLASS
  1
AMATTR
  2
AcMeAttribute
  3
AcMeServices
 90
    32768
280
     1
281
     0
  0
CLASS
  1
ACMEBOMCOLUMN
  2
AcMeBOMColumn
  3
AcMeServices
 90
    32768
280
     1
281
     0
  0
CLASS
  1
ACANBOMCONF
  2
AcMeBOMConf
  3
AcMeServices
 90
    32768
280
     1
281
     0
  0
CLASS
  1
ACMEBOMTABLE
  2
AcMeBOMTable
  3
AcMeServices
 90
    32768
280
     1
281
     0
  0
CLASS
  1
ACMEBOMENTRY
  2
AcMeBOMEntry
  3
AcMeServices
 90
    32768
280
     1
281
     0
  0
CLASS
  1
ACMEVIEW
  2
AcMeView
  3
AcMeServices
 90
    32768
280
     1
281
     0
  0
CLASS
  1
ACGREFMASTER
  2
AcGrefMaster
  3
AcAttribServices
 90
    32768
280
     1
281
     0
  0
CLASS
  1
AmiMaster
  2
AmiMaster
  3
AmiServices
 90
    32768
280
     1
281
     0
  0
CLASS
  1
ACASGREFMASTER
  2
AcAsGrefMaster
  3
AutoSurfResolverServices
 90
    32768
280
     1
281
     0
  0
CLASS
  1
ADAPPL
  2
AcAdAppl
  3
DesignerServices
 90
    32768
280
     1
281
     0
  0
CLASS
  1
DEPMGR
  2
AcAdDepMgr
  3
DesignerServices
 90
    32768
280
     1
281
     0
  0
CLASS
  1
PARAMMGR
  2
AcAdParamMgr
  3
DesignerServices
 90
    32768
280
     1
281
     0
  0
CLASS
  1
PARAMSCOPE
  2
AcAdParamScope
  3
DesignerServices
 90
    32768
280
     1
281
     0
  0
CLASS
  1
ACIMSYSVARMAN
  2
AcImSysVarManager
  3
AcMeServices
 90
    32768
280
     1
281
     0
  0
CLASS
  1
ACIMINTSYSVAR
  2
AcImIntSysVar
  3
AcMeServices
 90
    32768
280
     1
281
     0
  0
CLASS
  1
ACIMREALSYSVAR
  2
AcImRealSysVar
  3
AcMeServices
 90
    32768
280
     1
281
     0
  0
CLASS
  1
ACIMSTRSYSVAR
  2
AcImStrSysVar
  3
AcMeServices
 90
    32768
280
     1
281
     0
  0
CLASS
  1
NAMEDAPPL
  2
AcAdNamedAppl
  3
DesignerServices
 90
    32768
280
     1
281
     0
  0
CLASS
  1
ADHNTMPLT
  2
AdHoleNoteTemplateMgr
  3
DesignerServices
 90
    32768
280
     1
281
     0
  0
CLASS
  1
AM_HNTEMPLATE_MGR_NAME
  2
AdHoleNoteTemplateMgrName
  3
DesignerServices
 90
    32768
280
     1
281
     0
  0
CLASS
  1
AcAdGrefModule
  2
AcAdGrefModule
  3
AdGrefServices
 90
    32768
280
     1
281
     0
  0
CLASS
  1
AM_DRAWING_MGR
  2
AcDmDwgMgr
  3
AcMechDwgViewMgmt
 90
    32768
280
     1
281
     0
  0
CLASS
  1
AM_DWG_DOCUMENT
  2
AcDmDwgDocument
  3
AcMechDwgViewMgmt
 90
    32768
280
     1
281
     0
  0
CLASS
  1
AM_DWG_SHEET
  2
AcDmSheet
  3
AcMechDwgViewMgmt
 90
    32768
280
     1
281
     0
  0
CLASS
  1
AM_VIEWDIMPARMAP
  2
AcDmViewDimParMap
  3
AcMechDwgViewMgmt
 90
    32768
280
     1
281
     0
  0
CLASS
  1
AM_DWGMGR_NAME
  2
AcDmDwgMgrName
  3
AcMechDwgViewMgmt
 90
    32768
280
     1
281
     0
  0
CLASS
  1
ACAMPROJECT
  2
AcAmProject
  3
DesignerAssemblies
 90
    32768
280
     1
281
     0
  0
CLASS
  1
ACAMGRCOMPSET
  2
AcAmGrCompSet
  3
DesignerAssemblies
 90
    32768
280
     1
281
     0
  0
CLASS
  1
ACAMGRCOMPDEFSET
  2
AcAmGrCompDefSet
  3
DesignerAssemblies
 90
    32768
280
     1
281
     0
  0
CLASS
  1
ACAMGRCOMPDEF
  2
AcAmGrCompDef
  3
DesignerAssemblies
 90
    32768
280
     1
281
     0
  0
CLASS
  1
ACCMCONTEXT
  2
AcCmContext
  3
DesignerAssemblies
 90
    32768
280
     1
281
     0
  0
CLASS
  1
ACAMCOMPDEF
  2
AcAmCompDef
  3
DesignerAssemblies
 90
    32768
280
     1
281
     0
  0
CLASS
  1
ACAMCOMPDEFMGR
  2
AcAmCompDefMgr
  3
DesignerAssemblies
 90
    32768
280
     1
281
     0
  0
CLASS
  1
AMCONTEXTMGR
  2
AcAmContextMgr
  3
DesignerAssemblies
 90
    32768
280
     1
281
     0
  0
CLASS
  1
ACAMCONTEXTMODELER
  2
AcAmContextModeler
  3
DesignerAssemblies
 90
    32768
280
     1
281
     0
  0
CLASS
  1
ACDMVIEWGEOM
  2
AcDmViewGeometry
  3
AcMechDwgViewMgmt
 90
    32768
280
     1
281
     1
  0
CLASS
  1
CBrowserAppObject
  2
CBrowserAppObject
  3
McadcomServices
 90
    32768
280
     1
281
     0
  0
CLASS
  1
IM_STATIC_MAN
  2
AcImStaticVarManager
  3
AcMeServices
 90
    32768
280
     1
281
     0
  0
CLASS
  1
ASAPP
  2
AcAsAppObject
  3
AutoSurfServices
 90
    32768
280
     1
281
     0
  0
CLASS
  1
ACIMDBLSTATICVAR
  2
AcImDblStaticVar
  3
AcMeServices
 90
    32768
280
     1
281
     0
  0
CLASS
  1
ACIMSTRSTATICVAR
  2
AcImStrStaticVar
  3
AcMeServices
 90
    32768
280
     1
281
     0
  0
CLASS
  1
ACIMINTSTATICVAR
  2
AcImIntStaticVar
  3
AcMeServices
 90
    32768
280
     1
281
     0
  0
CLASS
  1
CATALOGSTATE
  2
AcAmCatalogState
  3
DesignerAssemblies
 90
    32768
280
     1
281
     0
  0
CLASS
  1
DM_PLACEHOLDER
  2
AcDmSelsetPlaceholder
  3
AcMechDwgViewMgmt
 90
    32768
280
     1
281
     0
  0
CLASS
  1
DICTIONARYVAR
  2
AcDbDictionaryVar
  3
ObjectDBX Classes
 90
        0
280
     0
281
     0
  0
CLASS
  1
ACMSTANDARDJIS
  2
AcmStandardJIS
  3
"AcmSymBB|Product Description: AutoCAD Mechanical 2000|Company: Autodesk"
 90
    32768
280
     1
281
     0
  0
CLASS
  1
ACMSTANDARDANSI
  2
AcmStandardANSI
  3
"AcmSymBB|Product Description: AutoCAD Mechanical 2000|Company: Autodesk"
 90
    32768
280
     1
281
     0
  0
CLASS
  1
ACMSTANDARDBSI
  2
AcmStandardBSI
  3
"AcmSymBB|Product Description: AutoCAD Mechanical 2000|Company: Autodesk"
 90
    32768
280
     1
281
     0
  0
CLASS
  1
ACMSTANDARDDIN
  2
AcmStandardDIN
  3
"AcmSymBB|Product Description: AutoCAD Mechanical 2000|Company: Autodesk"
 90
    32768
280
     1
281
     0
  0
CLASS
  1
ACMSTANDARDISO
  2
AcmStandardISO
  3
"AcmSymBB|Product Description: AutoCAD Mechanical 2000|Company: Autodesk"
 90
    32768
280
     1
281
     0
  0
CLASS
  1
LAYER_INDEX
  2
AcDbLayerIndex
  3
ObjectDBX Classes
 90
    32768
280
     0
281
     0
  0
CLASS
  1
IDBUFFER
  2
AcDbIdBuffer
  3
ObjectDBX Classes
 90
    32768
280
     0
281
     0
  0
CLASS
  1
ACDBDICTIONARYWDFLT
  2
AcDbDictionaryWithDefault
  3
ObjectDBX Classes
 90
        0
280
     0
281
     0
  0
CLASS
  1
ACDBPLACEHOLDER
  2
AcDbPlaceHolder
  3
ObjectDBX Classes
 90
        0
280
     0
281
     0
  0
CLASS
  1
LAYOUT
  2
AcDbLayout
  3
ObjectDBX Classes
 90
        0
280
     0
281
     0
  0
CLASS
  1
ACME_DOCUMENT
  2
AcMeDbDoc
  3
AcMeServices
 90
    32768
280
     1
281
     0
  0
CLASS
  1
AMGSETTINGSOBJ
  2
AmgSettingsObj
  3
"AcadM|Product Description: AutoCAD Mechanical 2000|Company: Autodesk"
 90
    32768
280
     1
281
     0
  0
CLASS
  1
AMGOBJPROPCFG
  2
AmgObjPropCfg
  3
"AmgLay|Product Description: AutoCAD Mechanical 2000|Company: Autodesk"
 90
    32769
280
     1
281
     0
  0
CLASS
  1
ACDBENTITYCACHE
  2
AcMeEntityCache
  3
AcMeServices
 90
    32768
280
     1
281
     0
  0
CLASS
  1
GSMANAGER
  2
AcMeGSManager
  3
AcMeServices
 90
    32768
280
     1
281
     0
  0
CLASS
  1
AmdtInternalReactor
  2
AmdtInternalReactor
  3
AcMeServices
 90
    32768
280
     1
281
     0
  0
CLASS
  1
ACME_DATABASE
  2
AcMeDbDatabase
  3
AcMeServices
 90
    32768
280
     1
281
     0
  0
CLASS
  1
ACGREFMASTER
  2
AcGrefacadMaster
  3
AcGrefServices
 90
    32768
280
     1
281
     0
  0
CLASS
  1
AMDTMENUSTATEMGR
  2
AmdtMenuStateMgr
  3
McadcomServices
 90
    32768
280
     1
281
     0
  0
CLASS
  1
AMDTMCOMMENUSTATE
  2
AmdtMcomMenuState
  3
McadcomServices
 90
    32768
280
     1
281
     0
  0
CLASS
  1
MAPIADMODULE
  2
MApiAdModule
  3
MApiAdServices
 90
    32768
280
     1
281
     0
  0
CLASS
  1
AMDTDMMENUSTATE
  2
AmdtDmMenuState
  3
AcMechDwgViewMgmt
 90
    32768
280
     1
281
     0
  0
CLASS
  1
AMDTADMENUSTATE
  2
AmdtAdMenuState
  3
DesignerServices
 90
    32768
280
     1
281
     0
  0
CLASS
  1
AMDTAMMENUSTATE
  2
AmdtAmMenuState
  3
DesignerAssemblies
 90
    32768
280
     1
281
     0
  0
CLASS
  1
ACMDATADICTIONARY
  2
AcmDataDictionary
  3
"AcmSymBB|Product Description: AutoCAD Mechanical 2000|Company: Autodesk"
 90
    32768
280
     1
281
     0
  0
CLASS
  1
ACMDATAENTRYBLOCK
  2
AcmDataEntryBlock
  3
"AcmSymBB|Product Description: AutoCAD Mechanical 2000|Company: Autodesk"
 90
    32768
280
     1
281
     0
  0
CLASS
  1
AMDTBROWSERDBTAB
  2
AmdtBrowserDbTab
  3
McadcomServices
 90
    32768
280
     1
281
     0
  0
CLASS
  1
ACAMGFILTERDAT
  2
AcAmgFilterDat
  3
"AcadM|Product Description: AutoCAD Mechanical 2000|Company: Autodesk"
 90
    32768
280
     1
281
     0
  0
CLASS
  1
MAPIAMMOUDLE
  2
MApiAmModule
  3
MApiAmServices
 90
    32768
280
     1
281
     0
  0
CLASS
  1
ACRFATTGENMGR
  2
AcRfAttGeneralMgr
  3
AcAttribServices
 90
    32768
280
     1
281
     0
  0
CLASS
  1
MATERIAL
  2
AcDbMaterial
  3
ObjectDBX Classes
 90
     1153
280
     0
281
     0
  0
CLASS
  1
VISUALSTYLE
  2
AcDbVisualStyle
  3
ObjectDBX Classes
 90
     4095
280
     0
281
     0
  0
CLASS
  1
TABLESTYLE
  2
AcDbTableStyle
  3
ObjectDBX Classes
 90
     4095
280
     0
281
     0
  0
CLASS
  1
SCALE
  2
AcDbScale
  3
ObjectDBX Classes
 90
     1153
280
     0
281
     0
  0
CLASS
  1
MLEADERSTYLE
  2
AcDbMLeaderStyle
  3
ACDB_MLEADERSTYLE_CLASS
 90
     4095
280
     0
281
     0
  0
CLASS
  1
CELLSTYLEMAP
  2
AcDbCellStyleMap
  3
ObjectDBX Classes
 90
     1152
280
     0
281
     0
  0
CLASS
  1
SORTENTSTABLE
  2
AcDbSortentsTable
  3
ObjectDBX Classes
 90
        0
280
     0
281
     0
  0
ENDSEC
  0
SECTION
  2
TABLES
  0
TABLE
  2
VPORT
  5
23
330
0
100
AcDbSymbolTable
 70
     1
  0
VPORT
  5
24
330
23
100
AcDbSymbolTableRecord
100
AcDbViewportTableRecord
  2
*Active
 70
     0
 10
0.0
 20
0.0
 11
1.0
 21
1.0
 12
72.8112653320564
 22
38.42729909157697
 13
0.0
 23
0.0
 14
0.5
 24
0.5
 15
0.5
 25
0.5
 16
0.0
 26
0.0
 36
1.0
 17
0.0
 27
0.0
 37
0.0
 40
85.30343317376749
 41
1.713804713804713
 42
50.0
 43
0.0
 44
0.0
 50
0.0
 51
0.0
 71
     0
 72
   100
 73
     1
 74
     1
 75
     0
 76
     0
 77
     0
 78
     0
281
     0
 65
     0
110
0.0
120
0.0
130
0.0
111
1.0
121
0.0
131
0.0
112
0.0
122
1.0
132
0.0
 79
     0
146
0.0
  0
ENDTAB
  0
TABLE
  2
LTYPE
  5
1E
330
0
100
AcDbSymbolTable
 70
     1
  0
LTYPE
  5
1F
330
1E
100
AcDbSymbolTableRecord
100
AcDbLinetypeTableRecord
  2
BYBLOCK
 70
     0
  3

 72
    65
 73
     0
 40
0.0
  0
LTYPE
  5
20
330
1E
100
AcDbSymbolTableRecord
100
AcDbLinetypeTableRecord
  2
BYLAYER
 70
     0
  3

 72
    65
 73
     0
 40
0.0
  0
LTYPE
  5
12
330
1E
100
AcDbSymbolTableRecord
100
AcDbLinetypeTableRecord
  2
CONTINUOUS
 70
     0
  3
Solid line
 72
    65
 73
     0
 40
0.0
  0
ENDTAB
  0
TABLE
  2
LAYER
  5
1A
330
0
100
AcDbSymbolTable
 70
     4
  0
LAYER
  5
5
102
{ACAD_XDICTIONARY
360
F0
102
}
330
1A
100
AcDbSymbolTableRecord
100
AcDbLayerTableRecord
  2
0
 70
     0
 62
     7
  6
CONTINUOUS
370
    -3
390
6
  0
LAYER
  5
A7
330
1A
100
AcDbSymbolTableRecord
100
AcDbLayerTableRecord
  2
Defpoints
 70
     0
 62
     7
  6
CONTINUOUS
290
     0
370
    -3
390
6
  0
LAYER
  5
C8
102
{ACAD_XDICTIONARY
360
C9
102
}
330
1A
100
AcDbSymbolTableRecord
100
AcDbLayerTableRecord
  2
HOJO
 70
     0
 62
     3
  6
CONTINUOUS
370
    35
390
6
  0
LAYER
  5
CA
102
{ACAD_XDICTIONARY
360
CB
102
}
330
1A
100
AcDbSymbolTableRecord
100
AcDbLayerTableRecord
  2
WAKU
 70
     0
 62
     1
  6
CONTINUOUS
370
    35
390
6
  0
ENDTAB
  0
TABLE
  2
STYLE
  5
1B
330
0
100
AcDbSymbolTable
 70
     3
  0
STYLE
  5
1C
330
1B
100
AcDbSymbolTableRecord
100
AcDbTextStyleTableRecord
  2
STANDARD
 70
     0
 40
0.0
 41
1.0
 50
0.0
 71
     0
 42
0.2
  3
txt
  4

  0
STYLE
  5
43
330
1B
100
AcDbSymbolTableRecord
100
AcDbTextStyleTableRecord
  2
ADESK1
 70
     0
 40
0.0
 41
1.0
 50
0.0
 71
     0
 42
0.7453317137339326
  3
romans.shx
  4
bigfont.shx
  0
STYLE
  5
CC
330
1B
100
AcDbSymbolTableRecord
100
AcDbTextStyleTableRecord
  2
SUNPOU
 70
     0
 40
0.0
 41
1.0
 50
0.0
 71
     0
 42
30.0
  3
txt
  4
bigfont
  0
ENDTAB
  0
TABLE
  2
VIEW
  5
21
330
0
100
AcDbSymbolTable
 70
     0
  0
ENDTAB
  0
TABLE
  2
UCS
  5
22
330
0
100
AcDbSymbolTable
 70
     0
  0
ENDTAB
  0
TABLE
  2
APPID
  5
27
330
0
100
AcDbSymbolTable
 70
     3
  0
APPID
  5
28
330
27
100
AcDbSymbolTableRecord
100
AcDbRegAppTableRecord
  2
ACAD
 70
     0
  0
APPID
  5
9F
330
27
100
AcDbSymbolTableRecord
100
AcDbRegAppTableRecord
  2
ACAD_MLEADERVER
 70
     0
  0
APPID
  5
11C
330
27
100
AcDbSymbolTableRecord
100
AcDbRegAppTableRecord
  2
ACAD_PSEXT
 70
     0
  0
ENDTAB
  0
TABLE
  2
DIMSTYLE
  5
29
330
0
100
AcDbSymbolTable
 70
     2
100
AcDbDimStyleTable
 71
     2
340
2A
340
2B
  0
DIMSTYLE
105
2B
330
29
100
AcDbSymbolTableRecord
100
AcDbDimStyleTableRecord
  2
STANDARD
 70
     0
340
1C
  0
DIMSTYLE
105
2A
102
{ACAD_REACTORS
330
1F6
330
20C
330
11E
330
123
330
1C0
330
1C1
102
}
330
29
100
AcDbSymbolTableRecord
100
AcDbDimStyleTableRecord
  2
mihasi
 70
     0
 41
3.0
 42
2.0
 43
1.0
 44
0.0
 73
     0
 74
     0
 77
     1
 78
     8
 79
     2
140
2.799999999999998
141
2.0
143
0.03937007874016
147
1.0
171
     3
172
     1
175
     1
176
     2
177
     2
178
     2
179
     1
271
     3
272
     3
274
     3
279
     1
283
     0
284
     8
288
     1
289
     0
340
1C
  0
ENDTAB
  0
TABLE
  2
BLOCK_RECORD
  5
1
330
0
100
AcDbSymbolTable
 70
    12
  0
BLOCK_RECORD
  5
2
102
{ACAD_XDICTIONARY
360
3
102
}
330
1
100
AcDbSymbolTableRecord
100
AcDbBlockTableRecord
  2
*MODEL_SPACE
340
14
  0
BLOCK_RECORD
  5
16
330
1
100
AcDbSymbolTableRecord
100
AcDbBlockTableRecord
  2
*PAPER_SPACE
340
19
  0
BLOCK_RECORD
  5
C2
102
{ACAD_XDICTIONARY
360
C3
102
}
330
1
100
AcDbSymbolTableRecord
100
AcDbBlockTableRecord
  2
new block
340
0
102
{BLKREFS
331
D2
102
}
  0
BLOCK_RECORD
  5
CD
102
{ACAD_XDICTIONARY
360
D3
102
}
330
1
100
AcDbSymbolTableRecord
100
AcDbBlockTableRecord
  2
11new block
340
0
  0
BLOCK_RECORD
  5
FB
330
1
100
AcDbSymbolTableRecord
100
AcDbBlockTableRecord
  2
*D2
340
0
  0
BLOCK_RECORD
  5
107
102
{ACAD_XDICTIONARY
360
108
102
}
330
1
100
AcDbSymbolTableRecord
100
AcDbBlockTableRecord
  2
-new block
340
0
  0
BLOCK_RECORD
  5
110
330
1
100
AcDbSymbolTableRecord
100
AcDbBlockTableRecord
  2
*D4
340
0
  0
BLOCK_RECORD
  5
11D
102
{ACAD_XDICTIONARY
360
126
102
}
330
1
100
AcDbSymbolTableRecord
100
AcDbBlockTableRecord
  2
○F2L4-C
340
0
  0
BLOCK_RECORD
  5
17D
330
1
100
AcDbSymbolTableRecord
100
AcDbBlockTableRecord
  2
*D6
340
0
  0
BLOCK_RECORD
  5
189
330
1
100
AcDbSymbolTableRecord
100
AcDbBlockTableRecord
  2
*D7
340
0
  0
BLOCK_RECORD
  5
195
102
{ACAD_XDICTIONARY
360
196
102
}
330
1
100
AcDbSymbolTableRecord
100
AcDbBlockTableRecord
  2
11-6
340
0
  0
BLOCK_RECORD
  5
19F
102
{ACAD_XDICTIONARY
360
1CA
102
}
330
1
100
AcDbSymbolTableRecord
100
AcDbBlockTableRecord
  2
×F2L4-R2
340
0
  0
BLOCK_RECORD
  5
1F7
330
1
100
AcDbSymbolTableRecord
100
AcDbBlockTableRecord
  2
*D10
340
0
  0
BLOCK_RECORD
  5
20D
330
1
100
AcDbSymbolTableRecord
100
AcDbBlockTableRecord
  2
*D11
340
0
  0
ENDTAB
  0
ENDSEC
  0
SECTION
  2
BLOCKS
  0
BLOCK
  5
4
330
2
100
AcDbEntity
  8
0
100
AcDbBlockBegin
  2
*MODEL_SPACE
 70
     0
 10
0.0
 20
0.0
 30
0.0
  3
*MODEL_SPACE
  1

  0
ENDBLK
  5
13
330
2
100
AcDbEntity
  8
0
100
AcDbBlockEnd
  0
BLOCK
  5
17
330
16
100
AcDbEntity
 67
     1
  8
0
100
AcDbBlockBegin
  2
*PAPER_SPACE
 70
     0
 10
0.0
 20
0.0
 30
0.0
  3
*PAPER_SPACE
  1

  0
ENDBLK
  5
18
330
16
100
AcDbEntity
 67
     1
  8
0
100
AcDbBlockEnd
  0
BLOCK
  5
C5
330
C2
100
AcDbEntity
  8
0
100
AcDbBlockBegin
  2
new block
 70
     0
 10
0.0
 20
0.0
 30
0.0
  3
new block
  1

  0
TEXT
  5
C6
330
C2
100
AcDbEntity
  8
HOJO
100
AcDbText
 10
18.42007334336381
 20
20.28049840363042
 30
0.0
 40
3.0
  1
※ 材質の特性上、寸法誤差がある場合があります。
  7
SUNPOU
100
AcDbText
  0
ENDBLK
  5
C7
330
C2
100
AcDbEntity
  8
0
100
AcDbBlockEnd
  0
BLOCK
  5
D5
330
CD
100
AcDbEntity
  8
0
100
AcDbBlockBegin
  2
11new block
 70
     0
 10
0.0
 20
0.0
 30
0.0
  3
11new block
  1

  0
LINE
  5
CE
330
CD
100
AcDbEntity
  8
WAKU
100
AcDbLine
 10
45.33031623765146
 20
25.78749324054104
 30
0.0
 11
100.3303162376514
 21
25.78749324054104
 31
0.0
  0
LINE
  5
CF
330
CD
100
AcDbEntity
  8
WAKU
100
AcDbLine
 10
45.33031623765146
 20
18.78749324054104
 30
0.0
 11
100.3303162376514
 21
18.78749324054104
 31
0.0
  0
TEXT
  5
D0
330
CD
100
AcDbEntity
  8
HOJO
100
AcDbText
 10
50.1572992376432
 20
19.97080624053512
 30
0.0
 40
4.5
  1
F2A51A
  7
SUNPOU
100
AcDbText
  0
TEXT
  5
D1
330
CD
100
AcDbEntity
  8
HOJO
100
AcDbText
 10
79.89986279599861
 20
21.08113964589017
 30
0.0
 40
3.0
  1
97×70
  7
SUNPOU
100
AcDbText
  0
INSERT
  5
D2
330
CD
100
AcDbEntity
  8
0
100
AcDbBlockReference
  2
new block
 10
28.5345776621989
 20
-6.280685229275603
 30
0.0
  0
ENDBLK
  5
D6
330
CD
100
AcDbEntity
  8
0
100
AcDbBlockEnd
  0
BLOCK
  5
FC
330
FB
100
AcDbEntity
  8
0
100
AcDbBlockBegin
  2
*D2
 70
     1
 10
0.0
 20
0.0
 30
0.0
  3
*D2
  1

  0
LINE
  5
FD
330
FB
100
AcDbEntity
  8
0
 62
     2
370
    -2
100
AcDbLine
 10
47.96480048299037
 20
27.09492086078038
 30
0.0
 11
59.05362169782801
 21
27.09492086078038
 31
0.0
  0
LINE
  5
FE
330
FB
100
AcDbEntity
  8
0
 62
     2
370
    -2
100
AcDbLine
 10
47.96480048299032
 20
87.09492086078034
 30
0.0
 11
59.05362169782803
 21
87.09492086078034
 31
0.0
  0
LINE
  5
FF
330
FB
100
AcDbEntity
  8
0
 62
     2
370
    -2
100
AcDbLine
 10
59.05362169782801
 20
30.09492086078037
 30
0.0
 11
59.05362169782803
 21
84.09492086078037
 31
0.0
  0
SOLID
  5
100
330
FB
100
AcDbEntity
  8
0
 62
     2
100
AcDbTrace
 10
58.553621697828
 20
30.09492086078037
 30
0.0
 11
59.55362169782801
 21
30.09492086078037
 31
0.0
 12
59.05362169782801
 22
27.09492086078038
 32
0.0
 13
59.05362169782801
 23
27.09492086078038
 33
0.0
  0
SOLID
  5
101
330
FB
100
AcDbEntity
  8
0
 62
     2
100
AcDbTrace
 10
58.55362169782803
 20
84.09492086078037
 30
0.0
 11
59.55362169782802
 21
84.09492086078037
 31
0.0
 12
59.05362169782803
 22
87.09492086078034
 32
0.0
 13
59.05362169782803
 23
87.09492086078034
 33
0.0
  0
MTEXT
  5
102
330
FB
100
AcDbEntity
  8
0
 62
     2
100
AcDbMText
 10
56.65362169782799
 20
57.09492086078038
 30
0.0
 40
2.799999999999998
 41
0.0
 71
     5
 72
     1
  1
60
 11
0.0000000000000001
 21
1.0
 31
0.0
 73
     1
 44
1.0
1001
ACAD
1000
MTEXTBEGIN
1070
    73
1070
     1
1070
    44
1040
1.0
1070
    74
1070
     0
1000
MTEXTEND
  0
POINT
  5
103
330
FB
100
AcDbEntity
  8
Defpoints
 62
     0
100
AcDbPoint
 10
45.96480048299038
 20
27.09492086078038
 30
0.0
  0
POINT
  5
104
330
FB
100
AcDbEntity
  8
Defpoints
 62
     0
100
AcDbPoint
 10
45.96480048299032
 20
87.09492086078034
 30
0.0
  0
POINT
  5
105
330
FB
100
AcDbEntity
  8
Defpoints
 62
     0
100
AcDbPoint
 10
59.05362169782803
 20
87.09492086078034
 30
0.0
  0
ENDBLK
  5
106
330
FB
100
AcDbEntity
  8
0
100
AcDbBlockEnd
  0
BLOCK
  5
10A
330
107
100
AcDbEntity
  8
0
100
AcDbBlockBegin
  2
-new block
 70
     0
 10
0.0
 20
0.0
 30
0.0
  3
-new block
  1

  0
LINE
  5
10B
330
107
100
AcDbEntity
  8
WAKU
100
AcDbLine
 10
20.33829621994005
 20
25.35246593986722
 30
0.0
 11
75.33829621994005
 21
25.35246593986722
 31
0.0
  0
LINE
  5
10C
330
107
100
AcDbEntity
  8
WAKU
100
AcDbLine
 10
20.33829621994005
 20
18.35246593986721
 30
0.0
 11
75.33829621994005
 21
18.35246593986721
 31
0.0
  0
TEXT
  5
10D
330
107
100
AcDbEntity
  8
HOJO
100
AcDbText
 10
25.16527921993179
 20
19.5357789398613
 30
0.0
 40
4.5
  1
SF122
  7
SUNPOU
100
AcDbText
  0
TEXT
  5
10E
330
107
100
AcDbEntity
  8
HOJO
100
AcDbText
 10
51.82115521980517
 20
20.874658939857
 30
0.0
 40
3.0
  1
70×30
  7
SUNPOU
100
AcDbText
  0
ENDBLK
  5
10F
330
107
100
AcDbEntity
  8
0
100
AcDbBlockEnd
  0
BLOCK
  5
111
330
110
100
AcDbEntity
  8
0
100
AcDbBlockBegin
  2
*D4
 70
     1
 10
0.0
 20
0.0
 30
0.0
  3
*D4
  1

  0
LINE
  5
112
330
110
100
AcDbEntity
  8
0
 62
     2
370
    -2
100
AcDbLine
 10
45.96480048299032
 20
93.85625863130192
 30
0.0
 11
45.96480048299032
 21
107.8999856823873
 31
0.0
  0
LINE
  5
113
330
110
100
AcDbEntity
  8
0
 62
     2
370
    -2
100
AcDbLine
 10
25.95261147819489
 20
93.85625863130192
 30
0.0
 11
25.95261147819489
 21
107.8999856823873
 31
0.0
  0
LINE
  5
114
330
110
100
AcDbEntity
  8
0
 62
     2
370
    -2
100
AcDbLine
 10
42.96480048299032
 20
107.8999856823873
 30
0.0
 11
28.95261147819489
 21
107.8999856823873
 31
0.0
  0
SOLID
  5
115
330
110
100
AcDbEntity
  8
0
 62
     2
100
AcDbTrace
 10
42.96480048299032
 20
108.3999856823873
 30
0.0
 11
42.96480048299032
 21
107.3999856823873
 31
0.0
 12
45.96480048299032
 22
107.8999856823873
 32
0.0
 13
45.96480048299032
 23
107.8999856823873
 33
0.0
  0
SOLID
  5
116
330
110
100
AcDbEntity
  8
0
 62
     2
100
AcDbTrace
 10
28.95261147819489
 20
108.3999856823873
 30
0.0
 11
28.95261147819489
 21
107.3999856823873
 31
0.0
 12
25.95261147819489
 22
107.8999856823873
 32
0.0
 13
25.95261147819489
 23
107.8999856823873
 33
0.0
  0
MTEXT
  5
117
330
110
100
AcDbEntity
  8
0
 62
     2
100
AcDbMText
 10
35.9587059805926
 20
110.2999856823873
 30
0.0
 40
2.799999999999998
 41
0.0
 71
     5
 72
     1
  1
20
 73
     1
 44
1.0
1001
ACAD
1000
MTEXTBEGIN
1070
    73
1070
     1
1070
    44
1040
1.0
1070
    74
1070
     0
1000
MTEXTEND
  0
POINT
  5
118
330
110
100
AcDbEntity
  8
Defpoints
 62
     0
100
AcDbPoint
 10
45.96480048299032
 20
91.85625863130191
 30
0.0
  0
POINT
  5
119
330
110
100
AcDbEntity
  8
Defpoints
 62
     0
100
AcDbPoint
 10
25.95261147819489
 20
91.85625863130191
 30
0.0
  0
POINT
  5
11A
330
110
100
AcDbEntity
  8
Defpoints
 62
     0
100
AcDbPoint
 10
25.95261147819489
 20
107.8999856823873
 30
0.0
  0
ENDBLK
  5
11B
330
110
100
AcDbEntity
  8
0
100
AcDbBlockEnd
  0
BLOCK
  5
128
330
11D
100
AcDbEntity
  8
0
100
AcDbBlockBegin
  2
○F2L4-C
 70
     0
 10
0.0
 20
0.0
 30
0.0
  3
○F2L4-C
  1

  0
DIMENSION
  5
11E
330
11D
100
AcDbEntity
  8
0
100
AcDbDimension
  2
*D2
 10
59.05362169782803
 20
87.09492086078034
 30
0.0
 11
56.65362169782799
 21
57.09492086078038
 31
0.0
 70
    33
 71
     5
 42
60.0
  3
mihasi
100
AcDbAlignedDimension
 13
45.96480048299038
 23
27.09492086078038
 33
0.0
 14
45.96480048299032
 24
87.09492086078034
 34
0.0
  0
LINE
  5
11F
330
11D
100
AcDbEntity
  8
WAKU
100
AcDbLine
 10
19.51767882940112
 20
15.53883252966264
 30
0.0
 11
74.51767882940112
 21
15.53883252966264
 31
0.0
  0
LINE
  5
120
330
11D
100
AcDbEntity
  8
WAKU
100
AcDbLine
 10
19.51767882940112
 20
8.538832529662641
 30
0.0
 11
74.51767882940112
 21
8.538832529662641
 31
0.0
  0
TEXT
  5
121
330
11D
100
AcDbEntity
  8
HOJO
100
AcDbText
 10
24.34466182939286
 20
9.722145529656726
 30
0.0
 40
4.5
  1
F2L4-C
  7
SUNPOU
100
AcDbText
  0
TEXT
  5
122
330
11D
100
AcDbEntity
  8
HOJO
100
AcDbText
 10
54.99215359567324
 20
11.06102552965242
 30
0.0
 40
3.0
  1
60×20
  7
SUNPOU
100
AcDbText
  0
DIMENSION
  5
123
330
11D
100
AcDbEntity
  8
0
100
AcDbDimension
  2
*D4
 10
25.95261147819489
 20
107.8999856823873
 30
0.0
 11
35.9587059805926
 21
110.2999856823873
 31
0.0
 70
    32
 71
     5
 42
20.01218900479543
  3
mihasi
100
AcDbAlignedDimension
 13
45.96480048299032
 23
91.85625863130191
 33
0.0
 14
25.95261147819489
 24
91.85625863130191
 34
0.0
100
AcDbRotatedDimension
1001
ACAD
1000
DSTYLE
1002
{
1070
   271
1070
     0
1002
}
  0
TEXT
  5
124
330
11D
100
AcDbEntity
  8
HOJO
100
AcDbText
 10
23.38210356759123
 20
2.787689986412658
 30
0.0
 40
3.0
  1
※ 材質の特性上、寸法誤差がある場合があります。
  7
SUNPOU
100
AcDbText
  0
LWPOLYLINE
  5
125
330
11D
100
AcDbEntity
  8
0
100
AcDbPolyline
 90
       32
 70
     1
 43
0.0
 10
30.95261147819488
 20
45.50263679847353
 10
30.95261147819479
 20
46.80739780094643
 42
-0.5129891760425711
 10
30.95261147819488
 20
66.30098649056431
 10
30.95261147819488
 20
67.60574749303716
 42
-0.3134627834279699
 10
31.60431862321883
 20
68.54313326590371
 10
33.00090433317095
 20
69.0620453704159
 42
0.3134627834279699
 10
33.6526114781949
 20
69.99943114328246
 10
33.6526114781949
 20
70.88997858338223
 42
0.1989123673796555
 10
33.35971825938145
 20
71.59708536456879
 10
31.94550469700836
 20
73.01129892694193
 42
-0.1989123673796554
 10
31.6526114781949
 20
73.71840570812847
 10
31.6526114781949
 20
74.70046001135617
 42
-0.2784594700196187
 10
32.18686504536228
 20
75.58537823373814
 10
34.9183579110275
 20
77.02300605777248
 42
0.2784594700196189
 10
35.45261147819488
 20
77.90792428015446
 10
35.45261147819488
 20
81.21595685163768
 42
-0.3039179107079619
 10
36.07186167294057
 20
82.14063495011242
 10
45.96480048299032
 20
87.09492086078034
 10
45.96480048299038
 20
27.09492086078038
 10
36.07186167294055
 20
32.0492067714483
 42
-0.3039179107079701
 10
35.45261147819485
 20
32.97388486992301
 10
35.45261147819485
 20
35.2004600113562
 42
0.2784594700196187
 10
34.91835791102747
 20
36.08537823373819
 10
32.18686504536226
 20
37.52300605777252
 42
-0.2784594700196187
 10
31.65261147819487
 20
38.40792428015451
 10
31.65261147819487
 20
39.38997858338222
 42
-0.1989123673796555
 10
31.94550469700832
 20
40.09708536456876
 10
33.35971825938145
 20
41.51129892694189
 42
0.1989123673796557
 10
33.6526114781949
 20
42.21840570812843
 10
33.65261147819487
 20
43.10895314822821
 42
0.3134627834279697
 10
33.00090433317092
 20
44.04633892109475
 10
31.60431862321881
 20
44.56525102560697
 42
-0.3134627834279699
  0
ENDBLK
  5
129
330
11D
100
AcDbEntity
  8
0
100
AcDbBlockEnd
  0
BLOCK
  5
17E
330
17D
100
AcDbEntity
  8
0
100
AcDbBlockBegin
  2
*D6
 70
     1
 10
0.0
 20
0.0
 30
0.0
  3
*D6
  1

  0
LINE
  5
17F
330
17D
100
AcDbEntity
  8
0
 62
     2
370
    -2
100
AcDbLine
 10
87.50259641985143
 20
45.38528610738291
 30
0.0
 11
87.46839366636747
 21
35.45255725503287
 31
0.0
  0
LINE
  5
180
330
17D
100
AcDbEntity
  8
0
 62
     2
370
    -2
100
AcDbLine
 10
145.4917155793278
 20
45.18560406865545
 30
0.0
 11
145.4575128258438
 21
35.25287521630539
 31
0.0
  0
LINE
  5
181
330
17D
100
AcDbEntity
  8
0
 62
     2
370
    -2
100
AcDbLine
 10
90.46837588060951
 20
35.44222699698845
 30
0.0
 11
142.4575306116017
 21
35.26320547434981
 31
0.0
  0
MTEXT
  5
182
330
17D
100
AcDbEntity
  8
0
 62
     2
100
AcDbMText
 10
117.4329665372487
 20
37.7493902820226
 30
0.0
 40
2.799999999999998
 41
0.0
 71
     5
 72
     1
  1
57.989
 11
0.9999940714140224
 21
-0.0034434193481403
 31
0.0
 73
     1
 44
1.0
1001
ACAD
1000
MTEXTBEGIN
1070
    73
1070
     1
1070
    44
1040
1.0
1070
    74
1070
     0
1000
MTEXTEND
  0
SOLID
  5
183
330
17D
100
AcDbEntity
  8
0
 62
     2
100
AcDbTrace
 10
90.47009759028359
 20
35.94222403269546
 30
0.0
 11
90.46665417093546
 21
34.94222996128144
 31
0.0
 12
87.46839366636747
 22
35.45255725503287
 32
0.0
 13
87.46839366636747
 23
35.45255725503287
 33
0.0
  0
SOLID
  5
184
330
17D
100
AcDbEntity
  8
0
 62
     2
100
AcDbTrace
 10
142.4592523212758
 20
35.76320251005682
 30
0.0
 11
142.4558089019276
 21
34.7632084386428
 31
0.0
 12
145.4575128258438
 22
35.25287521630539
 32
0.0
 13
145.4575128258438
 23
35.25287521630539
 33
0.0
  0
POINT
  5
185
330
17D
100
AcDbEntity
  8
Defpoints
 62
     0
100
AcDbPoint
 10
87.5094832585477
 20
47.38527425021096
 30
0.0
  0
POINT
  5
186
330
17D
100
AcDbEntity
  8
Defpoints
 62
     0
100
AcDbPoint
 10
145.498602418024
 20
47.18559221148349
 30
0.0
  0
POINT
  5
187
330
17D
100
AcDbEntity
  8
Defpoints
 62
     0
100
AcDbPoint
 10
145.4575128258438
 20
35.25287521630539
 30
0.0
  0
ENDBLK
  5
188
330
17D
100
AcDbEntity
  8
0
100
AcDbBlockEnd
  0
BLOCK
  5
18A
330
189
100
AcDbEntity
  8
0
100
AcDbBlockBegin
  2
*D7
 70
     1
 10
0.0
 20
0.0
 30
0.0
  3
*D7
  1

  0
LINE
  5
18B
330
189
100
AcDbEntity
  8
0
 62
     2
370
    -2
100
AcDbLine
 10
85.50948325854772
 20
47.38527425021096
 30
0.0
 11
80.57576761252862
 21
47.38527425021096
 31
0.0
  0
LINE
  5
18C
330
189
100
AcDbEntity
  8
0
 62
     2
370
    -2
100
AcDbLine
 10
114.667144987974
 20
65.18559221148348
 30
0.0
 11
80.57576761252862
 21
65.1855922114835
 31
0.0
  0
LINE
  5
18D
330
189
100
AcDbEntity
  8
0
 62
     2
370
    -2
100
AcDbLine
 10
80.57576761252862
 20
50.38527425021095
 30
0.0
 11
80.57576761252862
 21
62.18559221148349
 31
0.0
  0
MTEXT
  5
18E
330
189
100
AcDbEntity
  8
0
 62
     2
100
AcDbMText
 10
78.17576761252863
 20
62.14299083150343
 30
0.0
 40
2.799999999999998
 41
0.0
 71
     5
 72
     1
  1
17.8
 11
0.0000000000000001
 21
1.0
 31
0.0
 73
     1
 44
1.0
1001
ACAD
1000
MTEXTBEGIN
1070
    73
1070
     1
1070
    44
1040
1.0
1070
    74
1070
     0
1000
MTEXTEND
  0
SOLID
  5
18F
330
189
100
AcDbEntity
  8
0
 62
     2
100
AcDbTrace
 10
80.07576761252861
 20
50.38527425021095
 30
0.0
 11
81.07576761252863
 21
50.38527425021095
 31
0.0
 12
80.57576761252862
 22
47.38527425021096
 32
0.0
 13
80.57576761252862
 23
47.38527425021096
 33
0.0
  0
SOLID
  5
190
330
189
100
AcDbEntity
  8
0
 62
     2
100
AcDbTrace
 10
80.07576761252861
 20
62.18559221148349
 30
0.0
 11
81.07576761252863
 21
62.18559221148349
 31
0.0
 12
80.57576761252862
 22
65.1855922114835
 32
0.0
 13
80.57576761252862
 23
65.1855922114835
 33
0.0
  0
POINT
  5
191
330
189
100
AcDbEntity
  8
Defpoints
 62
     0
100
AcDbPoint
 10
87.5094832585477
 20
47.38527425021096
 30
0.0
  0
POINT
  5
192
330
189
100
AcDbEntity
  8
Defpoints
 62
     0
100
AcDbPoint
 10
116.667144987974
 20
65.18559221148348
 30
0.0
  0
POINT
  5
193
330
189
100
AcDbEntity
  8
Defpoints
 62
     0
100
AcDbPoint
 10
80.57576761252862
 20
65.1855922114835
 30
0.0
  0
ENDBLK
  5
194
330
189
100
AcDbEntity
  8
0
100
AcDbBlockEnd
  0
BLOCK
  5
198
330
195
100
AcDbEntity
  8
0
100
AcDbBlockBegin
  2
11-6
 70
     0
 10
0.0
 20
0.0
 30
0.0
  3
11-6
  1

  0
LINE
  5
199
330
195
100
AcDbEntity
  8
WAKU
100
AcDbLine
 10
19.8291482901493
 20
17.58034299411599
 30
0.0
 11
74.82914829014929
 21
17.58034299411599
 31
0.0
  0
LINE
  5
19A
330
195
100
AcDbEntity
  8
WAKU
100
AcDbLine
 10
19.8291482901493
 20
10.58034299411599
 30
0.0
 11
74.82914829014929
 21
10.58034299411599
 31
0.0
  0
TEXT
  5
19B
330
195
100
AcDbEntity
  8
HOJO
100
AcDbText
 10
24.65613129014105
 20
11.76365599411008
 30
0.0
 40
4.5
  1
F2A18
  7
SUNPOU
100
AcDbText
  0
TEXT
  5
19C
330
195
100
AcDbEntity
  8
HOJO
100
AcDbText
 10
51.31200729001442
 20
13.10253599410578
 30
0.0
 40
3.0
  1
110×90
  7
SUNPOU
100
AcDbText
  0
TEXT
  5
19D
330
195
100
AcDbEntity
  8
HOJO
100
AcDbText
 10
25.04068656228344
 20
3.434174921998419
 30
0.0
 40
3.0
  1
※ 材質の特性上、寸法誤差がある場合があります。
  7
SUNPOU
100
AcDbText
  0
ENDBLK
  5
19E
330
195
100
AcDbEntity
  8
0
100
AcDbBlockEnd
  0
BLOCK
  5
1CC
330
19F
100
AcDbEntity
  8
0
100
AcDbBlockBegin
  2
×F2L4-R2
 70
     0
 10
0.0
 20
0.0
 30
0.0
  3
×F2L4-R2
  1

  0
ARC
  5
1A0
330
19F
100
AcDbEntity
  8
0
100
AcDbCircle
 10
116.667144987974
 20
53.18559221148348
 30
0.0
 40
12.0
100
AcDbArc
 50
35.68533471265207
 51
144.3146652873478
  0
LINE
  5
1A1
330
19F
100
AcDbEntity
  8
0
100
AcDbLine
 10
126.4139393327829
 20
60.18559221148348
 30
0.0
 11
127.7187003352558
 21
60.18559221148348
 31
0.0
  0
LINE
  5
1A2
330
19F
100
AcDbEntity
  8
0
100
AcDbLine
 10
130.1123839855011
 20
57.48559221148347
 30
0.0
 11
131.0029314256009
 21
57.48559221148347
 31
0.0
  0
LINE
  5
1A3
330
19F
100
AcDbEntity
  8
0
100
AcDbLine
 10
129.1749982126345
 20
58.13729935650741
 30
0.0
 11
128.6560861081223
 21
59.53388506645953
 31
0.0
  0
LINE
  5
1A4
330
19F
100
AcDbEntity
  8
0
100
AcDbLine
 10
133.8313585503471
 20
59.48559221148348
 30
0.0
 11
134.8134128535748
 21
59.48559221148347
 31
0.0
  0
LINE
  5
1A5
330
19F
100
AcDbEntity
  8
0
100
AcDbLine
 10
133.1242517691605
 20
59.19269899267003
 30
0.0
 11
131.7100382067874
 21
57.77848543029691
 31
0.0
  0
LINE
  5
1A6
330
19F
100
AcDbEntity
  8
0
100
AcDbLine
 10
137.1359588999911
 20
56.21984577865085
 30
0.0
 11
135.6983310759568
 21
58.9513386443161
 31
0.0
  0
LINE
  5
1A7
330
19F
100
AcDbEntity
  8
0
100
AcDbLine
 10
138.0208771223731
 20
55.68559221148349
 30
0.0
 11
141.0283445549058
 21
55.68559221148348
 31
0.0
  0
LINE
  5
1A8
330
19F
100
AcDbEntity
  8
0
100
AcDbLine
 10
106.920350643165
 20
60.1855922114835
 30
0.0
 11
105.6155896406921
 21
60.1855922114835
 31
0.0
  0
LINE
  5
1A9
330
19F
100
AcDbEntity
  8
0
100
AcDbLine
 10
104.1592917633134
 20
58.13729935650743
 30
0.0
 11
104.6782038678256
 21
59.53388506645956
 31
0.0
  0
LINE
  5
1AA
330
19F
100
AcDbEntity
  8
0
100
AcDbLine
 10
103.2219059904468
 20
57.48559221148348
 30
0.0
 11
102.3313585503471
 21
57.48559221148347
 31
0.0
  0
LINE
  5
1AB
330
19F
100
AcDbEntity
  8
0
100
AcDbLine
 10
100.2100382067874
 20
59.19269899267003
 30
0.0
 11
101.6242517691605
 21
57.77848543029692
 31
0.0
  0
LINE
  5
1AC
330
19F
100
AcDbEntity
  8
0
100
AcDbLine
 10
99.50293142560084
 20
59.48559221148348
 30
0.0
 11
97.52087712237317
 21
59.4855922114835
 31
0.0
  0
LINE
  5
1AD
330
19F
100
AcDbEntity
  8
0
100
AcDbLine
 10
95.72464686543051
 20
57.21984577865089
 30
0.0
 11
96.63595889999115
 21
58.95133864431612
 31
0.0
  0
ARC
  5
1AE
330
19F
100
AcDbEntity
  8
0
100
AcDbCircle
 10
134.8134128535748
 20
58.48559221148347
 30
0.0
 40
1.0
100
AcDbArc
 50
27.75854060106008
 51
89.99999999999978
  0
ARC
  5
1AF
330
19F
100
AcDbEntity
  8
0
100
AcDbCircle
 10
133.8313585503471
 20
58.48559221148349
 30
0.0
 40
1.0
100
AcDbArc
 50
89.99999999999969
 51
134.9999999999997
  0
ARC
  5
1B0
330
19F
100
AcDbEntity
  8
0
100
AcDbCircle
 10
138.0208771223731
 20
56.68559221148349
 30
0.0
 40
1.0
100
AcDbArc
 50
207.7585406010605
 51
270.0
  0
ARC
  5
1B1
330
19F
100
AcDbEntity
  8
0
100
AcDbCircle
 10
131.0029314256009
 20
58.48559221148347
 30
0.0
 40
1.0
100
AcDbArc
 50
270.0
 51
314.9999999999999
  0
ARC
  5
1B2
330
19F
100
AcDbEntity
  8
0
100
AcDbCircle
 10
130.1123839855011
 20
58.48559221148347
 30
0.0
 40
1.0
100
AcDbArc
 50
200.3829339968528
 51
270.0
  0
ARC
  5
1B3
330
19F
100
AcDbEntity
  8
0
100
AcDbCircle
 10
127.7187003352558
 20
59.18559221148348
 30
0.0
 40
1.0
100
AcDbArc
 50
20.38293399685268
 51
90.0
  0
ARC
  5
1B4
330
19F
100
AcDbEntity
  8
0
100
AcDbCircle
 10
105.6155896406921
 20
59.18559221148349
 30
0.0
 40
1.0
100
AcDbArc
 50
90.0
 51
159.6170660031466
  0
ARC
  5
1B5
330
19F
100
AcDbEntity
  8
0
100
AcDbCircle
 10
103.2219059904468
 20
58.48559221148349
 30
0.0
 40
1.0
100
AcDbArc
 50
269.9999999999998
 51
339.6170660031466
  0
ARC
  5
1B6
330
19F
100
AcDbEntity
  8
0
100
AcDbCircle
 10
102.3313585503471
 20
58.48559221148349
 30
0.0
 40
1.0
100
AcDbArc
 50
225.0000000000003
 51
270.0
  0
ARC
  5
1B7
330
19F
100
AcDbEntity
  8
0
100
AcDbCircle
 10
99.50293142560084
 20
58.48559221148349
 30
0.0
 40
1.0
100
AcDbArc
 50
45.00000000000045
 51
90.0
  0
ARC
  5
1B8
330
19F
100
AcDbEntity
  8
0
100
AcDbCircle
 10
97.52087712237317
 20
58.4855922114835
 30
0.0
 40
1.0
100
AcDbArc
 50
89.99999999999976
 51
152.2414593989399
  0
LINE
  5
1B9
330
19F
100
AcDbEntity
  8
0
100
AcDbLine
 10
94.83972864304856
 20
56.68559221148353
 30
0.0
 11
93.08683771214164
 21
56.68559221148353
 31
0.0
  0
ARC
  5
1BA
330
19F
100
AcDbEntity
  8
0
100
AcDbCircle
 10
93.08683771214164
 20
54.68559221148352
 30
0.0
 40
2.0
100
AcDbArc
 50
89.99999999999984
 51
157.6198649480404
  0
LINE
  5
1BB
330
19F
100
AcDbEntity
  8
0
100
AcDbLine
 10
87.5094832585477
 20
47.38527425021096
 30
0.0
 11
91.23748151519222
 21
55.44709182199212
 31
0.0
  0
ARC
  5
1BC
330
19F
100
AcDbEntity
  8
0
100
AcDbCircle
 10
94.83972864304856
 20
57.6855922114835
 30
0.0
 40
1.0
100
AcDbArc
 50
269.9999999999997
 51
332.24145939894
  0
LINE
  5
1BD
330
19F
100
AcDbEntity
  8
0
100
AcDbLine
 10
145.498602418024
 20
47.18559221148349
 30
0.0
 11
87.5094832585477
 21
47.38527425021096
 31
0.0
  0
LINE
  5
1BE
330
19F
100
AcDbEntity
  8
0
100
AcDbLine
 10
141.9403233353405
 20
55.09582958671487
 30
0.0
 11
145.498602418024
 21
47.18559221148349
 31
0.0
  0
ARC
  5
1BF
330
19F
100
AcDbEntity
  8
0
100
AcDbCircle
 10
141.0283445549058
 20
54.68559221148348
 30
0.0
 40
1.0
100
AcDbArc
 50
24.21974721306873
 51
90.0
  0
DIMENSION
  5
1C0
330
19F
100
AcDbEntity
  8
0
100
AcDbDimension
  2
*D6
 10
145.4575128258438
 20
35.25287521630539
 30
0.0
 11
117.4247023308132
 21
35.34940451062894
 31
0.0
 70
   129
 71
     5
 42
57.98946295499326
  3
mihasi
100
AcDbAlignedDimension
 13
87.5094832585477
 23
47.38527425021096
 33
0.0
 14
145.498602418024
 24
47.18559221148349
 34
0.0
  0
DIMENSION
  5
1C1
330
19F
100
AcDbEntity
  8
0
100
AcDbDimension
  2
*D7
 10
80.57576761252862
 20
65.1855922114835
 30
0.0
 11
80.57576761252862
 21
62.14299083150343
 31
0.0
 70
   128
 71
     5
 42
17.80031796127253
  3
mihasi
100
AcDbAlignedDimension
 13
87.5094832585477
 23
47.38527425021096
 33
0.0
 14
116.667144987974
 24
65.18559221148348
 34
0.0
 50
90.0
100
AcDbRotatedDimension
  0
LINE
  5
1C2
330
19F
100
AcDbEntity
  8
WAKU
100
AcDbLine
 10
62.5752431473386
 20
-10.6979555393126
 30
0.0
 11
117.5752431473386
 21
-10.6979555393126
 31
0.0
  0
LINE
  5
1C3
330
19F
100
AcDbEntity
  8
WAKU
100
AcDbLine
 10
62.5752431473386
 20
-17.6979555393126
 30
0.0
 11
117.5752431473386
 21
-17.6979555393126
 31
0.0
  0
TEXT
  5
1C4
330
19F
100
AcDbEntity
  8
HOJO
100
AcDbText
 10
67.40222614733034
 20
-16.51464253931851
 30
0.0
 40
4.5
  1
F2L4-R2
  7
SUNPOU
100
AcDbText
  0
TEXT
  5
1C5
330
19F
100
AcDbEntity
  8
HOJO
100
AcDbText
 10
104.5139619197559
 20
1.048098224706222
 30
0.0
 40
3.0
  1
60×20
  7
SUNPOU
100
AcDbText
  0
TEXT
  5
1C6
330
19F
100
AcDbEntity
  8
HOJO
100
AcDbText
 10
67.78678141947271
 20
-24.84412361143018
 30
0.0
 40
3.0
  1
※ 材質の特性上、寸法誤差がある場合があります。
  7
SUNPOU
100
AcDbText
  0
TEXT
  5
1C7
330
19F
100
AcDbEntity
  8
HOJO
100
AcDbText
 10
105.235055831256
 20
-15.89829853417825
 30
0.0
 40
3.0
  1
60×25
  7
SUNPOU
100
AcDbText
  0
LWPOLYLINE
  5
1C8
330
19F
100
AcDbEntity
  8
0
 62
     6
100
AcDbPolyline
 90
        4
 70
     1
 43
0.0
 10
86.50404283828587
 20
47.28543323084721
 10
146.5040428382858
 20
47.28543323084721
 10
146.5040428382858
 20
67.28543323084721
 10
86.50404283828587
 20
67.28543323084721
  0
LINE
  5
1C9
330
19F
100
AcDbEntity
  8
0
100
AcDbLine
 10
116.5040428382859
 20
47.28543323084721
 30
0.0
 11
116.5040428382859
 21
118.6568122763343
 31
0.0
  0
ENDBLK
  5
1CD
330
19F
100
AcDbEntity
  8
0
100
AcDbBlockEnd
  0
BLOCK
  5
1F8
330
1F7
100
AcDbEntity
  8
0
100
AcDbBlockBegin
  2
*D10
 70
     1
 10
0.0
 20
0.0
 30
0.0
  3
*D10
  1

  0
LINE
  5
203
330
1F7
100
AcDbEntity
  8
0
 62
     2
370
    -2
100
AcDbLine
 10
93.86045913462544
 20
42.5116015499366
 30
0.0
 11
100.3241145474051
 21
42.5116015499366
 31
0.0
  0
LINE
  5
204
330
1F7
100
AcDbEntity
  8
0
 62
     2
370
    -2
100
AcDbLine
 10
93.86045913462544
 20
62.51160154993659
 30
0.0
 11
100.3241145474051
 21
62.51160154993659
 31
0.0
  0
LINE
  5
205
330
1F7
100
AcDbEntity
  8
0
 62
     2
370
    -2
100
AcDbLine
 10
100.3241145474051
 20
45.5116015499366
 30
0.0
 11
100.3241145474051
 21
59.51160154993659
 31
0.0
  0
SOLID
  5
206
330
1F7
100
AcDbEntity
  8
0
 62
     2
100
AcDbTrace
 10
99.82411454740507
 20
45.5116015499366
 30
0.0
 11
100.8241145474051
 21
45.5116015499366
 31
0.0
 12
100.3241145474051
 22
42.5116015499366
 32
0.0
 13
100.3241145474051
 23
42.5116015499366
 33
0.0
  0
SOLID
  5
207
330
1F7
100
AcDbEntity
  8
0
 62
     2
100
AcDbTrace
 10
99.82411454740507
 20
59.51160154993659
 30
0.0
 11
100.8241145474051
 21
59.51160154993659
 31
0.0
 12
100.3241145474051
 22
62.51160154993659
 32
0.0
 13
100.3241145474051
 23
62.51160154993659
 33
0.0
  0
MTEXT
  5
208
330
1F7
100
AcDbEntity
  8
0
 62
     2
100
AcDbMText
 10
97.92411454740507
 20
52.51160154993661
 30
0.0
 40
2.799999999999998
 41
0.0
 71
     5
 72
     1
  1
20
 11
0.0000000000000001
 21
1.0
 31
0.0
 73
     1
 44
1.0
1001
ACAD
1000
MTEXTBEGIN
1070
    73
1070
     1
1070
    44
1040
1.0
1070
    74
1070
     0
1000
MTEXTEND
  0
POINT
  5
209
330
1F7
100
AcDbEntity
  8
Defpoints
 62
     0
100
AcDbPoint
 10
91.86045913462542
 20
42.5116015499366
 30
0.0
  0
POINT
  5
20A
330
1F7
100
AcDbEntity
  8
Defpoints
 62
     0
100
AcDbPoint
 10
91.86045913462542
 20
62.51160154993659
 30
0.0
  0
POINT
  5
20B
330
1F7
100
AcDbEntity
  8
Defpoints
 62
     0
100
AcDbPoint
 10
100.3241145474051
 20
62.51160154993659
 30
0.0
  0
ENDBLK
  5
1F9
330
1F7
100
AcDbEntity
  8
0
100
AcDbBlockEnd
  0
BLOCK
  5
20E
330
20D
100
AcDbEntity
  8
0
100
AcDbBlockBegin
  2
*D11
 70
     1
 10
0.0
 20
0.0
 30
0.0
  3
*D11
  1

  0
LINE
  5
222
330
20D
100
AcDbEntity
  8
0
 62
     2
370
    -2
100
AcDbLine
 10
84.16767651833477
 20
58.98592405616887
 30
0.0
 11
84.16767651833477
 21
73.03935234387336
 31
0.0
  0
LINE
  5
223
330
20D
100
AcDbEntity
  8
0
 62
     2
370
    -2
100
AcDbLine
 10
28.16767651833476
 20
58.98592405616887
 30
0.0
 11
28.16767651833476
 21
73.03935234387336
 31
0.0
  0
LINE
  5
224
330
20D
100
AcDbEntity
  8
0
 62
     2
370
    -2
100
AcDbLine
 10
81.16767651833475
 20
73.03935234387336
 30
0.0
 11
31.16767651833476
 21
73.03935234387336
 31
0.0
  0
SOLID
  5
225
330
20D
100
AcDbEntity
  8
0
 62
     2
100
AcDbTrace
 10
81.16767651833475
 20
73.53935234387336
 30
0.0
 11
81.16767651833475
 21
72.53935234387336
 31
0.0
 12
84.16767651833477
 22
73.03935234387336
 32
0.0
 13
84.16767651833477
 23
73.03935234387336
 33
0.0
  0
SOLID
  5
226
330
20D
100
AcDbEntity
  8
0
 62
     2
100
AcDbTrace
 10
31.16767651833476
 20
73.53935234387336
 30
0.0
 11
31.16767651833476
 21
72.53935234387336
 31
0.0
 12
28.16767651833476
 22
73.03935234387336
 32
0.0
 13
28.16767651833476
 23
73.03935234387336
 33
0.0
  0
MTEXT
  5
227
330
20D
100
AcDbEntity
  8
0
 62
     2
100
AcDbMText
 10
56.16767651833476
 20
75.43935234387338
 30
0.0
 40
2.799999999999998
 41
0.0
 71
     5
 72
     1
  1
56
 73
     1
 44
1.0
1001
ACAD
1000
MTEXTBEGIN
1070
    73
1070
     1
1070
    44
1040
1.0
1070
    74
1070
     0
1000
MTEXTEND
  0
POINT
  5
228
330
20D
100
AcDbEntity
  8
Defpoints
 62
     0
100
AcDbPoint
 10
84.16767651833477
 20
56.98592405616887
 30
0.0
  0
POINT
  5
229
330
20D
100
AcDbEntity
  8
Defpoints
 62
     0
100
AcDbPoint
 10
28.16767651833476
 20
56.98592405616887
 30
0.0
  0
POINT
  5
22A
330
20D
100
AcDbEntity
  8
Defpoints
 62
     0
100
AcDbPoint
 10
28.16767651833476
 20
73.03935234387336
 30
0.0
  0
ENDBLK
  5
20F
330
20D
100
AcDbEntity
  8
0
100
AcDbBlockEnd
  0
ENDSEC
  0
SECTION
  2
ENTITIES
  0
LINE
  5
EA
330
2
100
AcDbEntity
  8
WAKU
100
AcDbLine
 10
28.93546234452333
 20
19.63186636334706
 30
0.0
 11
83.93546234452333
 21
19.63186636334706
 31
0.0
  0
LINE
  5
EB
330
2
100
AcDbEntity
  8
WAKU
100
AcDbLine
 10
28.93546234452333
 20
12.63186636334706
 30
0.0
 11
83.93546234452333
 21
12.63186636334706
 31
0.0
  0
TEXT
  5
EC
330
2
100
AcDbEntity
  8
HOJO
100
AcDbText
 10
33.76244534451507
 20
13.81517936334114
 30
0.0
 40
4.5
  1
F2L4-C
  7
SUNPOU
100
AcDbText
  0
TEXT
  5
ED
330
2
100
AcDbEntity
  8
HOJO
100
AcDbText
 10
67.15723872968101
 20
14.60807566090159
 30
0.0
 40
3.0
  1
60×20
  7
SUNPOU
100
AcDbText
  0
TEXT
  5
1F5
330
2
100
AcDbEntity
  8
HOJO
100
AcDbText
 10
30.55979711243458
 20
7.84418629716083
 30
0.0
 40
3.0
  1
※ 材質の特性上、寸法誤差がある場合があります。
  7
SUNPOU
100
AcDbText
  0
DIMENSION
  5
1F6
330
2
100
AcDbEntity
  8
0
100
AcDbDimension
  2
*D10
 10
100.3241145474051
 20
62.51160154993659
 30
0.0
 11
97.92411454740507
 21
52.51160154993661
 31
0.0
 70
    32
 71
     5
 42
19.99999999999999
  3
mihasi
100
AcDbAlignedDimension
 13
91.86045913462542
 23
42.5116015499366
 33
0.0
 14
91.86045913462542
 24
62.51160154993659
 34
0.0
 50
90.0
100
AcDbRotatedDimension
  0
DIMENSION
  5
20C
330
2
100
AcDbEntity
  8
0
100
AcDbDimension
  2
*D11
 10
28.16767651833476
 20
73.03935234387336
 30
0.0
 11
56.16767651833476
 21
75.43935234387338
 31
0.0
 70
    32
 71
     5
 42
56.0
  3
mihasi
100
AcDbAlignedDimension
 13
84.16767651833477
 23
56.98592405616887
 33
0.0
 14
28.16767651833476
 24
56.98592405616887
 34
0.0
100
AcDbRotatedDimension
  0
LWPOLYLINE
  5
232
330
2
100
AcDbEntity
  8
0
100
AcDbPolyline
 90
       30
 70
     1
 43
0.0
 10
84.16767651833477
 20
42.5116015499366
 10
84.16767651833477
 20
45.65714372729781
 10
81.28017651833475
 20
52.25714372729781
 10
77.16767651833477
 20
53.15714372729781
 10
76.35254075834376
 20
55.35801027927346
 42
0.249559133398301
 10
75.65039202324155
 20
55.98254602913858
 10
73.43175887523209
 20
56.52039648926209
 42
0.2691821921338562
 10
72.46914569706077
 20
56.2351699165371
 10
71.54785927555444
 20
55.25969017611867
 42
-0.258368592857541
 10
70.62472998786645
 20
54.96573303339147
 10
70.14726264696389
 20
55.06122650157197
 42
-0.2314428247850527
 10
69.44895159110217
 20
55.59459358176294
 10
68.94406972058478
 20
56.60435732279776
 42
0.2840790438404159
 10
68.04964252958486
 20
57.15714372729781
 10
66.66767651833474
 20
57.15714372729779
 42
0.4871369156907328
 10
45.86767651833478
 20
57.72381039396447
 10
44.5606340067841
 20
57.28812955678093
 42
0.198912367379656
 10
43.98243458180104
 20
56.78665985423037
 10
43.41679957908179
 20
55.65538984879188
 42
-0.2597375463449709
 10
42.61290813412439
 20
55.10671023782413
 10
41.41689863783927
 20
54.99798210179821
 42
-0.2151019443852312
 10
40.63973935883304
 20
55.2668621557161
 10
39.5287725905292
 20
56.31610854800303
 42
0.2346663999222845
 10
38.67775007026013
 20
56.57548931928537
 10
36.72275838039408
 20
56.24965737097436
 42
0.2620478896134255
 10
35.95868067681415
 20
55.63465412349632
 10
35.16767651833476
 20
53.6571437272978
 10
30.97753567326434
 20
53.15714372729779
 10
28.16767651833476
 20
47.45714372729779
 10
28.16767651833476
 20
42.5116015499366
  0
ENDSEC
  0
SECTION
  2
OBJECTS
  0
DICTIONARY
  5
8
330
0
100
AcDbDictionary
281
     1
  3
ACAD_COLOR
350
40
  3
ACAD_GROUP
350
2D
  3
ACAD_LAYOUT
350
15
  3
ACAD_MATERIAL
350
A
  3
ACAD_MLEADERSTYLE
350
9D
  3
ACAD_MLINESTYLE
350
2E
  3
ACAD_PLOTSETTINGS
350
2F
  3
ACAD_PLOTSTYLENAME
350
7
  3
ACAD_SCALELIST
350
41
  3
ACAD_TABLESTYLE
350
42
  3
ACAD_VISUALSTYLE
350
26
  3
ACDB_RECOMPOSE_DATA
350
89
  3
AcDbVariableDictionary
350
8A
  3
DWGPROPS
350
252
  0
DICTIONARY
  5
F0
330
5
100
AcDbDictionary
280
     1
281
     1
  3
ADSK_XREC_LAYER_RECONCILED
360
F1
  0
DICTIONARY
  5
C9
330
C8
100
AcDbDictionary
280
     1
281
     1
  3
ADSK_XREC_LAYER_RECONCILED
360
F2
  0
DICTIONARY
  5
CB
330
CA
100
AcDbDictionary
280
     1
281
     1
  3
ADSK_XREC_LAYER_RECONCILED
360
F3
  0
DICTIONARY
  5
3
330
2
100
AcDbDictionary
280
     1
281
     1
  3
ACAD_SORTENTS
360
EF
  0
DICTIONARY
  5
C3
330
C2
100
AcDbDictionary
280
     1
281
     1
  3
ACAD_SORTENTS
360
C4
  0
DICTIONARY
  5
D3
330
CD
100
AcDbDictionary
280
     1
281
     1
  3
ACAD_SORTENTS
360
D4
  0
DICTIONARY
  5
108
330
107
100
AcDbDictionary
280
     1
281
     1
  3
ACAD_SORTENTS
360
109
  0
DICTIONARY
  5
126
330
11D
100
AcDbDictionary
280
     1
281
     1
  3
ACAD_SORTENTS
360
127
  0
DICTIONARY
  5
196
330
195
100
AcDbDictionary
280
     1
281
     1
  3
ACAD_SORTENTS
360
197
  0
DICTIONARY
  5
1CA
330
19F
100
AcDbDictionary
280
     1
281
     1
  3
ACAD_SORTENTS
360
1CB
  0
DICTIONARY
  5
40
102
{ACAD_REACTORS
330
8
102
}
330
8
100
AcDbDictionary
281
     1
  0
DICTIONARY
  5
2D
102
{ACAD_REACTORS
330
8
102
}
330
8
100
AcDbDictionary
281
     1
  0
DICTIONARY
  5
15
102
{ACAD_REACTORS
330
8
102
}
330
8
100
AcDbDictionary
281
     1
  3
Model
350
14
  3
ﾚｲｱｳﾄ1
350
19
  0
DICTIONARY
  5
A
102
{ACAD_REACTORS
330
8
102
}
330
8
100
AcDbDictionary
281
     1
  3
ByBlock
350
38
  3
ByLayer
350
30
  3
Global
350
9
  0
DICTIONARY
  5
9D
102
{ACAD_REACTORS
330
8
102
}
330
8
100
AcDbDictionary
281
     1
  3
Standard
350
9E
  0
DICTIONARY
  5
2E
102
{ACAD_REACTORS
330
8
102
}
330
8
100
AcDbDictionary
281
     1
  3
STANDARD
350
44
  0
DICTIONARY
  5
2F
102
{ACAD_REACTORS
330
8
102
}
330
8
100
AcDbDictionary
281
     1
  0
ACDBDICTIONARYWDFLT
  5
7
102
{ACAD_REACTORS
330
8
102
}
330
8
100
AcDbDictionary
281
     1
  3
Normal
350
6
100
AcDbDictionaryWithDefault
340
6
  0
DICTIONARY
  5
41
102
{ACAD_REACTORS
330
8
102
}
330
8
100
AcDbDictionary
281
     1
  3
A0
350
48
  3
A1
350
49
  3
A2
350
4A
  3
A3
350
4B
  3
A4
350
4C
  3
A5
350
4D
  3
A6
350
4E
  3
A7
350
4F
  3
A8
350
50
  3
A9
350
51
  3
B0
350
52
  3
B1
350
53
  3
B2
350
54
  3
B3
350
55
  3
B4
350
56
  3
B5
350
57
  3
B6
350
58
  3
B7
350
59
  3
B8
350
5A
  3
B9
350
5B
  3
C0
350
5C
  3
C1
350
5D
  3
C2
350
5E
  3
C3
350
5F
  3
C4
350
60
  3
C5
350
61
  3
C6
350
62
  3
C7
350
63
  3
C8
350
64
  3
C9
350
65
  3
D0
350
66
  3
D1
350
67
  3
D2
350
68
  0
DICTIONARY
  5
42
102
{ACAD_REACTORS
330
8
102
}
330
8
100
AcDbDictionary
281
     1
  3
Standard
350
45
  0
DICTIONARY
  5
26
102
{ACAD_REACTORS
330
8
102
}
330
8
100
AcDbDictionary
281
     1
  3
2dWireframe
350
25
  3
3D Hidden
350
95
  3
3dWireframe
350
47
  3
Basic
350
94
  3
Brighten
350
98
  3
ColorChange
350
9C
  3
Conceptual
350
96
  3
Dim
350
97
  3
Facepattern
350
9B
  3
Flat
350
90
  3
FlatWithEdges
350
91
  3
Gouraud
350
92
  3
GouraudWithEdges
350
93
  3
Linepattern
350
9A
  3
Realistic
350
46
  3
Thicken
350
99
  0
XRECORD
  5
89
102
{ACAD_REACTORS
330
8
102
}
330
8
100
AcDbXrecord
280
     1
 90
        1
330
45
  0
DICTIONARY
  5
8A
102
{ACAD_REACTORS
330
8
102
}
330
8
100
AcDbDictionary
281
     1
  3
CANNOSCALE
350
8D
  3
CMLEADERSTYLE
350
8C
  3
CTABLESTYLE
350
8B
  3
DIMASSOC
350
238
  3
HIDETEXT
350
237
  3
INDEXCTL
350
236
  3
LIGHTINGUNITS
350
8E
  3
MSLTSCALE
350
234
  3
SORTENTS
350
235
  0
XRECORD
  5
252
102
{ACAD_REACTORS
330
8
102
}
330
8
100
AcDbXrecord
280
     1
  1
DWGPROPS COOKIE
  2

  3

  4

  6

  7

  8
y.kohno
  9

300
=
301
=
302
=
303
=
304
=
305
=
306
=
307
=
308
=
309
=
 40
1.500684409722222
 41
2454726.434688218
 42
2454818.657669688
  1

 90
        0
  0
XRECORD
  5
F1
102
{ACAD_REACTORS
330
F0
102
}
330
F0
100
AcDbXrecord
280
     1
290
     1
  0
XRECORD
  5
F2
102
{ACAD_REACTORS
330
C9
102
}
330
C9
100
AcDbXrecord
280
     1
290
     1
  0
XRECORD
  5
F3
102
{ACAD_REACTORS
330
CB
102
}
330
CB
100
AcDbXrecord
280
     1
290
     1
  0
SORTENTSTABLE
  5
EF
102
{ACAD_REACTORS
330
3
102
}
330
3
100
AcDbSortentsTable
330
2
331
ED
  5
12B
331
232
  5
85
331
EB
  5
EC
331
1F5
  5
1D1
331
EC
  5
ED
331
1F6
  5
20C
331
EA
  5
EB
331
20C
  5
232
  0
SORTENTSTABLE
  5
C4
102
{ACAD_REACTORS
330
C3
102
}
330
C3
100
AcDbSortentsTable
330
C2
  0
SORTENTSTABLE
  5
D4
102
{ACAD_REACTORS
330
D3
102
}
330
D3
100
AcDbSortentsTable
330
CD
  0
SORTENTSTABLE
  5
109
102
{ACAD_REACTORS
330
108
102
}
330
108
100
AcDbSortentsTable
330
107
  0
SORTENTSTABLE
  5
127
102
{ACAD_REACTORS
330
126
102
}
330
126
100
AcDbSortentsTable
330
11D
331
122
  5
123
331
120
  5
121
331
11E
  5
11F
331
125
  5
11E
331
123
  5
124
331
121
  5
122
331
11F
  5
120
331
124
  5
125
  0
SORTENTSTABLE
  5
197
102
{ACAD_REACTORS
330
196
102
}
330
196
100
AcDbSortentsTable
330
195
  0
SORTENTSTABLE
  5
1CB
102
{ACAD_REACTORS
330
1CA
102
}
330
1CA
100
AcDbSortentsTable
330
19F
  0
LAYOUT
  5
14
102
{ACAD_XDICTIONARY
360
253
102
}
102
{ACAD_REACTORS
330
15
102
}
330
15
100
AcDbPlotSettings
  1

  2
\\NOVIBDC\HPLJ4-TPUB
  4

  6

 40
0.0
 41
0.0
 42
0.0
 43
0.0
 44
0.0
 45
0.0
 46
0.0
 47
0.0
 48
0.0
 49
0.0
140
0.0
141
0.0
142
1.0
143
1.0
 70
  1712
 72
     0
 73
     0
 74
     0
  7

 75
     0
147
1.0
148
0.0
149
0.0
100
AcDbLayout
  1
Model
 70
     1
 71
     0
 10
0.0
 20
0.0
 11
12.0
 21
9.0
 12
0.0
 22
0.0
 32
0.0
 14
0.0
 24
0.0
 34
0.0
 15
0.0
 25
0.0
 35
0.0
146
0.0
 13
0.0
 23
0.0
 33
0.0
 16
1.0
 26
0.0
 36
0.0
 17
0.0
 27
1.0
 37
0.0
 76
     0
330
2
331
24
  0
LAYOUT
  5
19
102
{ACAD_XDICTIONARY
360
255
102
}
102
{ACAD_REACTORS
330
15
102
}
330
15
100
AcDbPlotSettings
  1

  2
EPSON LP-7100
  4
A4
  6

 40
5.873749732971191
 41
5.873747825622557
 42
5.873748779296875
 43
5.873748779296875
 44
209.9733276367186
 45
297.0106506347656
 46
0.0
 47
0.0
 48
0.0
 49
0.0
140
0.0
141
0.0
142
1.0
143
1.0
 70
   688
 72
     1
 73
     1
 74
     5
  7
monochrome.ctb
 75
     0
147
1.0
148
0.0
149
0.0
100
AcDbLayout
  1
ﾚｲｱｳﾄ1
 70
     1
 71
     1
 10
-5.873748779296875
 20
-5.873749732971191
 11
291.1369018554688
 21
204.0995779037475
 12
0.0
 22
0.0
 32
0.0
 14
28.48525948668254
 24
33.54685095069295
 34
0.0
 15
84.48525948668253
 25
51.40130877333174
 35
0.0
146
0.0
 13
0.0
 23
0.0
 33
0.0
 16
1.0
 26
0.0
 36
0.0
 17
0.0
 27
1.0
 37
0.0
 76
     0
330
16
  0
MATERIAL
  5
38
102
{ACAD_XDICTIONARY
360
39
102
}
102
{ACAD_REACTORS
330
A
102
}
330
A
100
AcDbMaterial
  1
ByBlock
 72
     0
 43
0.0208333333333333
 43
0.0
 43
0.0
 43
0.0
 43
0.0
 43
0.0208333333333333
 43
0.0
 43
0.0
 43
0.0
 43
0.0
 43
1.0
 43
0.0
 43
0.0
 43
0.0
 43
0.0
 43
1.0
 77
     0
 47
0.0208333333333333
 47
0.0
 47
0.0
 47
0.0
 47
0.0
 47
0.0208333333333333
 47
0.0
 47
0.0
 47
0.0
 47
0.0
 47
1.0
 47
0.0
 47
0.0
 47
0.0
 47
0.0
 47
1.0
171
     0
 49
0.0208333333333333
 49
0.0
 49
0.0
 49
0.0
 49
0.0
 49
0.0208333333333333
 49
0.0
 49
0.0
 49
0.0
 49
0.0
 49
1.0
 49
0.0
 49
0.0
 49
0.0
 49
0.0
 49
1.0
175
     0
142
0.0208333333333333
142
0.0
142
0.0
142
0.0
142
0.0
142
0.0208333333333333
142
0.0
142
0.0
142
0.0
142
0.0
142
1.0
142
0.0
142
0.0
142
0.0
142
0.0
142
1.0
179
     0
144
0.0208333333333333
144
0.0
144
0.0
144
0.0
144
0.0
144
0.0208333333333333
144
0.0
144
0.0
144
0.0
144
0.0
144
1.0
144
0.0
144
0.0
144
0.0
144
0.0
144
1.0
147
0.0208333333333333
147
0.0
147
0.0
147
0.0
147
0.0
147
0.0208333333333333
147
0.0
147
0.0
147
0.0
147
0.0
147
1.0
147
0.0
147
0.0
147
0.0
147
0.0
147
1.0
  0
MATERIAL
  5
30
102
{ACAD_XDICTIONARY
360
31
102
}
102
{ACAD_REACTORS
330
A
102
}
330
A
100
AcDbMaterial
  1
ByLayer
 72
     0
 43
0.0208333333333333
 43
0.0
 43
0.0
 43
0.0
 43
0.0
 43
0.0208333333333333
 43
0.0
 43
0.0
 43
0.0
 43
0.0
 43
1.0
 43
0.0
 43
0.0
 43
0.0
 43
0.0
 43
1.0
 77
     0
 47
0.0208333333333333
 47
0.0
 47
0.0
 47
0.0
 47
0.0
 47
0.0208333333333333
 47
0.0
 47
0.0
 47
0.0
 47
0.0
 47
1.0
 47
0.0
 47
0.0
 47
0.0
 47
0.0
 47
1.0
171
     0
 49
0.0208333333333333
 49
0.0
 49
0.0
 49
0.0
 49
0.0
 49
0.0208333333333333
 49
0.0
 49
0.0
 49
0.0
 49
0.0
 49
1.0
 49
0.0
 49
0.0
 49
0.0
 49
0.0
 49
1.0
175
     0
142
0.0208333333333333
142
0.0
142
0.0
142
0.0
142
0.0
142
0.0208333333333333
142
0.0
142
0.0
142
0.0
142
0.0
142
1.0
142
0.0
142
0.0
142
0.0
142
0.0
142
1.0
179
     0
144
0.0208333333333333
144
0.0
144
0.0
144
0.0
144
0.0
144
0.0208333333333333
144
0.0
144
0.0
144
0.0
144
0.0
144
1.0
144
0.0
144
0.0
144
0.0
144
0.0
144
1.0
147
0.0208333333333333
147
0.0
147
0.0
147
0.0
147
0.0
147
0.0208333333333333
147
0.0
147
0.0
147
0.0
147
0.0
147
1.0
147
0.0
147
0.0
147
0.0
147
0.0
147
1.0
  0
MATERIAL
  5
9
102
{ACAD_XDICTIONARY
360
B
102
}
102
{ACAD_REACTORS
330
A
102
}
330
A
100
AcDbMaterial
  1
Global
 72
     0
 43
0.0208333333333333
 43
0.0
 43
0.0
 43
0.0
 43
0.0
 43
0.0208333333333333
 43
0.0
 43
0.0
 43
0.0
 43
0.0
 43
1.0
 43
0.0
 43
0.0
 43
0.0
 43
0.0
 43
1.0
 77
     0
 47
0.0208333333333333
 47
0.0
 47
0.0
 47
0.0
 47
0.0
 47
0.0208333333333333
 47
0.0
 47
0.0
 47
0.0
 47
0.0
 47
1.0
 47
0.0
 47
0.0
 47
0.0
 47
0.0
 47
1.0
171
     0
 49
0.0208333333333333
 49
0.0
 49
0.0
 49
0.0
 49
0.0
 49
0.0208333333333333
 49
0.0
 49
0.0
 49
0.0
 49
0.0
 49
1.0
 49
0.0
 49
0.0
 49
0.0
 49
0.0
 49
1.0
175
     0
142
0.0208333333333333
142
0.0
142
0.0
142
0.0
142
0.0
142
0.0208333333333333
142
0.0
142
0.0
142
0.0
142
0.0
142
1.0
142
0.0
142
0.0
142
0.0
142
0.0
142
1.0
179
     0
144
0.0208333333333333
144
0.0
144
0.0
144
0.0
144
0.0
144
0.0208333333333333
144
0.0
144
0.0
144
0.0
144
0.0
144
1.0
144
0.0
144
0.0
144
0.0
144
0.0
144
1.0
147
0.0208333333333333
147
0.0
147
0.0
147
0.0
147
0.0
147
0.0208333333333333
147
0.0
147
0.0
147
0.0
147
0.0
147
1.0
147
0.0
147
0.0
147
0.0
147
0.0
147
1.0
  0
MLEADERSTYLE
  5
9E
102
{ACAD_REACTORS
330
9D
102
}
330
9D
100
AcDbMLeaderStyle
170
     2
171
     1
172
     0
 90
        2
 40
0.0
 41
0.0
173
     1
 91
-1056964608
340
1F
 92
       -2
290
     1
 42
2.0
291
     1
 43
0.36
  3
Standard
 44
4.0
300

342
1C
174
     1
178
     6
175
     1
176
     0
 93
-1056964608
 45
4.0
292
     0
297
     0
 46
4.0
 94
-1056964608
 47
1.0
 49
1.0
140
1.0
293
     1
141
0.0
294
     1
177
     0
142
1.0
295
     0
296
     0
143
0.125
1001
ACAD_MLEADERVER
1070
     2
  0
MLINESTYLE
  5
44
102
{ACAD_REACTORS
330
2E
102
}
330
2E
100
AcDbMlineStyle
  2
STANDARD
 70
     0
  3

 62
     0
 51
90.0
 52
90.0
 71
     2
 49
0.5
 62
   256
  6
BYLAYER
 49
-0.5
 62
   256
  6
BYLAYER
  0
ACDBPLACEHOLDER
  5
6
102
{ACAD_REACTORS
330
7
102
}
330
7
  0
SCALE
  5
48
102
{ACAD_REACTORS
330
41
102
}
330
41
100
AcDbScale
 70
     0
300
1:1
140
1.0
141
1.0
290
     1
  0
SCALE
  5
49
102
{ACAD_REACTORS
330
41
102
}
330
41
100
AcDbScale
 70
     0
300
1:2
140
1.0
141
2.0
290
     0
  0
SCALE
  5
4A
102
{ACAD_REACTORS
330
41
102
}
330
41
100
AcDbScale
 70
     0
300
1:4
140
1.0
141
4.0
290
     0
  0
SCALE
  5
4B
102
{ACAD_REACTORS
330
41
102
}
330
41
100
AcDbScale
 70
     0
300
1:5
140
1.0
141
5.0
290
     0
  0
SCALE
  5
4C
102
{ACAD_REACTORS
330
41
102
}
330
41
100
AcDbScale
 70
     0
300
1:8
140
1.0
141
8.0
290
     0
  0
SCALE
  5
4D
102
{ACAD_REACTORS
330
41
102
}
330
41
100
AcDbScale
 70
     0
300
1:10
140
1.0
141
10.0
290
     0
  0
SCALE
  5
4E
102
{ACAD_REACTORS
330
41
102
}
330
41
100
AcDbScale
 70
     0
300
1:16
140
1.0
141
16.0
290
     0
  0
SCALE
  5
4F
102
{ACAD_REACTORS
330
41
102
}
330
41
100
AcDbScale
 70
     0
300
1:20
140
1.0
141
20.0
290
     0
  0
SCALE
  5
50
102
{ACAD_REACTORS
330
41
102
}
330
41
100
AcDbScale
 70
     0
300
1:30
140
1.0
141
30.0
290
     0
  0
SCALE
  5
51
102
{ACAD_REACTORS
330
41
102
}
330
41
100
AcDbScale
 70
     0
300
1:40
140
1.0
141
40.0
290
     0
  0
SCALE
  5
52
102
{ACAD_REACTORS
330
41
102
}
330
41
100
AcDbScale
 70
     0
300
1:50
140
1.0
141
50.0
290
     0
  0
SCALE
  5
53
102
{ACAD_REACTORS
330
41
102
}
330
41
100
AcDbScale
 70
     0
300
1:100
140
1.0
141
100.0
290
     0
  0
SCALE
  5
54
102
{ACAD_REACTORS
330
41
102
}
330
41
100
AcDbScale
 70
     0
300
2:1
140
2.0
141
1.0
290
     0
  0
SCALE
  5
55
102
{ACAD_REACTORS
330
41
102
}
330
41
100
AcDbScale
 70
     0
300
4:1
140
4.0
141
1.0
290
     0
  0
SCALE
  5
56
102
{ACAD_REACTORS
330
41
102
}
330
41
100
AcDbScale
 70
     0
300
8:1
140
8.0
141
1.0
290
     0
  0
SCALE
  5
57
102
{ACAD_REACTORS
330
41
102
}
330
41
100
AcDbScale
 70
     0
300
10:1
140
10.0
141
1.0
290
     0
  0
SCALE
  5
58
102
{ACAD_REACTORS
330
41
102
}
330
41
100
AcDbScale
 70
     0
300
100:1
140
100.0
141
1.0
290
     0
  0
SCALE
  5
59
102
{ACAD_REACTORS
330
41
102
}
330
41
100
AcDbScale
 70
     0
300
1/128" = 1'-0"
140
0.0078125
141
12.0
290
     0
  0
SCALE
  5
5A
102
{ACAD_REACTORS
330
41
102
}
330
41
100
AcDbScale
 70
     0
300
1/64" = 1'-0"
140
0.015625
141
12.0
290
     0
  0
SCALE
  5
5B
102
{ACAD_REACTORS
330
41
102
}
330
41
100
AcDbScale
 70
     0
300
1/32" = 1'-0"
140
0.03125
141
12.0
290
     0
  0
SCALE
  5
5C
102
{ACAD_REACTORS
330
41
102
}
330
41
100
AcDbScale
 70
     0
300
1/16" = 1'-0"
140
0.0625
141
12.0
290
     0
  0
SCALE
  5
5D
102
{ACAD_REACTORS
330
41
102
}
330
41
100
AcDbScale
 70
     0
300
3/32" = 1'-0"
140
0.09375
141
12.0
290
     0
  0
SCALE
  5
5E
102
{ACAD_REACTORS
330
41
102
}
330
41
100
AcDbScale
 70
     0
300
1/8" = 1'-0"
140
0.125
141
12.0
290
     0
  0
SCALE
  5
5F
102
{ACAD_REACTORS
330
41
102
}
330
41
100
AcDbScale
 70
     0
300
3/16" = 1'-0"
140
0.1875
141
12.0
290
     0
  0
SCALE
  5
60
102
{ACAD_REACTORS
330
41
102
}
330
41
100
AcDbScale
 70
     0
300
1/4" = 1'-0"
140
0.25
141
12.0
290
     0
  0
SCALE
  5
61
102
{ACAD_REACTORS
330
41
102
}
330
41
100
AcDbScale
 70
     0
300
3/8" = 1'-0"
140
0.375
141
12.0
290
     0
  0
SCALE
  5
62
102
{ACAD_REACTORS
330
41
102
}
330
41
100
AcDbScale
 70
     0
300
1/2" = 1'-0"
140
0.5
141
12.0
290
     0
  0
SCALE
  5
63
102
{ACAD_REACTORS
330
41
102
}
330
41
100
AcDbScale
 70
     0
300
3/4" = 1'-0"
140
0.75
141
12.0
290
     0
  0
SCALE
  5
64
102
{ACAD_REACTORS
330
41
102
}
330
41
100
AcDbScale
 70
     0
300
1" = 1'-0"
140
1.0
141
12.0
290
     0
  0
SCALE
  5
65
102
{ACAD_REACTORS
330
41
102
}
330
41
100
AcDbScale
 70
     0
300
1-1/2" = 1'-0"
140
1.5
141
12.0
290
     0
  0
SCALE
  5
66
102
{ACAD_REACTORS
330
41
102
}
330
41
100
AcDbScale
 70
     0
300
3" = 1'-0"
140
3.0
141
12.0
290
     0
  0
SCALE
  5
67
102
{ACAD_REACTORS
330
41
102
}
330
41
100
AcDbScale
 70
     0
300
6" = 1'-0"
140
6.0
141
12.0
290
     0
  0
SCALE
  5
68
102
{ACAD_REACTORS
330
41
102
}
330
41
100
AcDbScale
 70
     0
300
1'-0" = 1'-0"
140
12.0
141
12.0
290
     0
  0
TABLESTYLE
  5
45
102
{ACAD_XDICTIONARY
360
87
102
}
102
{ACAD_REACTORS
330
42
102
}
330
42
100
AcDbTableStyle
  3
Standard
 70
     0
 71
     0
 40
1.5
 41
1.5
280
     0
281
     0
  7
STANDARD
140
4.5
170
     2
 62
     0
 63
     7
283
     0
274
    -2
284
     1
 64
     0
275
    -2
285
     1
 65
     0
276
    -2
286
     1
 66
     0
277
    -2
287
     1
 67
     0
278
    -2
288
     1
 68
     0
279
    -2
289
     1
 69
     0
  7
STANDARD
140
6.0
170
     5
 62
     0
 63
     7
283
     0
274
    -2
284
     1
 64
     0
275
    -2
285
     1
 65
     0
276
    -2
286
     1
 66
     0
277
    -2
287
     1
 67
     0
278
    -2
288
     1
 68
     0
279
    -2
289
     1
 69
     0
  7
STANDARD
140
4.5
170
     5
 62
     0
 63
     7
283
     0
274
    -2
284
     1
 64
     0
275
    -2
285
     1
 65
     0
276
    -2
286
     1
 66
     0
277
    -2
287
     1
 67
     0
278
    -2
288
     1
 68
     0
279
    -2
289
     1
 69
     0
  0
VISUALSTYLE
  5
25
102
{ACAD_REACTORS
330
26
102
}
330
26
100
AcDbVisualStyle
  2
2dWireframe
 70
     4
 71
     0
 72
     2
 73
     0
 90
        0
 40
-0.6
 41
-30.0
 62
     5
 63
     7
 74
     1
 91
        4
 64
     7
 65
   257
 75
     1
175
     1
 42
1.0
 92
        0
 66
   257
 43
1.0
 76
     1
 77
     6
 78
     2
 67
     7
 79
     5
170
     0
171
     0
290
     0
174
     0
 93
        1
 44
0.0
173
     0
291
     0
 45
0.0
1001
ACAD
1000
AcDbSavedByObjectVersion
1070
     0
  0
VISUALSTYLE
  5
95
102
{ACAD_REACTORS
330
26
102
}
330
26
100
AcDbVisualStyle
  2
3D Hidden
 70
     6
 71
     1
 72
     2
 73
     2
 90
        0
 40
-0.6
 41
-30.0
 62
     5
 63
     7
 74
     2
 91
        2
 64
     7
 65
   257
 75
     2
175
     1
 42
40.0
 92
        0
 66
   257
 43
1.0
 76
     1
 77
     6
 78
     2
 67
     7
 79
     3
170
     0
171
     0
290
     0
174
     0
 93
        1
 44
0.0
173
     0
291
     0
 45
0.0
1001
ACAD
1000
AcDbSavedByObjectVersion
1070
     0
  0
VISUALSTYLE
  5
47
102
{ACAD_REACTORS
330
26
102
}
330
26
100
AcDbVisualStyle
  2
3dWireframe
 70
     5
 71
     0
 72
     2
 73
     0
 90
        0
 40
-0.6
 41
-30.0
 62
     5
 63
     7
 74
     1
 91
        4
 64
     7
 65
   257
 75
     1
175
     1
 42
1.0
 92
        0
 66
   257
 43
1.0
 76
     1
 77
     6
 78
     2
 67
     7
 79
     5
170
     0
171
     0
290
     0
174
     0
 93
        1
 44
0.0
173
     0
291
     0
 45
0.0
1001
ACAD
1000
AcDbSavedByObjectVersion
1070
     0
  0
VISUALSTYLE
  5
94
102
{ACAD_REACTORS
330
26
102
}
330
26
100
AcDbVisualStyle
  2
Basic
 70
     7
 71
     1
 72
     0
 73
     1
 90
        0
 40
-0.6
 41
-30.0
 62
     5
 63
     7
 74
     0
 91
        4
 64
     7
 65
   257
 75
     1
175
     1
 42
1.0
 92
        8
 66
     7
 43
1.0
 76
     1
 77
     6
 78
     2
 67
     7
 79
     5
170
     0
171
     0
290
     0
174
     0
 93
        1
 44
0.0
173
     0
291
     1
 45
0.0
1001
ACAD
1000
AcDbSavedByObjectVersion
1070
     0
  0
VISUALSTYLE
  5
98
102
{ACAD_REACTORS
330
26
102
}
330
26
100
AcDbVisualStyle
  2
Brighten
 70
    12
 71
     2
 72
     2
 73
     0
 90
        0
 40
-0.6
 41
-30.0
 62
     5
 63
     7
 74
     1
 91
        4
 64
     7
 65
   257
 75
     1
175
     1
 42
1.0
 92
        8
 66
     7
 43
1.0
 76
     1
 77
     6
 78
     2
 67
     7
 79
     5
170
     0
171
     0
290
     0
174
     0
 93
        1
 44
50.0
173
     0
291
     1
 45
0.0
1001
ACAD
1000
AcDbSavedByObjectVersion
1070
     0
  0
VISUALSTYLE
  5
9C
102
{ACAD_REACTORS
330
26
102
}
330
26
100
AcDbVisualStyle
  2
ColorChange
 70
    16
 71
     2
 72
     2
 73
     3
 90
        0
 40
-0.6
 41
-30.0
 62
     5
 63
     8
 74
     1
 91
        4
 64
     7
 65
   257
 75
     1
175
     1
 42
1.0
 92
        8
 66
     8
 43
1.0
 76
     1
 77
     6
 78
     2
 67
     7
 79
     5
170
     0
171
     0
290
     0
174
     0
 93
        1
 44
0.0
173
     0
291
     1
 45
0.0
1001
ACAD
1000
AcDbSavedByObjectVersion
1070
     0
  0
VISUALSTYLE
  5
96
102
{ACAD_REACTORS
330
26
102
}
330
26
100
AcDbVisualStyle
  2
Conceptual
 70
     9
 71
     3
 72
     2
 73
     0
 90
        0
 40
-0.6
 41
-30.0
 62
     5
 63
     7
 74
     2
 91
        2
 64
     7
 65
   257
 75
     1
175
     1
 42
40.0
 92
        8
 66
     7
 43
1.0
 76
     1
 77
     6
 78
     2
 67
     7
 79
     3
170
     0
171
     0
290
     0
174
     0
 93
        1
 44
0.0
173
     0
291
     0
 45
0.0
1001
ACAD
1000
AcDbSavedByObjectVersion
1070
     0
  0
VISUALSTYLE
  5
97
102
{ACAD_REACTORS
330
26
102
}
330
26
100
AcDbVisualStyle
  2
Dim
 70
    11
 71
     2
 72
     2
 73
     0
 90
        0
 40
-0.6
 41
-30.0
 62
     5
 63
     7
 74
     1
 91
        4
 64
     7
 65
   257
 75
     1
175
     1
 42
1.0
 92
        8
 66
     7
 43
1.0
 76
     1
 77
     6
 78
     2
 67
     7
 79
     5
170
     0
171
     0
290
     0
174
     0
 93
        1
 44
-50.0
173
     0
291
     1
 45
0.0
1001
ACAD
1000
AcDbSavedByObjectVersion
1070
     0
  0
VISUALSTYLE
  5
9B
102
{ACAD_REACTORS
330
26
102
}
330
26
100
AcDbVisualStyle
  2
Facepattern
 70
    15
 71
     2
 72
     2
 73
     0
 90
        0
 40
-0.6
 41
-30.0
 62
     5
 63
     7
 74
     1
 91
        4
 64
     7
 65
   257
 75
     1
175
     1
 42
1.0
 92
        8
 66
     7
 43
1.0
 76
     1
 77
     6
 78
     2
 67
     7
 79
     5
170
     0
171
     0
290
     0
174
     0
 93
        1
 44
0.0
173
     0
291
     1
 45
0.0
1001
ACAD
1000
AcDbSavedByObjectVersion
1070
     0
  0
VISUALSTYLE
  5
90
102
{ACAD_REACTORS
330
26
102
}
330
26
100
AcDbVisualStyle
  2
Flat
 70
     0
 71
     2
 72
     1
 73
     1
 90
        2
 40
-0.6
 41
30.0
 62
     5
 63
     7
 74
     0
 91
        4
 64
     7
 65
   257
 75
     1
175
     1
 42
1.0
 92
        8
 66
     7
 43
1.0
 76
     1
 77
     6
 78
     2
 67
     7
 79
     5
170
     0
171
     0
290
     0
174
     0
 93
       13
 44
0.0
173
     0
291
     1
 45
0.0
1001
ACAD
1000
AcDbSavedByObjectVersion
1070
     0
  0
VISUALSTYLE
  5
91
102
{ACAD_REACTORS
330
26
102
}
330
26
100
AcDbVisualStyle
  2
FlatWithEdges
 70
     1
 71
     2
 72
     1
 73
     1
 90
        2
 40
-0.6
 41
30.0
 62
     5
 63
     7
 74
     1
 91
        4
 64
     7
 65
   257
 75
     1
175
     1
 42
1.0
 92
        0
 66
   257
 43
1.0
 76
     1
 77
     6
 78
     2
 67
     7
 79
     5
170
     0
171
     0
290
     0
174
     0
 93
       13
 44
0.0
173
     0
291
     1
 45
0.0
1001
ACAD
1000
AcDbSavedByObjectVersion
1070
     0
  0
VISUALSTYLE
  5
92
102
{ACAD_REACTORS
330
26
102
}
330
26
100
AcDbVisualStyle
  2
Gouraud
 70
     2
 71
     2
 72
     2
 73
     1
 90
        2
 40
-0.6
 41
30.0
 62
     5
 63
     7
 74
     0
 91
        4
 64
     7
 65
   257
 75
     1
175
     1
 42
1.0
 92
        0
 66
     7
 43
1.0
 76
     1
 77
     6
 78
     2
 67
     7
 79
     5
170
     0
171
     0
290
     0
174
     0
 93
       13
 44
0.0
173
     0
291
     1
 45
0.0
1001
ACAD
1000
AcDbSavedByObjectVersion
1070
     0
  0
VISUALSTYLE
  5
93
102
{ACAD_REACTORS
330
26
102
}
330
26
100
AcDbVisualStyle
  2
GouraudWithEdges
 70
     3
 71
     2
 72
     2
 73
     1
 90
        2
 40
-0.6
 41
30.0
 62
     5
 63
     7
 74
     1
 91
        4
 64
     7
 65
   257
 75
     1
175
     1
 42
1.0
 92
        0
 66
   257
 43
1.0
 76
     1
 77
     6
 78
     2
 67
     7
 79
     5
170
     0
171
     0
290
     0
174
     0
 93
       13
 44
0.0
173
     0
291
     1
 45
0.0
1001
ACAD
1000
AcDbSavedByObjectVersion
1070
     0
  0
VISUALSTYLE
  5
9A
102
{ACAD_REACTORS
330
26
102
}
330
26
100
AcDbVisualStyle
  2
Linepattern
 70
    14
 71
     2
 72
     2
 73
     0
 90
        0
 40
-0.6
 41
-30.0
 62
     5
 63
     7
 74
     1
 91
        4
 64
     7
 65
   257
 75
     7
175
     7
 42
1.0
 92
        8
 66
     7
 43
1.0
 76
     1
 77
     6
 78
     2
 67
     7
 79
     5
170
     0
171
     0
290
     0
174
     0
 93
        1
 44
0.0
173
     0
291
     1
 45
0.0
1001
ACAD
1000
AcDbSavedByObjectVersion
1070
     0
  0
VISUALSTYLE
  5
46
102
{ACAD_REACTORS
330
26
102
}
330
26
100
AcDbVisualStyle
  2
Realistic
 70
     8
 71
     2
 72
     2
 73
     0
 90
        0
 40
-0.6
 41
-30.0
 62
     5
 63
     7
 74
     1
 91
        0
 64
     7
 65
   257
 75
     1
175
     1
 42
1.0
 92
        8
 66
     8
 43
1.0
 76
     1
 77
     6
 78
     2
 67
     7
 79
     5
170
     0
171
     0
290
     0
174
     0
 93
       13
 44
0.0
173
     0
291
     0
 45
0.0
1001
ACAD
1000
AcDbSavedByObjectVersion
1070
     0
  0
VISUALSTYLE
  5
99
102
{ACAD_REACTORS
330
26
102
}
330
26
100
AcDbVisualStyle
  2
Thicken
 70
    13
 71
     2
 72
     2
 73
     0
 90
        0
 40
-0.6
 41
-30.0
 62
     5
 63
     7
 74
     1
 91
        4
 64
     7
 65
   257
 75
     1
175
     1
 42
1.0
 92
       12
 66
     7
 43
1.0
 76
     1
 77
     6
 78
     2
 67
     7
 79
     5
170
     0
171
     0
290
     0
174
     0
 93
        1
 44
0.0
173
     0
291
     1
 45
0.0
1001
ACAD
1000
AcDbSavedByObjectVersion
1070
     0
  0
DICTIONARYVAR
  5
8D
102
{ACAD_REACTORS
330
8A
102
}
330
8A
100
DictionaryVariables
280
     0
  1
1:1
  0
DICTIONARYVAR
  5
8C
102
{ACAD_REACTORS
330
8A
102
}
330
8A
100
DictionaryVariables
280
     0
  1
STANDARD
  0
DICTIONARYVAR
  5
8B
102
{ACAD_REACTORS
330
8A
102
}
330
8A
100
DictionaryVariables
280
     0
  1
STANDARD
  0
DICTIONARYVAR
  5
238
102
{ACAD_REACTORS
330
8A
102
}
330
8A
100
DictionaryVariables
280
     0
  1
1
  0
DICTIONARYVAR
  5
237
102
{ACAD_REACTORS
330
8A
102
}
330
8A
100
DictionaryVariables
280
     0
  1
1
  0
DICTIONARYVAR
  5
236
102
{ACAD_REACTORS
330
8A
102
}
330
8A
100
DictionaryVariables
280
     0
  1
0
  0
DICTIONARYVAR
  5
8E
102
{ACAD_REACTORS
330
8A
102
}
330
8A
100
DictionaryVariables
280
     0
  1
0
  0
DICTIONARYVAR
  5
234
102
{ACAD_REACTORS
330
8A
102
}
330
8A
100
DictionaryVariables
280
     0
  1
1
  0
DICTIONARYVAR
  5
235
102
{ACAD_REACTORS
330
8A
102
}
330
8A
100
DictionaryVariables
280
     0
  1
127
  0
DICTIONARY
  5
253
330
14
100
AcDbDictionary
280
     1
281
     1
  3
ACAD_XREC_ROUNDTRIP
360
254
  0
DICTIONARY
  5
255
330
19
100
AcDbDictionary
280
     1
281
     1
  3
ACAD_XREC_ROUNDTRIP
360
256
  0
DICTIONARY
  5
39
330
38
100
AcDbDictionary
280
     1
281
     1
  3
ACAD_XREC_ROUNDTRIP
360
241
  3
BUMPTILE
360
3A
  3
DIFFUSETILE
360
3B
  3
OPACITYTILE
360
3C
  3
REFLECTIONTILE
360
3D
  3
REFRACTIONTILE
360
3E
  3
SPECULARTILE
360
3F
  0
DICTIONARY
  5
31
330
30
100
AcDbDictionary
280
     1
281
     1
  3
ACAD_XREC_ROUNDTRIP
360
240
  3
BUMPTILE
360
32
  3
DIFFUSETILE
360
33
  3
OPACITYTILE
360
34
  3
REFLECTIONTILE
360
35
  3
REFRACTIONTILE
360
36
  3
SPECULARTILE
360
37
  0
DICTIONARY
  5
B
330
9
100
AcDbDictionary
280
     1
281
     1
  3
ACAD_XREC_ROUNDTRIP
360
23B
  3
BUMPTILE
360
C
  3
DIFFUSETILE
360
D
  3
OPACITYTILE
360
E
  3
REFLECTIONTILE
360
F
  3
REFRACTIONTILE
360
10
  3
SPECULARTILE
360
11
  0
DICTIONARY
  5
87
330
45
100
AcDbDictionary
280
     1
281
     1
  3
ACAD_ROUNDTRIP_2008_TABLESTYLE_CELLSTYLEMAP
360
251
  3
ACAD_XREC_ROUNDTRIP
360
257
  0
XRECORD
  5
254
102
{ACAD_REACTORS
330
253
102
}
330
253
100
AcDbXrecord
280
     1
102
SHADEPLOT
 70
     0
102
SHADEPLOTRESLEVEL
 70
     2
102
SHADEPLOTCUSTOMDPI
 70
   300
  0
XRECORD
  5
256
102
{ACAD_REACTORS
330
255
102
}
330
255
100
AcDbXrecord
280
     1
102
SHADEPLOT
 70
     0
102
SHADEPLOTRESLEVEL
 70
     2
102
SHADEPLOTCUSTOMDPI
 70
   300
  0
XRECORD
  5
241
102
{ACAD_REACTORS
330
39
102
}
330
39
100
AcDbXrecord
280
     1
102
MATERIAL
148
0.0
149
0.0
149
0.0
 93
        0
 94
      127
282
     0
 72
     0
 77
     0
171
     0
175
     0
179
     0
273
     0
  0
XRECORD
  5
3A
102
{ACAD_REACTORS
330
39
102
}
330
39
100
AcDbXrecord
280
     1
270
     1
271
     1
  0
XRECORD
  5
3B
102
{ACAD_REACTORS
330
39
102
}
330
39
100
AcDbXrecord
280
     1
270
     1
271
     1
  0
XRECORD
  5
3C
102
{ACAD_REACTORS
330
39
102
}
330
39
100
AcDbXrecord
280
     1
270
     1
271
     1
  0
XRECORD
  5
3D
102
{ACAD_REACTORS
330
39
102
}
330
39
100
AcDbXrecord
280
     1
270
     1
271
     1
  0
XRECORD
  5
3E
102
{ACAD_REACTORS
330
39
102
}
330
39
100
AcDbXrecord
280
     1
270
     1
271
     1
  0
XRECORD
  5
3F
102
{ACAD_REACTORS
330
39
102
}
330
39
100
AcDbXrecord
280
     1
270
     1
271
     1
  0
XRECORD
  5
240
102
{ACAD_REACTORS
330
31
102
}
330
31
100
AcDbXrecord
280
     1
102
MATERIAL
148
0.0
149
0.0
149
0.0
 93
        0
 94
      127
282
     0
 72
     0
 77
     0
171
     0
175
     0
179
     0
273
     0
  0
XRECORD
  5
32
102
{ACAD_REACTORS
330
31
102
}
330
31
100
AcDbXrecord
280
     1
270
     1
271
     1
  0
XRECORD
  5
33
102
{ACAD_REACTORS
330
31
102
}
330
31
100
AcDbXrecord
280
     1
270
     1
271
     1
  0
XRECORD
  5
34
102
{ACAD_REACTORS
330
31
102
}
330
31
100
AcDbXrecord
280
     1
270
     1
271
     1
  0
XRECORD
  5
35
102
{ACAD_REACTORS
330
31
102
}
330
31
100
AcDbXrecord
280
     1
270
     1
271
     1
  0
XRECORD
  5
36
102
{ACAD_REACTORS
330
31
102
}
330
31
100
AcDbXrecord
280
     1
270
     1
271
     1
  0
XRECORD
  5
37
102
{ACAD_REACTORS
330
31
102
}
330
31
100
AcDbXrecord
280
     1
270
     1
271
     1
  0
XRECORD
  5
23B
102
{ACAD_REACTORS
330
B
102
}
330
B
100
AcDbXrecord
280
     1
102
MATERIAL
148
0.0
149
0.0
149
0.0
 93
        0
 94
      127
282
     0
 72
     0
 77
     0
171
     0
175
     0
179
     0
273
     0
  0
XRECORD
  5
C
102
{ACAD_REACTORS
330
B
102
}
330
B
100
AcDbXrecord
280
     1
270
     1
271
     1
  0
XRECORD
  5
D
102
{ACAD_REACTORS
330
B
102
}
330
B
100
AcDbXrecord
280
     1
270
     1
271
     1
  0
XRECORD
  5
E
102
{ACAD_REACTORS
330
B
102
}
330
B
100
AcDbXrecord
280
     1
270
     1
271
     1
  0
XRECORD
  5
F
102
{ACAD_REACTORS
330
B
102
}
330
B
100
AcDbXrecord
280
     1
270
     1
271
     1
  0
XRECORD
  5
10
102
{ACAD_REACTORS
330
B
102
}
330
B
100
AcDbXrecord
280
     1
270
     1
271
     1
  0
XRECORD
  5
11
102
{ACAD_REACTORS
330
B
102
}
330
B
100
AcDbXrecord
280
     1
270
     1
271
     1
  0
CELLSTYLEMAP
  5
251
102
{ACAD_REACTORS
330
87
102
}
330
87
100
AcDbCellStyleMap
 90
        3
300
CELLSTYLE
  1
TABLEFORMAT_BEGIN
 90
        5
170
     1
 91
        0
 92
    32768
 62
   257
 93
        1
300
CONTENTFORMAT
  1
CONTENTFORMAT_BEGIN
 90
        0
 91
        0
 92
      512
 93
        0
300

 40
0.0
140
1.0
 94
        5
 62
     0
340
1C
144
6.0
309
CONTENTFORMAT_END
171
     1
301
MARGIN
  1
CELLMARGIN_BEGIN
 40
1.5
 40
1.5
 40
1.5
 40
1.5
 40
0.18
 40
0.18
309
CELLMARGIN_END
 94
        6
 95
        1
302
GRIDFORMAT
  1
GRIDFORMAT_BEGIN
 90
        0
 91
        1
 62
     0
 92
       -2
340
0
 93
        0
 40
1.125
309
GRIDFORMAT_END
 95
        2
302
GRIDFORMAT
  1
GRIDFORMAT_BEGIN
 90
        0
 91
        1
 62
     0
 92
       -2
340
0
 93
        0
 40
1.125
309
GRIDFORMAT_END
 95
        4
302
GRIDFORMAT
  1
GRIDFORMAT_BEGIN
 90
        0
 91
        1
 62
     0
 92
       -2
340
0
 93
        0
 40
1.125
309
GRIDFORMAT_END
 95
        8
302
GRIDFORMAT
  1
GRIDFORMAT_BEGIN
 90
        0
 91
        1
 62
     0
 92
       -2
340
0
 93
        0
 40
1.125
309
GRIDFORMAT_END
 95
       16
302
GRIDFORMAT
  1
GRIDFORMAT_BEGIN
 90
        0
 91
        1
 62
     0
 92
       -2
340
0
 93
        0
 40
1.125
309
GRIDFORMAT_END
 95
       32
302
GRIDFORMAT
  1
GRIDFORMAT_BEGIN
 90
        0
 91
        1
 62
     0
 92
       -2
340
0
 93
        0
 40
1.125
309
GRIDFORMAT_END
309
TABLEFORMAT_END
  1
CELLSTYLE_BEGIN
 90
        1
 91
        1
300
_TITLE
309
CELLSTYLE_END
300
CELLSTYLE
  1
TABLEFORMAT_BEGIN
 90
        5
170
     1
 91
        0
 92
        0
 62
   257
 93
        1
300
CONTENTFORMAT
  1
CONTENTFORMAT_BEGIN
 90
        0
 91
        0
 92
      512
 93
        0
300

 40
0.0
140
1.0
 94
        5
 62
     0
340
1C
144
4.5
309
CONTENTFORMAT_END
171
     1
301
MARGIN
  1
CELLMARGIN_BEGIN
 40
1.5
 40
1.5
 40
1.5
 40
1.5
 40
0.18
 40
0.18
309
CELLMARGIN_END
 94
        6
 95
        1
302
GRIDFORMAT
  1
GRIDFORMAT_BEGIN
 90
        0
 91
        1
 62
     0
 92
       -2
340
0
 93
        0
 40
1.125
309
GRIDFORMAT_END
 95
        2
302
GRIDFORMAT
  1
GRIDFORMAT_BEGIN
 90
        0
 91
        1
 62
     0
 92
       -2
340
0
 93
        0
 40
1.125
309
GRIDFORMAT_END
 95
        4
302
GRIDFORMAT
  1
GRIDFORMAT_BEGIN
 90
        0
 91
        1
 62
     0
 92
       -2
340
0
 93
        0
 40
1.125
309
GRIDFORMAT_END
 95
        8
302
GRIDFORMAT
  1
GRIDFORMAT_BEGIN
 90
        0
 91
        1
 62
     0
 92
       -2
340
0
 93
        0
 40
1.125
309
GRIDFORMAT_END
 95
       16
302
GRIDFORMAT
  1
GRIDFORMAT_BEGIN
 90
        0
 91
        1
 62
     0
 92
       -2
340
0
 93
        0
 40
1.125
309
GRIDFORMAT_END
 95
       32
302
GRIDFORMAT
  1
GRIDFORMAT_BEGIN
 90
        0
 91
        1
 62
     0
 92
       -2
340
0
 93
        0
 40
1.125
309
GRIDFORMAT_END
309
TABLEFORMAT_END
  1
CELLSTYLE_BEGIN
 90
        2
 91
        1
300
_HEADER
309
CELLSTYLE_END
300
CELLSTYLE
  1
TABLEFORMAT_BEGIN
 90
        5
170
     1
 91
        0
 92
        0
 62
   257
 93
        1
300
CONTENTFORMAT
  1
CONTENTFORMAT_BEGIN
 90
        0
 91
        0
 92
      512
 93
        0
300

 40
0.0
140
1.0
 94
        2
 62
     0
340
1C
144
4.5
309
CONTENTFORMAT_END
171
     1
301
MARGIN
  1
CELLMARGIN_BEGIN
 40
1.5
 40
1.5
 40
1.5
 40
1.5
 40
0.18
 40
0.18
309
CELLMARGIN_END
 94
        6
 95
        1
302
GRIDFORMAT
  1
GRIDFORMAT_BEGIN
 90
        0
 91
        1
 62
     0
 92
       -2
340
0
 93
        0
 40
1.125
309
GRIDFORMAT_END
 95
        2
302
GRIDFORMAT
  1
GRIDFORMAT_BEGIN
 90
        0
 91
        1
 62
     0
 92
       -2
340
0
 93
        0
 40
1.125
309
GRIDFORMAT_END
 95
        4
302
GRIDFORMAT
  1
GRIDFORMAT_BEGIN
 90
        0
 91
        1
 62
     0
 92
       -2
340
0
 93
        0
 40
1.125
309
GRIDFORMAT_END
 95
        8
302
GRIDFORMAT
  1
GRIDFORMAT_BEGIN
 90
        0
 91
        1
 62
     0
 92
       -2
340
0
 93
        0
 40
1.125
309
GRIDFORMAT_END
 95
       16
302
GRIDFORMAT
  1
GRIDFORMAT_BEGIN
 90
        0
 91
        1
 62
     0
 92
       -2
340
0
 93
        0
 40
1.125
309
GRIDFORMAT_END
 95
       32
302
GRIDFORMAT
  1
GRIDFORMAT_BEGIN
 90
        0
 91
        1
 62
     0
 92
       -2
340
0
 93
        0
 40
1.125
309
GRIDFORMAT_END
309
TABLEFORMAT_END
  1
CELLSTYLE_BEGIN
 90
        3
 91
        2
300
_DATA
309
CELLSTYLE_END
  0
XRECORD
  5
257
102
{ACAD_REACTORS
330
87
102
}
330
87
100
AcDbXrecord
280
     1
102
ACAD_ROUNDTRIP_PRE2007_TABLESTYLE
 90
      512
 91
        0
  1

 92
      512
 93
        0
  2

 94
      512
 95
        0
  3

  0
ENDSEC
  0
EOF
