  0
SECTION
  2
HEADER
  9
$ACADVER
  1
AC1015
  9
$ACADMAINTVER
 70
    20
  9
$DWGCODEPAGE
  3
ANSI_932
  9
$INSBASE
 10
0.0
 20
0.0
 30
0.0
  9
$EXTMIN
 10
27.51040046092936
 20
13.72838215662659
 30
-0.0015258207003583
  9
$EXTMAX
 10
146.7054015083691
 20
146.937403312354
 30
0.0000000349246037
  9
$LIMMIN
 10
0.0
 20
0.0
  9
$LIMMAX
 10
12.0
 20
9.0
  9
$ORTHOMODE
 70
     0
  9
$REGENMODE
 70
     1
  9
$FILLMODE
 70
     1
  9
$QTEXTMODE
 70
     0
  9
$MIRRTEXT
 70
     1
  9
$LTSCALE
 40
1.0
  9
$ATTMODE
 70
     1
  9
$TEXTSIZE
 40
0.7453317137339326
  9
$TRACEWID
 40
0.05
  9
$TEXTSTYLE
  7
ADESK1
  9
$CLAYER
  8
0
  9
$CELTYPE
  6
BYLAYER
  9
$CECOLOR
 62
   256
  9
$CELTSCALE
 40
1.0
  9
$DISPSILH
 70
     0
  9
$DIMSCALE
 40
1.0
  9
$DIMASZ
 40
3.0
  9
$DIMEXO
 40
2.0
  9
$DIMDLI
 40
1.0
  9
$DIMRND
 40
0.0
  9
$DIMDLE
 40
0.0
  9
$DIMEXE
 40
0.0
  9
$DIMTP
 40
0.0
  9
$DIMTM
 40
0.0
  9
$DIMTXT
 40
2.799999999999999
  9
$DIMCEN
 40
2.0
  9
$DIMTSZ
 40
0.0
  9
$DIMTOL
 70
     0
  9
$DIMLIM
 70
     0
  9
$DIMTIH
 70
     0
  9
$DIMTOH
 70
     0
  9
$DIMSE1
 70
     0
  9
$DIMSE2
 70
     0
  9
$DIMTAD
 70
     1
  9
$DIMZIN
 70
     8
  9
$DIMBLK
  1

  9
$DIMASO
 70
     1
  9
$DIMSHO
 70
     1
  9
$DIMPOST
  1

  9
$DIMAPOST
  1

  9
$DIMALT
 70
     0
  9
$DIMALTD
 70
     3
  9
$DIMALTF
 40
0.03937007874016
  9
$DIMLFAC
 40
1.0
  9
$DIMTOFL
 70
     1
  9
$DIMTVP
 40
0.0
  9
$DIMTIX
 70
     0
  9
$DIMSOXD
 70
     1
  9
$DIMSAH
 70
     0
  9
$DIMBLK1
  1

  9
$DIMBLK2
  1

  9
$DIMSTYLE
  2
mihasi
  9
$DIMCLRD
 70
     2
  9
$DIMCLRE
 70
     2
  9
$DIMCLRT
 70
     2
  9
$DIMTFAC
 40
1.0
  9
$DIMGAP
 40
1.0
  9
$DIMJUST
 70
     0
  9
$DIMSD1
 70
     0
  9
$DIMSD2
 70
     0
  9
$DIMTOLJ
 70
     0
  9
$DIMTZIN
 70
     8
  9
$DIMALTZ
 70
     0
  9
$DIMALTTZ
 70
     0
  9
$DIMUPT
 70
     1
  9
$DIMDEC
 70
     3
  9
$DIMTDEC
 70
     3
  9
$DIMALTU
 70
     2
  9
$DIMALTTD
 70
     3
  9
$DIMTXSTY
  7
STANDARD
  9
$DIMAUNIT
 70
     0
  9
$DIMADEC
 70
     1
  9
$DIMALTRND
 40
0.0
  9
$DIMAZIN
 70
     2
  9
$DIMDSEP
 70
    46
  9
$DIMATFIT
 70
     0
  9
$DIMFRAC
 70
     0
  9
$DIMLDRBLK
  1

  9
$DIMLUNIT
 70
     2
  9
$DIMLWD
 70
    -2
  9
$DIMLWE
 70
    -2
  9
$DIMTMOVE
 70
     1
  9
$LUNITS
 70
     2
  9
$LUPREC
 70
     4
  9
$SKETCHINC
 40
0.1
  9
$FILLETRAD
 40
42.0
  9
$AUNITS
 70
     0
  9
$AUPREC
 70
     0
  9
$MENU
  1
.
  9
$ELEVATION
 40
0.0
  9
$PELEVATION
 40
0.0
  9
$THICKNESS
 40
0.0
  9
$LIMCHECK
 70
     0
  9
$CHAMFERA
 40
0.0
  9
$CHAMFERB
 40
0.0
  9
$CHAMFERC
 40
1.0
  9
$CHAMFERD
 40
0.0
  9
$SKPOLY
 70
     0
  9
$TDCREATE
 40
2454700.465712893
  9
$TDUCREATE
 40
2454700.090712893
  9
$TDUPDATE
 40
2454816.728488773
  9
$TDUUPDATE
 40
2454816.353488773
  9
$TDINDWG
 40
2.5452375694
  9
$TDUSRTIMER
 40
2.5450082986
  9
$USRTIMER
 70
     1
  9
$ANGBASE
 50
0.0
  9
$ANGDIR
 70
     0
  9
$PDMODE
 70
     0
  9
$PDSIZE
 40
0.0
  9
$PLINEWID
 40
0.0
  9
$SPLFRAME
 70
     0
  9
$SPLINETYPE
 70
     6
  9
$SPLINESEGS
 70
     8
  9
$HANDSEED
  5
21C
  9
$SURFTAB1
 70
     6
  9
$SURFTAB2
 70
     6
  9
$SURFTYPE
 70
     6
  9
$SURFU
 70
     6
  9
$SURFV
 70
     6
  9
$UCSBASE
  2

  9
$UCSNAME
  2

  9
$UCSORG
 10
0.0
 20
0.0
 30
0.0
  9
$UCSXDIR
 10
1.0
 20
0.0
 30
0.0
  9
$UCSYDIR
 10
0.0
 20
1.0
 30
0.0
  9
$UCSORTHOREF
  2

  9
$UCSORTHOVIEW
 70
     0
  9
$UCSORGTOP
 10
0.0
 20
0.0
 30
0.0
  9
$UCSORGBOTTOM
 10
0.0
 20
0.0
 30
0.0
  9
$UCSORGLEFT
 10
0.0
 20
0.0
 30
0.0
  9
$UCSORGRIGHT
 10
0.0
 20
0.0
 30
0.0
  9
$UCSORGFRONT
 10
0.0
 20
0.0
 30
0.0
  9
$UCSORGBACK
 10
0.0
 20
0.0
 30
0.0
  9
$PUCSBASE
  2

  9
$PUCSNAME
  2

  9
$PUCSORG
 10
0.0
 20
0.0
 30
0.0
  9
$PUCSXDIR
 10
1.0
 20
0.0
 30
0.0
  9
$PUCSYDIR
 10
0.0
 20
1.0
 30
0.0
  9
$PUCSORTHOREF
  2

  9
$PUCSORTHOVIEW
 70
     0
  9
$PUCSORGTOP
 10
0.0
 20
0.0
 30
0.0
  9
$PUCSORGBOTTOM
 10
0.0
 20
0.0
 30
0.0
  9
$PUCSORGLEFT
 10
0.0
 20
0.0
 30
0.0
  9
$PUCSORGRIGHT
 10
0.0
 20
0.0
 30
0.0
  9
$PUCSORGFRONT
 10
0.0
 20
0.0
 30
0.0
  9
$PUCSORGBACK
 10
0.0
 20
0.0
 30
0.0
  9
$USERI1
 70
     0
  9
$USERI2
 70
     0
  9
$USERI3
 70
     0
  9
$USERI4
 70
     0
  9
$USERI5
 70
     0
  9
$USERR1
 40
0.0
  9
$USERR2
 40
0.0
  9
$USERR3
 40
0.0
  9
$USERR4
 40
0.0
  9
$USERR5
 40
0.0
  9
$WORLDVIEW
 70
     1
  9
$SHADEDGE
 70
     3
  9
$SHADEDIF
 70
    70
  9
$TILEMODE
 70
     1
  9
$MAXACTVP
 70
    48
  9
$PINSBASE
 10
0.0
 20
0.0
 30
0.0
  9
$PLIMCHECK
 70
     0
  9
$PEXTMIN
 10
48.24483585132748
 20
44.18687850080998
 30
0.0
  9
$PEXTMAX
 10
154.2448358513275
 20
152.18687850081
 30
0.0
  9
$PLIMMIN
 10
-5.873748779296875
 20
-5.873749732971191
  9
$PLIMMAX
 10
291.1369018554688
 20
204.0995779037475
  9
$UNITMODE
 70
     0
  9
$VISRETAIN
 70
     1
  9
$PLINEGEN
 70
     0
  9
$PSLTSCALE
 70
     1
  9
$TREEDEPTH
 70
  3020
  9
$CMLSTYLE
  2
STANDARD
  9
$CMLJUST
 70
     0
  9
$CMLSCALE
 40
1.0
  9
$PROXYGRAPHICS
 70
     1
  9
$MEASUREMENT
 70
     1
  9
$CELWEIGHT
370
    -1
  9
$ENDCAPS
280
     0
  9
$JOINSTYLE
280
     0
  9
$LWDISPLAY
290
     0
  9
$INSUNITS
 70
     0
  9
$HYPERLINKBASE
  1

  9
$STYLESHEET
  1
monochrome.ctb
  9
$XEDIT
290
     1
  9
$CEPSNTYPE
380
     0
  9
$PSTYLEMODE
290
     1
  9
$FINGERPRINTGUID
  2
{548B8910-53CE-486A-9D04-420E8C0C4E20}
  9
$VERSIONGUID
  2
{EABF5512-CF08-4F55-9744-C34BF07EA98F}
  9
$EXTNAMES
290
     1
  9
$PSVPSCALE
 40
0.0
  9
$OLESTARTUP
290
     0
  0
ENDSEC
  0
SECTION
  2
CLASSES
  0
CLASS
  1
ACMESTATEMGR
  2
AcMeStateMgr
  3
AcMeServices
 90
    32768
280
     1
281
     0
  0
CLASS
  1
ACMESCOPE
  2
AcMeScope
  3
AcMeServices
 90
    32768
280
     1
281
     0
  0
CLASS
  1
ACMECOMMANDHISTORY
  2
AcMeCommandHistory
  3
AcMeServices
 90
    32768
280
     1
281
     0
  0
CLASS
  1
AcRfInsAdjusterMgr
  2
AcRfInsAdjusterMgr
  3
AcMeServices
 90
    32768
280
     1
281
     0
  0
CLASS
  1
ACMEDRAWINGMAN
  2
AcMeDrawingMan
  3
AcMeServices
 90
    32768
280
     1
281
     0
  0
CLASS
  1
AMATTR
  2
AcMeAttribute
  3
AcMeServices
 90
    32768
280
     1
281
     0
  0
CLASS
  1
ACMEBOMCOLUMN
  2
AcMeBOMColumn
  3
AcMeServices
 90
    32768
280
     1
281
     0
  0
CLASS
  1
ACANBOMCONF
  2
AcMeBOMConf
  3
AcMeServices
 90
    32768
280
     1
281
     0
  0
CLASS
  1
ACMEBOMTABLE
  2
AcMeBOMTable
  3
AcMeServices
 90
    32768
280
     1
281
     0
  0
CLASS
  1
ACMEBOMENTRY
  2
AcMeBOMEntry
  3
AcMeServices
 90
    32768
280
     1
281
     0
  0
CLASS
  1
ACMEVIEW
  2
AcMeView
  3
AcMeServices
 90
    32768
280
     1
281
     0
  0
CLASS
  1
ACGREFMASTER
  2
AcGrefMaster
  3
AcAttribServices
 90
    32768
280
     1
281
     0
  0
CLASS
  1
AmiMaster
  2
AmiMaster
  3
AmiServices
 90
    32768
280
     1
281
     0
  0
CLASS
  1
ACASGREFMASTER
  2
AcAsGrefMaster
  3
AutoSurfResolverServices
 90
    32768
280
     1
281
     0
  0
CLASS
  1
ADAPPL
  2
AcAdAppl
  3
DesignerServices
 90
    32768
280
     1
281
     0
  0
CLASS
  1
DEPMGR
  2
AcAdDepMgr
  3
DesignerServices
 90
    32768
280
     1
281
     0
  0
CLASS
  1
PARAMMGR
  2
AcAdParamMgr
  3
DesignerServices
 90
    32768
280
     1
281
     0
  0
CLASS
  1
PARAMSCOPE
  2
AcAdParamScope
  3
DesignerServices
 90
    32768
280
     1
281
     0
  0
CLASS
  1
ACIMSYSVARMAN
  2
AcImSysVarManager
  3
AcMeServices
 90
    32768
280
     1
281
     0
  0
CLASS
  1
ACIMINTSYSVAR
  2
AcImIntSysVar
  3
AcMeServices
 90
    32768
280
     1
281
     0
  0
CLASS
  1
ACIMREALSYSVAR
  2
AcImRealSysVar
  3
AcMeServices
 90
    32768
280
     1
281
     0
  0
CLASS
  1
ACIMSTRSYSVAR
  2
AcImStrSysVar
  3
AcMeServices
 90
    32768
280
     1
281
     0
  0
CLASS
  1
NAMEDAPPL
  2
AcAdNamedAppl
  3
DesignerServices
 90
    32768
280
     1
281
     0
  0
CLASS
  1
ADHNTMPLT
  2
AdHoleNoteTemplateMgr
  3
DesignerServices
 90
    32768
280
     1
281
     0
  0
CLASS
  1
AM_HNTEMPLATE_MGR_NAME
  2
AdHoleNoteTemplateMgrName
  3
DesignerServices
 90
    32768
280
     1
281
     0
  0
CLASS
  1
AcAdGrefModule
  2
AcAdGrefModule
  3
AdGrefServices
 90
    32768
280
     1
281
     0
  0
CLASS
  1
AM_DRAWING_MGR
  2
AcDmDwgMgr
  3
AcMechDwgViewMgmt
 90
    32768
280
     1
281
     0
  0
CLASS
  1
AM_DWG_DOCUMENT
  2
AcDmDwgDocument
  3
AcMechDwgViewMgmt
 90
    32768
280
     1
281
     0
  0
CLASS
  1
AM_DWG_SHEET
  2
AcDmSheet
  3
AcMechDwgViewMgmt
 90
    32768
280
     1
281
     0
  0
CLASS
  1
AM_VIEWDIMPARMAP
  2
AcDmViewDimParMap
  3
AcMechDwgViewMgmt
 90
    32768
280
     1
281
     0
  0
CLASS
  1
AM_DWGMGR_NAME
  2
AcDmDwgMgrName
  3
AcMechDwgViewMgmt
 90
    32768
280
     1
281
     0
  0
CLASS
  1
ACAMPROJECT
  2
AcAmProject
  3
DesignerAssemblies
 90
    32768
280
     1
281
     0
  0
CLASS
  1
ACAMGRCOMPSET
  2
AcAmGrCompSet
  3
DesignerAssemblies
 90
    32768
280
     1
281
     0
  0
CLASS
  1
ACAMGRCOMPDEFSET
  2
AcAmGrCompDefSet
  3
DesignerAssemblies
 90
    32768
280
     1
281
     0
  0
CLASS
  1
ACAMGRCOMPDEF
  2
AcAmGrCompDef
  3
DesignerAssemblies
 90
    32768
280
     1
281
     0
  0
CLASS
  1
ACCMCONTEXT
  2
AcCmContext
  3
DesignerAssemblies
 90
    32768
280
     1
281
     0
  0
CLASS
  1
ACAMCOMPDEF
  2
AcAmCompDef
  3
DesignerAssemblies
 90
    32768
280
     1
281
     0
  0
CLASS
  1
ACAMCOMPDEFMGR
  2
AcAmCompDefMgr
  3
DesignerAssemblies
 90
    32768
280
     1
281
     0
  0
CLASS
  1
AMCONTEXTMGR
  2
AcAmContextMgr
  3
DesignerAssemblies
 90
    32768
280
     1
281
     0
  0
CLASS
  1
ACAMCONTEXTMODELER
  2
AcAmContextModeler
  3
DesignerAssemblies
 90
    32768
280
     1
281
     0
  0
CLASS
  1
ACDMVIEWGEOM
  2
AcDmViewGeometry
  3
AcMechDwgViewMgmt
 90
    32768
280
     1
281
     1
  0
CLASS
  1
CBrowserAppObject
  2
CBrowserAppObject
  3
McadcomServices
 90
    32768
280
     1
281
     0
  0
CLASS
  1
IM_STATIC_MAN
  2
AcImStaticVarManager
  3
AcMeServices
 90
    32768
280
     1
281
     0
  0
CLASS
  1
ASAPP
  2
AcAsAppObject
  3
AutoSurfServices
 90
    32768
280
     1
281
     0
  0
CLASS
  1
ACIMDBLSTATICVAR
  2
AcImDblStaticVar
  3
AcMeServices
 90
    32768
280
     1
281
     0
  0
CLASS
  1
ACIMSTRSTATICVAR
  2
AcImStrStaticVar
  3
AcMeServices
 90
    32768
280
     1
281
     0
  0
CLASS
  1
ACIMINTSTATICVAR
  2
AcImIntStaticVar
  3
AcMeServices
 90
    32768
280
     1
281
     0
  0
CLASS
  1
CATALOGSTATE
  2
AcAmCatalogState
  3
DesignerAssemblies
 90
    32768
280
     1
281
     0
  0
CLASS
  1
DM_PLACEHOLDER
  2
AcDmSelsetPlaceholder
  3
AcMechDwgViewMgmt
 90
    32768
280
     1
281
     0
  0
CLASS
  1
DICTIONARYVAR
  2
AcDbDictionaryVar
  3
ObjectDBX Classes
 90
        0
280
     0
281
     0
  0
CLASS
  1
ACMSTANDARDJIS
  2
AcmStandardJIS
  3
"AcmSymBB|Product Description: AutoCAD Mechanical 2000|Company: Autodesk"
 90
    32768
280
     1
281
     0
  0
CLASS
  1
ACMSTANDARDANSI
  2
AcmStandardANSI
  3
"AcmSymBB|Product Description: AutoCAD Mechanical 2000|Company: Autodesk"
 90
    32768
280
     1
281
     0
  0
CLASS
  1
ACMSTANDARDBSI
  2
AcmStandardBSI
  3
"AcmSymBB|Product Description: AutoCAD Mechanical 2000|Company: Autodesk"
 90
    32768
280
     1
281
     0
  0
CLASS
  1
ACMSTANDARDDIN
  2
AcmStandardDIN
  3
"AcmSymBB|Product Description: AutoCAD Mechanical 2000|Company: Autodesk"
 90
    32768
280
     1
281
     0
  0
CLASS
  1
ACMSTANDARDISO
  2
AcmStandardISO
  3
"AcmSymBB|Product Description: AutoCAD Mechanical 2000|Company: Autodesk"
 90
    32768
280
     1
281
     0
  0
CLASS
  1
LAYER_INDEX
  2
AcDbLayerIndex
  3
ObjectDBX Classes
 90
    32768
280
     0
281
     0
  0
CLASS
  1
IDBUFFER
  2
AcDbIdBuffer
  3
ObjectDBX Classes
 90
    32768
280
     0
281
     0
  0
CLASS
  1
ACDBDICTIONARYWDFLT
  2
AcDbDictionaryWithDefault
  3
ObjectDBX Classes
 90
        0
280
     0
281
     0
  0
CLASS
  1
ACDBPLACEHOLDER
  2
AcDbPlaceHolder
  3
ObjectDBX Classes
 90
        0
280
     0
281
     0
  0
CLASS
  1
LAYOUT
  2
AcDbLayout
  3
ObjectDBX Classes
 90
        0
280
     0
281
     0
  0
CLASS
  1
ACME_DOCUMENT
  2
AcMeDbDoc
  3
AcMeServices
 90
    32768
280
     1
281
     0
  0
CLASS
  1
AMGSETTINGSOBJ
  2
AmgSettingsObj
  3
"AcadM|Product Description: AutoCAD Mechanical 2000|Company: Autodesk"
 90
    32768
280
     1
281
     0
  0
CLASS
  1
AMGOBJPROPCFG
  2
AmgObjPropCfg
  3
"AmgLay|Product Description: AutoCAD Mechanical 2000|Company: Autodesk"
 90
    32769
280
     1
281
     0
  0
CLASS
  1
ACDBENTITYCACHE
  2
AcMeEntityCache
  3
AcMeServices
 90
    32768
280
     1
281
     0
  0
CLASS
  1
GSMANAGER
  2
AcMeGSManager
  3
AcMeServices
 90
    32768
280
     1
281
     0
  0
CLASS
  1
AmdtInternalReactor
  2
AmdtInternalReactor
  3
AcMeServices
 90
    32768
280
     1
281
     0
  0
CLASS
  1
ACME_DATABASE
  2
AcMeDbDatabase
  3
AcMeServices
 90
    32768
280
     1
281
     0
  0
CLASS
  1
ACGREFMASTER
  2
AcGrefacadMaster
  3
AcGrefServices
 90
    32768
280
     1
281
     0
  0
CLASS
  1
AMDTMENUSTATEMGR
  2
AmdtMenuStateMgr
  3
McadcomServices
 90
    32768
280
     1
281
     0
  0
CLASS
  1
AMDTMCOMMENUSTATE
  2
AmdtMcomMenuState
  3
McadcomServices
 90
    32768
280
     1
281
     0
  0
CLASS
  1
MAPIADMODULE
  2
MApiAdModule
  3
MApiAdServices
 90
    32768
280
     1
281
     0
  0
CLASS
  1
AMDTDMMENUSTATE
  2
AmdtDmMenuState
  3
AcMechDwgViewMgmt
 90
    32768
280
     1
281
     0
  0
CLASS
  1
AMDTADMENUSTATE
  2
AmdtAdMenuState
  3
DesignerServices
 90
    32768
280
     1
281
     0
  0
CLASS
  1
AMDTAMMENUSTATE
  2
AmdtAmMenuState
  3
DesignerAssemblies
 90
    32768
280
     1
281
     0
  0
CLASS
  1
ACMDATADICTIONARY
  2
AcmDataDictionary
  3
"AcmSymBB|Product Description: AutoCAD Mechanical 2000|Company: Autodesk"
 90
    32768
280
     1
281
     0
  0
CLASS
  1
ACMDATAENTRYBLOCK
  2
AcmDataEntryBlock
  3
"AcmSymBB|Product Description: AutoCAD Mechanical 2000|Company: Autodesk"
 90
    32768
280
     1
281
     0
  0
CLASS
  1
AMDTBROWSERDBTAB
  2
AmdtBrowserDbTab
  3
McadcomServices
 90
    32768
280
     1
281
     0
  0
CLASS
  1
ACAMGFILTERDAT
  2
AcAmgFilterDat
  3
"AcadM|Product Description: AutoCAD Mechanical 2000|Company: Autodesk"
 90
    32768
280
     1
281
     0
  0
CLASS
  1
MAPIAMMOUDLE
  2
MApiAmModule
  3
MApiAmServices
 90
    32768
280
     1
281
     0
  0
CLASS
  1
ACRFATTGENMGR
  2
AcRfAttGeneralMgr
  3
AcAttribServices
 90
    32768
280
     1
281
     0
  0
CLASS
  1
MATERIAL
  2
AcDbMaterial
  3
ObjectDBX Classes
 90
     1153
280
     0
281
     0
  0
CLASS
  1
VISUALSTYLE
  2
AcDbVisualStyle
  3
ObjectDBX Classes
 90
     4095
280
     0
281
     0
  0
CLASS
  1
TABLESTYLE
  2
AcDbTableStyle
  3
ObjectDBX Classes
 90
     4095
280
     0
281
     0
  0
CLASS
  1
SCALE
  2
AcDbScale
  3
ObjectDBX Classes
 90
     1153
280
     0
281
     0
  0
CLASS
  1
MLEADERSTYLE
  2
AcDbMLeaderStyle
  3
ACDB_MLEADERSTYLE_CLASS
 90
     4095
280
     0
281
     0
  0
CLASS
  1
CELLSTYLEMAP
  2
AcDbCellStyleMap
  3
ObjectDBX Classes
 90
     1152
280
     0
281
     0
  0
CLASS
  1
SORTENTSTABLE
  2
AcDbSortentsTable
  3
ObjectDBX Classes
 90
        0
280
     0
281
     0
  0
ENDSEC
  0
SECTION
  2
TABLES
  0
TABLE
  2
VPORT
  5
23
330
0
100
AcDbSymbolTable
 70
     1
  0
VPORT
  5
24
330
23
100
AcDbSymbolTableRecord
100
AcDbViewportTableRecord
  2
*Active
 70
     0
 10
0.0
 20
0.0
 11
1.0
 21
1.0
 12
99.70349615611098
 22
11.18397188219103
 13
0.0
 23
0.0
 14
0.5
 24
0.5
 15
0.5
 25
0.5
 16
0.0
 26
0.0
 36
1.0
 17
0.0
 27
0.0
 37
0.0
 40
388.8602534021655
 41
1.284030010718113
 42
50.0
 43
0.0
 44
0.0
 50
0.0
 51
0.0
 71
     0
 72
   100
 73
     1
 74
     1
 75
     0
 76
     0
 77
     0
 78
     0
281
     0
 65
     0
110
0.0
120
0.0
130
0.0
111
1.0
121
0.0
131
0.0
112
0.0
122
1.0
132
0.0
 79
     0
146
0.0
  0
ENDTAB
  0
TABLE
  2
LTYPE
  5
1E
330
0
100
AcDbSymbolTable
 70
     1
  0
LTYPE
  5
1F
330
1E
100
AcDbSymbolTableRecord
100
AcDbLinetypeTableRecord
  2
BYBLOCK
 70
     0
  3

 72
    65
 73
     0
 40
0.0
  0
LTYPE
  5
20
330
1E
100
AcDbSymbolTableRecord
100
AcDbLinetypeTableRecord
  2
BYLAYER
 70
     0
  3

 72
    65
 73
     0
 40
0.0
  0
LTYPE
  5
12
330
1E
100
AcDbSymbolTableRecord
100
AcDbLinetypeTableRecord
  2
CONTINUOUS
 70
     0
  3
Solid line
 72
    65
 73
     0
 40
0.0
  0
ENDTAB
  0
TABLE
  2
LAYER
  5
1A
330
0
100
AcDbSymbolTable
 70
     4
  0
LAYER
  5
5
102
{ACAD_XDICTIONARY
360
C2
102
}
330
1A
100
AcDbSymbolTableRecord
100
AcDbLayerTableRecord
  2
0
 70
     0
 62
     7
  6
CONTINUOUS
370
    -3
390
6
  0
LAYER
  5
A8
330
1A
100
AcDbSymbolTableRecord
100
AcDbLayerTableRecord
  2
Defpoints
 70
     0
 62
     7
  6
CONTINUOUS
290
     0
370
    -3
390
6
  0
LAYER
  5
1BC
102
{ACAD_XDICTIONARY
360
1BD
102
}
330
1A
100
AcDbSymbolTableRecord
100
AcDbLayerTableRecord
  2
HOJO
 70
     0
 62
     3
  6
CONTINUOUS
370
    35
390
6
  0
LAYER
  5
1BE
102
{ACAD_XDICTIONARY
360
1BF
102
}
330
1A
100
AcDbSymbolTableRecord
100
AcDbLayerTableRecord
  2
WAKU
 70
     0
 62
     1
  6
CONTINUOUS
370
    35
390
6
  0
ENDTAB
  0
TABLE
  2
STYLE
  5
1B
330
0
100
AcDbSymbolTable
 70
     4
  0
STYLE
  5
1C
330
1B
100
AcDbSymbolTableRecord
100
AcDbTextStyleTableRecord
  2
STANDARD
 70
     0
 40
0.0
 41
1.0
 50
0.0
 71
     0
 42
0.2
  3
txt
  4

  0
STYLE
  5
43
330
1B
100
AcDbSymbolTableRecord
100
AcDbTextStyleTableRecord
  2
ADESK1
 70
     0
 40
0.0
 41
1.0
 50
0.0
 71
     0
 42
0.7453317137339326
  3
romans.shx
  4
bigfont.shx
  0
STYLE
  5
1C0
330
1B
100
AcDbSymbolTableRecord
100
AcDbTextStyleTableRecord
  2
SUNPOU
 70
     0
 40
0.0
 41
1.0
 50
0.0
 71
     0
 42
30.0
  3
txt
  4
bigfont
  0
ENDTAB
  0
TABLE
  2
VIEW
  5
21
330
0
100
AcDbSymbolTable
 70
     0
  0
ENDTAB
  0
TABLE
  2
UCS
  5
22
330
0
100
AcDbSymbolTable
 70
     0
  0
ENDTAB
  0
TABLE
  2
APPID
  5
27
330
0
100
AcDbSymbolTable
 70
     3
  0
APPID
  5
28
330
27
100
AcDbSymbolTableRecord
100
AcDbRegAppTableRecord
  2
ACAD
 70
     0
  0
APPID
  5
A0
330
27
100
AcDbSymbolTableRecord
100
AcDbRegAppTableRecord
  2
ACAD_MLEADERVER
 70
     0
  0
APPID
  5
202
330
27
100
AcDbSymbolTableRecord
100
AcDbRegAppTableRecord
  2
ACAD_PSEXT
 70
     0
  0
ENDTAB
  0
TABLE
  2
DIMSTYLE
  5
29
330
0
100
AcDbSymbolTable
 70
     3
100
AcDbDimStyleTable
 71
     2
340
2A
340
2B
  0
DIMSTYLE
105
2B
330
29
100
AcDbSymbolTableRecord
100
AcDbDimStyleTableRecord
  2
STANDARD
 70
     0
340
1C
  0
DIMSTYLE
105
2A
102
{ACAD_REACTORS
330
17A
330
187
102
}
330
29
100
AcDbSymbolTableRecord
100
AcDbDimStyleTableRecord
  2
mihasi
 70
     0
 41
3.0
 42
2.0
 43
1.0
 44
0.0
 73
     0
 74
     0
 77
     1
 78
     8
 79
     2
140
2.799999999999999
141
2.0
143
0.03937007874016
147
1.0
171
     3
172
     1
175
     1
176
     2
177
     2
178
     2
179
     1
271
     3
272
     3
274
     3
279
     1
283
     0
284
     8
288
     1
289
     0
340
1C
  0
ENDTAB
  0
TABLE
  2
BLOCK_RECORD
  5
1
330
0
100
AcDbSymbolTable
 70
    16
  0
BLOCK_RECORD
  5
2
102
{ACAD_XDICTIONARY
360
3
102
}
330
1
100
AcDbSymbolTableRecord
100
AcDbBlockTableRecord
  2
*MODEL_SPACE
340
14
  0
BLOCK_RECORD
  5
16
330
1
100
AcDbSymbolTableRecord
100
AcDbBlockTableRecord
  2
*PAPER_SPACE
340
19
  0
BLOCK_RECORD
  5
A9
330
1
100
AcDbSymbolTableRecord
100
AcDbBlockTableRecord
  2
*D0
340
0
  0
BLOCK_RECORD
  5
B6
330
1
100
AcDbSymbolTableRecord
100
AcDbBlockTableRecord
  2
*D1
340
0
  0
BLOCK_RECORD
  5
FE
330
1
100
AcDbSymbolTableRecord
100
AcDbBlockTableRecord
  2
*D2
340
0
  0
BLOCK_RECORD
  5
10A
330
1
100
AcDbSymbolTableRecord
100
AcDbBlockTableRecord
  2
*D3
340
0
  0
BLOCK_RECORD
  5
13C
330
1
100
AcDbSymbolTableRecord
100
AcDbBlockTableRecord
  2
*D4
340
0
  0
BLOCK_RECORD
  5
149
330
1
100
AcDbSymbolTableRecord
100
AcDbBlockTableRecord
  2
*D5
340
0
  0
BLOCK_RECORD
  5
17B
330
1
100
AcDbSymbolTableRecord
100
AcDbBlockTableRecord
  2
*D6
340
0
  0
BLOCK_RECORD
  5
188
330
1
100
AcDbSymbolTableRecord
100
AcDbBlockTableRecord
  2
*D7
340
0
  0
BLOCK_RECORD
  5
194
102
{ACAD_XDICTIONARY
360
195
102
}
330
1
100
AcDbSymbolTableRecord
100
AcDbBlockTableRecord
  2
11-6
340
0
  0
BLOCK_RECORD
  5
19E
330
1
100
AcDbSymbolTableRecord
100
AcDbBlockTableRecord
  2
*D9
340
0
  0
BLOCK_RECORD
  5
1AA
330
1
100
AcDbSymbolTableRecord
100
AcDbBlockTableRecord
  2
*D10
340
0
  0
BLOCK_RECORD
  5
1B6
102
{ACAD_XDICTIONARY
360
1B7
102
}
330
1
100
AcDbSymbolTableRecord
100
AcDbBlockTableRecord
  2
111-6
340
0
  0
BLOCK_RECORD
  5
1C1
102
{ACAD_XDICTIONARY
360
1CA
102
}
330
1
100
AcDbSymbolTableRecord
100
AcDbBlockTableRecord
  2
○SF111
340
0
  0
BLOCK_RECORD
  5
1D7
330
1
100
AcDbSymbolTableRecord
100
AcDbBlockTableRecord
  2
*D13
340
0
  0
BLOCK_RECORD
  5
1E3
330
1
100
AcDbSymbolTableRecord
100
AcDbBlockTableRecord
  2
*D14
340
0
  0
ENDTAB
  0
ENDSEC
  0
SECTION
  2
BLOCKS
  0
BLOCK
  5
4
330
2
100
AcDbEntity
  8
0
100
AcDbBlockBegin
  2
*MODEL_SPACE
 70
     0
 10
0.0
 20
0.0
 30
0.0
  3
*MODEL_SPACE
  1

  0
ENDBLK
  5
13
330
2
100
AcDbEntity
  8
0
100
AcDbBlockEnd
  0
BLOCK
  5
17
330
16
100
AcDbEntity
 67
     1
  8
0
100
AcDbBlockBegin
  2
*PAPER_SPACE
 70
     0
 10
0.0
 20
0.0
 30
0.0
  3
*PAPER_SPACE
  1

  0
ENDBLK
  5
18
330
16
100
AcDbEntity
 67
     1
  8
0
100
AcDbBlockEnd
  0
BLOCK
  5
AA
330
A9
100
AcDbEntity
  8
0
100
AcDbBlockBegin
  2
*D0
 70
     1
 10
0.0
 20
0.0
 30
0.0
  3
*D0
  1

  0
LINE
  5
CB
330
A9
100
AcDbEntity
  8
0
 62
     2
370
    -2
100
AcDbLine
 10
25.98247737955794
 20
35.37634999541868
 30
0.0
 11
25.98247737955794
 21
160.6592485601905
 31
0.0
  0
LINE
  5
CC
330
A9
100
AcDbEntity
  8
0
 62
     2
370
    -2
100
AcDbLine
 10
133.9824773795579
 20
141.3763499954186
 30
0.0
 11
133.9824773795579
 21
160.6592485601905
 31
0.0
  0
LINE
  5
CD
330
A9
100
AcDbEntity
  8
0
 62
     2
370
    -2
100
AcDbLine
 10
28.98247737955794
 20
160.6592485601905
 30
0.0
 11
130.9824773795579
 21
160.6592485601905
 31
0.0
  0
MTEXT
  5
CE
330
A9
100
AcDbEntity
  8
0
 62
     2
100
AcDbMText
 10
107.4404749009893
 20
163.0592485601905
 30
0.0
 40
2.799999999999999
 41
0.0
 71
     5
 72
     1
  1
108
 73
     1
 44
1.0
1001
ACAD
1000
MTEXTBEGIN
1070
    73
1070
     1
1070
    44
1040
1.0
1070
    74
1070
     0
1000
MTEXTEND
  0
SOLID
  5
CF
330
A9
100
AcDbEntity
  8
0
 62
     2
100
AcDbTrace
 10
28.98247737955794
 20
161.1592485601905
 30
0.0
 11
28.98247737955794
 21
160.1592485601905
 31
0.0
 12
25.98247737955794
 22
160.6592485601905
 32
0.0
 13
25.98247737955794
 23
160.6592485601905
 33
0.0
  0
SOLID
  5
D0
330
A9
100
AcDbEntity
  8
0
 62
     2
100
AcDbTrace
 10
130.9824773795579
 20
161.1592485601905
 30
0.0
 11
130.9824773795579
 21
160.1592485601905
 31
0.0
 12
133.9824773795579
 22
160.6592485601905
 32
0.0
 13
133.9824773795579
 23
160.6592485601905
 33
0.0
  0
POINT
  5
D1
330
A9
100
AcDbEntity
  8
Defpoints
 62
     0
100
AcDbPoint
 10
25.98247737955794
 20
33.37634999541868
 30
0.0
  0
POINT
  5
D2
330
A9
100
AcDbEntity
  8
Defpoints
 62
     0
100
AcDbPoint
 10
133.9824773795579
 20
139.3763499954186
 30
0.0
  0
POINT
  5
D3
330
A9
100
AcDbEntity
  8
Defpoints
 62
     0
100
AcDbPoint
 10
133.9824773795579
 20
160.6592485601905
 30
0.0
  0
ENDBLK
  5
AB
330
A9
100
AcDbEntity
  8
0
100
AcDbBlockEnd
  0
BLOCK
  5
B7
330
B6
100
AcDbEntity
  8
0
100
AcDbBlockBegin
  2
*D1
 70
     1
 10
0.0
 20
0.0
 30
0.0
  3
*D1
  1

  0
LINE
  5
D4
330
B6
100
AcDbEntity
  8
0
 62
     2
370
    -2
100
AcDbLine
 10
27.98247737955794
 20
33.37634999541868
 30
0.0
 11
141.9427267660404
 21
33.37634999541865
 31
0.0
  0
LINE
  5
D5
330
B6
100
AcDbEntity
  8
0
 62
     2
370
    -2
100
AcDbLine
 10
135.9824773795579
 20
139.3763499954186
 30
0.0
 11
141.9427267660405
 21
139.3763499954186
 31
0.0
  0
LINE
  5
D6
330
B6
100
AcDbEntity
  8
0
 62
     2
370
    -2
100
AcDbLine
 10
141.9427267660404
 20
36.37634999541865
 30
0.0
 11
141.9427267660405
 21
136.3763499954186
 31
0.0
  0
MTEXT
  5
D7
330
B6
100
AcDbEntity
  8
0
 62
     2
100
AcDbMText
 10
139.5427267660405
 20
117.5131713954565
 30
0.0
 40
2.799999999999999
 41
0.0
 71
     5
 72
     1
  1
106
 11
0.0000000000000001
 21
1.0
 31
0.0
 73
     1
 44
1.0
1001
ACAD
1000
MTEXTBEGIN
1070
    73
1070
     1
1070
    44
1040
1.0
1070
    74
1070
     0
1000
MTEXTEND
  0
SOLID
  5
D8
330
B6
100
AcDbEntity
  8
0
 62
     2
100
AcDbTrace
 10
141.4427267660404
 20
36.37634999541865
 30
0.0
 11
142.4427267660404
 21
36.37634999541865
 31
0.0
 12
141.9427267660404
 22
33.37634999541865
 32
0.0
 13
141.9427267660404
 23
33.37634999541865
 33
0.0
  0
SOLID
  5
D9
330
B6
100
AcDbEntity
  8
0
 62
     2
100
AcDbTrace
 10
141.4427267660405
 20
136.3763499954186
 30
0.0
 11
142.4427267660405
 21
136.3763499954186
 31
0.0
 12
141.9427267660405
 22
139.3763499954186
 32
0.0
 13
141.9427267660405
 23
139.3763499954186
 33
0.0
  0
POINT
  5
DA
330
B6
100
AcDbEntity
  8
Defpoints
 62
     0
100
AcDbPoint
 10
25.98247737955794
 20
33.37634999541868
 30
0.0
  0
POINT
  5
DB
330
B6
100
AcDbEntity
  8
Defpoints
 62
     0
100
AcDbPoint
 10
133.9824773795579
 20
139.3763499954186
 30
0.0
  0
POINT
  5
DC
330
B6
100
AcDbEntity
  8
Defpoints
 62
     0
100
AcDbPoint
 10
141.9427267660405
 20
139.3763499954186
 30
0.0
  0
ENDBLK
  5
B8
330
B6
100
AcDbEntity
  8
0
100
AcDbBlockEnd
  0
BLOCK
  5
FF
330
FE
100
AcDbEntity
  8
0
100
AcDbBlockBegin
  2
*D2
 70
     1
 10
0.0
 20
0.0
 30
0.0
  3
*D2
  1

  0
LINE
  5
128
330
FE
100
AcDbEntity
  8
0
 62
     2
370
    -2
100
AcDbLine
 10
137.5209501982496
 20
35.37634999541868
 30
0.0
 11
137.5209501982496
 21
160.6592485601905
 31
0.0
  0
LINE
  5
129
330
FE
100
AcDbEntity
  8
0
 62
     2
370
    -2
100
AcDbLine
 10
29.52095019824958
 20
141.3763499954186
 30
0.0
 11
29.52095019824958
 21
160.6592485601905
 31
0.0
  0
LINE
  5
12A
330
FE
100
AcDbEntity
  8
0
 62
     2
370
    -2
100
AcDbLine
 10
134.5209501982496
 20
160.6592485601905
 30
0.0
 11
32.52095019824958
 21
160.6592485601905
 31
0.0
  0
MTEXT
  5
12B
330
FE
100
AcDbEntity
  8
0
 62
     2
100
AcDbMText
 10
56.06295267681827
 20
163.0592485601905
 30
0.0
 40
2.799999999999999
 41
0.0
 71
     5
 72
     1
  1
108
 73
     1
 44
1.0
1001
ACAD
1000
MTEXTBEGIN
1070
    73
1070
     1
1070
    44
1040
1.0
1070
    74
1070
     0
1000
MTEXTEND
  0
SOLID
  5
12C
330
FE
100
AcDbEntity
  8
0
 62
     2
100
AcDbTrace
 10
134.5209501982496
 20
161.1592485601905
 30
0.0
 11
134.5209501982496
 21
160.1592485601905
 31
0.0
 12
137.5209501982496
 22
160.6592485601905
 32
0.0
 13
137.5209501982496
 23
160.6592485601905
 33
0.0
  0
SOLID
  5
12D
330
FE
100
AcDbEntity
  8
0
 62
     2
100
AcDbTrace
 10
32.52095019824958
 20
161.1592485601905
 30
0.0
 11
32.52095019824958
 21
160.1592485601905
 31
0.0
 12
29.52095019824958
 22
160.6592485601905
 32
0.0
 13
29.52095019824958
 23
160.6592485601905
 33
0.0
  0
POINT
  5
12E
330
FE
100
AcDbEntity
  8
Defpoints
 62
     0
100
AcDbPoint
 10
137.5209501982496
 20
33.37634999541868
 30
0.0
  0
POINT
  5
12F
330
FE
100
AcDbEntity
  8
Defpoints
 62
     0
100
AcDbPoint
 10
29.52095019824958
 20
139.3763499954186
 30
0.0
  0
POINT
  5
130
330
FE
100
AcDbEntity
  8
Defpoints
 62
     0
100
AcDbPoint
 10
29.52095019824958
 20
160.6592485601905
 30
0.0
  0
ENDBLK
  5
100
330
FE
100
AcDbEntity
  8
0
100
AcDbBlockEnd
  0
BLOCK
  5
10B
330
10A
100
AcDbEntity
  8
0
100
AcDbBlockBegin
  2
*D3
 70
     1
 10
0.0
 20
0.0
 30
0.0
  3
*D3
  1

  0
LINE
  5
131
330
10A
100
AcDbEntity
  8
0
 62
     2
370
    -2
100
AcDbLine
 10
135.5209501982496
 20
33.37634999541868
 30
0.0
 11
21.56070081176703
 21
33.37634999541871
 31
0.0
  0
LINE
  5
132
330
10A
100
AcDbEntity
  8
0
 62
     2
370
    -2
100
AcDbLine
 10
27.52095019824958
 20
139.3763499954186
 30
0.0
 11
21.56070081176705
 21
139.3763499954186
 31
0.0
  0
LINE
  5
133
330
10A
100
AcDbEntity
  8
0
 62
     2
370
    -2
100
AcDbLine
 10
21.56070081176702
 20
36.37634999541871
 30
0.0
 11
21.56070081176705
 21
136.3763499954186
 31
0.0
  0
MTEXT
  5
134
330
10A
100
AcDbEntity
  8
0
 62
     2
100
AcDbMText
 10
19.16070081176705
 20
117.5131713954565
 30
0.0
 40
2.799999999999999
 41
0.0
 71
     5
 72
     1
  1
106
 11
0.0000000000000001
 21
1.0
 31
0.0
 73
     1
 44
1.0
1001
ACAD
1000
MTEXTBEGIN
1070
    73
1070
     1
1070
    44
1040
1.0
1070
    74
1070
     0
1000
MTEXTEND
  0
SOLID
  5
135
330
10A
100
AcDbEntity
  8
0
 62
     2
100
AcDbTrace
 10
21.06070081176703
 20
36.37634999541871
 30
0.0
 11
22.06070081176703
 21
36.37634999541871
 31
0.0
 12
21.56070081176702
 22
33.37634999541871
 32
0.0
 13
21.56070081176702
 23
33.37634999541871
 33
0.0
  0
SOLID
  5
136
330
10A
100
AcDbEntity
  8
0
 62
     2
100
AcDbTrace
 10
21.06070081176705
 20
136.3763499954186
 30
0.0
 11
22.06070081176705
 21
136.3763499954186
 31
0.0
 12
21.56070081176705
 22
139.3763499954186
 32
0.0
 13
21.56070081176705
 23
139.3763499954186
 33
0.0
  0
POINT
  5
137
330
10A
100
AcDbEntity
  8
Defpoints
 62
     0
100
AcDbPoint
 10
137.5209501982496
 20
33.37634999541868
 30
0.0
  0
POINT
  5
138
330
10A
100
AcDbEntity
  8
Defpoints
 62
     0
100
AcDbPoint
 10
29.52095019824958
 20
139.3763499954186
 30
0.0
  0
POINT
  5
139
330
10A
100
AcDbEntity
  8
Defpoints
 62
     0
100
AcDbPoint
 10
21.56070081176705
 20
139.3763499954186
 30
0.0
  0
ENDBLK
  5
10C
330
10A
100
AcDbEntity
  8
0
100
AcDbBlockEnd
  0
BLOCK
  5
13D
330
13C
100
AcDbEntity
  8
0
100
AcDbBlockBegin
  2
*D4
 70
     1
 10
0.0
 20
0.0
 30
0.0
  3
*D4
  1

  0
LINE
  5
167
330
13C
100
AcDbEntity
  8
0
 62
     2
370
    -2
100
AcDbLine
 10
291.2137672159458
 20
36.95870422211482
 30
0.0
 11
291.2137672159458
 21
26.57298993265567
 31
0.0
  0
LINE
  5
168
330
13C
100
AcDbEntity
  8
0
 62
     2
370
    -2
100
AcDbLine
 10
181.2137672159458
 20
36.95870422211488
 30
0.0
 11
181.2137672159458
 21
26.57298993265567
 31
0.0
  0
LINE
  5
169
330
13C
100
AcDbEntity
  8
0
 62
     2
370
    -2
100
AcDbLine
 10
288.2137672159458
 20
26.57298993265567
 30
0.0
 11
184.2137672159458
 21
26.57298993265567
 31
0.0
  0
MTEXT
  5
16A
330
13C
100
AcDbEntity
  8
0
 62
     2
100
AcDbMText
 10
238.5665781612279
 20
28.97298993265567
 30
0.0
 40
2.799999999999999
 41
0.0
 71
     5
 72
     1
  1
110
 73
     1
 44
1.0
1001
ACAD
1000
MTEXTBEGIN
1070
    73
1070
     1
1070
    44
1040
1.0
1070
    74
1070
     0
1000
MTEXTEND
  0
SOLID
  5
16B
330
13C
100
AcDbEntity
  8
0
 62
     2
100
AcDbTrace
 10
288.2137672159458
 20
27.07298993265567
 30
0.0
 11
288.2137672159458
 21
26.07298993265568
 31
0.0
 12
291.2137672159458
 22
26.57298993265567
 32
0.0
 13
291.2137672159458
 23
26.57298993265567
 33
0.0
  0
SOLID
  5
16C
330
13C
100
AcDbEntity
  8
0
 62
     2
100
AcDbTrace
 10
184.2137672159458
 20
27.07298993265567
 30
0.0
 11
184.2137672159458
 21
26.07298993265568
 31
0.0
 12
181.2137672159458
 22
26.57298993265567
 32
0.0
 13
181.2137672159458
 23
26.57298993265567
 33
0.0
  0
POINT
  5
16D
330
13C
100
AcDbEntity
  8
Defpoints
 62
     0
100
AcDbPoint
 10
291.2137672159458
 20
38.95870422211482
 30
0.0
  0
POINT
  5
16E
330
13C
100
AcDbEntity
  8
Defpoints
 62
     0
100
AcDbPoint
 10
181.2137672159458
 20
38.95870422211487
 30
0.0
  0
POINT
  5
16F
330
13C
100
AcDbEntity
  8
Defpoints
 62
     0
100
AcDbPoint
 10
181.2137672159458
 20
26.57298993265567
 30
0.0
  0
ENDBLK
  5
13E
330
13C
100
AcDbEntity
  8
0
100
AcDbBlockEnd
  0
BLOCK
  5
14A
330
149
100
AcDbEntity
  8
0
100
AcDbBlockBegin
  2
*D5
 70
     1
 10
0.0
 20
0.0
 30
0.0
  3
*D5
  1

  0
LINE
  5
170
330
149
100
AcDbEntity
  8
0
 62
     2
370
    -2
100
AcDbLine
 10
293.2137672159458
 20
38.95870422211482
 30
0.0
 11
300.5005898197404
 21
38.95870422211482
 31
0.0
  0
LINE
  5
171
330
149
100
AcDbEntity
  8
0
 62
     2
370
    -2
100
AcDbLine
 10
293.2137672159458
 20
143.9587042221148
 30
0.0
 11
300.5005898197404
 21
143.9587042221148
 31
0.0
  0
LINE
  5
172
330
149
100
AcDbEntity
  8
0
 62
     2
370
    -2
100
AcDbLine
 10
300.5005898197404
 20
41.95870422211481
 30
0.0
 11
300.5005898197404
 21
140.9587042221148
 31
0.0
  0
MTEXT
  5
173
330
149
100
AcDbEntity
  8
0
 62
     2
100
AcDbMText
 10
298.1005898197404
 20
79.37016312897637
 30
0.0
 40
2.799999999999999
 41
0.0
 71
     5
 72
     1
  1
105
 11
0.0000000000000001
 21
1.0
 31
0.0
 73
     1
 44
1.0
1001
ACAD
1000
MTEXTBEGIN
1070
    73
1070
     1
1070
    44
1040
1.0
1070
    74
1070
     0
1000
MTEXTEND
  0
SOLID
  5
174
330
149
100
AcDbEntity
  8
0
 62
     2
100
AcDbTrace
 10
300.0005898197404
 20
41.95870422211481
 30
0.0
 11
301.0005898197404
 21
41.95870422211481
 31
0.0
 12
300.5005898197404
 22
38.95870422211482
 32
0.0
 13
300.5005898197404
 23
38.95870422211482
 33
0.0
  0
SOLID
  5
175
330
149
100
AcDbEntity
  8
0
 62
     2
100
AcDbTrace
 10
300.0005898197404
 20
140.9587042221148
 30
0.0
 11
301.0005898197404
 21
140.9587042221148
 31
0.0
 12
300.5005898197404
 22
143.9587042221148
 32
0.0
 13
300.5005898197404
 23
143.9587042221148
 33
0.0
  0
POINT
  5
176
330
149
100
AcDbEntity
  8
Defpoints
 62
     0
100
AcDbPoint
 10
291.2137672159458
 20
38.95870422211482
 30
0.0
  0
POINT
  5
177
330
149
100
AcDbEntity
  8
Defpoints
 62
     0
100
AcDbPoint
 10
291.2137672159458
 20
143.9587042221148
 30
0.0
  0
POINT
  5
178
330
149
100
AcDbEntity
  8
Defpoints
 62
     0
100
AcDbPoint
 10
300.5005898197404
 20
143.9587042221148
 30
0.0
  0
ENDBLK
  5
14B
330
149
100
AcDbEntity
  8
0
100
AcDbBlockEnd
  0
BLOCK
  5
17C
330
17B
100
AcDbEntity
  8
0
100
AcDbBlockBegin
  2
*D6
 70
     1
 10
0.0
 20
0.0
 30
0.0
  3
*D6
  1

  0
LINE
  5
17E
330
17B
100
AcDbEntity
  8
0
 62
     2
370
    -2
100
AcDbLine
 10
139.5209501982495
 20
33.37634999541868
 30
0.0
 11
146.2024725421381
 21
33.37634999541867
 31
0.0
  0
LINE
  5
17F
330
17B
100
AcDbEntity
  8
0
 62
     2
370
    -2
100
AcDbLine
 10
139.5209501982495
 20
138.3763499954187
 30
0.0
 11
146.2024725421381
 21
138.3763499954187
 31
0.0
  0
LINE
  5
180
330
17B
100
AcDbEntity
  8
0
 62
     2
370
    -2
100
AcDbLine
 10
146.2024725421381
 20
36.37634999541867
 30
0.0
 11
146.2024725421381
 21
135.3763499954186
 31
0.0
  0
MTEXT
  5
181
330
17B
100
AcDbEntity
  8
0
 62
     2
100
AcDbMText
 10
143.8024725421381
 20
78.05873447519769
 30
0.0
 40
2.799999999999999
 41
0.0
 71
     5
 72
     1
  1
105
 11
0.0000000000000001
 21
1.0
 31
0.0
 73
     1
 44
1.0
1001
ACAD
1000
MTEXTBEGIN
1070
    73
1070
     1
1070
    44
1040
1.0
1070
    74
1070
     0
1000
MTEXTEND
  0
SOLID
  5
182
330
17B
100
AcDbEntity
  8
0
 62
     2
100
AcDbTrace
 10
145.7024725421381
 20
36.37634999541867
 30
0.0
 11
146.7024725421381
 21
36.37634999541867
 31
0.0
 12
146.2024725421381
 22
33.37634999541867
 32
0.0
 13
146.2024725421381
 23
33.37634999541867
 33
0.0
  0
SOLID
  5
183
330
17B
100
AcDbEntity
  8
0
 62
     2
100
AcDbTrace
 10
145.7024725421381
 20
135.3763499954186
 30
0.0
 11
146.7024725421381
 21
135.3763499954186
 31
0.0
 12
146.2024725421381
 22
138.3763499954187
 32
0.0
 13
146.2024725421381
 23
138.3763499954187
 33
0.0
  0
POINT
  5
184
330
17B
100
AcDbEntity
  8
Defpoints
 62
     0
100
AcDbPoint
 10
137.5209501982496
 20
33.37634999541868
 30
0.0
  0
POINT
  5
185
330
17B
100
AcDbEntity
  8
Defpoints
 62
     0
100
AcDbPoint
 10
137.5209501982496
 20
138.3763499954187
 30
0.0
  0
POINT
  5
186
330
17B
100
AcDbEntity
  8
Defpoints
 62
     0
100
AcDbPoint
 10
146.2024725421381
 20
138.3763499954187
 30
0.0
  0
ENDBLK
  5
17D
330
17B
100
AcDbEntity
  8
0
100
AcDbBlockEnd
  0
BLOCK
  5
189
330
188
100
AcDbEntity
  8
0
100
AcDbBlockBegin
  2
*D7
 70
     1
 10
0.0
 20
0.0
 30
0.0
  3
*D7
  1

  0
LINE
  5
18B
330
188
100
AcDbEntity
  8
0
 62
     2
370
    -2
100
AcDbLine
 10
137.5209501982496
 20
140.3763499954187
 30
0.0
 11
137.5209501982496
 21
143.1296851611147
 31
0.0
  0
LINE
  5
18C
330
188
100
AcDbEntity
  8
0
 62
     2
370
    -2
100
AcDbLine
 10
27.52095019824961
 20
140.3763499954187
 30
0.0
 11
27.52095019824961
 21
143.1296851611147
 31
0.0
  0
LINE
  5
18D
330
188
100
AcDbEntity
  8
0
 62
     2
370
    -2
100
AcDbLine
 10
134.5209501982496
 20
143.1296851611147
 30
0.0
 11
30.52095019824961
 21
143.1296851611147
 31
0.0
  0
MTEXT
  5
18E
330
188
100
AcDbEntity
  8
0
 62
     2
100
AcDbMText
 10
84.92232724043516
 20
145.5296851611147
 30
0.0
 40
2.799999999999999
 41
0.0
 71
     5
 72
     1
  1
110
 73
     1
 44
1.0
1001
ACAD
1000
MTEXTBEGIN
1070
    73
1070
     1
1070
    44
1040
1.0
1070
    74
1070
     0
1000
MTEXTEND
  0
SOLID
  5
18F
330
188
100
AcDbEntity
  8
0
 62
     2
100
AcDbTrace
 10
134.5209501982496
 20
143.6296851611147
 30
0.0
 11
134.5209501982496
 21
142.6296851611147
 31
0.0
 12
137.5209501982496
 22
143.1296851611147
 32
0.0
 13
137.5209501982496
 23
143.1296851611147
 33
0.0
  0
SOLID
  5
190
330
188
100
AcDbEntity
  8
0
 62
     2
100
AcDbTrace
 10
30.52095019824961
 20
143.6296851611147
 30
0.0
 11
30.52095019824961
 21
142.6296851611147
 31
0.0
 12
27.52095019824961
 22
143.1296851611147
 32
0.0
 13
27.52095019824961
 23
143.1296851611147
 33
0.0
  0
POINT
  5
191
330
188
100
AcDbEntity
  8
Defpoints
 62
     0
100
AcDbPoint
 10
137.5209501982496
 20
138.3763499954187
 30
0.0
  0
POINT
  5
192
330
188
100
AcDbEntity
  8
Defpoints
 62
     0
100
AcDbPoint
 10
27.52095019824961
 20
138.3763499954187
 30
0.0
  0
POINT
  5
193
330
188
100
AcDbEntity
  8
Defpoints
 62
     0
100
AcDbPoint
 10
27.52095019824961
 20
143.1296851611147
 30
0.0
  0
ENDBLK
  5
18A
330
188
100
AcDbEntity
  8
0
100
AcDbBlockEnd
  0
BLOCK
  5
197
330
194
100
AcDbEntity
  8
0
100
AcDbBlockBegin
  2
11-6
 70
     0
 10
0.0
 20
0.0
 30
0.0
  3
11-6
  1

  0
LINE
  5
198
330
194
100
AcDbEntity
  8
WAKU
100
AcDbLine
 10
19.8291482901493
 20
17.58034299411599
 30
0.0
 11
74.82914829014929
 21
17.58034299411599
 31
0.0
  0
LINE
  5
199
330
194
100
AcDbEntity
  8
WAKU
100
AcDbLine
 10
19.8291482901493
 20
10.58034299411599
 30
0.0
 11
74.82914829014929
 21
10.58034299411599
 31
0.0
  0
TEXT
  5
19A
330
194
100
AcDbEntity
  8
HOJO
100
AcDbText
 10
24.65613129014105
 20
11.76365599411008
 30
0.0
 40
4.5
  1
F2A18
  7
SUNPOU
100
AcDbText
  0
TEXT
  5
19B
330
194
100
AcDbEntity
  8
HOJO
100
AcDbText
 10
51.31200729001442
 20
13.10253599410578
 30
0.0
 40
3.0
  1
110×90
  7
SUNPOU
100
AcDbText
  0
TEXT
  5
19C
330
194
100
AcDbEntity
  8
HOJO
100
AcDbText
 10
25.04068656228344
 20
3.434174921998419
 30
0.0
 40
3.0
  1
※ 材質の特性上、寸法誤差がある場合があります。
  7
SUNPOU
100
AcDbText
  0
ENDBLK
  5
19D
330
194
100
AcDbEntity
  8
0
100
AcDbBlockEnd
  0
BLOCK
  5
19F
330
19E
100
AcDbEntity
  8
0
100
AcDbBlockBegin
  2
*D9
 70
     1
 10
0.0
 20
0.0
 30
0.0
  3
*D9
  1

  0
LINE
  5
1A0
330
19E
100
AcDbEntity
  8
0
 62
     2
370
    -2
100
AcDbLine
 10
135.4477185579105
 20
30.76838887346397
 30
0.0
 11
147.5560883200646
 21
30.76838887346397
 31
0.0
  0
LINE
  5
1A1
330
19E
100
AcDbEntity
  8
0
 62
     2
370
    -2
100
AcDbLine
 10
135.4477185579105
 20
112.5263240831595
 30
0.0
 11
147.5560883200646
 21
112.5263240831595
 31
0.0
  0
LINE
  5
1A2
330
19E
100
AcDbEntity
  8
0
 62
     2
370
    -2
100
AcDbLine
 10
147.5560883200646
 20
33.76838887346397
 30
0.0
 11
147.5560883200646
 21
109.5263240831594
 31
0.0
  0
SOLID
  5
1A3
330
19E
100
AcDbEntity
  8
0
 62
     2
100
AcDbTrace
 10
147.0560883200645
 20
33.76838887346397
 30
0.0
 11
148.0560883200646
 21
33.76838887346397
 31
0.0
 12
147.5560883200646
 22
30.76838887346397
 32
0.0
 13
147.5560883200646
 23
30.76838887346397
 33
0.0
  0
SOLID
  5
1A4
330
19E
100
AcDbEntity
  8
0
 62
     2
100
AcDbTrace
 10
147.0560883200645
 20
109.5263240831594
 30
0.0
 11
148.0560883200646
 21
109.5263240831594
 31
0.0
 12
147.5560883200646
 22
112.5263240831595
 32
0.0
 13
147.5560883200646
 23
112.5263240831595
 33
0.0
  0
MTEXT
  5
1A5
330
19E
100
AcDbEntity
  8
0
 62
     2
100
AcDbMText
 10
145.1560883200646
 20
71.64735647831173
 30
0.0
 40
2.799999999999998
 41
0.0
 71
     5
 72
     1
  1
82
 11
0.0000000000000001
 21
1.0
 31
0.0
 73
     1
 44
1.0
1001
ACAD
1000
MTEXTBEGIN
1070
    73
1070
     1
1070
    44
1040
1.0
1070
    74
1070
     0
1000
MTEXTEND
  0
POINT
  5
1A6
330
19E
100
AcDbEntity
  8
Defpoints
 62
     0
100
AcDbPoint
 10
133.4477185579105
 20
30.76838887346397
 30
0.0
  0
POINT
  5
1A7
330
19E
100
AcDbEntity
  8
Defpoints
 62
     0
100
AcDbPoint
 10
133.4477185579105
 20
112.5263240831595
 30
0.0
  0
POINT
  5
1A8
330
19E
100
AcDbEntity
  8
Defpoints
 62
     0
100
AcDbPoint
 10
147.5560883200646
 20
112.5263240831595
 30
0.0
  0
ENDBLK
  5
1A9
330
19E
100
AcDbEntity
  8
0
100
AcDbBlockEnd
  0
BLOCK
  5
1AB
330
1AA
100
AcDbEntity
  8
0
100
AcDbBlockBegin
  2
*D10
 70
     1
 10
0.0
 20
0.0
 30
0.0
  3
*D10
  1

  0
LINE
  5
1AC
330
1AA
100
AcDbEntity
  8
0
 62
     2
370
    -2
100
AcDbLine
 10
128.9193580107544
 20
121.9224300590253
 30
0.0
 11
128.9193580107544
 21
129.3236185707242
 31
0.0
  0
LINE
  5
1AD
330
1AA
100
AcDbEntity
  8
0
 62
     2
370
    -2
100
AcDbLine
 10
26.83778826539032
 20
121.9224300590253
 30
0.0
 11
26.83778826539032
 21
129.3236185707242
 31
0.0
  0
LINE
  5
1AE
330
1AA
100
AcDbEntity
  8
0
 62
     2
370
    -2
100
AcDbLine
 10
125.9193580107544
 20
129.3236185707242
 30
0.0
 11
29.83778826539032
 21
129.3236185707242
 31
0.0
  0
SOLID
  5
1AF
330
1AA
100
AcDbEntity
  8
0
 62
     2
100
AcDbTrace
 10
125.9193580107544
 20
129.8236185707242
 30
0.0
 11
125.9193580107544
 21
128.8236185707242
 31
0.0
 12
128.9193580107544
 22
129.3236185707242
 32
0.0
 13
128.9193580107544
 23
129.3236185707242
 33
0.0
  0
SOLID
  5
1B0
330
1AA
100
AcDbEntity
  8
0
 62
     2
100
AcDbTrace
 10
29.83778826539032
 20
129.8236185707242
 30
0.0
 11
29.83778826539032
 21
128.8236185707242
 31
0.0
 12
26.83778826539032
 22
129.3236185707242
 32
0.0
 13
26.83778826539032
 23
129.3236185707242
 33
0.0
  0
MTEXT
  5
1B1
330
1AA
100
AcDbEntity
  8
0
 62
     2
100
AcDbMText
 10
77.87857313807236
 20
131.7236185707242
 30
0.0
 40
2.799999999999998
 41
0.0
 71
     5
 72
     1
  1
102
 73
     1
 44
1.0
1001
ACAD
1000
MTEXTBEGIN
1070
    73
1070
     1
1070
    44
1040
1.0
1070
    74
1070
     0
1000
MTEXTEND
  0
POINT
  5
1B2
330
1AA
100
AcDbEntity
  8
Defpoints
 62
     0
100
AcDbPoint
 10
128.9193580107544
 20
119.9224300590254
 30
0.0
  0
POINT
  5
1B3
330
1AA
100
AcDbEntity
  8
Defpoints
 62
     0
100
AcDbPoint
 10
26.83778826539032
 20
119.9224300590254
 30
0.0
  0
POINT
  5
1B4
330
1AA
100
AcDbEntity
  8
Defpoints
 62
     0
100
AcDbPoint
 10
26.83778826539032
 20
129.3236185707242
 30
0.0
  0
ENDBLK
  5
1B5
330
1AA
100
AcDbEntity
  8
0
100
AcDbBlockEnd
  0
BLOCK
  5
1B9
330
1B6
100
AcDbEntity
  8
0
100
AcDbBlockBegin
  2
111-6
 70
     0
 10
0.0
 20
0.0
 30
0.0
  3
111-6
  1

  0
TEXT
  5
1BA
330
1B6
100
AcDbEntity
  8
HOJO
100
AcDbText
 10
25.04068656228344
 20
3.434174921998419
 30
0.0
 40
3.0
  1
※ 材質の特性上、寸法誤差がある場合があります。
  7
SUNPOU
100
AcDbText
  0
ENDBLK
  5
1BB
330
1B6
100
AcDbEntity
  8
0
100
AcDbBlockEnd
  0
BLOCK
  5
1CC
330
1C1
100
AcDbEntity
  8
0
100
AcDbBlockBegin
  2
○SF111
 70
     0
 10
0.0
 20
0.0
 30
0.0
  3
○SF111
  1

  0
LINE
  5
1C2
330
1C1
100
AcDbEntity
  8
WAKU
100
AcDbLine
 10
34.88057889739343
 20
16.93617572101277
 30
0.0
 11
89.88057889739343
 21
16.93617572101277
 31
0.0
  0
LINE
  5
1C3
330
1C1
100
AcDbEntity
  8
WAKU
100
AcDbLine
 10
34.88057889739343
 20
9.936175721012773
 30
0.0
 11
89.88057889739343
 21
9.936175721012773
 31
0.0
  0
TEXT
  5
1C4
330
1C1
100
AcDbEntity
  8
HOJO
100
AcDbText
 10
39.70756189738518
 20
11.11948872100686
 30
0.0
 40
4.5
  1
SF111
  7
SUNPOU
100
AcDbText
  0
TEXT
  5
1C5
330
1C1
100
AcDbEntity
  8
HOJO
100
AcDbText
 10
66.36343789725856
 20
12.45836872100255
 30
0.0
 40
3.0
  1
82×102
  7
SUNPOU
100
AcDbText
  0
TEXT
  5
1C6
330
1C1
100
AcDbEntity
  8
HOJO
100
AcDbText
 10
40.09211716952757
 20
2.790007648895198
 30
0.0
 40
3.0
  1
※ 材質の特性上、寸法誤差がある場合があります。
  7
SUNPOU
100
AcDbText
  0
DIMENSION
  5
1C7
330
1C1
100
AcDbEntity
  8
0
100
AcDbDimension
  2
*D9
 10
147.5560883200646
 20
112.5263240831595
 30
0.0
 11
145.1560883200646
 21
71.64735647831173
 31
0.0
 70
    32
 71
     5
 42
81.75793520969548
  3
mihasi
100
AcDbAlignedDimension
 13
133.4477185579105
 23
30.76838887346397
 33
0.0
 14
133.4477185579105
 24
112.5263240831595
 34
0.0
 50
90.0
100
AcDbRotatedDimension
1001
ACAD
1000
DSTYLE
1002
{
1070
   271
1070
     0
1002
}
  0
DIMENSION
  5
1C8
330
1C1
100
AcDbEntity
  8
0
100
AcDbDimension
  2
*D10
 10
26.83778826539032
 20
129.3236185707242
 30
0.0
 11
77.87857313807236
 21
131.7236185707242
 31
0.0
 70
    32
 71
     5
 42
102.0815697453641
  3
mihasi
100
AcDbAlignedDimension
 13
128.9193580107544
 23
119.9224300590254
 33
0.0
 14
26.83778826539032
 24
119.9224300590254
 34
0.0
100
AcDbRotatedDimension
1001
ACAD
1000
DSTYLE
1002
{
1070
   271
1070
     0
1002
}
  0
LWPOLYLINE
  5
1C9
330
1C1
100
AcDbEntity
  8
0
100
AcDbPolyline
 90
       20
 70
     1
 43
0.0
 10
116.8572819598944
 20
49.52632408315952
 10
115.9193580107544
 20
30.76838887346398
 10
128.9193580107544
 20
30.76838887346398
 10
128.9193580107544
 20
37.00090903823446
 42
0.1266093230344887
 10
124.1337122495757
 20
58.61399734169997
 42
0.0441538033540612
 10
109.6198409241453
 20
74.65604852338213
 10
105.7222582266126
 20
80.45131525232163
 42
0.2694950147093065
 10
67.63094306833668
 20
105.995681112956
 10
58.42844962839183
 20
112.372702137418
 10
26.83778826539032
 20
112.5263240831595
 10
27.35679807446741
 20
99.21407562852159
 10
60.48595206046889
 20
99.62545161492265
 10
61.47762523239157
 20
90.85697304213216
 42
0.1622776601683845
 10
64.49037066615739
 20
89.89605423634094
 10
75.83782154399919
 20
90.04357109775288
 42
-0.3474756632268105
 10
97.46094220237743
 20
73.40511743062066
 10
99.89352586713952
 20
63.72089810170995
 42
0.2015127546239913
 10
102.218236313423
 20
60.62320196733197
 10
110.3572819598944
 20
59.75232408315952
 10
110.3572819598944
 20
49.52632408315952
  0
ENDBLK
  5
1CD
330
1C1
100
AcDbEntity
  8
0
100
AcDbBlockEnd
  0
BLOCK
  5
1D8
330
1D7
100
AcDbEntity
  8
0
100
AcDbBlockBegin
  2
*D13
 70
     1
 10
0.0
 20
0.0
 30
0.0
  3
*D13
  1

  0
LINE
  5
1F0
330
1D7
100
AcDbEntity
  8
0
 62
     2
370
    -2
100
AcDbLine
 10
205.4454360290345
 20
3.870907319356227
 30
0.0
 11
217.5538057911886
 21
3.870907319356223
 31
0.0
  0
LINE
  5
1F1
330
1D7
100
AcDbEntity
  8
0
 62
     2
370
    -2
100
AcDbLine
 10
205.4454360290345
 20
85.62884252905176
 30
0.0
 11
217.5538057911886
 21
85.62884252905176
 31
0.0
  0
LINE
  5
1F2
330
1D7
100
AcDbEntity
  8
0
 62
     2
370
    -2
100
AcDbLine
 10
217.5538057911886
 20
6.870907319356224
 30
0.0
 11
217.5538057911886
 21
82.62884252905177
 31
0.0
  0
SOLID
  5
1F3
330
1D7
100
AcDbEntity
  8
0
 62
     2
100
AcDbTrace
 10
217.0538057911886
 20
6.870907319356224
 30
0.0
 11
218.0538057911886
 21
6.870907319356223
 31
0.0
 12
217.5538057911886
 22
3.870907319356223
 32
0.0
 13
217.5538057911886
 23
3.870907319356223
 33
0.0
  0
SOLID
  5
1F4
330
1D7
100
AcDbEntity
  8
0
 62
     2
100
AcDbTrace
 10
217.0538057911886
 20
82.62884252905177
 30
0.0
 11
218.0538057911886
 21
82.62884252905177
 31
0.0
 12
217.5538057911886
 22
85.62884252905176
 32
0.0
 13
217.5538057911886
 23
85.62884252905176
 33
0.0
  0
MTEXT
  5
1F5
330
1D7
100
AcDbEntity
  8
0
 62
     2
100
AcDbMText
 10
215.1538057911886
 20
44.74987492420402
 30
0.0
 40
2.799999999999999
 41
0.0
 71
     5
 72
     1
  1
82
 11
0.0000000000000001
 21
1.0
 31
0.0
 73
     1
 44
1.0
1001
ACAD
1000
MTEXTBEGIN
1070
    73
1070
     1
1070
    44
1040
1.0
1070
    74
1070
     0
1000
MTEXTEND
  0
POINT
  5
1F6
330
1D7
100
AcDbEntity
  8
Defpoints
 62
     0
100
AcDbPoint
 10
203.4454360290345
 20
3.870907319356227
 30
0.0
  0
POINT
  5
1F7
330
1D7
100
AcDbEntity
  8
Defpoints
 62
     0
100
AcDbPoint
 10
203.4454360290345
 20
85.62884252905176
 30
0.0
  0
POINT
  5
1F8
330
1D7
100
AcDbEntity
  8
Defpoints
 62
     0
100
AcDbPoint
 10
217.5538057911886
 20
85.62884252905176
 30
0.0
  0
ENDBLK
  5
1D9
330
1D7
100
AcDbEntity
  8
0
100
AcDbBlockEnd
  0
BLOCK
  5
1E4
330
1E3
100
AcDbEntity
  8
0
100
AcDbBlockBegin
  2
*D14
 70
     1
 10
0.0
 20
0.0
 30
0.0
  3
*D14
  1

  0
LINE
  5
1F9
330
1E3
100
AcDbEntity
  8
0
 62
     2
370
    -2
100
AcDbLine
 10
198.9170754818784
 20
95.02494850491766
 30
0.0
 11
198.9170754818784
 21
102.4261370166164
 31
0.0
  0
LINE
  5
1FA
330
1E3
100
AcDbEntity
  8
0
 62
     2
370
    -2
100
AcDbLine
 10
96.83550573651434
 20
95.02494850491766
 30
0.0
 11
96.83550573651434
 21
102.4261370166164
 31
0.0
  0
LINE
  5
1FB
330
1E3
100
AcDbEntity
  8
0
 62
     2
370
    -2
100
AcDbLine
 10
195.9170754818784
 20
102.4261370166164
 30
0.0
 11
99.83550573651434
 21
102.4261370166164
 31
0.0
  0
SOLID
  5
1FC
330
1E3
100
AcDbEntity
  8
0
 62
     2
100
AcDbTrace
 10
195.9170754818784
 20
102.9261370166164
 30
0.0
 11
195.9170754818784
 21
101.9261370166164
 31
0.0
 12
198.9170754818784
 22
102.4261370166164
 32
0.0
 13
198.9170754818784
 23
102.4261370166164
 33
0.0
  0
SOLID
  5
1FD
330
1E3
100
AcDbEntity
  8
0
 62
     2
100
AcDbTrace
 10
99.83550573651434
 20
102.9261370166164
 30
0.0
 11
99.83550573651434
 21
101.9261370166164
 31
0.0
 12
96.83550573651434
 22
102.4261370166164
 32
0.0
 13
96.83550573651434
 23
102.4261370166164
 33
0.0
  0
MTEXT
  5
1FE
330
1E3
100
AcDbEntity
  8
0
 62
     2
100
AcDbMText
 10
147.8762906091963
 20
104.8261370166164
 30
0.0
 40
2.799999999999999
 41
0.0
 71
     5
 72
     1
  1
102
 73
     1
 44
1.0
1001
ACAD
1000
MTEXTBEGIN
1070
    73
1070
     1
1070
    44
1040
1.0
1070
    74
1070
     0
1000
MTEXTEND
  0
POINT
  5
1FF
330
1E3
100
AcDbEntity
  8
Defpoints
 62
     0
100
AcDbPoint
 10
198.9170754818784
 20
93.02494850491767
 30
0.0
  0
POINT
  5
200
330
1E3
100
AcDbEntity
  8
Defpoints
 62
     0
100
AcDbPoint
 10
96.83550573651434
 20
93.02494850491767
 30
0.0
  0
POINT
  5
201
330
1E3
100
AcDbEntity
  8
Defpoints
 62
     0
100
AcDbPoint
 10
96.83550573651434
 20
102.4261370166164
 30
0.0
  0
ENDBLK
  5
1E5
330
1E3
100
AcDbEntity
  8
0
100
AcDbBlockEnd
  0
ENDSEC
  0
SECTION
  2
ENTITIES
  0
DIMENSION
  5
17A
330
2
100
AcDbEntity
  8
0
100
AcDbDimension
  2
*D6
 10
146.2024725421381
 20
138.3763499954187
 30
0.0
 11
146.2024725421381
 21
78.05873447519769
 31
0.0
 70
   161
 71
     5
 42
105.0
  3
mihasi
100
AcDbAlignedDimension
 13
137.5209501982496
 23
33.37634999541868
 33
0.0
 14
137.5209501982496
 24
138.3763499954187
 34
0.0
  0
DIMENSION
  5
187
330
2
100
AcDbEntity
  8
0
100
AcDbDimension
  2
*D7
 10
27.52095019824961
 20
143.1296851611147
 30
0.0
 11
84.92232724043516
 21
143.1296851611147
 31
0.0
 70
   161
 71
     5
 42
109.9999999999999
  3
mihasi
100
AcDbAlignedDimension
 13
137.5209501982496
 23
138.3763499954187
 33
0.0
 14
27.52095019824961
 24
138.3763499954187
 34
0.0
  0
LINE
  5
1D0
330
2
100
AcDbEntity
  8
WAKU
100
AcDbLine
 10
36.84247997279863
 20
27.88064269687175
 30
0.0
 11
91.84247997279863
 21
27.88064269687175
 31
0.0
  0
LINE
  5
1D1
330
2
100
AcDbEntity
  8
WAKU
100
AcDbLine
 10
36.84247997279863
 20
20.88064269687174
 30
0.0
 11
91.84247997279863
 21
20.88064269687174
 31
0.0
  0
TEXT
  5
1D2
330
2
100
AcDbEntity
  8
HOJO
100
AcDbText
 10
41.66946297279037
 20
22.06395569686583
 30
0.0
 40
4.5
  1
SF130
  7
SUNPOU
100
AcDbText
  0
TEXT
  5
1D3
330
2
100
AcDbEntity
  8
HOJO
100
AcDbText
 10
68.32533897266376
 20
23.40283569686152
 30
0.0
 40
3.0
  1
105×110
  7
SUNPOU
100
AcDbText
  0
TEXT
  5
1D4
330
2
100
AcDbEntity
  8
HOJO
100
AcDbText
 10
42.05401824493276
 20
13.73447462475417
 30
0.0
 40
3.0
  1
※ 材質の特性上、寸法誤差がある場合があります。
  7
SUNPOU
100
AcDbText
  0
LWPOLYLINE
  5
20B
330
2
100
AcDbEntity
  8
0
100
AcDbPolyline
 90
       31
 70
     1
 43
0.0
 10
116.3559490772313
 20
99.70772405405041
 10
117.1347889066988
 20
98.44641110229426
 42
0.2733231050006837
 10
117.0079315904648
 20
93.8703421787955
 10
116.4701167013039
 20
91.438520218054
 42
0.2909528182864155
 10
115.1639187912056
 20
87.0694308773181
 42
0.1447089275843945
 10
113.1579276715549
 20
83.00143147260397
 10
111.7969190535752
 20
75.10600180003057
 42
0.1975818890415681
 10
113.0387304110917
 20
69.5380497251542
 42
0.2758373125873688
 10
115.2782744985866
 20
64.92640608360699
 10
115.3670395761986
 20
58.56948882626261
 42
0.4142135623730951
 10
119.9294307457666
 20
54.13275727974691
 10
119.9877909751457
 20
49.95328536057206
 42
0.3359453460894883
 10
122.2149940596106
 20
47.09633820220361
 42
-0.3340277168208143
 10
131.4935060355945
 20
35.27858605193143
 42
0.4121950326943187
 10
133.5209953041387
 20
33.3204964594599
 10
137.5209501982496
 20
33.37634999541868
 10
134.7227094287252
 20
51.33903138332526
 42
-0.0431220417553202
 10
127.5716496843846
 20
97.2436615968669
 10
127.6150507622206
 20
96.96505807512849
 42
0.3491092867399499
 10
89.16768478090881
 20
132.389193766322
 42
-0.0183388238951427
 10
38.26736375268914
 20
138.3558549993341
 10
27.52095019824961
 20
138.3763499954187
 10
27.59076109994533
 20
133.3768373753722
 10
30.59046867197325
 20
133.4187239163896
 10
31.18062745073338
 20
128.6306073463803
 42
0.1872012825742586
 10
31.45171049011557
 20
127.9598636345089
 42
0.1983664878584963
 10
40.14579704975441
 20
124.0256166736828
 10
40.19317666112484
 20
120.6325224831303
 42
0.3940491125344781
 10
41.13773697445583
 20
119.6480172179725
 10
105.9294414520721
 20
116.0567973183356
 42
-0.3940491125344783
 10
117.7364453687092
 20
103.7504815038629
 42
-0.1203853841632408
  0
ENDSEC
  0
SECTION
  2
OBJECTS
  0
DICTIONARY
  5
8
330
0
100
AcDbDictionary
281
     1
  3
ACAD_COLOR
350
40
  3
ACAD_GROUP
350
2D
  3
ACAD_LAYOUT
350
15
  3
ACAD_MATERIAL
350
A
  3
ACAD_MLEADERSTYLE
350
9E
  3
ACAD_MLINESTYLE
350
2E
  3
ACAD_PLOTSETTINGS
350
2F
  3
ACAD_PLOTSTYLENAME
350
7
  3
ACAD_SCALELIST
350
41
  3
ACAD_TABLESTYLE
350
42
  3
ACAD_VISUALSTYLE
350
26
  3
ACDB_RECOMPOSE_DATA
350
8A
  3
AcDbVariableDictionary
350
8B
  3
DWGPROPS
350
213
  0
DICTIONARY
  5
C2
330
5
100
AcDbDictionary
280
     1
281
     1
  3
ADSK_XREC_LAYER_RECONCILED
360
C3
  0
DICTIONARY
  5
1BD
330
1BC
100
AcDbDictionary
280
     1
281
     1
  0
DICTIONARY
  5
1BF
330
1BE
100
AcDbDictionary
280
     1
281
     1
  0
DICTIONARY
  5
3
330
2
100
AcDbDictionary
280
     1
281
     1
  3
ACAD_SORTENTS
360
1EF
  0
DICTIONARY
  5
195
330
194
100
AcDbDictionary
280
     1
281
     1
  3
ACAD_SORTENTS
360
196
  0
DICTIONARY
  5
1B7
330
1B6
100
AcDbDictionary
280
     1
281
     1
  3
ACAD_SORTENTS
360
1B8
  0
DICTIONARY
  5
1CA
330
1C1
100
AcDbDictionary
280
     1
281
     1
  3
ACAD_SORTENTS
360
1CB
  0
DICTIONARY
  5
40
102
{ACAD_REACTORS
330
8
102
}
330
8
100
AcDbDictionary
281
     1
  0
DICTIONARY
  5
2D
102
{ACAD_REACTORS
330
8
102
}
330
8
100
AcDbDictionary
281
     1
  0
DICTIONARY
  5
15
102
{ACAD_REACTORS
330
8
102
}
330
8
100
AcDbDictionary
281
     1
  3
Model
350
14
  3
ﾚｲｱｳﾄ1
350
19
  0
DICTIONARY
  5
A
102
{ACAD_REACTORS
330
8
102
}
330
8
100
AcDbDictionary
281
     1
  3
ByBlock
350
38
  3
ByLayer
350
30
  3
Global
350
9
  0
DICTIONARY
  5
9E
102
{ACAD_REACTORS
330
8
102
}
330
8
100
AcDbDictionary
281
     1
  3
Standard
350
9F
  0
DICTIONARY
  5
2E
102
{ACAD_REACTORS
330
8
102
}
330
8
100
AcDbDictionary
281
     1
  3
STANDARD
350
44
  0
DICTIONARY
  5
2F
102
{ACAD_REACTORS
330
8
102
}
330
8
100
AcDbDictionary
281
     1
  0
ACDBDICTIONARYWDFLT
  5
7
102
{ACAD_REACTORS
330
8
102
}
330
8
100
AcDbDictionary
281
     1
  3
Normal
350
6
100
AcDbDictionaryWithDefault
340
6
  0
DICTIONARY
  5
41
102
{ACAD_REACTORS
330
8
102
}
330
8
100
AcDbDictionary
281
     1
  3
A0
350
48
  3
A1
350
49
  3
A2
350
4A
  3
A3
350
4B
  3
A4
350
4C
  3
A5
350
4D
  3
A6
350
4E
  3
A7
350
4F
  3
A8
350
50
  3
A9
350
51
  3
B0
350
52
  3
B1
350
53
  3
B2
350
54
  3
B3
350
55
  3
B4
350
56
  3
B5
350
57
  3
B6
350
58
  3
B7
350
59
  3
B8
350
5A
  3
B9
350
5B
  3
C0
350
5C
  3
C1
350
5D
  3
C2
350
5E
  3
C3
350
5F
  3
C4
350
60
  3
C5
350
61
  3
C6
350
62
  3
C7
350
63
  3
C8
350
64
  3
C9
350
65
  3
D0
350
66
  3
D1
350
67
  3
D2
350
68
  0
DICTIONARY
  5
42
102
{ACAD_REACTORS
330
8
102
}
330
8
100
AcDbDictionary
281
     1
  3
Standard
350
45
  0
DICTIONARY
  5
26
102
{ACAD_REACTORS
330
8
102
}
330
8
100
AcDbDictionary
281
     1
  3
2dWireframe
350
25
  3
3D Hidden
350
96
  3
3dWireframe
350
47
  3
Basic
350
95
  3
Brighten
350
99
  3
ColorChange
350
9D
  3
Conceptual
350
97
  3
Dim
350
98
  3
Facepattern
350
9C
  3
Flat
350
91
  3
FlatWithEdges
350
92
  3
Gouraud
350
93
  3
GouraudWithEdges
350
94
  3
Linepattern
350
9B
  3
Realistic
350
46
  3
Thicken
350
9A
  0
XRECORD
  5
8A
102
{ACAD_REACTORS
330
8
102
}
330
8
100
AcDbXrecord
280
     1
 90
        1
330
45
  0
DICTIONARY
  5
8B
102
{ACAD_REACTORS
330
8
102
}
330
8
100
AcDbDictionary
281
     1
  3
CANNOSCALE
350
8E
  3
CMLEADERSTYLE
350
8D
  3
CTABLESTYLE
350
8C
  3
DIMASSOC
350
211
  3
HIDETEXT
350
210
  3
INDEXCTL
350
20F
  3
LIGHTINGUNITS
350
8F
  3
MSLTSCALE
350
20D
  3
SORTENTS
350
20E
  0
XRECORD
  5
213
102
{ACAD_REACTORS
330
8
102
}
330
8
100
AcDbXrecord
280
     1
  1
DWGPROPS COOKIE
  2

  3

  4

  6

  7

  8
y.kohno
  9

300
=
301
=
302
=
303
=
304
=
305
=
306
=
307
=
308
=
309
=
 40
2.545237569444444
 41
2454700.465712893
 42
2454816.728488773
  1

 90
        0
  0
XRECORD
  5
C3
102
{ACAD_REACTORS
330
C2
102
}
330
C2
100
AcDbXrecord
280
     1
290
     1
  0
SORTENTSTABLE
  5
1EF
102
{ACAD_REACTORS
330
3
102
}
330
3
100
AcDbSortentsTable
330
2
331
1D4
  5
20B
331
1D2
  5
1D3
331
1D0
  5
1D1
331
1D3
  5
1D4
331
1D1
  5
1D2
331
17A
  5
187
331
20B
  5
17A
331
187
  5
1D0
  0
SORTENTSTABLE
  5
196
102
{ACAD_REACTORS
330
195
102
}
330
195
100
AcDbSortentsTable
330
194
  0
SORTENTSTABLE
  5
1B8
102
{ACAD_REACTORS
330
1B7
102
}
330
1B7
100
AcDbSortentsTable
330
1B6
  0
SORTENTSTABLE
  5
1CB
102
{ACAD_REACTORS
330
1CA
102
}
330
1CA
100
AcDbSortentsTable
330
1C1
331
1C5
  5
1C6
331
1C3
  5
1C4
331
1C8
  5
1C9
331
1C6
  5
1C7
331
1C4
  5
1C5
331
1C2
  5
1C3
331
1C9
  5
1C2
331
1C7
  5
1C8
  0
LAYOUT
  5
14
102
{ACAD_XDICTIONARY
360
215
102
}
102
{ACAD_REACTORS
330
15
102
}
330
15
100
AcDbPlotSettings
  1

  2
none_device
  4
ISO_A4_(210.00_x_297.00_MM)
  6

 40
7.5
 41
20.0
 42
7.5
 43
20.0
 44
210.0
 45
297.0
 46
0.0
 47
0.0
 48
0.0
 49
0.0
140
0.0
141
0.0
142
1.0
143
1.99415514565213
 70
 11952
 72
     1
 73
     1
 74
     0
  7
monochrome.ctb
 75
     0
147
0.501465496393451
148
149.9506215158044
149
183.2461548188916
100
AcDbLayout
  1
Model
 70
     1
 71
     0
 10
0.0
 20
0.0
 11
12.0
 21
9.0
 12
0.0
 22
0.0
 32
0.0
 14
0.0
 24
0.0
 34
0.0
 15
0.0
 25
0.0
 35
0.0
146
0.0
 13
0.0
 23
0.0
 33
0.0
 16
1.0
 26
0.0
 36
0.0
 17
0.0
 27
1.0
 37
0.0
 76
     0
330
2
331
24
1001
ACAD_PSEXT
1000
なし
1000
なし
1000
適切ではありません
1000
新しいプロッタ環境設定名を選択しない限り、レイアウトは印刷されません。
1070
     0
  0
LAYOUT
  5
19
102
{ACAD_XDICTIONARY
360
217
102
}
102
{ACAD_REACTORS
330
15
102
}
330
15
100
AcDbPlotSettings
  1

  2
EPSON LP-7100
  4
A4
  6

 40
5.873749732971191
 41
5.873747825622558
 42
5.873748779296875
 43
5.873748779296875
 44
209.9733276367187
 45
297.0106506347656
 46
0.0
 47
0.0
 48
0.0
 49
0.0
140
0.0
141
0.0
142
1.0
143
1.0
 70
   688
 72
     1
 73
     1
 74
     5
  7
monochrome.ctb
 75
     0
147
1.0
148
0.0
149
0.0
100
AcDbLayout
  1
ﾚｲｱｳﾄ1
 70
     1
 71
     1
 10
-5.873748779296875
 20
-5.873749732971191
 11
291.1369018554688
 21
204.0995779037475
 12
0.0
 22
0.0
 32
0.0
 14
48.24483585132748
 24
44.18687850080998
 34
0.0
 15
154.2448358513275
 25
152.18687850081
 35
0.0
146
0.0
 13
0.0
 23
0.0
 33
0.0
 16
1.0
 26
0.0
 36
0.0
 17
0.0
 27
1.0
 37
0.0
 76
     0
330
16
  0
MATERIAL
  5
38
102
{ACAD_XDICTIONARY
360
39
102
}
102
{ACAD_REACTORS
330
A
102
}
330
A
100
AcDbMaterial
  1
ByBlock
 72
     0
 43
0.0208333333333333
 43
0.0
 43
0.0
 43
0.0
 43
0.0
 43
0.0208333333333333
 43
0.0
 43
0.0
 43
0.0
 43
0.0
 43
1.0
 43
0.0
 43
0.0
 43
0.0
 43
0.0
 43
1.0
 77
     0
 47
0.0208333333333333
 47
0.0
 47
0.0
 47
0.0
 47
0.0
 47
0.0208333333333333
 47
0.0
 47
0.0
 47
0.0
 47
0.0
 47
1.0
 47
0.0
 47
0.0
 47
0.0
 47
0.0
 47
1.0
171
     0
 49
0.0208333333333333
 49
0.0
 49
0.0
 49
0.0
 49
0.0
 49
0.0208333333333333
 49
0.0
 49
0.0
 49
0.0
 49
0.0
 49
1.0
 49
0.0
 49
0.0
 49
0.0
 49
0.0
 49
1.0
175
     0
142
0.0208333333333333
142
0.0
142
0.0
142
0.0
142
0.0
142
0.0208333333333333
142
0.0
142
0.0
142
0.0
142
0.0
142
1.0
142
0.0
142
0.0
142
0.0
142
0.0
142
1.0
179
     0
144
0.0208333333333333
144
0.0
144
0.0
144
0.0
144
0.0
144
0.0208333333333333
144
0.0
144
0.0
144
0.0
144
0.0
144
1.0
144
0.0
144
0.0
144
0.0
144
0.0
144
1.0
147
0.0208333333333333
147
0.0
147
0.0
147
0.0
147
0.0
147
0.0208333333333333
147
0.0
147
0.0
147
0.0
147
0.0
147
1.0
147
0.0
147
0.0
147
0.0
147
0.0
147
1.0
  0
MATERIAL
  5
30
102
{ACAD_XDICTIONARY
360
31
102
}
102
{ACAD_REACTORS
330
A
102
}
330
A
100
AcDbMaterial
  1
ByLayer
 72
     0
 43
0.0208333333333333
 43
0.0
 43
0.0
 43
0.0
 43
0.0
 43
0.0208333333333333
 43
0.0
 43
0.0
 43
0.0
 43
0.0
 43
1.0
 43
0.0
 43
0.0
 43
0.0
 43
0.0
 43
1.0
 77
     0
 47
0.0208333333333333
 47
0.0
 47
0.0
 47
0.0
 47
0.0
 47
0.0208333333333333
 47
0.0
 47
0.0
 47
0.0
 47
0.0
 47
1.0
 47
0.0
 47
0.0
 47
0.0
 47
0.0
 47
1.0
171
     0
 49
0.0208333333333333
 49
0.0
 49
0.0
 49
0.0
 49
0.0
 49
0.0208333333333333
 49
0.0
 49
0.0
 49
0.0
 49
0.0
 49
1.0
 49
0.0
 49
0.0
 49
0.0
 49
0.0
 49
1.0
175
     0
142
0.0208333333333333
142
0.0
142
0.0
142
0.0
142
0.0
142
0.0208333333333333
142
0.0
142
0.0
142
0.0
142
0.0
142
1.0
142
0.0
142
0.0
142
0.0
142
0.0
142
1.0
179
     0
144
0.0208333333333333
144
0.0
144
0.0
144
0.0
144
0.0
144
0.0208333333333333
144
0.0
144
0.0
144
0.0
144
0.0
144
1.0
144
0.0
144
0.0
144
0.0
144
0.0
144
1.0
147
0.0208333333333333
147
0.0
147
0.0
147
0.0
147
0.0
147
0.0208333333333333
147
0.0
147
0.0
147
0.0
147
0.0
147
1.0
147
0.0
147
0.0
147
0.0
147
0.0
147
1.0
  0
MATERIAL
  5
9
102
{ACAD_XDICTIONARY
360
B
102
}
102
{ACAD_REACTORS
330
A
102
}
330
A
100
AcDbMaterial
  1
Global
 72
     0
 43
0.0208333333333333
 43
0.0
 43
0.0
 43
0.0
 43
0.0
 43
0.0208333333333333
 43
0.0
 43
0.0
 43
0.0
 43
0.0
 43
1.0
 43
0.0
 43
0.0
 43
0.0
 43
0.0
 43
1.0
 77
     0
 47
0.0208333333333333
 47
0.0
 47
0.0
 47
0.0
 47
0.0
 47
0.0208333333333333
 47
0.0
 47
0.0
 47
0.0
 47
0.0
 47
1.0
 47
0.0
 47
0.0
 47
0.0
 47
0.0
 47
1.0
171
     0
 49
0.0208333333333333
 49
0.0
 49
0.0
 49
0.0
 49
0.0
 49
0.0208333333333333
 49
0.0
 49
0.0
 49
0.0
 49
0.0
 49
1.0
 49
0.0
 49
0.0
 49
0.0
 49
0.0
 49
1.0
175
     0
142
0.0208333333333333
142
0.0
142
0.0
142
0.0
142
0.0
142
0.0208333333333333
142
0.0
142
0.0
142
0.0
142
0.0
142
1.0
142
0.0
142
0.0
142
0.0
142
0.0
142
1.0
179
     0
144
0.0208333333333333
144
0.0
144
0.0
144
0.0
144
0.0
144
0.0208333333333333
144
0.0
144
0.0
144
0.0
144
0.0
144
1.0
144
0.0
144
0.0
144
0.0
144
0.0
144
1.0
147
0.0208333333333333
147
0.0
147
0.0
147
0.0
147
0.0
147
0.0208333333333333
147
0.0
147
0.0
147
0.0
147
0.0
147
1.0
147
0.0
147
0.0
147
0.0
147
0.0
147
1.0
  0
MLEADERSTYLE
  5
9F
102
{ACAD_REACTORS
330
9E
102
}
330
9E
100
AcDbMLeaderStyle
170
     2
171
     1
172
     0
 90
        2
 40
0.0
 41
0.0
173
     1
 91
-1056964608
340
1F
 92
       -2
290
     1
 42
2.0
291
     1
 43
0.36
  3
Standard
 44
4.0
300

342
1C
174
     1
178
     6
175
     1
176
     0
 93
-1056964608
 45
4.0
292
     0
297
     0
 46
4.0
 94
-1056964608
 47
1.0
 49
1.0
140
1.0
293
     1
141
0.0
294
     1
177
     0
142
1.0
295
     0
296
     0
143
0.125
1001
ACAD_MLEADERVER
1070
     2
  0
MLINESTYLE
  5
44
102
{ACAD_REACTORS
330
2E
102
}
330
2E
100
AcDbMlineStyle
  2
STANDARD
 70
     0
  3

 62
     0
 51
90.0
 52
90.0
 71
     2
 49
0.5
 62
   256
  6
BYLAYER
 49
-0.5
 62
   256
  6
BYLAYER
  0
ACDBPLACEHOLDER
  5
6
102
{ACAD_REACTORS
330
7
102
}
330
7
  0
SCALE
  5
48
102
{ACAD_REACTORS
330
41
102
}
330
41
100
AcDbScale
 70
     0
300
1:1
140
1.0
141
1.0
290
     1
  0
SCALE
  5
49
102
{ACAD_REACTORS
330
41
102
}
330
41
100
AcDbScale
 70
     0
300
1:2
140
1.0
141
2.0
290
     0
  0
SCALE
  5
4A
102
{ACAD_REACTORS
330
41
102
}
330
41
100
AcDbScale
 70
     0
300
1:4
140
1.0
141
4.0
290
     0
  0
SCALE
  5
4B
102
{ACAD_REACTORS
330
41
102
}
330
41
100
AcDbScale
 70
     0
300
1:5
140
1.0
141
5.0
290
     0
  0
SCALE
  5
4C
102
{ACAD_REACTORS
330
41
102
}
330
41
100
AcDbScale
 70
     0
300
1:8
140
1.0
141
8.0
290
     0
  0
SCALE
  5
4D
102
{ACAD_REACTORS
330
41
102
}
330
41
100
AcDbScale
 70
     0
300
1:10
140
1.0
141
10.0
290
     0
  0
SCALE
  5
4E
102
{ACAD_REACTORS
330
41
102
}
330
41
100
AcDbScale
 70
     0
300
1:16
140
1.0
141
16.0
290
     0
  0
SCALE
  5
4F
102
{ACAD_REACTORS
330
41
102
}
330
41
100
AcDbScale
 70
     0
300
1:20
140
1.0
141
20.0
290
     0
  0
SCALE
  5
50
102
{ACAD_REACTORS
330
41
102
}
330
41
100
AcDbScale
 70
     0
300
1:30
140
1.0
141
30.0
290
     0
  0
SCALE
  5
51
102
{ACAD_REACTORS
330
41
102
}
330
41
100
AcDbScale
 70
     0
300
1:40
140
1.0
141
40.0
290
     0
  0
SCALE
  5
52
102
{ACAD_REACTORS
330
41
102
}
330
41
100
AcDbScale
 70
     0
300
1:50
140
1.0
141
50.0
290
     0
  0
SCALE
  5
53
102
{ACAD_REACTORS
330
41
102
}
330
41
100
AcDbScale
 70
     0
300
1:100
140
1.0
141
100.0
290
     0
  0
SCALE
  5
54
102
{ACAD_REACTORS
330
41
102
}
330
41
100
AcDbScale
 70
     0
300
2:1
140
2.0
141
1.0
290
     0
  0
SCALE
  5
55
102
{ACAD_REACTORS
330
41
102
}
330
41
100
AcDbScale
 70
     0
300
4:1
140
4.0
141
1.0
290
     0
  0
SCALE
  5
56
102
{ACAD_REACTORS
330
41
102
}
330
41
100
AcDbScale
 70
     0
300
8:1
140
8.0
141
1.0
290
     0
  0
SCALE
  5
57
102
{ACAD_REACTORS
330
41
102
}
330
41
100
AcDbScale
 70
     0
300
10:1
140
10.0
141
1.0
290
     0
  0
SCALE
  5
58
102
{ACAD_REACTORS
330
41
102
}
330
41
100
AcDbScale
 70
     0
300
100:1
140
100.0
141
1.0
290
     0
  0
SCALE
  5
59
102
{ACAD_REACTORS
330
41
102
}
330
41
100
AcDbScale
 70
     0
300
1/128" = 1'-0"
140
0.0078125
141
12.0
290
     0
  0
SCALE
  5
5A
102
{ACAD_REACTORS
330
41
102
}
330
41
100
AcDbScale
 70
     0
300
1/64" = 1'-0"
140
0.015625
141
12.0
290
     0
  0
SCALE
  5
5B
102
{ACAD_REACTORS
330
41
102
}
330
41
100
AcDbScale
 70
     0
300
1/32" = 1'-0"
140
0.03125
141
12.0
290
     0
  0
SCALE
  5
5C
102
{ACAD_REACTORS
330
41
102
}
330
41
100
AcDbScale
 70
     0
300
1/16" = 1'-0"
140
0.0625
141
12.0
290
     0
  0
SCALE
  5
5D
102
{ACAD_REACTORS
330
41
102
}
330
41
100
AcDbScale
 70
     0
300
3/32" = 1'-0"
140
0.09375
141
12.0
290
     0
  0
SCALE
  5
5E
102
{ACAD_REACTORS
330
41
102
}
330
41
100
AcDbScale
 70
     0
300
1/8" = 1'-0"
140
0.125
141
12.0
290
     0
  0
SCALE
  5
5F
102
{ACAD_REACTORS
330
41
102
}
330
41
100
AcDbScale
 70
     0
300
3/16" = 1'-0"
140
0.1875
141
12.0
290
     0
  0
SCALE
  5
60
102
{ACAD_REACTORS
330
41
102
}
330
41
100
AcDbScale
 70
     0
300
1/4" = 1'-0"
140
0.25
141
12.0
290
     0
  0
SCALE
  5
61
102
{ACAD_REACTORS
330
41
102
}
330
41
100
AcDbScale
 70
     0
300
3/8" = 1'-0"
140
0.375
141
12.0
290
     0
  0
SCALE
  5
62
102
{ACAD_REACTORS
330
41
102
}
330
41
100
AcDbScale
 70
     0
300
1/2" = 1'-0"
140
0.5
141
12.0
290
     0
  0
SCALE
  5
63
102
{ACAD_REACTORS
330
41
102
}
330
41
100
AcDbScale
 70
     0
300
3/4" = 1'-0"
140
0.75
141
12.0
290
     0
  0
SCALE
  5
64
102
{ACAD_REACTORS
330
41
102
}
330
41
100
AcDbScale
 70
     0
300
1" = 1'-0"
140
1.0
141
12.0
290
     0
  0
SCALE
  5
65
102
{ACAD_REACTORS
330
41
102
}
330
41
100
AcDbScale
 70
     0
300
1-1/2" = 1'-0"
140
1.5
141
12.0
290
     0
  0
SCALE
  5
66
102
{ACAD_REACTORS
330
41
102
}
330
41
100
AcDbScale
 70
     0
300
3" = 1'-0"
140
3.0
141
12.0
290
     0
  0
SCALE
  5
67
102
{ACAD_REACTORS
330
41
102
}
330
41
100
AcDbScale
 70
     0
300
6" = 1'-0"
140
6.0
141
12.0
290
     0
  0
SCALE
  5
68
102
{ACAD_REACTORS
330
41
102
}
330
41
100
AcDbScale
 70
     0
300
1'-0" = 1'-0"
140
12.0
141
12.0
290
     0
  0
TABLESTYLE
  5
45
102
{ACAD_XDICTIONARY
360
88
102
}
102
{ACAD_REACTORS
330
42
102
}
330
42
100
AcDbTableStyle
  3
Standard
 70
     0
 71
     0
 40
1.5
 41
1.5
280
     0
281
     0
  7
STANDARD
140
4.5
170
     2
 62
     0
 63
     7
283
     0
274
    -2
284
     1
 64
     0
275
    -2
285
     1
 65
     0
276
    -2
286
     1
 66
     0
277
    -2
287
     1
 67
     0
278
    -2
288
     1
 68
     0
279
    -2
289
     1
 69
     0
  7
STANDARD
140
6.0
170
     5
 62
     0
 63
     7
283
     0
274
    -2
284
     1
 64
     0
275
    -2
285
     1
 65
     0
276
    -2
286
     1
 66
     0
277
    -2
287
     1
 67
     0
278
    -2
288
     1
 68
     0
279
    -2
289
     1
 69
     0
  7
STANDARD
140
4.5
170
     5
 62
     0
 63
     7
283
     0
274
    -2
284
     1
 64
     0
275
    -2
285
     1
 65
     0
276
    -2
286
     1
 66
     0
277
    -2
287
     1
 67
     0
278
    -2
288
     1
 68
     0
279
    -2
289
     1
 69
     0
  0
VISUALSTYLE
  5
25
102
{ACAD_REACTORS
330
26
102
}
330
26
100
AcDbVisualStyle
  2
2dWireframe
 70
     4
 71
     0
 72
     2
 73
     0
 90
        0
 40
-0.6
 41
-30.0
 62
     5
 63
     7
 74
     1
 91
        4
 64
     7
 65
   257
 75
     1
175
     1
 42
1.0
 92
        0
 66
   257
 43
1.0
 76
     1
 77
     6
 78
     2
 67
     7
 79
     5
170
     0
171
     0
290
     0
174
     0
 93
        1
 44
0.0
173
     0
291
     0
 45
0.0
1001
ACAD
1000
AcDbSavedByObjectVersion
1070
     0
  0
VISUALSTYLE
  5
96
102
{ACAD_REACTORS
330
26
102
}
330
26
100
AcDbVisualStyle
  2
3D Hidden
 70
     6
 71
     1
 72
     2
 73
     2
 90
        0
 40
-0.6
 41
-30.0
 62
     5
 63
     7
 74
     2
 91
        2
 64
     7
 65
   257
 75
     2
175
     1
 42
40.0
 92
        0
 66
   257
 43
1.0
 76
     1
 77
     6
 78
     2
 67
     7
 79
     3
170
     0
171
     0
290
     0
174
     0
 93
        1
 44
0.0
173
     0
291
     0
 45
0.0
1001
ACAD
1000
AcDbSavedByObjectVersion
1070
     0
  0
VISUALSTYLE
  5
47
102
{ACAD_REACTORS
330
26
102
}
330
26
100
AcDbVisualStyle
  2
3dWireframe
 70
     5
 71
     0
 72
     2
 73
     0
 90
        0
 40
-0.6
 41
-30.0
 62
     5
 63
     7
 74
     1
 91
        4
 64
     7
 65
   257
 75
     1
175
     1
 42
1.0
 92
        0
 66
   257
 43
1.0
 76
     1
 77
     6
 78
     2
 67
     7
 79
     5
170
     0
171
     0
290
     0
174
     0
 93
        1
 44
0.0
173
     0
291
     0
 45
0.0
1001
ACAD
1000
AcDbSavedByObjectVersion
1070
     0
  0
VISUALSTYLE
  5
95
102
{ACAD_REACTORS
330
26
102
}
330
26
100
AcDbVisualStyle
  2
Basic
 70
     7
 71
     1
 72
     0
 73
     1
 90
        0
 40
-0.6
 41
-30.0
 62
     5
 63
     7
 74
     0
 91
        4
 64
     7
 65
   257
 75
     1
175
     1
 42
1.0
 92
        8
 66
     7
 43
1.0
 76
     1
 77
     6
 78
     2
 67
     7
 79
     5
170
     0
171
     0
290
     0
174
     0
 93
        1
 44
0.0
173
     0
291
     1
 45
0.0
1001
ACAD
1000
AcDbSavedByObjectVersion
1070
     0
  0
VISUALSTYLE
  5
99
102
{ACAD_REACTORS
330
26
102
}
330
26
100
AcDbVisualStyle
  2
Brighten
 70
    12
 71
     2
 72
     2
 73
     0
 90
        0
 40
-0.6
 41
-30.0
 62
     5
 63
     7
 74
     1
 91
        4
 64
     7
 65
   257
 75
     1
175
     1
 42
1.0
 92
        8
 66
     7
 43
1.0
 76
     1
 77
     6
 78
     2
 67
     7
 79
     5
170
     0
171
     0
290
     0
174
     0
 93
        1
 44
50.0
173
     0
291
     1
 45
0.0
1001
ACAD
1000
AcDbSavedByObjectVersion
1070
     0
  0
VISUALSTYLE
  5
9D
102
{ACAD_REACTORS
330
26
102
}
330
26
100
AcDbVisualStyle
  2
ColorChange
 70
    16
 71
     2
 72
     2
 73
     3
 90
        0
 40
-0.6
 41
-30.0
 62
     5
 63
     8
 74
     1
 91
        4
 64
     7
 65
   257
 75
     1
175
     1
 42
1.0
 92
        8
 66
     8
 43
1.0
 76
     1
 77
     6
 78
     2
 67
     7
 79
     5
170
     0
171
     0
290
     0
174
     0
 93
        1
 44
0.0
173
     0
291
     1
 45
0.0
1001
ACAD
1000
AcDbSavedByObjectVersion
1070
     0
  0
VISUALSTYLE
  5
97
102
{ACAD_REACTORS
330
26
102
}
330
26
100
AcDbVisualStyle
  2
Conceptual
 70
     9
 71
     3
 72
     2
 73
     0
 90
        0
 40
-0.6
 41
-30.0
 62
     5
 63
     7
 74
     2
 91
        2
 64
     7
 65
   257
 75
     1
175
     1
 42
40.0
 92
        8
 66
     7
 43
1.0
 76
     1
 77
     6
 78
     2
 67
     7
 79
     3
170
     0
171
     0
290
     0
174
     0
 93
        1
 44
0.0
173
     0
291
     0
 45
0.0
1001
ACAD
1000
AcDbSavedByObjectVersion
1070
     0
  0
VISUALSTYLE
  5
98
102
{ACAD_REACTORS
330
26
102
}
330
26
100
AcDbVisualStyle
  2
Dim
 70
    11
 71
     2
 72
     2
 73
     0
 90
        0
 40
-0.6
 41
-30.0
 62
     5
 63
     7
 74
     1
 91
        4
 64
     7
 65
   257
 75
     1
175
     1
 42
1.0
 92
        8
 66
     7
 43
1.0
 76
     1
 77
     6
 78
     2
 67
     7
 79
     5
170
     0
171
     0
290
     0
174
     0
 93
        1
 44
-50.0
173
     0
291
     1
 45
0.0
1001
ACAD
1000
AcDbSavedByObjectVersion
1070
     0
  0
VISUALSTYLE
  5
9C
102
{ACAD_REACTORS
330
26
102
}
330
26
100
AcDbVisualStyle
  2
Facepattern
 70
    15
 71
     2
 72
     2
 73
     0
 90
        0
 40
-0.6
 41
-30.0
 62
     5
 63
     7
 74
     1
 91
        4
 64
     7
 65
   257
 75
     1
175
     1
 42
1.0
 92
        8
 66
     7
 43
1.0
 76
     1
 77
     6
 78
     2
 67
     7
 79
     5
170
     0
171
     0
290
     0
174
     0
 93
        1
 44
0.0
173
     0
291
     1
 45
0.0
1001
ACAD
1000
AcDbSavedByObjectVersion
1070
     0
  0
VISUALSTYLE
  5
91
102
{ACAD_REACTORS
330
26
102
}
330
26
100
AcDbVisualStyle
  2
Flat
 70
     0
 71
     2
 72
     1
 73
     1
 90
        2
 40
-0.6
 41
30.0
 62
     5
 63
     7
 74
     0
 91
        4
 64
     7
 65
   257
 75
     1
175
     1
 42
1.0
 92
        8
 66
     7
 43
1.0
 76
     1
 77
     6
 78
     2
 67
     7
 79
     5
170
     0
171
     0
290
     0
174
     0
 93
       13
 44
0.0
173
     0
291
     1
 45
0.0
1001
ACAD
1000
AcDbSavedByObjectVersion
1070
     0
  0
VISUALSTYLE
  5
92
102
{ACAD_REACTORS
330
26
102
}
330
26
100
AcDbVisualStyle
  2
FlatWithEdges
 70
     1
 71
     2
 72
     1
 73
     1
 90
        2
 40
-0.6
 41
30.0
 62
     5
 63
     7
 74
     1
 91
        4
 64
     7
 65
   257
 75
     1
175
     1
 42
1.0
 92
        0
 66
   257
 43
1.0
 76
     1
 77
     6
 78
     2
 67
     7
 79
     5
170
     0
171
     0
290
     0
174
     0
 93
       13
 44
0.0
173
     0
291
     1
 45
0.0
1001
ACAD
1000
AcDbSavedByObjectVersion
1070
     0
  0
VISUALSTYLE
  5
93
102
{ACAD_REACTORS
330
26
102
}
330
26
100
AcDbVisualStyle
  2
Gouraud
 70
     2
 71
     2
 72
     2
 73
     1
 90
        2
 40
-0.6
 41
30.0
 62
     5
 63
     7
 74
     0
 91
        4
 64
     7
 65
   257
 75
     1
175
     1
 42
1.0
 92
        0
 66
     7
 43
1.0
 76
     1
 77
     6
 78
     2
 67
     7
 79
     5
170
     0
171
     0
290
     0
174
     0
 93
       13
 44
0.0
173
     0
291
     1
 45
0.0
1001
ACAD
1000
AcDbSavedByObjectVersion
1070
     0
  0
VISUALSTYLE
  5
94
102
{ACAD_REACTORS
330
26
102
}
330
26
100
AcDbVisualStyle
  2
GouraudWithEdges
 70
     3
 71
     2
 72
     2
 73
     1
 90
        2
 40
-0.6
 41
30.0
 62
     5
 63
     7
 74
     1
 91
        4
 64
     7
 65
   257
 75
     1
175
     1
 42
1.0
 92
        0
 66
   257
 43
1.0
 76
     1
 77
     6
 78
     2
 67
     7
 79
     5
170
     0
171
     0
290
     0
174
     0
 93
       13
 44
0.0
173
     0
291
     1
 45
0.0
1001
ACAD
1000
AcDbSavedByObjectVersion
1070
     0
  0
VISUALSTYLE
  5
9B
102
{ACAD_REACTORS
330
26
102
}
330
26
100
AcDbVisualStyle
  2
Linepattern
 70
    14
 71
     2
 72
     2
 73
     0
 90
        0
 40
-0.6
 41
-30.0
 62
     5
 63
     7
 74
     1
 91
        4
 64
     7
 65
   257
 75
     7
175
     7
 42
1.0
 92
        8
 66
     7
 43
1.0
 76
     1
 77
     6
 78
     2
 67
     7
 79
     5
170
     0
171
     0
290
     0
174
     0
 93
        1
 44
0.0
173
     0
291
     1
 45
0.0
1001
ACAD
1000
AcDbSavedByObjectVersion
1070
     0
  0
VISUALSTYLE
  5
46
102
{ACAD_REACTORS
330
26
102
}
330
26
100
AcDbVisualStyle
  2
Realistic
 70
     8
 71
     2
 72
     2
 73
     0
 90
        0
 40
-0.6
 41
-30.0
 62
     5
 63
     7
 74
     1
 91
        0
 64
     7
 65
   257
 75
     1
175
     1
 42
1.0
 92
        8
 66
     8
 43
1.0
 76
     1
 77
     6
 78
     2
 67
     7
 79
     5
170
     0
171
     0
290
     0
174
     0
 93
       13
 44
0.0
173
     0
291
     0
 45
0.0
1001
ACAD
1000
AcDbSavedByObjectVersion
1070
     0
  0
VISUALSTYLE
  5
9A
102
{ACAD_REACTORS
330
26
102
}
330
26
100
AcDbVisualStyle
  2
Thicken
 70
    13
 71
     2
 72
     2
 73
     0
 90
        0
 40
-0.6
 41
-30.0
 62
     5
 63
     7
 74
     1
 91
        4
 64
     7
 65
   257
 75
     1
175
     1
 42
1.0
 92
       12
 66
     7
 43
1.0
 76
     1
 77
     6
 78
     2
 67
     7
 79
     5
170
     0
171
     0
290
     0
174
     0
 93
        1
 44
0.0
173
     0
291
     1
 45
0.0
1001
ACAD
1000
AcDbSavedByObjectVersion
1070
     0
  0
DICTIONARYVAR
  5
8E
102
{ACAD_REACTORS
330
8B
102
}
330
8B
100
DictionaryVariables
280
     0
  1
1:1
  0
DICTIONARYVAR
  5
8D
102
{ACAD_REACTORS
330
8B
102
}
330
8B
100
DictionaryVariables
280
     0
  1
STANDARD
  0
DICTIONARYVAR
  5
8C
102
{ACAD_REACTORS
330
8B
102
}
330
8B
100
DictionaryVariables
280
     0
  1
STANDARD
  0
DICTIONARYVAR
  5
211
102
{ACAD_REACTORS
330
8B
102
}
330
8B
100
DictionaryVariables
280
     0
  1
1
  0
DICTIONARYVAR
  5
210
102
{ACAD_REACTORS
330
8B
102
}
330
8B
100
DictionaryVariables
280
     0
  1
1
  0
DICTIONARYVAR
  5
20F
102
{ACAD_REACTORS
330
8B
102
}
330
8B
100
DictionaryVariables
280
     0
  1
0
  0
DICTIONARYVAR
  5
8F
102
{ACAD_REACTORS
330
8B
102
}
330
8B
100
DictionaryVariables
280
     0
  1
0
  0
DICTIONARYVAR
  5
20D
102
{ACAD_REACTORS
330
8B
102
}
330
8B
100
DictionaryVariables
280
     0
  1
1
  0
DICTIONARYVAR
  5
20E
102
{ACAD_REACTORS
330
8B
102
}
330
8B
100
DictionaryVariables
280
     0
  1
127
  0
DICTIONARY
  5
215
330
14
100
AcDbDictionary
280
     1
281
     1
  3
ACAD_XREC_ROUNDTRIP
360
216
  0
DICTIONARY
  5
217
330
19
100
AcDbDictionary
280
     1
281
     1
  3
ACAD_XREC_ROUNDTRIP
360
218
  0
DICTIONARY
  5
39
330
38
100
AcDbDictionary
280
     1
281
     1
  3
ACAD_XREC_ROUNDTRIP
360
21A
  3
BUMPTILE
360
3A
  3
DIFFUSETILE
360
3B
  3
OPACITYTILE
360
3C
  3
REFLECTIONTILE
360
3D
  3
REFRACTIONTILE
360
3E
  3
SPECULARTILE
360
3F
  0
DICTIONARY
  5
31
330
30
100
AcDbDictionary
280
     1
281
     1
  3
ACAD_XREC_ROUNDTRIP
360
219
  3
BUMPTILE
360
32
  3
DIFFUSETILE
360
33
  3
OPACITYTILE
360
34
  3
REFLECTIONTILE
360
35
  3
REFRACTIONTILE
360
36
  3
SPECULARTILE
360
37
  0
DICTIONARY
  5
B
330
9
100
AcDbDictionary
280
     1
281
     1
  3
ACAD_XREC_ROUNDTRIP
360
214
  3
BUMPTILE
360
C
  3
DIFFUSETILE
360
D
  3
OPACITYTILE
360
E
  3
REFLECTIONTILE
360
F
  3
REFRACTIONTILE
360
10
  3
SPECULARTILE
360
11
  0
DICTIONARY
  5
88
330
45
100
AcDbDictionary
280
     1
281
     1
  3
ACAD_ROUNDTRIP_2008_TABLESTYLE_CELLSTYLEMAP
360
212
  3
ACAD_XREC_ROUNDTRIP
360
21B
  0
XRECORD
  5
216
102
{ACAD_REACTORS
330
215
102
}
330
215
100
AcDbXrecord
280
     1
102
SHADEPLOT
 70
     0
102
SHADEPLOTRESLEVEL
 70
     2
102
SHADEPLOTCUSTOMDPI
 70
   300
  0
XRECORD
  5
218
102
{ACAD_REACTORS
330
217
102
}
330
217
100
AcDbXrecord
280
     1
102
SHADEPLOT
 70
     0
102
SHADEPLOTRESLEVEL
 70
     2
102
SHADEPLOTCUSTOMDPI
 70
   300
  0
XRECORD
  5
21A
102
{ACAD_REACTORS
330
39
102
}
330
39
100
AcDbXrecord
280
     1
102
MATERIAL
148
0.0
149
0.0
149
0.0
 93
        0
 94
      127
282
     0
 72
     0
 77
     0
171
     0
175
     0
179
     0
273
     0
  0
XRECORD
  5
3A
102
{ACAD_REACTORS
330
39
102
}
330
39
100
AcDbXrecord
280
     1
270
     1
271
     1
  0
XRECORD
  5
3B
102
{ACAD_REACTORS
330
39
102
}
330
39
100
AcDbXrecord
280
     1
270
     1
271
     1
  0
XRECORD
  5
3C
102
{ACAD_REACTORS
330
39
102
}
330
39
100
AcDbXrecord
280
     1
270
     1
271
     1
  0
XRECORD
  5
3D
102
{ACAD_REACTORS
330
39
102
}
330
39
100
AcDbXrecord
280
     1
270
     1
271
     1
  0
XRECORD
  5
3E
102
{ACAD_REACTORS
330
39
102
}
330
39
100
AcDbXrecord
280
     1
270
     1
271
     1
  0
XRECORD
  5
3F
102
{ACAD_REACTORS
330
39
102
}
330
39
100
AcDbXrecord
280
     1
270
     1
271
     1
  0
XRECORD
  5
219
102
{ACAD_REACTORS
330
31
102
}
330
31
100
AcDbXrecord
280
     1
102
MATERIAL
148
0.0
149
0.0
149
0.0
 93
        0
 94
      127
282
     0
 72
     0
 77
     0
171
     0
175
     0
179
     0
273
     0
  0
XRECORD
  5
32
102
{ACAD_REACTORS
330
31
102
}
330
31
100
AcDbXrecord
280
     1
270
     1
271
     1
  0
XRECORD
  5
33
102
{ACAD_REACTORS
330
31
102
}
330
31
100
AcDbXrecord
280
     1
270
     1
271
     1
  0
XRECORD
  5
34
102
{ACAD_REACTORS
330
31
102
}
330
31
100
AcDbXrecord
280
     1
270
     1
271
     1
  0
XRECORD
  5
35
102
{ACAD_REACTORS
330
31
102
}
330
31
100
AcDbXrecord
280
     1
270
     1
271
     1
  0
XRECORD
  5
36
102
{ACAD_REACTORS
330
31
102
}
330
31
100
AcDbXrecord
280
     1
270
     1
271
     1
  0
XRECORD
  5
37
102
{ACAD_REACTORS
330
31
102
}
330
31
100
AcDbXrecord
280
     1
270
     1
271
     1
  0
XRECORD
  5
214
102
{ACAD_REACTORS
330
B
102
}
330
B
100
AcDbXrecord
280
     1
102
MATERIAL
148
0.0
149
0.0
149
0.0
 93
        0
 94
      127
282
     0
 72
     0
 77
     0
171
     0
175
     0
179
     0
273
     0
  0
XRECORD
  5
C
102
{ACAD_REACTORS
330
B
102
}
330
B
100
AcDbXrecord
280
     1
270
     1
271
     1
  0
XRECORD
  5
D
102
{ACAD_REACTORS
330
B
102
}
330
B
100
AcDbXrecord
280
     1
270
     1
271
     1
  0
XRECORD
  5
E
102
{ACAD_REACTORS
330
B
102
}
330
B
100
AcDbXrecord
280
     1
270
     1
271
     1
  0
XRECORD
  5
F
102
{ACAD_REACTORS
330
B
102
}
330
B
100
AcDbXrecord
280
     1
270
     1
271
     1
  0
XRECORD
  5
10
102
{ACAD_REACTORS
330
B
102
}
330
B
100
AcDbXrecord
280
     1
270
     1
271
     1
  0
XRECORD
  5
11
102
{ACAD_REACTORS
330
B
102
}
330
B
100
AcDbXrecord
280
     1
270
     1
271
     1
  0
CELLSTYLEMAP
  5
212
102
{ACAD_REACTORS
330
88
102
}
330
88
100
AcDbCellStyleMap
 90
        3
300
CELLSTYLE
  1
TABLEFORMAT_BEGIN
 90
        5
170
     1
 91
        0
 92
    32768
 62
   257
 93
        1
300
CONTENTFORMAT
  1
CONTENTFORMAT_BEGIN
 90
        0
 91
        0
 92
      512
 93
        0
300

 40
0.0
140
1.0
 94
        5
 62
     0
340
1C
144
6.0
309
CONTENTFORMAT_END
171
     1
301
MARGIN
  1
CELLMARGIN_BEGIN
 40
1.5
 40
1.5
 40
1.5
 40
1.5
 40
4.5
 40
4.5
309
CELLMARGIN_END
 94
        6
 95
        1
302
GRIDFORMAT
  1
GRIDFORMAT_BEGIN
 90
        0
 91
        1
 62
     0
 92
       -2
340
0
 93
        0
 40
1.125
309
GRIDFORMAT_END
 95
        2
302
GRIDFORMAT
  1
GRIDFORMAT_BEGIN
 90
        0
 91
        1
 62
     0
 92
       -2
340
0
 93
        0
 40
1.125
309
GRIDFORMAT_END
 95
        4
302
GRIDFORMAT
  1
GRIDFORMAT_BEGIN
 90
        0
 91
        1
 62
     0
 92
       -2
340
0
 93
        0
 40
1.125
309
GRIDFORMAT_END
 95
        8
302
GRIDFORMAT
  1
GRIDFORMAT_BEGIN
 90
        0
 91
        1
 62
     0
 92
       -2
340
0
 93
        0
 40
1.125
309
GRIDFORMAT_END
 95
       16
302
GRIDFORMAT
  1
GRIDFORMAT_BEGIN
 90
        0
 91
        1
 62
     0
 92
       -2
340
0
 93
        0
 40
1.125
309
GRIDFORMAT_END
 95
       32
302
GRIDFORMAT
  1
GRIDFORMAT_BEGIN
 90
        0
 91
        1
 62
     0
 92
       -2
340
0
 93
        0
 40
1.125
309
GRIDFORMAT_END
309
TABLEFORMAT_END
  1
CELLSTYLE_BEGIN
 90
        1
 91
        1
300
_TITLE
309
CELLSTYLE_END
300
CELLSTYLE
  1
TABLEFORMAT_BEGIN
 90
        5
170
     1
 91
        0
 92
        0
 62
   257
 93
        1
300
CONTENTFORMAT
  1
CONTENTFORMAT_BEGIN
 90
        0
 91
        0
 92
      512
 93
        0
300

 40
0.0
140
1.0
 94
        5
 62
     0
340
1C
144
4.5
309
CONTENTFORMAT_END
171
     1
301
MARGIN
  1
CELLMARGIN_BEGIN
 40
1.5
 40
1.5
 40
1.5
 40
1.5
 40
4.5
 40
4.5
309
CELLMARGIN_END
 94
        6
 95
        1
302
GRIDFORMAT
  1
GRIDFORMAT_BEGIN
 90
        0
 91
        1
 62
     0
 92
       -2
340
0
 93
        0
 40
1.125
309
GRIDFORMAT_END
 95
        2
302
GRIDFORMAT
  1
GRIDFORMAT_BEGIN
 90
        0
 91
        1
 62
     0
 92
       -2
340
0
 93
        0
 40
1.125
309
GRIDFORMAT_END
 95
        4
302
GRIDFORMAT
  1
GRIDFORMAT_BEGIN
 90
        0
 91
        1
 62
     0
 92
       -2
340
0
 93
        0
 40
1.125
309
GRIDFORMAT_END
 95
        8
302
GRIDFORMAT
  1
GRIDFORMAT_BEGIN
 90
        0
 91
        1
 62
     0
 92
       -2
340
0
 93
        0
 40
1.125
309
GRIDFORMAT_END
 95
       16
302
GRIDFORMAT
  1
GRIDFORMAT_BEGIN
 90
        0
 91
        1
 62
     0
 92
       -2
340
0
 93
        0
 40
1.125
309
GRIDFORMAT_END
 95
       32
302
GRIDFORMAT
  1
GRIDFORMAT_BEGIN
 90
        0
 91
        1
 62
     0
 92
       -2
340
0
 93
        0
 40
1.125
309
GRIDFORMAT_END
309
TABLEFORMAT_END
  1
CELLSTYLE_BEGIN
 90
        2
 91
        1
300
_HEADER
309
CELLSTYLE_END
300
CELLSTYLE
  1
TABLEFORMAT_BEGIN
 90
        5
170
     1
 91
        0
 92
        0
 62
   257
 93
        1
300
CONTENTFORMAT
  1
CONTENTFORMAT_BEGIN
 90
        0
 91
        0
 92
      512
 93
        0
300

 40
0.0
140
1.0
 94
        2
 62
     0
340
1C
144
4.5
309
CONTENTFORMAT_END
171
     1
301
MARGIN
  1
CELLMARGIN_BEGIN
 40
1.5
 40
1.5
 40
1.5
 40
1.5
 40
4.5
 40
4.5
309
CELLMARGIN_END
 94
        6
 95
        1
302
GRIDFORMAT
  1
GRIDFORMAT_BEGIN
 90
        0
 91
        1
 62
     0
 92
       -2
340
0
 93
        0
 40
1.125
309
GRIDFORMAT_END
 95
        2
302
GRIDFORMAT
  1
GRIDFORMAT_BEGIN
 90
        0
 91
        1
 62
     0
 92
       -2
340
0
 93
        0
 40
1.125
309
GRIDFORMAT_END
 95
        4
302
GRIDFORMAT
  1
GRIDFORMAT_BEGIN
 90
        0
 91
        1
 62
     0
 92
       -2
340
0
 93
        0
 40
1.125
309
GRIDFORMAT_END
 95
        8
302
GRIDFORMAT
  1
GRIDFORMAT_BEGIN
 90
        0
 91
        1
 62
     0
 92
       -2
340
0
 93
        0
 40
1.125
309
GRIDFORMAT_END
 95
       16
302
GRIDFORMAT
  1
GRIDFORMAT_BEGIN
 90
        0
 91
        1
 62
     0
 92
       -2
340
0
 93
        0
 40
1.125
309
GRIDFORMAT_END
 95
       32
302
GRIDFORMAT
  1
GRIDFORMAT_BEGIN
 90
        0
 91
        1
 62
     0
 92
       -2
340
0
 93
        0
 40
1.125
309
GRIDFORMAT_END
309
TABLEFORMAT_END
  1
CELLSTYLE_BEGIN
 90
        3
 91
        2
300
_DATA
309
CELLSTYLE_END
  0
XRECORD
  5
21B
102
{ACAD_REACTORS
330
88
102
}
330
88
100
AcDbXrecord
280
     1
102
ACAD_ROUNDTRIP_PRE2007_TABLESTYLE
 90
      512
 91
        0
  1

 92
      512
 93
        0
  2

 94
      512
 95
        0
  3

  0
ENDSEC
  0
EOF
