  0
SECTION
  2
HEADER
  9
$ACADVER
  1
AC1015
  9
$ACADMAINTVER
 70
    10
  9
$DWGCODEPAGE
  3
ANSI_932
  9
$INSBASE
 10
0.0
 20
0.0
 30
0.0
  9
$EXTMIN
 10
-1.158496022673187
 20
-0.0060544212081481
 30
-0.0015258207003583
  9
$EXTMAX
 10
58.38928548933404
 20
102.695251597363
 30
0.0000000349246037
  9
$LIMMIN
 10
55.83535156249999
 20
118.2677164713541
  9
$LIMMAX
 10
348.5664930555555
 20
204.4960449218749
  9
$ORTHOMODE
 70
     0
  9
$REGENMODE
 70
     1
  9
$FILLMODE
 70
     1
  9
$QTEXTMODE
 70
     0
  9
$MIRRTEXT
 70
     1
  9
$LTSCALE
 40
1.0
  9
$ATTMODE
 70
     1
  9
$TEXTSIZE
 40
0.0
  9
$TRACEWID
 40
0.05
  9
$TEXTSTYLE
  7
STANDARD
  9
$CLAYER
  8
0
  9
$CELTYPE
  6
CONTINUOUS
  9
$CECOLOR
 62
   256
  9
$CELTSCALE
 40
1.0
  9
$DISPSILH
 70
     0
  9
$DIMSCALE
 40
1.0
  9
$DIMASZ
 40
0.18
  9
$DIMEXO
 40
0.0625
  9
$DIMDLI
 40
0.38
  9
$DIMRND
 40
0.0
  9
$DIMDLE
 40
0.0
  9
$DIMEXE
 40
0.18
  9
$DIMTP
 40
0.0
  9
$DIMTM
 40
0.0
  9
$DIMTXT
 40
0.18
  9
$DIMCEN
 40
0.09
  9
$DIMTSZ
 40
0.0
  9
$DIMTOL
 70
     0
  9
$DIMLIM
 70
     0
  9
$DIMTIH
 70
     1
  9
$DIMTOH
 70
     1
  9
$DIMSE1
 70
     0
  9
$DIMSE2
 70
     0
  9
$DIMTAD
 70
     0
  9
$DIMZIN
 70
     0
  9
$DIMBLK
  1

  9
$DIMASO
 70
     1
  9
$DIMSHO
 70
     1
  9
$DIMPOST
  1

  9
$DIMAPOST
  1

  9
$DIMALT
 70
     0
  9
$DIMALTD
 70
     2
  9
$DIMALTF
 40
25.4
  9
$DIMLFAC
 40
1.0
  9
$DIMTOFL
 70
     0
  9
$DIMTVP
 40
0.0
  9
$DIMTIX
 70
     0
  9
$DIMSOXD
 70
     0
  9
$DIMSAH
 70
     0
  9
$DIMBLK1
  1

  9
$DIMBLK2
  1

  9
$DIMSTYLE
  2
STANDARD
  9
$DIMCLRD
 70
     0
  9
$DIMCLRE
 70
     0
  9
$DIMCLRT
 70
     0
  9
$DIMTFAC
 40
1.0
  9
$DIMGAP
 40
0.09
  9
$DIMJUST
 70
     0
  9
$DIMSD1
 70
     0
  9
$DIMSD2
 70
     0
  9
$DIMTOLJ
 70
     1
  9
$DIMTZIN
 70
     0
  9
$DIMALTZ
 70
     0
  9
$DIMALTTZ
 70
     0
  9
$DIMUPT
 70
     0
  9
$DIMDEC
 70
     4
  9
$DIMTDEC
 70
     4
  9
$DIMALTU
 70
     2
  9
$DIMALTTD
 70
     2
  9
$DIMTXSTY
  7
STANDARD
  9
$DIMAUNIT
 70
     0
  9
$DIMADEC
 70
     0
  9
$DIMALTRND
 40
0.0
  9
$DIMAZIN
 70
     0
  9
$DIMDSEP
 70
    46
  9
$DIMATFIT
 70
     3
  9
$DIMFRAC
 70
     0
  9
$DIMLDRBLK
  1

  9
$DIMLUNIT
 70
     2
  9
$DIMLWD
 70
    -2
  9
$DIMLWE
 70
    -2
  9
$DIMTMOVE
 70
     0
  9
$LUNITS
 70
     2
  9
$LUPREC
 70
     4
  9
$SKETCHINC
 40
0.1
  9
$FILLETRAD
 40
0.0
  9
$AUNITS
 70
     0
  9
$AUPREC
 70
     0
  9
$MENU
  1
acad
  9
$ELEVATION
 40
0.0
  9
$PELEVATION
 40
0.0
  9
$THICKNESS
 40
0.0
  9
$LIMCHECK
 70
     0
  9
$CHAMFERA
 40
0.0
  9
$CHAMFERB
 40
0.0
  9
$CHAMFERC
 40
0.0
  9
$CHAMFERD
 40
0.0
  9
$SKPOLY
 70
     0
  9
$TDCREATE
 40
2444972.375000000
  9
$TDUCREATE
 40
2444972.000000000
  9
$TDUPDATE
 40
2453808.582198669
  9
$TDUUPDATE
 40
2453808.207198669
  9
$TDINDWG
 40
0.0191688310
  9
$TDUSRTIMER
 40
0.0191686458
  9
$USRTIMER
 70
     1
  9
$ANGBASE
 50
0.0
  9
$ANGDIR
 70
     0
  9
$PDMODE
 70
     0
  9
$PDSIZE
 40
0.0
  9
$PLINEWID
 40
0.0
  9
$SPLFRAME
 70
     0
  9
$SPLINETYPE
 70
     6
  9
$SPLINESEGS
 70
     8
  9
$HANDSEED
  5
195
  9
$SURFTAB1
 70
     6
  9
$SURFTAB2
 70
     6
  9
$SURFTYPE
 70
     6
  9
$SURFU
 70
     6
  9
$SURFV
 70
     6
  9
$UCSBASE
  2

  9
$UCSNAME
  2

  9
$UCSORG
 10
0.0
 20
0.0
 30
0.0
  9
$UCSXDIR
 10
1.0
 20
0.0
 30
0.0
  9
$UCSYDIR
 10
0.0
 20
1.0
 30
0.0
  9
$UCSORTHOREF
  2

  9
$UCSORTHOVIEW
 70
     0
  9
$UCSORGTOP
 10
0.0
 20
0.0
 30
0.0
  9
$UCSORGBOTTOM
 10
0.0
 20
0.0
 30
0.0
  9
$UCSORGLEFT
 10
0.0
 20
0.0
 30
0.0
  9
$UCSORGRIGHT
 10
0.0
 20
0.0
 30
0.0
  9
$UCSORGFRONT
 10
0.0
 20
0.0
 30
0.0
  9
$UCSORGBACK
 10
0.0
 20
0.0
 30
0.0
  9
$PUCSBASE
  2

  9
$PUCSNAME
  2

  9
$PUCSORG
 10
0.0
 20
0.0
 30
0.0
  9
$PUCSXDIR
 10
1.0
 20
0.0
 30
0.0
  9
$PUCSYDIR
 10
0.0
 20
1.0
 30
0.0
  9
$PUCSORTHOREF
  2

  9
$PUCSORTHOVIEW
 70
     0
  9
$PUCSORGTOP
 10
0.0
 20
0.0
 30
0.0
  9
$PUCSORGBOTTOM
 10
0.0
 20
0.0
 30
0.0
  9
$PUCSORGLEFT
 10
0.0
 20
0.0
 30
0.0
  9
$PUCSORGRIGHT
 10
0.0
 20
0.0
 30
0.0
  9
$PUCSORGFRONT
 10
0.0
 20
0.0
 30
0.0
  9
$PUCSORGBACK
 10
0.0
 20
0.0
 30
0.0
  9
$USERI1
 70
     0
  9
$USERI2
 70
     0
  9
$USERI3
 70
     0
  9
$USERI4
 70
     0
  9
$USERI5
 70
     0
  9
$USERR1
 40
0.0
  9
$USERR2
 40
0.0
  9
$USERR3
 40
0.0
  9
$USERR4
 40
0.0
  9
$USERR5
 40
0.0
  9
$WORLDVIEW
 70
     1
  9
$SHADEDGE
 70
     3
  9
$SHADEDIF
 70
    70
  9
$TILEMODE
 70
     1
  9
$MAXACTVP
 70
    16
  9
$PINSBASE
 10
0.0
 20
0.0
 30
0.0
  9
$PLIMCHECK
 70
     0
  9
$PEXTMIN
 10
1.000000000000000E+20
 20
1.000000000000000E+20
 30
1.000000000000000E+20
  9
$PEXTMAX
 10
-1.000000000000000E+20
 20
-1.000000000000000E+20
 30
-1.000000000000000E+20
  9
$PLIMMIN
 10
0.0
 20
0.0
  9
$PLIMMAX
 10
12.0
 20
9.0
  9
$UNITMODE
 70
     0
  9
$VISRETAIN
 70
     0
  9
$PLINEGEN
 70
     1
  9
$PSLTSCALE
 70
     0
  9
$TREEDEPTH
 70
  3020
  9
$CMLSTYLE
  2
STANDARD
  9
$CMLJUST
 70
     0
  9
$CMLSCALE
 40
1.0
  9
$PROXYGRAPHICS
 70
     1
  9
$MEASUREMENT
 70
     0
  9
$CELWEIGHT
370
    -1
  9
$ENDCAPS
280
     0
  9
$JOINSTYLE
280
     0
  9
$LWDISPLAY
290
     0
  9
$INSUNITS
 70
     0
  9
$HYPERLINKBASE
  1

  9
$STYLESHEET
  1

  9
$XEDIT
290
     1
  9
$CEPSNTYPE
380
     0
  9
$PSTYLEMODE
290
     1
  9
$FINGERPRINTGUID
  2
{D117E0F5-178A-4225-B4B6-CC8FD63FE2F0}
  9
$VERSIONGUID
  2
{5DA8FFF6-97C2-4AF4-94B7-BDFCA1308F23}
  9
$EXTNAMES
290
     1
  9
$PSVPSCALE
 40
0.0
  9
$OLESTARTUP
290
     0
  0
ENDSEC
  0
SECTION
  2
CLASSES
  0
CLASS
  1
LWPOLYLINE
  2
AcDbPolyline
  3
AutoCAD 2000
 90
    32768
280
     0
281
     1
  0
CLASS
  1
IMAGE
  2
AcDbRasterImage
  3
ISM
 90
    32895
280
     0
281
     1
  0
CLASS
  1
OLE2FRAME
  2
AcDbOle2Frame
  3
AutoCAD 2000
 90
    32768
280
     0
281
     1
  0
CLASS
  1
HATCH
  2
AcDbHatch
  3
AutoCAD 2000
 90
    32768
280
     0
281
     1
  0
CLASS
  1
DICTIONARYVAR
  2
AcDbDictionaryVar
  3
AutoCAD 2000
 90
    32768
280
     0
281
     0
  0
CLASS
  1
RASTERVARIABLES
  2
AcDbRasterVariables
  3
ISM
 90
    32768
280
     0
281
     0
  0
CLASS
  1
IMAGEDEF
  2
AcDbRasterImageDef
  3
ISM
 90
    32768
280
     0
281
     0
  0
CLASS
  1
IMAGEDEF_REACTOR
  2
AcDbRasterImageDefReactor
  3
ISM
 90
    32769
280
     0
281
     0
  0
CLASS
  1
IDBUFFER
  2
AcDbIdBuffer
  3
AutoCAD 2000
 90
    32768
280
     0
281
     0
  0
CLASS
  1
SPATIAL_FILTER
  2
AcDbSpatialFilter
  3
AutoCAD 2000
 90
    32768
280
     0
281
     0
  0
CLASS
  1
XRECORD
  2
AcDbXrecord
  3
AutoCAD 2000
 90
    32768
280
     0
281
     0
  0
CLASS
  1
SORTENTSTABLE
  2
AcDbSortentsTable
  3
AutoCAD 2000
 90
    32768
280
     0
281
     0
  0
CLASS
  1
LAYER_INDEX
  2
AcDbLayerIndex
  3
AutoCAD 2000
 90
    32768
280
     0
281
     0
  0
CLASS
  1
SPATIAL_INDEX
  2
AcDbSpatialIndex
  3
AutoCAD 2000
 90
    32768
280
     0
281
     0
  0
CLASS
  1
OBJECT_PTR
  2
CAseDLPNTableRecord
  3
ASE-LPNTableRecord
 90
    32769
280
     1
281
     0
  0
CLASS
  1
LAYOUT
  2
AcDbLayout
  3
AutoCAD 2000
 90
        0
280
     0
281
     0
  0
CLASS
  1
PLOTSETTINGS
  2
AcDbPlotSettings
  3
AutoCAD 2000
 90
    32768
280
     0
281
     0
  0
CLASS
  1
ACDBDICTIONARYWDFLT
  2
AcDbDictionaryWithDefault
  3
AutoCAD 2000
 90
        0
280
     0
281
     0
  0
CLASS
  1
ACDBPLACEHOLDER
  2
AcDbPlaceHolder
  3
AutoCAD 2000
 90
        0
280
     0
281
     0
  0
CLASS
  1
VBA_PROJECT
  2
AcDbVbaProject
  3
acadvba
 90
    32768
280
     1
281
     0
  0
CLASS
  1
WIPEOUT
  2
AcDbWipeout
  3
WipeOut|AutoCAD Express Tool|expresstools@autodesk.com
 90
    32895
280
     1
281
     1
  0
CLASS
  1
WIPEOUTVARIABLES
  2
AcDbWipeoutVariables
  3
WipeOut|AutoCAD Express Tool|expresstools@autodesk.com
 90
    32768
280
     1
281
     0
  0
CLASS
  1
RTEXT
  2
RText
  3
RText|AutoCAD Express Tool|expresstools@autodesk.com
 90
    32768
280
     1
281
     1
  0
CLASS
  1
ARCALIGNEDTEXT
  2
AcDbArcAlignedText
  3
ATEXT|AutoCAD Express Tool|expresstools@autodesk.com
 90
    32768
280
     1
281
     1
  0
CLASS
  1
LONG_TRANSACTION
  2
AcDbLongTransaction
  3
AutoCAD 2000
 90
    32768
280
     0
281
     0
  0
CLASS
  1
LWPOLYLINE
  2
AcDbPolyline
  3
AutoCAD 2000
 90
    32768
280
     0
281
     1
  0
CLASS
  1
HATCH
  2
AcDbHatch
  3
AutoCAD 2000
 90
    32768
280
     0
281
     1
  0
CLASS
  1
XRECORD
  2
AcDbXrecord
  3
AutoCAD 2000
 90
    32768
280
     0
281
     0
  0
ENDSEC
  0
SECTION
  2
TABLES
  0
TABLE
  2
VPORT
  5
19
330
0
100
AcDbSymbolTable
 70
     4
  0
VPORT
  5
194
330
19
100
AcDbSymbolTableRecord
100
AcDbViewportTableRecord
  2
*Active
 70
     0
 10
0.0
 20
0.0
 11
1.0
 21
1.0
 12
28.65572913595287
 22
51.34459858807744
 13
0.0
 23
0.0
 14
1.0
 24
1.0
 15
0.0
 25
0.0
 16
0.0
 26
0.0
 36
1.0
 17
0.0
 27
0.0
 37
0.0
 40
103.501575935599
 41
1.566970091027308
 42
50.0
 43
0.0
 44
0.0
 50
0.0
 51
0.0
 71
     0
 72
  2000
 73
     1
 74
     1
 75
     0
 76
     0
 77
     0
 78
     0
281
     0
 65
     1
110
0.0
120
0.0
130
0.0
111
1.0
121
0.0
131
0.0
112
0.0
122
1.0
132
0.0
 79
     0
146
0.0
  0
ENDTAB
  0
TABLE
  2
LTYPE
  5
14
330
0
100
AcDbSymbolTable
 70
     1
  0
LTYPE
  5
15
330
14
100
AcDbSymbolTableRecord
100
AcDbLinetypeTableRecord
  2
BYBLOCK
 70
     0
  3

 72
    65
 73
     0
 40
0.0
  0
LTYPE
  5
16
330
14
100
AcDbSymbolTableRecord
100
AcDbLinetypeTableRecord
  2
BYLAYER
 70
     0
  3

 72
    65
 73
     0
 40
0.0
  0
LTYPE
  5
8
330
14
100
AcDbSymbolTableRecord
100
AcDbLinetypeTableRecord
  2
CONTINUOUS
 70
     0
  3
Solid line
 72
    65
 73
     0
 40
0.0
  0
ENDTAB
  0
TABLE
  2
LAYER
  5
10
330
0
100
AcDbSymbolTable
 70
     7
  0
LAYER
  5
4
330
10
100
AcDbSymbolTableRecord
100
AcDbLayerTableRecord
  2
0
 70
     0
 62
     7
  6
CONTINUOUS
370
    -3
390
49
  0
LAYER
  5
5E
330
10
100
AcDbSymbolTableRecord
100
AcDbLayerTableRecord
  2
Defpoints
 70
     0
 62
     7
  6
CONTINUOUS
290
     0
370
    -3
390
49
  0
LAYER
  5
5F
330
10
100
AcDbSymbolTableRecord
100
AcDbLayerTableRecord
  2
SUNPOU
 70
     0
 62
    70
  6
CONTINUOUS
370
    -3
390
49
  0
LAYER
  5
E7
330
10
100
AcDbSymbolTableRecord
100
AcDbLayerTableRecord
  2
KIJUN
 70
     0
 62
     7
  6
CONTINUOUS
370
    -3
390
49
  0
LAYER
  5
E8
330
10
100
AcDbSymbolTableRecord
100
AcDbLayerTableRecord
  2
HOJO
 70
     0
 62
     3
  6
CONTINUOUS
370
    -3
390
49
  0
LAYER
  5
E9
330
10
100
AcDbSymbolTableRecord
100
AcDbLayerTableRecord
  2
WAKU
 70
     0
 62
     1
  6
CONTINUOUS
370
    -3
390
49
  0
ENDTAB
  0
TABLE
  2
STYLE
  5
11
330
0
100
AcDbSymbolTable
 70
     4
  0
STYLE
  5
12
330
11
100
AcDbSymbolTableRecord
100
AcDbTextStyleTableRecord
  2
STANDARD
 70
     0
 40
0.0
 41
1.0
 50
0.0
 71
     0
 42
0.0
  3
txt
  4

  0
STYLE
  5
3B
330
11
100
AcDbSymbolTableRecord
100
AcDbTextStyleTableRecord
  2
STD
 70
     0
 40
0.0
 41
1.0
 50
0.0
 71
     0
 42
0.0
  3
txt
  4

  0
STYLE
  5
60
330
11
100
AcDbSymbolTableRecord
100
AcDbTextStyleTableRecord
  2
LIFE
 70
     0
 40
0.0
 41
0.7
 50
0.0
 71
     0
 42
10.0
  3
romans
  4
extfont
  0
STYLE
  5
EA
330
11
100
AcDbSymbolTableRecord
100
AcDbTextStyleTableRecord
  2
SUNPOU
 70
     0
 40
0.0
 41
1.0
 50
0.0
 71
     0
 42
30.0
  3
txt
  4
bigfont
  0
ENDTAB
  0
TABLE
  2
VIEW
  5
17
330
0
100
AcDbSymbolTable
 70
     0
  0
ENDTAB
  0
TABLE
  2
UCS
  5
18
330
0
100
AcDbSymbolTable
 70
     0
  0
ENDTAB
  0
TABLE
  2
APPID
  5
1B
330
0
100
AcDbSymbolTable
 70
     1
  0
APPID
  5
1C
330
1B
100
AcDbSymbolTableRecord
100
AcDbRegAppTableRecord
  2
ACAD
 70
     0
  0
ENDTAB
  0
TABLE
  2
DIMSTYLE
  5
1D
330
0
100
AcDbSymbolTable
 70
     2
100
AcDbDimStyleTable
 71
     1
340
23
  0
DIMSTYLE
105
23
330
1D
100
AcDbSymbolTableRecord
100
AcDbDimStyleTableRecord
  2
STANDARD
 70
     0
340
12
  0
DIMSTYLE
105
61
102
{ACAD_REACTORS
330
69
102
}
330
1D
100
AcDbSymbolTableRecord
100
AcDbDimStyleTableRecord
  2
STANDARD$0
 70
     0
 40
2.0
 41
1.0
 42
2.0
 43
0.0
 44
1.0
 73
     0
 74
     0
 77
     3
 78
     9
140
4.5
141
0.0
147
1.0
172
     1
173
     1
178
     3
271
     2
340
60
341
4D
343
4D
344
4D
  0
ENDTAB
  0
TABLE
  2
BLOCK_RECORD
  5
1
330
0
100
AcDbSymbolTable
 70
     9
  0
BLOCK_RECORD
  5
2
102
{ACAD_XDICTIONARY
360
41
102
}
330
1
100
AcDbSymbolTableRecord
100
AcDbBlockTableRecord
  2
*MODEL_SPACE
340
4A
  0
BLOCK_RECORD
  5
C
102
{ACAD_XDICTIONARY
360
43
102
}
330
1
100
AcDbSymbolTableRecord
100
AcDbBlockTableRecord
  2
*PAPER_SPACE
340
4B
  0
BLOCK_RECORD
  5
4D
330
1
100
AcDbSymbolTableRecord
100
AcDbBlockTableRecord
  2
_DOT
340
0
102
{BLKREFS
331
56
331
57
331
BC
331
BD
331
183
331
184
331
18C
331
18D
102
}
  0
BLOCK_RECORD
  5
6A
330
1
100
AcDbSymbolTableRecord
100
AcDbBlockTableRecord
  2
*D2
340
0
  0
BLOCK_RECORD
  5
CF
330
1
100
AcDbSymbolTableRecord
100
AcDbBlockTableRecord
  2
*D3
340
0
  0
BLOCK_RECORD
  5
DB
330
1
100
AcDbSymbolTableRecord
100
AcDbBlockTableRecord
  2
*D4
340
0
  0
BLOCK_RECORD
  5
FE
330
1
100
AcDbSymbolTableRecord
100
AcDbBlockTableRecord
  2
*D6
340
0
  0
BLOCK_RECORD
  5
10A
330
1
100
AcDbSymbolTableRecord
100
AcDbBlockTableRecord
  2
*D7
340
0
  0
BLOCK_RECORD
  5
14A
330
1
100
AcDbSymbolTableRecord
100
AcDbBlockTableRecord
  2
*D8
340
0
  0
ENDTAB
  0
ENDSEC
  0
SECTION
  2
BLOCKS
  0
BLOCK
  5
3
330
2
100
AcDbEntity
  8
0
100
AcDbBlockBegin
  2
*MODEL_SPACE
 70
     0
 10
0.0
 20
0.0
 30
0.0
  3
*MODEL_SPACE
  1

  0
ENDBLK
  5
9
330
2
100
AcDbEntity
  8
0
100
AcDbBlockEnd
  0
BLOCK
  5
D
330
C
100
AcDbEntity
 67
     1
  8
0
100
AcDbBlockBegin
  2
*PAPER_SPACE
 70
     0
 10
0.0
 20
0.0
 30
0.0
  3
*PAPER_SPACE
  1

  0
ENDBLK
  5
E
330
C
100
AcDbEntity
 67
     1
  8
0
100
AcDbBlockEnd
  0
BLOCK
  5
50
330
4D
100
AcDbEntity
  8
0
100
AcDbBlockBegin
  2
_DOT
 70
     0
 10
0.0
 20
0.0
 30
0.0
  3
_DOT
  1

  0
LWPOLYLINE
  5
4E
330
4D
100
AcDbEntity
  8
0
  6
ByBlock
 62
     0
100
AcDbPolyline
 90
        2
 70
     1
 43
0.5
 10
-0.25
 20
0.0
 42
1.0
 10
0.25
 20
0.0
 42
1.0
  0
LINE
  5
4F
330
4D
100
AcDbEntity
  8
0
  6
ByBlock
 62
     0
100
AcDbLine
 10
-0.5
 20
0.0
 30
0.0
 11
-1.0
 21
0.0
 31
0.0
  0
ENDBLK
  5
51
330
4D
100
AcDbEntity
  8
0
100
AcDbBlockEnd
  0
BLOCK
  5
74
330
6A
100
AcDbEntity
  8
0
100
AcDbBlockBegin
  2
*D2
 70
     1
 10
0.0
 20
0.0
 30
0.0
  3
*D2
  1

  0
LINE
  5
189
330
6A
100
AcDbEntity
  8
SUNPOU
 62
     0
370
    -2
100
AcDbLine
 10
-0.5537841835672451
 20
87.86804276801857
 30
0.0
 11
-0.5537841835672444
 21
98.69183394704718
 31
0.0
  0
LINE
  5
18A
330
6A
100
AcDbEntity
  8
SUNPOU
 62
     0
370
    -2
100
AcDbLine
 10
52.44621581643281
 20
87.86804276801857
 30
0.0
 11
52.44621581643281
 21
98.69183394704718
 31
0.0
  0
LINE
  5
18B
330
6A
100
AcDbEntity
  8
SUNPOU
 62
     0
370
    -2
100
AcDbLine
 10
0.4462158164327556
 20
96.69183394704717
 30
0.0
 11
51.44621581643281
 21
96.69183394704717
 31
0.0
  0
INSERT
  5
18C
330
6A
100
AcDbEntity
  8
SUNPOU
 62
     0
370
    -2
100
AcDbBlockReference
  2
_DOT
 10
-0.5537841835672445
 20
96.69183394704717
 30
0.0
 50
180.0
  0
INSERT
  5
18D
330
6A
100
AcDbEntity
  8
SUNPOU
 62
     0
370
    -2
100
AcDbBlockReference
  2
_DOT
 10
52.44621581643281
 20
96.69183394704717
 30
0.0
  0
MTEXT
  5
18E
330
6A
100
AcDbEntity
  8
SUNPOU
 62
     3
100
AcDbMText
 10
25.94621581643278
 20
100.6918339470471
 30
0.0
 40
4.0
 41
0.0
 71
     5
 72
     1
  1
\A1;53
  7
LIFE
 73
     1
 44
1.0
  0
POINT
  5
18F
330
6A
100
AcDbEntity
  8
Defpoints
 62
     0
100
AcDbPoint
 10
-0.5537841835672453
 20
83.86804276801857
 30
0.0
  0
POINT
  5
190
330
6A
100
AcDbEntity
  8
Defpoints
 62
     0
100
AcDbPoint
 10
52.44621581643281
 20
83.86804276801857
 30
0.0
  0
POINT
  5
191
330
6A
100
AcDbEntity
  8
Defpoints
 62
     0
100
AcDbPoint
 10
52.44621581643281
 20
96.69183394704717
 30
0.0
  0
ENDBLK
  5
75
330
6A
100
AcDbEntity
  8
0
100
AcDbBlockEnd
  0
BLOCK
  5
D9
330
CF
100
AcDbEntity
  8
0
100
AcDbBlockBegin
  2
*D3
 70
     1
 10
0.0
 20
0.0
 30
0.0
  3
*D3
  1

  0
LINE
  5
D0
330
CF
100
AcDbEntity
  8
SUNPOU
 62
    70
370
    -2
100
AcDbLine
 10
20.25003076853499
 20
61.67879297007188
 30
0.0
 11
12.29215176853497
 21
61.67879297007189
 31
0.0
  0
LINE
  5
D1
330
CF
100
AcDbEntity
  8
SUNPOU
 62
    70
370
    -2
100
AcDbLine
 10
20.25003076853499
 20
52.67879297007189
 30
0.0
 11
12.29215176853497
 21
52.6787929700719
 31
0.0
  0
LINE
  5
D2
330
CF
100
AcDbEntity
  8
SUNPOU
 62
    60
370
    -2
100
AcDbLine
 10
12.29215176853497
 20
58.67879297007188
 30
0.0
 11
12.29215176853497
 21
55.67879297007189
 31
0.0
  0
SOLID
  5
D3
330
CF
100
AcDbEntity
  8
SUNPOU
 62
    60
100
AcDbTrace
 10
11.79215176853497
 20
58.67879297007188
 30
0.0
 11
12.79215176853497
 21
58.67879297007188
 31
0.0
 12
12.29215176853497
 22
61.67879297007189
 32
0.0
 13
12.29215176853497
 23
61.67879297007189
 33
0.0
  0
SOLID
  5
D4
330
CF
100
AcDbEntity
  8
SUNPOU
 62
    60
100
AcDbTrace
 10
11.79215176853497
 20
55.67879297007189
 30
0.0
 11
12.79215176853497
 21
55.67879297007189
 31
0.0
 12
12.29215176853497
 22
52.6787929700719
 32
0.0
 13
12.29215176853497
 23
52.6787929700719
 33
0.0
  0
MTEXT
  5
D5
330
CF
100
AcDbEntity
  8
SUNPOU
 62
    60
100
AcDbMText
 10
10.80215176853496
 20
57.1787929700719
 30
0.0
 40
2.799999999999999
 41
0.0
 71
     5
 72
     1
  1
\A1;9
  7
SUNPOU
 11
0.0000000000000001
 21
1.0
 31
0.0
 73
     1
 44
1.0
  0
POINT
  5
D6
330
CF
100
AcDbEntity
  8
Defpoints
 62
     0
100
AcDbPoint
 10
22.25003076853499
 20
61.67879297007188
 30
0.0
  0
POINT
  5
D7
330
CF
100
AcDbEntity
  8
Defpoints
 62
     0
100
AcDbPoint
 10
22.25003076853499
 20
52.67879297007189
 30
0.0
  0
POINT
  5
D8
330
CF
100
AcDbEntity
  8
Defpoints
 62
     0
100
AcDbPoint
 10
12.29215176853497
 20
52.6787929700719
 30
0.0
  0
ENDBLK
  5
DA
330
CF
100
AcDbEntity
  8
0
100
AcDbBlockEnd
  0
BLOCK
  5
E5
330
DB
100
AcDbEntity
  8
0
100
AcDbBlockBegin
  2
*D4
 70
     1
 10
0.0
 20
0.0
 30
0.0
  3
*D4
  1

  0
LINE
  5
DC
330
DB
100
AcDbEntity
  8
SUNPOU
 62
    70
370
    -2
100
AcDbLine
 10
31.25003076853499
 20
63.67879297007188
 30
0.0
 11
31.25003076853499
 21
71.69150697007187
 31
0.0
  0
LINE
  5
DD
330
DB
100
AcDbEntity
  8
SUNPOU
 62
    70
370
    -2
100
AcDbLine
 10
22.25003076853499
 20
63.67879297007188
 30
0.0
 11
22.25003076853499
 21
71.69150697007187
 31
0.0
  0
LINE
  5
DE
330
DB
100
AcDbEntity
  8
SUNPOU
 62
    60
370
    -2
100
AcDbLine
 10
28.250030768535
 20
71.69150697007187
 30
0.0
 11
25.25003076853499
 21
71.69150697007187
 31
0.0
  0
SOLID
  5
DF
330
DB
100
AcDbEntity
  8
SUNPOU
 62
    60
100
AcDbTrace
 10
28.250030768535
 20
72.19150697007187
 30
0.0
 11
28.250030768535
 21
71.19150697007187
 31
0.0
 12
31.25003076853499
 22
71.69150697007187
 32
0.0
 13
31.25003076853499
 23
71.69150697007187
 33
0.0
  0
SOLID
  5
E0
330
DB
100
AcDbEntity
  8
SUNPOU
 62
    60
100
AcDbTrace
 10
25.25003076853499
 20
72.19150697007187
 30
0.0
 11
25.25003076853499
 21
71.19150697007187
 31
0.0
 12
22.25003076853499
 22
71.69150697007187
 32
0.0
 13
22.25003076853499
 23
71.69150697007187
 33
0.0
  0
MTEXT
  5
E1
330
DB
100
AcDbEntity
  8
SUNPOU
 62
    60
100
AcDbMText
 10
26.75003076853499
 20
73.18150697007187
 30
0.0
 40
2.799999999999999
 41
0.0
 71
     5
 72
     1
  1
\A1;9
  7
SUNPOU
 73
     1
 44
1.0
  0
POINT
  5
E2
330
DB
100
AcDbEntity
  8
Defpoints
 62
     0
100
AcDbPoint
 10
31.25003076853499
 20
61.67879297007188
 30
0.0
  0
POINT
  5
E3
330
DB
100
AcDbEntity
  8
Defpoints
 62
     0
100
AcDbPoint
 10
22.25003076853499
 20
61.67879297007188
 30
0.0
  0
POINT
  5
E4
330
DB
100
AcDbEntity
  8
Defpoints
 62
     0
100
AcDbPoint
 10
22.25003076853499
 20
71.69150697007187
 30
0.0
  0
ENDBLK
  5
E6
330
DB
100
AcDbEntity
  8
0
100
AcDbBlockEnd
  0
BLOCK
  5
108
330
FE
100
AcDbEntity
  8
0
100
AcDbBlockBegin
  2
*D6
 70
     1
 10
0.0
 20
0.0
 30
0.0
  3
*D6
  1

  0
LINE
  5
116
330
FE
100
AcDbEntity
  8
SUNPOU
 62
    70
370
    -2
100
AcDbLine
 10
367.8666118059954
 20
150.0425026614344
 30
0.0
 11
359.9087328059953
 21
150.0425026614344
 31
0.0
  0
LINE
  5
117
330
FE
100
AcDbEntity
  8
SUNPOU
 62
    70
370
    -2
100
AcDbLine
 10
367.8666118059954
 20
141.0425026614344
 30
0.0
 11
359.9087328059953
 21
141.0425026614344
 31
0.0
  0
LINE
  5
118
330
FE
100
AcDbEntity
  8
SUNPOU
 62
    60
370
    -2
100
AcDbLine
 10
359.9087328059953
 20
147.0425026614344
 30
0.0
 11
359.9087328059953
 21
144.0425026614344
 31
0.0
  0
SOLID
  5
119
330
FE
100
AcDbEntity
  8
SUNPOU
 62
    60
100
AcDbTrace
 10
359.4087328059953
 20
147.0425026614344
 30
0.0
 11
360.4087328059954
 21
147.0425026614344
 31
0.0
 12
359.9087328059953
 22
150.0425026614344
 32
0.0
 13
359.9087328059953
 23
150.0425026614344
 33
0.0
  0
SOLID
  5
11A
330
FE
100
AcDbEntity
  8
SUNPOU
 62
    60
100
AcDbTrace
 10
359.4087328059953
 20
144.0425026614344
 30
0.0
 11
360.4087328059954
 21
144.0425026614344
 31
0.0
 12
359.9087328059953
 22
141.0425026614344
 32
0.0
 13
359.9087328059953
 23
141.0425026614344
 33
0.0
  0
MTEXT
  5
11B
330
FE
100
AcDbEntity
  8
SUNPOU
 62
    60
100
AcDbMText
 10
358.4187328059953
 20
145.5425026614344
 30
0.0
 40
2.799999999999999
 41
0.0
 71
     5
 72
     1
  1
\A1;9
  7
SUNPOU
 11
0.0000000000000001
 21
1.0
 31
0.0
 73
     1
 44
1.0
  0
POINT
  5
11C
330
FE
100
AcDbEntity
  8
Defpoints
 62
     0
100
AcDbPoint
 10
369.8666118059954
 20
150.0425026614344
 30
0.0
  0
POINT
  5
11D
330
FE
100
AcDbEntity
  8
Defpoints
 62
     0
100
AcDbPoint
 10
369.8666118059954
 20
141.0425026614344
 30
0.0
  0
POINT
  5
11E
330
FE
100
AcDbEntity
  8
Defpoints
 62
     0
100
AcDbPoint
 10
359.9087328059953
 20
141.0425026614344
 30
0.0
  0
ENDBLK
  5
109
330
FE
100
AcDbEntity
  8
0
100
AcDbBlockEnd
  0
BLOCK
  5
114
330
10A
100
AcDbEntity
  8
0
100
AcDbBlockBegin
  2
*D7
 70
     1
 10
0.0
 20
0.0
 30
0.0
  3
*D7
  1

  0
LINE
  5
11F
330
10A
100
AcDbEntity
  8
SUNPOU
 62
    70
370
    -2
100
AcDbLine
 10
378.8666118059954
 20
152.0425026614344
 30
0.0
 11
378.8666118059954
 21
160.0552166614344
 31
0.0
  0
LINE
  5
120
330
10A
100
AcDbEntity
  8
SUNPOU
 62
    70
370
    -2
100
AcDbLine
 10
369.8666118059954
 20
152.0425026614344
 30
0.0
 11
369.8666118059954
 21
160.0552166614344
 31
0.0
  0
LINE
  5
121
330
10A
100
AcDbEntity
  8
SUNPOU
 62
    60
370
    -2
100
AcDbLine
 10
375.8666118059954
 20
160.0552166614344
 30
0.0
 11
372.8666118059954
 21
160.0552166614344
 31
0.0
  0
SOLID
  5
122
330
10A
100
AcDbEntity
  8
SUNPOU
 62
    60
100
AcDbTrace
 10
375.8666118059954
 20
160.5552166614344
 30
0.0
 11
375.8666118059954
 21
159.5552166614344
 31
0.0
 12
378.8666118059954
 22
160.0552166614344
 32
0.0
 13
378.8666118059954
 23
160.0552166614344
 33
0.0
  0
SOLID
  5
123
330
10A
100
AcDbEntity
  8
SUNPOU
 62
    60
100
AcDbTrace
 10
372.8666118059954
 20
160.5552166614344
 30
0.0
 11
372.8666118059954
 21
159.5552166614344
 31
0.0
 12
369.8666118059954
 22
160.0552166614344
 32
0.0
 13
369.8666118059954
 23
160.0552166614344
 33
0.0
  0
MTEXT
  5
124
330
10A
100
AcDbEntity
  8
SUNPOU
 62
    60
100
AcDbMText
 10
374.3666118059954
 20
161.5452166614344
 30
0.0
 40
2.799999999999999
 41
0.0
 71
     5
 72
     1
  1
\A1;9
  7
SUNPOU
 73
     1
 44
1.0
  0
POINT
  5
125
330
10A
100
AcDbEntity
  8
Defpoints
 62
     0
100
AcDbPoint
 10
378.8666118059954
 20
150.0425026614344
 30
0.0
  0
POINT
  5
126
330
10A
100
AcDbEntity
  8
Defpoints
 62
     0
100
AcDbPoint
 10
369.8666118059954
 20
150.0425026614344
 30
0.0
  0
POINT
  5
127
330
10A
100
AcDbEntity
  8
Defpoints
 62
     0
100
AcDbPoint
 10
369.8666118059954
 20
160.0552166614344
 30
0.0
  0
ENDBLK
  5
115
330
10A
100
AcDbEntity
  8
0
100
AcDbBlockEnd
  0
BLOCK
  5
153
330
14A
100
AcDbEntity
  8
0
100
AcDbBlockBegin
  2
*D8
 70
     1
 10
0.0
 20
0.0
 30
0.0
  3
*D8
  1

  0
LINE
  5
14B
330
14A
100
AcDbEntity
  8
0
  6
Continuous
 62
     0
370
    -2
100
AcDbLine
 10
287.9030876962509
 20
183.2971273397302
 30
0.0
 11
288.0830876962509
 21
183.2971273397301
 31
0.0
  0
LINE
  5
14C
330
14A
100
AcDbEntity
  8
0
  6
Continuous
 62
     0
370
    -2
100
AcDbLine
 10
288.0830876962509
 20
183.2971273397301
 30
0.0
 11
288.5426773378953
 21
182.7829403991157
 31
0.0
  0
MTEXT
  5
14D
330
14A
100
AcDbEntity
  8
0
  6
Continuous
 62
     0
100
AcDbMText
 10
287.1980876962509
 20
183.2971273397302
 30
0.0
 40
0.18
 41
0.0
 71
     5
 72
     1
  1
\A1;R26.6053
 73
     1
 44
1.0
  0
SOLID
  5
14E
330
14A
100
AcDbEntity
  8
0
  6
Continuous
 62
     0
100
AcDbTrace
 10
288.5650447850924
 20
182.8029328303306
 30
0.0
 11
288.5203098906981
 21
182.7629479679008
 31
0.0
 12
288.6626319251847
 22
182.6487357159328
 32
0.0
 13
288.6626319251847
 23
182.6487357159328
 33
0.0
  0
LINE
  5
14F
330
14A
100
AcDbEntity
  8
0
  6
Continuous
 62
     0
370
    -2
100
AcDbLine
 10
306.302774192102
 20
162.8123277928423
 30
0.0
 11
306.482774192102
 21
162.8123277928423
 31
0.0
  0
LINE
  5
150
330
14A
100
AcDbEntity
  8
0
  6
Continuous
 62
     0
370
    -2
100
AcDbLine
 10
306.392774192102
 20
162.7223277928424
 30
0.0
 11
306.392774192102
 21
162.9023277928424
 31
0.0
  0
POINT
  5
151
330
14A
100
AcDbEntity
  8
Defpoints
  6
Continuous
 62
     0
100
AcDbPoint
 10
288.6626319251847
 20
182.6487357159328
 30
0.0
  0
POINT
  5
152
330
14A
100
AcDbEntity
  8
Defpoints
  6
Continuous
 62
     0
100
AcDbPoint
 10
306.392774192102
 20
162.8123277928424
 30
0.0
  0
ENDBLK
  5
154
330
14A
100
AcDbEntity
  8
0
100
AcDbBlockEnd
  0
ENDSEC
  0
SECTION
  2
ENTITIES
  0
DIMENSION
  5
69
330
2
100
AcDbEntity
  8
SUNPOU
100
AcDbDimension
  2
*D2
 10
52.44621581643281
 20
96.69183394704717
 30
0.0
 11
25.94621581643278
 21
100.6918339470471
 31
0.0
 70
    32
 71
     5
 42
53.00000000000006
  3
STANDARD$0
100
AcDbAlignedDimension
 13
-0.5537841835672453
 23
83.86804276801857
 33
0.0
 14
52.44621581643281
 24
83.86804276801857
 34
0.0
100
AcDbRotatedDimension
1001
ACAD
1000
DSTYLE
1002
{
1070
    41
1040
0.5
1070
   140
1040
2.0
1070
   271
1070
     0
1002
}
  0
TEXT
  5
F9
330
2
100
AcDbEntity
  8
HOJO
100
AcDbText
 10
4.826982999999984
 20
1.183313000000012
 30
0.0
 40
4.5
  1
SE2-023
  7
SUNPOU
100
AcDbText
  0
LINE
  5
FA
330
2
100
AcDbEntity
  8
WAKU
100
AcDbLine
 10
0.0
 20
0.0
 30
0.0
 11
58.37481010528978
 21
0.0
 31
0.0
  0
LINE
  5
FB
330
2
100
AcDbEntity
  8
WAKU
100
AcDbLine
 10
0.0
 20
7.0
 30
0.0
 11
58.37481010528978
 21
7.0
 31
0.0
  0
TEXT
  5
FC
330
2
100
AcDbEntity
  8
HOJO
100
AcDbText
 10
41.98195420912668
 20
2.522193000000015
 30
0.0
 40
3.0
  1
φ53
  7
SUNPOU
100
AcDbText
  0
LWPOLYLINE
  5
192
330
2
100
AcDbEntity
  8
KIJUN
  6
Continuous
100
AcDbPolyline
 90
       30
 70
   129
 43
0.0
 10
52.38652275723598
 20
60.49570797991899
 10
49.24367404125923
 20
61.44933908553117
 10
51.88894785856153
 20
63.38090405615411
 42
0.1310881569831503
 10
45.49927604322414
 20
75.45501155369319
 10
42.47819552563425
 20
74.40427615150349
 10
43.45826687330691
 20
77.43299277229934
 42
0.1313131308952064
 10
31.16673096087396
 20
83.4454354923821
 10
29.39647894577308
 20
80.90000369056605
 10
28.44030394864182
 20
83.83469182717776
 42
0.1315227153588865
 10
14.93751175999312
 20
81.49295559289615
 10
14.99666883292593
 20
78.45467491452438
 10
12.54323211853711
 20
80.23325885657479
 42
0.1317106446749912
 10
2.955721827491441
 20
70.41452422343789
 10
4.778171111571737
 20
68.00328873830906
 10
1.756352098242928
 20
67.99764109943177
 42
0.1317529325983022
 10
-0.2640236044282282
 20
54.4196144004422
 10
2.646001515217619
 20
53.53664377303116
 10
0.1840455125606581
 20
51.73855216434614
 42
0.1315774175909388
 10
6.497395163942822
 20
39.56884875959303
 10
9.414236107231431
 20
40.58274023570487
 10
8.462206634193137
 20
37.63097387239966
 42
0.1313303397088875
 10
20.69268303465695
 20
31.49141504980668
 10
22.49595268709254
 20
34.08563465844784
 10
23.4802020012749
 20
31.06770692599892
 42
0.1311111984798996
 10
36.96176971824552
 20
33.28642274601908
 10
36.89576279993974
 20
36.53199696313538
 10
39.53146490033089
 20
34.61931683122424
 42
0.1309756998103643
 10
49.10339497500695
 20
44.34972719521617
 10
47.11150444490505
 20
46.98269412025337
 10
50.41463052382699
 20
46.98909070652777
 42
0.130980915631665
  0
ENDSEC
  0
SECTION
  2
OBJECTS
  0
DICTIONARY
  5
7
330
0
100
AcDbDictionary
281
     1
  3
ACAD_GROUP
350
1F
  3
ACAD_LAYOUT
350
B
  3
ACAD_MLINESTYLE
350
20
  3
ACAD_PLOTSETTINGS
350
21
  3
ACAD_PLOTSTYLENAME
350
48
1001
ACAD
1000
TREAT_AS_HARD
1070
     0
  0
DICTIONARY
  5
41
330
2
100
AcDbDictionary
280
     1
281
     1
  3
ACAD_LAYOUTSELFREF
360
42
  0
DICTIONARY
  5
43
330
C
100
AcDbDictionary
280
     1
281
     1
  3
ACAD_LAYOUTSELFREF
360
44
  0
DICTIONARY
  5
1F
102
{ACAD_REACTORS
330
7
102
}
330
7
100
AcDbDictionary
281
     1
1001
ACAD
1000
TREAT_AS_HARD
1070
     0
  0
DICTIONARY
  5
B
102
{ACAD_REACTORS
330
7
102
}
330
7
100
AcDbDictionary
281
     1
  3
Model
350
4A
  3
ﾚｲｱｳﾄ1
350
4B
1001
ACAD
1000
TREAT_AS_HARD
1070
     0
  0
DICTIONARY
  5
20
102
{ACAD_REACTORS
330
7
102
}
330
7
100
AcDbDictionary
281
     1
  3
STANDARD
350
22
1001
ACAD
1000
TREAT_AS_HARD
1070
     0
  0
DICTIONARY
  5
21
102
{ACAD_REACTORS
330
7
102
}
330
7
100
AcDbDictionary
281
     1
1001
ACAD
1000
TREAT_AS_HARD
1070
     0
  0
ACDBDICTIONARYWDFLT
  5
48
102
{ACAD_REACTORS
330
7
102
}
330
7
100
AcDbDictionary
281
     1
  3
Normal
350
49
100
AcDbDictionaryWithDefault
340
49
  0
XRECORD
  5
42
102
{ACAD_REACTORS
330
41
102
}
330
41
100
AcDbXrecord
280
     1
340
2
  0
XRECORD
  5
44
102
{ACAD_REACTORS
330
43
102
}
330
43
100
AcDbXrecord
280
     1
340
C
  0
LAYOUT
  5
4A
102
{ACAD_REACTORS
330
B
102
}
330
B
100
AcDbPlotSettings
  1

  2
なし
  4

  6

 40
0.0
 41
0.0
 42
0.0
 43
0.0
 44
0.0
 45
0.0
 46
0.0
 47
0.0
 48
0.0
 49
0.0
140
0.0
141
0.0
142
1.0
143
1.0
 70
  1712
 72
     0
 73
     0
 74
     0
  7
monochrome.ctb
 75
     0
147
1.0
148
0.0
149
0.0
100
AcDbLayout
  1
Model
 70
     1
 71
     0
 10
0.0
 20
0.0
 11
12.0
 21
9.0
 12
0.0
 22
0.0
 32
0.0
 14
0.0
 24
0.0
 34
0.0
 15
0.0
 25
0.0
 35
0.0
146
0.0
 13
0.0
 23
0.0
 33
0.0
 16
1.0
 26
0.0
 36
0.0
 17
0.0
 27
1.0
 37
0.0
 76
     0
330
2
  0
LAYOUT
  5
4B
102
{ACAD_REACTORS
330
B
102
}
330
B
100
AcDbPlotSettings
  1

  2
なし
  4

  6

 40
0.0
 41
0.0
 42
0.0
 43
0.0
 44
0.0
 45
0.0
 46
0.0
 47
0.0
 48
0.0
 49
0.0
140
0.0
141
0.0
142
1.0
143
1.0
 70
   688
 72
     0
 73
     0
 74
     5
  7
monochrome.ctb
 75
    16
147
1.0
148
0.0
149
0.0
100
AcDbLayout
  1
ﾚｲｱｳﾄ1
 70
     0
 71
     1
 10
0.0
 20
0.0
 11
12.0
 21
9.0
 12
0.0
 22
0.0
 32
0.0
 14
1.000000000000000E+20
 24
1.000000000000000E+20
 34
1.000000000000000E+20
 15
-1.000000000000000E+20
 25
-1.000000000000000E+20
 35
-1.000000000000000E+20
146
0.0
 13
0.0
 23
0.0
 33
0.0
 16
1.0
 26
0.0
 36
0.0
 17
0.0
 27
1.0
 37
0.0
 76
     0
330
C
  0
MLINESTYLE
  5
22
102
{ACAD_REACTORS
330
20
102
}
330
20
100
AcDbMlineStyle
  2
STANDARD
 70
     0
  3

 62
     0
 51
90.0
 52
90.0
 71
     2
 49
0.5
 62
   256
  6
BYLAYER
 49
-0.5
 62
   256
  6
BYLAYER
  0
ACDBPLACEHOLDER
  5
49
102
{ACAD_REACTORS
330
48
102
}
330
48
  0
ENDSEC
  0
EOF
