  0
SECTION
  2
HEADER
  9
$ACADVER
  1
AC1015
  9
$ACADMAINTVER
 70
    18
  9
$DWGCODEPAGE
  3
ANSI_932
  9
$INSBASE
 10
0.0
 20
0.0
 30
0.0
  9
$EXTMIN
 10
-0.7724158034566853
 20
0.0
 30
0.0
  9
$EXTMAX
 10
343.8796173528638
 20
166.2132498086472
 30
0.0
  9
$LIMMIN
 10
11.41704644097222
 20
18.97041829427083
  9
$LIMMAX
 10
453.6270914713541
 20
294.2890136718748
  9
$ORTHOMODE
 70
     1
  9
$REGENMODE
 70
     1
  9
$FILLMODE
 70
     1
  9
$QTEXTMODE
 70
     0
  9
$MIRRTEXT
 70
     1
  9
$LTSCALE
 40
1.0
  9
$ATTMODE
 70
     1
  9
$TEXTSIZE
 40
0.0
  9
$TRACEWID
 40
0.05
  9
$TEXTSTYLE
  7
STANDARD
  9
$CLAYER
  8
0
  9
$CELTYPE
  6
CONTINUOUS
  9
$CECOLOR
 62
   256
  9
$CELTSCALE
 40
1.0
  9
$DISPSILH
 70
     0
  9
$DIMSCALE
 40
1.0
  9
$DIMASZ
 40
0.18
  9
$DIMEXO
 40
0.0625
  9
$DIMDLI
 40
0.38
  9
$DIMRND
 40
0.0
  9
$DIMDLE
 40
0.0
  9
$DIMEXE
 40
0.18
  9
$DIMTP
 40
0.0
  9
$DIMTM
 40
0.0
  9
$DIMTXT
 40
0.18
  9
$DIMCEN
 40
0.09
  9
$DIMTSZ
 40
0.0
  9
$DIMTOL
 70
     0
  9
$DIMLIM
 70
     0
  9
$DIMTIH
 70
     1
  9
$DIMTOH
 70
     1
  9
$DIMSE1
 70
     0
  9
$DIMSE2
 70
     0
  9
$DIMTAD
 70
     0
  9
$DIMZIN
 70
     0
  9
$DIMBLK
  1

  9
$DIMASO
 70
     1
  9
$DIMSHO
 70
     1
  9
$DIMPOST
  1

  9
$DIMAPOST
  1

  9
$DIMALT
 70
     0
  9
$DIMALTD
 70
     2
  9
$DIMALTF
 40
25.4
  9
$DIMLFAC
 40
1.0
  9
$DIMTOFL
 70
     0
  9
$DIMTVP
 40
0.0
  9
$DIMTIX
 70
     0
  9
$DIMSOXD
 70
     0
  9
$DIMSAH
 70
     0
  9
$DIMBLK1
  1

  9
$DIMBLK2
  1

  9
$DIMSTYLE
  2
STANDARD
  9
$DIMCLRD
 70
     0
  9
$DIMCLRE
 70
     0
  9
$DIMCLRT
 70
     0
  9
$DIMTFAC
 40
1.0
  9
$DIMGAP
 40
0.09
  9
$DIMJUST
 70
     0
  9
$DIMSD1
 70
     0
  9
$DIMSD2
 70
     0
  9
$DIMTOLJ
 70
     1
  9
$DIMTZIN
 70
     0
  9
$DIMALTZ
 70
     0
  9
$DIMALTTZ
 70
     0
  9
$DIMUPT
 70
     0
  9
$DIMDEC
 70
     4
  9
$DIMTDEC
 70
     4
  9
$DIMALTU
 70
     2
  9
$DIMALTTD
 70
     2
  9
$DIMTXSTY
  7
STANDARD
  9
$DIMAUNIT
 70
     0
  9
$DIMADEC
 70
     0
  9
$DIMALTRND
 40
0.0
  9
$DIMAZIN
 70
     0
  9
$DIMDSEP
 70
    46
  9
$DIMATFIT
 70
     3
  9
$DIMFRAC
 70
     0
  9
$DIMLDRBLK
  1

  9
$DIMLUNIT
 70
     2
  9
$DIMLWD
 70
    -2
  9
$DIMLWE
 70
    -2
  9
$DIMTMOVE
 70
     0
  9
$LUNITS
 70
     2
  9
$LUPREC
 70
     4
  9
$SKETCHINC
 40
0.1
  9
$FILLETRAD
 40
0.0
  9
$AUNITS
 70
     0
  9
$AUPREC
 70
     0
  9
$MENU
  1
acad
  9
$ELEVATION
 40
0.0
  9
$PELEVATION
 40
0.0
  9
$THICKNESS
 40
0.0
  9
$LIMCHECK
 70
     0
  9
$CHAMFERA
 40
0.0
  9
$CHAMFERB
 40
0.0
  9
$CHAMFERC
 40
0.0
  9
$CHAMFERD
 40
0.0
  9
$SKPOLY
 70
     0
  9
$TDCREATE
 40
2444972.375000000
  9
$TDUCREATE
 40
2444972.000000000
  9
$TDUPDATE
 40
2454581.449216088
  9
$TDUUPDATE
 40
2454581.074216088
  9
$TDINDWG
 40
0.0739287847
  9
$TDUSRTIMER
 40
0.0739287731
  9
$USRTIMER
 70
     1
  9
$ANGBASE
 50
0.0
  9
$ANGDIR
 70
     0
  9
$PDMODE
 70
     0
  9
$PDSIZE
 40
0.0
  9
$PLINEWID
 40
0.0
  9
$SPLFRAME
 70
     0
  9
$SPLINETYPE
 70
     6
  9
$SPLINESEGS
 70
     8
  9
$HANDSEED
  5
193
  9
$SURFTAB1
 70
     6
  9
$SURFTAB2
 70
     6
  9
$SURFTYPE
 70
     6
  9
$SURFU
 70
     6
  9
$SURFV
 70
     6
  9
$UCSBASE
  2

  9
$UCSNAME
  2

  9
$UCSORG
 10
0.0
 20
0.0
 30
0.0
  9
$UCSXDIR
 10
1.0
 20
0.0
 30
0.0
  9
$UCSYDIR
 10
0.0
 20
1.0
 30
0.0
  9
$UCSORTHOREF
  2

  9
$UCSORTHOVIEW
 70
     0
  9
$UCSORGTOP
 10
0.0
 20
0.0
 30
0.0
  9
$UCSORGBOTTOM
 10
0.0
 20
0.0
 30
0.0
  9
$UCSORGLEFT
 10
0.0
 20
0.0
 30
0.0
  9
$UCSORGRIGHT
 10
0.0
 20
0.0
 30
0.0
  9
$UCSORGFRONT
 10
0.0
 20
0.0
 30
0.0
  9
$UCSORGBACK
 10
0.0
 20
0.0
 30
0.0
  9
$PUCSBASE
  2

  9
$PUCSNAME
  2

  9
$PUCSORG
 10
0.0
 20
0.0
 30
0.0
  9
$PUCSXDIR
 10
1.0
 20
0.0
 30
0.0
  9
$PUCSYDIR
 10
0.0
 20
1.0
 30
0.0
  9
$PUCSORTHOREF
  2

  9
$PUCSORTHOVIEW
 70
     0
  9
$PUCSORGTOP
 10
0.0
 20
0.0
 30
0.0
  9
$PUCSORGBOTTOM
 10
0.0
 20
0.0
 30
0.0
  9
$PUCSORGLEFT
 10
0.0
 20
0.0
 30
0.0
  9
$PUCSORGRIGHT
 10
0.0
 20
0.0
 30
0.0
  9
$PUCSORGFRONT
 10
0.0
 20
0.0
 30
0.0
  9
$PUCSORGBACK
 10
0.0
 20
0.0
 30
0.0
  9
$USERI1
 70
     0
  9
$USERI2
 70
     0
  9
$USERI3
 70
     0
  9
$USERI4
 70
     0
  9
$USERI5
 70
     0
  9
$USERR1
 40
0.0
  9
$USERR2
 40
0.0
  9
$USERR3
 40
0.0
  9
$USERR4
 40
0.0
  9
$USERR5
 40
0.0
  9
$WORLDVIEW
 70
     1
  9
$SHADEDGE
 70
     3
  9
$SHADEDIF
 70
    70
  9
$TILEMODE
 70
     1
  9
$MAXACTVP
 70
    16
  9
$PINSBASE
 10
0.0
 20
0.0
 30
0.0
  9
$PLIMCHECK
 70
     0
  9
$PEXTMIN
 10
1.000000000000000E+20
 20
1.000000000000000E+20
 30
1.000000000000000E+20
  9
$PEXTMAX
 10
-1.000000000000000E+20
 20
-1.000000000000000E+20
 30
-1.000000000000000E+20
  9
$PLIMMIN
 10
0.0
 20
0.0
  9
$PLIMMAX
 10
12.0
 20
9.0
  9
$UNITMODE
 70
     0
  9
$VISRETAIN
 70
     0
  9
$PLINEGEN
 70
     1
  9
$PSLTSCALE
 70
     0
  9
$TREEDEPTH
 70
  3020
  9
$CMLSTYLE
  2
STANDARD
  9
$CMLJUST
 70
     0
  9
$CMLSCALE
 40
1.0
  9
$PROXYGRAPHICS
 70
     1
  9
$MEASUREMENT
 70
     0
  9
$CELWEIGHT
370
    -1
  9
$ENDCAPS
280
     0
  9
$JOINSTYLE
280
     0
  9
$LWDISPLAY
290
     0
  9
$INSUNITS
 70
     0
  9
$HYPERLINKBASE
  1

  9
$STYLESHEET
  1

  9
$XEDIT
290
     1
  9
$CEPSNTYPE
380
     0
  9
$PSTYLEMODE
290
     1
  9
$FINGERPRINTGUID
  2
{9A6902AE-8774-4BAB-B4AF-E255B46174D2}
  9
$VERSIONGUID
  2
{D29CB7A4-3BAA-4467-A92D-817830D79771}
  9
$EXTNAMES
290
     1
  9
$PSVPSCALE
 40
0.0
  9
$OLESTARTUP
290
     0
  0
ENDSEC
  0
SECTION
  2
CLASSES
  0
CLASS
  1
IMAGE
  2
AcDbRasterImage
  3
ISM
 90
    32895
280
     1
281
     1
  0
CLASS
  1
DICTIONARYVAR
  2
AcDbDictionaryVar
  3
ObjectDBX Classes
 90
        0
280
     0
281
     0
  0
CLASS
  1
RASTERVARIABLES
  2
AcDbRasterVariables
  3
ISM
 90
    32768
280
     1
281
     0
  0
CLASS
  1
IMAGEDEF
  2
AcDbRasterImageDef
  3
ISM
 90
    32768
280
     1
281
     0
  0
CLASS
  1
IMAGEDEF_REACTOR
  2
AcDbRasterImageDefReactor
  3
ISM
 90
    32769
280
     1
281
     0
  0
CLASS
  1
IDBUFFER
  2
AcDbIdBuffer
  3
ObjectDBX Classes
 90
    32768
280
     0
281
     0
  0
CLASS
  1
SPATIAL_FILTER
  2
AcDbSpatialFilter
  3
ObjectDBX Classes
 90
    32768
280
     0
281
     0
  0
CLASS
  1
SORTENTSTABLE
  2
AcDbSortentsTable
  3
ObjectDBX Classes
 90
        0
280
     0
281
     0
  0
CLASS
  1
LAYER_INDEX
  2
AcDbLayerIndex
  3
ObjectDBX Classes
 90
    32768
280
     0
281
     0
  0
CLASS
  1
SPATIAL_INDEX
  2
AcDbSpatialIndex
  3
ObjectDBX Classes
 90
    32768
280
     0
281
     0
  0
CLASS
  1
OBJECT_PTR
  2
CAseDLPNTableRecord
  3
ASE-LPNTableRecord
 90
    32769
280
     1
281
     0
  0
CLASS
  1
LAYOUT
  2
AcDbLayout
  3
ObjectDBX Classes
 90
        0
280
     0
281
     0
  0
CLASS
  1
PLOTSETTINGS
  2
AcDbPlotSettings
  3
ObjectDBX Classes
 90
    32768
280
     0
281
     0
  0
CLASS
  1
ACDBDICTIONARYWDFLT
  2
AcDbDictionaryWithDefault
  3
ObjectDBX Classes
 90
        0
280
     0
281
     0
  0
CLASS
  1
ACDBPLACEHOLDER
  2
AcDbPlaceHolder
  3
ObjectDBX Classes
 90
        0
280
     0
281
     0
  0
CLASS
  1
VBA_PROJECT
  2
AcDbVbaProject
  3
acad
 90
    32768
280
     0
281
     0
  0
CLASS
  1
WIPEOUT
  2
AcDbWipeout
  3
WipeOut|AutoCAD Express Tool|expresstools@autodesk.com
 90
    32895
280
     1
281
     1
  0
CLASS
  1
WIPEOUTVARIABLES
  2
AcDbWipeoutVariables
  3
WipeOut|AutoCAD Express Tool|expresstools@autodesk.com
 90
    32768
280
     1
281
     0
  0
CLASS
  1
RTEXT
  2
RText
  3
RText|AutoCAD Express Tool|expresstools@autodesk.com
 90
    32768
280
     1
281
     1
  0
CLASS
  1
ARCALIGNEDTEXT
  2
AcDbArcAlignedText
  3
ATEXT|AutoCAD Express Tool|expresstools@autodesk.com
 90
    32768
280
     1
281
     1
  0
CLASS
  1
TABLESTYLE
  2
AcDbTableStyle
  3
ObjectDBX Classes
 90
     4095
280
     0
281
     0
  0
CLASS
  1
MATERIAL
  2
AcDbMaterial
  3
ObjectDBX Classes
 90
     1153
280
     0
281
     0
  0
CLASS
  1
VISUALSTYLE
  2
AcDbVisualStyle
  3
ObjectDBX Classes
 90
     4095
280
     0
281
     0
  0
CLASS
  1
SCALE
  2
AcDbScale
  3
ObjectDBX Classes
 90
     1153
280
     0
281
     0
  0
CLASS
  1
MLEADERSTYLE
  2
AcDbMLeaderStyle
  3
ACDB_MLEADERSTYLE_CLASS
 90
    36863
280
     0
281
     0
  0
CLASS
  1
ACDBSECTIONVIEWSTYLE
  2
AcDbSectionViewStyle
  3
ObjectDBX Classes
 90
    33793
280
     0
281
     0
  0
CLASS
  1
ACDBDETAILVIEWSTYLE
  2
AcDbDetailViewStyle
  3
ObjectDBX Classes
 90
    33793
280
     0
281
     0
  0
CLASS
  1
CELLSTYLEMAP
  2
AcDbCellStyleMap
  3
ObjectDBX Classes
 90
     1152
280
     0
281
     0
  0
ENDSEC
  0
SECTION
  2
TABLES
  0
TABLE
  2
VPORT
  5
30
330
0
100
AcDbSymbolTable
 70
     1
  0
VPORT
  5
31
330
30
100
AcDbSymbolTableRecord
100
AcDbViewportTableRecord
  2
*Active
 70
     0
 10
0.0
 20
0.0
 11
1.0
 21
1.0
 12
102.7176457873385
 22
59.53994738915648
 13
0.0
 23
0.0
 14
1.0
 24
1.0
 15
0.0
 25
0.0
 16
0.0
 26
0.0
 36
1.0
 17
0.0
 27
0.0
 37
0.0
 40
288.9774111296933
 41
2.029986962190351
 42
50.0
 43
0.0
 44
0.0
 50
0.0
 51
0.0
 71
     0
 72
  2000
 73
     1
 74
     1
 75
     0
 76
     0
 77
     0
 78
     0
281
     0
 65
     1
110
0.0
120
0.0
130
0.0
111
1.0
121
0.0
131
0.0
112
0.0
122
1.0
132
0.0
 79
     0
146
0.0
1001
ACAD_NAV_VCDISPLAY
1070
     3
  0
ENDTAB
  0
TABLE
  2
LTYPE
  5
2B
330
0
100
AcDbSymbolTable
 70
     1
  0
LTYPE
  5
2C
330
2B
100
AcDbSymbolTableRecord
100
AcDbLinetypeTableRecord
  2
BYBLOCK
 70
     0
  3

 72
    65
 73
     0
 40
0.0
  0
LTYPE
  5
2D
330
2B
100
AcDbSymbolTableRecord
100
AcDbLinetypeTableRecord
  2
BYLAYER
 70
     0
  3

 72
    65
 73
     0
 40
0.0
  0
LTYPE
  5
15
330
2B
100
AcDbSymbolTableRecord
100
AcDbLinetypeTableRecord
  2
CONTINUOUS
 70
     0
  3
Solid line
 72
    65
 73
     0
 40
0.0
  0
ENDTAB
  0
TABLE
  2
LAYER
  5
27
330
0
100
AcDbSymbolTable
 70
     6
  0
LAYER
  5
7
330
27
100
AcDbSymbolTableRecord
100
AcDbLayerTableRecord
  2
0
 70
     0
 62
     7
  6
CONTINUOUS
370
    -3
390
8
  0
LAYER
  5
6D
330
27
100
AcDbSymbolTableRecord
100
AcDbLayerTableRecord
  2
DEFPOINTS
 70
     0
 62
     7
  6
CONTINUOUS
290
     0
370
    -3
390
8
  0
LAYER
  5
5E
330
27
100
AcDbSymbolTableRecord
100
AcDbLayerTableRecord
  2
SUNPOU
 70
     0
 62
    70
  6
CONTINUOUS
370
    -3
390
8
  0
LAYER
  5
8C
330
27
100
AcDbSymbolTableRecord
100
AcDbLayerTableRecord
  2
KIJUN
 70
     0
 62
     7
  6
CONTINUOUS
370
    -3
390
8
  0
LAYER
  5
85
330
27
100
AcDbSymbolTableRecord
100
AcDbLayerTableRecord
  2
HOJO
 70
     0
 62
     3
  6
CONTINUOUS
370
    -3
390
8
  0
LAYER
  5
88
330
27
100
AcDbSymbolTableRecord
100
AcDbLayerTableRecord
  2
WAKU
 70
     0
 62
     1
  6
CONTINUOUS
370
    -3
390
8
  0
ENDTAB
  0
TABLE
  2
STYLE
  5
28
330
0
100
AcDbSymbolTable
 70
     3
  0
STYLE
  5
29
330
28
100
AcDbSymbolTableRecord
100
AcDbTextStyleTableRecord
  2
STANDARD
 70
     0
 40
0.0
 41
1.0
 50
0.0
 71
     0
 42
0.0
  3
txt
  4

  0
STYLE
  5
6B
330
28
100
AcDbSymbolTableRecord
100
AcDbTextStyleTableRecord
  2
LIFE
 70
     0
 40
0.0
 41
0.7
 50
0.0
 71
     0
 42
10.0
  3
romans
  4
extfont
  0
STYLE
  5
86
330
28
100
AcDbSymbolTableRecord
100
AcDbTextStyleTableRecord
  2
SUNPOU
 70
     0
 40
0.0
 41
1.0
 50
0.0
 71
     0
 42
30.0
  3
txt
  4
bigfont
  0
ENDTAB
  0
TABLE
  2
VIEW
  5
2E
330
0
100
AcDbSymbolTable
 70
     0
  0
ENDTAB
  0
TABLE
  2
UCS
  5
2F
330
0
100
AcDbSymbolTable
 70
     0
  0
ENDTAB
  0
TABLE
  2
APPID
  5
35
330
0
100
AcDbSymbolTable
 70
     2
  0
APPID
  5
B
330
35
100
AcDbSymbolTableRecord
100
AcDbRegAppTableRecord
  2
ACAD
 70
     0
  0
APPID
  5
34
330
35
100
AcDbSymbolTableRecord
100
AcDbRegAppTableRecord
  2
ACAD_NAV_VCDISPLAY
 70
     0
  0
ENDTAB
  0
TABLE
  2
DIMSTYLE
  5
36
330
0
100
AcDbSymbolTable
 70
     2
100
AcDbDimStyleTable
 71
     1
340
37
  0
DIMSTYLE
105
37
330
36
100
AcDbSymbolTableRecord
100
AcDbDimStyleTableRecord
  2
STANDARD
 70
     0
340
29
  0
DIMSTYLE
105
71
102
{ACAD_REACTORS
330
77
330
5D
330
165
102
}
330
36
100
AcDbSymbolTableRecord
100
AcDbDimStyleTableRecord
  2
STANDARD$0
 70
     0
 40
2.0
 41
1.0
 42
2.0
 43
0.0
 44
1.0
 73
     0
 74
     0
 77
     3
 78
     9
140
4.5
141
0.0
147
1.0
172
     1
173
     1
178
     3
271
     2
340
6B
341
72
343
72
344
72
  0
ENDTAB
  0
TABLE
  2
BLOCK_RECORD
  5
1
330
0
100
AcDbSymbolTable
 70
     5
  0
BLOCK_RECORD
  5
2
102
{ACAD_XDICTIONARY
360
3
102
}
330
1
100
AcDbSymbolTableRecord
100
AcDbBlockTableRecord
  2
*MODEL_SPACE
340
1F
  0
BLOCK_RECORD
  5
21
102
{ACAD_XDICTIONARY
360
22
102
}
330
1
100
AcDbSymbolTableRecord
100
AcDbBlockTableRecord
  2
*PAPER_SPACE
340
26
  0
BLOCK_RECORD
  5
72
330
1
100
AcDbSymbolTableRecord
100
AcDbBlockTableRecord
  2
_DOT
340
0
  0
BLOCK_RECORD
  5
5F
330
1
100
AcDbSymbolTableRecord
100
AcDbBlockTableRecord
  2
*D1
340
0
  0
BLOCK_RECORD
  5
78
330
1
100
AcDbSymbolTableRecord
100
AcDbBlockTableRecord
  2
*D2
340
0
  0
BLOCK_RECORD
  5
166
330
1
100
AcDbSymbolTableRecord
100
AcDbBlockTableRecord
  2
*D3
340
0
  0
BLOCK_RECORD
  5
65
330
1
100
AcDbSymbolTableRecord
100
AcDbBlockTableRecord
  2
_DOTSMALL
340
0
102
{BLKREFS
331
7D
331
7E
331
16B
331
16C
331
64
331
69
102
}
  0
ENDTAB
  0
ENDSEC
  0
SECTION
  2
BLOCKS
  0
BLOCK
  5
6
330
2
100
AcDbEntity
  8
0
100
AcDbBlockBegin
  2
*MODEL_SPACE
 70
     0
 10
0.0
 20
0.0
 30
0.0
  3
*MODEL_SPACE
  1

  0
ENDBLK
  5
1E
330
2
100
AcDbEntity
  8
0
100
AcDbBlockEnd
  0
BLOCK
  5
24
330
21
100
AcDbEntity
 67
     1
  8
0
100
AcDbBlockBegin
  2
*PAPER_SPACE
 70
     0
 10
0.0
 20
0.0
 30
0.0
  3
*PAPER_SPACE
  1

  0
ENDBLK
  5
25
330
21
100
AcDbEntity
 67
     1
  8
0
100
AcDbBlockEnd
  0
BLOCK
  5
73
330
72
100
AcDbEntity
  8
0
100
AcDbBlockBegin
  2
_DOT
 70
     0
 10
0.0
 20
0.0
 30
0.0
  3
_DOT
  1

  0
LWPOLYLINE
  5
74
330
72
100
AcDbEntity
  8
0
  6
ByBlock
 62
     0
100
AcDbPolyline
 90
        2
 70
     1
 43
0.5
 10
-0.25
 20
0.0
 42
1.0
 10
0.25
 20
0.0
 42
1.0
  0
LINE
  5
75
330
72
100
AcDbEntity
  8
0
  6
ByBlock
 62
     0
100
AcDbLine
 10
-0.5
 20
0.0
 30
0.0
 11
-1.0
 21
0.0
 31
0.0
  0
ENDBLK
  5
76
330
72
100
AcDbEntity
  8
0
100
AcDbBlockEnd
  0
BLOCK
  5
60
330
5F
100
AcDbEntity
  8
0
100
AcDbBlockBegin
  2
*D1
 70
     1
 10
0.0
 20
0.0
 30
0.0
  3
*D1
  1

  0
LINE
  5
61
330
5F
100
AcDbEntity
  8
SUNPOU
 62
    70
370
    -2
100
AcDbLine
 10
27.90397394652132
 20
90.12620994196797
 30
0.0
 11
27.90397394652132
 21
95.39676573770336
 31
0.0
  0
LINE
  5
62
330
5F
100
AcDbEntity
  8
SUNPOU
 62
    70
370
    -2
100
AcDbLine
 10
41.87405349346273
 20
90.12620994196799
 30
0.0
 11
41.87405349346273
 21
95.39676573770336
 31
0.0
  0
LINE
  5
63
330
5F
100
AcDbEntity
  8
SUNPOU
 62
    60
370
    -2
100
AcDbLine
 10
27.90397394652132
 20
95.39676573770336
 30
0.0
 11
41.87405349346273
 21
95.39676573770336
 31
0.0
  0
INSERT
  5
64
330
5F
100
AcDbEntity
  8
SUNPOU
 62
    60
370
    -2
100
AcDbBlockReference
  2
_DOTSMALL
 10
27.90397394652132
 20
95.39676573770336
 30
0.0
 41
4.0
 42
4.0
 43
4.0
 50
180.0
  0
INSERT
  5
69
330
5F
100
AcDbEntity
  8
SUNPOU
 62
    60
370
    -2
100
AcDbBlockReference
  2
_DOTSMALL
 10
41.87405349346273
 20
95.39676573770336
 30
0.0
 41
4.0
 42
4.0
 43
4.0
  0
MTEXT
  5
6A
330
5F
100
AcDbEntity
  8
SUNPOU
 62
    60
100
AcDbMText
 10
34.88901371999203
 20
100.3967657377033
 30
0.0
 40
6.0
 41
0.0
 71
     5
 72
     1
  1
\A1;14
  7
LIFE
 73
     1
 44
1.0
1001
ACAD
1000
MTEXTBEGIN
1070
    73
1070
     1
1070
    44
1040
1.0
1070
    74
1070
     0
1000
MTEXTEND
  0
POINT
  5
6C
330
5F
100
AcDbEntity
  8
DEFPOINTS
 62
     0
100
AcDbPoint
 10
27.90397394652132
 20
86.12620994196797
 30
0.0
  0
POINT
  5
6E
330
5F
100
AcDbEntity
  8
DEFPOINTS
 62
     0
100
AcDbPoint
 10
41.87405349346273
 20
86.12620994196799
 30
0.0
  0
POINT
  5
6F
330
5F
100
AcDbEntity
  8
DEFPOINTS
 62
     0
100
AcDbPoint
 10
41.87405349346273
 20
95.39676573770336
 30
0.0
  0
ENDBLK
  5
70
330
5F
100
AcDbEntity
  8
0
100
AcDbBlockEnd
  0
BLOCK
  5
79
330
78
100
AcDbEntity
  8
0
100
AcDbBlockBegin
  2
*D2
 70
     1
 10
0.0
 20
0.0
 30
0.0
  3
*D2
  1

  0
LINE
  5
7A
330
78
100
AcDbEntity
  8
SUNPOU
 62
    70
370
    -2
100
AcDbLine
 10
25.30671839790971
 20
86.15369715649315
 30
0.0
 11
9.7176193626167
 21
86.15369715649315
 31
0.0
  0
LINE
  5
7B
330
78
100
AcDbEntity
  8
SUNPOU
 62
    70
370
    -2
100
AcDbLine
 10
25.57343700746735
 20
29.18118309818686
 30
0.0
 11
9.717619362616687
 21
29.18118309818687
 31
0.0
  0
LINE
  5
7C
330
78
100
AcDbEntity
  8
SUNPOU
 62
    60
370
    -2
100
AcDbLine
 10
9.7176193626167
 20
86.15369715649315
 30
0.0
 11
9.717619362616687
 21
29.18118309818687
 31
0.0
  0
INSERT
  5
7D
330
78
100
AcDbEntity
  8
SUNPOU
 62
    60
370
    -2
100
AcDbBlockReference
  2
_DOTSMALL
 10
9.7176193626167
 20
86.15369715649315
 30
0.0
 41
4.0
 42
4.0
 43
4.0
 50
90.0
  0
INSERT
  5
7E
330
78
100
AcDbEntity
  8
SUNPOU
 62
    60
370
    -2
100
AcDbBlockReference
  2
_DOTSMALL
 10
9.717619362616687
 20
29.18118309818687
 30
0.0
 41
4.0
 42
4.0
 43
4.0
 50
270.0
  0
MTEXT
  5
7F
330
78
100
AcDbEntity
  8
SUNPOU
 62
    60
100
AcDbMText
 10
4.717619362616684
 20
57.66744012734001
 30
0.0
 40
6.0
 41
0.0
 71
     5
 72
     1
  1
\A1;57
  7
LIFE
 11
0.0000000000000001
 21
1.0
 31
0.0
 73
     1
 44
1.0
1001
ACAD
1000
MTEXTBEGIN
1070
    73
1070
     1
1070
    44
1040
1.0
1070
    74
1070
     0
1000
MTEXTEND
  0
POINT
  5
80
330
78
100
AcDbEntity
  8
DEFPOINTS
 62
     0
100
AcDbPoint
 10
29.30671839790971
 20
86.15369715649315
 30
0.0
  0
POINT
  5
81
330
78
100
AcDbEntity
  8
DEFPOINTS
 62
     0
100
AcDbPoint
 10
29.57343700746735
 20
29.18118309818686
 30
0.0
  0
POINT
  5
82
330
78
100
AcDbEntity
  8
DEFPOINTS
 62
     0
100
AcDbPoint
 10
9.717619362616687
 20
29.18118309818687
 30
0.0
  0
ENDBLK
  5
83
330
78
100
AcDbEntity
  8
0
100
AcDbBlockEnd
  0
BLOCK
  5
167
330
166
100
AcDbEntity
  8
0
100
AcDbBlockBegin
  2
*D3
 70
     1
 10
0.0
 20
0.0
 30
0.0
  3
*D3
  1

  0
LINE
  5
168
330
166
100
AcDbEntity
  8
SUNPOU
 62
    70
370
    -2
100
AcDbLine
 10
138.5996759779379
 20
48.51758410984135
 30
0.0
 11
138.5996759779379
 21
95.39676573770336
 31
0.0
  0
LINE
  5
169
330
166
100
AcDbEntity
  8
SUNPOU
 62
    70
370
    -2
100
AcDbLine
 10
206.599675977938
 20
48.51758410984135
 30
0.0
 11
206.599675977938
 21
95.39676573770336
 31
0.0
  0
LINE
  5
16A
330
166
100
AcDbEntity
  8
SUNPOU
 62
    60
370
    -2
100
AcDbLine
 10
138.5996759779379
 20
95.39676573770336
 30
0.0
 11
206.599675977938
 21
95.39676573770336
 31
0.0
  0
INSERT
  5
16B
330
166
100
AcDbEntity
  8
SUNPOU
 62
    60
370
    -2
100
AcDbBlockReference
  2
_DOTSMALL
 10
138.5996759779379
 20
95.39676573770336
 30
0.0
 41
4.0
 42
4.0
 43
4.0
 50
180.0
  0
INSERT
  5
16C
330
166
100
AcDbEntity
  8
SUNPOU
 62
    60
370
    -2
100
AcDbBlockReference
  2
_DOTSMALL
 10
206.599675977938
 20
95.39676573770336
 30
0.0
 41
4.0
 42
4.0
 43
4.0
  0
MTEXT
  5
16D
330
166
100
AcDbEntity
  8
SUNPOU
 62
    60
100
AcDbMText
 10
172.599675977938
 20
100.3967657377033
 30
0.0
 40
6.0
 41
0.0
 71
     5
 72
     1
  1
\A1;68
  7
LIFE
 73
     1
 44
1.0
1001
ACAD
1000
MTEXTBEGIN
1070
    73
1070
     1
1070
    44
1040
1.0
1070
    74
1070
     0
1000
MTEXTEND
  0
POINT
  5
16E
330
166
100
AcDbEntity
  8
DEFPOINTS
 62
     0
100
AcDbPoint
 10
138.5996759779379
 20
44.51758410984136
 30
0.0
  0
POINT
  5
16F
330
166
100
AcDbEntity
  8
DEFPOINTS
 62
     0
100
AcDbPoint
 10
206.599675977938
 20
44.51758410984136
 30
0.0
  0
POINT
  5
170
330
166
100
AcDbEntity
  8
DEFPOINTS
 62
     0
100
AcDbPoint
 10
206.599675977938
 20
95.39676573770336
 30
0.0
  0
ENDBLK
  5
171
330
166
100
AcDbEntity
  8
0
100
AcDbBlockEnd
  0
BLOCK
  5
66
330
65
100
AcDbEntity
  8
0
100
AcDbBlockBegin
  2
_DOTSMALL
 70
     0
 10
0.0
 20
0.0
 30
0.0
  3
_DOTSMALL
  1

  0
LWPOLYLINE
  5
67
330
65
100
AcDbEntity
  8
0
  6
ByBlock
 62
     0
100
AcDbPolyline
 90
        2
 70
     1
 43
0.5
 10
-0.0625
 20
0.0
 42
1.0
 10
0.0625
 20
0.0
 42
1.0
  0
ENDBLK
  5
68
330
65
100
AcDbEntity
  8
0
100
AcDbBlockEnd
  0
ENDSEC
  0
SECTION
  2
ENTITIES
  0
DIMENSION
  5
5D
330
2
100
AcDbEntity
  8
SUNPOU
100
AcDbDimension
  2
*D1
 10
41.87405349346273
 20
95.39676573770336
 30
0.0
 11
34.88901371999203
 21
100.3967657377033
 31
0.0
 71
     5
 42
13.97007954694142
  3
STANDARD$0
100
AcDbAlignedDimension
 13
27.90397394652132
 23
86.12620994196797
 33
0.0
 14
41.87405349346273
 24
86.12620994196799
 34
0.0
100
AcDbRotatedDimension
1001
ACAD
1000
DSTYLE
1002
{
1070
    41
1040
2.0
1070
    44
1040
0.0
1070
    77
1070
     1
1070
    78
1070
     0
1070
   140
1040
3.0
1070
   141
1040
1.0
1070
   146
1040
0.0642857142857143
1070
   172
1070
     0
1070
   173
1070
     0
1070
   176
1070
    60
1070
   177
1070
    70
1070
   178
1070
    60
1070
   271
1070
     0
1070
   272
1070
     0
1070
   341
1005
0
1070
   342
1005
65
1070
   343
1005
0
1070
   344
1005
0
1002
}
  0
DIMENSION
  5
77
330
2
100
AcDbEntity
  8
SUNPOU
100
AcDbDimension
  2
*D2
 10
9.717619362616687
 20
29.18118309818687
 30
0.0
 11
4.717619362616684
 21
57.66744012734001
 31
0.0
 71
     5
 42
56.97251405830628
  3
STANDARD$0
100
AcDbAlignedDimension
 13
29.30671839790971
 23
86.15369715649315
 33
0.0
 14
29.57343700746735
 24
29.18118309818686
 34
0.0
 50
90.0
100
AcDbRotatedDimension
1001
ACAD
1000
DSTYLE
1002
{
1070
    41
1040
2.0
1070
    44
1040
0.0
1070
    77
1070
     1
1070
    78
1070
     0
1070
   140
1040
3.0
1070
   141
1040
1.0
1070
   146
1040
0.0642857142857143
1070
   172
1070
     0
1070
   173
1070
     0
1070
   176
1070
    60
1070
   177
1070
    70
1070
   178
1070
    60
1070
   271
1070
     0
1070
   272
1070
     0
1070
   341
1005
0
1070
   342
1005
65
1070
   343
1005
0
1070
   344
1005
0
1002
}
  0
TEXT
  5
84
330
2
100
AcDbEntity
  8
HOJO
100
AcDbText
 10
4.826983000000041
 20
1.183313000000011
 30
0.0
 40
4.5
  1
SE213
  7
SUNPOU
100
AcDbText
  0
LINE
  5
87
330
2
100
AcDbEntity
  8
WAKU
100
AcDbLine
 10
0.0
 20
0.0
 30
0.0
 11
58.37481010528978
 21
0.0
 31
0.0
  0
LINE
  5
89
330
2
100
AcDbEntity
  8
WAKU
100
AcDbLine
 10
0.0
 20
7.0
 30
0.0
 11
58.37481010528978
 21
7.0
 31
0.0
  0
TEXT
  5
8A
330
2
100
AcDbEntity
  8
HOJO
100
AcDbText
 10
41.98195420912667
 20
2.522193000000015
 30
0.0
 40
3.0
  1
57\U+00D714
  7
SUNPOU
100
AcDbText
  0
LWPOLYLINE
  5
8B
330
2
100
AcDbEntity
  8
KIJUN
  6
Continuous
100
AcDbPolyline
 90
       18
 70
   129
 43
0.0
 10
31.2758847029158
 20
30.22962773693417
 42
0.1978734882003807
 10
41.8735084008324
 20
56.36172394258372
 10
41.87350840083243
 20
58.94566909756662
 42
0.1978734882004123
 10
31.27588470291579
 20
85.0777653032207
 42
0.0314485659423673
 10
30.60155827128694
 20
85.6258984937717
 42
0.0651804685561199
 10
29.8297432557261
 20
86.05132395782705
 42
0.0908191384412462
 10
29.3078333713064
 20
86.15369652006197
 42
0.2172160150953343
 10
28.57031945349178
 20
85.818447491392
 42
0.0839023061176477
 10
28.24831044605526
 20
85.28535771797493
 42
0.0483166109124544
 10
28.01643316693077
 20
84.468138924768
 42
0.0432536607101117
 10
27.87350840083241
 20
82.5724918656663
 10
27.87350840083241
 20
32.73490117447867
 42
0.0432536607098866
 10
28.01643316693077
 20
30.83925411538687
 42
0.0483166109124545
 10
28.24831044605526
 20
30.02203532217993
 42
0.0839023061176478
 10
28.57031945349178
 20
29.48894554876284
 42
0.2172160150953343
 10
29.3078333713064
 20
29.15369652009289
 42
0.0908191384412461
 10
29.8297432557261
 20
29.2560690823278
 42
0.0651804685561201
 10
30.60155827128694
 20
29.68149454638317
 42
0.0314485659423674
  0
LINE
  5
8D
330
2
100
AcDbEntity
  8
KIJUN
  6
Continuous
100
AcDbLine
 10
70.59967597793802
 20
86.15369715649318
 30
0.0
 11
274.5996759779381
 21
86.15369715649315
 31
0.0
  0
LINE
  5
8E
330
2
100
AcDbEntity
  8
KIJUN
  6
Continuous
100
AcDbLine
 10
70.59967597793806
 20
29.1536958836617
 30
0.0
 11
274.5996759779381
 21
29.1536958836617
 31
0.0
  0
LINE
  5
8F
330
2
100
AcDbEntity
  8
KIJUN
  6
Continuous
100
AcDbLine
 10
70.59967597793802
 20
74.65369652007743
 30
0.0
 11
274.5996759779381
 21
74.65369652007741
 31
0.0
  0
LINE
  5
90
330
2
100
AcDbEntity
  8
KIJUN
  6
Continuous
100
AcDbLine
 10
70.59967597793806
 20
40.65369652007743
 30
0.0
 11
274.5996759779381
 21
40.65369652007743
 31
0.0
  0
ARC
  5
91
330
2
100
AcDbEntity
  8
KIJUN
  6
Continuous
100
AcDbCircle
 10
90.68714419562875
 20
36.59240381892548
 30
0.0
 40
40.89294897801567
100
AcDbArc
 50
116.6300768060223
 51
119.4208546205417
  0
ARC
  5
92
330
2
100
AcDbEntity
  8
KIJUN
  6
Continuous
100
AcDbCircle
 10
12.78948957614562
 20
109.0502677161586
 30
0.0
 40
83.19523030345591
100
AcDbArc
 50
314.0171621087585
 51
318.9947896307038
  0
ARC
  5
93
330
2
100
AcDbEntity
  8
KIJUN
  6
Continuous
100
AcDbCircle
 10
152.1618737248039
 20
-17.14395894781972
 30
0.0
 40
104.8500402026635
100
AcDbArc
 50
127.385370965281
 51
136.9252515495824
  0
ARC
  5
94
330
2
100
AcDbEntity
  8
KIJUN
  6
Continuous
100
AcDbCircle
 10
74.26516113937259
 20
69.14854767817505
 30
0.0
 40
4.430452872008925
100
AcDbArc
 50
54.35710278530049
 51
115.5005591580718
  0
ARC
  5
95
330
2
100
AcDbEntity
  8
KIJUN
  6
Continuous
100
AcDbCircle
 10
83.55661932017966
 20
82.68989671257019
 30
0.0
 40
11.99337354144003
100
AcDbArc
 50
235.982226552836
 51
277.6238314201939
  0
ARC
  5
96
330
2
100
AcDbEntity
  8
KIJUN
  6
Continuous
100
AcDbCircle
 10
136.1266574337054
 20
-5.255045020549371
 30
0.0
 40
91.69649153398935
100
AcDbArc
 50
132.4957720460991
 51
135.6110245165649
  0
ARC
  5
97
330
2
100
AcDbEntity
  8
KIJUN
  6
Continuous
100
AcDbCircle
 10
165.8598781238414
 20
-37.38007166703222
 30
0.0
 40
133.960652798682
100
AcDbArc
 50
130.6968104530988
 51
135.3249606438472
  0
ARC
  5
98
330
2
100
AcDbEntity
  8
KIJUN
  6
Continuous
100
AcDbCircle
 10
85.48152411988752
 20
55.21178473076755
 30
0.0
 40
11.36309801695976
100
AcDbArc
 50
74.59635250752592
 51
127.8446648097025
  0
ARC
  5
99
330
2
100
AcDbEntity
  8
KIJUN
  6
Continuous
100
AcDbCircle
 10
91.3730626065981
 20
47.223305383772
 30
0.0
 40
29.36955516633254
100
AcDbArc
 50
119.6432756813649
 51
135.0164869910195
  0
ARC
  5
9A
330
2
100
AcDbEntity
  8
KIJUN
  6
Continuous
100
AcDbCircle
 10
158.6871441956287
 20
36.59240381892548
 30
0.0
 40
40.89294897801567
100
AcDbArc
 50
116.6300768060223
 51
139.9112929729807
  0
ARC
  5
9B
330
2
100
AcDbEntity
  8
KIJUN
  6
Continuous
100
AcDbCircle
 10
106.1904933742183
 20
51.23508546796371
 30
0.0
 40
6.98779195882757
100
AcDbArc
 50
245.0177197150526
 51
284.6983464476577
  0
ARC
  5
9C
330
2
100
AcDbEntity
  8
KIJUN
  6
Continuous
100
AcDbCircle
 10
102.0602527166761
 20
63.27830808298618
 30
0.0
 40
19.70726704999156
100
AcDbArc
 50
287.4303987383154
 51
318.6756925181241
  0
ARC
  5
9D
330
2
100
AcDbEntity
  8
KIJUN
  6
Continuous
100
AcDbCircle
 10
2548.298856177751
 20
-1963.486805962654
 30
0.0
 40
3157.070094422964
100
AcDbArc
 50
140.0689625735544
 51
140.367964577765
  0
ARC
  5
9E
330
2
100
AcDbEntity
  8
KIJUN
  6
Continuous
100
AcDbCircle
 10
111.5005189690023
 20
45.25832268386857
 30
0.0
 40
8.268955792157314
100
AcDbArc
 50
182.4760980632502
 51
196.0735865755719
  0
ARC
  5
9F
330
2
100
AcDbEntity
  8
KIJUN
  6
Continuous
100
AcDbCircle
 10
107.3092496511198
 20
59.71130170597188
 30
0.0
 40
17.15821421399994
100
AcDbArc
 50
257.3607201909723
 51
295.9687464035697
  0
ARC
  5
A0
330
2
100
AcDbEntity
  8
KIJUN
  6
Continuous
100
AcDbCircle
 10
119.4127849050776
 20
34.63302798148091
 30
0.0
 40
10.68835421735431
100
AcDbArc
 50
50.09462104388353
 51
115.433662874268
  0
ARC
  5
A1
330
2
100
AcDbEntity
  8
KIJUN
  6
Continuous
100
AcDbCircle
 10
128.6949008952808
 20
45.31027016898803
 30
0.0
 40
3.467470009605341
100
AcDbArc
 50
225.6174885241549
 51
303.0710594539361
  0
ARC
  5
A2
330
2
100
AcDbEntity
  8
KIJUN
  6
Continuous
100
AcDbCircle
 10
80.78948957614564
 20
109.0502677161586
 30
0.0
 40
83.19523030345591
100
AcDbArc
 50
306.7670057719719
 51
318.9947896307038
  0
ARC
  5
A3
330
2
100
AcDbEntity
  8
KIJUN
  6
Continuous
100
AcDbCircle
 10
74.38004023165802
 20
44.4226801098211
 30
0.0
 40
3.781555322882872
100
AcDbArc
 50
93.95542685017884
 51
178.5619225007571
  0
ARC
  5
A4
330
2
100
AcDbEntity
  8
KIJUN
  6
Continuous
100
AcDbCircle
 10
75.47421908348088
 20
47.56034536255561
 30
0.0
 40
5.746265441903492
100
AcDbArc
 50
211.9730145092933
 51
310.9226651169921
  0
ARC
  5
A5
330
2
100
AcDbEntity
  8
KIJUN
  6
Continuous
100
AcDbCircle
 10
82.17861532540666
 20
42.02625101305124
 30
0.0
 40
3.172884465530566
100
AcDbArc
 50
157.9286043711535
 51
197.6094684327937
  0
ARC
  5
A6
330
2
100
AcDbEntity
  8
KIJUN
  6
Continuous
100
AcDbCircle
 10
78.02348208147503
 20
40.07201009098389
 30
0.0
 40
11.2452914741522
100
AcDbArc
 50
71.45212661330484
 51
99.78158237697771
  0
ARC
  5
A7
330
2
100
AcDbEntity
  8
KIJUN
  6
Continuous
100
AcDbCircle
 10
76.6187914605096
 20
48.661851921076
 30
0.0
 40
2.542785939115381
100
AcDbArc
 50
101.4736198459175
 51
190.5742160310257
  0
ARC
  5
A8
330
2
100
AcDbEntity
  8
KIJUN
  6
Continuous
100
AcDbCircle
 10
84.60528761131484
 20
53.98717501347429
 30
0.0
 40
4.429068497598758
100
AcDbArc
 50
182.6145376142089
 51
227.2806806589807
  0
ARC
  5
A9
330
2
100
AcDbEntity
  8
KIJUN
  6
Continuous
100
AcDbCircle
 10
84.39437393096152
 20
49.79979131253768
 30
0.0
 40
5.799735558181699
100
AcDbArc
 50
63.7044891421182
 51
136.5942968528461
  0
ARC
  5
AA
330
2
100
AcDbEntity
  8
KIJUN
  6
Continuous
100
AcDbCircle
 10
90.44921091034687
 20
56.78987867630352
 30
0.0
 40
3.918538750187768
100
AcDbArc
 50
182.6589259150166
 51
207.1892469247293
  0
ARC
  5
AB
330
2
100
AcDbEntity
  8
KIJUN
  6
Continuous
100
AcDbCircle
 10
88.76390552109191
 20
49.34972368593496
 30
0.0
 40
7.592922933572173
100
AcDbArc
 50
61.56300331163508
 51
107.0714941660766
  0
ARC
  5
AC
330
2
100
AcDbEntity
  8
KIJUN
  6
Continuous
100
AcDbCircle
 10
98.01995570500551
 20
62.02635788166934
 30
0.0
 40
8.234805837955667
100
AcDbArc
 50
206.208788834026
 51
265.1471932456395
  0
ARC
  5
AD
330
2
100
AcDbEntity
  8
KIJUN
  6
Continuous
100
AcDbCircle
 10
98.73484350177029
 20
52.68561487764728
 30
0.0
 40
9.909303471672959
100
AcDbArc
 50
121.0506312109757
 51
144.857634318927
  0
ARC
  5
AE
330
2
100
AcDbEntity
  8
KIJUN
  6
Continuous
100
AcDbCircle
 10
91.88729880595962
 20
65.59385732075156
 30
0.0
 40
4.747736465284191
100
AcDbArc
 50
185.6355751366628
 51
291.4522884022174
  0
ARC
  5
AF
330
2
100
AcDbEntity
  8
KIJUN
  6
Continuous
100
AcDbCircle
 10
91.69211880385146
 20
72.02088280609578
 30
0.0
 40
6.668025405010012
100
AcDbArc
 50
163.0160094859461
 51
241.3958149227854
  0
ARC
  5
B0
330
2
100
AcDbEntity
  8
KIJUN
  6
Continuous
100
AcDbCircle
 10
88.14370849734126
 20
68.26457658459763
 30
0.0
 40
6.366983140938329
100
AcDbArc
 50
21.35290614133157
 51
116.3780391392365
  0
ARC
  5
B1
330
2
100
AcDbEntity
  8
KIJUN
  6
Continuous
100
AcDbCircle
 10
100.1662784113956
 20
71.87344400701373
 30
0.0
 40
6.227834237159457
100
AcDbArc
 50
155.001787581871
 51
191.9599056750979
  0
ARC
  5
B2
330
2
100
AcDbEntity
  8
KIJUN
  6
Continuous
100
AcDbCircle
 10
94.74393544012389
 20
68.26025452351149
 30
0.0
 40
6.248957110464338
100
AcDbArc
 50
37.35951822739457
 51
92.03659129830001
  0
ARC
  5
B3
330
2
100
AcDbEntity
  8
KIJUN
  6
Continuous
100
AcDbCircle
 10
127.277142429734
 20
93.52953069521392
 30
0.0
 40
34.94530190253074
100
AcDbArc
 50
217.9227292349015
 51
230.2737242726135
  0
ARC
  5
B4
330
2
100
AcDbEntity
  8
KIJUN
  6
Continuous
100
AcDbCircle
 10
109.2704310561748
 20
70.46856027197049
 30
0.0
 40
5.769504624607535
100
AcDbArc
 50
149.4498769823295
 51
221.4032810748618
  0
ARC
  5
B5
330
2
100
AcDbEntity
  8
KIJUN
  6
Continuous
100
AcDbCircle
 10
106.3241687828891
 20
67.62709522032597
 30
0.0
 40
6.117976146501561
100
AcDbArc
 50
30.15066874443244
 51
109.3026634721903
  0
ARC
  5
B6
330
2
100
AcDbEntity
  8
KIJUN
  6
Continuous
100
AcDbCircle
 10
114.1923016782758
 20
71.59866754735087
 30
0.0
 40
2.730022045968524
100
AcDbArc
 50
48.57503210724115
 51
199.2188650798856
  0
ARC
  5
B7
330
2
100
AcDbEntity
  8
KIJUN
  6
Continuous
100
AcDbCircle
 10
181.7551897325922
 20
141.6935424618747
 30
0.0
 40
94.62789884694595
100
AcDbArc
 50
225.9810263251202
 51
230.4503599044154
  0
ARC
  5
B8
330
2
100
AcDbEntity
  8
KIJUN
  6
Continuous
100
AcDbCircle
 10
123.4719071855424
 20
70.58750749703325
 30
0.0
 40
2.709160994332149
100
AcDbArc
 50
61.48675738172356
 51
223.3293599491891
  0
ARC
  5
B9
330
2
100
AcDbEntity
  8
KIJUN
  6
Continuous
100
AcDbCircle
 10
146.0473801248413
 20
111.2296586636907
 30
0.0
 40
43.78221674624631
100
AcDbArc
 50
240.9159017852279
 51
253.9563295770514
  0
ARC
  5
BA
330
2
100
AcDbEntity
  8
KIJUN
  6
Continuous
100
AcDbCircle
 10
99.26066906196332
 20
24.7820823596025
 30
0.0
 40
21.23777013574514
100
AcDbArc
 50
107.6005188944437
 51
125.5709500579016
  0
ARC
  5
BB
330
2
100
AcDbEntity
  8
KIJUN
  6
Continuous
100
AcDbCircle
 10
94.63866901547909
 20
41.27048027299017
 30
0.0
 40
4.164238529116024
100
AcDbArc
 50
115.6081992541427
 51
169.0179744496932
  0
ARC
  5
BC
330
2
100
AcDbEntity
  8
KIJUN
  6
Continuous
100
AcDbCircle
 10
103.1455299822322
 20
38.20021365663663
 30
0.0
 40
6.701524363369137
100
AcDbArc
 50
89.19841158578254
 51
142.760615145158
  0
ARC
  5
BD
330
2
100
AcDbEntity
  8
KIJUN
  6
Continuous
100
AcDbCircle
 10
94.08323673919802
 20
45.8410426875479
 30
0.0
 40
5.171717182220898
100
AcDbArc
 50
226.9174795016235
 51
316.1100415437978
  0
ARC
  5
BE
330
2
100
AcDbEntity
  8
KIJUN
  6
Continuous
100
AcDbCircle
 10
109.5679606760159
 20
65.76503687657321
 30
0.0
 40
15.79228508165028
100
AcDbArc
 50
254.2806988656478
 51
309.4349278784438
  0
ARC
  5
BF
330
2
100
AcDbEntity
  8
KIJUN
  6
Continuous
100
AcDbCircle
 10
112.8718472635888
 20
49.5699267810426
 30
0.0
 40
7.64721109607866
100
AcDbArc
 50
157.0332408853
 51
172.5356172301023
  0
ARC
  5
C0
330
2
100
AcDbEntity
  8
KIJUN
  6
Continuous
100
AcDbCircle
 10
108.7466442281154
 20
-3.170689196564898
 30
0.0
 40
55.80076905688302
100
AcDbArc
 50
92.9953089765539
 51
116.4793554011992
  0
ARC
  5
C1
330
2
100
AcDbEntity
  8
KIJUN
  6
Continuous
100
AcDbCircle
 10
97.81583737831843
 20
52.74857269109034
 30
0.0
 40
1.180179786035572
100
AcDbArc
 50
114.6656393235574
 51
276.7851293222416
  0
ARC
  5
C2
330
2
100
AcDbEntity
  8
KIJUN
  6
Continuous
100
AcDbCircle
 10
119.0382040580388
 20
98.0296305568239
 30
0.0
 40
39.89048831264803
100
AcDbArc
 50
234.8082751500069
 51
276.6004486205862
  0
ARC
  5
C3
330
2
100
AcDbEntity
  8
KIJUN
  6
Continuous
100
AcDbCircle
 10
105.5699414359023
 20
65.26008484761678
 30
0.0
 40
1.52743504035314
100
AcDbArc
 50
114.238266917541
 51
223.4323966079314
  0
ARC
  5
C4
330
2
100
AcDbEntity
  8
KIJUN
  6
Continuous
100
AcDbCircle
 10
119.8336259156659
 20
82.75139400756343
 30
0.0
 40
24.08546911670265
100
AcDbArc
 50
230.3375123571549
 51
246.8752610466131
  0
ARC
  5
C5
330
2
100
AcDbEntity
  8
KIJUN
  6
Continuous
100
AcDbCircle
 10
127.1034858210168
 20
93.70014111065508
 30
0.0
 40
30.58111200728318
100
AcDbArc
 50
240.2593985699654
 51
270.8708475727918
  0
ARC
  5
C6
330
2
100
AcDbEntity
  8
KIJUN
  6
Continuous
100
AcDbCircle
 10
142.2651611393725
 20
69.14854767817505
 30
0.0
 40
4.430452872008925
100
AcDbArc
 50
54.35710278530049
 51
115.5005591580719
  0
ARC
  5
C7
330
2
100
AcDbEntity
  8
KIJUN
  6
Continuous
100
AcDbCircle
 10
114.586162731075
 20
60.26560938209879
 30
0.0
 40
14.69438414496217
100
AcDbArc
 50
300.0712131734416
 51
326.4751498726557
  0
ARC
  5
C8
330
2
100
AcDbEntity
  8
KIJUN
  6
Continuous
100
AcDbCircle
 10
113.8284056469711
 20
62.8464671914946
 30
0.0
 40
19.13931783949969
100
AcDbArc
 50
303.9270668735941
 51
324.4365105501959
  0
ARC
  5
C9
330
2
100
AcDbEntity
  8
KIJUN
  6
Continuous
100
AcDbCircle
 10
115.6642986686101
 20
63.78113000534288
 30
0.0
 40
20.51636049789098
100
AcDbArc
 50
303.5897374518738
 51
322.4379212231493
  0
ARC
  5
CA
330
2
100
AcDbEntity
  8
KIJUN
  6
Continuous
100
AcDbCircle
 10
168.089408592728
 20
21.93361535031235
 30
0.0
 40
51.13572202530882
100
AcDbArc
 50
130.8971029631817
 51
143.7788100794673
  0
ARC
  5
CB
330
2
100
AcDbEntity
  8
KIJUN
  6
Continuous
100
AcDbCircle
 10
175.1500547852146
 20
18.75889541105626
 30
0.0
 40
56.3859897321281
100
AcDbArc
 50
131.4034851235723
 51
144.2342744760119
  0
ARC
  5
CC
330
2
100
AcDbEntity
  8
KIJUN
  6
Continuous
100
AcDbCircle
 10
204.1266574337055
 20
-5.255045020549371
 30
0.0
 40
91.69649153398935
100
AcDbArc
 50
132.4957720460991
 51
141.9405210410595
  0
ARC
  5
CD
330
2
100
AcDbEntity
  8
KIJUN
  6
Continuous
100
AcDbCircle
 10
81.90922265597652
 20
50.33712766757004
 30
0.0
 40
9.671401400316806
100
AcDbArc
 50
253.450649424524
 51
301.1111286909306
  0
ARC
  5
CE
330
2
100
AcDbEntity
  8
KIJUN
  6
Continuous
100
AcDbCircle
 10
108.1859864494349
 20
-15.1464787447734
 30
0.0
 40
64.96202905061399
100
AcDbArc
 50
83.09448257164454
 51
112.9854714646124
  0
ARC
  5
CF
330
2
100
AcDbEntity
  8
KIJUN
  6
Continuous
100
AcDbCircle
 10
105.8369831267718
 20
15.62949632057151
 30
0.0
 40
31.6110248000738
100
AcDbArc
 50
77.90504297303361
 51
105.7307793737112
  0
ARC
  5
D0
330
2
100
AcDbEntity
  8
KIJUN
  6
Continuous
100
AcDbCircle
 10
114.8321190996524
 20
85.56417406460866
 30
0.0
 40
22.636432726462
100
AcDbArc
 50
224.3772854492283
 51
241.6705430371365
  0
ARC
  5
D1
330
2
100
AcDbEntity
  8
KIJUN
  6
Continuous
100
AcDbCircle
 10
121.3773839614328
 20
94.85898727520163
 30
0.0
 40
35.6946308390886
100
AcDbArc
 50
227.4429287713799
 51
238.7699091899222
  0
ARC
  5
D2
330
2
100
AcDbEntity
  8
KIJUN
  6
Continuous
100
AcDbCircle
 10
130.0712346198842
 20
91.35142224252073
 30
0.0
 40
25.23973810365303
100
AcDbArc
 50
230.3191310779649
 51
249.4680332496983
  0
ARC
  5
D3
330
2
100
AcDbEntity
  8
KIJUN
  6
Continuous
100
AcDbCircle
 10
129.0372935933025
 20
87.35509723574478
 30
0.0
 40
22.89706762170793
100
AcDbArc
 50
226.0879566100358
 51
242.8607137266924
  0
ARC
  5
D4
330
2
100
AcDbEntity
  8
KIJUN
  6
Continuous
100
AcDbCircle
 10
138.0707265662473
 20
90.51570125054055
 30
0.0
 40
24.61479542122821
100
AcDbArc
 50
233.9891845573252
 51
249.9467104286662
  0
ARC
  5
D5
330
2
100
AcDbEntity
  8
KIJUN
  6
Continuous
100
AcDbCircle
 10
127.1892043110717
 20
95.68662317609085
 30
0.0
 40
33.71826716088562
100
AcDbArc
 50
244.7263533602832
 51
269.0067802865493
  0
ARC
  5
D6
330
2
100
AcDbEntity
  8
KIJUN
  6
Continuous
100
AcDbCircle
 10
126.3988831545718
 20
93.06519645455002
 30
0.0
 40
32.27834830533166
100
AcDbArc
 50
241.2833989547553
 51
268.6184336832906
  0
ARC
  5
D7
330
2
100
AcDbEntity
  8
KIJUN
  6
Continuous
100
AcDbCircle
 10
233.8935955959636
 20
-37.41347260919357
 30
0.0
 40
134.0079621523893
100
AcDbArc
 50
130.6984284521566
 51
139.8419805143026
  0
ARC
  5
D8
330
2
100
AcDbEntity
  8
KIJUN
  6
Continuous
100
AcDbCircle
 10
162.5655797754337
 20
17.51872280584984
 30
0.0
 40
44.25117406529688
100
AcDbArc
 50
134.6345332854654
 51
145.1074705466064
  0
ARC
  5
D9
330
2
100
AcDbEntity
  8
KIJUN
  6
Continuous
100
AcDbCircle
 10
159.373062606598
 20
47.223305383772
 30
0.0
 40
29.36955516633254
100
AcDbArc
 50
119.6432756813648
 51
136.2791966180109
  0
ARC
  5
DA
330
2
100
AcDbEntity
  8
KIJUN
  6
Continuous
100
AcDbCircle
 10
255.5605083090262
 20
-48.63467921421259
 30
0.0
 40
165.1612523203981
100
AcDbArc
 50
135.3082710010188
 51
142.8667393649219
  0
ARC
  5
DB
330
2
100
AcDbEntity
  8
KIJUN
  6
Continuous
100
AcDbCircle
 10
107.1439727547752
 20
65.54865994818062
 30
0.0
 40
22.13718675369078
100
AcDbArc
 50
298.0899192511426
 51
319.1473080439213
  0
ARC
  5
DC
330
2
100
AcDbEntity
  8
KIJUN
  6
Continuous
100
AcDbCircle
 10
220.1618737248039
 20
-17.14395894781972
 30
0.0
 40
104.8500402026635
100
AcDbArc
 50
127.3853709652809
 51
136.9252515495825
  0
ARC
  5
DD
330
2
100
AcDbEntity
  8
KIJUN
  6
Continuous
100
AcDbCircle
 10
151.5566193201797
 20
82.68989671257019
 30
0.0
 40
11.99337354144003
100
AcDbArc
 50
235.982226552836
 51
277.6238314201939
  0
ARC
  5
DE
330
2
100
AcDbEntity
  8
KIJUN
  6
Continuous
100
AcDbCircle
 10
153.4815241198874
 20
55.21178473076755
 30
0.0
 40
11.36309801695976
100
AcDbArc
 50
74.59635250752592
 51
127.8446648097026
  0
ARC
  5
DF
330
2
100
AcDbEntity
  8
KIJUN
  6
Continuous
100
AcDbCircle
 10
226.6871441956288
 20
36.59240381892548
 30
0.0
 40
40.89294897801567
100
AcDbArc
 50
116.6300768060223
 51
139.9112929729807
  0
ARC
  5
E0
330
2
100
AcDbEntity
  8
KIJUN
  6
Continuous
100
AcDbCircle
 10
174.1904933742183
 20
51.23508546796371
 30
0.0
 40
6.98779195882757
100
AcDbArc
 50
245.0177197150526
 51
284.6983464476577
  0
ARC
  5
E1
330
2
100
AcDbEntity
  8
KIJUN
  6
Continuous
100
AcDbCircle
 10
170.060252716676
 20
63.27830808298618
 30
0.0
 40
19.70726704999156
100
AcDbArc
 50
287.4303987383154
 51
318.6756925181241
  0
ARC
  5
E2
330
2
100
AcDbEntity
  8
KIJUN
  6
Continuous
100
AcDbCircle
 10
2616.29885617775
 20
-1963.486805962654
 30
0.0
 40
3157.070094422964
100
AcDbArc
 50
140.0689625735545
 51
140.367964577765
  0
ARC
  5
E3
330
2
100
AcDbEntity
  8
KIJUN
  6
Continuous
100
AcDbCircle
 10
179.5005189690023
 20
45.25832268386857
 30
0.0
 40
8.268955792157314
100
AcDbArc
 50
182.4760980632502
 51
196.0735865755719
  0
ARC
  5
E4
330
2
100
AcDbEntity
  8
KIJUN
  6
Continuous
100
AcDbCircle
 10
175.3092496511198
 20
59.71130170597188
 30
0.0
 40
17.15821421399994
100
AcDbArc
 50
257.3607201909723
 51
295.9687464035697
  0
ARC
  5
E5
330
2
100
AcDbEntity
  8
KIJUN
  6
Continuous
100
AcDbCircle
 10
187.4127849050775
 20
34.63302798148091
 30
0.0
 40
10.68835421735431
100
AcDbArc
 50
50.09462104388351
 51
115.433662874268
  0
ARC
  5
E6
330
2
100
AcDbEntity
  8
KIJUN
  6
Continuous
100
AcDbCircle
 10
196.6949008952808
 20
45.31027016898803
 30
0.0
 40
3.467470009605341
100
AcDbArc
 50
225.6174885241549
 51
303.0710594539361
  0
ARC
  5
E7
330
2
100
AcDbEntity
  8
KIJUN
  6
Continuous
100
AcDbCircle
 10
148.7894895761455
 20
109.0502677161586
 30
0.0
 40
83.19523030345591
100
AcDbArc
 50
306.7670057719719
 51
318.9947896307038
  0
ARC
  5
E8
330
2
100
AcDbEntity
  8
KIJUN
  6
Continuous
100
AcDbCircle
 10
142.380040231658
 20
44.4226801098211
 30
0.0
 40
3.781555322882872
100
AcDbArc
 50
93.95542685017884
 51
178.5619225007571
  0
ARC
  5
E9
330
2
100
AcDbEntity
  8
KIJUN
  6
Continuous
100
AcDbCircle
 10
143.4742190834809
 20
47.56034536255561
 30
0.0
 40
5.746265441903492
100
AcDbArc
 50
211.9730145092933
 51
310.9226651169921
  0
ARC
  5
EA
330
2
100
AcDbEntity
  8
KIJUN
  6
Continuous
100
AcDbCircle
 10
150.1786153254066
 20
42.02625101305124
 30
0.0
 40
3.172884465530566
100
AcDbArc
 50
157.9286043711535
 51
197.6094684327938
  0
ARC
  5
EB
330
2
100
AcDbEntity
  8
KIJUN
  6
Continuous
100
AcDbCircle
 10
146.0234820814749
 20
40.07201009098389
 30
0.0
 40
11.2452914741522
100
AcDbArc
 50
71.45212661330484
 51
99.78158237697771
  0
ARC
  5
EC
330
2
100
AcDbEntity
  8
KIJUN
  6
Continuous
100
AcDbCircle
 10
144.6187914605095
 20
48.661851921076
 30
0.0
 40
2.542785939115381
100
AcDbArc
 50
101.4736198459175
 51
190.5742160310259
  0
ARC
  5
ED
330
2
100
AcDbEntity
  8
KIJUN
  6
Continuous
100
AcDbCircle
 10
152.6052876113149
 20
53.98717501347429
 30
0.0
 40
4.429068497598758
100
AcDbArc
 50
182.6145376142089
 51
227.2806806589806
  0
ARC
  5
EE
330
2
100
AcDbEntity
  8
KIJUN
  6
Continuous
100
AcDbCircle
 10
152.3943739309615
 20
49.79979131253768
 30
0.0
 40
5.799735558181699
100
AcDbArc
 50
63.7044891421182
 51
136.5942968528461
  0
ARC
  5
EF
330
2
100
AcDbEntity
  8
KIJUN
  6
Continuous
100
AcDbCircle
 10
158.4492109103468
 20
56.78987867630352
 30
0.0
 40
3.918538750187768
100
AcDbArc
 50
182.6589259150166
 51
207.1892469247293
  0
ARC
  5
F0
330
2
100
AcDbEntity
  8
KIJUN
  6
Continuous
100
AcDbCircle
 10
156.7639055210918
 20
49.34972368593496
 30
0.0
 40
7.592922933572173
100
AcDbArc
 50
61.56300331163508
 51
107.0714941660766
  0
ARC
  5
F1
330
2
100
AcDbEntity
  8
KIJUN
  6
Continuous
100
AcDbCircle
 10
166.0199557050054
 20
62.02635788166934
 30
0.0
 40
8.234805837955667
100
AcDbArc
 50
206.208788834026
 51
265.1471932456395
  0
ARC
  5
F2
330
2
100
AcDbEntity
  8
KIJUN
  6
Continuous
100
AcDbCircle
 10
166.7348435017703
 20
52.68561487764728
 30
0.0
 40
9.909303471672959
100
AcDbArc
 50
121.0506312109757
 51
144.857634318927
  0
ARC
  5
F3
330
2
100
AcDbEntity
  8
KIJUN
  6
Continuous
100
AcDbCircle
 10
159.8872988059595
 20
65.59385732075156
 30
0.0
 40
4.747736465284191
100
AcDbArc
 50
185.6355751366626
 51
291.4522884022174
  0
ARC
  5
F4
330
2
100
AcDbEntity
  8
KIJUN
  6
Continuous
100
AcDbCircle
 10
159.6921188038514
 20
72.02088280609578
 30
0.0
 40
6.668025405010012
100
AcDbArc
 50
163.0160094859461
 51
241.3958149227854
  0
ARC
  5
F5
330
2
100
AcDbEntity
  8
KIJUN
  6
Continuous
100
AcDbCircle
 10
156.1437084973412
 20
68.26457658459763
 30
0.0
 40
6.366983140938329
100
AcDbArc
 50
21.35290614133158
 51
116.3780391392365
  0
ARC
  5
F6
330
2
100
AcDbEntity
  8
KIJUN
  6
Continuous
100
AcDbCircle
 10
168.1662784113955
 20
71.87344400701373
 30
0.0
 40
6.227834237159457
100
AcDbArc
 50
155.0017875818711
 51
191.9599056750979
  0
ARC
  5
F7
330
2
100
AcDbEntity
  8
KIJUN
  6
Continuous
100
AcDbCircle
 10
162.7439354401238
 20
68.26025452351149
 30
0.0
 40
6.248957110464338
100
AcDbArc
 50
37.35951822739449
 51
92.03659129830001
  0
ARC
  5
F8
330
2
100
AcDbEntity
  8
KIJUN
  6
Continuous
100
AcDbCircle
 10
195.277142429734
 20
93.52953069521392
 30
0.0
 40
34.94530190253074
100
AcDbArc
 50
217.9227292349015
 51
230.2737242726135
  0
ARC
  5
F9
330
2
100
AcDbEntity
  8
KIJUN
  6
Continuous
100
AcDbCircle
 10
177.2704310561747
 20
70.46856027197049
 30
0.0
 40
5.769504624607535
100
AcDbArc
 50
149.4498769823295
 51
221.4032810748618
  0
ARC
  5
FA
330
2
100
AcDbEntity
  8
KIJUN
  6
Continuous
100
AcDbCircle
 10
174.3241687828889
 20
67.62709522032597
 30
0.0
 40
6.117976146501561
100
AcDbArc
 50
30.15066874443248
 51
109.3026634721903
  0
ARC
  5
FB
330
2
100
AcDbEntity
  8
KIJUN
  6
Continuous
100
AcDbCircle
 10
182.1923016782758
 20
71.59866754735087
 30
0.0
 40
2.730022045968524
100
AcDbArc
 50
48.57503210724115
 51
199.2188650798856
  0
ARC
  5
FC
330
2
100
AcDbEntity
  8
KIJUN
  6
Continuous
100
AcDbCircle
 10
249.7551897325923
 20
141.6935424618747
 30
0.0
 40
94.62789884694595
100
AcDbArc
 50
225.9810263251202
 51
230.4503599044154
  0
ARC
  5
FD
330
2
100
AcDbEntity
  8
KIJUN
  6
Continuous
100
AcDbCircle
 10
191.4719071855424
 20
70.58750749703325
 30
0.0
 40
2.709160994332149
100
AcDbArc
 50
61.48675738172356
 51
223.3293599491891
  0
ARC
  5
FE
330
2
100
AcDbEntity
  8
KIJUN
  6
Continuous
100
AcDbCircle
 10
214.0473801248414
 20
111.2296586636907
 30
0.0
 40
43.78221674624631
100
AcDbArc
 50
240.9159017852279
 51
253.9563295770514
  0
ARC
  5
FF
330
2
100
AcDbEntity
  8
KIJUN
  6
Continuous
100
AcDbCircle
 10
167.2606690619633
 20
24.7820823596025
 30
0.0
 40
21.23777013574514
100
AcDbArc
 50
107.6005188944437
 51
125.5709500579017
  0
ARC
  5
100
330
2
100
AcDbEntity
  8
KIJUN
  6
Continuous
100
AcDbCircle
 10
162.638669015479
 20
41.27048027299017
 30
0.0
 40
4.164238529116024
100
AcDbArc
 50
115.6081992541427
 51
169.0179744496931
  0
ARC
  5
101
330
2
100
AcDbEntity
  8
KIJUN
  6
Continuous
100
AcDbCircle
 10
171.1455299822322
 20
38.20021365663663
 30
0.0
 40
6.701524363369137
100
AcDbArc
 50
89.19841158578254
 51
142.760615145158
  0
ARC
  5
102
330
2
100
AcDbEntity
  8
KIJUN
  6
Continuous
100
AcDbCircle
 10
162.0832367391979
 20
45.8410426875479
 30
0.0
 40
5.171717182220898
100
AcDbArc
 50
226.9174795016235
 51
316.1100415437979
  0
ARC
  5
103
330
2
100
AcDbEntity
  8
KIJUN
  6
Continuous
100
AcDbCircle
 10
177.5679606760159
 20
65.76503687657321
 30
0.0
 40
15.79228508165028
100
AcDbArc
 50
254.2806988656478
 51
309.4349278784438
  0
ARC
  5
104
330
2
100
AcDbEntity
  8
KIJUN
  6
Continuous
100
AcDbCircle
 10
180.8718472635888
 20
49.5699267810426
 30
0.0
 40
7.64721109607866
100
AcDbArc
 50
157.0332408853
 51
172.5356172301022
  0
ARC
  5
105
330
2
100
AcDbEntity
  8
KIJUN
  6
Continuous
100
AcDbCircle
 10
176.7466442281155
 20
-3.170689196564898
 30
0.0
 40
55.80076905688302
100
AcDbArc
 50
92.9953089765539
 51
116.4793554011992
  0
ARC
  5
106
330
2
100
AcDbEntity
  8
KIJUN
  6
Continuous
100
AcDbCircle
 10
165.8158373783184
 20
52.74857269109034
 30
0.0
 40
1.180179786035572
100
AcDbArc
 50
114.6656393235574
 51
276.7851293222416
  0
ARC
  5
107
330
2
100
AcDbEntity
  8
KIJUN
  6
Continuous
100
AcDbCircle
 10
187.0382040580388
 20
98.0296305568239
 30
0.0
 40
39.89048831264803
100
AcDbArc
 50
234.8082751500069
 51
276.6004486205862
  0
ARC
  5
108
330
2
100
AcDbEntity
  8
KIJUN
  6
Continuous
100
AcDbCircle
 10
173.5699414359022
 20
65.26008484761678
 30
0.0
 40
1.52743504035314
100
AcDbArc
 50
114.238266917541
 51
223.4323966079315
  0
ARC
  5
109
330
2
100
AcDbEntity
  8
KIJUN
  6
Continuous
100
AcDbCircle
 10
187.8336259156659
 20
82.75139400756343
 30
0.0
 40
24.08546911670265
100
AcDbArc
 50
230.3375123571549
 51
246.8752610466131
  0
ARC
  5
10A
330
2
100
AcDbEntity
  8
KIJUN
  6
Continuous
100
AcDbCircle
 10
195.1034858210169
 20
93.70014111065508
 30
0.0
 40
30.58111200728318
100
AcDbArc
 50
240.2593985699654
 51
270.8708475727918
  0
ARC
  5
10B
330
2
100
AcDbEntity
  8
KIJUN
  6
Continuous
100
AcDbCircle
 10
210.2651611393725
 20
69.14854767817505
 30
0.0
 40
4.430452872008925
100
AcDbArc
 50
54.35710278530049
 51
115.5005591580719
  0
ARC
  5
10C
330
2
100
AcDbEntity
  8
KIJUN
  6
Continuous
100
AcDbCircle
 10
182.5861627310749
 20
60.26560938209879
 30
0.0
 40
14.69438414496217
100
AcDbArc
 50
300.0712131734416
 51
326.4751498726557
  0
ARC
  5
10D
330
2
100
AcDbEntity
  8
KIJUN
  6
Continuous
100
AcDbCircle
 10
181.8284056469712
 20
62.8464671914946
 30
0.0
 40
19.13931783949969
100
AcDbArc
 50
303.9270668735941
 51
324.4365105501959
  0
ARC
  5
10E
330
2
100
AcDbEntity
  8
KIJUN
  6
Continuous
100
AcDbCircle
 10
183.6642986686102
 20
63.78113000534288
 30
0.0
 40
20.51636049789098
100
AcDbArc
 50
303.5897374518738
 51
322.4379212231495
  0
ARC
  5
10F
330
2
100
AcDbEntity
  8
KIJUN
  6
Continuous
100
AcDbCircle
 10
236.0894085927281
 20
21.93361535031235
 30
0.0
 40
51.13572202530882
100
AcDbArc
 50
130.8971029631818
 51
143.7788100794673
  0
ARC
  5
110
330
2
100
AcDbEntity
  8
KIJUN
  6
Continuous
100
AcDbCircle
 10
243.1500547852148
 20
18.75889541105626
 30
0.0
 40
56.3859897321281
100
AcDbArc
 50
131.4034851235723
 51
144.2342744760119
  0
ARC
  5
111
330
2
100
AcDbEntity
  8
KIJUN
  6
Continuous
100
AcDbCircle
 10
272.1266574337055
 20
-5.255045020549371
 30
0.0
 40
91.69649153398935
100
AcDbArc
 50
132.4957720460991
 51
141.9405210410595
  0
ARC
  5
112
330
2
100
AcDbEntity
  8
KIJUN
  6
Continuous
100
AcDbCircle
 10
149.9092226559764
 20
50.33712766757004
 30
0.0
 40
9.671401400316806
100
AcDbArc
 50
253.450649424524
 51
301.1111286909306
  0
ARC
  5
113
330
2
100
AcDbEntity
  8
KIJUN
  6
Continuous
100
AcDbCircle
 10
176.1859864494349
 20
-15.1464787447734
 30
0.0
 40
64.96202905061399
100
AcDbArc
 50
83.09448257164454
 51
112.9854714646124
  0
ARC
  5
114
330
2
100
AcDbEntity
  8
KIJUN
  6
Continuous
100
AcDbCircle
 10
173.8369831267718
 20
15.62949632057151
 30
0.0
 40
31.6110248000738
100
AcDbArc
 50
77.90504297303361
 51
105.7307793737112
  0
ARC
  5
115
330
2
100
AcDbEntity
  8
KIJUN
  6
Continuous
100
AcDbCircle
 10
182.8321190996523
 20
85.56417406460866
 30
0.0
 40
22.636432726462
100
AcDbArc
 50
224.3772854492283
 51
241.6705430371365
  0
ARC
  5
116
330
2
100
AcDbEntity
  8
KIJUN
  6
Continuous
100
AcDbCircle
 10
189.3773839614328
 20
94.85898727520163
 30
0.0
 40
35.6946308390886
100
AcDbArc
 50
227.4429287713799
 51
238.7699091899222
  0
ARC
  5
117
330
2
100
AcDbEntity
  8
KIJUN
  6
Continuous
100
AcDbCircle
 10
198.0712346198842
 20
91.35142224252073
 30
0.0
 40
25.23973810365303
100
AcDbArc
 50
230.319131077965
 51
249.4680332496983
  0
ARC
  5
118
330
2
100
AcDbEntity
  8
KIJUN
  6
Continuous
100
AcDbCircle
 10
197.0372935933024
 20
87.35509723574478
 30
0.0
 40
22.89706762170793
100
AcDbArc
 50
226.0879566100358
 51
242.8607137266924
  0
ARC
  5
119
330
2
100
AcDbEntity
  8
KIJUN
  6
Continuous
100
AcDbCircle
 10
206.0707265662473
 20
90.51570125054055
 30
0.0
 40
24.61479542122821
100
AcDbArc
 50
233.9891845573252
 51
249.9467104286662
  0
ARC
  5
11A
330
2
100
AcDbEntity
  8
KIJUN
  6
Continuous
100
AcDbCircle
 10
195.1892043110716
 20
95.68662317609085
 30
0.0
 40
33.71826716088562
100
AcDbArc
 50
244.7263533602832
 51
269.0067802865493
  0
ARC
  5
11B
330
2
100
AcDbEntity
  8
KIJUN
  6
Continuous
100
AcDbCircle
 10
194.3988831545718
 20
93.06519645455002
 30
0.0
 40
32.27834830533166
100
AcDbArc
 50
241.2833989547553
 51
268.6184336832906
  0
ARC
  5
11C
330
2
100
AcDbEntity
  8
KIJUN
  6
Continuous
100
AcDbCircle
 10
301.8935955959637
 20
-37.41347260919357
 30
0.0
 40
134.0079621523893
100
AcDbArc
 50
130.6984284521567
 51
139.8419805143024
  0
ARC
  5
11D
330
2
100
AcDbEntity
  8
KIJUN
  6
Continuous
100
AcDbCircle
 10
230.5655797754337
 20
17.51872280584984
 30
0.0
 40
44.25117406529688
100
AcDbArc
 50
134.6345332854654
 51
145.1074705466064
  0
ARC
  5
11E
330
2
100
AcDbEntity
  8
KIJUN
  6
Continuous
100
AcDbCircle
 10
227.3730626065982
 20
47.223305383772
 30
0.0
 40
29.36955516633254
100
AcDbArc
 50
119.6432756813648
 51
136.2791966180108
  0
ARC
  5
11F
330
2
100
AcDbEntity
  8
KIJUN
  6
Continuous
100
AcDbCircle
 10
323.5605083090261
 20
-48.63467921421259
 30
0.0
 40
165.1612523203981
100
AcDbArc
 50
135.3082710010189
 51
142.866739364922
  0
ARC
  5
120
330
2
100
AcDbEntity
  8
KIJUN
  6
Continuous
100
AcDbCircle
 10
175.1439727547752
 20
65.54865994818062
 30
0.0
 40
22.13718675369078
100
AcDbArc
 50
298.0899192511426
 51
319.1473080439213
  0
ARC
  5
121
330
2
100
AcDbEntity
  8
KIJUN
  6
Continuous
100
AcDbCircle
 10
288.1618737248039
 20
-17.14395894781972
 30
0.0
 40
104.8500402026635
100
AcDbArc
 50
127.3853709652809
 51
136.9252515495825
  0
ARC
  5
122
330
2
100
AcDbEntity
  8
KIJUN
  6
Continuous
100
AcDbCircle
 10
219.5566193201797
 20
82.68989671257019
 30
0.0
 40
11.99337354144003
100
AcDbArc
 50
235.982226552836
 51
277.6238314201939
  0
ARC
  5
123
330
2
100
AcDbEntity
  8
KIJUN
  6
Continuous
100
AcDbCircle
 10
221.4815241198876
 20
55.21178473076755
 30
0.0
 40
11.36309801695976
100
AcDbArc
 50
74.59635250752592
 51
127.8446648097026
  0
ARC
  5
124
330
2
100
AcDbEntity
  8
KIJUN
  6
Continuous
100
AcDbCircle
 10
294.6871441956286
 20
36.59240381892548
 30
0.0
 40
40.89294897801567
100
AcDbArc
 50
119.4208546205417
 51
139.9112929729807
  0
ARC
  5
125
330
2
100
AcDbEntity
  8
KIJUN
  6
Continuous
100
AcDbCircle
 10
242.1904933742184
 20
51.23508546796371
 30
0.0
 40
6.98779195882757
100
AcDbArc
 50
245.0177197150526
 51
284.6983464476577
  0
ARC
  5
126
330
2
100
AcDbEntity
  8
KIJUN
  6
Continuous
100
AcDbCircle
 10
238.0602527166761
 20
63.27830808298618
 30
0.0
 40
19.70726704999156
100
AcDbArc
 50
287.4303987383154
 51
318.6756925181241
  0
ARC
  5
127
330
2
100
AcDbEntity
  8
KIJUN
  6
Continuous
100
AcDbCircle
 10
2684.29885617775
 20
-1963.486805962654
 30
0.0
 40
3157.070094422964
100
AcDbArc
 50
140.0689625735545
 51
140.3679645777651
  0
ARC
  5
128
330
2
100
AcDbEntity
  8
KIJUN
  6
Continuous
100
AcDbCircle
 10
247.5005189690024
 20
45.25832268386857
 30
0.0
 40
8.268955792157314
100
AcDbArc
 50
182.4760980632502
 51
196.0735865755718
  0
ARC
  5
129
330
2
100
AcDbEntity
  8
KIJUN
  6
Continuous
100
AcDbCircle
 10
243.3092496511199
 20
59.71130170597188
 30
0.0
 40
17.15821421399994
100
AcDbArc
 50
257.3607201909723
 51
295.9687464035697
  0
ARC
  5
12A
330
2
100
AcDbEntity
  8
KIJUN
  6
Continuous
100
AcDbCircle
 10
255.4127849050775
 20
34.63302798148091
 30
0.0
 40
10.68835421735431
100
AcDbArc
 50
50.09462104388351
 51
115.433662874268
  0
ARC
  5
12B
330
2
100
AcDbEntity
  8
KIJUN
  6
Continuous
100
AcDbCircle
 10
264.6949008952808
 20
45.31027016898803
 30
0.0
 40
3.467470009605341
100
AcDbArc
 50
225.6174885241549
 51
303.0710594539361
  0
ARC
  5
12C
330
2
100
AcDbEntity
  8
KIJUN
  6
Continuous
100
AcDbCircle
 10
216.7894895761456
 20
109.0502677161586
 30
0.0
 40
83.19523030345591
100
AcDbArc
 50
306.7670057719719
 51
314.0171621087585
  0
ARC
  5
12D
330
2
100
AcDbEntity
  8
KIJUN
  6
Continuous
100
AcDbCircle
 10
210.3800402316581
 20
44.4226801098211
 30
0.0
 40
3.781555322882872
100
AcDbArc
 50
93.95542685017884
 51
178.5619225007571
  0
ARC
  5
12E
330
2
100
AcDbEntity
  8
KIJUN
  6
Continuous
100
AcDbCircle
 10
211.4742190834809
 20
47.56034536255561
 30
0.0
 40
5.746265441903492
100
AcDbArc
 50
211.9730145092933
 51
310.9226651169921
  0
ARC
  5
12F
330
2
100
AcDbEntity
  8
KIJUN
  6
Continuous
100
AcDbCircle
 10
218.1786153254066
 20
42.02625101305124
 30
0.0
 40
3.172884465530566
100
AcDbArc
 50
157.9286043711535
 51
197.6094684327939
  0
ARC
  5
130
330
2
100
AcDbEntity
  8
KIJUN
  6
Continuous
100
AcDbCircle
 10
214.0234820814751
 20
40.07201009098389
 30
0.0
 40
11.2452914741522
100
AcDbArc
 50
71.45212661330484
 51
99.78158237697771
  0
ARC
  5
131
330
2
100
AcDbEntity
  8
KIJUN
  6
Continuous
100
AcDbCircle
 10
212.6187914605095
 20
48.661851921076
 30
0.0
 40
2.542785939115381
100
AcDbArc
 50
101.4736198459175
 51
190.574216031026
  0
ARC
  5
132
330
2
100
AcDbEntity
  8
KIJUN
  6
Continuous
100
AcDbCircle
 10
220.6052876113149
 20
53.98717501347429
 30
0.0
 40
4.429068497598758
100
AcDbArc
 50
182.6145376142089
 51
227.2806806589806
  0
ARC
  5
133
330
2
100
AcDbEntity
  8
KIJUN
  6
Continuous
100
AcDbCircle
 10
220.3943739309615
 20
49.79979131253768
 30
0.0
 40
5.799735558181699
100
AcDbArc
 50
63.7044891421182
 51
136.5942968528461
  0
ARC
  5
134
330
2
100
AcDbEntity
  8
KIJUN
  6
Continuous
100
AcDbCircle
 10
226.4492109103469
 20
56.78987867630352
 30
0.0
 40
3.918538750187768
100
AcDbArc
 50
182.6589259150166
 51
207.1892469247293
  0
ARC
  5
135
330
2
100
AcDbEntity
  8
KIJUN
  6
Continuous
100
AcDbCircle
 10
224.7639055210918
 20
49.34972368593496
 30
0.0
 40
7.592922933572173
100
AcDbArc
 50
61.56300331163508
 51
107.0714941660766
  0
ARC
  5
136
330
2
100
AcDbEntity
  8
KIJUN
  6
Continuous
100
AcDbCircle
 10
234.0199557050055
 20
62.02635788166934
 30
0.0
 40
8.234805837955667
100
AcDbArc
 50
206.2087888340261
 51
265.1471932456395
  0
ARC
  5
137
330
2
100
AcDbEntity
  8
KIJUN
  6
Continuous
100
AcDbCircle
 10
234.7348435017703
 20
52.68561487764728
 30
0.0
 40
9.909303471672959
100
AcDbArc
 50
121.0506312109757
 51
144.8576343189271
  0
ARC
  5
138
330
2
100
AcDbEntity
  8
KIJUN
  6
Continuous
100
AcDbCircle
 10
227.8872988059597
 20
65.59385732075156
 30
0.0
 40
4.747736465284191
100
AcDbArc
 50
185.6355751366626
 51
291.4522884022174
  0
ARC
  5
139
330
2
100
AcDbEntity
  8
KIJUN
  6
Continuous
100
AcDbCircle
 10
227.6921188038515
 20
72.02088280609578
 30
0.0
 40
6.668025405010012
100
AcDbArc
 50
163.0160094859463
 51
241.3958149227854
  0
ARC
  5
13A
330
2
100
AcDbEntity
  8
KIJUN
  6
Continuous
100
AcDbCircle
 10
224.1437084973413
 20
68.26457658459763
 30
0.0
 40
6.366983140938329
100
AcDbArc
 50
21.35290614133158
 51
116.3780391392365
  0
ARC
  5
13B
330
2
100
AcDbEntity
  8
KIJUN
  6
Continuous
100
AcDbCircle
 10
236.1662784113957
 20
71.87344400701373
 30
0.0
 40
6.227834237159457
100
AcDbArc
 50
155.0017875818712
 51
191.9599056750979
  0
ARC
  5
13C
330
2
100
AcDbEntity
  8
KIJUN
  6
Continuous
100
AcDbCircle
 10
230.7439354401239
 20
68.26025452351149
 30
0.0
 40
6.248957110464338
100
AcDbArc
 50
37.35951822739443
 51
92.03659129830001
  0
ARC
  5
13D
330
2
100
AcDbEntity
  8
KIJUN
  6
Continuous
100
AcDbCircle
 10
263.2771424297342
 20
93.52953069521392
 30
0.0
 40
34.94530190253074
100
AcDbArc
 50
217.9227292349015
 51
230.2737242726135
  0
ARC
  5
13E
330
2
100
AcDbEntity
  8
KIJUN
  6
Continuous
100
AcDbCircle
 10
245.2704310561748
 20
70.46856027197049
 30
0.0
 40
5.769504624607535
100
AcDbArc
 50
149.4498769823295
 51
221.4032810748619
  0
ARC
  5
13F
330
2
100
AcDbEntity
  8
KIJUN
  6
Continuous
100
AcDbCircle
 10
242.3241687828891
 20
67.62709522032597
 30
0.0
 40
6.117976146501561
100
AcDbArc
 50
30.15066874443253
 51
109.3026634721903
  0
ARC
  5
140
330
2
100
AcDbEntity
  8
KIJUN
  6
Continuous
100
AcDbCircle
 10
250.1923016782759
 20
71.59866754735087
 30
0.0
 40
2.730022045968524
100
AcDbArc
 50
48.57503210724116
 51
199.2188650798855
  0
ARC
  5
141
330
2
100
AcDbEntity
  8
KIJUN
  6
Continuous
100
AcDbCircle
 10
317.7551897325922
 20
141.6935424618747
 30
0.0
 40
94.62789884694595
100
AcDbArc
 50
225.9810263251202
 51
230.4503599044154
  0
ARC
  5
142
330
2
100
AcDbEntity
  8
KIJUN
  6
Continuous
100
AcDbCircle
 10
259.4719071855425
 20
70.58750749703325
 30
0.0
 40
2.709160994332149
100
AcDbArc
 50
61.48675738172356
 51
223.3293599491891
  0
ARC
  5
143
330
2
100
AcDbEntity
  8
KIJUN
  6
Continuous
100
AcDbCircle
 10
282.0473801248414
 20
111.2296586636907
 30
0.0
 40
43.78221674624631
100
AcDbArc
 50
240.9159017852279
 51
253.9563295770514
  0
ARC
  5
144
330
2
100
AcDbEntity
  8
KIJUN
  6
Continuous
100
AcDbCircle
 10
235.2606690619634
 20
24.7820823596025
 30
0.0
 40
21.23777013574514
100
AcDbArc
 50
107.6005188944437
 51
125.5709500579017
  0
ARC
  5
145
330
2
100
AcDbEntity
  8
KIJUN
  6
Continuous
100
AcDbCircle
 10
230.638669015479
 20
41.27048027299017
 30
0.0
 40
4.164238529116024
100
AcDbArc
 50
115.6081992541427
 51
169.017974449693
  0
ARC
  5
146
330
2
100
AcDbEntity
  8
KIJUN
  6
Continuous
100
AcDbCircle
 10
239.1455299822323
 20
38.20021365663663
 30
0.0
 40
6.701524363369137
100
AcDbArc
 50
89.19841158578254
 51
142.7606151451579
  0
ARC
  5
147
330
2
100
AcDbEntity
  8
KIJUN
  6
Continuous
100
AcDbCircle
 10
230.0832367391981
 20
45.8410426875479
 30
0.0
 40
5.171717182220898
100
AcDbArc
 50
226.9174795016235
 51
316.1100415437979
  0
ARC
  5
148
330
2
100
AcDbEntity
  8
KIJUN
  6
Continuous
100
AcDbCircle
 10
245.5679606760161
 20
65.76503687657321
 30
0.0
 40
15.79228508165028
100
AcDbArc
 50
254.2806988656478
 51
309.4349278784438
  0
ARC
  5
149
330
2
100
AcDbEntity
  8
KIJUN
  6
Continuous
100
AcDbCircle
 10
248.8718472635889
 20
49.5699267810426
 30
0.0
 40
7.64721109607866
100
AcDbArc
 50
157.0332408852999
 51
172.5356172301022
  0
ARC
  5
14A
330
2
100
AcDbEntity
  8
KIJUN
  6
Continuous
100
AcDbCircle
 10
244.7466442281156
 20
-3.170689196564898
 30
0.0
 40
55.80076905688302
100
AcDbArc
 50
92.9953089765539
 51
116.4793554011992
  0
ARC
  5
14B
330
2
100
AcDbEntity
  8
KIJUN
  6
Continuous
100
AcDbCircle
 10
233.8158373783183
 20
52.74857269109034
 30
0.0
 40
1.180179786035572
100
AcDbArc
 50
114.6656393235574
 51
276.7851293222416
  0
ARC
  5
14C
330
2
100
AcDbEntity
  8
KIJUN
  6
Continuous
100
AcDbCircle
 10
255.0382040580388
 20
98.0296305568239
 30
0.0
 40
39.89048831264803
100
AcDbArc
 50
234.8082751500069
 51
276.6004486205862
  0
ARC
  5
14D
330
2
100
AcDbEntity
  8
KIJUN
  6
Continuous
100
AcDbCircle
 10
241.5699414359023
 20
65.26008484761678
 30
0.0
 40
1.52743504035314
100
AcDbArc
 50
114.238266917541
 51
223.4323966079315
  0
ARC
  5
14E
330
2
100
AcDbEntity
  8
KIJUN
  6
Continuous
100
AcDbCircle
 10
255.8336259156659
 20
82.75139400756343
 30
0.0
 40
24.08546911670265
100
AcDbArc
 50
230.3375123571549
 51
246.8752610466131
  0
ARC
  5
14F
330
2
100
AcDbEntity
  8
KIJUN
  6
Continuous
100
AcDbCircle
 10
263.1034858210169
 20
93.70014111065508
 30
0.0
 40
30.58111200728318
100
AcDbArc
 50
240.2593985699654
 51
270.8708475727918
  0
ARC
  5
150
330
2
100
AcDbEntity
  8
KIJUN
  6
Continuous
100
AcDbCircle
 10
250.586162731075
 20
60.26560938209879
 30
0.0
 40
14.69438414496217
100
AcDbArc
 50
300.0712131734416
 51
326.4751498726557
  0
ARC
  5
151
330
2
100
AcDbEntity
  8
KIJUN
  6
Continuous
100
AcDbCircle
 10
249.8284056469711
 20
62.8464671914946
 30
0.0
 40
19.13931783949969
100
AcDbArc
 50
303.9270668735941
 51
324.4365105501959
  0
ARC
  5
152
330
2
100
AcDbEntity
  8
KIJUN
  6
Continuous
100
AcDbCircle
 10
251.6642986686102
 20
63.78113000534288
 30
0.0
 40
20.51636049789098
100
AcDbArc
 50
303.5897374518738
 51
322.4379212231497
  0
ARC
  5
153
330
2
100
AcDbEntity
  8
KIJUN
  6
Continuous
100
AcDbCircle
 10
304.089408592728
 20
21.93361535031235
 30
0.0
 40
51.13572202530882
100
AcDbArc
 50
130.8971029631818
 51
143.7788100794673
  0
ARC
  5
154
330
2
100
AcDbEntity
  8
KIJUN
  6
Continuous
100
AcDbCircle
 10
311.1500547852148
 20
18.75889541105626
 30
0.0
 40
56.3859897321281
100
AcDbArc
 50
131.4034851235723
 51
144.234274476012
  0
ARC
  5
155
330
2
100
AcDbEntity
  8
KIJUN
  6
Continuous
100
AcDbCircle
 10
340.1266574337055
 20
-5.255045020549371
 30
0.0
 40
91.69649153398935
100
AcDbArc
 50
135.6110245165649
 51
141.9405210410595
  0
ARC
  5
156
330
2
100
AcDbEntity
  8
KIJUN
  6
Continuous
100
AcDbCircle
 10
217.9092226559764
 20
50.33712766757004
 30
0.0
 40
9.671401400316806
100
AcDbArc
 50
253.450649424524
 51
301.1111286909306
  0
ARC
  5
157
330
2
100
AcDbEntity
  8
KIJUN
  6
Continuous
100
AcDbCircle
 10
244.1859864494349
 20
-15.1464787447734
 30
0.0
 40
64.96202905061399
100
AcDbArc
 50
83.09448257164454
 51
112.9854714646124
  0
ARC
  5
158
330
2
100
AcDbEntity
  8
KIJUN
  6
Continuous
100
AcDbCircle
 10
241.8369831267717
 20
15.62949632057151
 30
0.0
 40
31.6110248000738
100
AcDbArc
 50
77.90504297303361
 51
105.7307793737112
  0
ARC
  5
159
330
2
100
AcDbEntity
  8
KIJUN
  6
Continuous
100
AcDbCircle
 10
250.8321190996523
 20
85.56417406460866
 30
0.0
 40
22.636432726462
100
AcDbArc
 50
224.3772854492283
 51
241.6705430371365
  0
ARC
  5
15A
330
2
100
AcDbEntity
  8
KIJUN
  6
Continuous
100
AcDbCircle
 10
257.377383961433
 20
94.85898727520163
 30
0.0
 40
35.6946308390886
100
AcDbArc
 50
227.4429287713801
 51
238.7699091899222
  0
ARC
  5
15B
330
2
100
AcDbEntity
  8
KIJUN
  6
Continuous
100
AcDbCircle
 10
266.0712346198843
 20
91.35142224252073
 30
0.0
 40
25.23973810365303
100
AcDbArc
 50
230.319131077965
 51
249.4680332496983
  0
ARC
  5
15C
330
2
100
AcDbEntity
  8
KIJUN
  6
Continuous
100
AcDbCircle
 10
265.0372935933025
 20
87.35509723574478
 30
0.0
 40
22.89706762170793
100
AcDbArc
 50
226.0879566100358
 51
242.8607137266924
  0
ARC
  5
15D
330
2
100
AcDbEntity
  8
KIJUN
  6
Continuous
100
AcDbCircle
 10
274.0707265662473
 20
90.51570125054055
 30
0.0
 40
24.61479542122821
100
AcDbArc
 50
233.9891845573252
 51
249.9467104286662
  0
ARC
  5
15E
330
2
100
AcDbEntity
  8
KIJUN
  6
Continuous
100
AcDbCircle
 10
263.1892043110717
 20
95.68662317609085
 30
0.0
 40
33.71826716088562
100
AcDbArc
 50
244.7263533602832
 51
269.0067802865493
  0
ARC
  5
15F
330
2
100
AcDbEntity
  8
KIJUN
  6
Continuous
100
AcDbCircle
 10
262.3988831545719
 20
93.06519645455002
 30
0.0
 40
32.27834830533166
100
AcDbArc
 50
241.2833989547553
 51
268.6184336832906
  0
ARC
  5
160
330
2
100
AcDbEntity
  8
KIJUN
  6
Continuous
100
AcDbCircle
 10
369.8935955959636
 20
-37.41347260919357
 30
0.0
 40
134.0079621523893
100
AcDbArc
 50
135.3250065652384
 51
139.8419805143024
  0
ARC
  5
161
330
2
100
AcDbEntity
  8
KIJUN
  6
Continuous
100
AcDbCircle
 10
298.5655797754337
 20
17.51872280584984
 30
0.0
 40
44.25117406529688
100
AcDbArc
 50
134.6345332854654
 51
145.1074705466064
  0
ARC
  5
162
330
2
100
AcDbEntity
  8
KIJUN
  6
Continuous
100
AcDbCircle
 10
295.3730626065981
 20
47.223305383772
 30
0.0
 40
29.36955516633254
100
AcDbArc
 50
135.0164869910196
 51
136.2791966180108
  0
ARC
  5
163
330
2
100
AcDbEntity
  8
KIJUN
  6
Continuous
100
AcDbCircle
 10
391.5605083090262
 20
-48.63467921421259
 30
0.0
 40
165.1612523203981
100
AcDbArc
 50
135.3082710010189
 51
142.866739364922
  0
ARC
  5
164
330
2
100
AcDbEntity
  8
KIJUN
  6
Continuous
100
AcDbCircle
 10
243.1439727547753
 20
65.54865994818062
 30
0.0
 40
22.13718675369078
100
AcDbArc
 50
298.0899192511426
 51
319.1473080439213
  0
DIMENSION
  5
165
330
2
100
AcDbEntity
  8
SUNPOU
100
AcDbDimension
  2
*D3
 10
206.599675977938
 20
95.39676573770336
 30
0.0
 11
172.599675977938
 21
100.3967657377033
 31
0.0
 71
     5
 42
68.00000000000011
  3
STANDARD$0
100
AcDbAlignedDimension
 13
138.5996759779379
 23
44.51758410984136
 33
0.0
 14
206.599675977938
 24
44.51758410984136
 34
0.0
100
AcDbRotatedDimension
1001
ACAD
1000
DSTYLE
1002
{
1070
    41
1040
2.0
1070
    44
1040
0.0
1070
    77
1070
     1
1070
    78
1070
     0
1070
   140
1040
3.0
1070
   141
1040
1.0
1070
   146
1040
0.0642857142857143
1070
   172
1070
     0
1070
   173
1070
     0
1070
   176
1070
    60
1070
   177
1070
    70
1070
   178
1070
    60
1070
   271
1070
     0
1070
   272
1070
     0
1070
   341
1005
0
1070
   342
1005
65
1070
   343
1005
0
1070
   344
1005
0
1002
}
  0
ENDSEC
  0
SECTION
  2
OBJECTS
  0
DICTIONARY
  5
A
330
0
100
AcDbDictionary
281
     1
  3
ACAD_COLOR
350
44
  3
ACAD_GROUP
350
39
  3
ACAD_LAYOUT
350
20
  3
ACAD_MATERIAL
350
D
  3
ACAD_MLEADERSTYLE
350
47
  3
ACAD_MLINESTYLE
350
3A
  3
ACAD_PLOTSETTINGS
350
3B
  3
ACAD_PLOTSTYLENAME
350
9
  3
ACAD_SCALELIST
350
45
  3
ACAD_TABLESTYLE
350
46
  3
ACAD_VISUALSTYLE
350
33
  3
ACDB_RECOMPOSE_DATA
350
184
  3
AcDbVariableDictionary
350
177
  0
DICTIONARY
  5
3
330
2
100
AcDbDictionary
280
     1
281
     1
  3
ACAD_LAYOUTSELFREF
360
4
  3
ACAD_SORTENTS
360
172
  0
DICTIONARY
  5
22
330
21
100
AcDbDictionary
280
     1
281
     1
  3
ACAD_LAYOUTSELFREF
360
23
  0
DICTIONARY
  5
44
102
{ACAD_REACTORS
330
A
102
}
330
A
100
AcDbDictionary
281
     1
  0
DICTIONARY
  5
39
102
{ACAD_REACTORS
330
A
102
}
330
A
100
AcDbDictionary
281
     1
  0
DICTIONARY
  5
20
102
{ACAD_REACTORS
330
A
102
}
330
A
100
AcDbDictionary
281
     1
  3
Model
350
1F
  3
ﾚｲｱｳﾄ1
350
26
  0
DICTIONARY
  5
D
102
{ACAD_REACTORS
330
A
102
}
330
A
100
AcDbDictionary
281
     1
  3
ByBlock
350
3C
  3
ByLayer
350
16
  3
Global
350
C
  0
DICTIONARY
  5
47
102
{ACAD_REACTORS
330
A
102
}
330
A
100
AcDbDictionary
281
     1
  0
DICTIONARY
  5
3A
102
{ACAD_REACTORS
330
A
102
}
330
A
100
AcDbDictionary
281
     1
  3
STANDARD
350
48
  0
DICTIONARY
  5
3B
102
{ACAD_REACTORS
330
A
102
}
330
A
100
AcDbDictionary
281
     1
  0
ACDBDICTIONARYWDFLT
  5
9
102
{ACAD_REACTORS
330
A
102
}
330
A
100
AcDbDictionary
281
     1
  3
Normal
350
8
100
AcDbDictionaryWithDefault
340
8
  0
DICTIONARY
  5
45
102
{ACAD_REACTORS
330
A
102
}
330
A
100
AcDbDictionary
281
     1
  3
A0
350
4C
  3
A1
350
4D
  3
A2
350
4E
  3
A3
350
4F
  3
A4
350
50
  3
A5
350
51
  3
A6
350
52
  3
A7
350
53
  3
A8
350
54
  3
A9
350
55
  3
B0
350
56
  3
B1
350
57
  3
B2
350
58
  3
B3
350
59
  3
B4
350
5A
  3
B5
350
5B
  3
B6
350
5C
  0
DICTIONARY
  5
46
102
{ACAD_REACTORS
330
A
102
}
330
A
100
AcDbDictionary
281
     1
  3
Standard
350
49
  0
DICTIONARY
  5
33
102
{ACAD_REACTORS
330
A
102
}
330
A
100
AcDbDictionary
281
     1
  3
2dWireframe
350
32
  3
Realistic
350
4A
  3
Wireframe
350
4B
  0
XRECORD
  5
184
102
{ACAD_REACTORS
330
A
102
}
330
A
100
AcDbXrecord
280
     1
 90
        1
330
49
  0
DICTIONARY
  5
177
102
{ACAD_REACTORS
330
A
102
}
330
A
100
AcDbDictionary
281
     1
  3
CANNOSCALE
350
17C
  3
CMLEADERSTYLE
350
179
  3
CTABLESTYLE
350
178
  3
CVIEWDETAILSTYLE
350
17A
  3
CVIEWSECTIONSTYLE
350
17B
  3
DIMASSOC
350
180
  3
HIDETEXT
350
17F
  3
INDEXCTL
350
17E
  3
SORTENTS
350
17D
  3
XCLIPFRAME
350
181
  0
XRECORD
  5
4
102
{ACAD_REACTORS
330
3
102
}
330
3
100
AcDbXrecord
280
     1
340
2
  0
SORTENTSTABLE
  5
172
102
{ACAD_REACTORS
330
3
102
}
330
3
100
AcDbSortentsTable
330
2
  0
XRECORD
  5
23
102
{ACAD_REACTORS
330
22
102
}
330
22
100
AcDbXrecord
280
     1
340
21
  0
LAYOUT
  5
1F
102
{ACAD_XDICTIONARY
360
187
102
}
102
{ACAD_REACTORS
330
20
102
}
330
20
100
AcDbPlotSettings
  1

  2
なし
  4

  6

 40
0.0
 41
0.0
 42
0.0
 43
0.0
 44
0.0
 45
0.0
 46
0.0
 47
0.0
 48
0.0
 49
0.0
140
0.0
141
0.0
142
1.0
143
1.0
 70
  1712
 72
     0
 73
     0
 74
     0
  7
monochrome.ctb
 75
     0
147
1.0
148
0.0
149
0.0
100
AcDbLayout
  1
Model
 70
     1
 71
     0
 10
0.0
 20
0.0
 11
12.0
 21
9.0
 12
0.0
 22
0.0
 32
0.0
 14
0.0
 24
0.0
 34
0.0
 15
0.0
 25
0.0
 35
0.0
146
0.0
 13
0.0
 23
0.0
 33
0.0
 16
1.0
 26
0.0
 36
0.0
 17
0.0
 27
1.0
 37
0.0
 76
     0
330
2
  0
LAYOUT
  5
26
102
{ACAD_XDICTIONARY
360
189
102
}
102
{ACAD_REACTORS
330
20
102
}
330
20
100
AcDbPlotSettings
  1

  2
なし
  4

  6

 40
0.0
 41
0.0
 42
0.0
 43
0.0
 44
0.0
 45
0.0
 46
0.0
 47
0.0
 48
0.0
 49
0.0
140
0.0
141
0.0
142
1.0
143
1.0
 70
   688
 72
     0
 73
     0
 74
     5
  7
monochrome.ctb
 75
    16
147
1.0
148
0.0
149
0.0
100
AcDbLayout
  1
ﾚｲｱｳﾄ1
 70
     0
 71
     1
 10
0.0
 20
0.0
 11
12.0
 21
9.0
 12
0.0
 22
0.0
 32
0.0
 14
1.000000000000000E+20
 24
1.000000000000000E+20
 34
1.000000000000000E+20
 15
-1.000000000000000E+20
 25
-1.000000000000000E+20
 35
-1.000000000000000E+20
146
0.0
 13
0.0
 23
0.0
 33
0.0
 16
1.0
 26
0.0
 36
0.0
 17
0.0
 27
1.0
 37
0.0
 76
     0
330
21
  0
MATERIAL
  5
3C
102
{ACAD_XDICTIONARY
360
3D
102
}
102
{ACAD_REACTORS
330
D
102
}
330
D
100
AcDbMaterial
  1
ByBlock
 72
     0
 43
0.0208333333333333
 43
0.0
 43
0.0
 43
0.0
 43
0.0
 43
0.0208333333333333
 43
0.0
 43
0.0
 43
0.0
 43
0.0
 43
1.0
 43
0.0
 43
0.0
 43
0.0
 43
0.0
 43
1.0
 77
     0
 47
0.0208333333333333
 47
0.0
 47
0.0
 47
0.0
 47
0.0
 47
0.0208333333333333
 47
0.0
 47
0.0
 47
0.0
 47
0.0
 47
1.0
 47
0.0
 47
0.0
 47
0.0
 47
0.0
 47
1.0
171
     0
 49
0.0208333333333333
 49
0.0
 49
0.0
 49
0.0
 49
0.0
 49
0.0208333333333333
 49
0.0
 49
0.0
 49
0.0
 49
0.0
 49
1.0
 49
0.0
 49
0.0
 49
0.0
 49
0.0
 49
1.0
175
     0
142
0.0208333333333333
142
0.0
142
0.0
142
0.0
142
0.0
142
0.0208333333333333
142
0.0
142
0.0
142
0.0
142
0.0
142
1.0
142
0.0
142
0.0
142
0.0
142
0.0
142
1.0
179
     0
144
0.0208333333333333
144
0.0
144
0.0
144
0.0
144
0.0
144
0.0208333333333333
144
0.0
144
0.0
144
0.0
144
0.0
144
1.0
144
0.0
144
0.0
144
0.0
144
0.0
144
1.0
147
0.0208333333333333
147
0.0
147
0.0
147
0.0
147
0.0
147
0.0208333333333333
147
0.0
147
0.0
147
0.0
147
0.0
147
1.0
147
0.0
147
0.0
147
0.0
147
0.0
147
1.0
  0
MATERIAL
  5
16
102
{ACAD_XDICTIONARY
360
17
102
}
102
{ACAD_REACTORS
330
D
102
}
330
D
100
AcDbMaterial
  1
ByLayer
 72
     0
 43
0.0208333333333333
 43
0.0
 43
0.0
 43
0.0
 43
0.0
 43
0.0208333333333333
 43
0.0
 43
0.0
 43
0.0
 43
0.0
 43
1.0
 43
0.0
 43
0.0
 43
0.0
 43
0.0
 43
1.0
 77
     0
 47
0.0208333333333333
 47
0.0
 47
0.0
 47
0.0
 47
0.0
 47
0.0208333333333333
 47
0.0
 47
0.0
 47
0.0
 47
0.0
 47
1.0
 47
0.0
 47
0.0
 47
0.0
 47
0.0
 47
1.0
171
     0
 49
0.0208333333333333
 49
0.0
 49
0.0
 49
0.0
 49
0.0
 49
0.0208333333333333
 49
0.0
 49
0.0
 49
0.0
 49
0.0
 49
1.0
 49
0.0
 49
0.0
 49
0.0
 49
0.0
 49
1.0
175
     0
142
0.0208333333333333
142
0.0
142
0.0
142
0.0
142
0.0
142
0.0208333333333333
142
0.0
142
0.0
142
0.0
142
0.0
142
1.0
142
0.0
142
0.0
142
0.0
142
0.0
142
1.0
179
     0
144
0.0208333333333333
144
0.0
144
0.0
144
0.0
144
0.0
144
0.0208333333333333
144
0.0
144
0.0
144
0.0
144
0.0
144
1.0
144
0.0
144
0.0
144
0.0
144
0.0
144
1.0
147
0.0208333333333333
147
0.0
147
0.0
147
0.0
147
0.0
147
0.0208333333333333
147
0.0
147
0.0
147
0.0
147
0.0
147
1.0
147
0.0
147
0.0
147
0.0
147
0.0
147
1.0
  0
MATERIAL
  5
C
102
{ACAD_XDICTIONARY
360
E
102
}
102
{ACAD_REACTORS
330
D
102
}
330
D
100
AcDbMaterial
  1
Global
 72
     0
 43
0.0208333333333333
 43
0.0
 43
0.0
 43
0.0
 43
0.0
 43
0.0208333333333333
 43
0.0
 43
0.0
 43
0.0
 43
0.0
 43
1.0
 43
0.0
 43
0.0
 43
0.0
 43
0.0
 43
1.0
 77
     0
 47
0.0208333333333333
 47
0.0
 47
0.0
 47
0.0
 47
0.0
 47
0.0208333333333333
 47
0.0
 47
0.0
 47
0.0
 47
0.0
 47
1.0
 47
0.0
 47
0.0
 47
0.0
 47
0.0
 47
1.0
171
     0
 49
0.0208333333333333
 49
0.0
 49
0.0
 49
0.0
 49
0.0
 49
0.0208333333333333
 49
0.0
 49
0.0
 49
0.0
 49
0.0
 49
1.0
 49
0.0
 49
0.0
 49
0.0
 49
0.0
 49
1.0
175
     0
142
0.0208333333333333
142
0.0
142
0.0
142
0.0
142
0.0
142
0.0208333333333333
142
0.0
142
0.0
142
0.0
142
0.0
142
1.0
142
0.0
142
0.0
142
0.0
142
0.0
142
1.0
179
     0
144
0.0208333333333333
144
0.0
144
0.0
144
0.0
144
0.0
144
0.0208333333333333
144
0.0
144
0.0
144
0.0
144
0.0
144
1.0
144
0.0
144
0.0
144
0.0
144
0.0
144
1.0
147
0.0208333333333333
147
0.0
147
0.0
147
0.0
147
0.0
147
0.0208333333333333
147
0.0
147
0.0
147
0.0
147
0.0
147
1.0
147
0.0
147
0.0
147
0.0
147
0.0
147
1.0
  0
MLINESTYLE
  5
48
102
{ACAD_REACTORS
330
3A
102
}
330
3A
100
AcDbMlineStyle
  2
STANDARD
 70
     0
  3

 62
     0
 51
90.0
 52
90.0
 71
     2
 49
0.5
 62
   256
  6
BYLAYER
 49
-0.5
 62
   256
  6
BYLAYER
  0
ACDBPLACEHOLDER
  5
8
102
{ACAD_REACTORS
330
9
102
}
330
9
  0
SCALE
  5
4C
102
{ACAD_REACTORS
330
45
102
}
330
45
100
AcDbScale
 70
     0
300
1:1
140
1.0
141
1.0
290
     1
  0
SCALE
  5
4D
102
{ACAD_REACTORS
330
45
102
}
330
45
100
AcDbScale
 70
     0
300
1/128" = 1'-0"
140
0.0078125
141
12.0
290
     0
  0
SCALE
  5
4E
102
{ACAD_REACTORS
330
45
102
}
330
45
100
AcDbScale
 70
     0
300
1/64" = 1'-0"
140
0.015625
141
12.0
290
     0
  0
SCALE
  5
4F
102
{ACAD_REACTORS
330
45
102
}
330
45
100
AcDbScale
 70
     0
300
1/32" = 1'-0"
140
0.03125
141
12.0
290
     0
  0
SCALE
  5
50
102
{ACAD_REACTORS
330
45
102
}
330
45
100
AcDbScale
 70
     0
300
1/16" = 1'-0"
140
0.0625
141
12.0
290
     0
  0
SCALE
  5
51
102
{ACAD_REACTORS
330
45
102
}
330
45
100
AcDbScale
 70
     0
300
3/32" = 1'-0"
140
0.09375
141
12.0
290
     0
  0
SCALE
  5
52
102
{ACAD_REACTORS
330
45
102
}
330
45
100
AcDbScale
 70
     0
300
1/8" = 1'-0"
140
0.125
141
12.0
290
     0
  0
SCALE
  5
53
102
{ACAD_REACTORS
330
45
102
}
330
45
100
AcDbScale
 70
     0
300
3/16" = 1'-0"
140
0.1875
141
12.0
290
     0
  0
SCALE
  5
54
102
{ACAD_REACTORS
330
45
102
}
330
45
100
AcDbScale
 70
     0
300
1/4" = 1'-0"
140
0.25
141
12.0
290
     0
  0
SCALE
  5
55
102
{ACAD_REACTORS
330
45
102
}
330
45
100
AcDbScale
 70
     0
300
3/8" = 1'-0"
140
0.375
141
12.0
290
     0
  0
SCALE
  5
56
102
{ACAD_REACTORS
330
45
102
}
330
45
100
AcDbScale
 70
     0
300
1/2" = 1'-0"
140
0.5
141
12.0
290
     0
  0
SCALE
  5
57
102
{ACAD_REACTORS
330
45
102
}
330
45
100
AcDbScale
 70
     0
300
3/4" = 1'-0"
140
0.75
141
12.0
290
     0
  0
SCALE
  5
58
102
{ACAD_REACTORS
330
45
102
}
330
45
100
AcDbScale
 70
     0
300
1" = 1'-0"
140
1.0
141
12.0
290
     0
  0
SCALE
  5
59
102
{ACAD_REACTORS
330
45
102
}
330
45
100
AcDbScale
 70
     0
300
1-1/2" = 1'-0"
140
1.5
141
12.0
290
     0
  0
SCALE
  5
5A
102
{ACAD_REACTORS
330
45
102
}
330
45
100
AcDbScale
 70
     0
300
3" = 1'-0"
140
3.0
141
12.0
290
     0
  0
SCALE
  5
5B
102
{ACAD_REACTORS
330
45
102
}
330
45
100
AcDbScale
 70
     0
300
6" = 1'-0"
140
6.0
141
12.0
290
     0
  0
SCALE
  5
5C
102
{ACAD_REACTORS
330
45
102
}
330
45
100
AcDbScale
 70
     0
300
1'-0" = 1'-0"
140
12.0
141
12.0
290
     0
  0
TABLESTYLE
  5
49
102
{ACAD_XDICTIONARY
360
182
102
}
102
{ACAD_REACTORS
330
46
102
}
330
46
100
AcDbTableStyle
  3
Standard
 70
     0
 71
     0
 40
0.06
 41
0.06
280
     0
281
     0
  7
STANDARD
140
0.18
170
     2
 62
     0
 63
     7
283
     0
274
    -2
284
     1
 64
     0
275
    -2
285
     1
 65
     0
276
    -2
286
     1
 66
     0
277
    -2
287
     1
 67
     0
278
    -2
288
     1
 68
     0
279
    -2
289
     1
 69
     0
  7
STANDARD
140
0.25
170
     5
 62
     0
 63
     7
283
     0
274
    -2
284
     1
 64
     0
275
    -2
285
     1
 65
     0
276
    -2
286
     1
 66
     0
277
    -2
287
     1
 67
     0
278
    -2
288
     1
 68
     0
279
    -2
289
     1
 69
     0
  7
STANDARD
140
0.18
170
     5
 62
     0
 63
     7
283
     0
274
    -2
284
     1
 64
     0
275
    -2
285
     1
 65
     0
276
    -2
286
     1
 66
     0
277
    -2
287
     1
 67
     0
278
    -2
288
     1
 68
     0
279
    -2
289
     1
 69
     0
  0
VISUALSTYLE
  5
32
102
{ACAD_XDICTIONARY
360
18B
102
}
102
{ACAD_REACTORS
330
33
102
}
330
33
100
AcDbVisualStyle
  2
2dWireframe
 70
     4
 71
     0
 72
     2
 73
     0
 90
        0
 40
-0.6
 41
-30.0
 62
     5
 63
     7
 74
     1
 91
        4
 64
     7
 65
   257
 75
     1
175
     1
 42
1.0
 92
        0
 66
   257
 43
1.0
 76
     1
 77
     6
 78
     2
 67
     7
 79
     5
170
     0
171
     0
290
     0
174
     0
 93
        1
 44
0.0
173
     0
291
     0
 45
0.0
1001
ACAD
1000
AcDbSavedByObjectVersion
1070
     0
  0
VISUALSTYLE
  5
4A
102
{ACAD_XDICTIONARY
360
18F
102
}
102
{ACAD_REACTORS
330
33
102
}
330
33
100
AcDbVisualStyle
  2
Realistic
 70
     8
 71
     2
 72
     3
 73
     0
 90
        2
 40
-0.6
 41
30.0
 62
     5
 63
     7
 74
     0
 91
        0
 64
     7
 65
   257
 75
     1
175
     1
 42
1.0
 92
        8
 66
   257
 43
1.0
 76
     1
 77
     6
 78
     2
 67
     7
 79
     3
170
     0
171
     0
290
     0
174
     0
 93
       13
 44
0.0
173
     0
291
     0
 45
0.0
1001
ACAD
1000
AcDbSavedByObjectVersion
1070
     0
  0
VISUALSTYLE
  5
4B
102
{ACAD_XDICTIONARY
360
191
102
}
102
{ACAD_REACTORS
330
33
102
}
330
33
100
AcDbVisualStyle
  2
Wireframe
 70
     5
 71
     0
 72
     2
 73
     0
 90
        0
 40
-0.6
 41
-30.0
 62
     5
 63
     7
 74
     1
 91
        4
 64
     7
 65
   257
 75
     1
175
     1
 42
1.0
 92
        0
 66
   257
 43
1.0
 76
     1
 77
     6
 78
     2
 67
     7
 79
     3
170
     0
171
     0
290
     0
174
     0
 93
        1
 44
0.0
173
     0
291
     0
 45
0.0
1001
ACAD
1000
AcDbSavedByObjectVersion
1070
     0
  0
DICTIONARYVAR
  5
17C
102
{ACAD_REACTORS
330
177
102
}
330
177
100
DictionaryVariables
280
     0
  1
1:1
  0
DICTIONARYVAR
  5
179
102
{ACAD_REACTORS
330
177
102
}
330
177
100
DictionaryVariables
280
     0
  1
STANDARD
  0
DICTIONARYVAR
  5
178
102
{ACAD_REACTORS
330
177
102
}
330
177
100
DictionaryVariables
280
     0
  1
STANDARD
  0
DICTIONARYVAR
  5
17A
102
{ACAD_REACTORS
330
177
102
}
330
177
100
DictionaryVariables
280
     0
  1

  0
DICTIONARYVAR
  5
17B
102
{ACAD_REACTORS
330
177
102
}
330
177
100
DictionaryVariables
280
     0
  1

  0
DICTIONARYVAR
  5
180
102
{ACAD_REACTORS
330
177
102
}
330
177
100
DictionaryVariables
280
     0
  1
1
  0
DICTIONARYVAR
  5
17F
102
{ACAD_REACTORS
330
177
102
}
330
177
100
DictionaryVariables
280
     0
  1
1
  0
DICTIONARYVAR
  5
17E
102
{ACAD_REACTORS
330
177
102
}
330
177
100
DictionaryVariables
280
     0
  1
0
  0
DICTIONARYVAR
  5
17D
102
{ACAD_REACTORS
330
177
102
}
330
177
100
DictionaryVariables
280
     0
  1
127
  0
DICTIONARYVAR
  5
181
102
{ACAD_REACTORS
330
177
102
}
330
177
100
DictionaryVariables
280
     0
  1
2
  0
DICTIONARY
  5
187
330
1F
100
AcDbDictionary
280
     1
281
     1
  3
ACAD_XREC_ROUNDTRIP
360
188
  0
DICTIONARY
  5
189
330
26
100
AcDbDictionary
280
     1
281
     1
  3
ACAD_XREC_ROUNDTRIP
360
18A
  0
DICTIONARY
  5
3D
330
3C
100
AcDbDictionary
280
     1
281
     1
  3
ACAD_XREC_ROUNDTRIP
360
18D
  3
BUMPTILE
360
3E
  3
DIFFUSETILE
360
3F
  3
OPACITYTILE
360
40
  3
REFLECTIONTILE
360
41
  3
REFRACTIONTILE
360
42
  3
SPECULARTILE
360
43
  0
DICTIONARY
  5
17
330
16
100
AcDbDictionary
280
     1
281
     1
  3
ACAD_XREC_ROUNDTRIP
360
186
  3
BUMPTILE
360
18
  3
DIFFUSETILE
360
19
  3
OPACITYTILE
360
1A
  3
REFLECTIONTILE
360
1B
  3
REFRACTIONTILE
360
1C
  3
SPECULARTILE
360
1D
  0
DICTIONARY
  5
E
330
C
100
AcDbDictionary
280
     1
281
     1
  3
ACAD_XREC_ROUNDTRIP
360
185
  3
BUMPTILE
360
F
  3
DIFFUSETILE
360
10
  3
OPACITYTILE
360
11
  3
REFLECTIONTILE
360
12
  3
REFRACTIONTILE
360
13
  3
SPECULARTILE
360
14
  0
DICTIONARY
  5
182
330
49
100
AcDbDictionary
280
     1
281
     1
  3
ACAD_ROUNDTRIP_2008_TABLESTYLE_CELLSTYLEMAP
360
183
  3
ACAD_XREC_ROUNDTRIP
360
18E
  0
DICTIONARY
  5
18B
330
32
100
AcDbDictionary
280
     1
281
     1
  3
ACAD_XREC_ROUNDTRIP
360
18C
  0
DICTIONARY
  5
18F
330
4A
100
AcDbDictionary
280
     1
281
     1
  3
ACAD_XREC_ROUNDTRIP
360
190
  0
DICTIONARY
  5
191
330
4B
100
AcDbDictionary
280
     1
281
     1
  3
ACAD_XREC_ROUNDTRIP
360
192
  0
XRECORD
  5
188
102
{ACAD_REACTORS
330
187
102
}
330
187
100
AcDbXrecord
280
     1
102
SHADEPLOT
 70
     0
102
SHADEPLOTRESLEVEL
 70
     2
102
SHADEPLOTCUSTOMDPI
 70
   300
  0
XRECORD
  5
18A
102
{ACAD_REACTORS
330
189
102
}
330
189
100
AcDbXrecord
280
     1
102
SHADEPLOT
 70
     0
102
SHADEPLOTRESLEVEL
 70
     2
102
SHADEPLOTCUSTOMDPI
 70
   300
  0
XRECORD
  5
18D
102
{ACAD_REACTORS
330
3D
102
}
330
3D
100
AcDbXrecord
280
     1
102
MATERIAL
148
0.0
149
0.0
149
0.0
 93
        0
 94
      127
282
     0
 72
     0
 77
     0
171
     0
175
     0
179
     0
273
     0
  0
XRECORD
  5
3E
102
{ACAD_REACTORS
330
3D
102
}
330
3D
100
AcDbXrecord
280
     1
270
     1
271
     1
  0
XRECORD
  5
3F
102
{ACAD_REACTORS
330
3D
102
}
330
3D
100
AcDbXrecord
280
     1
270
     1
271
     1
  0
XRECORD
  5
40
102
{ACAD_REACTORS
330
3D
102
}
330
3D
100
AcDbXrecord
280
     1
270
     1
271
     1
  0
XRECORD
  5
41
102
{ACAD_REACTORS
330
3D
102
}
330
3D
100
AcDbXrecord
280
     1
270
     1
271
     1
  0
XRECORD
  5
42
102
{ACAD_REACTORS
330
3D
102
}
330
3D
100
AcDbXrecord
280
     1
270
     1
271
     1
  0
XRECORD
  5
43
102
{ACAD_REACTORS
330
3D
102
}
330
3D
100
AcDbXrecord
280
     1
270
     1
271
     1
  0
XRECORD
  5
186
102
{ACAD_REACTORS
330
17
102
}
330
17
100
AcDbXrecord
280
     1
102
MATERIAL
148
0.0
149
0.0
149
0.0
 93
        0
 94
      127
282
     0
 72
     0
 77
     0
171
     0
175
     0
179
     0
273
     0
  0
XRECORD
  5
18
102
{ACAD_REACTORS
330
17
102
}
330
17
100
AcDbXrecord
280
     1
270
     1
271
     1
  0
XRECORD
  5
19
102
{ACAD_REACTORS
330
17
102
}
330
17
100
AcDbXrecord
280
     1
270
     1
271
     1
  0
XRECORD
  5
1A
102
{ACAD_REACTORS
330
17
102
}
330
17
100
AcDbXrecord
280
     1
270
     1
271
     1
  0
XRECORD
  5
1B
102
{ACAD_REACTORS
330
17
102
}
330
17
100
AcDbXrecord
280
     1
270
     1
271
     1
  0
XRECORD
  5
1C
102
{ACAD_REACTORS
330
17
102
}
330
17
100
AcDbXrecord
280
     1
270
     1
271
     1
  0
XRECORD
  5
1D
102
{ACAD_REACTORS
330
17
102
}
330
17
100
AcDbXrecord
280
     1
270
     1
271
     1
  0
XRECORD
  5
185
102
{ACAD_REACTORS
330
E
102
}
330
E
100
AcDbXrecord
280
     1
102
MATERIAL
148
0.0
149
0.0
149
0.0
 93
        0
 94
      127
282
     0
 72
     0
 77
     0
171
     0
175
     0
179
     0
273
     0
  0
XRECORD
  5
F
102
{ACAD_REACTORS
330
E
102
}
330
E
100
AcDbXrecord
280
     1
270
     1
271
     1
  0
XRECORD
  5
10
102
{ACAD_REACTORS
330
E
102
}
330
E
100
AcDbXrecord
280
     1
270
     1
271
     1
  0
XRECORD
  5
11
102
{ACAD_REACTORS
330
E
102
}
330
E
100
AcDbXrecord
280
     1
270
     1
271
     1
  0
XRECORD
  5
12
102
{ACAD_REACTORS
330
E
102
}
330
E
100
AcDbXrecord
280
     1
270
     1
271
     1
  0
XRECORD
  5
13
102
{ACAD_REACTORS
330
E
102
}
330
E
100
AcDbXrecord
280
     1
270
     1
271
     1
  0
XRECORD
  5
14
102
{ACAD_REACTORS
330
E
102
}
330
E
100
AcDbXrecord
280
     1
270
     1
271
     1
  0
CELLSTYLEMAP
  5
183
102
{ACAD_REACTORS
330
182
102
}
330
182
100
AcDbCellStyleMap
 90
        3
300
CELLSTYLE
  1
TABLEFORMAT_BEGIN
 90
        5
170
     1
 91
        0
 92
    32768
 62
   257
 93
        1
300
CONTENTFORMAT
  1
CONTENTFORMAT_BEGIN
 90
        0
 91
        0
 92
        4
 93
        0
300

 40
0.0
140
1.0
 94
        5
 62
     0
340
29
144
0.25
309
CONTENTFORMAT_END
171
     0
 94
        6
 95
        1
302
GRIDFORMAT
  1
GRIDFORMAT_BEGIN
 90
        0
 91
        1
 62
     0
 92
       -2
340
0
 93
        0
 40
0.045
309
GRIDFORMAT_END
 95
        2
302
GRIDFORMAT
  1
GRIDFORMAT_BEGIN
 90
        0
 91
        1
 62
     0
 92
       -2
340
0
 93
        0
 40
0.045
309
GRIDFORMAT_END
 95
        4
302
GRIDFORMAT
  1
GRIDFORMAT_BEGIN
 90
        0
 91
        1
 62
     0
 92
       -2
340
0
 93
        0
 40
0.045
309
GRIDFORMAT_END
 95
        8
302
GRIDFORMAT
  1
GRIDFORMAT_BEGIN
 90
        0
 91
        1
 62
     0
 92
       -2
340
0
 93
        0
 40
0.045
309
GRIDFORMAT_END
 95
       16
302
GRIDFORMAT
  1
GRIDFORMAT_BEGIN
 90
        0
 91
        1
 62
     0
 92
       -2
340
0
 93
        0
 40
0.045
309
GRIDFORMAT_END
 95
       32
302
GRIDFORMAT
  1
GRIDFORMAT_BEGIN
 90
        0
 91
        1
 62
     0
 92
       -2
340
0
 93
        0
 40
0.045
309
GRIDFORMAT_END
309
TABLEFORMAT_END
  1
CELLSTYLE_BEGIN
 90
        1
 91
        1
300
_TITLE
309
CELLSTYLE_END
300
CELLSTYLE
  1
TABLEFORMAT_BEGIN
 90
        5
170
     1
 91
        0
 92
        0
 62
   257
 93
        1
300
CONTENTFORMAT
  1
CONTENTFORMAT_BEGIN
 90
        0
 91
        0
 92
        4
 93
        0
300

 40
0.0
140
1.0
 94
        5
 62
     0
340
29
144
0.18
309
CONTENTFORMAT_END
171
     0
 94
        6
 95
        1
302
GRIDFORMAT
  1
GRIDFORMAT_BEGIN
 90
        0
 91
        1
 62
     0
 92
       -2
340
0
 93
        0
 40
0.045
309
GRIDFORMAT_END
 95
        2
302
GRIDFORMAT
  1
GRIDFORMAT_BEGIN
 90
        0
 91
        1
 62
     0
 92
       -2
340
0
 93
        0
 40
0.045
309
GRIDFORMAT_END
 95
        4
302
GRIDFORMAT
  1
GRIDFORMAT_BEGIN
 90
        0
 91
        1
 62
     0
 92
       -2
340
0
 93
        0
 40
0.045
309
GRIDFORMAT_END
 95
        8
302
GRIDFORMAT
  1
GRIDFORMAT_BEGIN
 90
        0
 91
        1
 62
     0
 92
       -2
340
0
 93
        0
 40
0.045
309
GRIDFORMAT_END
 95
       16
302
GRIDFORMAT
  1
GRIDFORMAT_BEGIN
 90
        0
 91
        1
 62
     0
 92
       -2
340
0
 93
        0
 40
0.045
309
GRIDFORMAT_END
 95
       32
302
GRIDFORMAT
  1
GRIDFORMAT_BEGIN
 90
        0
 91
        1
 62
     0
 92
       -2
340
0
 93
        0
 40
0.045
309
GRIDFORMAT_END
309
TABLEFORMAT_END
  1
CELLSTYLE_BEGIN
 90
        2
 91
        1
300
_HEADER
309
CELLSTYLE_END
300
CELLSTYLE
  1
TABLEFORMAT_BEGIN
 90
        5
170
     1
 91
        0
 92
        0
 62
   257
 93
        1
300
CONTENTFORMAT
  1
CONTENTFORMAT_BEGIN
 90
        0
 91
        0
 92
        4
 93
        0
300

 40
0.0
140
1.0
 94
        2
 62
     0
340
29
144
0.18
309
CONTENTFORMAT_END
171
     0
 94
        6
 95
        1
302
GRIDFORMAT
  1
GRIDFORMAT_BEGIN
 90
        0
 91
        1
 62
     0
 92
       -2
340
0
 93
        0
 40
0.045
309
GRIDFORMAT_END
 95
        2
302
GRIDFORMAT
  1
GRIDFORMAT_BEGIN
 90
        0
 91
        1
 62
     0
 92
       -2
340
0
 93
        0
 40
0.045
309
GRIDFORMAT_END
 95
        4
302
GRIDFORMAT
  1
GRIDFORMAT_BEGIN
 90
        0
 91
        1
 62
     0
 92
       -2
340
0
 93
        0
 40
0.045
309
GRIDFORMAT_END
 95
        8
302
GRIDFORMAT
  1
GRIDFORMAT_BEGIN
 90
        0
 91
        1
 62
     0
 92
       -2
340
0
 93
        0
 40
0.045
309
GRIDFORMAT_END
 95
       16
302
GRIDFORMAT
  1
GRIDFORMAT_BEGIN
 90
        0
 91
        1
 62
     0
 92
       -2
340
0
 93
        0
 40
0.045
309
GRIDFORMAT_END
 95
       32
302
GRIDFORMAT
  1
GRIDFORMAT_BEGIN
 90
        0
 91
        1
 62
     0
 92
       -2
340
0
 93
        0
 40
0.045
309
GRIDFORMAT_END
309
TABLEFORMAT_END
  1
CELLSTYLE_BEGIN
 90
        3
 91
        2
300
_DATA
309
CELLSTYLE_END
  0
XRECORD
  5
18E
102
{ACAD_REACTORS
330
182
102
}
330
182
100
AcDbXrecord
280
     1
102
ACAD_ROUNDTRIP_PRE2007_TABLESTYLE
 90
        4
 91
        0
  1

 92
        4
 93
        0
  2

 94
        4
 95
        0
  3

  0
XRECORD
  5
18C
102
{ACAD_REACTORS
330
18B
102
}
330
18B
100
AcDbXrecord
280
     1
102
RTVSPost2010Prop28
280
     1
102
RTVSPost2010PropOp28
 70
     1
102
RTVSPost2010Prop29
280
     1
102
RTVSPost2010PropOp29
 70
     1
102
RTVSPost2010Prop30
280
     0
102
RTVSPost2010PropOp30
 70
     1
102
RTVSPost2010Prop31
280
     0
102
RTVSPost2010PropOp31
 70
     1
102
RTVSPost2010Prop32
280
     0
102
RTVSPost2010PropOp32
 70
     1
102
RTVSPost2010Prop33
280
     0
102
RTVSPost2010PropOp33
 70
     1
102
RTVSPost2010Prop34
280
     0
102
RTVSPost2010PropOp34
 70
     1
102
RTVSPost2010Prop35
280
     0
102
RTVSPost2010PropOp35
 70
     1
102
RTVSPost2010Prop36
280
     0
102
RTVSPost2010PropOp36
 70
     1
102
RTVSPost2010Prop37
 90
       50
102
RTVSPost2010PropOp37
 70
     1
102
RTVSPost2010Prop38
140
0.0
102
RTVSPost2010PropOp38
 70
     1
102
RTVSPost2010Prop39
140
1.0
102
RTVSPost2010PropOp39
 70
     1
102
RTVSPost2010Prop40
 90
        0
102
RTVSPost2010PropOp40
 70
     1
102
RTVSPost2010Prop41ColorIndex
 90
       18
102
RTVSPost2010Prop41ColorRGB
 90
        0
102
RTVSPost2010PropOp41
 70
     1
102
RTVSPost2010Prop42
 90
       50
102
RTVSPost2010PropOp42
 70
     1
102
RTVSPost2010Prop43
 90
        3
102
RTVSPost2010PropOp43
 70
     1
102
RTVSPost2010Prop44ColorIndex
 90
        5
102
RTVSPost2010Prop44ColorRGB
 90
      255
102
RTVSPost2010PropOp44
 70
     1
102
RTVSPost2010Prop45
280
     0
102
RTVSPost2010PropOp45
 70
     1
102
RTVSPost2010Prop46
 90
       50
102
RTVSPost2010PropOp46
 70
     1
102
RTVSPost2010Prop47
 90
       50
102
RTVSPost2010PropOp47
 70
     1
102
RTVSPost2010Prop48
 90
       50
102
RTVSPost2010PropOp48
 70
     1
102
RTVSPost2010Prop49
280
     0
102
RTVSPost2010PropOp49
 70
     1
102
RTVSPost2010Prop50
 90
       50
102
RTVSPost2010PropOp50
 70
     1
102
RTVSPost2010Prop51ColorIndex
 90
      256
102
RTVSPost2010Prop51ColorRGB
 90
-16777216
102
RTVSPost2010PropOp51
 70
     0
102
RTVSPost2010Prop52
140
1.0
102
RTVSPost2010PropOp52
 70
     0
102
RTVSPost2010Prop53
 90
        2
102
RTVSPost2010PropOp53
 70
     1
102
RTVSPost2010Prop54
  1
strokes_ogs.tif
102
RTVSPost2010PropOp54
 70
     1
102
RTVSPost2010Prop55
280
     0
102
RTVSPost2010PropOp55
 70
     1
102
RTVSPost2010Prop56
140
1.0
102
RTVSPost2010PropOp56
 70
     1
102
RTVSPost2010Prop57
140
1.0
102
RTVSPost2010PropOp57
 70
     1
102
RTVSPropertyOp0
 70
     1
102
RTVSPropertyOp1
 70
     1
102
RTVSPropertyOp2
 70
     1
102
RTVSPropertyOp3
 70
     1
102
RTVSPropertyOp4
 70
     1
102
RTVSPropertyOp5
 70
     1
102
RTVSPropertyOp6
 70
     1
102
RTVSPropertyOp7
 70
     1
102
RTVSPropertyOp8
 70
     1
102
RTVSPropertyOp9
 70
     1
102
RTVSPropertyOp10
 70
     1
102
RTVSPropertyOp11
 70
     1
102
RTVSPropertyOp12
 70
     1
102
RTVSPropertyOp13
 70
     1
102
RTVSPropertyOp14
 70
     1
102
RTVSPropertyOp15
 70
     1
102
RTVSPropertyOp16
 70
     1
102
RTVSPropertyOp17
 70
     1
102
RTVSPropertyOp18
 70
     1
102
RTVSPropertyOp19
 70
     1
102
RTVSPropertyOp20
 70
     1
102
RTVSPropertyOp21
 70
     1
102
RTVSPropertyOp22
 70
     1
102
RTVSPropertyOp23
 70
     1
102
RTVSPropertyOp24
 70
     1
102
RTVSPropertyOp25
 70
     1
102
RTVSPropertyOp26
 70
     1
102
RTVSPropertyOp27
 70
     1
102
RTVSPropertyOp28
 70
     1
102
RTVSPropertyOp29
 70
     1
102
RTVSPropertyOp30
 70
     1
102
RTVSPropertyOp31
 70
     1
102
RTVSPropertyOp32
 70
     1
102
RTVSPropertyOp33
 70
     1
102
RTVSPropertyOp34
 70
     1
102
RTVSPropertyOp35
 70
     1
102
RTVSPropertyOp36
 70
     1
102
RTVSPropertyOp37
 70
     1
102
RTVSPropertyOp38
 70
     1
102
RTVSPropertyOp39
 70
     1
102
RTVSPropertyOp40
 70
     1
102
RTVSPropertyOp41
 70
     1
102
RTVSPropertyOp42
 70
     1
102
RTVSPropertyOp43
 70
     1
102
RTVSPropertyOp44
 70
     1
102
RTVSPropertyOp45
 70
     1
102
RTVSPropertyOp46
 70
     1
102
RTVSPropertyOp47
 70
     1
102
RTVSPropertyOp48
 70
     1
102
RTVSPropertyOp49
 70
     1
102
RTVSPropertyOp50
 70
     1
102
RTVSPropertyOp51
 70
     0
102
RTVSPropertyOp52
 70
     0
102
RTVSPropertyOp53
 70
     1
102
RTVSPropertyOp54
 70
     1
102
RTVSPropertyOp55
 70
     1
102
RTVSPropertyOp56
 70
     1
102
RTVSPropertyOp57
 70
     1
102
RTVSPropertyOp58
 70
     1
102
RTVSPropertyOp59
 70
     1
102
RTVSPropertyOp60
 70
     1
102
RTVSPropertyOp61
 70
     1
102
RTVSPropertyOp62
 70
     1
  0
XRECORD
  5
190
102
{ACAD_REACTORS
330
18F
102
}
330
18F
100
AcDbXrecord
280
     1
102
RTVSPost2010Prop28
280
     0
102
RTVSPost2010PropOp28
 70
     1
102
RTVSPost2010Prop29
280
     1
102
RTVSPost2010PropOp29
 70
     1
102
RTVSPost2010Prop30
280
     1
102
RTVSPost2010PropOp30
 70
     1
102
RTVSPost2010Prop31
280
     0
102
RTVSPost2010PropOp31
 70
     1
102
RTVSPost2010Prop32
280
     0
102
RTVSPost2010PropOp32
 70
     1
102
RTVSPost2010Prop33
280
     0
102
RTVSPost2010PropOp33
 70
     1
102
RTVSPost2010Prop34
280
     0
102
RTVSPost2010PropOp34
 70
     1
102
RTVSPost2010Prop35
280
     0
102
RTVSPost2010PropOp35
 70
     1
102
RTVSPost2010Prop36
280
     0
102
RTVSPost2010PropOp36
 70
     1
102
RTVSPost2010Prop37
 90
       50
102
RTVSPost2010PropOp37
 70
     1
102
RTVSPost2010Prop38
140
0.0
102
RTVSPost2010PropOp38
 70
     1
102
RTVSPost2010Prop39
140
1.0
102
RTVSPost2010PropOp39
 70
     1
102
RTVSPost2010Prop40
 90
        0
102
RTVSPost2010PropOp40
 70
     1
102
RTVSPost2010Prop41ColorIndex
 90
       18
102
RTVSPost2010Prop41ColorRGB
 90
        0
102
RTVSPost2010PropOp41
 70
     1
102
RTVSPost2010Prop42
 90
       50
102
RTVSPost2010PropOp42
 70
     1
102
RTVSPost2010Prop43
 90
        3
102
RTVSPost2010PropOp43
 70
     1
102
RTVSPost2010Prop44ColorIndex
 90
        5
102
RTVSPost2010Prop44ColorRGB
 90
      255
102
RTVSPost2010PropOp44
 70
     1
102
RTVSPost2010Prop45
280
     0
102
RTVSPost2010PropOp45
 70
     1
102
RTVSPost2010Prop46
 90
       50
102
RTVSPost2010PropOp46
 70
     1
102
RTVSPost2010Prop47
 90
       50
102
RTVSPost2010PropOp47
 70
     1
102
RTVSPost2010Prop48
 90
       50
102
RTVSPost2010PropOp48
 70
     1
102
RTVSPost2010Prop49
280
     0
102
RTVSPost2010PropOp49
 70
     1
102
RTVSPost2010Prop50
 90
       50
102
RTVSPost2010PropOp50
 70
     1
102
RTVSPost2010Prop51ColorIndex
 90
      256
102
RTVSPost2010Prop51ColorRGB
 90
-16777216
102
RTVSPost2010PropOp51
 70
     0
102
RTVSPost2010Prop52
140
1.0
102
RTVSPost2010PropOp52
 70
     0
102
RTVSPost2010Prop53
 90
        2
102
RTVSPost2010PropOp53
 70
     1
102
RTVSPost2010Prop54
  1
strokes_ogs.tif
102
RTVSPost2010PropOp54
 70
     1
102
RTVSPost2010Prop55
280
     0
102
RTVSPost2010PropOp55
 70
     1
102
RTVSPost2010Prop56
140
1.0
102
RTVSPost2010PropOp56
 70
     1
102
RTVSPost2010Prop57
140
1.0
102
RTVSPost2010PropOp57
 70
     1
102
RTVSPropertyOp0
 70
     1
102
RTVSPropertyOp1
 70
     1
102
RTVSPropertyOp2
 70
     1
102
RTVSPropertyOp3
 70
     1
102
RTVSPropertyOp4
 70
     1
102
RTVSPropertyOp5
 70
     1
102
RTVSPropertyOp6
 70
     1
102
RTVSPropertyOp7
 70
     1
102
RTVSPropertyOp8
 70
     1
102
RTVSPropertyOp9
 70
     1
102
RTVSPropertyOp10
 70
     1
102
RTVSPropertyOp11
 70
     1
102
RTVSPropertyOp12
 70
     1
102
RTVSPropertyOp13
 70
     1
102
RTVSPropertyOp14
 70
     1
102
RTVSPropertyOp15
 70
     1
102
RTVSPropertyOp16
 70
     1
102
RTVSPropertyOp17
 70
     1
102
RTVSPropertyOp18
 70
     1
102
RTVSPropertyOp19
 70
     1
102
RTVSPropertyOp20
 70
     1
102
RTVSPropertyOp21
 70
     1
102
RTVSPropertyOp22
 70
     1
102
RTVSPropertyOp23
 70
     1
102
RTVSPropertyOp24
 70
     1
102
RTVSPropertyOp25
 70
     1
102
RTVSPropertyOp26
 70
     1
102
RTVSPropertyOp27
 70
     1
102
RTVSPropertyOp28
 70
     1
102
RTVSPropertyOp29
 70
     1
102
RTVSPropertyOp30
 70
     1
102
RTVSPropertyOp31
 70
     1
102
RTVSPropertyOp32
 70
     1
102
RTVSPropertyOp33
 70
     1
102
RTVSPropertyOp34
 70
     1
102
RTVSPropertyOp35
 70
     1
102
RTVSPropertyOp36
 70
     1
102
RTVSPropertyOp37
 70
     1
102
RTVSPropertyOp38
 70
     1
102
RTVSPropertyOp39
 70
     1
102
RTVSPropertyOp40
 70
     1
102
RTVSPropertyOp41
 70
     1
102
RTVSPropertyOp42
 70
     1
102
RTVSPropertyOp43
 70
     1
102
RTVSPropertyOp44
 70
     1
102
RTVSPropertyOp45
 70
     1
102
RTVSPropertyOp46
 70
     1
102
RTVSPropertyOp47
 70
     1
102
RTVSPropertyOp48
 70
     1
102
RTVSPropertyOp49
 70
     1
102
RTVSPropertyOp50
 70
     1
102
RTVSPropertyOp51
 70
     0
102
RTVSPropertyOp52
 70
     0
102
RTVSPropertyOp53
 70
     1
102
RTVSPropertyOp54
 70
     1
102
RTVSPropertyOp55
 70
     1
102
RTVSPropertyOp56
 70
     1
102
RTVSPropertyOp57
 70
     1
102
RTVSPropertyOp58
 70
     1
102
RTVSPropertyOp59
 70
     1
102
RTVSPropertyOp60
 70
     1
102
RTVSPropertyOp61
 70
     1
102
RTVSPropertyOp62
 70
     1
  0
XRECORD
  5
192
102
{ACAD_REACTORS
330
191
102
}
330
191
100
AcDbXrecord
280
     1
102
RTVSPost2010Prop28
280
     0
102
RTVSPost2010PropOp28
 70
     1
102
RTVSPost2010Prop29
280
     1
102
RTVSPost2010PropOp29
 70
     1
102
RTVSPost2010Prop30
280
     1
102
RTVSPost2010PropOp30
 70
     1
102
RTVSPost2010Prop31
280
     0
102
RTVSPost2010PropOp31
 70
     1
102
RTVSPost2010Prop32
280
     0
102
RTVSPost2010PropOp32
 70
     1
102
RTVSPost2010Prop33
280
     0
102
RTVSPost2010PropOp33
 70
     1
102
RTVSPost2010Prop34
280
     0
102
RTVSPost2010PropOp34
 70
     1
102
RTVSPost2010Prop35
280
     0
102
RTVSPost2010PropOp35
 70
     1
102
RTVSPost2010Prop36
280
     0
102
RTVSPost2010PropOp36
 70
     1
102
RTVSPost2010Prop37
 90
       50
102
RTVSPost2010PropOp37
 70
     1
102
RTVSPost2010Prop38
140
0.0
102
RTVSPost2010PropOp38
 70
     1
102
RTVSPost2010Prop39
140
1.0
102
RTVSPost2010PropOp39
 70
     1
102
RTVSPost2010Prop40
 90
        0
102
RTVSPost2010PropOp40
 70
     1
102
RTVSPost2010Prop41ColorIndex
 90
       18
102
RTVSPost2010Prop41ColorRGB
 90
        0
102
RTVSPost2010PropOp41
 70
     1
102
RTVSPost2010Prop42
 90
       50
102
RTVSPost2010PropOp42
 70
     1
102
RTVSPost2010Prop43
 90
        3
102
RTVSPost2010PropOp43
 70
     1
102
RTVSPost2010Prop44ColorIndex
 90
        5
102
RTVSPost2010Prop44ColorRGB
 90
      255
102
RTVSPost2010PropOp44
 70
     1
102
RTVSPost2010Prop45
280
     0
102
RTVSPost2010PropOp45
 70
     1
102
RTVSPost2010Prop46
 90
       50
102
RTVSPost2010PropOp46
 70
     1
102
RTVSPost2010Prop47
 90
       50
102
RTVSPost2010PropOp47
 70
     1
102
RTVSPost2010Prop48
 90
       50
102
RTVSPost2010PropOp48
 70
     1
102
RTVSPost2010Prop49
280
     0
102
RTVSPost2010PropOp49
 70
     1
102
RTVSPost2010Prop50
 90
       50
102
RTVSPost2010PropOp50
 70
     1
102
RTVSPost2010Prop51ColorIndex
 90
      256
102
RTVSPost2010Prop51ColorRGB
 90
-16777216
102
RTVSPost2010PropOp51
 70
     0
102
RTVSPost2010Prop52
140
1.0
102
RTVSPost2010PropOp52
 70
     0
102
RTVSPost2010Prop53
 90
        2
102
RTVSPost2010PropOp53
 70
     1
102
RTVSPost2010Prop54
  1
strokes_ogs.tif
102
RTVSPost2010PropOp54
 70
     1
102
RTVSPost2010Prop55
280
     0
102
RTVSPost2010PropOp55
 70
     1
102
RTVSPost2010Prop56
140
1.0
102
RTVSPost2010PropOp56
 70
     1
102
RTVSPost2010Prop57
140
1.0
102
RTVSPost2010PropOp57
 70
     1
102
RTVSPropertyOp0
 70
     1
102
RTVSPropertyOp1
 70
     1
102
RTVSPropertyOp2
 70
     1
102
RTVSPropertyOp3
 70
     1
102
RTVSPropertyOp4
 70
     1
102
RTVSPropertyOp5
 70
     1
102
RTVSPropertyOp6
 70
     1
102
RTVSPropertyOp7
 70
     1
102
RTVSPropertyOp8
 70
     1
102
RTVSPropertyOp9
 70
     1
102
RTVSPropertyOp10
 70
     1
102
RTVSPropertyOp11
 70
     1
102
RTVSPropertyOp12
 70
     1
102
RTVSPropertyOp13
 70
     1
102
RTVSPropertyOp14
 70
     1
102
RTVSPropertyOp15
 70
     1
102
RTVSPropertyOp16
 70
     1
102
RTVSPropertyOp17
 70
     1
102
RTVSPropertyOp18
 70
     1
102
RTVSPropertyOp19
 70
     1
102
RTVSPropertyOp20
 70
     1
102
RTVSPropertyOp21
 70
     1
102
RTVSPropertyOp22
 70
     1
102
RTVSPropertyOp23
 70
     1
102
RTVSPropertyOp24
 70
     1
102
RTVSPropertyOp25
 70
     1
102
RTVSPropertyOp26
 70
     1
102
RTVSPropertyOp27
 70
     1
102
RTVSPropertyOp28
 70
     1
102
RTVSPropertyOp29
 70
     1
102
RTVSPropertyOp30
 70
     1
102
RTVSPropertyOp31
 70
     1
102
RTVSPropertyOp32
 70
     1
102
RTVSPropertyOp33
 70
     1
102
RTVSPropertyOp34
 70
     1
102
RTVSPropertyOp35
 70
     1
102
RTVSPropertyOp36
 70
     1
102
RTVSPropertyOp37
 70
     1
102
RTVSPropertyOp38
 70
     1
102
RTVSPropertyOp39
 70
     1
102
RTVSPropertyOp40
 70
     1
102
RTVSPropertyOp41
 70
     1
102
RTVSPropertyOp42
 70
     1
102
RTVSPropertyOp43
 70
     1
102
RTVSPropertyOp44
 70
     1
102
RTVSPropertyOp45
 70
     1
102
RTVSPropertyOp46
 70
     1
102
RTVSPropertyOp47
 70
     1
102
RTVSPropertyOp48
 70
     1
102
RTVSPropertyOp49
 70
     1
102
RTVSPropertyOp50
 70
     1
102
RTVSPropertyOp51
 70
     0
102
RTVSPropertyOp52
 70
     0
102
RTVSPropertyOp53
 70
     1
102
RTVSPropertyOp54
 70
     1
102
RTVSPropertyOp55
 70
     1
102
RTVSPropertyOp56
 70
     1
102
RTVSPropertyOp57
 70
     1
102
RTVSPropertyOp58
 70
     1
102
RTVSPropertyOp59
 70
     1
102
RTVSPropertyOp60
 70
     1
102
RTVSPropertyOp61
 70
     1
102
RTVSPropertyOp62
 70
     1
  0
ENDSEC
  0
EOF
