  0
SECTION
  2
HEADER
  9
$ACADVER
  1
AC1015
  9
$ACADMAINTVER
 70
    10
  9
$DWGCODEPAGE
  3
ANSI_932
  9
$INSBASE
 10
0.0
 20
0.0
 30
0.0
  9
$EXTMIN
 10
-0.0128164049386896
 20
-0.0090630292066862
 30
-0.0015258207003583
  9
$EXTMAX
 10
44.68780571674904
 20
116.7316594171939
 30
0.0000000349246037
  9
$LIMMIN
 10
0.0
 20
0.0
  9
$LIMMAX
 10
420.0
 20
297.0
  9
$ORTHOMODE
 70
     0
  9
$REGENMODE
 70
     1
  9
$FILLMODE
 70
     1
  9
$QTEXTMODE
 70
     0
  9
$MIRRTEXT
 70
     1
  9
$LTSCALE
 40
1.0
  9
$ATTMODE
 70
     1
  9
$TEXTSIZE
 40
30.0
  9
$TRACEWID
 40
0.05
  9
$TEXTSTYLE
  7
SUNPOU
  9
$CLAYER
  8
0
  9
$CELTYPE
  6
BYLAYER
  9
$CECOLOR
 62
   256
  9
$CELTSCALE
 40
1.0
  9
$DISPSILH
 70
     0
  9
$DIMSCALE
 40
1.0
  9
$DIMASZ
 40
3.0
  9
$DIMEXO
 40
2.0
  9
$DIMDLI
 40
0.38
  9
$DIMRND
 40
0.0
  9
$DIMDLE
 40
0.0
  9
$DIMEXE
 40
0.0
  9
$DIMTP
 40
0.0
  9
$DIMTM
 40
0.0
  9
$DIMTXT
 40
2.799999999999998
  9
$DIMCEN
 40
0.0
  9
$DIMTSZ
 40
0.0
  9
$DIMTOL
 70
     0
  9
$DIMLIM
 70
     0
  9
$DIMTIH
 70
     0
  9
$DIMTOH
 70
     0
  9
$DIMSE1
 70
     0
  9
$DIMSE2
 70
     0
  9
$DIMTAD
 70
     1
  9
$DIMZIN
 70
     8
  9
$DIMBLK
  1

  9
$DIMASO
 70
     1
  9
$DIMSHO
 70
     1
  9
$DIMPOST
  1

  9
$DIMAPOST
  1

  9
$DIMALT
 70
     0
  9
$DIMALTD
 70
     2
  9
$DIMALTF
 40
25.4
  9
$DIMLFAC
 40
1.0
  9
$DIMTOFL
 70
     0
  9
$DIMTVP
 40
0.0
  9
$DIMTIX
 70
     1
  9
$DIMSOXD
 70
     0
  9
$DIMSAH
 70
     1
  9
$DIMBLK1
  1
DOTSMALL
  9
$DIMBLK2
  1
DOTSMALL
  9
$DIMSTYLE
  2
STANDARD
  9
$DIMCLRD
 70
    60
  9
$DIMCLRE
 70
    70
  9
$DIMCLRT
 70
    60
  9
$DIMTFAC
 40
0.0642857142857143
  9
$DIMGAP
 40
1.0
  9
$DIMJUST
 70
     0
  9
$DIMSD1
 70
     0
  9
$DIMSD2
 70
     0
  9
$DIMTOLJ
 70
     1
  9
$DIMTZIN
 70
     0
  9
$DIMALTZ
 70
     0
  9
$DIMALTTZ
 70
     0
  9
$DIMUPT
 70
     0
  9
$DIMDEC
 70
     4
  9
$DIMTDEC
 70
     4
  9
$DIMALTU
 70
     2
  9
$DIMALTTD
 70
     2
  9
$DIMTXSTY
  7
STANDARD
  9
$DIMAUNIT
 70
     0
  9
$DIMADEC
 70
     0
  9
$DIMALTRND
 40
0.0
  9
$DIMAZIN
 70
     0
  9
$DIMDSEP
 70
    46
  9
$DIMATFIT
 70
     3
  9
$DIMFRAC
 70
     0
  9
$DIMLDRBLK
  1
DOTSMALL
  9
$DIMLUNIT
 70
     2
  9
$DIMLWD
 70
    -2
  9
$DIMLWE
 70
    -2
  9
$DIMTMOVE
 70
     0
  9
$LUNITS
 70
     2
  9
$LUPREC
 70
     5
  9
$SKETCHINC
 40
0.1
  9
$FILLETRAD
 40
0.0
  9
$AUNITS
 70
     0
  9
$AUPREC
 70
     0
  9
$MENU
  1
acad
  9
$ELEVATION
 40
0.0
  9
$PELEVATION
 40
0.0
  9
$THICKNESS
 40
0.0
  9
$LIMCHECK
 70
     0
  9
$CHAMFERA
 40
0.0
  9
$CHAMFERB
 40
0.0
  9
$CHAMFERC
 40
0.0
  9
$CHAMFERD
 40
0.0
  9
$SKPOLY
 70
     0
  9
$TDCREATE
 40
2450623.676023379
  9
$TDUCREATE
 40
2450623.301023379
  9
$TDUPDATE
 40
2453822.421261886
  9
$TDUUPDATE
 40
2453822.046261886
  9
$TDINDWG
 40
1.9493980440
  9
$TDUSRTIMER
 40
1.9493975116
  9
$USRTIMER
 70
     1
  9
$ANGBASE
 50
0.0
  9
$ANGDIR
 70
     0
  9
$PDMODE
 70
     0
  9
$PDSIZE
 40
0.0
  9
$PLINEWID
 40
0.0
  9
$SPLFRAME
 70
     0
  9
$SPLINETYPE
 70
     6
  9
$SPLINESEGS
 70
     8
  9
$HANDSEED
  5
1F3
  9
$SURFTAB1
 70
     6
  9
$SURFTAB2
 70
     6
  9
$SURFTYPE
 70
     6
  9
$SURFU
 70
     6
  9
$SURFV
 70
     6
  9
$UCSBASE
  2

  9
$UCSNAME
  2

  9
$UCSORG
 10
0.0
 20
0.0
 30
0.0
  9
$UCSXDIR
 10
1.0
 20
0.0
 30
0.0
  9
$UCSYDIR
 10
0.0
 20
1.0
 30
0.0
  9
$UCSORTHOREF
  2

  9
$UCSORTHOVIEW
 70
     0
  9
$UCSORGTOP
 10
0.0
 20
0.0
 30
0.0
  9
$UCSORGBOTTOM
 10
0.0
 20
0.0
 30
0.0
  9
$UCSORGLEFT
 10
0.0
 20
0.0
 30
0.0
  9
$UCSORGRIGHT
 10
0.0
 20
0.0
 30
0.0
  9
$UCSORGFRONT
 10
0.0
 20
0.0
 30
0.0
  9
$UCSORGBACK
 10
0.0
 20
0.0
 30
0.0
  9
$PUCSBASE
  2

  9
$PUCSNAME
  2

  9
$PUCSORG
 10
0.0
 20
0.0
 30
0.0
  9
$PUCSXDIR
 10
1.0
 20
0.0
 30
0.0
  9
$PUCSYDIR
 10
0.0
 20
1.0
 30
0.0
  9
$PUCSORTHOREF
  2

  9
$PUCSORTHOVIEW
 70
     0
  9
$PUCSORGTOP
 10
0.0
 20
0.0
 30
0.0
  9
$PUCSORGBOTTOM
 10
0.0
 20
0.0
 30
0.0
  9
$PUCSORGLEFT
 10
0.0
 20
0.0
 30
0.0
  9
$PUCSORGRIGHT
 10
0.0
 20
0.0
 30
0.0
  9
$PUCSORGFRONT
 10
0.0
 20
0.0
 30
0.0
  9
$PUCSORGBACK
 10
0.0
 20
0.0
 30
0.0
  9
$USERI1
 70
     0
  9
$USERI2
 70
     0
  9
$USERI3
 70
     0
  9
$USERI4
 70
     0
  9
$USERI5
 70
     0
  9
$USERR1
 40
0.0
  9
$USERR2
 40
0.0
  9
$USERR3
 40
0.0
  9
$USERR4
 40
0.0
  9
$USERR5
 40
0.0
  9
$WORLDVIEW
 70
     1
  9
$SHADEDGE
 70
     3
  9
$SHADEDIF
 70
    70
  9
$TILEMODE
 70
     1
  9
$MAXACTVP
 70
    16
  9
$PINSBASE
 10
0.0
 20
0.0
 30
0.0
  9
$PLIMCHECK
 70
     0
  9
$PEXTMIN
 10
1.000000000000000E+20
 20
1.000000000000000E+20
 30
1.000000000000000E+20
  9
$PEXTMAX
 10
-1.000000000000000E+20
 20
-1.000000000000000E+20
 30
-1.000000000000000E+20
  9
$PLIMMIN
 10
0.0
 20
0.0
  9
$PLIMMAX
 10
12.0
 20
9.0
  9
$UNITMODE
 70
     0
  9
$VISRETAIN
 70
     0
  9
$PLINEGEN
 70
     0
  9
$PSLTSCALE
 70
     1
  9
$TREEDEPTH
 70
  3020
  9
$CMLSTYLE
  2
STANDARD
  9
$CMLJUST
 70
     0
  9
$CMLSCALE
 40
1.0
  9
$PROXYGRAPHICS
 70
     1
  9
$MEASUREMENT
 70
     0
  9
$CELWEIGHT
370
    -1
  9
$ENDCAPS
280
     0
  9
$JOINSTYLE
280
     0
  9
$LWDISPLAY
290
     0
  9
$INSUNITS
 70
     0
  9
$HYPERLINKBASE
  1

  9
$STYLESHEET
  1

  9
$XEDIT
290
     1
  9
$CEPSNTYPE
380
     0
  9
$PSTYLEMODE
290
     1
  9
$FINGERPRINTGUID
  2
{5604769E-8B77-4B3E-BE97-5798545D4C52}
  9
$VERSIONGUID
  2
{D2E6826F-9EDD-4A7F-9178-E3F91E4CD459}
  9
$EXTNAMES
290
     1
  9
$PSVPSCALE
 40
0.0
  9
$OLESTARTUP
290
     0
  0
ENDSEC
  0
SECTION
  2
CLASSES
  0
CLASS
  1
DICTIONARYVAR
  2
AcDbDictionaryVar
  3
AutoCAD 2000
 90
    32768
280
     0
281
     0
  0
CLASS
  1
LWPOLYLINE
  2
AcDbPolyline
  3
AutoCAD 2000
 90
    32768
280
     0
281
     1
  0
CLASS
  1
HATCH
  2
AcDbHatch
  3
AutoCAD 2000
 90
    32768
280
     0
281
     1
  0
CLASS
  1
RASTERVARIABLES
  2
AcDbRasterVariables
  3
ISM
 90
    32768
280
     0
281
     0
  0
CLASS
  1
ACDBDICTIONARYWDFLT
  2
AcDbDictionaryWithDefault
  3
AutoCAD 2000
 90
        0
280
     0
281
     0
  0
CLASS
  1
ACDBPLACEHOLDER
  2
AcDbPlaceHolder
  3
AutoCAD 2000
 90
        0
280
     0
281
     0
  0
CLASS
  1
LAYOUT
  2
AcDbLayout
  3
AutoCAD 2000
 90
        0
280
     0
281
     0
  0
CLASS
  1
LONG_TRANSACTION
  2
AcDbLongTransaction
  3
AutoCAD 2000
 90
    32768
280
     0
281
     0
  0
CLASS
  1
LWPOLYLINE
  2
AcDbPolyline
  3
AutoCAD 2000
 90
    32768
280
     0
281
     1
  0
CLASS
  1
HATCH
  2
AcDbHatch
  3
AutoCAD 2000
 90
    32768
280
     0
281
     1
  0
CLASS
  1
XRECORD
  2
AcDbXrecord
  3
AutoCAD 2000
 90
    32768
280
     0
281
     0
  0
CLASS
  1
LONG_TRANSACTION
  2
AcDbLongTransaction
  3
AutoCAD 2000
 90
    32768
280
     0
281
     0
  0
CLASS
  1
LWPOLYLINE
  2
AcDbPolyline
  3
AutoCAD 2000
 90
    32768
280
     0
281
     1
  0
CLASS
  1
HATCH
  2
AcDbHatch
  3
AutoCAD 2000
 90
    32768
280
     0
281
     1
  0
CLASS
  1
XRECORD
  2
AcDbXrecord
  3
AutoCAD 2000
 90
    32768
280
     0
281
     0
  0
ENDSEC
  0
SECTION
  2
TABLES
  0
TABLE
  2
VPORT
  5
19
330
0
100
AcDbSymbolTable
 70
     4
  0
VPORT
  5
1F2
330
19
100
AcDbSymbolTableRecord
100
AcDbViewportTableRecord
  2
*Active
 70
     0
 10
0.0
 20
0.0
 11
1.0
 21
1.0
 12
22.33749465590517
 22
58.3612981939936
 13
0.0
 23
0.0
 14
1.0
 24
1.0
 15
0.0
 25
0.0
 16
0.0
 26
0.0
 36
1.0
 17
0.0
 27
0.0
 37
0.0
 40
117.6503904135153
 41
1.566970091027308
 42
50.0
 43
0.0
 44
0.0
 50
0.0
 51
0.0
 71
     0
 72
 20000
 73
     1
 74
     1
 75
     0
 76
     0
 77
     0
 78
     0
281
     0
 65
     1
110
0.0
120
0.0
130
0.0
111
1.0
121
0.0
131
0.0
112
0.0
122
1.0
132
0.0
 79
     0
146
0.0
  0
ENDTAB
  0
TABLE
  2
LTYPE
  5
14
330
0
100
AcDbSymbolTable
 70
     1
  0
LTYPE
  5
15
330
14
100
AcDbSymbolTableRecord
100
AcDbLinetypeTableRecord
  2
BYBLOCK
 70
     0
  3

 72
    65
 73
     0
 40
0.0
  0
LTYPE
  5
16
330
14
100
AcDbSymbolTableRecord
100
AcDbLinetypeTableRecord
  2
BYLAYER
 70
     0
  3

 72
    65
 73
     0
 40
0.0
  0
LTYPE
  5
8
330
14
100
AcDbSymbolTableRecord
100
AcDbLinetypeTableRecord
  2
CONTINUOUS
 70
     0
  3
Solid line
 72
    65
 73
     0
 40
0.0
  0
ENDTAB
  0
TABLE
  2
LAYER
  5
10
330
0
100
AcDbSymbolTable
 70
     7
  0
LAYER
  5
4
330
10
100
AcDbSymbolTableRecord
100
AcDbLayerTableRecord
  2
0
 70
     0
 62
     7
  6
CONTINUOUS
370
    -3
390
155
  0
LAYER
  5
33
330
10
100
AcDbSymbolTableRecord
100
AcDbLayerTableRecord
  2
DEFPOINTS
 70
     0
 62
     7
  6
CONTINUOUS
290
     0
370
    -3
390
155
  0
LAYER
  5
23
330
10
100
AcDbSymbolTableRecord
100
AcDbLayerTableRecord
  2
SUNPOU
 70
     0
 62
    70
  6
CONTINUOUS
370
    -3
390
155
  0
LAYER
  5
173
330
10
100
AcDbSymbolTableRecord
100
AcDbLayerTableRecord
  2
KIJUN
 70
     0
 62
     7
  6
CONTINUOUS
370
    -3
390
155
  0
LAYER
  5
174
330
10
100
AcDbSymbolTableRecord
100
AcDbLayerTableRecord
  2
HOJO
 70
     0
 62
     3
  6
CONTINUOUS
370
    -3
390
155
  0
LAYER
  5
175
330
10
100
AcDbSymbolTableRecord
100
AcDbLayerTableRecord
  2
WAKU
 70
     0
 62
     1
  6
CONTINUOUS
370
    -3
390
155
  0
ENDTAB
  0
TABLE
  2
STYLE
  5
11
330
0
100
AcDbSymbolTable
 70
     2
  0
STYLE
  5
12
330
11
100
AcDbSymbolTableRecord
100
AcDbTextStyleTableRecord
  2
STANDARD
 70
     0
 40
0.0
 41
1.0
 50
0.0
 71
     0
 42
0.2
  3
txt
  4

  0
STYLE
  5
28
330
11
100
AcDbSymbolTableRecord
100
AcDbTextStyleTableRecord
  2
SUNPOU
 70
     0
 40
0.0
 41
1.0
 50
0.0
 71
     0
 42
30.0
  3
txt
  4
bigfont
  0
ENDTAB
  0
TABLE
  2
VIEW
  5
17
330
0
100
AcDbSymbolTable
 70
     0
  0
ENDTAB
  0
TABLE
  2
UCS
  5
18
330
0
100
AcDbSymbolTable
 70
     0
  0
ENDTAB
  0
TABLE
  2
APPID
  5
1B
330
0
100
AcDbSymbolTable
 70
     1
  0
APPID
  5
1C
330
1B
100
AcDbSymbolTableRecord
100
AcDbRegAppTableRecord
  2
ACAD
 70
     0
  0
ENDTAB
  0
TABLE
  2
DIMSTYLE
  5
1D
330
0
100
AcDbSymbolTable
 70
     1
100
AcDbDimStyleTable
 71
     0
  0
DIMSTYLE
105
1E
102
{ACAD_REACTORS
330
105
330
11F
102
}
330
1D
100
AcDbSymbolTableRecord
100
AcDbDimStyleTableRecord
  2
STANDARD
 70
     0
340
12
  0
ENDTAB
  0
TABLE
  2
BLOCK_RECORD
  5
1
330
0
100
AcDbSymbolTable
 70
     8
  0
BLOCK_RECORD
  5
2
102
{ACAD_XDICTIONARY
360
D9
102
}
330
1
100
AcDbSymbolTableRecord
100
AcDbBlockTableRecord
  2
*MODEL_SPACE
340
156
  0
BLOCK_RECORD
  5
C
102
{ACAD_XDICTIONARY
360
DB
102
}
330
1
100
AcDbSymbolTableRecord
100
AcDbBlockTableRecord
  2
*PAPER_SPACE
340
157
  0
BLOCK_RECORD
  5
24
330
1
100
AcDbSymbolTableRecord
100
AcDbBlockTableRecord
  2
_DOTSMALL
340
0
102
{BLKREFS
331
143
331
144
331
14C
331
14D
331
1CF
331
1D0
331
1D8
331
1D9
331
1E1
331
1E2
331
1EA
331
1EB
102
}
  0
BLOCK_RECORD
  5
106
330
1
100
AcDbSymbolTableRecord
100
AcDbBlockTableRecord
  2
*D1
340
0
  0
BLOCK_RECORD
  5
120
330
1
100
AcDbSymbolTableRecord
100
AcDbBlockTableRecord
  2
*D2
340
0
  0
BLOCK_RECORD
  5
15B
330
1
100
AcDbSymbolTableRecord
100
AcDbBlockTableRecord
  2
*D3
340
0
  0
BLOCK_RECORD
  5
167
330
1
100
AcDbSymbolTableRecord
100
AcDbBlockTableRecord
  2
*D4
340
0
  0
BLOCK_RECORD
  5
188
330
1
100
AcDbSymbolTableRecord
100
AcDbBlockTableRecord
  2
*D6
340
0
  0
BLOCK_RECORD
  5
194
330
1
100
AcDbSymbolTableRecord
100
AcDbBlockTableRecord
  2
*D7
340
0
  0
ENDTAB
  0
ENDSEC
  0
SECTION
  2
BLOCKS
  0
BLOCK
  5
3
330
2
100
AcDbEntity
  8
0
100
AcDbBlockBegin
  2
*MODEL_SPACE
 70
     0
 10
0.0
 20
0.0
 30
0.0
  3
*MODEL_SPACE
  1

  0
ENDBLK
  5
9
330
2
100
AcDbEntity
  8
0
100
AcDbBlockEnd
  0
BLOCK
  5
D
330
C
100
AcDbEntity
 67
     1
  8
0
100
AcDbBlockBegin
  2
*PAPER_SPACE
 70
     0
 10
0.0
 20
0.0
 30
0.0
  3
*PAPER_SPACE
  1

  0
ENDBLK
  5
E
330
C
100
AcDbEntity
 67
     1
  8
0
100
AcDbBlockEnd
  0
BLOCK
  5
26
330
24
100
AcDbEntity
  8
0
100
AcDbBlockBegin
  2
_DOTSMALL
 70
     0
 10
0.0
 20
0.0
 30
0.0
  3
_DOTSMALL
  1

  0
LWPOLYLINE
  5
25
330
24
100
AcDbEntity
  8
0
  6
ByBlock
 62
     0
100
AcDbPolyline
 90
        2
 70
     1
 43
0.5
 10
-0.0625
 20
0.0
 42
1.0
 10
0.0625
 20
0.0
 42
1.0
  0
ENDBLK
  5
27
330
24
100
AcDbEntity
  8
0
100
AcDbBlockEnd
  0
BLOCK
  5
110
330
106
100
AcDbEntity
  8
0
100
AcDbBlockBegin
  2
*D1
 70
     1
 10
0.0
 20
0.0
 30
0.0
  3
*D1
  1

  0
LINE
  5
1DE
330
106
100
AcDbEntity
  8
SUNPOU
 62
    70
370
    -2
100
AcDbLine
 10
25.29327963985668
 20
101.673883725839
 30
0.0
 11
39.25050998941775
 21
101.673883725839
 31
0.0
  0
LINE
  5
1DF
330
106
100
AcDbEntity
  8
SUNPOU
 62
    70
370
    -2
100
AcDbLine
 10
25.29327963985463
 20
25.67388372584035
 30
0.0
 11
39.25050998941773
 21
25.67388372584035
 31
0.0
  0
LINE
  5
1E0
330
106
100
AcDbEntity
  8
SUNPOU
 62
    60
370
    -2
100
AcDbLine
 10
39.25050998941775
 20
101.673883725839
 30
0.0
 11
39.25050998941773
 21
25.67388372584035
 31
0.0
  0
INSERT
  5
1E1
330
106
100
AcDbEntity
  8
SUNPOU
 62
    60
370
    -2
100
AcDbBlockReference
  2
_DOTSMALL
 10
39.25050998941775
 20
101.673883725839
 30
0.0
 41
3.0
 42
3.0
 43
3.0
 50
90.0
  0
INSERT
  5
1E2
330
106
100
AcDbEntity
  8
SUNPOU
 62
    60
370
    -2
100
AcDbBlockReference
  2
_DOTSMALL
 10
39.25050998941773
 20
25.67388372584035
 30
0.0
 41
3.0
 42
3.0
 43
3.0
 50
270.0
  0
MTEXT
  5
1E3
330
106
100
AcDbEntity
  8
SUNPOU
 62
    60
100
AcDbMText
 10
36.85050998941774
 20
63.67388372583972
 30
0.0
 40
2.799999999999998
 41
0.0
 71
     5
 72
     1
  1
\A1;76
 11
0.0000000000000001
 21
1.0
 31
0.0
 73
     1
 44
1.0
  0
POINT
  5
1E4
330
106
100
AcDbEntity
  8
DEFPOINTS
 62
     0
100
AcDbPoint
 10
23.29327963985667
 20
101.673883725839
 30
0.0
  0
POINT
  5
1E5
330
106
100
AcDbEntity
  8
DEFPOINTS
 62
     0
100
AcDbPoint
 10
23.29327963985463
 20
25.67388372584035
 30
0.0
  0
POINT
  5
1E6
330
106
100
AcDbEntity
  8
DEFPOINTS
 62
     0
100
AcDbPoint
 10
39.25050998941773
 20
25.67388372584035
 30
0.0
  0
ENDBLK
  5
111
330
106
100
AcDbEntity
  8
0
100
AcDbBlockEnd
  0
BLOCK
  5
12A
330
120
100
AcDbEntity
  8
0
100
AcDbBlockBegin
  2
*D2
 70
     1
 10
0.0
 20
0.0
 30
0.0
  3
*D2
  1

  0
LINE
  5
1E7
330
120
100
AcDbEntity
  8
SUNPOU
 62
    70
370
    -2
100
AcDbLine
 10
24.9323159794238
 20
103.8738837258385
 30
0.0
 11
24.9323159794238
 21
112.923568110197
 31
0.0
  0
LINE
  5
1E8
330
120
100
AcDbEntity
  8
SUNPOU
 62
    70
370
    -2
100
AcDbLine
 10
3.932315979423819
 20
103.673883725839
 30
0.0
 11
3.93231597942382
 21
112.923568110197
 31
0.0
  0
LINE
  5
1E9
330
120
100
AcDbEntity
  8
SUNPOU
 62
    60
370
    -2
100
AcDbLine
 10
24.9323159794238
 20
112.923568110197
 30
0.0
 11
3.93231597942382
 21
112.923568110197
 31
0.0
  0
INSERT
  5
1EA
330
120
100
AcDbEntity
  8
SUNPOU
 62
    60
370
    -2
100
AcDbBlockReference
  2
_DOTSMALL
 10
24.9323159794238
 20
112.923568110197
 30
0.0
 41
3.0
 42
3.0
 43
3.0
  0
INSERT
  5
1EB
330
120
100
AcDbEntity
  8
SUNPOU
 62
    60
370
    -2
100
AcDbBlockReference
  2
_DOTSMALL
 10
3.93231597942382
 20
112.923568110197
 30
0.0
 41
3.0
 42
3.0
 43
3.0
 50
180.0
  0
MTEXT
  5
1EC
330
120
100
AcDbEntity
  8
SUNPOU
 62
    60
100
AcDbMText
 10
14.43231597942381
 20
115.323568110197
 30
0.0
 40
2.799999999999998
 41
0.0
 71
     5
 72
     1
  1
\A1;21
 73
     1
 44
1.0
  0
POINT
  5
1ED
330
120
100
AcDbEntity
  8
DEFPOINTS
 62
     0
100
AcDbPoint
 10
24.9323159794238
 20
101.8738837258385
 30
0.0
  0
POINT
  5
1EE
330
120
100
AcDbEntity
  8
DEFPOINTS
 62
     0
100
AcDbPoint
 10
3.932315979423819
 20
101.673883725839
 30
0.0
  0
POINT
  5
1EF
330
120
100
AcDbEntity
  8
DEFPOINTS
 62
     0
100
AcDbPoint
 10
3.93231597942382
 20
112.923568110197
 30
0.0
  0
ENDBLK
  5
12B
330
120
100
AcDbEntity
  8
0
100
AcDbBlockEnd
  0
BLOCK
  5
165
330
15B
100
AcDbEntity
  8
0
100
AcDbBlockBegin
  2
*D3
 70
     1
 10
0.0
 20
0.0
 30
0.0
  3
*D3
  1

  0
LINE
  5
15C
330
15B
100
AcDbEntity
  8
SUNPOU
 62
    70
370
    -2
100
AcDbLine
 10
20.25003076853499
 20
61.67879297007188
 30
0.0
 11
12.29215176853497
 21
61.67879297007189
 31
0.0
  0
LINE
  5
15D
330
15B
100
AcDbEntity
  8
SUNPOU
 62
    70
370
    -2
100
AcDbLine
 10
20.25003076853499
 20
52.67879297007189
 30
0.0
 11
12.29215176853497
 21
52.6787929700719
 31
0.0
  0
LINE
  5
15E
330
15B
100
AcDbEntity
  8
SUNPOU
 62
    60
370
    -2
100
AcDbLine
 10
12.29215176853497
 20
58.67879297007188
 30
0.0
 11
12.29215176853497
 21
55.67879297007189
 31
0.0
  0
SOLID
  5
15F
330
15B
100
AcDbEntity
  8
SUNPOU
 62
    60
100
AcDbTrace
 10
11.79215176853497
 20
58.67879297007188
 30
0.0
 11
12.79215176853497
 21
58.67879297007188
 31
0.0
 12
12.29215176853497
 22
61.67879297007189
 32
0.0
 13
12.29215176853497
 23
61.67879297007189
 33
0.0
  0
SOLID
  5
160
330
15B
100
AcDbEntity
  8
SUNPOU
 62
    60
100
AcDbTrace
 10
11.79215176853497
 20
55.67879297007189
 30
0.0
 11
12.79215176853497
 21
55.67879297007189
 31
0.0
 12
12.29215176853497
 22
52.6787929700719
 32
0.0
 13
12.29215176853497
 23
52.6787929700719
 33
0.0
  0
MTEXT
  5
161
330
15B
100
AcDbEntity
  8
SUNPOU
 62
    60
100
AcDbMText
 10
10.80215176853496
 20
57.1787929700719
 30
0.0
 40
2.799999999999999
 41
0.0
 71
     5
 72
     1
  1
\A1;9
  7
SUNPOU
 11
0.0000000000000001
 21
1.0
 31
0.0
 73
     1
 44
1.0
  0
POINT
  5
162
330
15B
100
AcDbEntity
  8
DEFPOINTS
 62
     0
100
AcDbPoint
 10
22.25003076853499
 20
61.67879297007188
 30
0.0
  0
POINT
  5
163
330
15B
100
AcDbEntity
  8
DEFPOINTS
 62
     0
100
AcDbPoint
 10
22.25003076853499
 20
52.67879297007189
 30
0.0
  0
POINT
  5
164
330
15B
100
AcDbEntity
  8
DEFPOINTS
 62
     0
100
AcDbPoint
 10
12.29215176853497
 20
52.6787929700719
 30
0.0
  0
ENDBLK
  5
166
330
15B
100
AcDbEntity
  8
0
100
AcDbBlockEnd
  0
BLOCK
  5
171
330
167
100
AcDbEntity
  8
0
100
AcDbBlockBegin
  2
*D4
 70
     1
 10
0.0
 20
0.0
 30
0.0
  3
*D4
  1

  0
LINE
  5
168
330
167
100
AcDbEntity
  8
SUNPOU
 62
    70
370
    -2
100
AcDbLine
 10
31.25003076853499
 20
63.67879297007188
 30
0.0
 11
31.25003076853499
 21
71.69150697007187
 31
0.0
  0
LINE
  5
169
330
167
100
AcDbEntity
  8
SUNPOU
 62
    70
370
    -2
100
AcDbLine
 10
22.25003076853499
 20
63.67879297007188
 30
0.0
 11
22.25003076853499
 21
71.69150697007187
 31
0.0
  0
LINE
  5
16A
330
167
100
AcDbEntity
  8
SUNPOU
 62
    60
370
    -2
100
AcDbLine
 10
28.250030768535
 20
71.69150697007187
 30
0.0
 11
25.25003076853499
 21
71.69150697007187
 31
0.0
  0
SOLID
  5
16B
330
167
100
AcDbEntity
  8
SUNPOU
 62
    60
100
AcDbTrace
 10
28.250030768535
 20
72.19150697007187
 30
0.0
 11
28.250030768535
 21
71.19150697007187
 31
0.0
 12
31.25003076853499
 22
71.69150697007187
 32
0.0
 13
31.25003076853499
 23
71.69150697007187
 33
0.0
  0
SOLID
  5
16C
330
167
100
AcDbEntity
  8
SUNPOU
 62
    60
100
AcDbTrace
 10
25.25003076853499
 20
72.19150697007187
 30
0.0
 11
25.25003076853499
 21
71.19150697007187
 31
0.0
 12
22.25003076853499
 22
71.69150697007187
 32
0.0
 13
22.25003076853499
 23
71.69150697007187
 33
0.0
  0
MTEXT
  5
16D
330
167
100
AcDbEntity
  8
SUNPOU
 62
    60
100
AcDbMText
 10
26.75003076853499
 20
73.18150697007187
 30
0.0
 40
2.799999999999999
 41
0.0
 71
     5
 72
     1
  1
\A1;9
  7
SUNPOU
 73
     1
 44
1.0
  0
POINT
  5
16E
330
167
100
AcDbEntity
  8
DEFPOINTS
 62
     0
100
AcDbPoint
 10
31.25003076853499
 20
61.67879297007188
 30
0.0
  0
POINT
  5
16F
330
167
100
AcDbEntity
  8
DEFPOINTS
 62
     0
100
AcDbPoint
 10
22.25003076853499
 20
61.67879297007188
 30
0.0
  0
POINT
  5
170
330
167
100
AcDbEntity
  8
DEFPOINTS
 62
     0
100
AcDbPoint
 10
22.25003076853499
 20
71.69150697007187
 30
0.0
  0
ENDBLK
  5
172
330
167
100
AcDbEntity
  8
0
100
AcDbBlockEnd
  0
BLOCK
  5
192
330
188
100
AcDbEntity
  8
0
100
AcDbBlockBegin
  2
*D6
 70
     1
 10
0.0
 20
0.0
 30
0.0
  3
*D6
  1

  0
LINE
  5
1A0
330
188
100
AcDbEntity
  8
SUNPOU
 62
    70
370
    -2
100
AcDbLine
 10
137.1833189651866
 20
68.43902555747051
 30
0.0
 11
129.2254399651866
 21
68.43902555747051
 31
0.0
  0
LINE
  5
1A1
330
188
100
AcDbEntity
  8
SUNPOU
 62
    70
370
    -2
100
AcDbLine
 10
137.1833189651866
 20
59.43902555747052
 30
0.0
 11
129.2254399651866
 21
59.43902555747052
 31
0.0
  0
LINE
  5
1A2
330
188
100
AcDbEntity
  8
SUNPOU
 62
    60
370
    -2
100
AcDbLine
 10
129.2254399651866
 20
65.43902555747052
 30
0.0
 11
129.2254399651866
 21
62.43902555747052
 31
0.0
  0
SOLID
  5
1A3
330
188
100
AcDbEntity
  8
SUNPOU
 62
    60
100
AcDbTrace
 10
128.7254399651867
 20
65.43902555747052
 30
0.0
 11
129.7254399651867
 21
65.43902555747052
 31
0.0
 12
129.2254399651866
 22
68.43902555747051
 32
0.0
 13
129.2254399651866
 23
68.43902555747051
 33
0.0
  0
SOLID
  5
1A4
330
188
100
AcDbEntity
  8
SUNPOU
 62
    60
100
AcDbTrace
 10
128.7254399651866
 20
62.43902555747052
 30
0.0
 11
129.7254399651866
 21
62.43902555747052
 31
0.0
 12
129.2254399651866
 22
59.43902555747052
 32
0.0
 13
129.2254399651866
 23
59.43902555747052
 33
0.0
  0
MTEXT
  5
1A5
330
188
100
AcDbEntity
  8
SUNPOU
 62
    60
100
AcDbMText
 10
127.7354399651866
 20
63.93902555747054
 30
0.0
 40
2.799999999999999
 41
0.0
 71
     5
 72
     1
  1
\A1;9
  7
SUNPOU
 11
0.0000000000000001
 21
1.0
 31
0.0
 73
     1
 44
1.0
  0
POINT
  5
1A6
330
188
100
AcDbEntity
  8
DEFPOINTS
 62
     0
100
AcDbPoint
 10
139.1833189651866
 20
68.43902555747051
 30
0.0
  0
POINT
  5
1A7
330
188
100
AcDbEntity
  8
DEFPOINTS
 62
     0
100
AcDbPoint
 10
139.1833189651866
 20
59.43902555747052
 30
0.0
  0
POINT
  5
1A8
330
188
100
AcDbEntity
  8
DEFPOINTS
 62
     0
100
AcDbPoint
 10
129.2254399651866
 20
59.43902555747052
 30
0.0
  0
ENDBLK
  5
193
330
188
100
AcDbEntity
  8
0
100
AcDbBlockEnd
  0
BLOCK
  5
19E
330
194
100
AcDbEntity
  8
0
100
AcDbBlockBegin
  2
*D7
 70
     1
 10
0.0
 20
0.0
 30
0.0
  3
*D7
  1

  0
LINE
  5
1A9
330
194
100
AcDbEntity
  8
SUNPOU
 62
    70
370
    -2
100
AcDbLine
 10
148.1833189651866
 20
70.43902555747052
 30
0.0
 11
148.1833189651866
 21
78.4517395574705
 31
0.0
  0
LINE
  5
1AA
330
194
100
AcDbEntity
  8
SUNPOU
 62
    70
370
    -2
100
AcDbLine
 10
139.1833189651866
 20
70.43902555747052
 30
0.0
 11
139.1833189651866
 21
78.4517395574705
 31
0.0
  0
LINE
  5
1AB
330
194
100
AcDbEntity
  8
SUNPOU
 62
    60
370
    -2
100
AcDbLine
 10
145.1833189651866
 20
78.4517395574705
 30
0.0
 11
142.1833189651866
 21
78.4517395574705
 31
0.0
  0
SOLID
  5
1AC
330
194
100
AcDbEntity
  8
SUNPOU
 62
    60
100
AcDbTrace
 10
145.1833189651866
 20
78.95173955747051
 30
0.0
 11
145.1833189651866
 21
77.9517395574705
 31
0.0
 12
148.1833189651866
 22
78.4517395574705
 32
0.0
 13
148.1833189651866
 23
78.4517395574705
 33
0.0
  0
SOLID
  5
1AD
330
194
100
AcDbEntity
  8
SUNPOU
 62
    60
100
AcDbTrace
 10
142.1833189651866
 20
78.95173955747051
 30
0.0
 11
142.1833189651866
 21
77.9517395574705
 31
0.0
 12
139.1833189651866
 22
78.4517395574705
 32
0.0
 13
139.1833189651866
 23
78.4517395574705
 33
0.0
  0
MTEXT
  5
1AE
330
194
100
AcDbEntity
  8
SUNPOU
 62
    60
100
AcDbMText
 10
143.6833189651866
 20
79.9417395574705
 30
0.0
 40
2.799999999999999
 41
0.0
 71
     5
 72
     1
  1
\A1;9
  7
SUNPOU
 73
     1
 44
1.0
  0
POINT
  5
1AF
330
194
100
AcDbEntity
  8
DEFPOINTS
 62
     0
100
AcDbPoint
 10
148.1833189651866
 20
68.43902555747051
 30
0.0
  0
POINT
  5
1B0
330
194
100
AcDbEntity
  8
DEFPOINTS
 62
     0
100
AcDbPoint
 10
139.1833189651866
 20
68.43902555747051
 30
0.0
  0
POINT
  5
1B1
330
194
100
AcDbEntity
  8
DEFPOINTS
 62
     0
100
AcDbPoint
 10
139.1833189651866
 20
78.4517395574705
 30
0.0
  0
ENDBLK
  5
19F
330
194
100
AcDbEntity
  8
0
100
AcDbBlockEnd
  0
ENDSEC
  0
SECTION
  2
ENTITIES
  0
DIMENSION
  5
105
330
2
100
AcDbEntity
  8
SUNPOU
100
AcDbDimension
  2
*D1
 10
39.25050998941773
 20
25.67388372584035
 30
0.0
 11
36.85050998941774
 21
63.67388372583972
 31
0.0
 70
    32
 71
     5
 42
75.99999999999873
  3
STANDARD
100
AcDbAlignedDimension
 13
23.29327963985667
 23
101.673883725839
 33
0.0
 14
23.29327963985463
 24
25.67388372584035
 34
0.0
 50
90.0
100
AcDbRotatedDimension
1001
ACAD
1000
DSTYLE
1002
{
1070
    41
1040
3.0
1070
    42
1040
2.0
1070
    44
1040
0.0
1070
    73
1070
     0
1070
    74
1070
     0
1070
    77
1070
     1
1070
    78
1070
     8
1070
   140
1040
2.799999999999998
1070
   141
1040
0.0
1070
   146
1040
0.0642857142857143
1070
   147
1040
1.0
1070
   173
1070
     1
1070
   174
1070
     1
1070
   176
1070
    60
1070
   177
1070
    70
1070
   178
1070
    60
1070
   341
1005
24
1070
     6
1000
DOTSMALL
1070
     7
1000
DOTSMALL
1002
}
  0
DIMENSION
  5
11F
330
2
100
AcDbEntity
  8
SUNPOU
100
AcDbDimension
  2
*D2
 10
3.93231597942382
 20
112.923568110197
 30
0.0
 11
14.43231597942381
 21
115.323568110197
 31
0.0
 70
    32
 71
     5
 42
20.99999999999998
  3
STANDARD
100
AcDbAlignedDimension
 13
24.9323159794238
 23
101.8738837258385
 33
0.0
 14
3.932315979423819
 24
101.673883725839
 34
0.0
100
AcDbRotatedDimension
1001
ACAD
1000
DSTYLE
1002
{
1070
    41
1040
3.0
1070
    42
1040
2.0
1070
    44
1040
0.0
1070
    73
1070
     0
1070
    74
1070
     0
1070
    77
1070
     1
1070
    78
1070
     8
1070
   140
1040
2.799999999999998
1070
   141
1040
0.0
1070
   146
1040
0.0642857142857143
1070
   147
1040
1.0
1070
   173
1070
     1
1070
   174
1070
     1
1070
   176
1070
    60
1070
   177
1070
    70
1070
   178
1070
    60
1070
   341
1005
24
1070
     6
1000
DOTSMALL
1070
     7
1000
DOTSMALL
1002
}
  0
TEXT
  5
181
330
2
100
AcDbEntity
  8
HOJO
100
AcDbText
 10
4.826983000000012
 20
1.183313000000012
 30
0.0
 40
4.5
  1
744
  7
SUNPOU
100
AcDbText
  0
LINE
  5
182
330
2
100
AcDbEntity
  8
WAKU
100
AcDbLine
 10
0.0
 20
0.0
 30
0.0
 11
44.67747103027142
 21
0.0
 31
0.0
  0
LINE
  5
183
330
2
100
AcDbEntity
  8
WAKU
100
AcDbLine
 10
0.0
 20
7.0
 30
0.0
 11
44.67747103027142
 21
7.0
 31
0.0
  0
TEXT
  5
184
330
2
100
AcDbEntity
  8
HOJO
100
AcDbText
 10
26.76176406416471
 20
2.522193000000015
 30
0.0
 40
3.0
  1
76×21
  7
SUNPOU
100
AcDbText
  0
LWPOLYLINE
  5
1F0
330
2
100
AcDbEntity
  8
KIJUN
100
AcDbPolyline
 90
       24
 70
     0
 43
0.0
 10
10.47100254497974
 20
47.89307433891035
 42
-0.1713363314721738
 10
12.25080787132182
 20
61.21285180767691
 42
-0.2034050253702338
 10
19.11694066052092
 20
67.05932841866036
 10
19.11694066052092
 20
69.75331187101184
 42
0.3026530018829229
 10
23.00249524346714
 20
74.88227173518135
 42
0.2040096846378889
 10
23.67598735875549
 20
77.31720068298669
 42
0.3346453607513725
 10
22.79526434258645
 20
87.26422875009069
 10
22.79526434258645
 20
89.48926252695407
 42
0.1919774014606156
 10
22.24675519145101
 20
90.86518923854226
 42
0.1051722945321264
 10
19.27236275201272
 20
92.91120476337839
 10
19.27236275201272
 20
96.17506931710648
 42
-0.3095580117851602
 10
15.64590278030127
 20
98.14366156974385
 42
-0.0729149449783382
 10
14.14198761452479
 20
101.673883725839
 10
3.932315979423819
 20
101.673883725839
 10
3.932315979423819
 20
25.67388372583907
 10
11.15994363907572
 20
25.67388372583907
 42
0.2239618054060895
 10
12.71013098107766
 20
26.99442086728603
 42
0.1965991104701417
 10
12.42304959170897
 20
29.57806325492136
 42
0.0764348945056444
 10
15.86822659018679
 20
31.98991964532972
 42
0.2056634199551642
 10
16.55687590337893
 20
36.46778713597532
 42
0.1550575587607851
 10
15.75540640619926
 20
37.84344084845065
 42
-0.0394686857271937
 10
12.88250857729827
 20
41.11813550072612
 42
0.2583832033522971
 10
12.6527077301327
 20
43.70196554223892
 42
-0.1121341314530951
 10
10.47099461023388
 20
47.89311136694059
  0
ENDSEC
  0
SECTION
  2
OBJECTS
  0
DICTIONARY
  5
7
330
0
100
AcDbDictionary
281
     1
  3
ACAD_GROUP
350
20
  3
ACAD_LAYOUT
350
B
  3
ACAD_MLINESTYLE
350
21
  3
ACAD_PLOTSETTINGS
350
22
  3
ACAD_PLOTSTYLENAME
350
154
1001
ACAD
1000
TREAT_AS_HARD
1070
     0
1000
TREAT_AS_HARD
1070
     0
  0
DICTIONARY
  5
D9
330
2
100
AcDbDictionary
281
     1
  3
ACAD_LAYOUTSELFREF
350
13B
1001
ACAD
1000
TREAT_AS_HARD
1070
     1
  0
DICTIONARY
  5
DB
330
C
100
AcDbDictionary
281
     1
  3
ACAD_LAYOUTSELFREF
350
13C
1001
ACAD
1000
TREAT_AS_HARD
1070
     1
  0
DICTIONARY
  5
20
102
{ACAD_REACTORS
330
7
102
}
330
7
100
AcDbDictionary
281
     1
1001
ACAD
1000
TREAT_AS_HARD
1070
     0
1000
TREAT_AS_HARD
1070
     0
  0
DICTIONARY
  5
B
102
{ACAD_REACTORS
330
7
102
}
330
7
100
AcDbDictionary
281
     1
  3
Model
350
156
  3
ﾚｲｱｳﾄ1
350
157
1001
ACAD
1000
TREAT_AS_HARD
1070
     0
1000
TREAT_AS_HARD
1070
     0
  0
DICTIONARY
  5
21
102
{ACAD_REACTORS
330
7
102
}
330
7
100
AcDbDictionary
281
     1
  3
STANDARD
350
29
1001
ACAD
1000
TREAT_AS_HARD
1070
     0
1000
TREAT_AS_HARD
1070
     0
  0
DICTIONARY
  5
22
102
{ACAD_REACTORS
330
7
102
}
330
7
100
AcDbDictionary
281
     1
1001
ACAD
1000
TREAT_AS_HARD
1070
     0
1000
TREAT_AS_HARD
1070
     0
  0
ACDBDICTIONARYWDFLT
  5
154
102
{ACAD_REACTORS
330
7
102
}
330
7
100
AcDbDictionary
281
     1
  3
Normal
350
155
100
AcDbDictionaryWithDefault
340
155
  0
XRECORD
  5
13B
102
{ACAD_REACTORS
330
D9
102
}
330
D9
100
AcDbXrecord
280
     1
340
2
  0
XRECORD
  5
13C
102
{ACAD_REACTORS
330
DB
102
}
330
DB
100
AcDbXrecord
280
     1
340
C
  0
LAYOUT
  5
156
102
{ACAD_REACTORS
330
B
102
}
330
B
100
AcDbPlotSettings
  1

  2
なし
  4

  6

 40
0.0
 41
0.0
 42
0.0
 43
0.0
 44
0.0
 45
0.0
 46
0.0
 47
0.0
 48
0.0
 49
0.0
140
0.0
141
0.0
142
1.0
143
1.0
 70
  1712
 72
     0
 73
     0
 74
     0
  7
monochrome.ctb
 75
     0
147
1.0
148
0.0
149
0.0
100
AcDbLayout
  1
Model
 70
     1
 71
     0
 10
0.0
 20
0.0
 11
12.0
 21
9.0
 12
0.0
 22
0.0
 32
0.0
 14
0.0
 24
0.0
 34
0.0
 15
0.0
 25
0.0
 35
0.0
146
0.0
 13
0.0
 23
0.0
 33
0.0
 16
1.0
 26
0.0
 36
0.0
 17
0.0
 27
1.0
 37
0.0
 76
     0
330
2
  0
LAYOUT
  5
157
102
{ACAD_REACTORS
330
B
102
}
330
B
100
AcDbPlotSettings
  1

  2
なし
  4

  6

 40
0.0
 41
0.0
 42
0.0
 43
0.0
 44
0.0
 45
0.0
 46
0.0
 47
0.0
 48
0.0
 49
0.0
140
0.0
141
0.0
142
1.0
143
1.0
 70
   688
 72
     0
 73
     0
 74
     5
  7
monochrome.ctb
 75
    16
147
1.0
148
0.0
149
0.0
100
AcDbLayout
  1
ﾚｲｱｳﾄ1
 70
     1
 71
     1
 10
0.0
 20
0.0
 11
12.0
 21
9.0
 12
0.0
 22
0.0
 32
0.0
 14
1.000000000000000E+20
 24
1.000000000000000E+20
 34
1.000000000000000E+20
 15
-1.000000000000000E+20
 25
-1.000000000000000E+20
 35
-1.000000000000000E+20
146
0.0
 13
0.0
 23
0.0
 33
0.0
 16
1.0
 26
0.0
 36
0.0
 17
0.0
 27
1.0
 37
0.0
 76
     0
330
C
  0
MLINESTYLE
  5
29
102
{ACAD_REACTORS
330
21
102
}
330
21
100
AcDbMlineStyle
  2
STANDARD
 70
     0
  3

 62
   256
 51
90.0
 52
90.0
 71
     2
 49
0.5
 62
   256
  6
BYLAYER
 49
-0.5
 62
   256
  6
BYLAYER
  0
ACDBPLACEHOLDER
  5
155
102
{ACAD_REACTORS
330
154
102
}
330
154
  0
ENDSEC
  0
EOF
