  0
SECTION
  2
HEADER
  9
$ACADVER
  1
AC1015
  9
$ACADMAINTVER
 70
    20
  9
$DWGCODEPAGE
  3
ANSI_932
  9
$INSBASE
 10
922.019522
 20
-675.4306699999999
 30
0.0
  9
$EXTMIN
 10
-0.0622450287714855
 20
-0.1102227387032144
 30
-0.000000000000013
  9
$EXTMAX
 10
870.0999885944527
 20
1721.539792307137
 30
0.0000000000000023
  9
$LIMMIN
 10
0.0
 20
0.0
  9
$LIMMAX
 10
420.0
 20
297.0
  9
$ORTHOMODE
 70
     1
  9
$REGENMODE
 70
     1
  9
$FILLMODE
 70
     1
  9
$QTEXTMODE
 70
     0
  9
$MIRRTEXT
 70
     1
  9
$LTSCALE
 40
5.0
  9
$ATTMODE
 70
     1
  9
$TEXTSIZE
 40
30.0
  9
$TRACEWID
 40
0.05
  9
$TEXTSTYLE
  7
SUNPOU
  9
$CLAYER
  8
0
  9
$CELTYPE
  6
BYLAYER
  9
$CECOLOR
 62
   256
  9
$CELTSCALE
 40
1.0
  9
$DISPSILH
 70
     0
  9
$DIMSCALE
 40
1.0
  9
$DIMASZ
 40
3.0
  9
$DIMEXO
 40
3.0
  9
$DIMDLI
 40
0.38
  9
$DIMRND
 40
0.0
  9
$DIMDLE
 40
0.0
  9
$DIMEXE
 40
0.0
  9
$DIMTP
 40
0.0
  9
$DIMTM
 40
0.0
  9
$DIMTXT
 40
10.0
  9
$DIMCEN
 40
0.0
  9
$DIMTSZ
 40
0.0
  9
$DIMTOL
 70
     0
  9
$DIMLIM
 70
     0
  9
$DIMTIH
 70
     0
  9
$DIMTOH
 70
     0
  9
$DIMSE1
 70
     0
  9
$DIMSE2
 70
     0
  9
$DIMTAD
 70
     1
  9
$DIMZIN
 70
     0
  9
$DIMBLK
  1
Dot
  9
$DIMASO
 70
     1
  9
$DIMSHO
 70
     1
  9
$DIMPOST
  1

  9
$DIMAPOST
  1

  9
$DIMALT
 70
     0
  9
$DIMALTD
 70
     2
  9
$DIMALTF
 40
25.4
  9
$DIMLFAC
 40
1.0
  9
$DIMTOFL
 70
     0
  9
$DIMTVP
 40
0.0
  9
$DIMTIX
 70
     0
  9
$DIMSOXD
 70
     0
  9
$DIMSAH
 70
     0
  9
$DIMBLK1
  1

  9
$DIMBLK2
  1

  9
$DIMSTYLE
  2
STANDARD
  9
$DIMCLRD
 70
    60
  9
$DIMCLRE
 70
    70
  9
$DIMCLRT
 70
    60
  9
$DIMTFAC
 40
0.064286
  9
$DIMGAP
 40
5.0
  9
$DIMJUST
 70
     0
  9
$DIMSD1
 70
     0
  9
$DIMSD2
 70
     0
  9
$DIMTOLJ
 70
     1
  9
$DIMTZIN
 70
     0
  9
$DIMALTZ
 70
     0
  9
$DIMALTTZ
 70
     0
  9
$DIMUPT
 70
     0
  9
$DIMDEC
 70
     0
  9
$DIMTDEC
 70
     0
  9
$DIMALTU
 70
     2
  9
$DIMALTTD
 70
     2
  9
$DIMTXSTY
  7
SUNPOU
  9
$DIMAUNIT
 70
     0
  9
$DIMADEC
 70
     0
  9
$DIMALTRND
 40
0.0
  9
$DIMAZIN
 70
     0
  9
$DIMDSEP
 70
    46
  9
$DIMATFIT
 70
     3
  9
$DIMFRAC
 70
     0
  9
$DIMLDRBLK
  1

  9
$DIMLUNIT
 70
     2
  9
$DIMLWD
 70
    -2
  9
$DIMLWE
 70
    -2
  9
$DIMTMOVE
 70
     0
  9
$LUNITS
 70
     2
  9
$LUPREC
 70
     5
  9
$SKETCHINC
 40
0.1
  9
$FILLETRAD
 40
5.0
  9
$AUNITS
 70
     0
  9
$AUPREC
 70
     0
  9
$MENU
  1
acad
  9
$ELEVATION
 40
0.0
  9
$PELEVATION
 40
0.0
  9
$THICKNESS
 40
0.0
  9
$LIMCHECK
 70
     0
  9
$CHAMFERA
 40
0.0
  9
$CHAMFERB
 40
0.0
  9
$CHAMFERC
 40
0.0
  9
$CHAMFERD
 40
0.0
  9
$SKPOLY
 70
     0
  9
$TDCREATE
 40
2450623.654673033
  9
$TDUCREATE
 40
2450623.279673032
  9
$TDUPDATE
 40
2454484.407460625
  9
$TDUUPDATE
 40
2454484.032460625
  9
$TDINDWG
 40
0.5891970139
  9
$TDUSRTIMER
 40
0.5891968403
  9
$USRTIMER
 70
     1
  9
$ANGBASE
 50
0.0
  9
$ANGDIR
 70
     0
  9
$PDMODE
 70
     0
  9
$PDSIZE
 40
0.0
  9
$PLINEWID
 40
0.0
  9
$SPLFRAME
 70
     0
  9
$SPLINETYPE
 70
     6
  9
$SPLINESEGS
 70
     8
  9
$HANDSEED
  5
3EEA
  9
$SURFTAB1
 70
     6
  9
$SURFTAB2
 70
     6
  9
$SURFTYPE
 70
     6
  9
$SURFU
 70
     6
  9
$SURFV
 70
     6
  9
$UCSBASE
  2

  9
$UCSNAME
  2

  9
$UCSORG
 10
0.0
 20
0.0
 30
0.0
  9
$UCSXDIR
 10
1.0
 20
0.0
 30
0.0
  9
$UCSYDIR
 10
0.0
 20
1.0
 30
0.0
  9
$UCSORTHOREF
  2

  9
$UCSORTHOVIEW
 70
     0
  9
$UCSORGTOP
 10
0.0
 20
0.0
 30
0.0
  9
$UCSORGBOTTOM
 10
0.0
 20
0.0
 30
0.0
  9
$UCSORGLEFT
 10
0.0
 20
0.0
 30
0.0
  9
$UCSORGRIGHT
 10
0.0
 20
0.0
 30
0.0
  9
$UCSORGFRONT
 10
0.0
 20
0.0
 30
0.0
  9
$UCSORGBACK
 10
0.0
 20
0.0
 30
0.0
  9
$PUCSBASE
  2

  9
$PUCSNAME
  2

  9
$PUCSORG
 10
0.0
 20
0.0
 30
0.0
  9
$PUCSXDIR
 10
1.0
 20
0.0
 30
0.0
  9
$PUCSYDIR
 10
0.0
 20
1.0
 30
0.0
  9
$PUCSORTHOREF
  2

  9
$PUCSORTHOVIEW
 70
     0
  9
$PUCSORGTOP
 10
0.0
 20
0.0
 30
0.0
  9
$PUCSORGBOTTOM
 10
0.0
 20
0.0
 30
0.0
  9
$PUCSORGLEFT
 10
0.0
 20
0.0
 30
0.0
  9
$PUCSORGRIGHT
 10
0.0
 20
0.0
 30
0.0
  9
$PUCSORGFRONT
 10
0.0
 20
0.0
 30
0.0
  9
$PUCSORGBACK
 10
0.0
 20
0.0
 30
0.0
  9
$USERI1
 70
     0
  9
$USERI2
 70
     0
  9
$USERI3
 70
     0
  9
$USERI4
 70
     0
  9
$USERI5
 70
     0
  9
$USERR1
 40
0.0
  9
$USERR2
 40
0.0
  9
$USERR3
 40
0.0
  9
$USERR4
 40
0.0
  9
$USERR5
 40
0.0
  9
$WORLDVIEW
 70
     1
  9
$SHADEDGE
 70
     3
  9
$SHADEDIF
 70
    70
  9
$TILEMODE
 70
     1
  9
$MAXACTVP
 70
    16
  9
$PINSBASE
 10
0.0
 20
0.0
 30
0.0
  9
$PLIMCHECK
 70
     0
  9
$PEXTMIN
 10
1.000000000000000E+20
 20
1.000000000000000E+20
 30
1.000000000000000E+20
  9
$PEXTMAX
 10
-1.000000000000000E+20
 20
-1.000000000000000E+20
 30
-1.000000000000000E+20
  9
$PLIMMIN
 10
0.0
 20
0.0
  9
$PLIMMAX
 10
12.0
 20
9.0
  9
$UNITMODE
 70
     0
  9
$VISRETAIN
 70
     0
  9
$PLINEGEN
 70
     0
  9
$PSLTSCALE
 70
     1
  9
$TREEDEPTH
 70
  3020
  9
$CMLSTYLE
  2
STANDARD
  9
$CMLJUST
 70
     0
  9
$CMLSCALE
 40
1.0
  9
$PROXYGRAPHICS
 70
     1
  9
$MEASUREMENT
 70
     0
  9
$CELWEIGHT
370
    -1
  9
$ENDCAPS
280
     0
  9
$JOINSTYLE
280
     0
  9
$LWDISPLAY
290
     0
  9
$INSUNITS
 70
     0
  9
$HYPERLINKBASE
  1

  9
$STYLESHEET
  1

  9
$XEDIT
290
     1
  9
$CEPSNTYPE
380
     0
  9
$PSTYLEMODE
290
     1
  9
$FINGERPRINTGUID
  2
{FB88A696-E29C-4009-92AF-A3599A8169D5}
  9
$VERSIONGUID
  2
{E031E356-54CE-4C21-9545-9A7B9C2C1AF0}
  9
$EXTNAMES
290
     1
  9
$PSVPSCALE
 40
0.0
  9
$OLESTARTUP
290
     0
  0
ENDSEC
  0
SECTION
  2
CLASSES
  0
CLASS
  1
DICTIONARYVAR
  2
AcDbDictionaryVar
  3
ObjectDBX Classes
 90
        0
280
     0
281
     0
  0
CLASS
  1
ACDBDICTIONARYWDFLT
  2
AcDbDictionaryWithDefault
  3
ObjectDBX Classes
 90
        0
280
     0
281
     0
  0
CLASS
  1
ACDBPLACEHOLDER
  2
AcDbPlaceHolder
  3
ObjectDBX Classes
 90
        0
280
     0
281
     0
  0
CLASS
  1
LAYOUT
  2
AcDbLayout
  3
ObjectDBX Classes
 90
        0
280
     0
281
     0
  0
CLASS
  1
TABLESTYLE
  2
AcDbTableStyle
  3
ObjectDBX Classes
 90
     2047
280
     0
281
     0
  0
CLASS
  1
SORTENTSTABLE
  2
AcDbSortentsTable
  3
ObjectDBX Classes
 90
        0
280
     0
281
     0
  0
ENDSEC
  0
SECTION
  2
TABLES
  0
TABLE
  2
VPORT
  5
12
330
0
100
AcDbSymbolTable
 70
     3
  0
VPORT
  5
3EE4
330
12
100
AcDbSymbolTableRecord
100
AcDbViewportTableRecord
  2
*Active
 70
     0
 10
0.0
 20
0.0
 11
1.0
 21
1.0
 12
435.0188717828404
 22
860.7147847842171
 13
0.0
 23
0.0
 14
1.0
 24
1.0
 15
0.0
 25
0.0
 16
0.0
 26
0.0
 36
1.0
 17
0.0
 27
0.0
 37
0.0
 40
1734.74241059752
 41
1.520304568527918
 42
50.0
 43
0.0
 44
0.0
 50
0.0
 51
0.0
 71
     0
 72
 20000
 73
     1
 74
     1
 75
     0
 76
     0
 77
     0
 78
     0
281
     0
 65
     1
110
0.0
120
0.0
130
0.0
111
1.0
121
0.0
131
0.0
112
0.0
122
1.0
132
0.0
 79
     0
146
0.0
  0
ENDTAB
  0
TABLE
  2
LTYPE
  5
D
330
0
100
AcDbSymbolTable
 70
     2
  0
LTYPE
  5
E
330
D
100
AcDbSymbolTableRecord
100
AcDbLinetypeTableRecord
  2
BYBLOCK
 70
     0
  3

 72
    65
 73
     0
 40
0.0
  0
LTYPE
  5
F
330
D
100
AcDbSymbolTableRecord
100
AcDbLinetypeTableRecord
  2
BYLAYER
 70
     0
  3

 72
    65
 73
     0
 40
0.0
  0
LTYPE
  5
5
330
D
100
AcDbSymbolTableRecord
100
AcDbLinetypeTableRecord
  2
CONTINUOUS
 70
     0
  3
Solid line
 72
    65
 73
     0
 40
0.0
  0
ENDTAB
  0
TABLE
  2
LAYER
  5
A
330
0
100
AcDbSymbolTable
 70
     6
  0
LAYER
  5
4
330
A
100
AcDbSymbolTableRecord
100
AcDbLayerTableRecord
  2
0
 70
     0
 62
     7
  6
CONTINUOUS
370
    -3
390
57
  0
LAYER
  5
25
330
A
100
AcDbSymbolTableRecord
100
AcDbLayerTableRecord
  2
KIJUN
 70
     0
 62
     7
  6
CONTINUOUS
370
    -3
390
57
  0
LAYER
  5
22
330
A
100
AcDbSymbolTableRecord
100
AcDbLayerTableRecord
  2
HOJO
 70
     0
 62
     3
  6
CONTINUOUS
370
    -3
390
57
  0
LAYER
  5
1B
330
A
100
AcDbSymbolTableRecord
100
AcDbLayerTableRecord
  2
WAKU
 70
     0
 62
     1
  6
CONTINUOUS
370
    -3
390
57
  0
LAYER
  5
31
330
A
100
AcDbSymbolTableRecord
100
AcDbLayerTableRecord
  2
DEFPOINTS
 70
     0
 62
     7
  6
CONTINUOUS
290
     0
370
    -3
390
57
  0
LAYER
  5
28
330
A
100
AcDbSymbolTableRecord
100
AcDbLayerTableRecord
  2
SUNPOU
 70
     0
 62
    70
  6
CONTINUOUS
370
    -3
390
57
  0
ENDTAB
  0
TABLE
  2
STYLE
  5
B
330
0
100
AcDbSymbolTable
 70
     3
  0
STYLE
  5
C
330
B
100
AcDbSymbolTableRecord
100
AcDbTextStyleTableRecord
  2
STANDARD
 70
     0
 40
0.0
 41
1.0
 50
0.0
 71
     0
 42
0.2
  3
txt
  4

  0
STYLE
  5
1C
330
B
100
AcDbSymbolTableRecord
100
AcDbTextStyleTableRecord
  2
SUNPOU
 70
     0
 40
0.0
 41
1.0
 50
0.0
 71
     0
 42
30.0
  3
txt
  4
bigfont
  0
STYLE
  5
1AD
330
B
100
AcDbSymbolTableRecord
100
AcDbTextStyleTableRecord
  2
LIFE
 70
     0
 40
0.0
 41
0.7
 50
0.0
 71
     0
 42
10.0
  3
romans
  4
extfont
  0
ENDTAB
  0
TABLE
  2
VIEW
  5
10
330
0
100
AcDbSymbolTable
 70
     0
  0
ENDTAB
  0
TABLE
  2
UCS
  5
11
330
0
100
AcDbSymbolTable
 70
     0
  0
ENDTAB
  0
TABLE
  2
APPID
  5
14
330
0
100
AcDbSymbolTable
 70
     2
  0
APPID
  5
15
330
14
100
AcDbSymbolTableRecord
100
AcDbRegAppTableRecord
  2
ACAD
 70
     0
  0
APPID
  5
2EB0
330
14
100
AcDbSymbolTableRecord
100
AcDbRegAppTableRecord
  2
ACAD_EXEMPT_FROM_CAD_STANDARDS
 70
     0
  0
ENDTAB
  0
TABLE
  2
DIMSTYLE
  5
16
330
0
100
AcDbSymbolTable
 70
     3
100
AcDbDimStyleTable
 71
     1
340
1E
  0
DIMSTYLE
105
1E
330
16
100
AcDbSymbolTableRecord
100
AcDbDimStyleTableRecord
  2
STANDARD
 70
     0
340
C
  0
DIMSTYLE
105
1AE
102
{ACAD_REACTORS
330
32A1
330
32D1
330
35C8
330
35F9
330
3618
330
3637
330
3656
102
}
330
16
100
AcDbSymbolTableRecord
100
AcDbDimStyleTableRecord
  2
STANDARD$0
 70
     0
 40
2.0
 41
1.0
 42
2.0
 43
0.0
 44
1.0
 73
     0
 74
     0
 77
     3
 78
     9
140
4.5
141
0.0
147
1.0
172
     1
173
     1
178
     3
271
     2
340
1AD
341
109
343
109
344
109
  0
ENDTAB
  0
TABLE
  2
BLOCK_RECORD
  5
1
330
0
100
AcDbSymbolTable
 70
     9
  0
BLOCK_RECORD
  5
2
102
{ACAD_XDICTIONARY
360
34C7
102
}
330
1
100
AcDbSymbolTableRecord
100
AcDbBlockTableRecord
  2
*MODEL_SPACE
340
5A
  0
BLOCK_RECORD
  5
7
330
1
100
AcDbSymbolTableRecord
100
AcDbBlockTableRecord
  2
*PAPER_SPACE
340
5B
  0
BLOCK_RECORD
  5
109
330
1
100
AcDbSymbolTableRecord
100
AcDbBlockTableRecord
  2
_Dot
340
0
102
{BLKREFS
331
3D1C
331
3D1D
331
3D25
331
3D26
331
3E66
331
3E67
331
3EAC
331
3EAD
331
3EBE
331
3EBF
331
3EC7
331
3EC8
331
3ED0
331
3ED1
102
}
  0
BLOCK_RECORD
  5
32BC
330
1
100
AcDbSymbolTableRecord
100
AcDbBlockTableRecord
  2
*D1
340
0
  0
BLOCK_RECORD
  5
32D3
330
1
100
AcDbSymbolTableRecord
100
AcDbBlockTableRecord
  2
*D2
340
0
  0
BLOCK_RECORD
  5
35C9
330
1
100
AcDbSymbolTableRecord
100
AcDbBlockTableRecord
  2
*D3
340
0
  0
BLOCK_RECORD
  5
35FA
330
1
100
AcDbSymbolTableRecord
100
AcDbBlockTableRecord
  2
*D4
340
0
  0
BLOCK_RECORD
  5
3619
330
1
100
AcDbSymbolTableRecord
100
AcDbBlockTableRecord
  2
*D5
340
0
  0
BLOCK_RECORD
  5
3638
330
1
100
AcDbSymbolTableRecord
100
AcDbBlockTableRecord
  2
*D6
340
0
  0
BLOCK_RECORD
  5
3657
330
1
100
AcDbSymbolTableRecord
100
AcDbBlockTableRecord
  2
*D7
340
0
  0
ENDTAB
  0
ENDSEC
  0
SECTION
  2
BLOCKS
  0
BLOCK
  5
3
330
2
100
AcDbEntity
  8
0
100
AcDbBlockBegin
  2
*MODEL_SPACE
 70
     0
 10
0.0
 20
0.0
 30
0.0
  3
*MODEL_SPACE
  1

  0
ENDBLK
  5
6
330
2
100
AcDbEntity
  8
0
100
AcDbBlockEnd
  0
BLOCK
  5
8
330
7
100
AcDbEntity
 67
     1
  8
0
100
AcDbBlockBegin
  2
*PAPER_SPACE
 70
     0
 10
0.0
 20
0.0
 30
0.0
  3
*PAPER_SPACE
  1

  0
ENDBLK
  5
9
330
7
100
AcDbEntity
 67
     1
  8
0
100
AcDbBlockEnd
  0
BLOCK
  5
10C
330
109
100
AcDbEntity
  8
0
100
AcDbBlockBegin
  2
_Dot
 70
     0
 10
0.0
 20
0.0
 30
0.0
  3
_Dot
  1

  0
LWPOLYLINE
  5
10A
330
109
100
AcDbEntity
  8
0
  6
ByBlock
 62
     0
100
AcDbPolyline
 90
        2
 70
     1
 43
0.5
 10
-0.25
 20
0.0
 42
1.0
 10
0.25
 20
0.0
 42
1.0
  0
LINE
  5
10B
330
109
100
AcDbEntity
  8
0
  6
ByBlock
 62
     0
370
    -2
100
AcDbLine
 10
-0.5
 20
0.0
 30
0.0
 11
-1.0
 21
0.0
 31
0.0
  0
ENDBLK
  5
10D
330
109
100
AcDbEntity
  8
0
100
AcDbBlockEnd
  0
BLOCK
  5
32C6
330
32BC
100
AcDbEntity
  8
0
100
AcDbBlockBegin
  2
*D1
 70
     1
 10
0.0
 20
0.0
 30
0.0
  3
*D1
  1

  0
LINE
  5
3D19
330
32BC
100
AcDbEntity
  8
SUNPOU
 62
    70
370
    -2
100
AcDbLine
 10
399.342192819984
 20
349.6020114738219
 30
0.0
 11
229.6840110458425
 21
349.6020114738219
 31
0.0
  0
LINE
  5
3D1A
330
32BC
100
AcDbEntity
  8
SUNPOU
 62
    70
370
    -2
100
AcDbLine
 10
399.3421928199843
 20
649.6020114738217
 30
0.0
 11
229.6840110458426
 21
649.6020114738219
 31
0.0
  0
LINE
  5
3D1B
330
32BC
100
AcDbEntity
  8
SUNPOU
 62
    60
370
    -2
100
AcDbLine
 10
229.6840110458425
 20
355.6020114738219
 30
0.0
 11
229.6840110458426
 21
643.6020114738219
 31
0.0
  0
INSERT
  5
3D1C
330
32BC
100
AcDbEntity
  8
SUNPOU
 62
    60
370
    -2
100
AcDbBlockReference
  2
_Dot
 10
229.6840110458425
 20
349.6020114738219
 30
0.0
 41
6.0
 42
6.0
 43
6.0
 50
270.0
  0
INSERT
  5
3D1D
330
32BC
100
AcDbEntity
  8
SUNPOU
 62
    60
370
    -2
100
AcDbBlockReference
  2
_Dot
 10
229.6840110458426
 20
649.6020114738219
 30
0.0
 41
6.0
 42
6.0
 43
6.0
 50
90.0
  0
MTEXT
  5
3D1E
330
32BC
100
AcDbEntity
  8
SUNPOU
 62
    60
100
AcDbMText
 10
209.6840110458425
 20
499.6020114738219
 30
0.0
 40
20.0
 41
0.0
 71
     5
 72
     1
  1
\A1;300
  7
SUNPOU
 11
0.0000000000000001
 21
1.0
 31
0.0
 73
     1
 44
1.0
1001
ACAD
1000
MTEXTBEGIN
1070
    73
1070
     1
1070
    44
1040
1.0
1070
    74
1070
     0
1000
MTEXTEND
  0
POINT
  5
3D1F
330
32BC
100
AcDbEntity
  8
DEFPOINTS
 62
     0
100
AcDbPoint
 10
405.3421928199839
 20
349.6020114738219
 30
0.0
  0
POINT
  5
3D20
330
32BC
100
AcDbEntity
  8
DEFPOINTS
 62
     0
100
AcDbPoint
 10
405.3421928199843
 20
649.6020114738217
 30
0.0
  0
POINT
  5
3D21
330
32BC
100
AcDbEntity
  8
DEFPOINTS
 62
     0
100
AcDbPoint
 10
229.6840110458426
 20
649.6020114738219
 30
0.0
  0
ENDBLK
  5
32C7
330
32BC
100
AcDbEntity
  8
0
100
AcDbBlockEnd
  0
BLOCK
  5
32DD
330
32D3
100
AcDbEntity
  8
0
100
AcDbBlockBegin
  2
*D2
 70
     1
 10
0.0
 20
0.0
 30
0.0
  3
*D2
  1

  0
LINE
  5
3D22
330
32D3
100
AcDbEntity
  8
SUNPOU
 62
    70
370
    -2
100
AcDbLine
 10
405.3421928199829
 20
343.6020114738217
 30
0.0
 11
405.3421928199829
 21
170.6391333396622
 31
0.0
  0
LINE
  5
3D23
330
32D3
100
AcDbEntity
  8
SUNPOU
 62
    70
370
    -2
100
AcDbLine
 10
510.3421928199825
 20
343.6020114738217
 30
0.0
 11
510.3421928199825
 21
170.6391333396622
 31
0.0
  0
LINE
  5
3D24
330
32D3
100
AcDbEntity
  8
SUNPOU
 62
    60
370
    -2
100
AcDbLine
 10
411.3421928199828
 20
170.6391333396622
 30
0.0
 11
504.3421928199825
 21
170.6391333396622
 31
0.0
  0
INSERT
  5
3D25
330
32D3
100
AcDbEntity
  8
SUNPOU
 62
    60
370
    -2
100
AcDbBlockReference
  2
_Dot
 10
405.3421928199829
 20
170.6391333396622
 30
0.0
 41
6.0
 42
6.0
 43
6.0
 50
180.0
  0
INSERT
  5
3D26
330
32D3
100
AcDbEntity
  8
SUNPOU
 62
    60
370
    -2
100
AcDbBlockReference
  2
_Dot
 10
510.3421928199825
 20
170.6391333396622
 30
0.0
 41
6.0
 42
6.0
 43
6.0
  0
MTEXT
  5
3D27
330
32D3
100
AcDbEntity
  8
SUNPOU
 62
    60
100
AcDbMText
 10
457.8421928199826
 20
190.6391333396621
 30
0.0
 40
20.0
 41
0.0
 71
     5
 72
     1
  1
\A1;105
  7
SUNPOU
 73
     1
 44
1.0
1001
ACAD
1000
MTEXTBEGIN
1070
    73
1070
     1
1070
    44
1040
1.0
1070
    74
1070
     0
1000
MTEXTEND
  0
POINT
  5
3D28
330
32D3
100
AcDbEntity
  8
DEFPOINTS
 62
     0
100
AcDbPoint
 10
405.3421928199829
 20
349.6020114738217
 30
0.0
  0
POINT
  5
3D29
330
32D3
100
AcDbEntity
  8
DEFPOINTS
 62
     0
100
AcDbPoint
 10
510.3421928199825
 20
349.6020114738217
 30
0.0
  0
POINT
  5
3D2A
330
32D3
100
AcDbEntity
  8
DEFPOINTS
 62
     0
100
AcDbPoint
 10
510.3421928199825
 20
170.6391333396622
 30
0.0
  0
ENDBLK
  5
32DE
330
32D3
100
AcDbEntity
  8
0
100
AcDbBlockEnd
  0
BLOCK
  5
35D3
330
35C9
100
AcDbEntity
  8
0
100
AcDbBlockBegin
  2
*D3
 70
     1
 10
0.0
 20
0.0
 30
0.0
  3
*D3
  1

  0
LINE
  5
3EA9
330
35C9
100
AcDbEntity
  8
SUNPOU
 62
    70
370
    -2
100
AcDbLine
 10
399.342192819984
 20
349.6020114738219
 30
0.0
 11
98.43401104584252
 21
349.6020114738219
 31
0.0
  0
LINE
  5
3EAA
330
35C9
100
AcDbEntity
  8
SUNPOU
 62
    70
370
    -2
100
AcDbLine
 10
399.3421928199841
 20
1549.602011473822
 30
0.0
 11
98.4340110458428
 21
1549.602011473822
 31
0.0
  0
LINE
  5
3EAB
330
35C9
100
AcDbEntity
  8
SUNPOU
 62
    60
370
    -2
100
AcDbLine
 10
98.43401104584254
 20
355.6020114738219
 30
0.0
 11
98.4340110458428
 21
1543.602011473821
 31
0.0
  0
INSERT
  5
3EAC
330
35C9
100
AcDbEntity
  8
SUNPOU
 62
    60
370
    -2
100
AcDbBlockReference
  2
_Dot
 10
98.43401104584252
 20
349.6020114738219
 30
0.0
 41
6.0
 42
6.0
 43
6.0
 50
270.0
  0
INSERT
  5
3EAD
330
35C9
100
AcDbEntity
  8
SUNPOU
 62
    60
370
    -2
100
AcDbBlockReference
  2
_Dot
 10
98.4340110458428
 20
1549.602011473822
 30
0.0
 41
6.0
 42
6.0
 43
6.0
 50
90.0
  0
MTEXT
  5
3EAE
330
35C9
100
AcDbEntity
  8
SUNPOU
 62
    60
100
AcDbMText
 10
78.43401104584251
 20
949.6020114738218
 30
0.0
 40
20.0
 41
0.0
 71
     5
 72
     1
  1
\A1;1200
  7
SUNPOU
 11
0.0000000000000001
 21
1.0
 31
0.0
 73
     1
 44
1.0
1001
ACAD
1000
MTEXTBEGIN
1070
    73
1070
     1
1070
    44
1040
1.0
1070
    74
1070
     0
1000
MTEXTEND
  0
POINT
  5
3EAF
330
35C9
100
AcDbEntity
  8
DEFPOINTS
 62
     0
100
AcDbPoint
 10
405.3421928199839
 20
349.6020114738219
 30
0.0
  0
POINT
  5
3EB0
330
35C9
100
AcDbEntity
  8
DEFPOINTS
 62
     0
100
AcDbPoint
 10
405.342192819984
 20
1549.602011473822
 30
0.0
  0
POINT
  5
3EB1
330
35C9
100
AcDbEntity
  8
DEFPOINTS
 62
     0
100
AcDbPoint
 10
98.4340110458428
 20
1549.602011473822
 30
0.0
  0
ENDBLK
  5
35D4
330
35C9
100
AcDbEntity
  8
0
100
AcDbBlockEnd
  0
BLOCK
  5
3604
330
35FA
100
AcDbEntity
  8
0
100
AcDbBlockBegin
  2
*D4
 70
     1
 10
0.0
 20
0.0
 30
0.0
  3
*D4
  1

  0
LINE
  5
3EC4
330
35FA
100
AcDbEntity
  8
SUNPOU
 62
    70
370
    -2
100
AcDbLine
 10
399.342192819984
 20
649.6020114738217
 30
0.0
 11
229.6840110458425
 21
649.6020114738219
 31
0.0
  0
LINE
  5
3EC5
330
35FA
100
AcDbEntity
  8
SUNPOU
 62
    70
370
    -2
100
AcDbLine
 10
399.3421928199834
 20
1214.602011473822
 30
0.0
 11
229.6840110458425
 21
1214.602011473822
 31
0.0
  0
LINE
  5
3EC6
330
35FA
100
AcDbEntity
  8
SUNPOU
 62
    60
370
    -2
100
AcDbLine
 10
229.6840110458425
 20
655.6020114738219
 30
0.0
 11
229.6840110458425
 21
1208.602011473822
 31
0.0
  0
INSERT
  5
3EC7
330
35FA
100
AcDbEntity
  8
SUNPOU
 62
    60
370
    -2
100
AcDbBlockReference
  2
_Dot
 10
229.6840110458425
 20
649.6020114738219
 30
0.0
 41
6.0
 42
6.0
 43
6.0
 50
270.0
  0
INSERT
  5
3EC8
330
35FA
100
AcDbEntity
  8
SUNPOU
 62
    60
370
    -2
100
AcDbBlockReference
  2
_Dot
 10
229.6840110458425
 20
1214.602011473822
 30
0.0
 41
6.0
 42
6.0
 43
6.0
 50
90.0
  0
MTEXT
  5
3EC9
330
35FA
100
AcDbEntity
  8
SUNPOU
 62
    60
100
AcDbMText
 10
209.6840110458424
 20
932.1020114738221
 30
0.0
 40
20.0
 41
0.0
 71
     5
 72
     1
  1
\A1;565
  7
SUNPOU
 11
0.0000000000000001
 21
1.0
 31
0.0
 73
     1
 44
1.0
1001
ACAD
1000
MTEXTBEGIN
1070
    73
1070
     1
1070
    44
1040
1.0
1070
    74
1070
     0
1000
MTEXTEND
  0
POINT
  5
3ECA
330
35FA
100
AcDbEntity
  8
DEFPOINTS
 62
     0
100
AcDbPoint
 10
405.3421928199839
 20
649.6020114738217
 30
0.0
  0
POINT
  5
3ECB
330
35FA
100
AcDbEntity
  8
DEFPOINTS
 62
     0
100
AcDbPoint
 10
405.3421928199834
 20
1214.602011473822
 30
0.0
  0
POINT
  5
3ECC
330
35FA
100
AcDbEntity
  8
DEFPOINTS
 62
     0
100
AcDbPoint
 10
229.6840110458425
 20
1214.602011473822
 30
0.0
  0
ENDBLK
  5
3605
330
35FA
100
AcDbEntity
  8
0
100
AcDbBlockEnd
  0
BLOCK
  5
3623
330
3619
100
AcDbEntity
  8
0
100
AcDbBlockBegin
  2
*D5
 70
     1
 10
0.0
 20
0.0
 30
0.0
  3
*D5
  1

  0
LINE
  5
3ECD
330
3619
100
AcDbEntity
  8
SUNPOU
 62
    70
370
    -2
100
AcDbLine
 10
399.3421928199834
 20
1214.602011473822
 30
0.0
 11
229.6840110458425
 21
1214.602011473822
 31
0.0
  0
LINE
  5
3ECE
330
3619
100
AcDbEntity
  8
SUNPOU
 62
    70
370
    -2
100
AcDbLine
 10
399.3421928199829
 20
1424.602011473822
 30
0.0
 11
229.6840110458425
 21
1424.602011473822
 31
0.0
  0
LINE
  5
3ECF
330
3619
100
AcDbEntity
  8
SUNPOU
 62
    60
370
    -2
100
AcDbLine
 10
229.6840110458425
 20
1220.602011473822
 30
0.0
 11
229.6840110458425
 21
1418.602011473822
 31
0.0
  0
INSERT
  5
3ED0
330
3619
100
AcDbEntity
  8
SUNPOU
 62
    60
370
    -2
100
AcDbBlockReference
  2
_Dot
 10
229.6840110458425
 20
1214.602011473822
 30
0.0
 41
6.0
 42
6.0
 43
6.0
 50
270.0
  0
INSERT
  5
3ED1
330
3619
100
AcDbEntity
  8
SUNPOU
 62
    60
370
    -2
100
AcDbBlockReference
  2
_Dot
 10
229.6840110458425
 20
1424.602011473822
 30
0.0
 41
6.0
 42
6.0
 43
6.0
 50
90.0
  0
MTEXT
  5
3ED2
330
3619
100
AcDbEntity
  8
SUNPOU
 62
    60
100
AcDbMText
 10
209.6840110458423
 20
1319.602011473822
 30
0.0
 40
20.0
 41
0.0
 71
     5
 72
     1
  1
\A1;210
  7
SUNPOU
 11
0.0000000000000001
 21
1.0
 31
0.0
 73
     1
 44
1.0
1001
ACAD
1000
MTEXTBEGIN
1070
    73
1070
     1
1070
    44
1040
1.0
1070
    74
1070
     0
1000
MTEXTEND
  0
POINT
  5
3ED3
330
3619
100
AcDbEntity
  8
DEFPOINTS
 62
     0
100
AcDbPoint
 10
405.3421928199834
 20
1214.602011473822
 30
0.0
  0
POINT
  5
3ED4
330
3619
100
AcDbEntity
  8
DEFPOINTS
 62
     0
100
AcDbPoint
 10
405.3421928199829
 20
1424.602011473822
 30
0.0
  0
POINT
  5
3ED5
330
3619
100
AcDbEntity
  8
DEFPOINTS
 62
     0
100
AcDbPoint
 10
229.6840110458425
 20
1424.602011473822
 30
0.0
  0
ENDBLK
  5
3624
330
3619
100
AcDbEntity
  8
0
100
AcDbBlockEnd
  0
BLOCK
  5
3642
330
3638
100
AcDbEntity
  8
0
100
AcDbBlockBegin
  2
*D6
 70
     1
 10
0.0
 20
0.0
 30
0.0
  3
*D6
  1

  0
LINE
  5
3EBB
330
3638
100
AcDbEntity
  8
SUNPOU
 62
    70
370
    -2
100
AcDbLine
 10
399.3421928199832
 20
1424.602011473822
 30
0.0
 11
229.6840110458425
 21
1424.602011473822
 31
0.0
  0
LINE
  5
3EBC
330
3638
100
AcDbEntity
  8
SUNPOU
 62
    70
370
    -2
100
AcDbLine
 10
399.3421928199832
 20
1549.602011473822
 30
0.0
 11
229.6840110458425
 21
1549.602011473822
 31
0.0
  0
LINE
  5
3EBD
330
3638
100
AcDbEntity
  8
SUNPOU
 62
    60
370
    -2
100
AcDbLine
 10
229.6840110458425
 20
1430.602011473822
 30
0.0
 11
229.6840110458425
 21
1543.602011473822
 31
0.0
  0
INSERT
  5
3EBE
330
3638
100
AcDbEntity
  8
SUNPOU
 62
    60
370
    -2
100
AcDbBlockReference
  2
_Dot
 10
229.6840110458425
 20
1424.602011473822
 30
0.0
 41
6.0
 42
6.0
 43
6.0
 50
270.0
  0
INSERT
  5
3EBF
330
3638
100
AcDbEntity
  8
SUNPOU
 62
    60
370
    -2
100
AcDbBlockReference
  2
_Dot
 10
229.6840110458425
 20
1549.602011473822
 30
0.0
 41
6.0
 42
6.0
 43
6.0
 50
90.0
  0
MTEXT
  5
3EC0
330
3638
100
AcDbEntity
  8
SUNPOU
 62
    60
100
AcDbMText
 10
209.6840110458423
 20
1487.102011473822
 30
0.0
 40
20.0
 41
0.0
 71
     5
 72
     1
  1
\A1;125
  7
SUNPOU
 11
0.0000000000000001
 21
1.0
 31
0.0
 73
     1
 44
1.0
1001
ACAD
1000
MTEXTBEGIN
1070
    73
1070
     1
1070
    44
1040
1.0
1070
    74
1070
     0
1000
MTEXTEND
  0
POINT
  5
3EC1
330
3638
100
AcDbEntity
  8
DEFPOINTS
 62
     0
100
AcDbPoint
 10
405.3421928199831
 20
1424.602011473822
 30
0.0
  0
POINT
  5
3EC2
330
3638
100
AcDbEntity
  8
DEFPOINTS
 62
     0
100
AcDbPoint
 10
405.3421928199831
 20
1549.602011473822
 30
0.0
  0
POINT
  5
3EC3
330
3638
100
AcDbEntity
  8
DEFPOINTS
 62
     0
100
AcDbPoint
 10
229.6840110458425
 20
1549.602011473822
 30
0.0
  0
ENDBLK
  5
3643
330
3638
100
AcDbEntity
  8
0
100
AcDbBlockEnd
  0
BLOCK
  5
3661
330
3657
100
AcDbEntity
  8
0
100
AcDbBlockBegin
  2
*D7
 70
     1
 10
0.0
 20
0.0
 30
0.0
  3
*D7
  1

  0
LINE
  5
3E63
330
3657
100
AcDbEntity
  8
SUNPOU
 62
    70
370
    -2
100
AcDbLine
 10
405.3421928199831
 20
1555.602011473822
 30
0.0
 11
405.3421928199831
 21
1691.499450532099
 31
0.0
  0
LINE
  5
3E64
330
3657
100
AcDbEntity
  8
SUNPOU
 62
    70
370
    -2
100
AcDbLine
 10
510.3421928199835
 20
1556.754020641776
 30
0.0
 11
510.3421928199835
 21
1691.499450532099
 31
0.0
  0
LINE
  5
3E65
330
3657
100
AcDbEntity
  8
SUNPOU
 62
    60
370
    -2
100
AcDbLine
 10
411.3421928199831
 20
1691.499450532099
 30
0.0
 11
504.3421928199834
 21
1691.499450532099
 31
0.0
  0
INSERT
  5
3E66
330
3657
100
AcDbEntity
  8
SUNPOU
 62
    60
370
    -2
100
AcDbBlockReference
  2
_Dot
 10
405.3421928199831
 20
1691.499450532099
 30
0.0
 41
6.0
 42
6.0
 43
6.0
 50
180.0
  0
INSERT
  5
3E67
330
3657
100
AcDbEntity
  8
SUNPOU
 62
    60
370
    -2
100
AcDbBlockReference
  2
_Dot
 10
510.3421928199835
 20
1691.499450532099
 30
0.0
 41
6.0
 42
6.0
 43
6.0
  0
MTEXT
  5
3E68
330
3657
100
AcDbEntity
  8
SUNPOU
 62
    60
100
AcDbMText
 10
457.8421928199833
 20
1711.499450532099
 30
0.0
 40
20.0
 41
0.0
 71
     5
 72
     1
  1
\A1;105
  7
SUNPOU
 73
     1
 44
1.0
1001
ACAD
1000
MTEXTBEGIN
1070
    73
1070
     1
1070
    44
1040
1.0
1070
    74
1070
     0
1000
MTEXTEND
  0
POINT
  5
3E69
330
3657
100
AcDbEntity
  8
DEFPOINTS
 62
     0
100
AcDbPoint
 10
405.3421928199831
 20
1549.602011473822
 30
0.0
  0
POINT
  5
3E6A
330
3657
100
AcDbEntity
  8
DEFPOINTS
 62
     0
100
AcDbPoint
 10
510.3421928199835
 20
1550.754020641775
 30
0.0
  0
POINT
  5
3E6B
330
3657
100
AcDbEntity
  8
DEFPOINTS
 62
     0
100
AcDbPoint
 10
510.3421928199835
 20
1691.499450532099
 30
0.0
  0
ENDBLK
  5
3662
330
3657
100
AcDbEntity
  8
0
100
AcDbBlockEnd
  0
ENDSEC
  0
SECTION
  2
ENTITIES
  0
LINE
  5
1F
330
2
100
AcDbEntity
  8
WAKU
100
AcDbLine
 10
0.0
 20
70.0
 30
0.0
 11
870.0669056311253
 21
70.0
 31
0.0
  0
LINE
  5
20
330
2
100
AcDbEntity
  8
WAKU
100
AcDbLine
 10
0.0
 20
0.0
 30
0.0
 11
870.0669056311253
 21
0.0
 31
0.0
  0
TEXT
  5
21
330
2
100
AcDbEntity
  8
HOJO
100
AcDbText
 10
48.26983000000012
 20
11.83313000000009
 30
0.0
 40
45.0
  1
1056-120
  7
SUNPOU
100
AcDbText
  0
TEXT
  5
2E7F
330
2
100
AcDbEntity
  8
HOJO
100
AcDbText
 10
470.2016363591537
 20
16.14254471732295
 30
0.0
 40
35.0
  1
105x105  1200
  7
SUNPOU
100
AcDbText
  0
DIMENSION
  5
32A1
330
2
100
AcDbEntity
  8
SUNPOU
100
AcDbDimension
  2
*D1
 10
229.6840110458426
 20
649.6020114738219
 30
0.0
 11
209.6840110458425
 21
499.6020114738219
 31
0.0
 70
    32
 71
     5
 42
300.0
  3
STANDARD$0
100
AcDbAlignedDimension
 13
405.3421928199839
 23
349.6020114738219
 33
0.0
 14
405.3421928199843
 24
649.6020114738217
 34
0.0
 50
90.0
100
AcDbRotatedDimension
1001
ACAD
1000
DSTYLE
1002
{
1070
    41
1040
3.0
1070
    42
1040
3.0
1070
    44
1040
0.0
1070
    77
1070
     1
1070
   140
1040
10.0
1070
   146
1040
0.064286
1070
   147
1040
5.0
1070
   176
1070
    60
1070
   177
1070
    70
1070
   178
1070
    60
1070
   271
1070
     0
1070
   272
1070
     0
1070
   340
1005
1C
1070
   342
1005
109
1002
}
  0
LINE
  5
32A2
102
{ACAD_REACTORS
330
3EDD
102
}
330
2
100
AcDbEntity
  8
KIJUN
100
AcDbLine
 10
405.3421928199839
 20
349.6020114738219
 30
0.0
 11
405.3421928199837
 21
649.6020114738217
 31
0.0
  0
DIMENSION
  5
32D1
330
2
100
AcDbEntity
  8
SUNPOU
100
AcDbDimension
  2
*D2
 10
510.3421928199825
 20
170.6391333396622
 30
0.0
 11
457.8421928199826
 21
190.6391333396621
 31
0.0
 70
    32
 71
     5
 42
104.9999999999996
  3
STANDARD$0
100
AcDbAlignedDimension
 13
405.3421928199829
 23
349.6020114738217
 33
0.0
 14
510.3421928199825
 24
349.6020114738217
 34
0.0
100
AcDbRotatedDimension
1001
ACAD
1000
DSTYLE
1002
{
1070
    41
1040
3.0
1070
    42
1040
3.0
1070
    44
1040
0.0
1070
    77
1070
     1
1070
   140
1040
10.0
1070
   146
1040
0.064286
1070
   147
1040
5.0
1070
   176
1070
    60
1070
   177
1070
    70
1070
   178
1070
    60
1070
   271
1070
     0
1070
   272
1070
     0
1070
   340
1005
1C
1070
   342
1005
109
1002
}
  0
LINE
  5
3352
102
{ACAD_REACTORS
330
3EDD
102
}
330
2
100
AcDbEntity
  8
KIJUN
100
AcDbLine
 10
510.3421928199841
 20
349.6020114738212
 30
0.0
 11
510.3421928199836
 21
649.6020114738212
 31
0.0
  0
LINE
  5
3361
102
{ACAD_REACTORS
330
3EDD
102
}
330
2
100
AcDbEntity
  8
KIJUN
100
AcDbLine
 10
405.342192819983
 20
1214.602011473822
 30
0.0
 11
510.3421928199834
 21
1214.602011473821
 31
0.0
  0
ARC
  5
34A5
102
{ACAD_REACTORS
330
3EDD
102
}
330
2
100
AcDbEntity
  8
KIJUN
100
AcDbCircle
 10
515.8181963281929
 20
1220.349144579911
 30
0.0
 40
21.22154954972303
100
AcDbArc
 50
104.9537800461133
 51
163.7887990198054
  0
ARC
  5
34A6
102
{ACAD_REACTORS
330
3EDD
102
}
330
2
100
AcDbEntity
  8
KIJUN
100
AcDbCircle
 10
457.8421928199866
 20
1280.995591450438
 30
0.0
 40
66.39357997661564
100
AcDbArc
 50
235.5078494593299
 51
304.4921505406656
  0
ARC
  5
34B1
102
{ACAD_REACTORS
330
3EDD
102
}
330
2
100
AcDbEntity
  8
KIJUN
100
AcDbCircle
 10
516.537719839496
 20
1422.196014689398
 30
0.0
 40
24.63576758280396
100
AcDbArc
 50
197.6375181077452
 51
255.4345933315228
  0
ARC
  5
34B2
102
{ACAD_REACTORS
330
3EDD
102
}
330
2
100
AcDbEntity
  8
KIJUN
100
AcDbCircle
 10
457.8421928199841
 20
1356.838289588924
 30
0.0
 40
67.76372188489815
100
AcDbArc
 50
58.68686046284293
 51
121.3131395371567
  0
LINE
  5
34C5
102
{ACAD_REACTORS
330
3EDD
102
}
330
2
100
AcDbEntity
  8
KIJUN
100
AcDbLine
 10
502.842192819984
 20
1454.602011473822
 30
0.0
 11
497.6460369234639
 21
1458.053375316827
 31
0.0
  0
ARC
  5
34CA
102
{ACAD_REACTORS
330
3EDD
102
}
330
2
100
AcDbEntity
  8
KIJUN
100
AcDbCircle
 10
495.1704562854946
 20
1437.102011473822
 30
0.0
 40
14.66647679078411
100
AcDbArc
 50
301.5390605027699
 51
58.46093949723242
  0
LINE
  5
34F8
102
{ACAD_REACTORS
330
3EDD
102
}
330
2
100
AcDbEntity
  8
KIJUN
100
AcDbLine
 10
442.7439123887549
 20
1464.602011473822
 30
0.0
 11
472.9404732512132
 21
1464.602011473822
 31
0.0
  0
ARC
  5
34FC
102
{ACAD_REACTORS
330
3EDD
102
}
330
2
100
AcDbEntity
  8
KIJUN
100
AcDbCircle
 10
399.8661893117755
 20
1220.349144579911
 30
0.0
 40
21.22154954972302
100
AcDbArc
 50
16.21120098019456
 51
75.04621995388593
  0
ARC
  5
3503
102
{ACAD_REACTORS
330
3EDD
102
}
330
2
100
AcDbEntity
  8
KIJUN
100
AcDbCircle
 10
508.0046436594402
 20
1159.717675091914
 30
0.0
 40
11.64800008840195
100
AcDbArc
 50
121.9417324213629
 51
222.2977069271232
  0
ARC
  5
350D
102
{ACAD_REACTORS
330
3EDD
102
}
330
2
100
AcDbEntity
  8
KIJUN
100
AcDbCircle
 10
492.1426943447126
 20
1204.206315689062
 30
0.0
 40
17.19728901086476
100
AcDbArc
 50
312.8679213291864
 51
37.19259721458945
  0
LINE
  5
3581
102
{ACAD_REACTORS
330
3EDD
102
}
330
2
100
AcDbEntity
  8
KIJUN
100
AcDbLine
 10
405.3421928199837
 20
649.6020114738217
 30
0.0
 11
510.3421928199836
 21
649.6020114738212
 31
0.0
  0
ARC
  5
3586
102
{ACAD_REACTORS
330
3EDD
102
}
330
2
100
AcDbEntity
  8
KIJUN
100
AcDbCircle
 10
515.8181963281929
 20
643.8548783677332
 30
0.0
 40
21.22154954972303
100
AcDbArc
 50
196.2112009801894
 51
255.046219953887
  0
ARC
  5
3587
102
{ACAD_REACTORS
330
3EDD
102
}
330
2
100
AcDbEntity
  8
KIJUN
100
AcDbCircle
 10
457.8421928199867
 20
583.2084314972064
 30
0.0
 40
66.39357997661564
100
AcDbArc
 50
55.50784945933174
 51
124.4921505406711
  0
ARC
  5
3588
102
{ACAD_REACTORS
330
3EDD
102
}
330
2
100
AcDbEntity
  8
KIJUN
100
AcDbCircle
 10
399.8661893117756
 20
643.8548783677332
 30
0.0
 40
21.22154954972302
100
AcDbArc
 50
284.9537800461141
 51
343.7887990198106
  0
LINE
  5
35C6
102
{ACAD_REACTORS
330
3EDD
102
}
330
2
100
AcDbEntity
  8
KIJUN
100
AcDbLine
 10
510.3421928199836
 20
1214.602011473822
 30
0.0
 11
510.3421928199833
 21
1424.602011473822
 31
0.0
  0
LINE
  5
35C7
102
{ACAD_REACTORS
330
3EDD
102
}
330
2
100
AcDbEntity
  8
KIJUN
100
AcDbLine
 10
405.3421928199834
 20
1214.602011473822
 30
0.0
 11
405.3421928199831
 21
1424.602011473822
 31
0.0
  0
DIMENSION
  5
35C8
330
2
100
AcDbEntity
  8
SUNPOU
100
AcDbDimension
  2
*D3
 10
98.4340110458428
 20
1549.602011473822
 30
0.0
 11
78.43401104584251
 21
949.6020114738218
 31
0.0
 70
    32
 71
     5
 42
1200.0
  3
STANDARD$0
100
AcDbAlignedDimension
 13
405.3421928199839
 23
349.6020114738219
 33
0.0
 14
405.342192819984
 24
1549.602011473822
 34
0.0
 50
90.0
100
AcDbRotatedDimension
1001
ACAD
1000
DSTYLE
1002
{
1070
    41
1040
3.0
1070
    42
1040
3.0
1070
    44
1040
0.0
1070
    77
1070
     1
1070
   140
1040
10.0
1070
   146
1040
0.064286
1070
   147
1040
5.0
1070
   176
1070
    60
1070
   177
1070
    70
1070
   178
1070
    60
1070
   271
1070
     6
1070
   272
1070
     0
1070
   340
1005
1C
1070
   342
1005
109
1002
}
  0
DIMENSION
  5
35F9
330
2
100
AcDbEntity
  8
SUNPOU
100
AcDbDimension
  2
*D4
 10
229.6840110458425
 20
1214.602011473822
 30
0.0
 11
209.6840110458424
 21
932.1020114738221
 31
0.0
 70
    32
 71
     5
 42
565.0000000000004
  3
STANDARD$0
100
AcDbAlignedDimension
 13
405.3421928199839
 23
649.6020114738217
 33
0.0
 14
405.3421928199834
 24
1214.602011473822
 34
0.0
 50
90.0
100
AcDbRotatedDimension
1001
ACAD
1000
DSTYLE
1002
{
1070
    41
1040
3.0
1070
    42
1040
3.0
1070
    44
1040
0.0
1070
    77
1070
     1
1070
   140
1040
10.0
1070
   146
1040
0.064286
1070
   147
1040
5.0
1070
   176
1070
    60
1070
   177
1070
    70
1070
   178
1070
    60
1070
   271
1070
     0
1070
   272
1070
     0
1070
   340
1005
1C
1070
   342
1005
109
1002
}
  0
DIMENSION
  5
3618
330
2
100
AcDbEntity
  8
SUNPOU
100
AcDbDimension
  2
*D5
 10
229.6840110458425
 20
1424.602011473822
 30
0.0
 11
209.6840110458423
 21
1319.602011473822
 31
0.0
 70
    32
 71
     5
 42
210.0
  3
STANDARD$0
100
AcDbAlignedDimension
 13
405.3421928199834
 23
1214.602011473822
 33
0.0
 14
405.3421928199829
 24
1424.602011473822
 34
0.0
 50
90.0
100
AcDbRotatedDimension
1001
ACAD
1000
DSTYLE
1002
{
1070
    41
1040
3.0
1070
    42
1040
3.0
1070
    44
1040
0.0
1070
    77
1070
     1
1070
   140
1040
10.0
1070
   146
1040
0.064286
1070
   147
1040
5.0
1070
   176
1070
    60
1070
   177
1070
    70
1070
   178
1070
    60
1070
   271
1070
     0
1070
   272
1070
     0
1070
   340
1005
1C
1070
   342
1005
109
1002
}
  0
DIMENSION
  5
3637
330
2
100
AcDbEntity
  8
SUNPOU
100
AcDbDimension
  2
*D6
 10
229.6840110458425
 20
1549.602011473822
 30
0.0
 11
209.6840110458423
 21
1487.102011473822
 31
0.0
 70
    32
 71
     5
 42
125.0
  3
STANDARD$0
100
AcDbAlignedDimension
 13
405.3421928199831
 23
1424.602011473822
 33
0.0
 14
405.3421928199831
 24
1549.602011473822
 34
0.0
 50
90.0
100
AcDbRotatedDimension
1001
ACAD
1000
DSTYLE
1002
{
1070
    41
1040
3.0
1070
    42
1040
3.0
1070
    44
1040
0.0
1070
    77
1070
     1
1070
   140
1040
10.0
1070
   146
1040
0.064286
1070
   147
1040
5.0
1070
   176
1070
    60
1070
   177
1070
    70
1070
   178
1070
    60
1070
   271
1070
     0
1070
   272
1070
     0
1070
   340
1005
1C
1070
   342
1005
109
1002
}
  0
DIMENSION
  5
3656
330
2
100
AcDbEntity
  8
SUNPOU
100
AcDbDimension
  2
*D7
 10
510.3421928199835
 20
1691.499450532099
 30
0.0
 11
457.8421928199833
 21
1711.499450532099
 31
0.0
 70
    32
 71
     5
 42
105.0000000000003
  3
STANDARD$0
100
AcDbAlignedDimension
 13
405.3421928199831
 23
1549.602011473822
 33
0.0
 14
510.3421928199835
 24
1550.754020641775
 34
0.0
100
AcDbRotatedDimension
1001
ACAD
1000
DSTYLE
1002
{
1070
    41
1040
3.0
1070
    42
1040
3.0
1070
    44
1040
0.0
1070
    77
1070
     1
1070
   140
1040
10.0
1070
   146
1040
0.064286
1070
   147
1040
5.0
1070
   176
1070
    60
1070
   177
1070
    70
1070
   178
1070
    60
1070
   271
1070
     0
1070
   272
1070
     0
1070
   340
1005
1C
1070
   342
1005
109
1002
}
  0
ARC
  5
3877
102
{ACAD_REACTORS
330
3EDD
102
}
330
2
100
AcDbEntity
  8
KIJUN
100
AcDbCircle
 10
487.3341080037879
 20
660.6613646885275
 30
0.0
 40
21.99128422596877
100
AcDbArc
 50
329.8081431343935
 51
39.33969938539855
  0
ARC
  5
387D
102
{ACAD_REACTORS
330
3EDD
102
}
330
2
100
AcDbEntity
  8
KIJUN
100
AcDbCircle
 10
536.5725129988722
 20
1027.555773740879
 30
0.0
 40
40.21549973294342
100
AcDbArc
 50
131.6575551820112
 51
186.4047110414159
  0
LINE
  5
3978
102
{ACAD_REACTORS
330
3EDD
102
}
330
2
100
AcDbEntity
  8
KIJUN
100
AcDbLine
 10
405.3421928199831
 20
1424.602011473822
 30
0.0
 11
510.3421928199833
 21
1424.602011473822
 31
0.0
  0
ARC
  5
3980
102
{ACAD_REACTORS
330
3EDD
102
}
330
2
100
AcDbEntity
  8
KIJUN
100
AcDbCircle
 10
399.1466658004721
 20
1422.196014689398
 30
0.0
 40
24.63576758280396
100
AcDbArc
 50
284.5654066684789
 51
342.362481892253
  0
ARC
  5
39C9
102
{ACAD_REACTORS
330
3EDD
102
}
330
2
100
AcDbEntity
  8
KIJUN
100
AcDbCircle
 10
493.9483386194027
 20
1184.148347262123
 30
0.0
 40
12.38731048787582
100
AcDbArc
 50
309.5873068649428
 51
36.99301951955579
  0
ARC
  5
39F0
102
{ACAD_REACTORS
330
3EDD
102
}
330
2
100
AcDbEntity
  8
KIJUN
100
AcDbCircle
 10
494.8645311203387
 20
1090.102011473823
 30
0.0
 40
11.49826513414444
100
AcDbArc
 50
304.2884784096703
 51
55.71152159030431
  0
ARC
  5
39F2
102
{ACAD_REACTORS
330
3EDD
102
}
330
2
100
AcDbEntity
  8
KIJUN
100
AcDbCircle
 10
459.2877687013912
 20
1051.989506908252
 30
0.0
 40
50.86501750182633
100
AcDbArc
 50
6.334981783551416
 51
34.23013639427977
  0
ARC
  5
39F4
102
{ACAD_REACTORS
330
3EDD
102
}
330
2
100
AcDbEntity
  8
KIJUN
100
AcDbCircle
 10
466.6410919968478
 20
1124.480424358793
 30
0.0
 40
42.69779650066912
100
AcDbArc
 50
324.3619593104144
 51
39.9172486367776
  0
ARC
  5
3A00
102
{ACAD_REACTORS
330
3EDD
102
}
330
2
100
AcDbEntity
  8
KIJUN
100
AcDbCircle
 10
494.457478280317
 20
682.8407852621824
 30
0.0
 40
12.86798255619313
100
AcDbArc
 50
320.1892581276987
 51
49.33802525375155
  0
ARC
  5
3A01
102
{ACAD_REACTORS
330
3EDD
102
}
330
2
100
AcDbEntity
  8
KIJUN
100
AcDbCircle
 10
495.3354155709527
 20
701.96790965808
 30
0.0
 40
12.00298935534209
100
AcDbArc
 50
308.7122113036985
 51
61.02461648836404
  0
ARC
  5
3A05
102
{ACAD_REACTORS
330
3EDD
102
}
330
2
100
AcDbEntity
  8
KIJUN
100
AcDbCircle
 10
502.123442819984
 20
715.6020114738212
 30
0.0
 40
3.281249999999999
100
AcDbArc
 50
158.0972243399162
 51
252.7436662884118
  0
ARC
  5
3A07
102
{ACAD_REACTORS
330
3EDD
102
}
330
2
100
AcDbEntity
  8
KIJUN
100
AcDbCircle
 10
432.7834985047486
 20
755.0834861500366
 30
0.0
 40
76.5423547300643
100
AcDbArc
 50
330.0118550220388
 51
1.853079035217672
  0
LINE
  5
3A0E
102
{ACAD_REACTORS
330
3EDD
102
}
330
2
100
AcDbEntity
  8
KIJUN
100
AcDbLine
 10
429.618912388755
 20
715.6020114738214
 30
0.0
 11
486.0654732512132
 21
715.6020114738214
 31
0.0
  0
ARC
  5
3B02
102
{ACAD_REACTORS
330
3EDD
102
}
330
2
100
AcDbEntity
  8
KIJUN
100
AcDbCircle
 10
457.8421928199841
 20
1498.602011473822
 30
0.0
 40
51.0
100
AcDbArc
 50
319.4803702613778
 51
220.5196297386228
  0
ARC
  5
3B40
102
{ACAD_REACTORS
330
3EDD
102
}
330
2
100
AcDbEntity
  8
KIJUN
100
AcDbCircle
 10
-2168.992639939919
 20
762.7324586232966
 30
0.0
 40
2678.28346136708
100
AcDbArc
 50
359.8893172725278
 51
5.578130728043176
  0
LINE
  5
3C82
102
{ACAD_REACTORS
330
3EDD
102
}
330
2
100
AcDbEntity
  8
KIJUN
100
AcDbLine
 10
405.3421928199839
 20
349.6020114738219
 30
0.0
 11
510.3421928199841
 21
349.6020114738212
 31
0.0
  0
LINE
  5
3DF9
102
{ACAD_REACTORS
330
3EDD
102
}
330
2
100
AcDbEntity
  8
KIJUN
100
AcDbLine
 10
412.8421928199839
 20
1449.602011473822
 30
0.0
 11
502.842192819984
 21
1449.602011473822
 31
0.0
  0
LINE
  5
3DFA
102
{ACAD_REACTORS
330
3EDD
102
}
330
2
100
AcDbEntity
  8
KIJUN
100
AcDbLine
 10
412.842192819984
 20
1454.602011473822
 30
0.0
 11
502.842192819984
 21
1454.602011473822
 31
0.0
  0
LINE
  5
3DFB
102
{ACAD_REACTORS
330
3EDD
102
}
330
2
100
AcDbEntity
  8
KIJUN
100
AcDbLine
 10
502.842192819984
 20
1449.602011473822
 30
0.0
 11
502.842192819984
 21
1454.602011473822
 31
0.0
  0
ARC
  5
3E01
102
{ACAD_REACTORS
330
3EDD
102
}
330
2
100
AcDbEntity
  8
KIJUN
100
AcDbCircle
 10
420.5139293544735
 20
1437.102011473822
 30
0.0
 40
14.66647679078411
100
AcDbArc
 50
121.5390605027678
 51
238.4609394972316
  0
LINE
  5
3E02
102
{ACAD_REACTORS
330
3EDD
102
}
330
2
100
AcDbEntity
  8
KIJUN
100
AcDbLine
 10
412.842192819984
 20
1454.602011473822
 30
0.0
 11
418.0383487165042
 21
1458.053375316827
 31
0.0
  0
LINE
  5
3E04
102
{ACAD_REACTORS
330
3EDD
102
}
330
2
100
AcDbEntity
  8
KIJUN
100
AcDbLine
 10
412.8421928199839
 20
1449.602011473822
 30
0.0
 11
412.842192819984
 21
1454.602011473822
 31
0.0
  0
LINE
  5
3E1D
102
{ACAD_REACTORS
330
3EDD
102
}
330
2
100
AcDbEntity
  8
KIJUN
100
AcDbLine
 10
411.8421928199894
 20
1191.602011473822
 30
0.0
 11
503.8421928199816
 21
1191.602011473821
 31
0.0
  0
LINE
  5
3E1E
102
{ACAD_REACTORS
330
3EDD
102
}
330
2
100
AcDbEntity
  8
KIJUN
100
AcDbLine
 10
413.8421928199839
 20
1174.602011473822
 30
0.0
 11
501.842192819984
 21
1174.602011473822
 31
0.0
  0
LINE
  5
3E1F
102
{ACAD_REACTORS
330
3EDD
102
}
330
2
100
AcDbEntity
  8
KIJUN
100
AcDbLine
 10
413.842192819984
 20
1169.602011473822
 30
0.0
 11
501.842192819984
 21
1169.602011473821
 31
0.0
  0
LINE
  5
3E20
102
{ACAD_REACTORS
330
3EDD
102
}
330
2
100
AcDbEntity
  8
KIJUN
100
AcDbLine
 10
501.842192819984
 20
1169.602011473821
 30
0.0
 11
501.842192819984
 21
1174.602011473822
 31
0.0
  0
LINE
  5
3E25
102
{ACAD_REACTORS
330
3EDD
102
}
330
2
100
AcDbEntity
  8
KIJUN
100
AcDbLine
 10
414.3421928199838
 20
1099.602011473822
 30
0.0
 11
501.3421928199843
 21
1099.602011473822
 31
0.0
  0
LINE
  5
3E26
102
{ACAD_REACTORS
330
3EDD
102
}
330
2
100
AcDbEntity
  8
KIJUN
100
AcDbLine
 10
405.8421928199846
 20
1057.602011473822
 30
0.0
 11
509.8421928199835
 21
1057.602011473822
 31
0.0
  0
LINE
  5
3E28
102
{ACAD_REACTORS
330
3EDD
102
}
330
2
100
AcDbEntity
  8
KIJUN
100
AcDbLine
 10
414.3421928199877
 20
1080.602011473822
 30
0.0
 11
501.3421928199802
 21
1080.602011473822
 31
0.0
  0
LINE
  5
3E30
102
{ACAD_REACTORS
330
3EDD
102
}
330
2
100
AcDbEntity
  8
KIJUN
100
AcDbLine
 10
411.3421928199805
 20
674.6020114738217
 30
0.0
 11
504.3421928199834
 21
674.6020114738213
 31
0.0
  0
LINE
  5
3E31
102
{ACAD_REACTORS
330
3EDD
102
}
330
2
100
AcDbEntity
  8
KIJUN
100
AcDbLine
 10
412.8421928199852
 20
692.6020114738218
 30
0.0
 11
502.8421928199799
 21
692.6020114738213
 31
0.0
  0
ARC
  5
3E41
102
{ACAD_REACTORS
330
3EDD
102
}
330
2
100
AcDbEntity
  8
KIJUN
100
AcDbCircle
 10
407.6797419805278
 20
1159.717675091914
 30
0.0
 40
11.64800008840195
100
AcDbArc
 50
317.7022930728777
 51
58.05826757863942
  0
ARC
  5
3E42
102
{ACAD_REACTORS
330
3EDD
102
}
330
2
100
AcDbEntity
  8
KIJUN
100
AcDbCircle
 10
423.5416912952554
 20
1204.206315689062
 30
0.0
 40
17.19728901086476
100
AcDbArc
 50
142.8074027854115
 51
227.1320786708142
  0
ARC
  5
3E43
102
{ACAD_REACTORS
330
3EDD
102
}
330
2
100
AcDbEntity
  8
KIJUN
100
AcDbCircle
 10
428.3502776361802
 20
660.6613646885275
 30
0.0
 40
21.99128422596877
100
AcDbArc
 50
140.6603006146049
 51
210.1918568656078
  0
ARC
  5
3E44
102
{ACAD_REACTORS
330
3EDD
102
}
330
2
100
AcDbEntity
  8
KIJUN
100
AcDbCircle
 10
379.1118726410959
 20
1027.555773740879
 30
0.0
 40
40.21549973294342
100
AcDbArc
 50
353.5952889585843
 51
48.34244481798964
  0
ARC
  5
3E45
102
{ACAD_REACTORS
330
3EDD
102
}
330
2
100
AcDbEntity
  8
KIJUN
100
AcDbCircle
 10
421.7360470205653
 20
1184.148347262123
 30
0.0
 40
12.38731048787582
100
AcDbArc
 50
143.0069804804246
 51
230.4126931350554
  0
ARC
  5
3E46
102
{ACAD_REACTORS
330
3EDD
102
}
330
2
100
AcDbEntity
  8
KIJUN
100
AcDbCircle
 10
420.8198545196293
 20
1090.102011473823
 30
0.0
 40
11.49826513414444
100
AcDbArc
 50
124.2884784096945
 51
235.7115215903286
  0
ARC
  5
3E47
102
{ACAD_REACTORS
330
3EDD
102
}
330
2
100
AcDbEntity
  8
KIJUN
100
AcDbCircle
 10
456.3966169385769
 20
1051.989506908252
 30
0.0
 40
50.86501750182633
100
AcDbArc
 50
145.769863605721
 51
173.6650182164478
  0
ARC
  5
3E48
102
{ACAD_REACTORS
330
3EDD
102
}
330
2
100
AcDbEntity
  8
KIJUN
100
AcDbCircle
 10
449.0432936431203
 20
1124.480424358793
 30
0.0
 40
42.69779650066912
100
AcDbArc
 50
140.0827513632235
 51
215.638040689584
  0
ARC
  5
3E49
102
{ACAD_REACTORS
330
3EDD
102
}
330
2
100
AcDbEntity
  8
KIJUN
100
AcDbCircle
 10
421.226907359651
 20
682.8407852621824
 30
0.0
 40
12.86798255619313
100
AcDbArc
 50
130.6619747462427
 51
219.8107418722993
  0
ARC
  5
3E4A
102
{ACAD_REACTORS
330
3EDD
102
}
330
2
100
AcDbEntity
  8
KIJUN
100
AcDbCircle
 10
420.3489700690153
 20
701.96790965808
 30
0.0
 40
12.00298935534209
100
AcDbArc
 50
118.9753835116383
 51
231.2877886963005
  0
ARC
  5
3E4B
102
{ACAD_REACTORS
330
3EDD
102
}
330
2
100
AcDbEntity
  8
KIJUN
100
AcDbCircle
 10
413.560942819984
 20
715.6020114738212
 30
0.0
 40
3.281249999999999
100
AcDbArc
 50
287.2563337115855
 51
21.90277566008305
  0
ARC
  5
3E4C
102
{ACAD_REACTORS
330
3EDD
102
}
330
2
100
AcDbEntity
  8
KIJUN
100
AcDbCircle
 10
482.9008871352194
 20
755.0834861500366
 30
0.0
 40
76.5423547300643
100
AcDbArc
 50
178.1469209647822
 51
209.9881449779608
  0
ARC
  5
3E4D
102
{ACAD_REACTORS
330
3EDD
102
}
330
2
100
AcDbEntity
  8
KIJUN
100
AcDbCircle
 10
3082.068266237497
 20
762.8570235509529
 30
0.0
 40
2675.674950662851
100
AcDbArc
 50
174.4190939812834
 51
180.1134580181456
  0
LINE
  5
3E4E
102
{ACAD_REACTORS
330
3EDD
102
}
330
2
100
AcDbEntity
  8
KIJUN
100
AcDbLine
 10
413.842192819984
 20
1169.602011473822
 30
0.0
 11
413.8421928199839
 21
1174.602011473822
 31
0.0
  0
ARC
  5
3E95
102
{ACAD_REACTORS
330
3EDD
102
}
330
2
100
AcDbEntity
  8
KIJUN
100
AcDbCircle
 10
415.2719214255833
 20
1462.218333905342
 30
0.0
 40
5.0
100
AcDbArc
 50
303.5927024159382
 51
40.51962973862288
  0
ARC
  5
3E96
102
{ACAD_REACTORS
330
3EDD
102
}
330
2
100
AcDbEntity
  8
KIJUN
100
AcDbCircle
 10
500.412464214385
 20
1462.218333905342
 30
0.0
 40
5.0
100
AcDbArc
 50
139.4803702613767
 51
236.4072975840611
  0
ENDSEC
  0
SECTION
  2
OBJECTS
  0
DICTIONARY
  5
1A
330
0
100
AcDbDictionary
281
     1
  3
ACAD_COLOR
350
2E6A
  3
ACAD_GROUP
350
18
  3
ACAD_LAYOUT
350
58
  3
ACAD_MATERIAL
350
2E69
  3
ACAD_MLINESTYLE
350
19
  3
ACAD_PLOTSETTINGS
350
59
  3
ACAD_PLOTSTYLENAME
350
56
  3
ACAD_TABLESTYLE
350
2E6B
  3
ACDBHEADERROUNDTRIPXREC
350
3EE5
  3
AcDbVariableDictionary
350
2E7D
  0
DICTIONARY
  5
34C7
330
2
100
AcDbDictionary
280
     1
281
     1
  3
ACAD_SORTENTS
360
34C8
  0
DICTIONARY
  5
2E6A
102
{ACAD_REACTORS
330
1A
102
}
330
1A
100
AcDbDictionary
281
     1
  0
DICTIONARY
  5
18
102
{ACAD_REACTORS
330
1A
102
}
330
1A
100
AcDbDictionary
281
     1
  3
*A1
350
3A0
  3
*A10
350
21DE
  3
*A11
350
DE1
  3
*A12
350
2E65
  3
*A13
350
21DD
  3
*A14
350
1132
  3
*A15
350
25D5
  3
*A16
350
1CB2
  3
*A17
350
2A6A
  3
*A18
350
2A6B
  3
*A19
350
171D
  3
*A2
350
6E6
  3
*A20
350
9D9
  3
*A21
350
171C
  3
*A22
350
1CB1
  3
*A23
350
3EDD
  3
*A3
350
3A1
  3
*A4
350
1131
  3
*A5
350
DE0
  3
*A6
350
6E7
  3
*A8
350
25D6
  3
*A9
350
9DA
  0
DICTIONARY
  5
58
102
{ACAD_REACTORS
330
1A
102
}
330
1A
100
AcDbDictionary
281
     1
  3
Model
350
5A
  3
ﾚｲｱｳﾄ1
350
5B
  0
DICTIONARY
  5
2E69
102
{ACAD_REACTORS
330
1A
102
}
330
1A
100
AcDbDictionary
281
     1
  0
DICTIONARY
  5
19
102
{ACAD_REACTORS
330
1A
102
}
330
1A
100
AcDbDictionary
281
     1
  3
STANDARD
350
1D
  0
DICTIONARY
  5
59
102
{ACAD_REACTORS
330
1A
102
}
330
1A
100
AcDbDictionary
281
     1
  0
ACDBDICTIONARYWDFLT
  5
56
102
{ACAD_REACTORS
330
1A
102
}
330
1A
100
AcDbDictionary
281
     1
  3
Normal
350
57
100
AcDbDictionaryWithDefault
340
57
  0
DICTIONARY
  5
2E6B
102
{ACAD_REACTORS
330
1A
102
}
330
1A
100
AcDbDictionary
281
     1
  3
Standard
350
2E6C
  0
DICTIONARY
  5
3EE5
102
{ACAD_REACTORS
330
1A
102
}
330
1A
100
AcDbDictionary
281
     1
  0
DICTIONARY
  5
2E7D
102
{ACAD_REACTORS
330
1A
102
}
330
1A
100
AcDbDictionary
281
     1
  3
CTABLESTYLE
350
2E7E
  3
DIMASSOC
350
303E
  3
PROJECTNAME
350
303F
  0
SORTENTSTABLE
  5
34C8
102
{ACAD_REACTORS
330
34C7
102
}
330
34C7
100
AcDbSortentsTable
330
2
331
3E4C
  5
3E92
331
3DF9
  5
3E03
331
3E26
  5
3E42
331
3A07
  5
3A07
331
39C9
  5
39C9
331
3978
  5
3978
331
3352
  5
335D
331
3E49
  5
3E4E
331
3C82
  5
3E02
331
21
  5
21
331
3E30
  5
3E44
331
3503
  5
3505
331
3E45
  5
3E4A
331
387D
  5
387D
331
34CA
  5
34CC
331
3E20
  5
3E31
331
3A01
  5
3A01
331
3637
  5
3637
331
34B2
  5
34C5
331
3A0E
  5
3A0E
331
39F0
  5
39F0
331
3E42
  5
3E47
331
3E1D
  5
3E26
331
34FC
  5
3501
331
34A6
  5
34B2
331
3361
  5
33ED
331
350D
  5
354A
331
3980
  5
3980
331
3877
  5
3877
331
35C8
  5
35C8
331
3B40
  5
3E01
331
3656
  5
3656
331
3587
  5
3589
331
3E4D
  5
3E93
331
3DFA
  5
3E04
331
3618
  5
3618
331
3E95
  5
3DF9
331
3E4A
  5
3E90
331
3E04
  5
3E25
331
3A05
  5
3A05
331
3E31
  5
3E45
331
3B02
  5
3B02
331
39F4
  5
39F4
331
3581
  5
3587
331
3E46
  5
3E4B
331
32A1
  5
32A1
331
3E43
  5
3E48
331
3E1E
  5
3E28
331
3E01
  5
3E1E
331
32D1
  5
32D2
331
3588
  5
3596
331
34C5
  5
34CE
331
3DFB
  5
3E1D
331
3E4E
  5
3E94
331
3E28
  5
3E43
331
3E96
  5
3B40
331
35C6
  5
3361
331
3E4B
  5
3E91
331
3E25
  5
3E41
331
35F9
  5
35F9
331
32A2
  5
32A2
331
3E47
  5
3E4C
331
1F
  5
1F
331
3E48
  5
3E4D
331
3E02
  5
3E20
331
3E1F
  5
3E30
331
3E44
  5
3E49
331
39F2
  5
39F2
331
20
  5
20
331
3A00
  5
3A00
331
3E41
  5
3E46
331
2E7F
  5
2E7F
331
34A5
  5
34B1
331
34B1
  5
34C4
331
34F8
  5
34FB
331
3586
  5
3588
331
35C7
  5
32D1
  0
GROUP
  5
3A0
102
{ACAD_REACTORS
330
18
102
}
330
18
100
AcDbGroup
300

 70
     1
 71
     1
  0
GROUP
  5
21DE
102
{ACAD_REACTORS
330
18
102
}
330
18
100
AcDbGroup
300

 70
     1
 71
     1
  0
GROUP
  5
DE1
102
{ACAD_REACTORS
330
18
102
}
330
18
100
AcDbGroup
300

 70
     1
 71
     1
  0
GROUP
  5
2E65
102
{ACAD_REACTORS
330
18
102
}
330
18
100
AcDbGroup
300

 70
     1
 71
     1
  0
GROUP
  5
21DD
102
{ACAD_REACTORS
330
18
102
}
330
18
100
AcDbGroup
300

 70
     1
 71
     1
  0
GROUP
  5
1132
102
{ACAD_REACTORS
330
18
102
}
330
18
100
AcDbGroup
300

 70
     1
 71
     1
  0
GROUP
  5
25D5
102
{ACAD_REACTORS
330
18
102
}
330
18
100
AcDbGroup
300

 70
     1
 71
     1
  0
GROUP
  5
1CB2
102
{ACAD_REACTORS
330
18
102
}
330
18
100
AcDbGroup
300

 70
     1
 71
     1
  0
GROUP
  5
2A6A
102
{ACAD_REACTORS
330
18
102
}
330
18
100
AcDbGroup
300

 70
     1
 71
     1
  0
GROUP
  5
2A6B
102
{ACAD_REACTORS
330
18
102
}
330
18
100
AcDbGroup
300

 70
     1
 71
     1
  0
GROUP
  5
171D
102
{ACAD_REACTORS
330
18
102
}
330
18
100
AcDbGroup
300

 70
     1
 71
     1
  0
GROUP
  5
6E6
102
{ACAD_REACTORS
330
18
102
}
330
18
100
AcDbGroup
300

 70
     1
 71
     1
  0
GROUP
  5
9D9
102
{ACAD_REACTORS
330
18
102
}
330
18
100
AcDbGroup
300

 70
     1
 71
     1
  0
GROUP
  5
171C
102
{ACAD_REACTORS
330
18
102
}
330
18
100
AcDbGroup
300

 70
     1
 71
     1
  0
GROUP
  5
1CB1
102
{ACAD_REACTORS
330
18
102
}
330
18
100
AcDbGroup
300

 70
     1
 71
     1
  0
GROUP
  5
3EDD
102
{ACAD_REACTORS
330
18
102
}
330
18
100
AcDbGroup
300

 70
     1
 71
     1
340
3E4E
340
3E4D
340
3E4C
340
3E4B
340
3E4A
340
3E49
340
3E48
340
3E47
340
3E46
340
3E45
340
3E44
340
3E43
340
3E42
340
3E41
340
3E31
340
3E30
340
3E28
340
3E26
340
3E25
340
3E20
340
3E1F
340
3E1E
340
3E1D
340
3E04
340
3E02
340
3E01
340
3DFB
340
3DFA
340
3DF9
340
3C82
340
3B40
340
3E95
340
3E96
340
3B02
340
3A0E
340
3A07
340
3A05
340
3A01
340
3A00
340
39F4
340
39F2
340
39F0
340
39C9
340
3980
340
3978
340
387D
340
3877
340
3588
340
3587
340
3586
340
3581
340
350D
340
3503
340
34FC
340
34F8
340
34C5
340
34CA
340
34B2
340
34B1
340
34A6
340
34A5
340
3361
340
35C6
340
3352
340
35C7
340
32A2
  0
GROUP
  5
3A1
102
{ACAD_REACTORS
330
18
102
}
330
18
100
AcDbGroup
300

 70
     1
 71
     1
  0
GROUP
  5
1131
102
{ACAD_REACTORS
330
18
102
}
330
18
100
AcDbGroup
300

 70
     1
 71
     1
  0
GROUP
  5
DE0
102
{ACAD_REACTORS
330
18
102
}
330
18
100
AcDbGroup
300

 70
     1
 71
     1
  0
GROUP
  5
6E7
102
{ACAD_REACTORS
330
18
102
}
330
18
100
AcDbGroup
300

 70
     1
 71
     1
  0
GROUP
  5
25D6
102
{ACAD_REACTORS
330
18
102
}
330
18
100
AcDbGroup
300

 70
     1
 71
     1
  0
GROUP
  5
9DA
102
{ACAD_REACTORS
330
18
102
}
330
18
100
AcDbGroup
300

 70
     1
 71
     1
  0
LAYOUT
  5
5A
102
{ACAD_XDICTIONARY
360
3EE6
102
}
102
{ACAD_REACTORS
330
58
102
}
330
58
100
AcDbPlotSettings
  1

  2
なし
  4

  6

 40
0.0
 41
0.0
 42
0.0
 43
0.0
 44
0.0
 45
0.0
 46
0.0
 47
0.0
 48
0.0
 49
0.0
140
0.0
141
0.0
142
1.0
143
1.0
 70
  1712
 72
     0
 73
     0
 74
     0
  7
monochrome.ctb
 75
     0
147
1.0
148
0.0
149
0.0
100
AcDbLayout
  1
Model
 70
     1
 71
     0
 10
0.0
 20
0.0
 11
12.0
 21
9.0
 12
0.0
 22
0.0
 32
0.0
 14
0.0
 24
0.0
 34
0.0
 15
0.0
 25
0.0
 35
0.0
146
0.0
 13
0.0
 23
0.0
 33
0.0
 16
1.0
 26
0.0
 36
0.0
 17
0.0
 27
1.0
 37
0.0
 76
     0
330
2
  0
LAYOUT
  5
5B
102
{ACAD_XDICTIONARY
360
3EE8
102
}
102
{ACAD_REACTORS
330
58
102
}
330
58
100
AcDbPlotSettings
  1

  2
なし
  4

  6

 40
0.0
 41
0.0
 42
0.0
 43
0.0
 44
0.0
 45
0.0
 46
0.0
 47
0.0
 48
0.0
 49
0.0
140
0.0
141
0.0
142
1.0
143
1.0
 70
   688
 72
     0
 73
     0
 74
     5
  7
monochrome.ctb
 75
    16
147
1.0
148
0.0
149
0.0
100
AcDbLayout
  1
ﾚｲｱｳﾄ1
 70
     1
 71
     1
 10
0.0
 20
0.0
 11
12.0
 21
9.0
 12
0.0
 22
0.0
 32
0.0
 14
1.000000000000000E+20
 24
1.000000000000000E+20
 34
1.000000000000000E+20
 15
-1.000000000000000E+20
 25
-1.000000000000000E+20
 35
-1.000000000000000E+20
146
0.0
 13
0.0
 23
0.0
 33
0.0
 16
1.0
 26
0.0
 36
0.0
 17
0.0
 27
1.0
 37
0.0
 76
     0
330
7
  0
MLINESTYLE
  5
1D
102
{ACAD_REACTORS
330
19
102
}
330
19
100
AcDbMlineStyle
  2
STANDARD
 70
     0
  3

 62
   256
 51
90.0
 52
90.0
 71
     2
 49
0.5
 62
   256
  6
BYLAYER
 49
-0.5
 62
   256
  6
BYLAYER
  0
ACDBPLACEHOLDER
  5
57
102
{ACAD_REACTORS
330
56
102
}
330
56
  0
TABLESTYLE
  5
2E6C
102
{ACAD_REACTORS
330
2E6B
102
}
330
2E6B
100
AcDbTableStyle
  3
Standard
 70
     0
 71
     0
 40
0.06
 41
0.06
280
     0
281
     0
  7
STANDARD
140
0.18
170
     2
 62
     0
 63
     7
283
     0
274
    -2
284
     1
 64
     0
275
    -2
285
     1
 65
     0
276
    -2
286
     1
 66
     0
277
    -2
287
     1
 67
     0
278
    -2
288
     1
 68
     0
279
    -2
289
     1
 69
     0
  7
STANDARD
140
0.25
170
     5
 62
     0
 63
     7
283
     0
274
    -2
284
     1
 64
     0
275
    -2
285
     1
 65
     0
276
    -2
286
     1
 66
     0
277
    -2
287
     1
 67
     0
278
    -2
288
     1
 68
     0
279
    -2
289
     1
 69
     0
  7
STANDARD
140
0.18
170
     5
 62
     0
 63
     7
283
     0
274
    -2
284
     1
 64
     0
275
    -2
285
     1
 65
     0
276
    -2
286
     1
 66
     0
277
    -2
287
     1
 67
     0
278
    -2
288
     1
 68
     0
279
    -2
289
     1
 69
     0
  0
DICTIONARYVAR
  5
2E7E
102
{ACAD_REACTORS
330
2E7D
102
}
330
2E7D
100
DictionaryVariables
280
     0
  1
STANDARD
  0
DICTIONARYVAR
  5
303E
102
{ACAD_REACTORS
330
2E7D
102
}
330
2E7D
100
DictionaryVariables
280
     0
  1
1
  0
DICTIONARYVAR
  5
303F
102
{ACAD_REACTORS
330
2E7D
102
}
330
2E7D
100
DictionaryVariables
280
     0
  1

  0
DICTIONARY
  5
3EE6
330
5A
100
AcDbDictionary
280
     1
281
     1
  3
ACAD_XREC_ROUNDTRIP
360
3EE7
  0
DICTIONARY
  5
3EE8
330
5B
100
AcDbDictionary
280
     1
281
     1
  3
ACAD_XREC_ROUNDTRIP
360
3EE9
  0
XRECORD
  5
3EE7
102
{ACAD_REACTORS
330
3EE6
102
}
330
3EE6
100
AcDbXrecord
280
     1
102
SHADEPLOT
 70
     0
102
SHADEPLOTRESLEVEL
 70
     2
102
SHADEPLOTCUSTOMDPI
 70
   300
  0
XRECORD
  5
3EE9
102
{ACAD_REACTORS
330
3EE8
102
}
330
3EE8
100
AcDbXrecord
280
     1
102
SHADEPLOT
 70
     0
102
SHADEPLOTRESLEVEL
 70
     2
102
SHADEPLOTCUSTOMDPI
 70
   300
  0
ENDSEC
  0
EOF
