  0
SECTION
  2
HEADER
  9
$ACADVER
  1
AC1015
  9
$ACADMAINTVER
 70
    20
  9
$DWGCODEPAGE
  3
ANSI_932
  9
$INSBASE
 10
922.019522
 20
-675.4306699999999
 30
0.0
  9
$EXTMIN
 10
-0.057780771301168
 20
-0.0916521207950609
 30
-0.0000000000000058
  9
$EXTMAX
 10
802.4480949999503
 20
1395.934567261477
 30
0.0000000000000104
  9
$LIMMIN
 10
0.0
 20
0.0
  9
$LIMMAX
 10
420.0
 20
297.0
  9
$ORTHOMODE
 70
     1
  9
$REGENMODE
 70
     1
  9
$FILLMODE
 70
     1
  9
$QTEXTMODE
 70
     0
  9
$MIRRTEXT
 70
     1
  9
$LTSCALE
 40
5.0
  9
$ATTMODE
 70
     1
  9
$TEXTSIZE
 40
30.0
  9
$TRACEWID
 40
0.05
  9
$TEXTSTYLE
  7
SUNPOU
  9
$CLAYER
  8
0
  9
$CELTYPE
  6
BYLAYER
  9
$CECOLOR
 62
   256
  9
$CELTSCALE
 40
1.0
  9
$DISPSILH
 70
     0
  9
$DIMSCALE
 40
1.0
  9
$DIMASZ
 40
3.0
  9
$DIMEXO
 40
3.0
  9
$DIMDLI
 40
0.38
  9
$DIMRND
 40
0.0
  9
$DIMDLE
 40
0.0
  9
$DIMEXE
 40
0.0
  9
$DIMTP
 40
0.0
  9
$DIMTM
 40
0.0
  9
$DIMTXT
 40
10.0
  9
$DIMCEN
 40
0.0
  9
$DIMTSZ
 40
0.0
  9
$DIMTOL
 70
     0
  9
$DIMLIM
 70
     0
  9
$DIMTIH
 70
     0
  9
$DIMTOH
 70
     0
  9
$DIMSE1
 70
     0
  9
$DIMSE2
 70
     0
  9
$DIMTAD
 70
     1
  9
$DIMZIN
 70
     0
  9
$DIMBLK
  1
Dot
  9
$DIMASO
 70
     1
  9
$DIMSHO
 70
     1
  9
$DIMPOST
  1

  9
$DIMAPOST
  1

  9
$DIMALT
 70
     0
  9
$DIMALTD
 70
     2
  9
$DIMALTF
 40
25.4
  9
$DIMLFAC
 40
1.0
  9
$DIMTOFL
 70
     0
  9
$DIMTVP
 40
0.0
  9
$DIMTIX
 70
     0
  9
$DIMSOXD
 70
     0
  9
$DIMSAH
 70
     0
  9
$DIMBLK1
  1

  9
$DIMBLK2
  1

  9
$DIMSTYLE
  2
STANDARD
  9
$DIMCLRD
 70
    60
  9
$DIMCLRE
 70
    70
  9
$DIMCLRT
 70
    60
  9
$DIMTFAC
 40
0.064286
  9
$DIMGAP
 40
5.0
  9
$DIMJUST
 70
     0
  9
$DIMSD1
 70
     0
  9
$DIMSD2
 70
     0
  9
$DIMTOLJ
 70
     1
  9
$DIMTZIN
 70
     0
  9
$DIMALTZ
 70
     0
  9
$DIMALTTZ
 70
     0
  9
$DIMUPT
 70
     0
  9
$DIMDEC
 70
     0
  9
$DIMTDEC
 70
     0
  9
$DIMALTU
 70
     2
  9
$DIMALTTD
 70
     2
  9
$DIMTXSTY
  7
SUNPOU
  9
$DIMAUNIT
 70
     0
  9
$DIMADEC
 70
     0
  9
$DIMALTRND
 40
0.0
  9
$DIMAZIN
 70
     0
  9
$DIMDSEP
 70
    46
  9
$DIMATFIT
 70
     3
  9
$DIMFRAC
 70
     0
  9
$DIMLDRBLK
  1

  9
$DIMLUNIT
 70
     2
  9
$DIMLWD
 70
    -2
  9
$DIMLWE
 70
    -2
  9
$DIMTMOVE
 70
     0
  9
$LUNITS
 70
     2
  9
$LUPREC
 70
     5
  9
$SKETCHINC
 40
0.1
  9
$FILLETRAD
 40
0.0
  9
$AUNITS
 70
     0
  9
$AUPREC
 70
     0
  9
$MENU
  1
acad
  9
$ELEVATION
 40
0.0
  9
$PELEVATION
 40
0.0
  9
$THICKNESS
 40
0.0
  9
$LIMCHECK
 70
     0
  9
$CHAMFERA
 40
0.0
  9
$CHAMFERB
 40
0.0
  9
$CHAMFERC
 40
0.0
  9
$CHAMFERD
 40
0.0
  9
$SKPOLY
 70
     0
  9
$TDCREATE
 40
2450623.654673033
  9
$TDUCREATE
 40
2450623.279673032
  9
$TDUPDATE
 40
2454484.386505857
  9
$TDUUPDATE
 40
2454484.011505857
  9
$TDINDWG
 40
0.5212894560
  9
$TDUSRTIMER
 40
0.5212892824
  9
$USRTIMER
 70
     1
  9
$ANGBASE
 50
0.0
  9
$ANGDIR
 70
     0
  9
$PDMODE
 70
     0
  9
$PDSIZE
 40
0.0
  9
$PLINEWID
 40
0.0
  9
$SPLFRAME
 70
     0
  9
$SPLINETYPE
 70
     6
  9
$SPLINESEGS
 70
     8
  9
$HANDSEED
  5
3DF2
  9
$SURFTAB1
 70
     6
  9
$SURFTAB2
 70
     6
  9
$SURFTYPE
 70
     6
  9
$SURFU
 70
     6
  9
$SURFV
 70
     6
  9
$UCSBASE
  2

  9
$UCSNAME
  2

  9
$UCSORG
 10
0.0
 20
0.0
 30
0.0
  9
$UCSXDIR
 10
1.0
 20
0.0
 30
0.0
  9
$UCSYDIR
 10
0.0
 20
1.0
 30
0.0
  9
$UCSORTHOREF
  2

  9
$UCSORTHOVIEW
 70
     0
  9
$UCSORGTOP
 10
0.0
 20
0.0
 30
0.0
  9
$UCSORGBOTTOM
 10
0.0
 20
0.0
 30
0.0
  9
$UCSORGLEFT
 10
0.0
 20
0.0
 30
0.0
  9
$UCSORGRIGHT
 10
0.0
 20
0.0
 30
0.0
  9
$UCSORGFRONT
 10
0.0
 20
0.0
 30
0.0
  9
$UCSORGBACK
 10
0.0
 20
0.0
 30
0.0
  9
$PUCSBASE
  2

  9
$PUCSNAME
  2

  9
$PUCSORG
 10
0.0
 20
0.0
 30
0.0
  9
$PUCSXDIR
 10
1.0
 20
0.0
 30
0.0
  9
$PUCSYDIR
 10
0.0
 20
1.0
 30
0.0
  9
$PUCSORTHOREF
  2

  9
$PUCSORTHOVIEW
 70
     0
  9
$PUCSORGTOP
 10
0.0
 20
0.0
 30
0.0
  9
$PUCSORGBOTTOM
 10
0.0
 20
0.0
 30
0.0
  9
$PUCSORGLEFT
 10
0.0
 20
0.0
 30
0.0
  9
$PUCSORGRIGHT
 10
0.0
 20
0.0
 30
0.0
  9
$PUCSORGFRONT
 10
0.0
 20
0.0
 30
0.0
  9
$PUCSORGBACK
 10
0.0
 20
0.0
 30
0.0
  9
$USERI1
 70
     0
  9
$USERI2
 70
     0
  9
$USERI3
 70
     0
  9
$USERI4
 70
     0
  9
$USERI5
 70
     0
  9
$USERR1
 40
0.0
  9
$USERR2
 40
0.0
  9
$USERR3
 40
0.0
  9
$USERR4
 40
0.0
  9
$USERR5
 40
0.0
  9
$WORLDVIEW
 70
     1
  9
$SHADEDGE
 70
     3
  9
$SHADEDIF
 70
    70
  9
$TILEMODE
 70
     1
  9
$MAXACTVP
 70
    16
  9
$PINSBASE
 10
0.0
 20
0.0
 30
0.0
  9
$PLIMCHECK
 70
     0
  9
$PEXTMIN
 10
1.000000000000000E+20
 20
1.000000000000000E+20
 30
1.000000000000000E+20
  9
$PEXTMAX
 10
-1.000000000000000E+20
 20
-1.000000000000000E+20
 30
-1.000000000000000E+20
  9
$PLIMMIN
 10
0.0
 20
0.0
  9
$PLIMMAX
 10
12.0
 20
9.0
  9
$UNITMODE
 70
     0
  9
$VISRETAIN
 70
     0
  9
$PLINEGEN
 70
     0
  9
$PSLTSCALE
 70
     1
  9
$TREEDEPTH
 70
  3020
  9
$CMLSTYLE
  2
STANDARD
  9
$CMLJUST
 70
     0
  9
$CMLSCALE
 40
1.0
  9
$PROXYGRAPHICS
 70
     1
  9
$MEASUREMENT
 70
     0
  9
$CELWEIGHT
370
    -1
  9
$ENDCAPS
280
     0
  9
$JOINSTYLE
280
     0
  9
$LWDISPLAY
290
     0
  9
$INSUNITS
 70
     0
  9
$HYPERLINKBASE
  1

  9
$STYLESHEET
  1

  9
$XEDIT
290
     1
  9
$CEPSNTYPE
380
     0
  9
$PSTYLEMODE
290
     1
  9
$FINGERPRINTGUID
  2
{FB88A696-E29C-4009-92AF-A3599A8169D5}
  9
$VERSIONGUID
  2
{FFE33414-0959-4C34-B0F9-D793E5257654}
  9
$EXTNAMES
290
     1
  9
$PSVPSCALE
 40
0.0
  9
$OLESTARTUP
290
     0
  0
ENDSEC
  0
SECTION
  2
CLASSES
  0
CLASS
  1
DICTIONARYVAR
  2
AcDbDictionaryVar
  3
ObjectDBX Classes
 90
        0
280
     0
281
     0
  0
CLASS
  1
ACDBDICTIONARYWDFLT
  2
AcDbDictionaryWithDefault
  3
ObjectDBX Classes
 90
        0
280
     0
281
     0
  0
CLASS
  1
ACDBPLACEHOLDER
  2
AcDbPlaceHolder
  3
ObjectDBX Classes
 90
        0
280
     0
281
     0
  0
CLASS
  1
LAYOUT
  2
AcDbLayout
  3
ObjectDBX Classes
 90
        0
280
     0
281
     0
  0
CLASS
  1
TABLESTYLE
  2
AcDbTableStyle
  3
ObjectDBX Classes
 90
     2047
280
     0
281
     0
  0
CLASS
  1
SORTENTSTABLE
  2
AcDbSortentsTable
  3
ObjectDBX Classes
 90
        0
280
     0
281
     0
  0
ENDSEC
  0
SECTION
  2
TABLES
  0
TABLE
  2
VPORT
  5
12
330
0
100
AcDbSymbolTable
 70
     3
  0
VPORT
  5
3DEC
330
12
100
AcDbSymbolTableRecord
100
AcDbViewportTableRecord
  2
*Active
 70
     0
 10
0.0
 20
0.0
 11
1.0
 21
1.0
 12
401.1951571143246
 22
697.9214575703409
 13
0.0
 23
0.0
 14
1.0
 24
1.0
 15
0.0
 25
0.0
 16
0.0
 26
0.0
 36
1.0
 17
0.0
 27
0.0
 37
0.0
 40
1406.642388350958
 41
1.520304568527918
 42
50.0
 43
0.0
 44
0.0
 50
0.0
 51
0.0
 71
     0
 72
 20000
 73
     1
 74
     1
 75
     0
 76
     0
 77
     0
 78
     0
281
     0
 65
     1
110
0.0
120
0.0
130
0.0
111
1.0
121
0.0
131
0.0
112
0.0
122
1.0
132
0.0
 79
     0
146
0.0
  0
ENDTAB
  0
TABLE
  2
LTYPE
  5
D
330
0
100
AcDbSymbolTable
 70
     1
  0
LTYPE
  5
E
330
D
100
AcDbSymbolTableRecord
100
AcDbLinetypeTableRecord
  2
BYBLOCK
 70
     0
  3

 72
    65
 73
     0
 40
0.0
  0
LTYPE
  5
F
330
D
100
AcDbSymbolTableRecord
100
AcDbLinetypeTableRecord
  2
BYLAYER
 70
     0
  3

 72
    65
 73
     0
 40
0.0
  0
LTYPE
  5
5
330
D
100
AcDbSymbolTableRecord
100
AcDbLinetypeTableRecord
  2
CONTINUOUS
 70
     0
  3
Solid line
 72
    65
 73
     0
 40
0.0
  0
ENDTAB
  0
TABLE
  2
LAYER
  5
A
330
0
100
AcDbSymbolTable
 70
     6
  0
LAYER
  5
4
330
A
100
AcDbSymbolTableRecord
100
AcDbLayerTableRecord
  2
0
 70
     0
 62
     7
  6
CONTINUOUS
370
    -3
390
57
  0
LAYER
  5
25
330
A
100
AcDbSymbolTableRecord
100
AcDbLayerTableRecord
  2
KIJUN
 70
     0
 62
     7
  6
CONTINUOUS
370
    -3
390
57
  0
LAYER
  5
22
330
A
100
AcDbSymbolTableRecord
100
AcDbLayerTableRecord
  2
HOJO
 70
     0
 62
     3
  6
CONTINUOUS
370
    -3
390
57
  0
LAYER
  5
1B
330
A
100
AcDbSymbolTableRecord
100
AcDbLayerTableRecord
  2
WAKU
 70
     0
 62
     1
  6
CONTINUOUS
370
    -3
390
57
  0
LAYER
  5
31
330
A
100
AcDbSymbolTableRecord
100
AcDbLayerTableRecord
  2
DEFPOINTS
 70
     0
 62
     7
  6
CONTINUOUS
290
     0
370
    -3
390
57
  0
LAYER
  5
28
330
A
100
AcDbSymbolTableRecord
100
AcDbLayerTableRecord
  2
SUNPOU
 70
     0
 62
    70
  6
CONTINUOUS
370
    -3
390
57
  0
ENDTAB
  0
TABLE
  2
STYLE
  5
B
330
0
100
AcDbSymbolTable
 70
     3
  0
STYLE
  5
C
330
B
100
AcDbSymbolTableRecord
100
AcDbTextStyleTableRecord
  2
STANDARD
 70
     0
 40
0.0
 41
1.0
 50
0.0
 71
     0
 42
0.2
  3
txt
  4

  0
STYLE
  5
1C
330
B
100
AcDbSymbolTableRecord
100
AcDbTextStyleTableRecord
  2
SUNPOU
 70
     0
 40
0.0
 41
1.0
 50
0.0
 71
     0
 42
30.0
  3
txt
  4
bigfont
  0
STYLE
  5
1AD
330
B
100
AcDbSymbolTableRecord
100
AcDbTextStyleTableRecord
  2
LIFE
 70
     0
 40
0.0
 41
0.7
 50
0.0
 71
     0
 42
10.0
  3
romans
  4
extfont
  0
ENDTAB
  0
TABLE
  2
VIEW
  5
10
330
0
100
AcDbSymbolTable
 70
     0
  0
ENDTAB
  0
TABLE
  2
UCS
  5
11
330
0
100
AcDbSymbolTable
 70
     0
  0
ENDTAB
  0
TABLE
  2
APPID
  5
14
330
0
100
AcDbSymbolTable
 70
     2
  0
APPID
  5
15
330
14
100
AcDbSymbolTableRecord
100
AcDbRegAppTableRecord
  2
ACAD
 70
     0
  0
APPID
  5
2EB0
330
14
100
AcDbSymbolTableRecord
100
AcDbRegAppTableRecord
  2
ACAD_EXEMPT_FROM_CAD_STANDARDS
 70
     0
  0
ENDTAB
  0
TABLE
  2
DIMSTYLE
  5
16
330
0
100
AcDbSymbolTable
 70
     2
100
AcDbDimStyleTable
 71
     1
340
1E
  0
DIMSTYLE
105
1E
330
16
100
AcDbSymbolTableRecord
100
AcDbDimStyleTableRecord
  2
STANDARD
 70
     0
340
C
  0
DIMSTYLE
105
1AE
102
{ACAD_REACTORS
330
32A1
330
32D1
330
35C8
330
35F9
330
3618
330
3637
330
3656
102
}
330
16
100
AcDbSymbolTableRecord
100
AcDbDimStyleTableRecord
  2
STANDARD$0
 70
     0
 40
2.0
 41
1.0
 42
2.0
 43
0.0
 44
1.0
 73
     0
 74
     0
 77
     3
 78
     9
140
4.5
141
0.0
147
1.0
172
     1
173
     1
178
     3
271
     2
340
1AD
341
109
343
109
344
109
  0
ENDTAB
  0
TABLE
  2
BLOCK_RECORD
  5
1
330
0
100
AcDbSymbolTable
 70
    10
  0
BLOCK_RECORD
  5
2
102
{ACAD_XDICTIONARY
360
34C7
102
}
330
1
100
AcDbSymbolTableRecord
100
AcDbBlockTableRecord
  2
*MODEL_SPACE
340
5A
  0
BLOCK_RECORD
  5
7
330
1
100
AcDbSymbolTableRecord
100
AcDbBlockTableRecord
  2
*PAPER_SPACE
340
5B
  0
BLOCK_RECORD
  5
109
330
1
100
AcDbSymbolTableRecord
100
AcDbBlockTableRecord
  2
_Dot
340
0
102
{BLKREFS
331
3CDF
331
3CE0
331
3D10
331
3D11
331
3D28
331
3D29
331
3D9D
331
3D9E
331
3DA7
331
3DA8
331
3DB0
331
3DB1
331
3DC5
331
3DC6
331
3DD7
331
3DD8
331
3DE0
331
3DE1
102
}
  0
BLOCK_RECORD
  5
32BC
330
1
100
AcDbSymbolTableRecord
100
AcDbBlockTableRecord
  2
*D1
340
0
  0
BLOCK_RECORD
  5
32D3
330
1
100
AcDbSymbolTableRecord
100
AcDbBlockTableRecord
  2
*D2
340
0
  0
BLOCK_RECORD
  5
35C9
330
1
100
AcDbSymbolTableRecord
100
AcDbBlockTableRecord
  2
*D3
340
0
  0
BLOCK_RECORD
  5
35FA
330
1
100
AcDbSymbolTableRecord
100
AcDbBlockTableRecord
  2
*D4
340
0
  0
BLOCK_RECORD
  5
3619
330
1
100
AcDbSymbolTableRecord
100
AcDbBlockTableRecord
  2
*D5
340
0
  0
BLOCK_RECORD
  5
3638
330
1
100
AcDbSymbolTableRecord
100
AcDbBlockTableRecord
  2
*D6
340
0
  0
BLOCK_RECORD
  5
3657
330
1
100
AcDbSymbolTableRecord
100
AcDbBlockTableRecord
  2
*D7
340
0
  0
ENDTAB
  0
ENDSEC
  0
SECTION
  2
BLOCKS
  0
BLOCK
  5
3
330
2
100
AcDbEntity
  8
0
100
AcDbBlockBegin
  2
*MODEL_SPACE
 70
     0
 10
0.0
 20
0.0
 30
0.0
  3
*MODEL_SPACE
  1

  0
ENDBLK
  5
6
330
2
100
AcDbEntity
  8
0
100
AcDbBlockEnd
  0
BLOCK
  5
8
330
7
100
AcDbEntity
 67
     1
  8
0
100
AcDbBlockBegin
  2
*PAPER_SPACE
 70
     0
 10
0.0
 20
0.0
 30
0.0
  3
*PAPER_SPACE
  1

  0
ENDBLK
  5
9
330
7
100
AcDbEntity
 67
     1
  8
0
100
AcDbBlockEnd
  0
BLOCK
  5
10C
330
109
100
AcDbEntity
  8
0
100
AcDbBlockBegin
  2
_Dot
 70
     0
 10
0.0
 20
0.0
 30
0.0
  3
_Dot
  1

  0
LWPOLYLINE
  5
10A
330
109
100
AcDbEntity
  8
0
  6
ByBlock
 62
     0
100
AcDbPolyline
 90
        2
 70
     1
 43
0.5
 10
-0.25
 20
0.0
 42
1.0
 10
0.25
 20
0.0
 42
1.0
  0
LINE
  5
10B
330
109
100
AcDbEntity
  8
0
  6
ByBlock
 62
     0
370
    -2
100
AcDbLine
 10
-0.5
 20
0.0
 30
0.0
 11
-1.0
 21
0.0
 31
0.0
  0
ENDBLK
  5
10D
330
109
100
AcDbEntity
  8
0
100
AcDbBlockEnd
  0
BLOCK
  5
32C6
330
32BC
100
AcDbEntity
  8
0
100
AcDbBlockBegin
  2
*D1
 70
     1
 10
0.0
 20
0.0
 30
0.0
  3
*D1
  1

  0
LINE
  5
3DC2
330
32BC
100
AcDbEntity
  8
SUNPOU
 62
    70
370
    -2
100
AcDbLine
 10
339.90180127677
 20
344.2821620610245
 30
0.0
 11
195.337645470363
 21
344.2821620610245
 31
0.0
  0
LINE
  5
3DC3
330
32BC
100
AcDbEntity
  8
SUNPOU
 62
    70
370
    -2
100
AcDbLine
 10
339.9018012767693
 20
629.2821620610244
 30
0.0
 11
195.337645470363
 21
629.2821620610245
 31
0.0
  0
LINE
  5
3DC4
330
32BC
100
AcDbEntity
  8
SUNPOU
 62
    60
370
    -2
100
AcDbLine
 10
195.337645470363
 20
350.2821620610245
 30
0.0
 11
195.337645470363
 21
623.2821620610245
 31
0.0
  0
INSERT
  5
3DC5
330
32BC
100
AcDbEntity
  8
SUNPOU
 62
    60
370
    -2
100
AcDbBlockReference
  2
_Dot
 10
195.337645470363
 20
344.2821620610245
 30
0.0
 41
6.0
 42
6.0
 43
6.0
 50
270.0
  0
INSERT
  5
3DC6
330
32BC
100
AcDbEntity
  8
SUNPOU
 62
    60
370
    -2
100
AcDbBlockReference
  2
_Dot
 10
195.337645470363
 20
629.2821620610245
 30
0.0
 41
6.0
 42
6.0
 43
6.0
 50
90.0
  0
MTEXT
  5
3DC7
330
32BC
100
AcDbEntity
  8
SUNPOU
 62
    60
100
AcDbMText
 10
175.3376454703629
 20
486.7821620610246
 30
0.0
 40
20.0
 41
0.0
 71
     5
 72
     1
  1
\A1;285
  7
SUNPOU
 11
0.0000000000000001
 21
1.0
 31
0.0
 73
     1
 44
1.0
1001
ACAD
1000
MTEXTBEGIN
1070
    73
1070
     1
1070
    44
1040
1.0
1070
    74
1070
     0
1000
MTEXTEND
  0
POINT
  5
3DC8
330
32BC
100
AcDbEntity
  8
DEFPOINTS
 62
     0
100
AcDbPoint
 10
345.90180127677
 20
344.2821620610245
 30
0.0
  0
POINT
  5
3DC9
330
32BC
100
AcDbEntity
  8
DEFPOINTS
 62
     0
100
AcDbPoint
 10
345.9018012767693
 20
629.2821620610244
 30
0.0
  0
POINT
  5
3DCA
330
32BC
100
AcDbEntity
  8
DEFPOINTS
 62
     0
100
AcDbPoint
 10
195.337645470363
 20
629.2821620610245
 30
0.0
  0
ENDBLK
  5
32C7
330
32BC
100
AcDbEntity
  8
0
100
AcDbBlockEnd
  0
BLOCK
  5
32DD
330
32D3
100
AcDbEntity
  8
0
100
AcDbBlockBegin
  2
*D2
 70
     1
 10
0.0
 20
0.0
 30
0.0
  3
*D2
  1

  0
LINE
  5
3CDC
330
32D3
100
AcDbEntity
  8
SUNPOU
 62
    70
370
    -2
100
AcDbLine
 10
345.9018012767698
 20
338.2821620610244
 30
0.0
 11
345.9018012767698
 21
190.885409374602
 31
0.0
  0
LINE
  5
3CDD
330
32D3
100
AcDbEntity
  8
SUNPOU
 62
    70
370
    -2
100
AcDbLine
 10
435.9018012767696
 20
338.2821620610244
 30
0.0
 11
435.9018012767696
 21
190.885409374602
 31
0.0
  0
LINE
  5
3CDE
330
32D3
100
AcDbEntity
  8
SUNPOU
 62
    60
370
    -2
100
AcDbLine
 10
351.9018012767698
 20
190.885409374602
 30
0.0
 11
429.9018012767695
 21
190.885409374602
 31
0.0
  0
INSERT
  5
3CDF
330
32D3
100
AcDbEntity
  8
SUNPOU
 62
    60
370
    -2
100
AcDbBlockReference
  2
_Dot
 10
345.9018012767698
 20
190.885409374602
 30
0.0
 41
6.0
 42
6.0
 43
6.0
 50
180.0
  0
INSERT
  5
3CE0
330
32D3
100
AcDbEntity
  8
SUNPOU
 62
    60
370
    -2
100
AcDbBlockReference
  2
_Dot
 10
435.9018012767696
 20
190.885409374602
 30
0.0
 41
6.0
 42
6.0
 43
6.0
  0
MTEXT
  5
3CE1
330
32D3
100
AcDbEntity
  8
SUNPOU
 62
    60
100
AcDbMText
 10
390.9018012767697
 20
210.885409374602
 30
0.0
 40
20.0
 41
0.0
 71
     5
 72
     1
  1
\A1;90
  7
SUNPOU
 73
     1
 44
1.0
1001
ACAD
1000
MTEXTBEGIN
1070
    73
1070
     1
1070
    44
1040
1.0
1070
    74
1070
     0
1000
MTEXTEND
  0
POINT
  5
3CE2
330
32D3
100
AcDbEntity
  8
DEFPOINTS
 62
     0
100
AcDbPoint
 10
345.9018012767698
 20
344.2821620610244
 30
0.0
  0
POINT
  5
3CE3
330
32D3
100
AcDbEntity
  8
DEFPOINTS
 62
     0
100
AcDbPoint
 10
435.9018012767696
 20
344.2821620610244
 30
0.0
  0
POINT
  5
3CE4
330
32D3
100
AcDbEntity
  8
DEFPOINTS
 62
     0
100
AcDbPoint
 10
435.9018012767696
 20
190.885409374602
 30
0.0
  0
ENDBLK
  5
32DE
330
32D3
100
AcDbEntity
  8
0
100
AcDbBlockEnd
  0
BLOCK
  5
35D3
330
35C9
100
AcDbEntity
  8
0
100
AcDbBlockBegin
  2
*D3
 70
     1
 10
0.0
 20
0.0
 30
0.0
  3
*D3
  1

  0
LINE
  5
3DAD
330
35C9
100
AcDbEntity
  8
SUNPOU
 62
    70
370
    -2
100
AcDbLine
 10
339.90180127677
 20
344.2821620610245
 30
0.0
 11
82.837645470363
 21
344.2821620610246
 31
0.0
  0
LINE
  5
3DAE
330
35C9
100
AcDbEntity
  8
SUNPOU
 62
    70
370
    -2
100
AcDbLine
 10
339.9018012767673
 20
1244.282162061024
 30
0.0
 11
82.83764547036319
 21
1244.282162061024
 31
0.0
  0
LINE
  5
3DAF
330
35C9
100
AcDbEntity
  8
SUNPOU
 62
    60
370
    -2
100
AcDbLine
 10
82.83764547036298
 20
350.2821620610246
 30
0.0
 11
82.83764547036318
 21
1238.282162061024
 31
0.0
  0
INSERT
  5
3DB0
330
35C9
100
AcDbEntity
  8
SUNPOU
 62
    60
370
    -2
100
AcDbBlockReference
  2
_Dot
 10
82.83764547036298
 20
344.2821620610246
 30
0.0
 41
6.0
 42
6.0
 43
6.0
 50
270.0
  0
INSERT
  5
3DB1
330
35C9
100
AcDbEntity
  8
SUNPOU
 62
    60
370
    -2
100
AcDbBlockReference
  2
_Dot
 10
82.83764547036318
 20
1244.282162061024
 30
0.0
 41
6.0
 42
6.0
 43
6.0
 50
90.0
  0
MTEXT
  5
3DB2
330
35C9
100
AcDbEntity
  8
SUNPOU
 62
    60
100
AcDbMText
 10
62.83764547036296
 20
794.2821620610243
 30
0.0
 40
20.0
 41
0.0
 71
     5
 72
     1
  1
\A1;900
  7
SUNPOU
 11
0.0000000000000001
 21
1.0
 31
0.0
 73
     1
 44
1.0
1001
ACAD
1000
MTEXTBEGIN
1070
    73
1070
     1
1070
    44
1040
1.0
1070
    74
1070
     0
1000
MTEXTEND
  0
POINT
  5
3DB3
330
35C9
100
AcDbEntity
  8
DEFPOINTS
 62
     0
100
AcDbPoint
 10
345.90180127677
 20
344.2821620610245
 30
0.0
  0
POINT
  5
3DB4
330
35C9
100
AcDbEntity
  8
DEFPOINTS
 62
     0
100
AcDbPoint
 10
345.9018012767673
 20
1244.282162061024
 30
0.0
  0
POINT
  5
3DB5
330
35C9
100
AcDbEntity
  8
DEFPOINTS
 62
     0
100
AcDbPoint
 10
82.83764547036318
 20
1244.282162061024
 30
0.0
  0
ENDBLK
  5
35D4
330
35C9
100
AcDbEntity
  8
0
100
AcDbBlockEnd
  0
BLOCK
  5
3604
330
35FA
100
AcDbEntity
  8
0
100
AcDbBlockBegin
  2
*D4
 70
     1
 10
0.0
 20
0.0
 30
0.0
  3
*D4
  1

  0
LINE
  5
3DD4
330
35FA
100
AcDbEntity
  8
SUNPOU
 62
    70
370
    -2
100
AcDbLine
 10
339.9018012767697
 20
629.2821620610244
 30
0.0
 11
195.3376454703629
 21
629.2821620610245
 31
0.0
  0
LINE
  5
3DD5
330
35FA
100
AcDbEntity
  8
SUNPOU
 62
    70
370
    -2
100
AcDbLine
 10
339.9018012767677
 20
989.2821620610247
 30
0.0
 11
195.337645470363
 21
989.2821620610247
 31
0.0
  0
LINE
  5
3DD6
330
35FA
100
AcDbEntity
  8
SUNPOU
 62
    60
370
    -2
100
AcDbLine
 10
195.3376454703629
 20
635.2821620610245
 30
0.0
 11
195.337645470363
 21
983.2821620610248
 31
0.0
  0
INSERT
  5
3DD7
330
35FA
100
AcDbEntity
  8
SUNPOU
 62
    60
370
    -2
100
AcDbBlockReference
  2
_Dot
 10
195.3376454703629
 20
629.2821620610245
 30
0.0
 41
6.0
 42
6.0
 43
6.0
 50
270.0
  0
INSERT
  5
3DD8
330
35FA
100
AcDbEntity
  8
SUNPOU
 62
    60
370
    -2
100
AcDbBlockReference
  2
_Dot
 10
195.337645470363
 20
989.2821620610247
 30
0.0
 41
6.0
 42
6.0
 43
6.0
 50
90.0
  0
MTEXT
  5
3DD9
330
35FA
100
AcDbEntity
  8
SUNPOU
 62
    60
100
AcDbMText
 10
175.3376454703628
 20
809.2821620610246
 30
0.0
 40
20.0
 41
0.0
 71
     5
 72
     1
  1
\A1;360
  7
SUNPOU
 11
0.0000000000000001
 21
1.0
 31
0.0
 73
     1
 44
1.0
1001
ACAD
1000
MTEXTBEGIN
1070
    73
1070
     1
1070
    44
1040
1.0
1070
    74
1070
     0
1000
MTEXTEND
  0
POINT
  5
3DDA
330
35FA
100
AcDbEntity
  8
DEFPOINTS
 62
     0
100
AcDbPoint
 10
345.9018012767697
 20
629.2821620610244
 30
0.0
  0
POINT
  5
3DDB
330
35FA
100
AcDbEntity
  8
DEFPOINTS
 62
     0
100
AcDbPoint
 10
345.9018012767676
 20
989.2821620610247
 30
0.0
  0
POINT
  5
3DDC
330
35FA
100
AcDbEntity
  8
DEFPOINTS
 62
     0
100
AcDbPoint
 10
195.337645470363
 20
989.2821620610247
 30
0.0
  0
ENDBLK
  5
3605
330
35FA
100
AcDbEntity
  8
0
100
AcDbBlockEnd
  0
BLOCK
  5
3623
330
3619
100
AcDbEntity
  8
0
100
AcDbBlockBegin
  2
*D5
 70
     1
 10
0.0
 20
0.0
 30
0.0
  3
*D5
  1

  0
LINE
  5
3DDD
330
3619
100
AcDbEntity
  8
SUNPOU
 62
    70
370
    -2
100
AcDbLine
 10
339.9018012767677
 20
989.2821620610247
 30
0.0
 11
195.337645470361
 21
989.2821620610247
 31
0.0
  0
LINE
  5
3DDE
330
3619
100
AcDbEntity
  8
SUNPOU
 62
    70
370
    -2
100
AcDbLine
 10
339.9018012767675
 20
1134.282162061025
 30
0.0
 11
195.3376454703611
 21
1134.282162061025
 31
0.0
  0
LINE
  5
3DDF
330
3619
100
AcDbEntity
  8
SUNPOU
 62
    60
370
    -2
100
AcDbLine
 10
195.337645470361
 20
995.2821620610247
 30
0.0
 11
195.3376454703611
 21
1128.282162061025
 31
0.0
  0
INSERT
  5
3DE0
330
3619
100
AcDbEntity
  8
SUNPOU
 62
    60
370
    -2
100
AcDbBlockReference
  2
_Dot
 10
195.337645470361
 20
989.2821620610247
 30
0.0
 41
6.0
 42
6.0
 43
6.0
 50
270.0
  0
INSERT
  5
3DE1
330
3619
100
AcDbEntity
  8
SUNPOU
 62
    60
370
    -2
100
AcDbBlockReference
  2
_Dot
 10
195.3376454703611
 20
1134.282162061025
 30
0.0
 41
6.0
 42
6.0
 43
6.0
 50
90.0
  0
MTEXT
  5
3DE2
330
3619
100
AcDbEntity
  8
SUNPOU
 62
    60
100
AcDbMText
 10
175.3376454703609
 20
1061.782162061025
 30
0.0
 40
20.0
 41
0.0
 71
     5
 72
     1
  1
\A1;145
  7
SUNPOU
 11
0.0000000000000001
 21
1.0
 31
0.0
 73
     1
 44
1.0
1001
ACAD
1000
MTEXTBEGIN
1070
    73
1070
     1
1070
    44
1040
1.0
1070
    74
1070
     0
1000
MTEXTEND
  0
POINT
  5
3DE3
330
3619
100
AcDbEntity
  8
DEFPOINTS
 62
     0
100
AcDbPoint
 10
345.9018012767676
 20
989.2821620610247
 30
0.0
  0
POINT
  5
3DE4
330
3619
100
AcDbEntity
  8
DEFPOINTS
 62
     0
100
AcDbPoint
 10
345.9018012767675
 20
1134.282162061025
 30
0.0
  0
POINT
  5
3DE5
330
3619
100
AcDbEntity
  8
DEFPOINTS
 62
     0
100
AcDbPoint
 10
195.3376454703611
 20
1134.282162061025
 30
0.0
  0
ENDBLK
  5
3624
330
3619
100
AcDbEntity
  8
0
100
AcDbBlockEnd
  0
BLOCK
  5
3642
330
3638
100
AcDbEntity
  8
0
100
AcDbBlockBegin
  2
*D6
 70
     1
 10
0.0
 20
0.0
 30
0.0
  3
*D6
  1

  0
LINE
  5
3DA4
330
3638
100
AcDbEntity
  8
SUNPOU
 62
    70
370
    -2
100
AcDbLine
 10
339.9018012767675
 20
1134.282162061025
 30
0.0
 11
195.337645470361
 21
1134.282162061025
 31
0.0
  0
LINE
  5
3DA5
330
3638
100
AcDbEntity
  8
SUNPOU
 62
    70
370
    -2
100
AcDbLine
 10
339.9018012767673
 20
1244.282162061024
 30
0.0
 11
195.3376454703611
 21
1244.282162061024
 31
0.0
  0
LINE
  5
3DA6
330
3638
100
AcDbEntity
  8
SUNPOU
 62
    60
370
    -2
100
AcDbLine
 10
195.337645470361
 20
1140.282162061025
 30
0.0
 11
195.3376454703611
 21
1238.282162061024
 31
0.0
  0
INSERT
  5
3DA7
330
3638
100
AcDbEntity
  8
SUNPOU
 62
    60
370
    -2
100
AcDbBlockReference
  2
_Dot
 10
195.337645470361
 20
1134.282162061025
 30
0.0
 41
6.0
 42
6.0
 43
6.0
 50
270.0
  0
INSERT
  5
3DA8
330
3638
100
AcDbEntity
  8
SUNPOU
 62
    60
370
    -2
100
AcDbBlockReference
  2
_Dot
 10
195.3376454703611
 20
1244.282162061024
 30
0.0
 41
6.0
 42
6.0
 43
6.0
 50
90.0
  0
MTEXT
  5
3DA9
330
3638
100
AcDbEntity
  8
SUNPOU
 62
    60
100
AcDbMText
 10
175.3376454703609
 20
1189.282162061024
 30
0.0
 40
20.0
 41
0.0
 71
     5
 72
     1
  1
\A1;110
  7
SUNPOU
 11
0.0000000000000001
 21
1.0
 31
0.0
 73
     1
 44
1.0
1001
ACAD
1000
MTEXTBEGIN
1070
    73
1070
     1
1070
    44
1040
1.0
1070
    74
1070
     0
1000
MTEXTEND
  0
POINT
  5
3DAA
330
3638
100
AcDbEntity
  8
DEFPOINTS
 62
     0
100
AcDbPoint
 10
345.9018012767675
 20
1134.282162061025
 30
0.0
  0
POINT
  5
3DAB
330
3638
100
AcDbEntity
  8
DEFPOINTS
 62
     0
100
AcDbPoint
 10
345.9018012767673
 20
1244.282162061024
 30
0.0
  0
POINT
  5
3DAC
330
3638
100
AcDbEntity
  8
DEFPOINTS
 62
     0
100
AcDbPoint
 10
195.3376454703611
 20
1244.282162061024
 30
0.0
  0
ENDBLK
  5
3643
330
3638
100
AcDbEntity
  8
0
100
AcDbBlockEnd
  0
BLOCK
  5
3661
330
3657
100
AcDbEntity
  8
0
100
AcDbBlockBegin
  2
*D7
 70
     1
 10
0.0
 20
0.0
 30
0.0
  3
*D7
  1

  0
LINE
  5
3D9A
330
3657
100
AcDbEntity
  8
SUNPOU
 62
    70
370
    -2
100
AcDbLine
 10
345.9018012767673
 20
1250.282162061024
 30
0.0
 11
345.9018012767673
 21
1365.90853839669
 31
0.0
  0
LINE
  5
3D9B
330
3657
100
AcDbEntity
  8
SUNPOU
 62
    70
370
    -2
100
AcDbLine
 10
435.9018012767676
 20
1251.269598490698
 30
0.0
 11
435.9018012767676
 21
1365.90853839669
 31
0.0
  0
LINE
  5
3D9C
330
3657
100
AcDbEntity
  8
SUNPOU
 62
    60
370
    -2
100
AcDbLine
 10
351.9018012767674
 20
1365.90853839669
 30
0.0
 11
429.9018012767676
 21
1365.90853839669
 31
0.0
  0
INSERT
  5
3D9D
330
3657
100
AcDbEntity
  8
SUNPOU
 62
    60
370
    -2
100
AcDbBlockReference
  2
_Dot
 10
345.9018012767673
 20
1365.90853839669
 30
0.0
 41
6.0
 42
6.0
 43
6.0
 50
180.0
  0
INSERT
  5
3D9E
330
3657
100
AcDbEntity
  8
SUNPOU
 62
    60
370
    -2
100
AcDbBlockReference
  2
_Dot
 10
435.9018012767676
 20
1365.90853839669
 30
0.0
 41
6.0
 42
6.0
 43
6.0
  0
MTEXT
  5
3D9F
330
3657
100
AcDbEntity
  8
SUNPOU
 62
    60
100
AcDbMText
 10
390.9018012767675
 20
1385.90853839669
 30
0.0
 40
20.0
 41
0.0
 71
     5
 72
     1
  1
\A1;90
  7
SUNPOU
 73
     1
 44
1.0
1001
ACAD
1000
MTEXTBEGIN
1070
    73
1070
     1
1070
    44
1040
1.0
1070
    74
1070
     0
1000
MTEXTEND
  0
POINT
  5
3DA0
330
3657
100
AcDbEntity
  8
DEFPOINTS
 62
     0
100
AcDbPoint
 10
345.9018012767673
 20
1244.282162061024
 30
0.0
  0
POINT
  5
3DA1
330
3657
100
AcDbEntity
  8
DEFPOINTS
 62
     0
100
AcDbPoint
 10
435.9018012767676
 20
1245.269598490698
 30
0.0
  0
POINT
  5
3DA2
330
3657
100
AcDbEntity
  8
DEFPOINTS
 62
     0
100
AcDbPoint
 10
435.9018012767676
 20
1365.90853839669
 30
0.0
  0
ENDBLK
  5
3662
330
3657
100
AcDbEntity
  8
0
100
AcDbBlockEnd
  0
ENDSEC
  0
SECTION
  2
ENTITIES
  0
LINE
  5
1F
330
2
100
AcDbEntity
  8
WAKU
100
AcDbLine
 10
0.0
 20
70.0
 30
0.0
 11
802.4448582724989
 21
70.0
 31
0.0
  0
LINE
  5
20
330
2
100
AcDbEntity
  8
WAKU
100
AcDbLine
 10
0.0
 20
0.0
 30
0.0
 11
802.4448582724989
 21
0.0
 31
0.0
  0
TEXT
  5
21
330
2
100
AcDbEntity
  8
HOJO
100
AcDbText
 10
48.26983000000012
 20
11.83313000000009
 30
0.0
 40
45.0
  1
0954-090
  7
SUNPOU
100
AcDbText
  0
TEXT
  5
2E7F
330
2
100
AcDbEntity
  8
HOJO
100
AcDbText
 10
470.2016363591537
 20
16.14254471732295
 30
0.0
 40
35.0
  1
90x90  900
  7
SUNPOU
100
AcDbText
  0
DIMENSION
  5
32A1
330
2
100
AcDbEntity
  8
SUNPOU
100
AcDbDimension
  2
*D1
 10
195.337645470363
 20
629.2821620610245
 30
0.0
 11
175.3376454703629
 21
486.7821620610246
 31
0.0
 70
    32
 71
     5
 42
285.0
  3
STANDARD$0
100
AcDbAlignedDimension
 13
345.90180127677
 23
344.2821620610245
 33
0.0
 14
345.9018012767693
 24
629.2821620610244
 34
0.0
 50
90.0
100
AcDbRotatedDimension
1001
ACAD
1000
DSTYLE
1002
{
1070
    41
1040
3.0
1070
    42
1040
3.0
1070
    44
1040
0.0
1070
    77
1070
     1
1070
   140
1040
10.0
1070
   146
1040
0.064286
1070
   147
1040
5.0
1070
   176
1070
    60
1070
   177
1070
    70
1070
   178
1070
    60
1070
   271
1070
     0
1070
   272
1070
     0
1070
   340
1005
1C
1070
   342
1005
109
1002
}
  0
LINE
  5
32A2
330
2
100
AcDbEntity
  8
KIJUN
100
AcDbLine
 10
345.90180127677
 20
344.2821620610245
 30
0.0
 11
345.9018012767697
 21
629.2821620610244
 31
0.0
  0
DIMENSION
  5
32D1
330
2
100
AcDbEntity
  8
SUNPOU
100
AcDbDimension
  2
*D2
 10
435.9018012767696
 20
190.885409374602
 30
0.0
 11
390.9018012767697
 21
210.885409374602
 31
0.0
 70
    32
 71
     5
 42
89.99999999999971
  3
STANDARD$0
100
AcDbAlignedDimension
 13
345.9018012767698
 23
344.2821620610244
 33
0.0
 14
435.9018012767696
 24
344.2821620610244
 34
0.0
100
AcDbRotatedDimension
1001
ACAD
1000
DSTYLE
1002
{
1070
    41
1040
3.0
1070
    42
1040
3.0
1070
    44
1040
0.0
1070
    77
1070
     1
1070
   140
1040
10.0
1070
   146
1040
0.064286
1070
   147
1040
5.0
1070
   176
1070
    60
1070
   177
1070
    70
1070
   178
1070
    60
1070
   271
1070
     0
1070
   272
1070
     0
1070
   340
1005
1C
1070
   342
1005
109
1002
}
  0
LINE
  5
3352
330
2
100
AcDbEntity
  8
KIJUN
100
AcDbLine
 10
435.9018012767699
 20
344.2821620610239
 30
0.0
 11
435.9018012767697
 21
629.2821620610241
 31
0.0
  0
LINE
  5
3361
330
2
100
AcDbEntity
  8
KIJUN
100
AcDbLine
 10
345.9018012767676
 20
989.2821620610247
 30
0.0
 11
435.9018012767678
 21
989.2821620610241
 31
0.0
  0
ARC
  5
34A5
330
2
100
AcDbEntity
  8
KIJUN
100
AcDbCircle
 10
440.5955185695185
 20
994.2082761519577
 30
0.0
 40
18.18989961404831
100
AcDbArc
 50
104.9537800461127
 51
163.7887990198054
  0
ARC
  5
34A6
330
2
100
AcDbEntity
  8
KIJUN
100
AcDbCircle
 10
390.9018012767704
 20
1046.190944898123
 30
0.0
 40
56.90878283709913
100
AcDbArc
 50
235.5078494593298
 51
304.4921505406668
  0
ARC
  5
34CE
330
2
100
AcDbEntity
  8
KIJUN
100
AcDbCircle
 10
425.2730542677853
 20
1157.282162061025
 30
0.0
 40
5.37125299101736
100
AcDbArc
 50
133.5937839919931
 51
250.7333229518308
  0
ARC
  5
34D1
330
2
100
AcDbEntity
  8
KIJUN
100
AcDbCircle
 10
384.3365220670972
 20
1194.646464974903
 30
0.0
 40
50.0680069138577
100
AcDbArc
 50
318.0428637608915
 51
82.46526435385922
  0
LINE
  5
34F8
330
2
100
AcDbEntity
  8
KIJUN
100
AcDbLine
 10
377.9604180500005
 20
1157.282162061025
 30
0.0
 11
403.8431845035361
 21
1157.282162061025
 31
0.0
  0
ARC
  5
34FC
330
2
100
AcDbEntity
  8
KIJUN
100
AcDbCircle
 10
341.208083984018
 20
994.2082761519577
 30
0.0
 40
18.18989961404831
100
AcDbArc
 50
16.21120098019287
 51
75.04621995388548
  0
LINE
  5
3581
330
2
100
AcDbEntity
  8
KIJUN
100
AcDbLine
 10
345.9018012767697
 20
629.2821620610244
 30
0.0
 11
435.9018012767697
 21
629.2821620610241
 31
0.0
  0
ARC
  5
3586
330
2
100
AcDbEntity
  8
KIJUN
100
AcDbCircle
 10
440.5955185695204
 20
624.3560479700914
 30
0.0
 40
18.18989961404831
100
AcDbArc
 50
196.2112009801894
 51
255.0462199538871
  0
ARC
  5
3587
330
2
100
AcDbEntity
  8
KIJUN
100
AcDbCircle
 10
390.9018012767723
 20
572.3733792239255
 30
0.0
 40
56.90878283709913
100
AcDbArc
 50
55.50784945933147
 51
124.4921505406714
  0
ARC
  5
3588
330
2
100
AcDbEntity
  8
KIJUN
100
AcDbCircle
 10
341.20808398402
 20
624.3560479700914
 30
0.0
 40
18.18989961404831
100
AcDbArc
 50
284.953780046114
 51
343.7887990198106
  0
LINE
  5
35C6
330
2
100
AcDbEntity
  8
KIJUN
100
AcDbLine
 10
435.9018012767678
 20
989.2821620610241
 30
0.0
 11
435.9018012767676
 21
1134.282162061025
 31
0.0
  0
LINE
  5
35C7
330
2
100
AcDbEntity
  8
KIJUN
100
AcDbLine
 10
345.9018012767676
 20
989.2821620610247
 30
0.0
 11
345.9018012767675
 21
1134.282162061025
 31
0.0
  0
DIMENSION
  5
35C8
330
2
100
AcDbEntity
  8
SUNPOU
100
AcDbDimension
  2
*D3
 10
82.83764547036318
 20
1244.282162061024
 30
0.0
 11
62.83764547036296
 21
794.2821620610243
 31
0.0
 70
    32
 71
     5
 42
899.9999999999996
  3
STANDARD$0
100
AcDbAlignedDimension
 13
345.90180127677
 23
344.2821620610245
 33
0.0
 14
345.9018012767673
 24
1244.282162061024
 34
0.0
 50
90.0
100
AcDbRotatedDimension
1001
ACAD
1000
DSTYLE
1002
{
1070
    41
1040
3.0
1070
    42
1040
3.0
1070
    44
1040
0.0
1070
    77
1070
     1
1070
   140
1040
10.0
1070
   146
1040
0.064286
1070
   147
1040
5.0
1070
   176
1070
    60
1070
   177
1070
    70
1070
   178
1070
    60
1070
   271
1070
     0
1070
   272
1070
     0
1070
   340
1005
1C
1070
   342
1005
109
1002
}
  0
DIMENSION
  5
35F9
330
2
100
AcDbEntity
  8
SUNPOU
100
AcDbDimension
  2
*D4
 10
195.337645470363
 20
989.2821620610247
 30
0.0
 11
175.3376454703628
 21
809.2821620610246
 31
0.0
 70
    32
 71
     5
 42
360.0000000000002
  3
STANDARD$0
100
AcDbAlignedDimension
 13
345.9018012767697
 23
629.2821620610244
 33
0.0
 14
345.9018012767676
 24
989.2821620610247
 34
0.0
 50
90.0
100
AcDbRotatedDimension
1001
ACAD
1000
DSTYLE
1002
{
1070
    41
1040
3.0
1070
    42
1040
3.0
1070
    44
1040
0.0
1070
    77
1070
     1
1070
   140
1040
10.0
1070
   146
1040
0.064286
1070
   147
1040
5.0
1070
   176
1070
    60
1070
   177
1070
    70
1070
   178
1070
    60
1070
   271
1070
     0
1070
   272
1070
     0
1070
   340
1005
1C
1070
   342
1005
109
1002
}
  0
DIMENSION
  5
3618
330
2
100
AcDbEntity
  8
SUNPOU
100
AcDbDimension
  2
*D5
 10
195.3376454703611
 20
1134.282162061025
 30
0.0
 11
175.3376454703609
 21
1061.782162061025
 31
0.0
 70
    32
 71
     5
 42
145.0
  3
STANDARD$0
100
AcDbAlignedDimension
 13
345.9018012767676
 23
989.2821620610247
 33
0.0
 14
345.9018012767675
 24
1134.282162061025
 34
0.0
 50
90.0
100
AcDbRotatedDimension
1001
ACAD
1000
DSTYLE
1002
{
1070
    41
1040
3.0
1070
    42
1040
3.0
1070
    44
1040
0.0
1070
    77
1070
     1
1070
   140
1040
10.0
1070
   146
1040
0.064286
1070
   147
1040
5.0
1070
   176
1070
    60
1070
   177
1070
    70
1070
   178
1070
    60
1070
   271
1070
     0
1070
   272
1070
     0
1070
   340
1005
1C
1070
   342
1005
109
1002
}
  0
DIMENSION
  5
3637
330
2
100
AcDbEntity
  8
SUNPOU
100
AcDbDimension
  2
*D6
 10
195.3376454703611
 20
1244.282162061024
 30
0.0
 11
175.3376454703609
 21
1189.282162061024
 31
0.0
 70
    32
 71
     5
 42
109.9999999999993
  3
STANDARD$0
100
AcDbAlignedDimension
 13
345.9018012767675
 23
1134.282162061025
 33
0.0
 14
345.9018012767673
 24
1244.282162061024
 34
0.0
 50
90.0
100
AcDbRotatedDimension
1001
ACAD
1000
DSTYLE
1002
{
1070
    41
1040
3.0
1070
    42
1040
3.0
1070
    44
1040
0.0
1070
    77
1070
     1
1070
   140
1040
10.0
1070
   146
1040
0.064286
1070
   147
1040
5.0
1070
   176
1070
    60
1070
   177
1070
    70
1070
   178
1070
    60
1070
   271
1070
     0
1070
   272
1070
     0
1070
   340
1005
1C
1070
   342
1005
109
1002
}
  0
DIMENSION
  5
3656
330
2
100
AcDbEntity
  8
SUNPOU
100
AcDbDimension
  2
*D7
 10
435.9018012767676
 20
1365.90853839669
 30
0.0
 11
390.9018012767675
 21
1385.90853839669
 31
0.0
 70
    32
 71
     5
 42
90.00000000000028
  3
STANDARD$0
100
AcDbAlignedDimension
 13
345.9018012767673
 23
1244.282162061024
 33
0.0
 14
435.9018012767676
 24
1245.269598490698
 34
0.0
100
AcDbRotatedDimension
1001
ACAD
1000
DSTYLE
1002
{
1070
    41
1040
3.0
1070
    42
1040
3.0
1070
    44
1040
0.0
1070
    77
1070
     1
1070
   140
1040
10.0
1070
   146
1040
0.064286
1070
   147
1040
5.0
1070
   176
1070
    60
1070
   177
1070
    70
1070
   178
1070
    60
1070
   271
1070
     0
1070
   272
1070
     0
1070
   340
1005
1C
1070
   342
1005
109
1002
}
  0
ARC
  5
39C8
330
2
100
AcDbEntity
  8
KIJUN
100
AcDbCircle
 10
369.00509563748
 20
704.3664816275146
 30
0.0
 40
64.36071314383276
100
AcDbArc
 50
332.1322060550632
 51
2.971169044376249
  0
ARC
  5
39D2
330
2
100
AcDbEntity
  8
KIJUN
100
AcDbCircle
 10
467.4791171949967
 20
869.4661683533219
 30
0.0
 40
46.03706737841622
100
AcDbArc
 50
139.635202482594
 51
186.974033669639
  0
LINE
  5
39D3
330
2
100
AcDbEntity
  8
KIJUN
100
AcDbLine
 10
433.2792914756864
 20
707.7025190575514
 30
0.0
 11
421.7826651578814
 21
863.8763701436847
 31
0.0
  0
LINE
  5
3A0B
330
2
100
AcDbEntity
  8
KIJUN
100
AcDbLine
 10
355.9018012767698
 20
674.2821620610246
 30
0.0
 11
425.9018012767699
 21
674.2821620610241
 31
0.0
  0
ARC
  5
3A0F
330
2
100
AcDbEntity
  8
KIJUN
100
AcDbCircle
 10
424.2082137684613
 20
664.2335723733165
 30
0.0
 40
10.1903087961164
100
AcDbArc
 50
282.4309059506134
 51
80.43328641771564
  0
ARC
  5
3A33
330
2
100
AcDbEntity
  8
KIJUN
100
AcDbCircle
 10
455.1627633186578
 20
654.654910235453
 30
0.0
 40
28.76337738820764
100
AcDbArc
 50
180.7425238958739
 51
222.3394279412015
  0
ARC
  5
3A3A
330
2
100
AcDbEntity
  8
KIJUN
100
AcDbCircle
 10
447.9116463246004
 20
968.9572346948535
 30
0.0
 40
21.51229908157124
100
AcDbArc
 50
130.6357735077153
 51
179.1345567199958
  0
ARC
  5
3A58
330
2
100
AcDbEntity
  8
KIJUN
100
AcDbCircle
 10
423.9117057077818
 20
961.6908255420575
 30
0.0
 40
7.989303229123204
100
AcDbArc
 50
291.9787302007403
 51
71.83957466525448
  0
LINE
  5
3A5B
330
2
100
AcDbEntity
  8
KIJUN
100
AcDbLine
 10
349.4018012767687
 20
899.282162061025
 30
0.0
 11
432.4018012767699
 21
899.2821620610243
 31
0.0
  0
ARC
  5
3A7E
330
2
100
AcDbEntity
  8
KIJUN
100
AcDbCircle
 10
403.4620705553747
 20
935.8858391852709
 30
0.0
 40
29.79673927866011
100
AcDbArc
 50
318.8590618417241
 51
38.12606664072729
  0
ARC
  5
3A82
330
2
100
AcDbEntity
  8
KIJUN
100
AcDbCircle
 10
406.2048490252964
 20
899.0083273766371
 30
0.0
 40
26.19838339860606
100
AcDbArc
 50
0.5988864717422296
 51
41.25011701810063
  0
LINE
  5
3AB5
330
2
100
AcDbEntity
  8
KIJUN
100
AcDbLine
 10
345.9018012767675
 20
1134.282162061025
 30
0.0
 11
435.9018012767676
 21
1134.282162061025
 31
0.0
  0
ARC
  5
3AB6
330
2
100
AcDbEntity
  8
KIJUN
100
AcDbCircle
 10
440.5955185695186
 20
1129.356047970091
 30
0.0
 40
18.18989961404831
100
AcDbArc
 50
196.2112009802013
 51
255.0462199538837
  0
ARC
  5
3AB7
330
2
100
AcDbEntity
  8
KIJUN
100
AcDbCircle
 10
390.9018012767705
 20
1077.373379223925
 30
0.0
 40
56.90878283709913
100
AcDbArc
 50
55.50784945933871
 51
124.4921505406639
  0
ARC
  5
3AB8
330
2
100
AcDbEntity
  8
KIJUN
100
AcDbCircle
 10
341.2080839840181
 20
1129.356047970091
 30
0.0
 40
18.18989961404831
100
AcDbArc
 50
284.9537800461172
 51
343.788799019797
  0
LINE
  5
3B23
330
2
100
AcDbEntity
  8
KIJUN
100
AcDbLine
 10
345.90180127677
 20
344.2821620610245
 30
0.0
 11
435.9018012767699
 21
344.2821620610239
 31
0.0
  0
LINE
  5
3B73
330
2
100
AcDbEntity
  8
KIJUN
100
AcDbLine
 10
434.4018012767679
 20
1134.282162061025
 30
0.0
 11
434.4018012767679
 21
1142.642409689778
 31
0.0
  0
LINE
  5
3B75
330
2
100
AcDbEntity
  8
KIJUN
100
AcDbLine
 10
423.5007264825953
 20
1152.211736742045
 30
0.0
 11
429.1379624233734
 21
1150.159950656066
 31
0.0
  0
ARC
  5
3B78
330
2
100
AcDbEntity
  8
KIJUN
100
AcDbCircle
 10
426.4018012767679
 20
1142.642409689778
 30
0.0
 40
8.0
100
AcDbArc
 50
0.0
 51
69.99999999999946
  0
ARC
  5
3B7B
330
2
100
AcDbEntity
  8
KIJUN
100
AcDbCircle
 10
356.5305482857507
 20
1157.282162061025
 30
0.0
 40
5.371252991017359
100
AcDbArc
 50
289.2666770481696
 51
46.40621600800714
  0
ARC
  5
3B7C
330
2
100
AcDbEntity
  8
KIJUN
100
AcDbCircle
 10
397.4670804864386
 20
1194.646464974903
 30
0.0
 40
50.06800691385748
100
AcDbArc
 50
97.53473564613621
 51
221.9571362391063
  0
LINE
  5
3B7D
330
2
100
AcDbEntity
  8
KIJUN
100
AcDbLine
 10
347.4018012767682
 20
1134.282162061025
 30
0.0
 11
347.4018012767681
 21
1142.642409689778
 31
0.0
  0
ARC
  5
3B7E
330
2
100
AcDbEntity
  8
KIJUN
100
AcDbCircle
 10
355.4018012767681
 20
1142.642409689778
 30
0.0
 40
7.999999999999998
100
AcDbArc
 50
110.0000000000033
 51
180.0
  0
LINE
  5
3B7F
330
2
100
AcDbEntity
  8
KIJUN
100
AcDbLine
 10
358.3028760709407
 20
1152.211736742045
 30
0.0
 11
352.6656401301627
 21
1150.159950656066
 31
0.0
  0
LINE
  5
3C21
330
2
100
AcDbEntity
  8
KIJUN
100
AcDbLine
 10
347.90180127677
 20
635.2821620610244
 30
0.0
 11
433.90180127677
 21
635.282162061024
 31
0.0
  0
LINE
  5
3C22
330
2
100
AcDbEntity
  8
KIJUN
100
AcDbLine
 10
433.90180127677
 20
629.282162061024
 30
0.0
 11
433.90180127677
 21
635.282162061024
 31
0.0
  0
LINE
  5
3C33
330
2
100
AcDbEntity
  8
KIJUN
100
AcDbLine
 10
355.4018012767695
 20
654.2821620610245
 30
0.0
 11
426.4018012767699
 21
654.2821620610241
 31
0.0
  0
LINE
  5
3C3A
330
2
100
AcDbEntity
  8
KIJUN
100
AcDbLine
 10
347.9018012767701
 20
985.2821620610248
 30
0.0
 11
433.9018012767698
 21
985.2821620610241
 31
0.0
  0
LINE
  5
3C3B
330
2
100
AcDbEntity
  8
KIJUN
100
AcDbLine
 10
433.9018012767698
 20
985.2821620610241
 30
0.0
 11
433.9018012767698
 21
989.2821620610241
 31
0.0
  0
LINE
  5
3C3C
330
2
100
AcDbEntity
  8
KIJUN
100
AcDbLine
 10
354.9018012767705
 20
954.2821620610245
 30
0.0
 11
426.9018012767699
 21
954.282162061024
 31
0.0
  0
LINE
  5
3C3D
330
2
100
AcDbEntity
  8
KIJUN
100
AcDbLine
 10
355.4018012767717
 20
969.2821620610246
 30
0.0
 11
426.4018012767698
 21
969.2821620610239
 31
0.0
  0
LINE
  5
3C5C
330
2
100
AcDbEntity
  8
KIJUN
100
AcDbLine
 10
355.9018012767678
 20
916.2821620610248
 30
0.0
 11
425.9018012767699
 21
916.2821620610243
 31
0.0
  0
ARC
  5
3C7E
330
2
100
AcDbEntity
  8
KIJUN
100
AcDbCircle
 10
412.7985069160599
 20
704.3664816275146
 30
0.0
 40
64.36071314383276
100
AcDbArc
 50
177.0288309556237
 51
207.8677939449359
  0
ARC
  5
3C7F
330
2
100
AcDbEntity
  8
KIJUN
100
AcDbCircle
 10
314.3244853585433
 20
869.4661683533219
 30
0.0
 40
46.03706737841622
100
AcDbArc
 50
353.0259663303609
 51
40.36479751740801
  0
LINE
  5
3C80
330
2
100
AcDbEntity
  8
KIJUN
100
AcDbLine
 10
348.5243110778534
 20
707.7025190575514
 30
0.0
 11
360.0209373956584
 21
863.8763701436847
 31
0.0
  0
ARC
  5
3C81
330
2
100
AcDbEntity
  8
KIJUN
100
AcDbCircle
 10
357.5953887850786
 20
664.2335723733165
 30
0.0
 40
10.1903087961164
100
AcDbArc
 50
99.566713582283
 51
257.5690940493844
  0
ARC
  5
3C82
330
2
100
AcDbEntity
  8
KIJUN
100
AcDbCircle
 10
326.6408392348821
 20
654.654910235453
 30
0.0
 40
28.76337738820764
100
AcDbArc
 50
317.6605720587982
 51
359.2574761041269
  0
ARC
  5
3C83
330
2
100
AcDbEntity
  8
KIJUN
100
AcDbCircle
 10
333.8919562289395
 20
968.9572346948535
 30
0.0
 40
21.51229908157124
100
AcDbArc
 50
0.8654432800057664
 51
49.36422649228338
  0
ARC
  5
3C84
330
2
100
AcDbEntity
  8
KIJUN
100
AcDbCircle
 10
357.8918968457581
 20
961.6908255420575
 30
0.0
 40
7.989303229123204
100
AcDbArc
 50
108.1604253347483
 51
248.0212697992616
  0
ARC
  5
3C85
330
2
100
AcDbEntity
  8
KIJUN
100
AcDbCircle
 10
378.3415319981652
 20
935.8858391852709
 30
0.0
 40
29.79673927866011
100
AcDbArc
 50
141.8739333592715
 51
221.1409381582739
  0
ARC
  5
3C86
330
2
100
AcDbEntity
  8
KIJUN
100
AcDbCircle
 10
375.5987535282435
 20
899.0083273766371
 30
0.0
 40
26.19838339860606
100
AcDbArc
 50
138.7498829819014
 51
179.4011135282578
  0
LINE
  5
3C87
330
2
100
AcDbEntity
  8
KIJUN
100
AcDbLine
 10
347.90180127677
 20
629.282162061024
 30
0.0
 11
347.90180127677
 21
635.2821620610244
 31
0.0
  0
LINE
  5
3C88
330
2
100
AcDbEntity
  8
KIJUN
100
AcDbLine
 10
347.9018012767701
 20
985.2821620610248
 30
0.0
 11
347.9018012767701
 21
989.2821620610241
 31
0.0
  0
ENDSEC
  0
SECTION
  2
OBJECTS
  0
DICTIONARY
  5
1A
330
0
100
AcDbDictionary
281
     1
  3
ACAD_COLOR
350
2E6A
  3
ACAD_GROUP
350
18
  3
ACAD_LAYOUT
350
58
  3
ACAD_MATERIAL
350
2E69
  3
ACAD_MLINESTYLE
350
19
  3
ACAD_PLOTSETTINGS
350
59
  3
ACAD_PLOTSTYLENAME
350
56
  3
ACAD_TABLESTYLE
350
2E6B
  3
ACDBHEADERROUNDTRIPXREC
350
3DED
  3
AcDbVariableDictionary
350
2E7D
  0
DICTIONARY
  5
34C7
330
2
100
AcDbDictionary
280
     1
281
     1
  3
ACAD_SORTENTS
360
34C8
  0
DICTIONARY
  5
2E6A
102
{ACAD_REACTORS
330
1A
102
}
330
1A
100
AcDbDictionary
281
     1
  0
DICTIONARY
  5
18
102
{ACAD_REACTORS
330
1A
102
}
330
1A
100
AcDbDictionary
281
     1
  3
*A1
350
3A0
  3
*A10
350
2E65
  3
*A11
350
1CB2
  3
*A12
350
2A6A
  3
*A13
350
2A6B
  3
*A14
350
171D
  3
*A16
350
171C
  3
*A17
350
3A1
  3
*A18
350
1CB1
  3
*A19
350
6E6
  3
*A2
350
1131
  3
*A20
350
9D9
  3
*A21
350
DE0
  3
*A22
350
6E7
  3
*A3
350
9DA
  3
*A4
350
21DD
  3
*A5
350
21DE
  3
*A6
350
DE1
  3
*A7
350
25D6
  3
*A8
350
25D5
  3
*A9
350
1132
  0
DICTIONARY
  5
58
102
{ACAD_REACTORS
330
1A
102
}
330
1A
100
AcDbDictionary
281
     1
  3
Model
350
5A
  3
ﾚｲｱｳﾄ1
350
5B
  0
DICTIONARY
  5
2E69
102
{ACAD_REACTORS
330
1A
102
}
330
1A
100
AcDbDictionary
281
     1
  0
DICTIONARY
  5
19
102
{ACAD_REACTORS
330
1A
102
}
330
1A
100
AcDbDictionary
281
     1
  3
STANDARD
350
1D
  0
DICTIONARY
  5
59
102
{ACAD_REACTORS
330
1A
102
}
330
1A
100
AcDbDictionary
281
     1
  0
ACDBDICTIONARYWDFLT
  5
56
102
{ACAD_REACTORS
330
1A
102
}
330
1A
100
AcDbDictionary
281
     1
  3
Normal
350
57
100
AcDbDictionaryWithDefault
340
57
  0
DICTIONARY
  5
2E6B
102
{ACAD_REACTORS
330
1A
102
}
330
1A
100
AcDbDictionary
281
     1
  3
Standard
350
2E6C
  0
DICTIONARY
  5
3DED
102
{ACAD_REACTORS
330
1A
102
}
330
1A
100
AcDbDictionary
281
     1
  0
DICTIONARY
  5
2E7D
102
{ACAD_REACTORS
330
1A
102
}
330
1A
100
AcDbDictionary
281
     1
  3
CTABLESTYLE
350
2E7E
  3
DIMASSOC
350
303E
  3
PROJECTNAME
350
303F
  0
SORTENTSTABLE
  5
34C8
102
{ACAD_REACTORS
330
34C7
102
}
330
34C7
100
AcDbSortentsTable
330
2
331
3AB5
  5
3AB6
331
3B7D
  5
3B7D
331
3A82
  5
3A89
331
3586
  5
3589
331
32A2
  5
32A2
331
2E7F
  5
2E7F
331
3618
  5
3637
331
3A33
  5
3A36
331
3AB6
  5
3AB7
331
3B7E
  5
3B7E
331
3A58
  5
3A5A
331
3B23
  5
3B24
331
3587
  5
3596
331
3B78
  5
3B75
331
3A3A
  5
3A3C
331
3581
  5
3588
331
34CE
  5
34D5
331
3AB7
  5
3AB8
331
3B7F
  5
3B7F
331
3588
  5
35C8
331
3656
  5
39C8
331
3A7E
  5
3A82
331
1F
  5
1F
331
3B73
  5
3B73
331
3AB8
  5
3ABA
331
34FC
  5
3587
331
39D2
  5
39D3
331
3A0F
  5
3A17
331
35F9
  5
3618
331
35C6
  5
33ED
331
34A5
  5
34B2
331
20
  5
20
331
3352
  5
3361
331
39D3
  5
3A05
331
3C21
  5
3C21
331
3A5B
  5
3A7E
331
32D1
  5
3352
331
3B7B
  5
3B7B
331
35C7
  5
32D2
331
3361
  5
34B1
331
3637
  5
3656
331
34D1
  5
34FB
331
21
  5
21
331
3B75
  5
3B78
331
34A6
  5
34D4
331
34F8
  5
3501
331
35C8
  5
35F9
331
3B7C
  5
3B7C
331
3A0B
  5
3A0F
331
39C8
  5
39D2
331
32A1
  5
32A1
  0
GROUP
  5
3A0
102
{ACAD_REACTORS
330
18
102
}
330
18
100
AcDbGroup
300

 70
     1
 71
     1
  0
GROUP
  5
2E65
102
{ACAD_REACTORS
330
18
102
}
330
18
100
AcDbGroup
300

 70
     1
 71
     1
  0
GROUP
  5
1CB2
102
{ACAD_REACTORS
330
18
102
}
330
18
100
AcDbGroup
300

 70
     1
 71
     1
  0
GROUP
  5
2A6A
102
{ACAD_REACTORS
330
18
102
}
330
18
100
AcDbGroup
300

 70
     1
 71
     1
  0
GROUP
  5
2A6B
102
{ACAD_REACTORS
330
18
102
}
330
18
100
AcDbGroup
300

 70
     1
 71
     1
  0
GROUP
  5
171D
102
{ACAD_REACTORS
330
18
102
}
330
18
100
AcDbGroup
300

 70
     1
 71
     1
  0
GROUP
  5
171C
102
{ACAD_REACTORS
330
18
102
}
330
18
100
AcDbGroup
300

 70
     1
 71
     1
  0
GROUP
  5
3A1
102
{ACAD_REACTORS
330
18
102
}
330
18
100
AcDbGroup
300

 70
     1
 71
     1
  0
GROUP
  5
1CB1
102
{ACAD_REACTORS
330
18
102
}
330
18
100
AcDbGroup
300

 70
     1
 71
     1
  0
GROUP
  5
6E6
102
{ACAD_REACTORS
330
18
102
}
330
18
100
AcDbGroup
300

 70
     1
 71
     1
  0
GROUP
  5
1131
102
{ACAD_REACTORS
330
18
102
}
330
18
100
AcDbGroup
300

 70
     1
 71
     1
  0
GROUP
  5
9D9
102
{ACAD_REACTORS
330
18
102
}
330
18
100
AcDbGroup
300

 70
     1
 71
     1
  0
GROUP
  5
DE0
102
{ACAD_REACTORS
330
18
102
}
330
18
100
AcDbGroup
300

 70
     1
 71
     1
  0
GROUP
  5
6E7
102
{ACAD_REACTORS
330
18
102
}
330
18
100
AcDbGroup
300

 70
     1
 71
     1
  0
GROUP
  5
9DA
102
{ACAD_REACTORS
330
18
102
}
330
18
100
AcDbGroup
300

 70
     1
 71
     1
  0
GROUP
  5
21DD
102
{ACAD_REACTORS
330
18
102
}
330
18
100
AcDbGroup
300

 70
     1
 71
     1
  0
GROUP
  5
21DE
102
{ACAD_REACTORS
330
18
102
}
330
18
100
AcDbGroup
300

 70
     1
 71
     1
  0
GROUP
  5
DE1
102
{ACAD_REACTORS
330
18
102
}
330
18
100
AcDbGroup
300

 70
     1
 71
     1
  0
GROUP
  5
25D6
102
{ACAD_REACTORS
330
18
102
}
330
18
100
AcDbGroup
300

 70
     1
 71
     1
  0
GROUP
  5
25D5
102
{ACAD_REACTORS
330
18
102
}
330
18
100
AcDbGroup
300

 70
     1
 71
     1
  0
GROUP
  5
1132
102
{ACAD_REACTORS
330
18
102
}
330
18
100
AcDbGroup
300

 70
     1
 71
     1
  0
LAYOUT
  5
5A
102
{ACAD_XDICTIONARY
360
3DEE
102
}
102
{ACAD_REACTORS
330
58
102
}
330
58
100
AcDbPlotSettings
  1

  2
なし
  4

  6

 40
0.0
 41
0.0
 42
0.0
 43
0.0
 44
0.0
 45
0.0
 46
0.0
 47
0.0
 48
0.0
 49
0.0
140
0.0
141
0.0
142
1.0
143
1.0
 70
  1712
 72
     0
 73
     0
 74
     0
  7
monochrome.ctb
 75
     0
147
1.0
148
0.0
149
0.0
100
AcDbLayout
  1
Model
 70
     1
 71
     0
 10
0.0
 20
0.0
 11
12.0
 21
9.0
 12
0.0
 22
0.0
 32
0.0
 14
0.0
 24
0.0
 34
0.0
 15
0.0
 25
0.0
 35
0.0
146
0.0
 13
0.0
 23
0.0
 33
0.0
 16
1.0
 26
0.0
 36
0.0
 17
0.0
 27
1.0
 37
0.0
 76
     0
330
2
  0
LAYOUT
  5
5B
102
{ACAD_XDICTIONARY
360
3DF0
102
}
102
{ACAD_REACTORS
330
58
102
}
330
58
100
AcDbPlotSettings
  1

  2
なし
  4

  6

 40
0.0
 41
0.0
 42
0.0
 43
0.0
 44
0.0
 45
0.0
 46
0.0
 47
0.0
 48
0.0
 49
0.0
140
0.0
141
0.0
142
1.0
143
1.0
 70
   688
 72
     0
 73
     0
 74
     5
  7
monochrome.ctb
 75
    16
147
1.0
148
0.0
149
0.0
100
AcDbLayout
  1
ﾚｲｱｳﾄ1
 70
     1
 71
     1
 10
0.0
 20
0.0
 11
12.0
 21
9.0
 12
0.0
 22
0.0
 32
0.0
 14
1.000000000000000E+20
 24
1.000000000000000E+20
 34
1.000000000000000E+20
 15
-1.000000000000000E+20
 25
-1.000000000000000E+20
 35
-1.000000000000000E+20
146
0.0
 13
0.0
 23
0.0
 33
0.0
 16
1.0
 26
0.0
 36
0.0
 17
0.0
 27
1.0
 37
0.0
 76
     0
330
7
  0
MLINESTYLE
  5
1D
102
{ACAD_REACTORS
330
19
102
}
330
19
100
AcDbMlineStyle
  2
STANDARD
 70
     0
  3

 62
   256
 51
90.0
 52
90.0
 71
     2
 49
0.5
 62
   256
  6
BYLAYER
 49
-0.5
 62
   256
  6
BYLAYER
  0
ACDBPLACEHOLDER
  5
57
102
{ACAD_REACTORS
330
56
102
}
330
56
  0
TABLESTYLE
  5
2E6C
102
{ACAD_REACTORS
330
2E6B
102
}
330
2E6B
100
AcDbTableStyle
  3
Standard
 70
     0
 71
     0
 40
0.06
 41
0.06
280
     0
281
     0
  7
STANDARD
140
0.18
170
     2
 62
     0
 63
     7
283
     0
274
    -2
284
     1
 64
     0
275
    -2
285
     1
 65
     0
276
    -2
286
     1
 66
     0
277
    -2
287
     1
 67
     0
278
    -2
288
     1
 68
     0
279
    -2
289
     1
 69
     0
  7
STANDARD
140
0.25
170
     5
 62
     0
 63
     7
283
     0
274
    -2
284
     1
 64
     0
275
    -2
285
     1
 65
     0
276
    -2
286
     1
 66
     0
277
    -2
287
     1
 67
     0
278
    -2
288
     1
 68
     0
279
    -2
289
     1
 69
     0
  7
STANDARD
140
0.18
170
     5
 62
     0
 63
     7
283
     0
274
    -2
284
     1
 64
     0
275
    -2
285
     1
 65
     0
276
    -2
286
     1
 66
     0
277
    -2
287
     1
 67
     0
278
    -2
288
     1
 68
     0
279
    -2
289
     1
 69
     0
  0
DICTIONARYVAR
  5
2E7E
102
{ACAD_REACTORS
330
2E7D
102
}
330
2E7D
100
DictionaryVariables
280
     0
  1
STANDARD
  0
DICTIONARYVAR
  5
303E
102
{ACAD_REACTORS
330
2E7D
102
}
330
2E7D
100
DictionaryVariables
280
     0
  1
1
  0
DICTIONARYVAR
  5
303F
102
{ACAD_REACTORS
330
2E7D
102
}
330
2E7D
100
DictionaryVariables
280
     0
  1

  0
DICTIONARY
  5
3DEE
330
5A
100
AcDbDictionary
280
     1
281
     1
  3
ACAD_XREC_ROUNDTRIP
360
3DEF
  0
DICTIONARY
  5
3DF0
330
5B
100
AcDbDictionary
280
     1
281
     1
  3
ACAD_XREC_ROUNDTRIP
360
3DF1
  0
XRECORD
  5
3DEF
102
{ACAD_REACTORS
330
3DEE
102
}
330
3DEE
100
AcDbXrecord
280
     1
102
SHADEPLOT
 70
     0
102
SHADEPLOTRESLEVEL
 70
     2
102
SHADEPLOTCUSTOMDPI
 70
   300
  0
XRECORD
  5
3DF1
102
{ACAD_REACTORS
330
3DF0
102
}
330
3DF0
100
AcDbXrecord
280
     1
102
SHADEPLOT
 70
     0
102
SHADEPLOTRESLEVEL
 70
     2
102
SHADEPLOTCUSTOMDPI
 70
   300
  0
ENDSEC
  0
EOF
