  0
SECTION
  2
HEADER
  9
$ACADVER
  1
AC1015
  9
$ACADMAINTVER
 70
    20
  9
$DWGCODEPAGE
  3
ANSI_932
  9
$INSBASE
 10
922.019522
 20
-675.4306699999999
 30
0.0
  9
$EXTMIN
 10
0.0
 20
0.0
 30
0.0
  9
$EXTMAX
 10
802.4448582724989
 20
1630.252694225074
 30
0.0
  9
$LIMMIN
 10
0.0
 20
0.0
  9
$LIMMAX
 10
420.0
 20
297.0
  9
$ORTHOMODE
 70
     1
  9
$REGENMODE
 70
     1
  9
$FILLMODE
 70
     1
  9
$QTEXTMODE
 70
     0
  9
$MIRRTEXT
 70
     1
  9
$LTSCALE
 40
5.0
  9
$ATTMODE
 70
     1
  9
$TEXTSIZE
 40
30.0
  9
$TRACEWID
 40
0.05
  9
$TEXTSTYLE
  7
SUNPOU
  9
$CLAYER
  8
0
  9
$CELTYPE
  6
BYLAYER
  9
$CECOLOR
 62
   256
  9
$CELTSCALE
 40
1.0
  9
$DISPSILH
 70
     0
  9
$DIMSCALE
 40
1.0
  9
$DIMASZ
 40
3.0
  9
$DIMEXO
 40
3.0
  9
$DIMDLI
 40
0.38
  9
$DIMRND
 40
0.0
  9
$DIMDLE
 40
0.0
  9
$DIMEXE
 40
0.0
  9
$DIMTP
 40
0.0
  9
$DIMTM
 40
0.0
  9
$DIMTXT
 40
10.0
  9
$DIMCEN
 40
0.0
  9
$DIMTSZ
 40
0.0
  9
$DIMTOL
 70
     0
  9
$DIMLIM
 70
     0
  9
$DIMTIH
 70
     0
  9
$DIMTOH
 70
     0
  9
$DIMSE1
 70
     0
  9
$DIMSE2
 70
     0
  9
$DIMTAD
 70
     1
  9
$DIMZIN
 70
     0
  9
$DIMBLK
  1
Dot
  9
$DIMASO
 70
     1
  9
$DIMSHO
 70
     1
  9
$DIMPOST
  1

  9
$DIMAPOST
  1

  9
$DIMALT
 70
     0
  9
$DIMALTD
 70
     2
  9
$DIMALTF
 40
25.4
  9
$DIMLFAC
 40
1.0
  9
$DIMTOFL
 70
     0
  9
$DIMTVP
 40
0.0
  9
$DIMTIX
 70
     0
  9
$DIMSOXD
 70
     0
  9
$DIMSAH
 70
     0
  9
$DIMBLK1
  1

  9
$DIMBLK2
  1

  9
$DIMSTYLE
  2
STANDARD
  9
$DIMCLRD
 70
    60
  9
$DIMCLRE
 70
    70
  9
$DIMCLRT
 70
    60
  9
$DIMTFAC
 40
0.064286
  9
$DIMGAP
 40
5.0
  9
$DIMJUST
 70
     0
  9
$DIMSD1
 70
     0
  9
$DIMSD2
 70
     0
  9
$DIMTOLJ
 70
     1
  9
$DIMTZIN
 70
     0
  9
$DIMALTZ
 70
     0
  9
$DIMALTTZ
 70
     0
  9
$DIMUPT
 70
     0
  9
$DIMDEC
 70
     0
  9
$DIMTDEC
 70
     0
  9
$DIMALTU
 70
     2
  9
$DIMALTTD
 70
     2
  9
$DIMTXSTY
  7
SUNPOU
  9
$DIMAUNIT
 70
     0
  9
$DIMADEC
 70
     0
  9
$DIMALTRND
 40
0.0
  9
$DIMAZIN
 70
     0
  9
$DIMDSEP
 70
    46
  9
$DIMATFIT
 70
     3
  9
$DIMFRAC
 70
     0
  9
$DIMLDRBLK
  1

  9
$DIMLUNIT
 70
     2
  9
$DIMLWD
 70
    -2
  9
$DIMLWE
 70
    -2
  9
$DIMTMOVE
 70
     0
  9
$LUNITS
 70
     2
  9
$LUPREC
 70
     5
  9
$SKETCHINC
 40
0.1
  9
$FILLETRAD
 40
0.0
  9
$AUNITS
 70
     0
  9
$AUPREC
 70
     0
  9
$MENU
  1
acad
  9
$ELEVATION
 40
0.0
  9
$PELEVATION
 40
0.0
  9
$THICKNESS
 40
0.0
  9
$LIMCHECK
 70
     0
  9
$CHAMFERA
 40
0.0
  9
$CHAMFERB
 40
0.0
  9
$CHAMFERC
 40
0.0
  9
$CHAMFERD
 40
0.0
  9
$SKPOLY
 70
     0
  9
$TDCREATE
 40
2450623.654673033
  9
$TDUCREATE
 40
2450623.279673032
  9
$TDUPDATE
 40
2453909.484254537
  9
$TDUUPDATE
 40
2453909.109254537
  9
$TDINDWG
 40
0.4210932176
  9
$TDUSRTIMER
 40
0.4210930440
  9
$USRTIMER
 70
     1
  9
$ANGBASE
 50
0.0
  9
$ANGDIR
 70
     0
  9
$PDMODE
 70
     0
  9
$PDSIZE
 40
0.0
  9
$PLINEWID
 40
0.0
  9
$SPLFRAME
 70
     0
  9
$SPLINETYPE
 70
     6
  9
$SPLINESEGS
 70
     8
  9
$HANDSEED
  5
3A1B
  9
$SURFTAB1
 70
     6
  9
$SURFTAB2
 70
     6
  9
$SURFTYPE
 70
     6
  9
$SURFU
 70
     6
  9
$SURFV
 70
     6
  9
$UCSBASE
  2

  9
$UCSNAME
  2

  9
$UCSORG
 10
0.0
 20
0.0
 30
0.0
  9
$UCSXDIR
 10
1.0
 20
0.0
 30
0.0
  9
$UCSYDIR
 10
0.0
 20
1.0
 30
0.0
  9
$UCSORTHOREF
  2

  9
$UCSORTHOVIEW
 70
     0
  9
$UCSORGTOP
 10
0.0
 20
0.0
 30
0.0
  9
$UCSORGBOTTOM
 10
0.0
 20
0.0
 30
0.0
  9
$UCSORGLEFT
 10
0.0
 20
0.0
 30
0.0
  9
$UCSORGRIGHT
 10
0.0
 20
0.0
 30
0.0
  9
$UCSORGFRONT
 10
0.0
 20
0.0
 30
0.0
  9
$UCSORGBACK
 10
0.0
 20
0.0
 30
0.0
  9
$PUCSBASE
  2

  9
$PUCSNAME
  2

  9
$PUCSORG
 10
0.0
 20
0.0
 30
0.0
  9
$PUCSXDIR
 10
1.0
 20
0.0
 30
0.0
  9
$PUCSYDIR
 10
0.0
 20
1.0
 30
0.0
  9
$PUCSORTHOREF
  2

  9
$PUCSORTHOVIEW
 70
     0
  9
$PUCSORGTOP
 10
0.0
 20
0.0
 30
0.0
  9
$PUCSORGBOTTOM
 10
0.0
 20
0.0
 30
0.0
  9
$PUCSORGLEFT
 10
0.0
 20
0.0
 30
0.0
  9
$PUCSORGRIGHT
 10
0.0
 20
0.0
 30
0.0
  9
$PUCSORGFRONT
 10
0.0
 20
0.0
 30
0.0
  9
$PUCSORGBACK
 10
0.0
 20
0.0
 30
0.0
  9
$USERI1
 70
     0
  9
$USERI2
 70
     0
  9
$USERI3
 70
     0
  9
$USERI4
 70
     0
  9
$USERI5
 70
     0
  9
$USERR1
 40
0.0
  9
$USERR2
 40
0.0
  9
$USERR3
 40
0.0
  9
$USERR4
 40
0.0
  9
$USERR5
 40
0.0
  9
$WORLDVIEW
 70
     1
  9
$SHADEDGE
 70
     3
  9
$SHADEDIF
 70
    70
  9
$TILEMODE
 70
     1
  9
$MAXACTVP
 70
    16
  9
$PINSBASE
 10
0.0
 20
0.0
 30
0.0
  9
$PLIMCHECK
 70
     0
  9
$PEXTMIN
 10
1.000000000000000E+20
 20
1.000000000000000E+20
 30
1.000000000000000E+20
  9
$PEXTMAX
 10
-1.000000000000000E+20
 20
-1.000000000000000E+20
 30
-1.000000000000000E+20
  9
$PLIMMIN
 10
0.0
 20
0.0
  9
$PLIMMAX
 10
12.0
 20
9.0
  9
$UNITMODE
 70
     0
  9
$VISRETAIN
 70
     0
  9
$PLINEGEN
 70
     0
  9
$PSLTSCALE
 70
     1
  9
$TREEDEPTH
 70
  3020
  9
$CMLSTYLE
  2
STANDARD
  9
$CMLJUST
 70
     0
  9
$CMLSCALE
 40
1.0
  9
$PROXYGRAPHICS
 70
     1
  9
$MEASUREMENT
 70
     0
  9
$CELWEIGHT
370
    -1
  9
$ENDCAPS
280
     0
  9
$JOINSTYLE
280
     0
  9
$LWDISPLAY
290
     0
  9
$INSUNITS
 70
     0
  9
$HYPERLINKBASE
  1

  9
$STYLESHEET
  1

  9
$XEDIT
290
     1
  9
$CEPSNTYPE
380
     0
  9
$PSTYLEMODE
290
     1
  9
$FINGERPRINTGUID
  2
{FB88A696-E29C-4009-92AF-A3599A8169D5}
  9
$VERSIONGUID
  2
{D871B9BE-9A7F-4C1D-B115-2A0851495B98}
  9
$EXTNAMES
290
     1
  9
$PSVPSCALE
 40
0.0
  9
$OLESTARTUP
290
     0
  0
ENDSEC
  0
SECTION
  2
CLASSES
  0
CLASS
  1
DICTIONARYVAR
  2
AcDbDictionaryVar
  3
ObjectDBX Classes
 90
        0
280
     0
281
     0
  0
CLASS
  1
ACDBDICTIONARYWDFLT
  2
AcDbDictionaryWithDefault
  3
ObjectDBX Classes
 90
        0
280
     0
281
     0
  0
CLASS
  1
ACDBPLACEHOLDER
  2
AcDbPlaceHolder
  3
ObjectDBX Classes
 90
        0
280
     0
281
     0
  0
CLASS
  1
LAYOUT
  2
AcDbLayout
  3
ObjectDBX Classes
 90
        0
280
     0
281
     0
  0
CLASS
  1
TABLESTYLE
  2
AcDbTableStyle
  3
ObjectDBX Classes
 90
     2047
280
     0
281
     0
  0
CLASS
  1
SORTENTSTABLE
  2
AcDbSortentsTable
  3
ObjectDBX Classes
 90
        0
280
     0
281
     0
  0
ENDSEC
  0
SECTION
  2
TABLES
  0
TABLE
  2
VPORT
  5
12
330
0
100
AcDbSymbolTable
 70
     2
  0
VPORT
  5
3A15
330
12
100
AcDbSymbolTableRecord
100
AcDbViewportTableRecord
  2
*Active
 70
     0
 10
0.0
 20
0.0
 11
1.0
 21
1.0
 12
401.222431004587
 22
818.5067899364522
 13
0.0
 23
0.0
 14
1.0
 24
1.0
 15
0.0
 25
0.0
 16
0.0
 26
0.0
 36
1.0
 17
0.0
 27
0.0
 37
0.0
 40
1649.654245755275
 41
1.5596919127086
 42
50.0
 43
0.0
 44
0.0
 50
0.0
 51
0.0
 71
     0
 72
 20000
 73
     1
 74
     1
 75
     0
 76
     0
 77
     0
 78
     0
281
     0
 65
     1
110
0.0
120
0.0
130
0.0
111
1.0
121
0.0
131
0.0
112
0.0
122
1.0
132
0.0
 79
     0
146
0.0
  0
ENDTAB
  0
TABLE
  2
LTYPE
  5
D
330
0
100
AcDbSymbolTable
 70
     1
  0
LTYPE
  5
E
330
D
100
AcDbSymbolTableRecord
100
AcDbLinetypeTableRecord
  2
BYBLOCK
 70
     0
  3

 72
    65
 73
     0
 40
0.0
  0
LTYPE
  5
F
330
D
100
AcDbSymbolTableRecord
100
AcDbLinetypeTableRecord
  2
BYLAYER
 70
     0
  3

 72
    65
 73
     0
 40
0.0
  0
LTYPE
  5
5
330
D
100
AcDbSymbolTableRecord
100
AcDbLinetypeTableRecord
  2
CONTINUOUS
 70
     0
  3
Solid line
 72
    65
 73
     0
 40
0.0
  0
ENDTAB
  0
TABLE
  2
LAYER
  5
A
330
0
100
AcDbSymbolTable
 70
     6
  0
LAYER
  5
4
330
A
100
AcDbSymbolTableRecord
100
AcDbLayerTableRecord
  2
0
 70
     0
 62
     7
  6
CONTINUOUS
370
    -3
390
57
  0
LAYER
  5
25
330
A
100
AcDbSymbolTableRecord
100
AcDbLayerTableRecord
  2
KIJUN
 70
     0
 62
     7
  6
CONTINUOUS
370
    -3
390
57
  0
LAYER
  5
22
330
A
100
AcDbSymbolTableRecord
100
AcDbLayerTableRecord
  2
HOJO
 70
     0
 62
     3
  6
CONTINUOUS
370
    -3
390
57
  0
LAYER
  5
1B
330
A
100
AcDbSymbolTableRecord
100
AcDbLayerTableRecord
  2
WAKU
 70
     0
 62
     1
  6
CONTINUOUS
370
    -3
390
57
  0
LAYER
  5
31
330
A
100
AcDbSymbolTableRecord
100
AcDbLayerTableRecord
  2
DEFPOINTS
 70
     0
 62
     7
  6
CONTINUOUS
290
     0
370
    -3
390
57
  0
LAYER
  5
28
330
A
100
AcDbSymbolTableRecord
100
AcDbLayerTableRecord
  2
SUNPOU
 70
     0
 62
    70
  6
CONTINUOUS
370
    -3
390
57
  0
ENDTAB
  0
TABLE
  2
STYLE
  5
B
330
0
100
AcDbSymbolTable
 70
     3
  0
STYLE
  5
C
330
B
100
AcDbSymbolTableRecord
100
AcDbTextStyleTableRecord
  2
STANDARD
 70
     0
 40
0.0
 41
1.0
 50
0.0
 71
     0
 42
0.2
  3
txt
  4

  0
STYLE
  5
1C
330
B
100
AcDbSymbolTableRecord
100
AcDbTextStyleTableRecord
  2
SUNPOU
 70
     0
 40
0.0
 41
1.0
 50
0.0
 71
     0
 42
30.0
  3
txt
  4
bigfont
  0
STYLE
  5
1AD
330
B
100
AcDbSymbolTableRecord
100
AcDbTextStyleTableRecord
  2
LIFE
 70
     0
 40
0.0
 41
0.7
 50
0.0
 71
     0
 42
10.0
  3
romans
  4
extfont
  0
ENDTAB
  0
TABLE
  2
VIEW
  5
10
330
0
100
AcDbSymbolTable
 70
     0
  0
ENDTAB
  0
TABLE
  2
UCS
  5
11
330
0
100
AcDbSymbolTable
 70
     0
  0
ENDTAB
  0
TABLE
  2
APPID
  5
14
330
0
100
AcDbSymbolTable
 70
     2
  0
APPID
  5
15
330
14
100
AcDbSymbolTableRecord
100
AcDbRegAppTableRecord
  2
ACAD
 70
     0
  0
APPID
  5
2EB0
330
14
100
AcDbSymbolTableRecord
100
AcDbRegAppTableRecord
  2
ACAD_EXEMPT_FROM_CAD_STANDARDS
 70
     0
  0
ENDTAB
  0
TABLE
  2
DIMSTYLE
  5
16
330
0
100
AcDbSymbolTable
 70
     2
100
AcDbDimStyleTable
 71
     1
340
1E
  0
DIMSTYLE
105
1E
330
16
100
AcDbSymbolTableRecord
100
AcDbDimStyleTableRecord
  2
STANDARD
 70
     0
340
C
  0
DIMSTYLE
105
1AE
102
{ACAD_REACTORS
330
32A1
330
32D1
330
35C8
330
35F9
330
3618
330
3637
330
3656
102
}
330
16
100
AcDbSymbolTableRecord
100
AcDbDimStyleTableRecord
  2
STANDARD$0
 70
     0
 40
2.0
 41
1.0
 42
2.0
 43
0.0
 44
1.0
 73
     0
 74
     0
 77
     3
 78
     9
140
4.5
141
0.0
147
1.0
172
     1
173
     1
178
     3
271
     2
340
1AD
341
109
343
109
344
109
  0
ENDTAB
  0
TABLE
  2
BLOCK_RECORD
  5
1
330
0
100
AcDbSymbolTable
 70
     8
  0
BLOCK_RECORD
  5
2
102
{ACAD_XDICTIONARY
360
34C7
102
}
330
1
100
AcDbSymbolTableRecord
100
AcDbBlockTableRecord
  2
*MODEL_SPACE
340
5A
  0
BLOCK_RECORD
  5
7
330
1
100
AcDbSymbolTableRecord
100
AcDbBlockTableRecord
  2
*PAPER_SPACE
340
5B
  0
BLOCK_RECORD
  5
109
330
1
100
AcDbSymbolTableRecord
100
AcDbBlockTableRecord
  2
_Dot
340
0
102
{BLKREFS
331
36AE
331
36AF
331
38EB
331
38EC
331
38F4
331
38F5
331
38FD
331
38FE
331
3906
331
3907
331
390F
331
3910
331
3918
331
3919
102
}
  0
BLOCK_RECORD
  5
32BC
330
1
100
AcDbSymbolTableRecord
100
AcDbBlockTableRecord
  2
*D1
340
0
  0
BLOCK_RECORD
  5
32D3
330
1
100
AcDbSymbolTableRecord
100
AcDbBlockTableRecord
  2
*D2
340
0
  0
BLOCK_RECORD
  5
35C9
330
1
100
AcDbSymbolTableRecord
100
AcDbBlockTableRecord
  2
*D3
340
0
  0
BLOCK_RECORD
  5
35FA
330
1
100
AcDbSymbolTableRecord
100
AcDbBlockTableRecord
  2
*D4
340
0
  0
BLOCK_RECORD
  5
3619
330
1
100
AcDbSymbolTableRecord
100
AcDbBlockTableRecord
  2
*D5
340
0
  0
BLOCK_RECORD
  5
3638
330
1
100
AcDbSymbolTableRecord
100
AcDbBlockTableRecord
  2
*D6
340
0
  0
BLOCK_RECORD
  5
3657
330
1
100
AcDbSymbolTableRecord
100
AcDbBlockTableRecord
  2
*D7
340
0
  0
ENDTAB
  0
ENDSEC
  0
SECTION
  2
BLOCKS
  0
BLOCK
  5
3
330
2
100
AcDbEntity
  8
0
100
AcDbBlockBegin
  2
*MODEL_SPACE
 70
     0
 10
0.0
 20
0.0
 30
0.0
  3
*MODEL_SPACE
  1

  0
ENDBLK
  5
6
330
2
100
AcDbEntity
  8
0
100
AcDbBlockEnd
  0
BLOCK
  5
8
330
7
100
AcDbEntity
 67
     1
  8
0
100
AcDbBlockBegin
  2
*PAPER_SPACE
 70
     0
 10
0.0
 20
0.0
 30
0.0
  3
*PAPER_SPACE
  1

  0
ENDBLK
  5
9
330
7
100
AcDbEntity
 67
     1
  8
0
100
AcDbBlockEnd
  0
BLOCK
  5
10C
330
109
100
AcDbEntity
  8
0
100
AcDbBlockBegin
  2
_Dot
 70
     0
 10
0.0
 20
0.0
 30
0.0
  3
_Dot
  1

  0
LWPOLYLINE
  5
10A
330
109
100
AcDbEntity
  8
0
  6
ByBlock
 62
     0
100
AcDbPolyline
 90
        2
 70
     1
 43
0.5
 10
-0.25
 20
0.0
 42
1.0
 10
0.25
 20
0.0
 42
1.0
  0
LINE
  5
10B
330
109
100
AcDbEntity
  8
0
  6
ByBlock
 62
     0
370
    -2
100
AcDbLine
 10
-0.5
 20
0.0
 30
0.0
 11
-1.0
 21
0.0
 31
0.0
  0
ENDBLK
  5
10D
330
109
100
AcDbEntity
  8
0
100
AcDbBlockEnd
  0
BLOCK
  5
32C6
330
32BC
100
AcDbEntity
  8
0
100
AcDbBlockBegin
  2
*D1
 70
     1
 10
0.0
 20
0.0
 30
0.0
  3
*D1
  1

  0
LINE
  5
38E8
330
32BC
100
AcDbEntity
  8
SUNPOU
 62
    70
370
    -2
100
AcDbLine
 10
339.9018012767702
 20
292.1403597044823
 30
0.0
 11
212.0669961155193
 21
292.1403597044823
 31
0.0
  0
LINE
  5
38E9
330
32BC
100
AcDbEntity
  8
SUNPOU
 62
    70
370
    -2
100
AcDbLine
 10
339.9018012767697
 20
682.1403597044823
 30
0.0
 11
212.0669961155194
 21
682.1403597044824
 31
0.0
  0
LINE
  5
38EA
330
32BC
100
AcDbEntity
  8
SUNPOU
 62
    60
370
    -2
100
AcDbLine
 10
212.0669961155193
 20
298.1403597044823
 30
0.0
 11
212.0669961155194
 21
676.1403597044824
 31
0.0
  0
INSERT
  5
38EB
330
32BC
100
AcDbEntity
  8
SUNPOU
 62
    60
370
    -2
100
AcDbBlockReference
  2
_Dot
 10
212.0669961155193
 20
292.1403597044823
 30
0.0
 41
6.0
 42
6.0
 43
6.0
 50
270.0
  0
INSERT
  5
38EC
330
32BC
100
AcDbEntity
  8
SUNPOU
 62
    60
370
    -2
100
AcDbBlockReference
  2
_Dot
 10
212.0669961155194
 20
682.1403597044824
 30
0.0
 41
6.0
 42
6.0
 43
6.0
 50
90.0
  0
MTEXT
  5
38ED
330
32BC
100
AcDbEntity
  8
SUNPOU
 62
    60
100
AcDbMText
 10
192.0669961155193
 20
487.1403597044824
 30
0.0
 40
20.0
 41
0.0
 71
     5
 72
     1
  1
\A1;390
  7
SUNPOU
 11
0.0000000000000001
 21
1.0
 31
0.0
 73
     1
 44
1.0
1001
ACAD
1000
MTEXTBEGIN
1070
    73
1070
     1
1070
    44
1040
1.0
1070
    74
1070
     0
1000
MTEXTEND
  0
POINT
  5
38EE
330
32BC
100
AcDbEntity
  8
DEFPOINTS
 62
     0
100
AcDbPoint
 10
345.9018012767702
 20
292.1403597044823
 30
0.0
  0
POINT
  5
38EF
330
32BC
100
AcDbEntity
  8
DEFPOINTS
 62
     0
100
AcDbPoint
 10
345.9018012767697
 20
682.1403597044823
 30
0.0
  0
POINT
  5
38F0
330
32BC
100
AcDbEntity
  8
DEFPOINTS
 62
     0
100
AcDbPoint
 10
212.0669961155194
 20
682.1403597044824
 30
0.0
  0
ENDBLK
  5
32C7
330
32BC
100
AcDbEntity
  8
0
100
AcDbBlockEnd
  0
BLOCK
  5
32DD
330
32D3
100
AcDbEntity
  8
0
100
AcDbBlockBegin
  2
*D2
 70
     1
 10
0.0
 20
0.0
 30
0.0
  3
*D2
  1

  0
LINE
  5
36AB
330
32D3
100
AcDbEntity
  8
SUNPOU
 62
    70
370
    -2
100
AcDbLine
 10
345.90180127677
 20
286.1403597044823
 30
0.0
 11
345.90180127677
 21
155.7876906498846
 31
0.0
  0
LINE
  5
36AC
330
32D3
100
AcDbEntity
  8
SUNPOU
 62
    70
370
    -2
100
AcDbLine
 10
425.9018012767698
 20
286.1403597044823
 30
0.0
 11
425.9018012767698
 21
155.7876906498846
 31
0.0
  0
LINE
  5
36AD
330
32D3
100
AcDbEntity
  8
SUNPOU
 62
    60
370
    -2
100
AcDbLine
 10
351.90180127677
 20
155.7876906498846
 30
0.0
 11
419.9018012767697
 21
155.7876906498846
 31
0.0
  0
INSERT
  5
36AE
330
32D3
100
AcDbEntity
  8
SUNPOU
 62
    60
370
    -2
100
AcDbBlockReference
  2
_Dot
 10
345.90180127677
 20
155.7876906498846
 30
0.0
 41
6.0
 42
6.0
 43
6.0
 50
180.0
  0
INSERT
  5
36AF
330
32D3
100
AcDbEntity
  8
SUNPOU
 62
    60
370
    -2
100
AcDbBlockReference
  2
_Dot
 10
425.9018012767698
 20
155.7876906498846
 30
0.0
 41
6.0
 42
6.0
 43
6.0
  0
MTEXT
  5
36B0
330
32D3
100
AcDbEntity
  8
SUNPOU
 62
    60
100
AcDbMText
 10
385.9018012767699
 20
175.7876906498846
 30
0.0
 40
20.0
 41
0.0
 71
     5
 72
     1
  1
\A1;80
  7
SUNPOU
 73
     1
 44
1.0
1001
ACAD
1000
MTEXTBEGIN
1070
    73
1070
     1
1070
    44
1040
1.0
1070
    74
1070
     0
1000
MTEXTEND
  0
POINT
  5
36B1
330
32D3
100
AcDbEntity
  8
DEFPOINTS
 62
     0
100
AcDbPoint
 10
345.90180127677
 20
292.1403597044823
 30
0.0
  0
POINT
  5
36B2
330
32D3
100
AcDbEntity
  8
DEFPOINTS
 62
     0
100
AcDbPoint
 10
425.9018012767698
 20
292.1403597044823
 30
0.0
  0
POINT
  5
36B3
330
32D3
100
AcDbEntity
  8
DEFPOINTS
 62
     0
100
AcDbPoint
 10
425.9018012767698
 20
155.7876906498846
 30
0.0
  0
ENDBLK
  5
32DE
330
32D3
100
AcDbEntity
  8
0
100
AcDbBlockEnd
  0
BLOCK
  5
35D3
330
35C9
100
AcDbEntity
  8
0
100
AcDbBlockBegin
  2
*D3
 70
     1
 10
0.0
 20
0.0
 30
0.0
  3
*D3
  1

  0
LINE
  5
3915
330
35C9
100
AcDbEntity
  8
SUNPOU
 62
    70
370
    -2
100
AcDbLine
 10
339.9018012767702
 20
292.1403597044823
 30
0.0
 11
112.0669961155193
 21
292.1403597044823
 31
0.0
  0
LINE
  5
3916
330
35C9
100
AcDbEntity
  8
SUNPOU
 62
    70
370
    -2
100
AcDbLine
 10
333.9018012767695
 20
1492.140359704482
 30
0.0
 11
112.0669961155196
 21
1492.140359704482
 31
0.0
  0
LINE
  5
3917
330
35C9
100
AcDbEntity
  8
SUNPOU
 62
    60
370
    -2
100
AcDbLine
 10
112.0669961155193
 20
298.1403597044823
 30
0.0
 11
112.0669961155196
 21
1486.140359704482
 31
0.0
  0
INSERT
  5
3918
330
35C9
100
AcDbEntity
  8
SUNPOU
 62
    60
370
    -2
100
AcDbBlockReference
  2
_Dot
 10
112.0669961155193
 20
292.1403597044823
 30
0.0
 41
6.0
 42
6.0
 43
6.0
 50
270.0
  0
INSERT
  5
3919
330
35C9
100
AcDbEntity
  8
SUNPOU
 62
    60
370
    -2
100
AcDbBlockReference
  2
_Dot
 10
112.0669961155196
 20
1492.140359704482
 30
0.0
 41
6.0
 42
6.0
 43
6.0
 50
90.0
  0
MTEXT
  5
391A
330
35C9
100
AcDbEntity
  8
SUNPOU
 62
    60
100
AcDbMText
 10
92.06699611551931
 20
892.1403597044823
 30
0.0
 40
20.0
 41
0.0
 71
     5
 72
     1
  1
\A1;1200
  7
SUNPOU
 11
0.0000000000000001
 21
1.0
 31
0.0
 73
     1
 44
1.0
1001
ACAD
1000
MTEXTBEGIN
1070
    73
1070
     1
1070
    44
1040
1.0
1070
    74
1070
     0
1000
MTEXTEND
  0
POINT
  5
391B
330
35C9
100
AcDbEntity
  8
DEFPOINTS
 62
     0
100
AcDbPoint
 10
345.9018012767702
 20
292.1403597044823
 30
0.0
  0
POINT
  5
391C
330
35C9
100
AcDbEntity
  8
DEFPOINTS
 62
     0
100
AcDbPoint
 10
339.9018012767694
 20
1492.140359704482
 30
0.0
  0
POINT
  5
391D
330
35C9
100
AcDbEntity
  8
DEFPOINTS
 62
     0
100
AcDbPoint
 10
112.0669961155196
 20
1492.140359704482
 30
0.0
  0
ENDBLK
  5
35D4
330
35C9
100
AcDbEntity
  8
0
100
AcDbBlockEnd
  0
BLOCK
  5
3604
330
35FA
100
AcDbEntity
  8
0
100
AcDbBlockBegin
  2
*D4
 70
     1
 10
0.0
 20
0.0
 30
0.0
  3
*D4
  1

  0
LINE
  5
38F1
330
35FA
100
AcDbEntity
  8
SUNPOU
 62
    70
370
    -2
100
AcDbLine
 10
339.90180127677
 20
682.1403597044823
 30
0.0
 11
212.0669961155193
 21
682.1403597044824
 31
0.0
  0
LINE
  5
38F2
330
35FA
100
AcDbEntity
  8
SUNPOU
 62
    70
370
    -2
100
AcDbLine
 10
339.9018012767696
 20
1182.140359704482
 30
0.0
 11
212.0669961155194
 21
1182.140359704482
 31
0.0
  0
LINE
  5
38F3
330
35FA
100
AcDbEntity
  8
SUNPOU
 62
    60
370
    -2
100
AcDbLine
 10
212.0669961155193
 20
688.1403597044823
 30
0.0
 11
212.0669961155194
 21
1176.140359704482
 31
0.0
  0
INSERT
  5
38F4
330
35FA
100
AcDbEntity
  8
SUNPOU
 62
    60
370
    -2
100
AcDbBlockReference
  2
_Dot
 10
212.0669961155193
 20
682.1403597044824
 30
0.0
 41
6.0
 42
6.0
 43
6.0
 50
270.0
  0
INSERT
  5
38F5
330
35FA
100
AcDbEntity
  8
SUNPOU
 62
    60
370
    -2
100
AcDbBlockReference
  2
_Dot
 10
212.0669961155194
 20
1182.140359704482
 30
0.0
 41
6.0
 42
6.0
 43
6.0
 50
90.0
  0
MTEXT
  5
38F6
330
35FA
100
AcDbEntity
  8
SUNPOU
 62
    60
100
AcDbMText
 10
192.0669961155192
 20
932.1403597044822
 30
0.0
 40
20.0
 41
0.0
 71
     5
 72
     1
  1
\A1;500
  7
SUNPOU
 11
0.0000000000000001
 21
1.0
 31
0.0
 73
     1
 44
1.0
1001
ACAD
1000
MTEXTBEGIN
1070
    73
1070
     1
1070
    44
1040
1.0
1070
    74
1070
     0
1000
MTEXTEND
  0
POINT
  5
38F7
330
35FA
100
AcDbEntity
  8
DEFPOINTS
 62
     0
100
AcDbPoint
 10
345.90180127677
 20
682.1403597044823
 30
0.0
  0
POINT
  5
38F8
330
35FA
100
AcDbEntity
  8
DEFPOINTS
 62
     0
100
AcDbPoint
 10
345.9018012767696
 20
1182.140359704482
 30
0.0
  0
POINT
  5
38F9
330
35FA
100
AcDbEntity
  8
DEFPOINTS
 62
     0
100
AcDbPoint
 10
212.0669961155194
 20
1182.140359704482
 30
0.0
  0
ENDBLK
  5
3605
330
35FA
100
AcDbEntity
  8
0
100
AcDbBlockEnd
  0
BLOCK
  5
3623
330
3619
100
AcDbEntity
  8
0
100
AcDbBlockBegin
  2
*D5
 70
     1
 10
0.0
 20
0.0
 30
0.0
  3
*D5
  1

  0
LINE
  5
390C
330
3619
100
AcDbEntity
  8
SUNPOU
 62
    70
370
    -2
100
AcDbLine
 10
339.9018012767696
 20
1182.140359704482
 30
0.0
 11
212.0669961155194
 21
1182.140359704482
 31
0.0
  0
LINE
  5
390D
330
3619
100
AcDbEntity
  8
SUNPOU
 62
    70
370
    -2
100
AcDbLine
 10
339.9018012767694
 20
1392.140359704482
 30
0.0
 11
212.0669961155194
 21
1392.140359704482
 31
0.0
  0
LINE
  5
390E
330
3619
100
AcDbEntity
  8
SUNPOU
 62
    60
370
    -2
100
AcDbLine
 10
212.0669961155194
 20
1188.140359704482
 30
0.0
 11
212.0669961155194
 21
1386.140359704482
 31
0.0
  0
INSERT
  5
390F
330
3619
100
AcDbEntity
  8
SUNPOU
 62
    60
370
    -2
100
AcDbBlockReference
  2
_Dot
 10
212.0669961155194
 20
1182.140359704482
 30
0.0
 41
6.0
 42
6.0
 43
6.0
 50
270.0
  0
INSERT
  5
3910
330
3619
100
AcDbEntity
  8
SUNPOU
 62
    60
370
    -2
100
AcDbBlockReference
  2
_Dot
 10
212.0669961155194
 20
1392.140359704482
 30
0.0
 41
6.0
 42
6.0
 43
6.0
 50
90.0
  0
MTEXT
  5
3911
330
3619
100
AcDbEntity
  8
SUNPOU
 62
    60
100
AcDbMText
 10
192.0669961155192
 20
1287.140359704482
 30
0.0
 40
20.0
 41
0.0
 71
     5
 72
     1
  1
\A1;210
  7
SUNPOU
 11
0.0000000000000001
 21
1.0
 31
0.0
 73
     1
 44
1.0
1001
ACAD
1000
MTEXTBEGIN
1070
    73
1070
     1
1070
    44
1040
1.0
1070
    74
1070
     0
1000
MTEXTEND
  0
POINT
  5
3912
330
3619
100
AcDbEntity
  8
DEFPOINTS
 62
     0
100
AcDbPoint
 10
345.9018012767696
 20
1182.140359704482
 30
0.0
  0
POINT
  5
3913
330
3619
100
AcDbEntity
  8
DEFPOINTS
 62
     0
100
AcDbPoint
 10
345.9018012767694
 20
1392.140359704482
 30
0.0
  0
POINT
  5
3914
330
3619
100
AcDbEntity
  8
DEFPOINTS
 62
     0
100
AcDbPoint
 10
212.0669961155194
 20
1392.140359704482
 30
0.0
  0
ENDBLK
  5
3624
330
3619
100
AcDbEntity
  8
0
100
AcDbBlockEnd
  0
BLOCK
  5
3642
330
3638
100
AcDbEntity
  8
0
100
AcDbBlockBegin
  2
*D6
 70
     1
 10
0.0
 20
0.0
 30
0.0
  3
*D6
  1

  0
LINE
  5
38FA
330
3638
100
AcDbEntity
  8
SUNPOU
 62
    70
370
    -2
100
AcDbLine
 10
339.9018012767696
 20
1392.140359704482
 30
0.0
 11
212.0669961155194
 21
1392.140359704482
 31
0.0
  0
LINE
  5
38FB
330
3638
100
AcDbEntity
  8
SUNPOU
 62
    70
370
    -2
100
AcDbLine
 10
339.9018012767694
 20
1492.140359704482
 30
0.0
 11
212.0669961155194
 21
1492.140359704482
 31
0.0
  0
LINE
  5
38FC
330
3638
100
AcDbEntity
  8
SUNPOU
 62
    60
370
    -2
100
AcDbLine
 10
212.0669961155194
 20
1398.140359704482
 30
0.0
 11
212.0669961155194
 21
1486.140359704482
 31
0.0
  0
INSERT
  5
38FD
330
3638
100
AcDbEntity
  8
SUNPOU
 62
    60
370
    -2
100
AcDbBlockReference
  2
_Dot
 10
212.0669961155194
 20
1392.140359704482
 30
0.0
 41
6.0
 42
6.0
 43
6.0
 50
270.0
  0
INSERT
  5
38FE
330
3638
100
AcDbEntity
  8
SUNPOU
 62
    60
370
    -2
100
AcDbBlockReference
  2
_Dot
 10
212.0669961155194
 20
1492.140359704482
 30
0.0
 41
6.0
 42
6.0
 43
6.0
 50
90.0
  0
MTEXT
  5
38FF
330
3638
100
AcDbEntity
  8
SUNPOU
 62
    60
100
AcDbMText
 10
192.0669961155191
 20
1442.140359704482
 30
0.0
 40
20.0
 41
0.0
 71
     5
 72
     1
  1
\A1;100
  7
SUNPOU
 11
0.0000000000000001
 21
1.0
 31
0.0
 73
     1
 44
1.0
1001
ACAD
1000
MTEXTBEGIN
1070
    73
1070
     1
1070
    44
1040
1.0
1070
    74
1070
     0
1000
MTEXTEND
  0
POINT
  5
3900
330
3638
100
AcDbEntity
  8
DEFPOINTS
 62
     0
100
AcDbPoint
 10
345.9018012767696
 20
1392.140359704482
 30
0.0
  0
POINT
  5
3901
330
3638
100
AcDbEntity
  8
DEFPOINTS
 62
     0
100
AcDbPoint
 10
345.9018012767694
 20
1492.140359704482
 30
0.0
  0
POINT
  5
3902
330
3638
100
AcDbEntity
  8
DEFPOINTS
 62
     0
100
AcDbPoint
 10
212.0669961155194
 20
1492.140359704482
 30
0.0
  0
ENDBLK
  5
3643
330
3638
100
AcDbEntity
  8
0
100
AcDbBlockEnd
  0
BLOCK
  5
3661
330
3657
100
AcDbEntity
  8
0
100
AcDbBlockBegin
  2
*D7
 70
     1
 10
0.0
 20
0.0
 30
0.0
  3
*D7
  1

  0
LINE
  5
3903
330
3657
100
AcDbEntity
  8
SUNPOU
 62
    70
370
    -2
100
AcDbLine
 10
345.9018012767694
 20
1498.140359704482
 30
0.0
 11
345.9018012767694
 21
1600.252694225074
 31
0.0
  0
LINE
  5
3904
330
3657
100
AcDbEntity
  8
SUNPOU
 62
    70
370
    -2
100
AcDbLine
 10
425.9018012767696
 20
1499.018080975304
 30
0.0
 11
425.9018012767696
 21
1600.252694225074
 31
0.0
  0
LINE
  5
3905
330
3657
100
AcDbEntity
  8
SUNPOU
 62
    60
370
    -2
100
AcDbLine
 10
351.9018012767694
 20
1600.252694225074
 30
0.0
 11
419.9018012767696
 21
1600.252694225074
 31
0.0
  0
INSERT
  5
3906
330
3657
100
AcDbEntity
  8
SUNPOU
 62
    60
370
    -2
100
AcDbBlockReference
  2
_Dot
 10
345.9018012767694
 20
1600.252694225074
 30
0.0
 41
6.0
 42
6.0
 43
6.0
 50
180.0
  0
INSERT
  5
3907
330
3657
100
AcDbEntity
  8
SUNPOU
 62
    60
370
    -2
100
AcDbBlockReference
  2
_Dot
 10
425.9018012767696
 20
1600.252694225074
 30
0.0
 41
6.0
 42
6.0
 43
6.0
  0
MTEXT
  5
3908
330
3657
100
AcDbEntity
  8
SUNPOU
 62
    60
100
AcDbMText
 10
385.9018012767696
 20
1620.252694225074
 30
0.0
 40
20.0
 41
0.0
 71
     5
 72
     1
  1
\A1;80
  7
SUNPOU
 73
     1
 44
1.0
1001
ACAD
1000
MTEXTBEGIN
1070
    73
1070
     1
1070
    44
1040
1.0
1070
    74
1070
     0
1000
MTEXTEND
  0
POINT
  5
3909
330
3657
100
AcDbEntity
  8
DEFPOINTS
 62
     0
100
AcDbPoint
 10
345.9018012767694
 20
1492.140359704482
 30
0.0
  0
POINT
  5
390A
330
3657
100
AcDbEntity
  8
DEFPOINTS
 62
     0
100
AcDbPoint
 10
425.9018012767696
 20
1493.018080975304
 30
0.0
  0
POINT
  5
390B
330
3657
100
AcDbEntity
  8
DEFPOINTS
 62
     0
100
AcDbPoint
 10
425.9018012767696
 20
1600.252694225074
 30
0.0
  0
ENDBLK
  5
3662
330
3657
100
AcDbEntity
  8
0
100
AcDbBlockEnd
  0
ENDSEC
  0
SECTION
  2
ENTITIES
  0
LINE
  5
1F
330
2
100
AcDbEntity
  8
WAKU
100
AcDbLine
 10
0.0
 20
70.0
 30
0.0
 11
802.4448582724989
 21
70.0
 31
0.0
  0
LINE
  5
20
330
2
100
AcDbEntity
  8
WAKU
100
AcDbLine
 10
0.0
 20
0.0
 30
0.0
 11
802.4448582724989
 21
0.0
 31
0.0
  0
TEXT
  5
21
330
2
100
AcDbEntity
  8
HOJO
100
AcDbText
 10
48.26983000000012
 20
11.83313000000009
 30
0.0
 40
45.0
  1
0850-120
  7
SUNPOU
100
AcDbText
  0
TEXT
  5
2E7F
330
2
100
AcDbEntity
  8
HOJO
100
AcDbText
 10
470.2016363591537
 20
16.14254471732295
 30
0.0
 40
35.0
  1
80x80  1200
  7
SUNPOU
100
AcDbText
  0
DIMENSION
  5
32A1
330
2
100
AcDbEntity
  8
SUNPOU
100
AcDbDimension
  2
*D1
 10
212.0669961155194
 20
682.1403597044824
 30
0.0
 11
192.0669961155193
 21
487.1403597044824
 31
0.0
 70
    32
 71
     5
 42
390.0000000000001
  3
STANDARD$0
100
AcDbAlignedDimension
 13
345.9018012767702
 23
292.1403597044823
 33
0.0
 14
345.9018012767697
 24
682.1403597044823
 34
0.0
 50
90.0
100
AcDbRotatedDimension
1001
ACAD
1000
DSTYLE
1002
{
1070
    41
1040
3.0
1070
    42
1040
3.0
1070
    44
1040
0.0
1070
    77
1070
     1
1070
   140
1040
10.0
1070
   146
1040
0.064286
1070
   147
1040
5.0
1070
   176
1070
    60
1070
   177
1070
    70
1070
   178
1070
    60
1070
   271
1070
     0
1070
   272
1070
     0
1070
   340
1005
1C
1070
   342
1005
109
1002
}
  0
LINE
  5
32A2
102
{ACAD_REACTORS
330
3A02
102
}
330
2
100
AcDbEntity
  8
KIJUN
100
AcDbLine
 10
345.9018012767702
 20
292.1403597044823
 30
0.0
 11
345.9018012767697
 21
682.1403597044823
 31
0.0
  0
DIMENSION
  5
32D1
330
2
100
AcDbEntity
  8
SUNPOU
100
AcDbDimension
  2
*D2
 10
425.9018012767698
 20
155.7876906498846
 30
0.0
 11
385.9018012767699
 21
175.7876906498846
 31
0.0
 70
    32
 71
     5
 42
79.99999999999977
  3
STANDARD$0
100
AcDbAlignedDimension
 13
345.90180127677
 23
292.1403597044823
 33
0.0
 14
425.9018012767698
 24
292.1403597044823
 34
0.0
100
AcDbRotatedDimension
1001
ACAD
1000
DSTYLE
1002
{
1070
    41
1040
3.0
1070
    42
1040
3.0
1070
    44
1040
0.0
1070
    77
1070
     1
1070
   140
1040
10.0
1070
   146
1040
0.064286
1070
   147
1040
5.0
1070
   176
1070
    60
1070
   177
1070
    70
1070
   178
1070
    60
1070
   271
1070
     0
1070
   272
1070
     0
1070
   340
1005
1C
1070
   342
1005
109
1002
}
  0
LINE
  5
32D2
102
{ACAD_REACTORS
330
3A02
102
}
330
2
100
AcDbEntity
  8
KIJUN
100
AcDbLine
 10
345.9018012767702
 20
292.1403597044823
 30
0.0
 11
425.9018012767701
 21
292.140359704482
 31
0.0
  0
LINE
  5
3352
102
{ACAD_REACTORS
330
3A02
102
}
330
2
100
AcDbEntity
  8
KIJUN
100
AcDbLine
 10
425.9018012767701
 20
292.140359704482
 30
0.0
 11
425.9018012767698
 21
682.1403597044819
 31
0.0
  0
LINE
  5
3361
102
{ACAD_REACTORS
330
3A02
102
}
330
2
100
AcDbEntity
  8
KIJUN
100
AcDbLine
 10
345.9018012767693
 20
1182.140359704482
 30
0.0
 11
425.9018012767696
 21
1182.140359704482
 31
0.0
  0
ARC
  5
34A5
102
{ACAD_REACTORS
330
3A02
102
}
330
2
100
AcDbEntity
  8
KIJUN
100
AcDbCircle
 10
430.0739944258815
 20
1186.519127785311
 30
0.0
 40
16.16879965693183
100
AcDbArc
 50
104.9537800461129
 51
163.7887990198055
  0
ARC
  5
34A6
102
{ACAD_REACTORS
330
3A02
102
}
330
2
100
AcDbEntity
  8
KIJUN
100
AcDbCircle
 10
385.9018012767721
 20
1232.72594444857
 30
0.0
 40
50.58558474408812
100
AcDbArc
 50
235.5078494593298
 51
304.4921505406663
  0
ARC
  5
34B1
102
{ACAD_REACTORS
330
3A02
102
}
330
2
100
AcDbEntity
  8
KIJUN
100
AcDbCircle
 10
428.0630492329473
 20
1395.855356979387
 30
0.0
 40
23.81327546720238
100
AcDbArc
 50
208.1519235267742
 51
264.7927777098162
  0
ARC
  5
34B2
102
{ACAD_REACTORS
330
3A02
102
}
330
2
100
AcDbEntity
  8
KIJUN
100
AcDbCircle
 10
385.9018012767703
 20
1358.596995240245
 30
0.0
 40
33.54336446423669
100
AcDbArc
 50
50.87776000643027
 51
129.1222399935712
  0
LINE
  5
34C4
102
{ACAD_REACTORS
330
3A02
102
}
330
2
100
AcDbEntity
  8
KIJUN
100
AcDbLine
 10
423.4018012702428
 20
1403.676258085576
 30
0.0
 11
417.6662446654261
 21
1400.364832921421
 31
0.0
  0
LINE
  5
34C5
102
{ACAD_REACTORS
330
3A02
102
}
330
2
100
AcDbEntity
  8
KIJUN
100
AcDbLine
 10
423.4018012832975
 20
1410.604461315851
 30
0.0
 11
413.5467609966198
 21
1415.332348056477
 31
0.0
  0
ARC
  5
34CA
102
{ACAD_REACTORS
330
3A02
102
}
330
2
100
AcDbEntity
  8
KIJUN
100
AcDbCircle
 10
421.4018012767701
 20
1407.140359704482
 30
0.0
 40
4.0
100
AcDbArc
 50
299.9999998920383
 51
59.99999989203839
  0
ARC
  5
34CC
102
{ACAD_REACTORS
330
3A02
102
}
330
2
100
AcDbEntity
  8
KIJUN
100
AcDbCircle
 10
418.6743347562478
 20
1398.909977919695
 30
0.0
 40
1.769985510479509
100
AcDbArc
 50
124.7186487621841
 51
245.6818874056584
  0
ARC
  5
34CE
102
{ACAD_REACTORS
330
3A02
102
}
330
2
100
AcDbEntity
  8
KIJUN
100
AcDbCircle
 10
414.3736625815091
 20
1417.118648679563
 30
0.0
 40
1.968409547612048
100
AcDbArc
 50
133.985966010014
 51
245.1599734973727
  0
ARC
  5
34D1
102
{ACAD_REACTORS
330
3A02
102
}
330
2
100
AcDbEntity
  8
KIJUN
100
AcDbCircle
 10
381.993448347582
 20
1448.907805853665
 30
0.0
 40
43.4088577951888
100
AcDbArc
 50
315.5976343513378
 51
84.83433111835337
  0
LINE
  5
34D4
102
{ACAD_REACTORS
330
3A02
102
}
330
2
100
AcDbEntity
  8
KIJUN
100
AcDbLine
 10
348.4018012832974
 20
1403.676258085576
 30
0.0
 11
354.1373578881142
 21
1400.364832921421
 31
0.0
  0
ARC
  5
34D5
102
{ACAD_REACTORS
330
3A02
102
}
330
2
100
AcDbEntity
  8
KIJUN
100
AcDbCircle
 10
350.4018012767701
 20
1407.140359704482
 30
0.0
 40
4.000000000000001
100
AcDbArc
 50
120.0000001079627
 51
240.0000001079626
  0
LINE
  5
34D6
102
{ACAD_REACTORS
330
3A02
102
}
330
2
100
AcDbEntity
  8
KIJUN
100
AcDbLine
 10
348.4018012702427
 20
1410.604461315851
 30
0.0
 11
358.2568415569205
 21
1415.332348056477
 31
0.0
  0
ARC
  5
34D7
102
{ACAD_REACTORS
330
3A02
102
}
330
2
100
AcDbEntity
  8
KIJUN
100
AcDbCircle
 10
353.1292677972925
 20
1398.909977919695
 30
0.0
 40
1.769985510479509
100
AcDbArc
 50
294.3181125851781
 51
55.28135123781314
  0
ARC
  5
34D8
102
{ACAD_REACTORS
330
3A02
102
}
330
2
100
AcDbEntity
  8
KIJUN
100
AcDbCircle
 10
357.4299399720311
 20
1417.118648679563
 30
0.0
 40
1.968409547612049
100
AcDbArc
 50
294.8400265026244
 51
46.01403398998799
  0
ARC
  5
34D9
102
{ACAD_REACTORS
330
3A02
102
}
330
2
100
AcDbEntity
  8
KIJUN
100
AcDbCircle
 10
389.8101542059588
 20
1448.907805853664
 30
0.0
 40
43.40885779518896
100
AcDbArc
 50
95.16566888164708
 51
224.4023656486636
  0
LINE
  5
34DA
102
{ACAD_REACTORS
330
3A02
102
}
330
2
100
AcDbEntity
  8
KIJUN
100
AcDbLine
 10
417.9454503779679
 20
1397.297037663391
 30
0.0
 11
425.9018012767695
 21
1392.140359704482
 31
0.0
  0
ARC
  5
34F6
102
{ACAD_REACTORS
330
3A02
102
}
330
2
100
AcDbEntity
  8
KIJUN
100
AcDbCircle
 10
343.740553320593
 20
1395.855356979387
 30
0.0
 40
23.81327546720237
100
AcDbArc
 50
275.2072222901837
 51
331.8480764732257
  0
LINE
  5
34F7
102
{ACAD_REACTORS
330
3A02
102
}
330
2
100
AcDbEntity
  8
KIJUN
100
AcDbLine
 10
353.8581521753091
 20
1397.297037663286
 30
0.0
 11
345.9018012767694
 21
1392.140359704482
 31
0.0
  0
LINE
  5
34F8
102
{ACAD_REACTORS
330
3A02
102
}
330
2
100
AcDbEntity
  8
KIJUN
100
AcDbLine
 10
374.3983495196432
 20
1417.118648679563
 30
0.0
 11
397.4052530338971
 21
1417.118648679563
 31
0.0
  0
LINE
  5
34FA
102
{ACAD_REACTORS
330
3A02
102
}
330
2
100
AcDbEntity
  8
KIJUN
100
AcDbLine
 10
361.4018012767701
 20
1407.140359704482
 30
0.0
 11
410.4018012767701
 21
1407.140359704482
 31
0.0
  0
LINE
  5
34FB
102
{ACAD_REACTORS
330
3A02
102
}
330
2
100
AcDbEntity
  8
KIJUN
100
AcDbLine
 10
369.899253307772
 20
1398.909977919695
 30
0.0
 11
401.9043492457682
 21
1398.909977919695
 31
0.0
  0
ARC
  5
34FC
102
{ACAD_REACTORS
330
3A02
102
}
330
2
100
AcDbEntity
  8
KIJUN
100
AcDbCircle
 10
341.7296081276588
 20
1186.519127785311
 30
0.0
 40
16.16879965693183
100
AcDbArc
 50
16.21120098019293
 51
75.04621995388569
  0
ARC
  5
3500
102
{ACAD_REACTORS
330
3A02
102
}
330
2
100
AcDbEntity
  8
KIJUN
100
AcDbCircle
 10
396.5859639774972
 20
1122.338203101511
 30
0.0
 40
28.80020572827465
100
AcDbArc
 50
351.5807733290548
 51
40.75667434978059
  0
LINE
  5
3501
102
{ACAD_REACTORS
330
3A02
102
}
330
2
100
AcDbEntity
  8
KIJUN
100
AcDbLine
 10
353.4018012767697
 20
1141.140359704483
 30
0.0
 11
418.4018012767697
 21
1141.140359704482
 31
0.0
  0
LINE
  5
3502
102
{ACAD_REACTORS
330
3A02
102
}
330
2
100
AcDbEntity
  8
KIJUN
100
AcDbLine
 10
353.4018012767698
 20
1145.140359704483
 30
0.0
 11
418.4018012767697
 21
1145.140359704481
 31
0.0
  0
ARC
  5
3503
102
{ACAD_REACTORS
330
3A02
102
}
330
2
100
AcDbEntity
  8
KIJUN
100
AcDbCircle
 10
419.4563809986603
 20
1151.597699725875
 30
0.0
 40
6.542887630221803
100
AcDbArc
 50
90.47795776993508
 51
260.7246315200712
  0
LINE
  5
3504
102
{ACAD_REACTORS
330
3A02
102
}
330
2
100
AcDbEntity
  8
KIJUN
100
AcDbLine
 10
351.9018012767699
 20
1158.140359704482
 30
0.0
 11
419.9018012767695
 21
1158.140359704482
 31
0.0
  0
LINE
  5
3505
102
{ACAD_REACTORS
330
3A02
102
}
330
2
100
AcDbEntity
  8
KIJUN
100
AcDbLine
 10
351.9018012767698
 20
1162.140359704482
 30
0.0
 11
419.9018012767696
 21
1162.140359704482
 31
0.0
  0
ARC
  5
350D
102
{ACAD_REACTORS
330
3A02
102
}
330
2
100
AcDbEntity
  8
KIJUN
100
AcDbCircle
 10
411.1061687786619
 20
1173.396063766745
 30
0.0
 40
14.28474798444213
100
AcDbArc
 50
308.0054133112327
 51
37.74455399096332
  0
LINE
  5
3581
102
{ACAD_REACTORS
330
3A02
102
}
330
2
100
AcDbEntity
  8
KIJUN
100
AcDbLine
 10
345.9018012767697
 20
682.1403597044823
 30
0.0
 11
425.9018012767698
 21
682.1403597044819
 31
0.0
  0
ARC
  5
3586
102
{ACAD_REACTORS
330
3A02
102
}
330
2
100
AcDbEntity
  8
KIJUN
100
AcDbCircle
 10
430.0739944258815
 20
677.761591623653
 30
0.0
 40
16.16879965693183
100
AcDbArc
 50
196.2112009801894
 51
255.046219953887
  0
ARC
  5
3587
102
{ACAD_REACTORS
330
3A02
102
}
330
2
100
AcDbEntity
  8
KIJUN
100
AcDbCircle
 10
385.9018012767721
 20
631.5547749603943
 30
0.0
 40
50.58558474408812
100
AcDbArc
 50
55.50784945933143
 51
124.4921505406714
  0
ARC
  5
3588
102
{ACAD_REACTORS
330
3A02
102
}
330
2
100
AcDbEntity
  8
KIJUN
100
AcDbCircle
 10
341.7296081276588
 20
677.761591623653
 30
0.0
 40
16.16879965693183
100
AcDbArc
 50
284.9537800461139
 51
343.7887990198106
  0
LINE
  5
3597
102
{ACAD_REACTORS
330
3A02
102
}
330
2
100
AcDbEntity
  8
KIJUN
100
AcDbLine
 10
420.9018012767694
 20
951.1403597044823
 30
0.0
 11
350.9018012767695
 21
951.1403597044823
 31
0.0
  0
LINE
  5
3598
102
{ACAD_REACTORS
330
3A02
102
}
330
2
100
AcDbEntity
  8
KIJUN
100
AcDbLine
 10
420.9018012767694
 20
955.1403597044823
 30
0.0
 11
350.9018012767695
 21
955.1403597044823
 31
0.0
  0
ARC
  5
359C
102
{ACAD_REACTORS
330
3A02
102
}
330
2
100
AcDbEntity
  8
KIJUN
100
AcDbCircle
 10
413.1240234989931
 20
941.6403597044821
 30
0.0
 40
12.27777777777666
100
AcDbArc
 50
309.3076481160976
 51
50.69235188389923
  0
ARC
  5
35A2
102
{ACAD_REACTORS
330
3A02
102
}
330
2
100
AcDbEntity
  8
KIJUN
100
AcDbCircle
 10
435.0138978360888
 20
971.4682650198451
 30
0.0
 40
21.58128266083891
100
AcDbArc
 50
172.8292499831607
 51
229.1633690714327
  0
LINE
  5
35A3
102
{ACAD_REACTORS
330
3A02
102
}
330
2
100
AcDbEntity
  8
KIJUN
100
AcDbLine
 10
425.0757972721746
 20
1118.121421291596
 30
0.0
 11
413.6014119752372
 21
974.1621860554099
 31
0.0
  0
LINE
  5
35C6
102
{ACAD_REACTORS
330
3A02
102
}
330
2
100
AcDbEntity
  8
KIJUN
100
AcDbLine
 10
425.9018012767698
 20
1182.140359704482
 30
0.0
 11
425.9018012767695
 21
1392.140359704482
 31
0.0
  0
LINE
  5
35C7
102
{ACAD_REACTORS
330
3A02
102
}
330
2
100
AcDbEntity
  8
KIJUN
100
AcDbLine
 10
345.9018012767696
 20
1182.140359704482
 30
0.0
 11
345.9018012767694
 21
1392.140359704482
 31
0.0
  0
DIMENSION
  5
35C8
330
2
100
AcDbEntity
  8
SUNPOU
100
AcDbDimension
  2
*D3
 10
112.0669961155196
 20
1492.140359704482
 30
0.0
 11
92.06699611551931
 21
892.1403597044823
 31
0.0
 70
    32
 71
     5
 42
1200.0
  3
STANDARD$0
100
AcDbAlignedDimension
 13
345.9018012767702
 23
292.1403597044823
 33
0.0
 14
339.9018012767694
 24
1492.140359704482
 34
0.0
 50
90.0
100
AcDbRotatedDimension
1001
ACAD
1000
DSTYLE
1002
{
1070
    41
1040
3.0
1070
    42
1040
3.0
1070
    44
1040
0.0
1070
    77
1070
     1
1070
   140
1040
10.0
1070
   146
1040
0.064286
1070
   147
1040
5.0
1070
   176
1070
    60
1070
   177
1070
    70
1070
   178
1070
    60
1070
   271
1070
     0
1070
   272
1070
     0
1070
   340
1005
1C
1070
   342
1005
109
1002
}
  0
DIMENSION
  5
35F9
330
2
100
AcDbEntity
  8
SUNPOU
100
AcDbDimension
  2
*D4
 10
212.0669961155194
 20
1182.140359704482
 30
0.0
 11
192.0669961155192
 21
932.1403597044822
 31
0.0
 70
    32
 71
     5
 42
499.9999999999999
  3
STANDARD$0
100
AcDbAlignedDimension
 13
345.90180127677
 23
682.1403597044823
 33
0.0
 14
345.9018012767696
 24
1182.140359704482
 34
0.0
 50
90.0
100
AcDbRotatedDimension
1001
ACAD
1000
DSTYLE
1002
{
1070
    41
1040
3.0
1070
    42
1040
3.0
1070
    44
1040
0.0
1070
    77
1070
     1
1070
   140
1040
10.0
1070
   146
1040
0.064286
1070
   147
1040
5.0
1070
   176
1070
    60
1070
   177
1070
    70
1070
   178
1070
    60
1070
   271
1070
     0
1070
   272
1070
     0
1070
   340
1005
1C
1070
   342
1005
109
1002
}
  0
DIMENSION
  5
3618
330
2
100
AcDbEntity
  8
SUNPOU
100
AcDbDimension
  2
*D5
 10
212.0669961155194
 20
1392.140359704482
 30
0.0
 11
192.0669961155192
 21
1287.140359704482
 31
0.0
 70
    32
 71
     5
 42
209.9999999999998
  3
STANDARD$0
100
AcDbAlignedDimension
 13
345.9018012767696
 23
1182.140359704482
 33
0.0
 14
345.9018012767694
 24
1392.140359704482
 34
0.0
 50
90.0
100
AcDbRotatedDimension
1001
ACAD
1000
DSTYLE
1002
{
1070
    41
1040
3.0
1070
    42
1040
3.0
1070
    44
1040
0.0
1070
    77
1070
     1
1070
   140
1040
10.0
1070
   146
1040
0.064286
1070
   147
1040
5.0
1070
   176
1070
    60
1070
   177
1070
    70
1070
   178
1070
    60
1070
   271
1070
     0
1070
   272
1070
     0
1070
   340
1005
1C
1070
   342
1005
109
1002
}
  0
DIMENSION
  5
3637
330
2
100
AcDbEntity
  8
SUNPOU
100
AcDbDimension
  2
*D6
 10
212.0669961155194
 20
1492.140359704482
 30
0.0
 11
192.0669961155191
 21
1442.140359704482
 31
0.0
 70
    32
 71
     5
 42
100.0000000000002
  3
STANDARD$0
100
AcDbAlignedDimension
 13
345.9018012767696
 23
1392.140359704482
 33
0.0
 14
345.9018012767694
 24
1492.140359704482
 34
0.0
 50
90.0
100
AcDbRotatedDimension
1001
ACAD
1000
DSTYLE
1002
{
1070
    41
1040
3.0
1070
    42
1040
3.0
1070
    44
1040
0.0
1070
    77
1070
     1
1070
   140
1040
10.0
1070
   146
1040
0.064286
1070
   147
1040
5.0
1070
   176
1070
    60
1070
   177
1070
    70
1070
   178
1070
    60
1070
   271
1070
     0
1070
   272
1070
     0
1070
   340
1005
1C
1070
   342
1005
109
1002
}
  0
DIMENSION
  5
3656
330
2
100
AcDbEntity
  8
SUNPOU
100
AcDbDimension
  2
*D7
 10
425.9018012767696
 20
1600.252694225074
 30
0.0
 11
385.9018012767696
 21
1620.252694225074
 31
0.0
 70
    32
 71
     5
 42
80.00000000000023
  3
STANDARD$0
100
AcDbAlignedDimension
 13
345.9018012767694
 23
1492.140359704482
 33
0.0
 14
425.9018012767696
 24
1493.018080975304
 34
0.0
100
AcDbRotatedDimension
1001
ACAD
1000
DSTYLE
1002
{
1070
    41
1040
3.0
1070
    42
1040
3.0
1070
    44
1040
0.0
1070
    77
1070
     1
1070
   140
1040
10.0
1070
   146
1040
0.064286
1070
   147
1040
5.0
1070
   176
1070
    60
1070
   177
1070
    70
1070
   178
1070
    60
1070
   271
1070
     0
1070
   272
1070
     0
1070
   340
1005
1C
1070
   342
1005
109
1002
}
  0
LINE
  5
3860
102
{ACAD_REACTORS
330
3A02
102
}
330
2
100
AcDbEntity
  8
KIJUN
100
AcDbLine
 10
420.9018012767694
 20
955.1403597044823
 30
0.0
 11
420.9018012767694
 21
951.1403597044823
 31
0.0
  0
LINE
  5
391E
102
{ACAD_REACTORS
330
3A02
102
}
330
2
100
AcDbEntity
  8
KIJUN
100
AcDbLine
 10
350.9018012767713
 20
932.1403597044822
 30
0.0
 11
420.9018012767682
 21
932.1403597044822
 31
0.0
  0
LINE
  5
3961
102
{ACAD_REACTORS
330
3A02
102
}
330
2
100
AcDbEntity
  8
KIJUN
100
AcDbLine
 10
419.9018012767695
 20
1158.140359704482
 30
0.0
 11
419.9018012767696
 21
1162.140359704482
 31
0.0
  0
LINE
  5
3969
102
{ACAD_REACTORS
330
3A02
102
}
330
2
100
AcDbEntity
  8
KIJUN
100
AcDbLine
 10
418.4018012767697
 20
1141.140359704482
 30
0.0
 11
418.4018012767697
 21
1145.140359704481
 31
0.0
  0
ARC
  5
39A7
102
{ACAD_REACTORS
330
3A02
102
}
330
2
100
AcDbEntity
  8
KIJUN
100
AcDbCircle
 10
375.2176385760423
 20
1122.338203101511
 30
0.0
 40
28.80020572827465
100
AcDbArc
 50
139.2433256502215
 51
188.4192266709447
  0
ARC
  5
39A8
102
{ACAD_REACTORS
330
3A02
102
}
330
2
100
AcDbEntity
  8
KIJUN
100
AcDbCircle
 10
352.3472215548791
 20
1151.597699725875
 30
0.0
 40
6.542887630221803
100
AcDbArc
 50
279.2753684799304
 51
89.52204223006374
  0
ARC
  5
39A9
102
{ACAD_REACTORS
330
3A02
102
}
330
2
100
AcDbEntity
  8
KIJUN
100
AcDbCircle
 10
360.6974337748775
 20
1173.396063766745
 30
0.0
 40
14.28474798444213
100
AcDbArc
 50
142.2554460090381
 51
231.9945866887692
  0
ARC
  5
39AA
102
{ACAD_REACTORS
330
3A02
102
}
330
2
100
AcDbEntity
  8
KIJUN
100
AcDbCircle
 10
358.6795790545463
 20
941.6403597044821
 30
0.0
 40
12.27777777777666
100
AcDbArc
 50
129.3076481160985
 51
230.6923518839024
  0
ARC
  5
39AB
102
{ACAD_REACTORS
330
3A02
102
}
330
2
100
AcDbEntity
  8
KIJUN
100
AcDbCircle
 10
336.7897047174506
 20
971.4682650198451
 30
0.0
 40
21.58128266083891
100
AcDbArc
 50
310.8366309285672
 51
7.170750016839251
  0
LINE
  5
39AC
102
{ACAD_REACTORS
330
3A02
102
}
330
2
100
AcDbEntity
  8
KIJUN
100
AcDbLine
 10
346.7278052813648
 20
1118.121421291596
 30
0.0
 11
358.2021905783022
 21
974.1621860554099
 31
0.0
  0
LINE
  5
39AD
102
{ACAD_REACTORS
330
3A02
102
}
330
2
100
AcDbEntity
  8
KIJUN
100
AcDbLine
 10
350.90180127677
 20
955.1403597044823
 30
0.0
 11
350.90180127677
 21
951.1403597044823
 31
0.0
  0
LINE
  5
39AE
102
{ACAD_REACTORS
330
3A02
102
}
330
2
100
AcDbEntity
  8
KIJUN
100
AcDbLine
 10
351.9018012767699
 20
1158.140359704482
 30
0.0
 11
351.9018012767698
 21
1162.140359704482
 31
0.0
  0
LINE
  5
39AF
102
{ACAD_REACTORS
330
3A02
102
}
330
2
100
AcDbEntity
  8
KIJUN
100
AcDbLine
 10
353.4018012767697
 20
1141.140359704483
 30
0.0
 11
353.4018012767698
 21
1145.140359704483
 31
0.0
  0
ARC
  5
39C8
102
{ACAD_REACTORS
330
3A02
102
}
330
2
100
AcDbEntity
  8
KIJUN
100
AcDbCircle
 10
396.5859639774972
 20
741.9425163074533
 30
0.0
 40
28.80020572827465
100
AcDbArc
 50
319.2433256502182
 51
8.419226670943478
  0
LINE
  5
39C9
102
{ACAD_REACTORS
330
3A02
102
}
330
2
100
AcDbEntity
  8
KIJUN
100
AcDbLine
 10
353.4018012767697
 20
723.1403597044816
 30
0.0
 11
418.4018012767697
 21
723.1403597044829
 31
0.0
  0
LINE
  5
39CA
102
{ACAD_REACTORS
330
3A02
102
}
330
2
100
AcDbEntity
  8
KIJUN
100
AcDbLine
 10
353.4018012767698
 20
719.1403597044818
 30
0.0
 11
418.4018012767697
 21
719.1403597044832
 31
0.0
  0
ARC
  5
39CB
102
{ACAD_REACTORS
330
3A02
102
}
330
2
100
AcDbEntity
  8
KIJUN
100
AcDbCircle
 10
419.4563809986603
 20
712.6830196830897
 30
0.0
 40
6.542887630221803
100
AcDbArc
 50
99.27536847992865
 51
269.5220422300649
  0
LINE
  5
39CC
102
{ACAD_REACTORS
330
3A02
102
}
330
2
100
AcDbEntity
  8
KIJUN
100
AcDbLine
 10
351.9018012767699
 20
706.1403597044821
 30
0.0
 11
419.9018012767695
 21
706.1403597044828
 31
0.0
  0
LINE
  5
39CD
102
{ACAD_REACTORS
330
3A02
102
}
330
2
100
AcDbEntity
  8
KIJUN
100
AcDbLine
 10
351.9018012767698
 20
702.1403597044823
 30
0.0
 11
419.9018012767696
 21
702.1403597044828
 31
0.0
  0
ARC
  5
39CE
102
{ACAD_REACTORS
330
3A02
102
}
330
2
100
AcDbEntity
  8
KIJUN
100
AcDbCircle
 10
411.1061687786619
 20
690.8846556422193
 30
0.0
 40
14.28474798444213
100
AcDbArc
 50
322.2554460090413
 51
51.99458668876363
  0
LINE
  5
39CF
102
{ACAD_REACTORS
330
3A02
102
}
330
2
100
AcDbEntity
  8
KIJUN
100
AcDbLine
 10
420.9018012767694
 20
913.1403597044823
 30
0.0
 11
350.9018012767695
 21
913.1403597044823
 31
0.0
  0
LINE
  5
39D0
102
{ACAD_REACTORS
330
3A02
102
}
330
2
100
AcDbEntity
  8
KIJUN
100
AcDbLine
 10
420.9018012767694
 20
909.1403597044823
 30
0.0
 11
350.9018012767695
 21
909.1403597044823
 31
0.0
  0
ARC
  5
39D1
102
{ACAD_REACTORS
330
3A02
102
}
330
2
100
AcDbEntity
  8
KIJUN
100
AcDbCircle
 10
413.1240234989931
 20
922.6403597044825
 30
0.0
 40
12.27777777777666
100
AcDbArc
 50
309.3076481160982
 51
50.69235188390114
  0
ARC
  5
39D2
102
{ACAD_REACTORS
330
3A02
102
}
330
2
100
AcDbEntity
  8
KIJUN
100
AcDbCircle
 10
435.0138978360888
 20
892.8124543891195
 30
0.0
 40
21.58128266083891
100
AcDbArc
 50
130.8366309285714
 51
187.1707500168358
  0
LINE
  5
39D3
102
{ACAD_REACTORS
330
3A02
102
}
330
2
100
AcDbEntity
  8
KIJUN
100
AcDbLine
 10
425.0757972721746
 20
746.1592981173683
 30
0.0
 11
413.6014119752372
 21
890.1185333535547
 31
0.0
  0
LINE
  5
39D4
102
{ACAD_REACTORS
330
3A02
102
}
330
2
100
AcDbEntity
  8
KIJUN
100
AcDbLine
 10
420.9018012767694
 20
909.1403597044823
 30
0.0
 11
420.9018012767694
 21
913.1403597044823
 31
0.0
  0
LINE
  5
39D5
102
{ACAD_REACTORS
330
3A02
102
}
330
2
100
AcDbEntity
  8
KIJUN
100
AcDbLine
 10
419.9018012767695
 20
706.1403597044828
 30
0.0
 11
419.9018012767696
 21
702.1403597044828
 31
0.0
  0
LINE
  5
39D6
102
{ACAD_REACTORS
330
3A02
102
}
330
2
100
AcDbEntity
  8
KIJUN
100
AcDbLine
 10
418.4018012767697
 20
723.1403597044829
 30
0.0
 11
418.4018012767697
 21
719.1403597044832
 31
0.0
  0
ARC
  5
39D7
102
{ACAD_REACTORS
330
3A02
102
}
330
2
100
AcDbEntity
  8
KIJUN
100
AcDbCircle
 10
375.2176385760423
 20
741.9425163074533
 30
0.0
 40
28.80020572827465
100
AcDbArc
 50
171.5807733290565
 51
220.7566743497809
  0
ARC
  5
39D8
102
{ACAD_REACTORS
330
3A02
102
}
330
2
100
AcDbEntity
  8
KIJUN
100
AcDbCircle
 10
352.3472215548791
 20
712.6830196830897
 30
0.0
 40
6.542887630221803
100
AcDbArc
 50
270.4779577699363
 51
80.72463152006985
  0
ARC
  5
39D9
102
{ACAD_REACTORS
330
3A02
102
}
330
2
100
AcDbEntity
  8
KIJUN
100
AcDbCircle
 10
360.6974337748775
 20
690.8846556422193
 30
0.0
 40
14.28474798444213
100
AcDbArc
 50
128.0054133112272
 51
217.7445539909582
  0
ARC
  5
39DA
102
{ACAD_REACTORS
330
3A02
102
}
330
2
100
AcDbEntity
  8
KIJUN
100
AcDbCircle
 10
358.6795790545463
 20
922.6403597044825
 30
0.0
 40
12.27777777777666
100
AcDbArc
 50
129.3076481161001
 51
230.6923518839032
  0
ARC
  5
39DB
102
{ACAD_REACTORS
330
3A02
102
}
330
2
100
AcDbEntity
  8
KIJUN
100
AcDbCircle
 10
336.7897047174506
 20
892.8124543891195
 30
0.0
 40
21.58128266083891
100
AcDbArc
 50
352.8292499831642
 51
49.16336907142856
  0
LINE
  5
39DC
102
{ACAD_REACTORS
330
3A02
102
}
330
2
100
AcDbEntity
  8
KIJUN
100
AcDbLine
 10
346.7278052813648
 20
746.1592981173683
 30
0.0
 11
358.2021905783022
 21
890.1185333535547
 31
0.0
  0
LINE
  5
39DD
102
{ACAD_REACTORS
330
3A02
102
}
330
2
100
AcDbEntity
  8
KIJUN
100
AcDbLine
 10
350.90180127677
 20
909.1403597044823
 30
0.0
 11
350.90180127677
 21
913.1403597044823
 31
0.0
  0
LINE
  5
39DE
102
{ACAD_REACTORS
330
3A02
102
}
330
2
100
AcDbEntity
  8
KIJUN
100
AcDbLine
 10
351.9018012767699
 20
706.1403597044821
 30
0.0
 11
351.9018012767698
 21
702.1403597044823
 31
0.0
  0
LINE
  5
39DF
102
{ACAD_REACTORS
330
3A02
102
}
330
2
100
AcDbEntity
  8
KIJUN
100
AcDbLine
 10
353.4018012767697
 20
723.1403597044816
 30
0.0
 11
353.4018012767698
 21
719.1403597044818
 31
0.0
  0
ENDSEC
  0
SECTION
  2
OBJECTS
  0
DICTIONARY
  5
1A
330
0
100
AcDbDictionary
281
     1
  3
ACAD_COLOR
350
2E6A
  3
ACAD_GROUP
350
18
  3
ACAD_LAYOUT
350
58
  3
ACAD_MATERIAL
350
2E69
  3
ACAD_MLINESTYLE
350
19
  3
ACAD_PLOTSETTINGS
350
59
  3
ACAD_PLOTSTYLENAME
350
56
  3
ACAD_TABLESTYLE
350
2E6B
  3
ACDBHEADERROUNDTRIPXREC
350
3A16
  3
AcDbVariableDictionary
350
2E7D
  0
DICTIONARY
  5
34C7
330
2
100
AcDbDictionary
280
     1
281
     1
  3
ACAD_SORTENTS
360
34C8
  0
DICTIONARY
  5
2E6A
102
{ACAD_REACTORS
330
1A
102
}
330
1A
100
AcDbDictionary
281
     1
  0
DICTIONARY
  5
18
102
{ACAD_REACTORS
330
1A
102
}
330
1A
100
AcDbDictionary
281
     1
  3
*A1
350
3A0
  3
*A10
350
1131
  3
*A11
350
9DA
  3
*A12
350
21DD
  3
*A13
350
21DE
  3
*A14
350
DE1
  3
*A15
350
25D6
  3
*A16
350
3A02
  3
*A17
350
25D5
  3
*A18
350
1132
  3
*A19
350
2E65
  3
*A2
350
1CB2
  3
*A20
350
2A6A
  3
*A21
350
2A6B
  3
*A22
350
171D
  3
*A3
350
171C
  3
*A4
350
3A1
  3
*A5
350
1CB1
  3
*A6
350
6E6
  3
*A7
350
9D9
  3
*A8
350
DE0
  3
*A9
350
6E7
  0
DICTIONARY
  5
58
102
{ACAD_REACTORS
330
1A
102
}
330
1A
100
AcDbDictionary
281
     1
  3
Model
350
5A
  3
ﾚｲｱｳﾄ1
350
5B
  0
DICTIONARY
  5
2E69
102
{ACAD_REACTORS
330
1A
102
}
330
1A
100
AcDbDictionary
281
     1
  0
DICTIONARY
  5
19
102
{ACAD_REACTORS
330
1A
102
}
330
1A
100
AcDbDictionary
281
     1
  3
STANDARD
350
1D
  0
DICTIONARY
  5
59
102
{ACAD_REACTORS
330
1A
102
}
330
1A
100
AcDbDictionary
281
     1
  0
ACDBDICTIONARYWDFLT
  5
56
102
{ACAD_REACTORS
330
1A
102
}
330
1A
100
AcDbDictionary
281
     1
  3
Normal
350
57
100
AcDbDictionaryWithDefault
340
57
  0
DICTIONARY
  5
2E6B
102
{ACAD_REACTORS
330
1A
102
}
330
1A
100
AcDbDictionary
281
     1
  3
Standard
350
2E6C
  0
DICTIONARY
  5
3A16
102
{ACAD_REACTORS
330
1A
102
}
330
1A
100
AcDbDictionary
281
     1
  0
DICTIONARY
  5
2E7D
102
{ACAD_REACTORS
330
1A
102
}
330
1A
100
AcDbDictionary
281
     1
  3
CTABLESTYLE
350
2E7E
  3
DIMASSOC
350
303E
  3
PROJECTNAME
350
303F
  0
SORTENTSTABLE
  5
34C8
102
{ACAD_REACTORS
330
34C7
102
}
330
34C7
100
AcDbSortentsTable
330
2
331
34C4
  5
34CA
331
35A2
  5
35A4
331
34D1
  5
34D5
331
35C7
  5
32D1
331
3501
  5
3503
331
359C
  5
35A3
331
34FB
  5
3500
331
32A2
  5
32A2
331
34D8
  5
34DA
331
35A3
  5
35A5
331
34C5
  5
34CE
331
2E7F
  5
2E7F
331
3502
  5
3504
331
34CC
  5
34D1
331
3597
  5
359A
331
34FC
  5
3501
331
34B1
  5
34C4
331
34D9
  5
34F6
331
34F6
  5
34F8
331
3586
  5
3588
331
3503
  5
3505
331
3598
  5
359C
331
34B2
  5
34C5
331
34DA
  5
34F7
331
1F
  5
1F
331
34F7
  5
34FA
331
3587
  5
3589
331
34D4
  5
34D6
331
3504
  5
350D
331
3581
  5
3587
331
34CE
  5
34D4
331
20
  5
20
331
34A5
  5
34B1
331
34F8
  5
34FB
331
3588
  5
3596
331
34D5
  5
34D7
331
3352
  5
335D
331
3505
  5
3549
331
32D1
  5
32D2
331
3361
  5
33ED
331
34A6
  5
34B2
331
21
  5
21
331
34D6
  5
34D8
331
35C6
  5
3361
331
3500
  5
3502
331
32D2
  5
3352
331
350D
  5
354A
331
34CA
  5
34CC
331
34FA
  5
34FC
331
32A1
  5
32A1
331
34D7
  5
34D9
  0
GROUP
  5
3A0
102
{ACAD_REACTORS
330
18
102
}
330
18
100
AcDbGroup
300

 70
     1
 71
     1
  0
GROUP
  5
1131
102
{ACAD_REACTORS
330
18
102
}
330
18
100
AcDbGroup
300

 70
     1
 71
     1
  0
GROUP
  5
9DA
102
{ACAD_REACTORS
330
18
102
}
330
18
100
AcDbGroup
300

 70
     1
 71
     1
  0
GROUP
  5
21DD
102
{ACAD_REACTORS
330
18
102
}
330
18
100
AcDbGroup
300

 70
     1
 71
     1
  0
GROUP
  5
21DE
102
{ACAD_REACTORS
330
18
102
}
330
18
100
AcDbGroup
300

 70
     1
 71
     1
  0
GROUP
  5
DE1
102
{ACAD_REACTORS
330
18
102
}
330
18
100
AcDbGroup
300

 70
     1
 71
     1
  0
GROUP
  5
25D6
102
{ACAD_REACTORS
330
18
102
}
330
18
100
AcDbGroup
300

 70
     1
 71
     1
  0
GROUP
  5
3A02
102
{ACAD_REACTORS
330
18
102
}
330
18
100
AcDbGroup
300

 70
     1
 71
     1
340
39DF
340
39DE
340
39DD
340
39DC
340
39DB
340
39DA
340
39D9
340
39D8
340
39D7
340
39D6
340
39D5
340
39D4
340
39D3
340
39D2
340
39D1
340
39D0
340
39CF
340
39CE
340
39CD
340
39CC
340
39CB
340
39CA
340
39C9
340
39C8
340
39AF
340
39AE
340
39AD
340
39AC
340
39AB
340
39AA
340
39A9
340
39A8
340
39A7
340
3969
340
3961
340
391E
340
3860
340
35A3
340
35A2
340
359C
340
3598
340
3597
340
3588
340
3587
340
3586
340
3581
340
350D
340
3505
340
3504
340
3503
340
3502
340
3501
340
3500
340
34FC
340
34FB
340
34FA
340
34F8
340
34F7
340
34F6
340
34DA
340
34D9
340
34D8
340
34D7
340
34D6
340
34D5
340
34D4
340
34D1
340
34CE
340
34CC
340
34C5
340
34CA
340
34C4
340
34B2
340
34B1
340
34A6
340
34A5
340
3361
340
35C6
340
3352
340
32D2
340
35C7
340
32A2
  0
GROUP
  5
25D5
102
{ACAD_REACTORS
330
18
102
}
330
18
100
AcDbGroup
300

 70
     1
 71
     1
  0
GROUP
  5
1132
102
{ACAD_REACTORS
330
18
102
}
330
18
100
AcDbGroup
300

 70
     1
 71
     1
  0
GROUP
  5
2E65
102
{ACAD_REACTORS
330
18
102
}
330
18
100
AcDbGroup
300

 70
     1
 71
     1
  0
GROUP
  5
1CB2
102
{ACAD_REACTORS
330
18
102
}
330
18
100
AcDbGroup
300

 70
     1
 71
     1
  0
GROUP
  5
2A6A
102
{ACAD_REACTORS
330
18
102
}
330
18
100
AcDbGroup
300

 70
     1
 71
     1
  0
GROUP
  5
2A6B
102
{ACAD_REACTORS
330
18
102
}
330
18
100
AcDbGroup
300

 70
     1
 71
     1
  0
GROUP
  5
171D
102
{ACAD_REACTORS
330
18
102
}
330
18
100
AcDbGroup
300

 70
     1
 71
     1
  0
GROUP
  5
171C
102
{ACAD_REACTORS
330
18
102
}
330
18
100
AcDbGroup
300

 70
     1
 71
     1
  0
GROUP
  5
3A1
102
{ACAD_REACTORS
330
18
102
}
330
18
100
AcDbGroup
300

 70
     1
 71
     1
  0
GROUP
  5
1CB1
102
{ACAD_REACTORS
330
18
102
}
330
18
100
AcDbGroup
300

 70
     1
 71
     1
  0
GROUP
  5
6E6
102
{ACAD_REACTORS
330
18
102
}
330
18
100
AcDbGroup
300

 70
     1
 71
     1
  0
GROUP
  5
9D9
102
{ACAD_REACTORS
330
18
102
}
330
18
100
AcDbGroup
300

 70
     1
 71
     1
  0
GROUP
  5
DE0
102
{ACAD_REACTORS
330
18
102
}
330
18
100
AcDbGroup
300

 70
     1
 71
     1
  0
GROUP
  5
6E7
102
{ACAD_REACTORS
330
18
102
}
330
18
100
AcDbGroup
300

 70
     1
 71
     1
  0
LAYOUT
  5
5A
102
{ACAD_XDICTIONARY
360
3A17
102
}
102
{ACAD_REACTORS
330
58
102
}
330
58
100
AcDbPlotSettings
  1

  2
なし
  4

  6

 40
0.0
 41
0.0
 42
0.0
 43
0.0
 44
0.0
 45
0.0
 46
0.0
 47
0.0
 48
0.0
 49
0.0
140
0.0
141
0.0
142
1.0
143
1.0
 70
  1712
 72
     0
 73
     0
 74
     0
  7
monochrome.ctb
 75
     0
147
1.0
148
0.0
149
0.0
100
AcDbLayout
  1
Model
 70
     1
 71
     0
 10
0.0
 20
0.0
 11
12.0
 21
9.0
 12
0.0
 22
0.0
 32
0.0
 14
0.0
 24
0.0
 34
0.0
 15
0.0
 25
0.0
 35
0.0
146
0.0
 13
0.0
 23
0.0
 33
0.0
 16
1.0
 26
0.0
 36
0.0
 17
0.0
 27
1.0
 37
0.0
 76
     0
330
2
  0
LAYOUT
  5
5B
102
{ACAD_XDICTIONARY
360
3A19
102
}
102
{ACAD_REACTORS
330
58
102
}
330
58
100
AcDbPlotSettings
  1

  2
なし
  4

  6

 40
0.0
 41
0.0
 42
0.0
 43
0.0
 44
0.0
 45
0.0
 46
0.0
 47
0.0
 48
0.0
 49
0.0
140
0.0
141
0.0
142
1.0
143
1.0
 70
   688
 72
     0
 73
     0
 74
     5
  7
monochrome.ctb
 75
    16
147
1.0
148
0.0
149
0.0
100
AcDbLayout
  1
ﾚｲｱｳﾄ1
 70
     1
 71
     1
 10
0.0
 20
0.0
 11
12.0
 21
9.0
 12
0.0
 22
0.0
 32
0.0
 14
1.000000000000000E+20
 24
1.000000000000000E+20
 34
1.000000000000000E+20
 15
-1.000000000000000E+20
 25
-1.000000000000000E+20
 35
-1.000000000000000E+20
146
0.0
 13
0.0
 23
0.0
 33
0.0
 16
1.0
 26
0.0
 36
0.0
 17
0.0
 27
1.0
 37
0.0
 76
     0
330
7
  0
MLINESTYLE
  5
1D
102
{ACAD_REACTORS
330
19
102
}
330
19
100
AcDbMlineStyle
  2
STANDARD
 70
     0
  3

 62
   256
 51
90.0
 52
90.0
 71
     2
 49
0.5
 62
   256
  6
BYLAYER
 49
-0.5
 62
   256
  6
BYLAYER
  0
ACDBPLACEHOLDER
  5
57
102
{ACAD_REACTORS
330
56
102
}
330
56
  0
TABLESTYLE
  5
2E6C
102
{ACAD_REACTORS
330
2E6B
102
}
330
2E6B
100
AcDbTableStyle
  3
Standard
 70
     0
 71
     0
 40
0.06
 41
0.06
280
     0
281
     0
  7
STANDARD
140
0.18
170
     2
 62
     0
 63
     7
283
     0
274
    -2
284
     1
 64
     0
275
    -2
285
     1
 65
     0
276
    -2
286
     1
 66
     0
277
    -2
287
     1
 67
     0
278
    -2
288
     1
 68
     0
279
    -2
289
     1
 69
     0
  7
STANDARD
140
0.25
170
     5
 62
     0
 63
     7
283
     0
274
    -2
284
     1
 64
     0
275
    -2
285
     1
 65
     0
276
    -2
286
     1
 66
     0
277
    -2
287
     1
 67
     0
278
    -2
288
     1
 68
     0
279
    -2
289
     1
 69
     0
  7
STANDARD
140
0.18
170
     5
 62
     0
 63
     7
283
     0
274
    -2
284
     1
 64
     0
275
    -2
285
     1
 65
     0
276
    -2
286
     1
 66
     0
277
    -2
287
     1
 67
     0
278
    -2
288
     1
 68
     0
279
    -2
289
     1
 69
     0
  0
DICTIONARYVAR
  5
2E7E
102
{ACAD_REACTORS
330
2E7D
102
}
330
2E7D
100
DictionaryVariables
280
     0
  1
STANDARD
  0
DICTIONARYVAR
  5
303E
102
{ACAD_REACTORS
330
2E7D
102
}
330
2E7D
100
DictionaryVariables
280
     0
  1
1
  0
DICTIONARYVAR
  5
303F
102
{ACAD_REACTORS
330
2E7D
102
}
330
2E7D
100
DictionaryVariables
280
     0
  1

  0
DICTIONARY
  5
3A17
330
5A
100
AcDbDictionary
280
     1
281
     1
  3
ACAD_XREC_ROUNDTRIP
360
3A18
  0
DICTIONARY
  5
3A19
330
5B
100
AcDbDictionary
280
     1
281
     1
  3
ACAD_XREC_ROUNDTRIP
360
3A1A
  0
XRECORD
  5
3A18
102
{ACAD_REACTORS
330
3A17
102
}
330
3A17
100
AcDbXrecord
280
     1
102
SHADEPLOT
 70
     0
102
SHADEPLOTRESLEVEL
 70
     2
102
SHADEPLOTCUSTOMDPI
 70
   300
  0
XRECORD
  5
3A1A
102
{ACAD_REACTORS
330
3A19
102
}
330
3A19
100
AcDbXrecord
280
     1
102
SHADEPLOT
 70
     0
102
SHADEPLOTRESLEVEL
 70
     2
102
SHADEPLOTCUSTOMDPI
 70
   300
  0
ENDSEC
  0
EOF
