  0
SECTION
  2
HEADER
  9
$ACADVER
  1
AC1015
  9
$ACADMAINTVER
 70
    20
  9
$DWGCODEPAGE
  3
ANSI_932
  9
$INSBASE
 10
922.019522
 20
-675.4306699999999
 30
0.0
  9
$EXTMIN
 10
-0.0244868053441678
 20
-0.0404145452566809
 30
-0.0015258207003583
  9
$EXTMAX
 10
802.4693488145183
 20
1324.445282207927
 30
0.0000000349246037
  9
$LIMMIN
 10
0.0
 20
0.0
  9
$LIMMAX
 10
420.0
 20
297.0
  9
$ORTHOMODE
 70
     0
  9
$REGENMODE
 70
     1
  9
$FILLMODE
 70
     1
  9
$QTEXTMODE
 70
     0
  9
$MIRRTEXT
 70
     1
  9
$LTSCALE
 40
30.0
  9
$ATTMODE
 70
     1
  9
$TEXTSIZE
 40
30.0
  9
$TRACEWID
 40
0.05
  9
$TEXTSTYLE
  7
SUNPOU
  9
$CLAYER
  8
0
  9
$CELTYPE
  6
BYLAYER
  9
$CECOLOR
 62
   256
  9
$CELTSCALE
 40
1.0
  9
$DISPSILH
 70
     0
  9
$DIMSCALE
 40
1.0
  9
$DIMASZ
 40
3.0
  9
$DIMEXO
 40
3.0
  9
$DIMDLI
 40
0.38
  9
$DIMRND
 40
0.0
  9
$DIMDLE
 40
0.0
  9
$DIMEXE
 40
0.0
  9
$DIMTP
 40
0.0
  9
$DIMTM
 40
0.0
  9
$DIMTXT
 40
10.0
  9
$DIMCEN
 40
0.0
  9
$DIMTSZ
 40
0.0
  9
$DIMTOL
 70
     0
  9
$DIMLIM
 70
     0
  9
$DIMTIH
 70
     0
  9
$DIMTOH
 70
     0
  9
$DIMSE1
 70
     0
  9
$DIMSE2
 70
     0
  9
$DIMTAD
 70
     1
  9
$DIMZIN
 70
     0
  9
$DIMBLK
  1
Dot
  9
$DIMASO
 70
     1
  9
$DIMSHO
 70
     1
  9
$DIMPOST
  1

  9
$DIMAPOST
  1

  9
$DIMALT
 70
     0
  9
$DIMALTD
 70
     2
  9
$DIMALTF
 40
25.4
  9
$DIMLFAC
 40
1.0
  9
$DIMTOFL
 70
     0
  9
$DIMTVP
 40
0.0
  9
$DIMTIX
 70
     0
  9
$DIMSOXD
 70
     0
  9
$DIMSAH
 70
     0
  9
$DIMBLK1
  1

  9
$DIMBLK2
  1

  9
$DIMSTYLE
  2
STANDARD
  9
$DIMCLRD
 70
    60
  9
$DIMCLRE
 70
    70
  9
$DIMCLRT
 70
    60
  9
$DIMTFAC
 40
0.064286
  9
$DIMGAP
 40
5.0
  9
$DIMJUST
 70
     0
  9
$DIMSD1
 70
     0
  9
$DIMSD2
 70
     0
  9
$DIMTOLJ
 70
     1
  9
$DIMTZIN
 70
     0
  9
$DIMALTZ
 70
     0
  9
$DIMALTTZ
 70
     0
  9
$DIMUPT
 70
     0
  9
$DIMDEC
 70
     0
  9
$DIMTDEC
 70
     0
  9
$DIMALTU
 70
     2
  9
$DIMALTTD
 70
     2
  9
$DIMTXSTY
  7
SUNPOU
  9
$DIMAUNIT
 70
     0
  9
$DIMADEC
 70
     0
  9
$DIMALTRND
 40
0.0
  9
$DIMAZIN
 70
     0
  9
$DIMDSEP
 70
    46
  9
$DIMATFIT
 70
     3
  9
$DIMFRAC
 70
     0
  9
$DIMLDRBLK
  1

  9
$DIMLUNIT
 70
     2
  9
$DIMLWD
 70
    -2
  9
$DIMLWE
 70
    -2
  9
$DIMTMOVE
 70
     0
  9
$LUNITS
 70
     2
  9
$LUPREC
 70
     5
  9
$SKETCHINC
 40
0.1
  9
$FILLETRAD
 40
0.0
  9
$AUNITS
 70
     0
  9
$AUPREC
 70
     0
  9
$MENU
  1
acad
  9
$ELEVATION
 40
0.0
  9
$PELEVATION
 40
0.0
  9
$THICKNESS
 40
0.0
  9
$LIMCHECK
 70
     0
  9
$CHAMFERA
 40
0.0
  9
$CHAMFERB
 40
0.0
  9
$CHAMFERC
 40
0.0
  9
$CHAMFERD
 40
0.0
  9
$SKPOLY
 70
     0
  9
$TDCREATE
 40
2450623.654673033
  9
$TDUCREATE
 40
2450623.279673032
  9
$TDUPDATE
 40
2454540.370091806
  9
$TDUUPDATE
 40
2454539.995091806
  9
$TDINDWG
 40
0.3155391319
  9
$TDUSRTIMER
 40
0.3155389583
  9
$USRTIMER
 70
     1
  9
$ANGBASE
 50
0.0
  9
$ANGDIR
 70
     0
  9
$PDMODE
 70
     0
  9
$PDSIZE
 40
0.0
  9
$PLINEWID
 40
0.0
  9
$SPLFRAME
 70
     0
  9
$SPLINETYPE
 70
     6
  9
$SPLINESEGS
 70
     8
  9
$HANDSEED
  5
3471
  9
$SURFTAB1
 70
     6
  9
$SURFTAB2
 70
     6
  9
$SURFTYPE
 70
     6
  9
$SURFU
 70
     6
  9
$SURFV
 70
     6
  9
$UCSBASE
  2

  9
$UCSNAME
  2

  9
$UCSORG
 10
0.0
 20
0.0
 30
0.0
  9
$UCSXDIR
 10
1.0
 20
0.0
 30
0.0
  9
$UCSYDIR
 10
0.0
 20
1.0
 30
0.0
  9
$UCSORTHOREF
  2

  9
$UCSORTHOVIEW
 70
     0
  9
$UCSORGTOP
 10
0.0
 20
0.0
 30
0.0
  9
$UCSORGBOTTOM
 10
0.0
 20
0.0
 30
0.0
  9
$UCSORGLEFT
 10
0.0
 20
0.0
 30
0.0
  9
$UCSORGRIGHT
 10
0.0
 20
0.0
 30
0.0
  9
$UCSORGFRONT
 10
0.0
 20
0.0
 30
0.0
  9
$UCSORGBACK
 10
0.0
 20
0.0
 30
0.0
  9
$PUCSBASE
  2

  9
$PUCSNAME
  2

  9
$PUCSORG
 10
0.0
 20
0.0
 30
0.0
  9
$PUCSXDIR
 10
1.0
 20
0.0
 30
0.0
  9
$PUCSYDIR
 10
0.0
 20
1.0
 30
0.0
  9
$PUCSORTHOREF
  2

  9
$PUCSORTHOVIEW
 70
     0
  9
$PUCSORGTOP
 10
0.0
 20
0.0
 30
0.0
  9
$PUCSORGBOTTOM
 10
0.0
 20
0.0
 30
0.0
  9
$PUCSORGLEFT
 10
0.0
 20
0.0
 30
0.0
  9
$PUCSORGRIGHT
 10
0.0
 20
0.0
 30
0.0
  9
$PUCSORGFRONT
 10
0.0
 20
0.0
 30
0.0
  9
$PUCSORGBACK
 10
0.0
 20
0.0
 30
0.0
  9
$USERI1
 70
     0
  9
$USERI2
 70
     0
  9
$USERI3
 70
     0
  9
$USERI4
 70
     0
  9
$USERI5
 70
     0
  9
$USERR1
 40
0.0
  9
$USERR2
 40
0.0
  9
$USERR3
 40
0.0
  9
$USERR4
 40
0.0
  9
$USERR5
 40
0.0
  9
$WORLDVIEW
 70
     1
  9
$SHADEDGE
 70
     3
  9
$SHADEDIF
 70
    70
  9
$TILEMODE
 70
     1
  9
$MAXACTVP
 70
    16
  9
$PINSBASE
 10
0.0
 20
0.0
 30
0.0
  9
$PLIMCHECK
 70
     0
  9
$PEXTMIN
 10
1.000000000000000E+20
 20
1.000000000000000E+20
 30
1.000000000000000E+20
  9
$PEXTMAX
 10
-1.000000000000000E+20
 20
-1.000000000000000E+20
 30
-1.000000000000000E+20
  9
$PLIMMIN
 10
0.0
 20
0.0
  9
$PLIMMAX
 10
12.0
 20
9.0
  9
$UNITMODE
 70
     0
  9
$VISRETAIN
 70
     0
  9
$PLINEGEN
 70
     0
  9
$PSLTSCALE
 70
     1
  9
$TREEDEPTH
 70
  3020
  9
$CMLSTYLE
  2
STANDARD
  9
$CMLJUST
 70
     0
  9
$CMLSCALE
 40
1.0
  9
$PROXYGRAPHICS
 70
     1
  9
$MEASUREMENT
 70
     0
  9
$CELWEIGHT
370
    -1
  9
$ENDCAPS
280
     0
  9
$JOINSTYLE
280
     0
  9
$LWDISPLAY
290
     0
  9
$INSUNITS
 70
     0
  9
$HYPERLINKBASE
  1

  9
$STYLESHEET
  1

  9
$XEDIT
290
     1
  9
$CEPSNTYPE
380
     0
  9
$PSTYLEMODE
290
     1
  9
$FINGERPRINTGUID
  2
{FB88A696-E29C-4009-92AF-A3599A8169D5}
  9
$VERSIONGUID
  2
{782AE406-2E94-48AF-B4A4-CE6729D25DBF}
  9
$EXTNAMES
290
     1
  9
$PSVPSCALE
 40
0.0
  9
$OLESTARTUP
290
     0
  0
ENDSEC
  0
SECTION
  2
CLASSES
  0
CLASS
  1
DICTIONARYVAR
  2
AcDbDictionaryVar
  3
ObjectDBX Classes
 90
        0
280
     0
281
     0
  0
CLASS
  1
ACDBDICTIONARYWDFLT
  2
AcDbDictionaryWithDefault
  3
ObjectDBX Classes
 90
        0
280
     0
281
     0
  0
CLASS
  1
ACDBPLACEHOLDER
  2
AcDbPlaceHolder
  3
ObjectDBX Classes
 90
        0
280
     0
281
     0
  0
CLASS
  1
LAYOUT
  2
AcDbLayout
  3
ObjectDBX Classes
 90
        0
280
     0
281
     0
  0
CLASS
  1
TABLESTYLE
  2
AcDbTableStyle
  3
ObjectDBX Classes
 90
     2047
280
     0
281
     0
  0
ENDSEC
  0
SECTION
  2
TABLES
  0
TABLE
  2
VPORT
  5
12
330
0
100
AcDbSymbolTable
 70
     4
  0
VPORT
  5
346B
330
12
100
AcDbSymbolTableRecord
100
AcDbViewportTableRecord
  2
*Active
 70
     0
 10
0.0
 20
0.0
 11
1.0
 21
1.0
 12
401.222431004587
 22
662.2024338313354
 13
0.0
 23
0.0
 14
1.0
 24
1.0
 15
0.0
 25
0.0
 16
0.0
 26
0.0
 36
1.0
 17
0.0
 27
0.0
 37
0.0
 40
1334.570613225924
 41
1.527318932655654
 42
50.0
 43
0.0
 44
0.0
 50
0.0
 51
0.0
 71
     0
 72
 20000
 73
     1
 74
     1
 75
     0
 76
     0
 77
     0
 78
     0
281
     0
 65
     1
110
0.0
120
0.0
130
0.0
111
1.0
121
0.0
131
0.0
112
0.0
122
1.0
132
0.0
 79
     0
146
0.0
  0
ENDTAB
  0
TABLE
  2
LTYPE
  5
D
330
0
100
AcDbSymbolTable
 70
     1
  0
LTYPE
  5
E
330
D
100
AcDbSymbolTableRecord
100
AcDbLinetypeTableRecord
  2
BYBLOCK
 70
     0
  3

 72
    65
 73
     0
 40
0.0
  0
LTYPE
  5
F
330
D
100
AcDbSymbolTableRecord
100
AcDbLinetypeTableRecord
  2
BYLAYER
 70
     0
  3

 72
    65
 73
     0
 40
0.0
  0
LTYPE
  5
5
330
D
100
AcDbSymbolTableRecord
100
AcDbLinetypeTableRecord
  2
CONTINUOUS
 70
     0
  3
Solid line
 72
    65
 73
     0
 40
0.0
  0
ENDTAB
  0
TABLE
  2
LAYER
  5
A
330
0
100
AcDbSymbolTable
 70
     6
  0
LAYER
  5
4
330
A
100
AcDbSymbolTableRecord
100
AcDbLayerTableRecord
  2
0
 70
     0
 62
     7
  6
CONTINUOUS
370
    -3
390
57
  0
LAYER
  5
25
330
A
100
AcDbSymbolTableRecord
100
AcDbLayerTableRecord
  2
KIJUN
 70
     0
 62
     7
  6
CONTINUOUS
370
    -3
390
57
  0
LAYER
  5
22
330
A
100
AcDbSymbolTableRecord
100
AcDbLayerTableRecord
  2
HOJO
 70
     0
 62
     3
  6
CONTINUOUS
370
    -3
390
57
  0
LAYER
  5
1B
330
A
100
AcDbSymbolTableRecord
100
AcDbLayerTableRecord
  2
WAKU
 70
     0
 62
     1
  6
CONTINUOUS
370
    -3
390
57
  0
LAYER
  5
31
330
A
100
AcDbSymbolTableRecord
100
AcDbLayerTableRecord
  2
DEFPOINTS
 70
     0
 62
     7
  6
CONTINUOUS
290
     0
370
    -3
390
57
  0
LAYER
  5
28
330
A
100
AcDbSymbolTableRecord
100
AcDbLayerTableRecord
  2
SUNPOU
 70
     0
 62
    70
  6
CONTINUOUS
370
    -3
390
57
  0
ENDTAB
  0
TABLE
  2
STYLE
  5
B
330
0
100
AcDbSymbolTable
 70
     3
  0
STYLE
  5
C
330
B
100
AcDbSymbolTableRecord
100
AcDbTextStyleTableRecord
  2
STANDARD
 70
     0
 40
0.0
 41
1.0
 50
0.0
 71
     0
 42
0.2
  3
txt
  4

  0
STYLE
  5
1C
330
B
100
AcDbSymbolTableRecord
100
AcDbTextStyleTableRecord
  2
SUNPOU
 70
     0
 40
0.0
 41
1.0
 50
0.0
 71
     0
 42
30.0
  3
txt
  4
bigfont
  0
STYLE
  5
1AD
330
B
100
AcDbSymbolTableRecord
100
AcDbTextStyleTableRecord
  2
LIFE
 70
     0
 40
0.0
 41
0.7
 50
0.0
 71
     0
 42
10.0
  3
romans
  4
extfont
  0
ENDTAB
  0
TABLE
  2
VIEW
  5
10
330
0
100
AcDbSymbolTable
 70
     0
  0
ENDTAB
  0
TABLE
  2
UCS
  5
11
330
0
100
AcDbSymbolTable
 70
     0
  0
ENDTAB
  0
TABLE
  2
APPID
  5
14
330
0
100
AcDbSymbolTable
 70
     2
  0
APPID
  5
15
330
14
100
AcDbSymbolTableRecord
100
AcDbRegAppTableRecord
  2
ACAD
 70
     0
  0
APPID
  5
2EB0
330
14
100
AcDbSymbolTableRecord
100
AcDbRegAppTableRecord
  2
ACAD_EXEMPT_FROM_CAD_STANDARDS
 70
     0
  0
ENDTAB
  0
TABLE
  2
DIMSTYLE
  5
16
330
0
100
AcDbSymbolTable
 70
     2
100
AcDbDimStyleTable
 71
     1
340
1E
  0
DIMSTYLE
105
1E
330
16
100
AcDbSymbolTableRecord
100
AcDbDimStyleTableRecord
  2
STANDARD
 70
     0
340
C
  0
DIMSTYLE
105
1AE
102
{ACAD_REACTORS
330
3393
330
3395
330
3396
330
33B8
330
33B9
102
}
330
16
100
AcDbSymbolTableRecord
100
AcDbDimStyleTableRecord
  2
STANDARD$0
 70
     0
 40
2.0
 41
1.0
 42
2.0
 43
0.0
 44
1.0
 73
     0
 74
     0
 77
     3
 78
     9
140
4.5
141
0.0
147
1.0
172
     1
173
     1
178
     3
271
     2
340
1AD
341
109
343
109
344
109
  0
ENDTAB
  0
TABLE
  2
BLOCK_RECORD
  5
1
330
0
100
AcDbSymbolTable
 70
    17
  0
BLOCK_RECORD
  5
2
330
1
100
AcDbSymbolTableRecord
100
AcDbBlockTableRecord
  2
*MODEL_SPACE
340
5A
  0
BLOCK_RECORD
  5
7
330
1
100
AcDbSymbolTableRecord
100
AcDbBlockTableRecord
  2
*PAPER_SPACE
340
5B
  0
BLOCK_RECORD
  5
109
330
1
100
AcDbSymbolTableRecord
100
AcDbBlockTableRecord
  2
_Dot
340
0
102
{BLKREFS
331
3157
331
3158
331
3160
331
3161
331
3169
331
316A
331
32CB
331
32CC
331
32E2
331
32E3
331
3318
331
3319
331
3324
331
3325
331
3330
331
3331
331
333C
331
333D
331
3348
331
3349
331
343B
331
343C
331
3444
331
3445
331
344D
331
344E
331
3456
331
3457
331
345F
331
3460
102
}
  0
BLOCK_RECORD
  5
33CD
330
1
100
AcDbSymbolTableRecord
100
AcDbBlockTableRecord
  2
*D12
340
0
  0
BLOCK_RECORD
  5
33D9
330
1
100
AcDbSymbolTableRecord
100
AcDbBlockTableRecord
  2
*D13
340
0
  0
BLOCK_RECORD
  5
33E5
330
1
100
AcDbSymbolTableRecord
100
AcDbBlockTableRecord
  2
*D14
340
0
  0
BLOCK_RECORD
  5
33F1
330
1
100
AcDbSymbolTableRecord
100
AcDbBlockTableRecord
  2
*D15
340
0
  0
BLOCK_RECORD
  5
33FD
330
1
100
AcDbSymbolTableRecord
100
AcDbBlockTableRecord
  2
*D16
340
0
  0
ENDTAB
  0
ENDSEC
  0
SECTION
  2
BLOCKS
  0
BLOCK
  5
3
330
2
100
AcDbEntity
  8
0
100
AcDbBlockBegin
  2
*MODEL_SPACE
 70
     0
 10
0.0
 20
0.0
 30
0.0
  3
*MODEL_SPACE
  1

  0
ENDBLK
  5
6
330
2
100
AcDbEntity
  8
0
100
AcDbBlockEnd
  0
BLOCK
  5
8
330
7
100
AcDbEntity
 67
     1
  8
0
100
AcDbBlockBegin
  2
*PAPER_SPACE
 70
     0
 10
0.0
 20
0.0
 30
0.0
  3
*PAPER_SPACE
  1

  0
ENDBLK
  5
9
330
7
100
AcDbEntity
 67
     1
  8
0
100
AcDbBlockEnd
  0
BLOCK
  5
10C
330
109
100
AcDbEntity
  8
0
100
AcDbBlockBegin
  2
_Dot
 70
     0
 10
0.0
 20
0.0
 30
0.0
  3
_Dot
  1

  0
LWPOLYLINE
  5
10A
330
109
100
AcDbEntity
  8
0
  6
ByBlock
 62
     0
100
AcDbPolyline
 90
        2
 70
     1
 43
0.5
 10
-0.25
 20
0.0
 42
1.0
 10
0.25
 20
0.0
 42
1.0
  0
LINE
  5
10B
330
109
100
AcDbEntity
  8
0
  6
ByBlock
 62
     0
370
    -2
100
AcDbLine
 10
-0.5
 20
0.0
 30
0.0
 11
-1.0
 21
0.0
 31
0.0
  0
ENDBLK
  5
10D
330
109
100
AcDbEntity
  8
0
100
AcDbBlockEnd
  0
BLOCK
  5
33D7
330
33CD
100
AcDbEntity
  8
0
100
AcDbBlockBegin
  2
*D12
 70
     1
 10
0.0
 20
0.0
 30
0.0
  3
*D12
  1

  0
LINE
  5
3438
330
33CD
100
AcDbEntity
  8
SUNPOU
 62
    70
370
    -2
100
AcDbLine
 10
339.9018012767701
 20
292.1403597044818
 30
0.0
 11
162.0592228989369
 21
292.1403597044818
 31
0.0
  0
LINE
  5
3439
330
33CD
100
AcDbEntity
  8
SUNPOU
 62
    70
370
    -2
100
AcDbLine
 10
339.9018012767701
 20
1192.140359704482
 30
0.0
 11
162.0592228989371
 21
1192.140359704482
 31
0.0
  0
LINE
  5
343A
330
33CD
100
AcDbEntity
  8
SUNPOU
 62
    60
370
    -2
100
AcDbLine
 10
162.0592228989369
 20
298.1403597044818
 30
0.0
 11
162.0592228989371
 21
1186.140359704482
 31
0.0
  0
INSERT
  5
343B
330
33CD
100
AcDbEntity
  8
SUNPOU
 62
    60
370
    -2
100
AcDbBlockReference
  2
_Dot
 10
162.0592228989369
 20
292.1403597044818
 30
0.0
 41
6.0
 42
6.0
 43
6.0
 50
270.0
  0
INSERT
  5
343C
330
33CD
100
AcDbEntity
  8
SUNPOU
 62
    60
370
    -2
100
AcDbBlockReference
  2
_Dot
 10
162.0592228989371
 20
1192.140359704482
 30
0.0
 41
6.0
 42
6.0
 43
6.0
 50
90.0
  0
MTEXT
  5
343D
330
33CD
100
AcDbEntity
  8
SUNPOU
 62
    60
100
AcDbMText
 10
142.0592228989369
 20
742.1403597044818
 30
0.0
 40
20.0
 41
0.0
 71
     5
 72
     1
  1
\A1;900
  7
SUNPOU
 11
0.0000000000000001
 21
1.0
 31
0.0
 73
     1
 44
1.0
1001
ACAD
1000
MTEXTBEGIN
1070
    73
1070
     1
1070
    44
1040
1.0
1070
    74
1070
     0
1000
MTEXTEND
  0
POINT
  5
343E
330
33CD
100
AcDbEntity
  8
DEFPOINTS
 62
     0
100
AcDbPoint
 10
345.9018012767701
 20
292.1403597044818
 30
0.0
  0
POINT
  5
343F
330
33CD
100
AcDbEntity
  8
DEFPOINTS
 62
     0
100
AcDbPoint
 10
345.9018012767701
 20
1192.140359704482
 30
0.0
  0
POINT
  5
3440
330
33CD
100
AcDbEntity
  8
DEFPOINTS
 62
     0
100
AcDbPoint
 10
162.0592228989371
 20
1192.140359704482
 30
0.0
  0
ENDBLK
  5
33D8
330
33CD
100
AcDbEntity
  8
0
100
AcDbBlockEnd
  0
BLOCK
  5
33E3
330
33D9
100
AcDbEntity
  8
0
100
AcDbBlockBegin
  2
*D13
 70
     1
 10
0.0
 20
0.0
 30
0.0
  3
*D13
  1

  0
LINE
  5
3441
330
33D9
100
AcDbEntity
  8
SUNPOU
 62
    70
370
    -2
100
AcDbLine
 10
345.9018012767701
 20
1198.140359704482
 30
0.0
 11
345.9018012767701
 21
1294.40486149543
 31
0.0
  0
LINE
  5
3442
330
33D9
100
AcDbEntity
  8
SUNPOU
 62
    70
370
    -2
100
AcDbLine
 10
405.9018012767698
 20
1198.140359704482
 30
0.0
 11
405.9018012767698
 21
1294.40486149543
 31
0.0
  0
LINE
  5
3443
330
33D9
100
AcDbEntity
  8
SUNPOU
 62
    60
370
    -2
100
AcDbLine
 10
351.9018012767701
 20
1294.40486149543
 30
0.0
 11
399.9018012767699
 21
1294.40486149543
 31
0.0
  0
INSERT
  5
3444
330
33D9
100
AcDbEntity
  8
SUNPOU
 62
    60
370
    -2
100
AcDbBlockReference
  2
_Dot
 10
345.9018012767701
 20
1294.40486149543
 30
0.0
 41
6.0
 42
6.0
 43
6.0
 50
180.0
  0
INSERT
  5
3445
330
33D9
100
AcDbEntity
  8
SUNPOU
 62
    60
370
    -2
100
AcDbBlockReference
  2
_Dot
 10
405.9018012767698
 20
1294.40486149543
 30
0.0
 41
6.0
 42
6.0
 43
6.0
  0
MTEXT
  5
3446
330
33D9
100
AcDbEntity
  8
SUNPOU
 62
    60
100
AcDbMText
 10
375.90180127677
 20
1314.40486149543
 30
0.0
 40
20.0
 41
0.0
 71
     5
 72
     1
  1
\A1;60
  7
SUNPOU
 73
     1
 44
1.0
1001
ACAD
1000
MTEXTBEGIN
1070
    73
1070
     1
1070
    44
1040
1.0
1070
    74
1070
     0
1000
MTEXTEND
  0
POINT
  5
3447
330
33D9
100
AcDbEntity
  8
DEFPOINTS
 62
     0
100
AcDbPoint
 10
345.9018012767701
 20
1192.140359704482
 30
0.0
  0
POINT
  5
3448
330
33D9
100
AcDbEntity
  8
DEFPOINTS
 62
     0
100
AcDbPoint
 10
405.9018012767698
 20
1192.140359704482
 30
0.0
  0
POINT
  5
3449
330
33D9
100
AcDbEntity
  8
DEFPOINTS
 62
     0
100
AcDbPoint
 10
405.9018012767698
 20
1294.40486149543
 30
0.0
  0
ENDBLK
  5
33E4
330
33D9
100
AcDbEntity
  8
0
100
AcDbBlockEnd
  0
BLOCK
  5
33EF
330
33E5
100
AcDbEntity
  8
0
100
AcDbBlockBegin
  2
*D14
 70
     1
 10
0.0
 20
0.0
 30
0.0
  3
*D14
  1

  0
LINE
  5
344A
330
33E5
100
AcDbEntity
  8
SUNPOU
 62
    70
370
    -2
100
AcDbLine
 10
339.9018012767701
 20
1192.140359704482
 30
0.0
 11
245.525697405832
 21
1192.140359704482
 31
0.0
  0
LINE
  5
344B
330
33E5
100
AcDbEntity
  8
SUNPOU
 62
    70
370
    -2
100
AcDbLine
 10
339.9018012767701
 20
1057.140359704482
 30
0.0
 11
245.525697405832
 21
1057.140359704482
 31
0.0
  0
LINE
  5
344C
330
33E5
100
AcDbEntity
  8
SUNPOU
 62
    60
370
    -2
100
AcDbLine
 10
245.525697405832
 20
1186.140359704482
 30
0.0
 11
245.525697405832
 21
1063.140359704482
 31
0.0
  0
INSERT
  5
344D
330
33E5
100
AcDbEntity
  8
SUNPOU
 62
    60
370
    -2
100
AcDbBlockReference
  2
_Dot
 10
245.525697405832
 20
1192.140359704482
 30
0.0
 41
6.0
 42
6.0
 43
6.0
 50
90.0
  0
INSERT
  5
344E
330
33E5
100
AcDbEntity
  8
SUNPOU
 62
    60
370
    -2
100
AcDbBlockReference
  2
_Dot
 10
245.525697405832
 20
1057.140359704482
 30
0.0
 41
6.0
 42
6.0
 43
6.0
 50
270.0
  0
MTEXT
  5
344F
330
33E5
100
AcDbEntity
  8
SUNPOU
 62
    60
100
AcDbMText
 10
225.5256974058319
 20
1124.640359704482
 30
0.0
 40
20.0
 41
0.0
 71
     5
 72
     1
  1
\A1;135
  7
SUNPOU
 11
0.0000000000000001
 21
1.0
 31
0.0
 73
     1
 44
1.0
1001
ACAD
1000
MTEXTBEGIN
1070
    73
1070
     1
1070
    44
1040
1.0
1070
    74
1070
     0
1000
MTEXTEND
  0
POINT
  5
3450
330
33E5
100
AcDbEntity
  8
DEFPOINTS
 62
     0
100
AcDbPoint
 10
345.9018012767701
 20
1192.140359704482
 30
0.0
  0
POINT
  5
3451
330
33E5
100
AcDbEntity
  8
DEFPOINTS
 62
     0
100
AcDbPoint
 10
345.9018012767701
 20
1057.140359704482
 30
0.0
  0
POINT
  5
3452
330
33E5
100
AcDbEntity
  8
DEFPOINTS
 62
     0
100
AcDbPoint
 10
245.525697405832
 20
1057.140359704482
 30
0.0
  0
ENDBLK
  5
33F0
330
33E5
100
AcDbEntity
  8
0
100
AcDbBlockEnd
  0
BLOCK
  5
33FB
330
33F1
100
AcDbEntity
  8
0
100
AcDbBlockBegin
  2
*D15
 70
     1
 10
0.0
 20
0.0
 30
0.0
  3
*D15
  1

  0
LINE
  5
3453
330
33F1
100
AcDbEntity
  8
SUNPOU
 62
    70
370
    -2
100
AcDbLine
 10
345.9018012767701
 20
286.1403597044819
 30
0.0
 11
345.9018012767701
 21
189.8758579135333
 31
0.0
  0
LINE
  5
3454
330
33F1
100
AcDbEntity
  8
SUNPOU
 62
    70
370
    -2
100
AcDbLine
 10
405.9018012767698
 20
286.1403597044819
 30
0.0
 11
405.9018012767698
 21
189.8758579135333
 31
0.0
  0
LINE
  5
3455
330
33F1
100
AcDbEntity
  8
SUNPOU
 62
    60
370
    -2
100
AcDbLine
 10
351.9018012767701
 20
189.8758579135333
 30
0.0
 11
399.9018012767699
 21
189.8758579135333
 31
0.0
  0
INSERT
  5
3456
330
33F1
100
AcDbEntity
  8
SUNPOU
 62
    60
370
    -2
100
AcDbBlockReference
  2
_Dot
 10
345.9018012767701
 20
189.8758579135333
 30
0.0
 41
6.0
 42
6.0
 43
6.0
 50
180.0
  0
INSERT
  5
3457
330
33F1
100
AcDbEntity
  8
SUNPOU
 62
    60
370
    -2
100
AcDbBlockReference
  2
_Dot
 10
405.9018012767698
 20
189.8758579135333
 30
0.0
 41
6.0
 42
6.0
 43
6.0
  0
MTEXT
  5
3458
330
33F1
100
AcDbEntity
  8
SUNPOU
 62
    60
100
AcDbMText
 10
375.90180127677
 20
209.8758579135333
 30
0.0
 40
20.0
 41
0.0
 71
     5
 72
     1
  1
\A1;60
  7
SUNPOU
 73
     1
 44
1.0
1001
ACAD
1000
MTEXTBEGIN
1070
    73
1070
     1
1070
    44
1040
1.0
1070
    74
1070
     0
1000
MTEXTEND
  0
POINT
  5
3459
330
33F1
100
AcDbEntity
  8
DEFPOINTS
 62
     0
100
AcDbPoint
 10
345.9018012767701
 20
292.1403597044819
 30
0.0
  0
POINT
  5
345A
330
33F1
100
AcDbEntity
  8
DEFPOINTS
 62
     0
100
AcDbPoint
 10
405.9018012767698
 20
292.1403597044819
 30
0.0
  0
POINT
  5
345B
330
33F1
100
AcDbEntity
  8
DEFPOINTS
 62
     0
100
AcDbPoint
 10
405.9018012767698
 20
189.8758579135333
 30
0.0
  0
ENDBLK
  5
33FC
330
33F1
100
AcDbEntity
  8
0
100
AcDbBlockEnd
  0
BLOCK
  5
3407
330
33FD
100
AcDbEntity
  8
0
100
AcDbBlockBegin
  2
*D16
 70
     1
 10
0.0
 20
0.0
 30
0.0
  3
*D16
  1

  0
LINE
  5
345C
330
33FD
100
AcDbEntity
  8
SUNPOU
 62
    70
370
    -2
100
AcDbLine
 10
339.9018012767701
 20
292.1403597044819
 30
0.0
 11
245.525697405832
 21
292.1403597044819
 31
0.0
  0
LINE
  5
345D
330
33FD
100
AcDbEntity
  8
SUNPOU
 62
    70
370
    -2
100
AcDbLine
 10
339.9018012767701
 20
427.1403597044818
 30
0.0
 11
245.525697405832
 21
427.1403597044818
 31
0.0
  0
LINE
  5
345E
330
33FD
100
AcDbEntity
  8
SUNPOU
 62
    60
370
    -2
100
AcDbLine
 10
245.525697405832
 20
298.1403597044819
 30
0.0
 11
245.525697405832
 21
421.1403597044818
 31
0.0
  0
INSERT
  5
345F
330
33FD
100
AcDbEntity
  8
SUNPOU
 62
    60
370
    -2
100
AcDbBlockReference
  2
_Dot
 10
245.525697405832
 20
292.1403597044819
 30
0.0
 41
6.0
 42
6.0
 43
6.0
 50
270.0
  0
INSERT
  5
3460
330
33FD
100
AcDbEntity
  8
SUNPOU
 62
    60
370
    -2
100
AcDbBlockReference
  2
_Dot
 10
245.525697405832
 20
427.1403597044818
 30
0.0
 41
6.0
 42
6.0
 43
6.0
 50
90.0
  0
MTEXT
  5
3461
330
33FD
100
AcDbEntity
  8
SUNPOU
 62
    60
100
AcDbMText
 10
225.525697405832
 20
359.6403597044819
 30
0.0
 40
20.0
 41
0.0
 71
     5
 72
     1
  1
\A1;135
  7
SUNPOU
 11
0.0000000000000001
 21
1.0
 31
0.0
 73
     1
 44
1.0
1001
ACAD
1000
MTEXTBEGIN
1070
    73
1070
     1
1070
    44
1040
1.0
1070
    74
1070
     0
1000
MTEXTEND
  0
POINT
  5
3462
330
33FD
100
AcDbEntity
  8
DEFPOINTS
 62
     0
100
AcDbPoint
 10
345.9018012767701
 20
292.1403597044819
 30
0.0
  0
POINT
  5
3463
330
33FD
100
AcDbEntity
  8
DEFPOINTS
 62
     0
100
AcDbPoint
 10
345.9018012767701
 20
427.1403597044818
 30
0.0
  0
POINT
  5
3464
330
33FD
100
AcDbEntity
  8
DEFPOINTS
 62
     0
100
AcDbPoint
 10
245.525697405832
 20
427.1403597044818
 30
0.0
  0
ENDBLK
  5
3408
330
33FD
100
AcDbEntity
  8
0
100
AcDbBlockEnd
  0
ENDSEC
  0
SECTION
  2
ENTITIES
  0
LINE
  5
3390
330
2
100
AcDbEntity
  8
WAKU
100
AcDbLine
 10
0.0
 20
70.0
 30
0.0
 11
802.4448582724989
 21
70.0
 31
0.0
  0
LINE
  5
3391
330
2
100
AcDbEntity
  8
WAKU
100
AcDbLine
 10
0.0
 20
0.0
 30
0.0
 11
802.4448582724989
 21
0.0
 31
0.0
  0
TEXT
  5
3392
330
2
100
AcDbEntity
  8
HOJO
100
AcDbText
 10
48.26983000000018
 20
11.83313000000009
 30
0.0
 40
45.0
  1
0612-090
  7
SUNPOU
100
AcDbText
  0
DIMENSION
  5
3393
330
2
100
AcDbEntity
  8
SUNPOU
100
AcDbDimension
  2
*D12
 10
162.0592228989371
 20
1192.140359704482
 30
0.0
 11
142.0592228989369
 21
742.1403597044818
 31
0.0
 70
    32
 71
     5
 42
900.0
  3
STANDARD$0
100
AcDbAlignedDimension
 13
345.9018012767701
 23
292.1403597044818
 33
0.0
 14
345.9018012767701
 24
1192.140359704482
 34
0.0
 50
90.0
100
AcDbRotatedDimension
1001
ACAD
1000
DSTYLE
1002
{
1070
    41
1040
3.0
1070
    42
1040
3.0
1070
    44
1040
0.0
1070
    77
1070
     1
1070
   140
1040
10.0
1070
   146
1040
0.064286
1070
   147
1040
5.0
1070
   176
1070
    60
1070
   177
1070
    70
1070
   178
1070
    60
1070
   271
1070
     0
1070
   272
1070
     0
1070
   340
1005
1C
1070
   342
1005
109
1002
}
  0
TEXT
  5
3394
330
2
100
AcDbEntity
  8
HOJO
100
AcDbText
 10
470.2016363591537
 20
16.14254471732295
 30
0.0
 40
35.0
  1
60x60  900
  7
SUNPOU
100
AcDbText
  0
DIMENSION
  5
3395
330
2
100
AcDbEntity
  8
SUNPOU
100
AcDbDimension
  2
*D13
 10
405.9018012767698
 20
1294.40486149543
 30
0.0
 11
375.90180127677
 21
1314.40486149543
 31
0.0
 70
    32
 71
     5
 42
59.99999999999977
  3
STANDARD$0
100
AcDbAlignedDimension
 13
345.9018012767701
 23
1192.140359704482
 33
0.0
 14
405.9018012767698
 24
1192.140359704482
 34
0.0
100
AcDbRotatedDimension
1001
ACAD
1000
DSTYLE
1002
{
1070
    41
1040
3.0
1070
    42
1040
3.0
1070
    44
1040
0.0
1070
    77
1070
     1
1070
   140
1040
10.0
1070
   146
1040
0.064286
1070
   147
1040
5.0
1070
   176
1070
    60
1070
   177
1070
    70
1070
   178
1070
    60
1070
   271
1070
     0
1070
   272
1070
     0
1070
   340
1005
1C
1070
   342
1005
109
1002
}
  0
DIMENSION
  5
3396
330
2
100
AcDbEntity
  8
SUNPOU
100
AcDbDimension
  2
*D14
 10
245.525697405832
 20
1057.140359704482
 30
0.0
 11
225.5256974058319
 21
1124.640359704482
 31
0.0
 70
    32
 71
     5
 42
135.0
  3
STANDARD$0
100
AcDbAlignedDimension
 13
345.9018012767701
 23
1192.140359704482
 33
0.0
 14
345.9018012767701
 24
1057.140359704482
 34
0.0
 50
270.0
100
AcDbRotatedDimension
1001
ACAD
1000
DSTYLE
1002
{
1070
    41
1040
3.0
1070
    42
1040
3.0
1070
    44
1040
0.0
1070
    77
1070
     1
1070
   140
1040
10.0
1070
   146
1040
0.064286
1070
   147
1040
5.0
1070
   176
1070
    60
1070
   177
1070
    70
1070
   178
1070
    60
1070
   271
1070
     0
1070
   272
1070
     0
1070
   340
1005
1C
1070
   342
1005
109
1002
}
  0
LINE
  5
3397
330
2
100
AcDbEntity
  8
KIJUN
100
AcDbLine
 10
345.9018012767701
 20
1192.140359704482
 30
0.0
 11
345.9018012767701
 21
1057.140359704482
 31
0.0
  0
LINE
  5
3398
330
2
100
AcDbEntity
  8
KIJUN
100
AcDbLine
 10
405.9018012767698
 20
1192.140359704482
 30
0.0
 11
405.9018012767701
 21
1057.140359704482
 31
0.0
  0
LINE
  5
3399
330
2
100
AcDbEntity
  8
KIJUN
100
AcDbLine
 10
345.9018012767701
 20
1057.140359704482
 30
0.0
 11
405.9018012767701
 21
1057.140359704482
 31
0.0
  0
ARC
  5
339A
330
2
100
AcDbEntity
  8
KIJUN
100
AcDbCircle
 10
409.8567002674928
 20
1052.446735966078
 30
0.0
 40
22.37918818605715
100
AcDbArc
 50
100.1788941199073
 51
157.1407223882683
  0
ARC
  5
339B
330
2
100
AcDbEntity
  8
KIJUN
100
AcDbCircle
 10
375.9018012767701
 20
1081.362581926704
 30
0.0
 40
24.2222222222221
100
AcDbArc
 50
236.6015115320167
 51
303.3984884679914
  0
ARC
  5
339C
330
2
100
AcDbEntity
  8
KIJUN
100
AcDbCircle
 10
341.9469022860472
 20
1052.446735966078
 30
0.0
 40
22.37918818605715
100
AcDbArc
 50
22.85927761173172
 51
79.8211058800927
  0
LINE
  5
339D
330
2
100
AcDbEntity
  8
KIJUN
100
AcDbLine
 10
345.9018012767701
 20
1192.140359704482
 30
0.0
 11
405.9018012767698
 21
1192.140359704482
 31
0.0
  0
LINE
  5
339E
330
2
100
AcDbEntity
  8
KIJUN
100
AcDbLine
 10
346.4018012767701
 20
1042.140359704482
 30
0.0
 11
405.4018012767701
 21
1042.140359704482
 31
0.0
  0
ARC
  5
339F
330
2
100
AcDbEntity
  8
KIJUN
100
AcDbCircle
 10
412.9057932104106
 20
816.9520187817461
 30
0.0
 40
16.94094433393229
100
AcDbArc
 50
116.2922571908982
 51
194.0034977829879
  0
ARC
  5
33A0
330
2
100
AcDbEntity
  8
KIJUN
100
AcDbCircle
 10
377.972919520384
 20
1042.086695177565
 30
0.0
 40
27.42893425358082
100
AcDbArc
 50
0.1120988819710918
 51
33.28638958601756
  0
ARC
  5
33A1
330
2
100
AcDbEntity
  8
KIJUN
100
AcDbCircle
 10
373.8306830331562
 20
1042.086695177565
 30
0.0
 40
27.42893425358081
100
AcDbArc
 50
146.7136104139824
 51
179.8879011180289
  0
LINE
  5
33A2
330
2
100
AcDbEntity
  8
KIJUN
100
AcDbLine
 10
350.9018012767703
 20
847.1403597044819
 30
0.0
 11
400.9018012767696
 21
847.1403597044819
 31
0.0
  0
LINE
  5
33A3
330
2
100
AcDbEntity
  8
KIJUN
100
AcDbLine
 10
346.4018012767701
 20
832.1403597044817
 30
0.0
 11
405.4018012767701
 21
832.1403597044819
 31
0.0
  0
ARC
  5
33A4
330
2
100
AcDbEntity
  8
KIJUN
100
AcDbCircle
 10
377.972919520384
 20
832.0866951775656
 30
0.0
 40
27.42893425358082
100
AcDbArc
 50
0.1120988819710918
 51
33.28638958601756
  0
ARC
  5
33A5
330
2
100
AcDbEntity
  8
KIJUN
100
AcDbCircle
 10
373.8306830331562
 20
832.0866951775656
 30
0.0
 40
27.42893425358081
100
AcDbArc
 50
146.7136104139824
 51
179.8879011180289
  0
ARC
  5
33A6
330
2
100
AcDbEntity
  8
KIJUN
100
AcDbCircle
 10
104.2343087783108
 20
742.1403597044821
 30
0.0
 40
300.6674924984592
100
AcDbArc
 50
346.3975138178331
 51
13.60248618216534
  0
ARC
  5
33A7
330
2
100
AcDbEntity
  8
KIJUN
100
AcDbCircle
 10
412.9057932104106
 20
667.3287006272175
 30
0.0
 40
16.94094433393229
100
AcDbArc
 50
165.9965022170168
 51
243.7077428091018
  0
LINE
  5
33A8
330
2
100
AcDbEntity
  8
KIJUN
100
AcDbLine
 10
350.9018012767703
 20
637.1403597044818
 30
0.0
 11
400.9018012767696
 21
637.1403597044818
 31
0.0
  0
LINE
  5
33A9
330
2
100
AcDbEntity
  8
KIJUN
100
AcDbLine
 10
346.4018012767701
 20
652.140359704482
 30
0.0
 11
405.4018012767701
 21
652.1403597044818
 31
0.0
  0
ARC
  5
33AA
330
2
100
AcDbEntity
  8
KIJUN
100
AcDbCircle
 10
377.972919520384
 20
652.1940242313981
 30
0.0
 40
27.42893425358082
100
AcDbArc
 50
326.7136104139838
 51
359.8879011180289
  0
ARC
  5
33AB
330
2
100
AcDbEntity
  8
KIJUN
100
AcDbCircle
 10
373.8306830331562
 20
652.1940242313981
 30
0.0
 40
27.42893425358081
100
AcDbArc
 50
180.1120988819711
 51
213.2863895860162
  0
ARC
  5
33AC
330
2
100
AcDbEntity
  8
KIJUN
100
AcDbCircle
 10
338.8978093431294
 20
816.9520187817461
 30
0.0
 40
16.94094433393229
100
AcDbArc
 50
345.996502217012
 51
63.70774280910179
  0
ARC
  5
33AD
330
2
100
AcDbEntity
  8
KIJUN
100
AcDbCircle
 10
647.5692937752292
 20
742.1403597044821
 30
0.0
 40
300.6674924984592
100
AcDbArc
 50
166.3975138178346
 51
193.6024861821669
  0
ARC
  5
33AE
330
2
100
AcDbEntity
  8
KIJUN
100
AcDbCircle
 10
338.8978093431294
 20
667.3287006272175
 30
0.0
 40
16.94094433393229
100
AcDbArc
 50
296.2922571908982
 51
14.00349778298636
  0
ARC
  5
33AF
330
2
100
AcDbEntity
  8
KIJUN
100
AcDbCircle
 10
412.9057932104106
 20
877.3287006272175
 30
0.0
 40
16.94094433393229
100
AcDbArc
 50
165.9965022170168
 51
243.7077428091018
  0
LINE
  5
33B0
330
2
100
AcDbEntity
  8
KIJUN
100
AcDbLine
 10
346.4018012767701
 20
862.1403597044821
 30
0.0
 11
405.4018012767701
 21
862.1403597044817
 31
0.0
  0
ARC
  5
33B1
330
2
100
AcDbEntity
  8
KIJUN
100
AcDbCircle
 10
377.972919520384
 20
862.194024231398
 30
0.0
 40
27.42893425358082
100
AcDbArc
 50
326.7136104139838
 51
359.8879011180289
  0
ARC
  5
33B2
330
2
100
AcDbEntity
  8
KIJUN
100
AcDbCircle
 10
373.8306830331562
 20
862.194024231398
 30
0.0
 40
27.42893425358081
100
AcDbArc
 50
180.1120988819711
 51
213.2863895860162
  0
ARC
  5
33B3
330
2
100
AcDbEntity
  8
KIJUN
100
AcDbCircle
 10
104.2343087783108
 20
952.1403597044814
 30
0.0
 40
300.6674924984592
100
AcDbArc
 50
346.3975138178283
 51
13.60248618217167
  0
ARC
  5
33B4
330
2
100
AcDbEntity
  8
KIJUN
100
AcDbCircle
 10
412.9057809972859
 20
1026.95202443849
 30
0.0
 40
16.94093385259752
100
AcDbArc
 50
116.2922286325966
 51
194.0035263412822
  0
ARC
  5
33B5
330
2
100
AcDbEntity
  8
KIJUN
100
AcDbCircle
 10
338.8978093431294
 20
877.3287006272175
 30
0.0
 40
16.94094433393229
100
AcDbArc
 50
296.2922571908982
 51
14.00349778298321
  0
ARC
  5
33B6
330
2
100
AcDbEntity
  8
KIJUN
100
AcDbCircle
 10
647.5692937752292
 20
952.1403597044814
 30
0.0
 40
300.6674924984592
100
AcDbArc
 50
166.3975138178283
 51
193.6024861821717
  0
ARC
  5
33B7
330
2
100
AcDbEntity
  8
KIJUN
100
AcDbCircle
 10
339.0513400818895
 20
1027.023129501999
 30
0.0
 40
16.80951899288934
100
AcDbArc
 50
345.6346878489651
 51
64.06955717715703
  0
DIMENSION
  5
33B8
330
2
100
AcDbEntity
  8
SUNPOU
100
AcDbDimension
  2
*D15
 10
405.9018012767698
 20
189.8758579135333
 30
0.0
 11
375.90180127677
 21
209.8758579135333
 31
0.0
 70
    32
 71
     5
 42
59.99999999999977
  3
STANDARD$0
100
AcDbAlignedDimension
 13
345.9018012767701
 23
292.1403597044819
 33
0.0
 14
405.9018012767698
 24
292.1403597044819
 34
0.0
100
AcDbRotatedDimension
1001
ACAD
1000
DSTYLE
1002
{
1070
    41
1040
3.0
1070
    42
1040
3.0
1070
    44
1040
0.0
1070
    77
1070
     1
1070
   140
1040
10.0
1070
   146
1040
0.064286
1070
   147
1040
5.0
1070
   176
1070
    60
1070
   177
1070
    70
1070
   178
1070
    60
1070
   271
1070
     0
1070
   272
1070
     0
1070
   340
1005
1C
1070
   342
1005
109
1002
}
  0
DIMENSION
  5
33B9
330
2
100
AcDbEntity
  8
SUNPOU
100
AcDbDimension
  2
*D16
 10
245.525697405832
 20
427.1403597044818
 30
0.0
 11
225.525697405832
 21
359.6403597044819
 31
0.0
 70
    32
 71
     5
 42
135.0
  3
STANDARD$0
100
AcDbAlignedDimension
 13
345.9018012767701
 23
292.1403597044819
 33
0.0
 14
345.9018012767701
 24
427.1403597044818
 34
0.0
 50
90.0
100
AcDbRotatedDimension
1001
ACAD
1000
DSTYLE
1002
{
1070
    41
1040
3.0
1070
    42
1040
3.0
1070
    44
1040
0.0
1070
    77
1070
     1
1070
   140
1040
10.0
1070
   146
1040
0.064286
1070
   147
1040
5.0
1070
   176
1070
    60
1070
   177
1070
    70
1070
   178
1070
    60
1070
   271
1070
     0
1070
   272
1070
     0
1070
   340
1005
1C
1070
   342
1005
109
1002
}
  0
LINE
  5
33BA
330
2
100
AcDbEntity
  8
KIJUN
100
AcDbLine
 10
345.9018012767701
 20
292.1403597044819
 30
0.0
 11
345.9018012767701
 21
427.1403597044818
 31
0.0
  0
LINE
  5
33BB
330
2
100
AcDbEntity
  8
KIJUN
100
AcDbLine
 10
405.9018012767698
 20
292.1403597044816
 30
0.0
 11
405.9018012767701
 21
427.1403597044818
 31
0.0
  0
LINE
  5
33BC
330
2
100
AcDbEntity
  8
KIJUN
100
AcDbLine
 10
345.9018012767701
 20
427.1403597044818
 30
0.0
 11
405.9018012767701
 21
427.1403597044818
 31
0.0
  0
ARC
  5
33BD
330
2
100
AcDbEntity
  8
KIJUN
100
AcDbCircle
 10
409.8567002674928
 20
431.8339834428853
 30
0.0
 40
22.37918818605715
100
AcDbArc
 50
202.8592776117317
 51
259.8211058800927
  0
ARC
  5
33BE
330
2
100
AcDbEntity
  8
KIJUN
100
AcDbCircle
 10
375.9018012767701
 20
402.9181374822597
 30
0.0
 40
24.2222222222221
100
AcDbArc
 50
56.60151153200852
 51
123.3984884679761
  0
ARC
  5
33BF
330
2
100
AcDbEntity
  8
KIJUN
100
AcDbCircle
 10
341.9469022860472
 20
431.8339834428853
 30
0.0
 40
22.37918818605715
100
AcDbArc
 50
280.1788941199073
 51
337.1407223882683
  0
LINE
  5
33C0
330
2
100
AcDbEntity
  8
KIJUN
100
AcDbLine
 10
345.9018012767701
 20
292.1403597044819
 30
0.0
 11
405.9018012767698
 21
292.1403597044816
 31
0.0
  0
LINE
  5
33C1
330
2
100
AcDbEntity
  8
KIJUN
100
AcDbLine
 10
346.4018012767701
 20
442.1403597044821
 30
0.0
 11
405.4018012767701
 21
442.1403597044818
 31
0.0
  0
ARC
  5
33C2
330
2
100
AcDbEntity
  8
KIJUN
100
AcDbCircle
 10
377.972919520384
 20
442.194024231398
 30
0.0
 40
27.42893425358082
100
AcDbArc
 50
326.7136104139838
 51
359.8879011180289
  0
ARC
  5
33C3
330
2
100
AcDbEntity
  8
KIJUN
100
AcDbCircle
 10
373.8306830331562
 20
442.194024231398
 30
0.0
 40
27.42893425358081
100
AcDbArc
 50
180.1120988819711
 51
213.2863895860148
  0
ARC
  5
33C4
330
2
100
AcDbEntity
  8
KIJUN
100
AcDbCircle
 10
412.9057932104106
 20
606.9520187817462
 30
0.0
 40
16.94094433393229
100
AcDbArc
 50
116.2922571908982
 51
194.0034977829832
  0
LINE
  5
33C5
330
2
100
AcDbEntity
  8
KIJUN
100
AcDbLine
 10
346.4018012767701
 20
622.1403597044817
 30
0.0
 11
405.4018012767701
 21
622.1403597044819
 31
0.0
  0
ARC
  5
33C6
330
2
100
AcDbEntity
  8
KIJUN
100
AcDbCircle
 10
377.972919520384
 20
622.0866951775657
 30
0.0
 40
27.42893425358082
100
AcDbArc
 50
0.1120988819710918
 51
33.28638958601483
  0
ARC
  5
33C7
330
2
100
AcDbEntity
  8
KIJUN
100
AcDbCircle
 10
373.8306830331562
 20
622.0866951775657
 30
0.0
 40
27.42893425358081
100
AcDbArc
 50
146.7136104139852
 51
179.8879011180289
  0
ARC
  5
33C8
330
2
100
AcDbEntity
  8
KIJUN
100
AcDbCircle
 10
104.2343087783108
 20
532.1403597044821
 30
0.0
 40
300.6674924984592
100
AcDbArc
 50
346.3975138178283
 51
13.60248618217167
  0
ARC
  5
33C9
330
2
100
AcDbEntity
  8
KIJUN
100
AcDbCircle
 10
412.9057809972859
 20
457.3286949704736
 30
0.0
 40
16.94093385259752
100
AcDbArc
 50
165.9964736587256
 51
243.7077713674034
  0
ARC
  5
33CA
330
2
100
AcDbEntity
  8
KIJUN
100
AcDbCircle
 10
338.8978093431294
 20
606.9520187817462
 30
0.0
 40
16.94094433393229
100
AcDbArc
 50
345.9965022170168
 51
63.70774280910179
  0
ARC
  5
33CB
330
2
100
AcDbEntity
  8
KIJUN
100
AcDbCircle
 10
647.5692937752292
 20
532.1403597044821
 30
0.0
 40
300.6674924984592
100
AcDbArc
 50
166.3975138178283
 51
193.6024861821717
  0
ARC
  5
33CC
330
2
100
AcDbEntity
  8
KIJUN
100
AcDbCircle
 10
339.0513400818895
 20
457.257589906965
 30
0.0
 40
16.80951899288934
100
AcDbArc
 50
295.9304428228429
 51
14.36531215103493
  0
ENDSEC
  0
SECTION
  2
OBJECTS
  0
DICTIONARY
  5
1A
330
0
100
AcDbDictionary
281
     1
  3
ACAD_COLOR
350
2E6A
  3
ACAD_GROUP
350
18
  3
ACAD_LAYOUT
350
58
  3
ACAD_MATERIAL
350
2E69
  3
ACAD_MLINESTYLE
350
19
  3
ACAD_PLOTSETTINGS
350
59
  3
ACAD_PLOTSTYLENAME
350
56
  3
ACAD_TABLESTYLE
350
2E6B
  3
ACDBHEADERROUNDTRIPXREC
350
346C
  3
AcDbVariableDictionary
350
2E7D
  0
DICTIONARY
  5
2E6A
102
{ACAD_REACTORS
330
1A
102
}
330
1A
100
AcDbDictionary
281
     1
  0
DICTIONARY
  5
18
102
{ACAD_REACTORS
330
1A
102
}
330
1A
100
AcDbDictionary
281
     1
  3
*A1
350
3A0
  3
*A10
350
21DE
  3
*A11
350
25D5
  3
*A12
350
2E65
  3
*A13
350
2A6A
  3
*A14
350
1132
  3
*A15
350
2A6B
  3
*A16
350
1CB2
  3
*A17
350
171C
  3
*A18
350
171D
  3
*A19
350
1CB1
  3
*A2
350
6E6
  3
*A20
350
32E8
  3
*A21
350
9D9
  3
*A22
350
3A1
  3
*A3
350
6E7
  3
*A4
350
1131
  3
*A5
350
9DA
  3
*A6
350
DE0
  3
*A7
350
DE1
  3
*A8
350
25D6
  3
*A9
350
21DD
  0
DICTIONARY
  5
58
102
{ACAD_REACTORS
330
1A
102
}
330
1A
100
AcDbDictionary
281
     1
  3
Model
350
5A
  3
ﾚｲｱｳﾄ1
350
5B
  0
DICTIONARY
  5
2E69
102
{ACAD_REACTORS
330
1A
102
}
330
1A
100
AcDbDictionary
281
     1
  0
DICTIONARY
  5
19
102
{ACAD_REACTORS
330
1A
102
}
330
1A
100
AcDbDictionary
281
     1
  3
STANDARD
350
1D
  0
DICTIONARY
  5
59
102
{ACAD_REACTORS
330
1A
102
}
330
1A
100
AcDbDictionary
281
     1
  0
ACDBDICTIONARYWDFLT
  5
56
102
{ACAD_REACTORS
330
1A
102
}
330
1A
100
AcDbDictionary
281
     1
  3
Normal
350
57
100
AcDbDictionaryWithDefault
340
57
  0
DICTIONARY
  5
2E6B
102
{ACAD_REACTORS
330
1A
102
}
330
1A
100
AcDbDictionary
281
     1
  3
Standard
350
2E6C
  0
DICTIONARY
  5
346C
102
{ACAD_REACTORS
330
1A
102
}
330
1A
100
AcDbDictionary
281
     1
  0
DICTIONARY
  5
2E7D
102
{ACAD_REACTORS
330
1A
102
}
330
1A
100
AcDbDictionary
281
     1
  3
CTABLESTYLE
350
2E7E
  3
DIMASSOC
350
303E
  3
PROJECTNAME
350
303F
  0
GROUP
  5
3A0
102
{ACAD_REACTORS
330
18
102
}
330
18
100
AcDbGroup
300

 70
     1
 71
     1
  0
GROUP
  5
21DE
102
{ACAD_REACTORS
330
18
102
}
330
18
100
AcDbGroup
300

 70
     1
 71
     1
  0
GROUP
  5
25D5
102
{ACAD_REACTORS
330
18
102
}
330
18
100
AcDbGroup
300

 70
     1
 71
     1
  0
GROUP
  5
2E65
102
{ACAD_REACTORS
330
18
102
}
330
18
100
AcDbGroup
300

 70
     1
 71
     1
  0
GROUP
  5
2A6A
102
{ACAD_REACTORS
330
18
102
}
330
18
100
AcDbGroup
300

 70
     1
 71
     1
  0
GROUP
  5
1132
102
{ACAD_REACTORS
330
18
102
}
330
18
100
AcDbGroup
300

 70
     1
 71
     1
  0
GROUP
  5
2A6B
102
{ACAD_REACTORS
330
18
102
}
330
18
100
AcDbGroup
300

 70
     1
 71
     1
  0
GROUP
  5
1CB2
102
{ACAD_REACTORS
330
18
102
}
330
18
100
AcDbGroup
300

 70
     1
 71
     1
  0
GROUP
  5
171C
102
{ACAD_REACTORS
330
18
102
}
330
18
100
AcDbGroup
300

 70
     1
 71
     1
  0
GROUP
  5
171D
102
{ACAD_REACTORS
330
18
102
}
330
18
100
AcDbGroup
300

 70
     1
 71
     1
  0
GROUP
  5
1CB1
102
{ACAD_REACTORS
330
18
102
}
330
18
100
AcDbGroup
300

 70
     1
 71
     1
  0
GROUP
  5
6E6
102
{ACAD_REACTORS
330
18
102
}
330
18
100
AcDbGroup
300

 70
     1
 71
     1
  0
GROUP
  5
32E8
102
{ACAD_REACTORS
330
18
102
}
330
18
100
AcDbGroup
300

 70
     1
 71
     1
  0
GROUP
  5
9D9
102
{ACAD_REACTORS
330
18
102
}
330
18
100
AcDbGroup
300

 70
     1
 71
     1
  0
GROUP
  5
3A1
102
{ACAD_REACTORS
330
18
102
}
330
18
100
AcDbGroup
300

 70
     1
 71
     1
  0
GROUP
  5
6E7
102
{ACAD_REACTORS
330
18
102
}
330
18
100
AcDbGroup
300

 70
     1
 71
     1
  0
GROUP
  5
1131
102
{ACAD_REACTORS
330
18
102
}
330
18
100
AcDbGroup
300

 70
     1
 71
     1
  0
GROUP
  5
9DA
102
{ACAD_REACTORS
330
18
102
}
330
18
100
AcDbGroup
300

 70
     1
 71
     1
  0
GROUP
  5
DE0
102
{ACAD_REACTORS
330
18
102
}
330
18
100
AcDbGroup
300

 70
     1
 71
     1
  0
GROUP
  5
DE1
102
{ACAD_REACTORS
330
18
102
}
330
18
100
AcDbGroup
300

 70
     1
 71
     1
  0
GROUP
  5
25D6
102
{ACAD_REACTORS
330
18
102
}
330
18
100
AcDbGroup
300

 70
     1
 71
     1
  0
GROUP
  5
21DD
102
{ACAD_REACTORS
330
18
102
}
330
18
100
AcDbGroup
300

 70
     1
 71
     1
  0
LAYOUT
  5
5A
102
{ACAD_XDICTIONARY
360
346D
102
}
102
{ACAD_REACTORS
330
58
102
}
330
58
100
AcDbPlotSettings
  1

  2
なし
  4

  6

 40
0.0
 41
0.0
 42
0.0
 43
0.0
 44
0.0
 45
0.0
 46
0.0
 47
0.0
 48
0.0
 49
0.0
140
0.0
141
0.0
142
1.0
143
1.0
 70
  1712
 72
     0
 73
     0
 74
     0
  7
monochrome.ctb
 75
     0
147
1.0
148
0.0
149
0.0
100
AcDbLayout
  1
Model
 70
     1
 71
     0
 10
0.0
 20
0.0
 11
12.0
 21
9.0
 12
0.0
 22
0.0
 32
0.0
 14
0.0
 24
0.0
 34
0.0
 15
0.0
 25
0.0
 35
0.0
146
0.0
 13
0.0
 23
0.0
 33
0.0
 16
1.0
 26
0.0
 36
0.0
 17
0.0
 27
1.0
 37
0.0
 76
     0
330
2
  0
LAYOUT
  5
5B
102
{ACAD_XDICTIONARY
360
346F
102
}
102
{ACAD_REACTORS
330
58
102
}
330
58
100
AcDbPlotSettings
  1

  2
なし
  4

  6

 40
0.0
 41
0.0
 42
0.0
 43
0.0
 44
0.0
 45
0.0
 46
0.0
 47
0.0
 48
0.0
 49
0.0
140
0.0
141
0.0
142
1.0
143
1.0
 70
   688
 72
     0
 73
     0
 74
     5
  7
monochrome.ctb
 75
    16
147
1.0
148
0.0
149
0.0
100
AcDbLayout
  1
ﾚｲｱｳﾄ1
 70
     1
 71
     1
 10
0.0
 20
0.0
 11
12.0
 21
9.0
 12
0.0
 22
0.0
 32
0.0
 14
1.000000000000000E+20
 24
1.000000000000000E+20
 34
1.000000000000000E+20
 15
-1.000000000000000E+20
 25
-1.000000000000000E+20
 35
-1.000000000000000E+20
146
0.0
 13
0.0
 23
0.0
 33
0.0
 16
1.0
 26
0.0
 36
0.0
 17
0.0
 27
1.0
 37
0.0
 76
     0
330
7
  0
MLINESTYLE
  5
1D
102
{ACAD_REACTORS
330
19
102
}
330
19
100
AcDbMlineStyle
  2
STANDARD
 70
     0
  3

 62
   256
 51
90.0
 52
90.0
 71
     2
 49
0.5
 62
   256
  6
BYLAYER
 49
-0.5
 62
   256
  6
BYLAYER
  0
ACDBPLACEHOLDER
  5
57
102
{ACAD_REACTORS
330
56
102
}
330
56
  0
TABLESTYLE
  5
2E6C
102
{ACAD_REACTORS
330
2E6B
102
}
330
2E6B
100
AcDbTableStyle
  3
Standard
 70
     0
 71
     0
 40
0.06
 41
0.06
280
     0
281
     0
  7
STANDARD
140
0.18
170
     2
 62
     0
 63
     7
283
     0
274
    -2
284
     1
 64
     0
275
    -2
285
     1
 65
     0
276
    -2
286
     1
 66
     0
277
    -2
287
     1
 67
     0
278
    -2
288
     1
 68
     0
279
    -2
289
     1
 69
     0
  7
STANDARD
140
0.25
170
     5
 62
     0
 63
     7
283
     0
274
    -2
284
     1
 64
     0
275
    -2
285
     1
 65
     0
276
    -2
286
     1
 66
     0
277
    -2
287
     1
 67
     0
278
    -2
288
     1
 68
     0
279
    -2
289
     1
 69
     0
  7
STANDARD
140
0.18
170
     5
 62
     0
 63
     7
283
     0
274
    -2
284
     1
 64
     0
275
    -2
285
     1
 65
     0
276
    -2
286
     1
 66
     0
277
    -2
287
     1
 67
     0
278
    -2
288
     1
 68
     0
279
    -2
289
     1
 69
     0
  0
DICTIONARYVAR
  5
2E7E
102
{ACAD_REACTORS
330
2E7D
102
}
330
2E7D
100
DictionaryVariables
280
     0
  1
STANDARD
  0
DICTIONARYVAR
  5
303E
102
{ACAD_REACTORS
330
2E7D
102
}
330
2E7D
100
DictionaryVariables
280
     0
  1
1
  0
DICTIONARYVAR
  5
303F
102
{ACAD_REACTORS
330
2E7D
102
}
330
2E7D
100
DictionaryVariables
280
     0
  1

  0
DICTIONARY
  5
346D
330
5A
100
AcDbDictionary
280
     1
281
     1
  3
ACAD_XREC_ROUNDTRIP
360
346E
  0
DICTIONARY
  5
346F
330
5B
100
AcDbDictionary
280
     1
281
     1
  3
ACAD_XREC_ROUNDTRIP
360
3470
  0
XRECORD
  5
346E
102
{ACAD_REACTORS
330
346D
102
}
330
346D
100
AcDbXrecord
280
     1
102
SHADEPLOT
 70
     0
102
SHADEPLOTRESLEVEL
 70
     2
102
SHADEPLOTCUSTOMDPI
 70
   300
  0
XRECORD
  5
3470
102
{ACAD_REACTORS
330
346F
102
}
330
346F
100
AcDbXrecord
280
     1
102
SHADEPLOT
 70
     0
102
SHADEPLOTRESLEVEL
 70
     2
102
SHADEPLOTCUSTOMDPI
 70
   300
  0
ENDSEC
  0
EOF
