  0
SECTION
  2
HEADER
  9
$ACADVER
  1
AC1015
  9
$ACADMAINTVER
 70
    20
  9
$DWGCODEPAGE
  3
ANSI_932
  9
$INSBASE
 10
922.019522
 20
-675.4306699999999
 30
0.0
  9
$EXTMIN
 10
0.0
 20
0.0
 30
0.0
  9
$EXTMAX
 10
802.4448582724989
 20
1324.40486149543
 30
0.0
  9
$LIMMIN
 10
0.0
 20
0.0
  9
$LIMMAX
 10
420.0
 20
297.0
  9
$ORTHOMODE
 70
     1
  9
$REGENMODE
 70
     1
  9
$FILLMODE
 70
     1
  9
$QTEXTMODE
 70
     0
  9
$MIRRTEXT
 70
     1
  9
$LTSCALE
 40
30.0
  9
$ATTMODE
 70
     1
  9
$TEXTSIZE
 40
30.0
  9
$TRACEWID
 40
0.05
  9
$TEXTSTYLE
  7
SUNPOU
  9
$CLAYER
  8
0
  9
$CELTYPE
  6
BYLAYER
  9
$CECOLOR
 62
   256
  9
$CELTSCALE
 40
1.0
  9
$DISPSILH
 70
     0
  9
$DIMSCALE
 40
1.0
  9
$DIMASZ
 40
3.0
  9
$DIMEXO
 40
3.0
  9
$DIMDLI
 40
0.38
  9
$DIMRND
 40
0.0
  9
$DIMDLE
 40
0.0
  9
$DIMEXE
 40
0.0
  9
$DIMTP
 40
0.0
  9
$DIMTM
 40
0.0
  9
$DIMTXT
 40
10.0
  9
$DIMCEN
 40
0.0
  9
$DIMTSZ
 40
0.0
  9
$DIMTOL
 70
     0
  9
$DIMLIM
 70
     0
  9
$DIMTIH
 70
     0
  9
$DIMTOH
 70
     0
  9
$DIMSE1
 70
     0
  9
$DIMSE2
 70
     0
  9
$DIMTAD
 70
     1
  9
$DIMZIN
 70
     0
  9
$DIMBLK
  1
Dot
  9
$DIMASO
 70
     1
  9
$DIMSHO
 70
     1
  9
$DIMPOST
  1

  9
$DIMAPOST
  1

  9
$DIMALT
 70
     0
  9
$DIMALTD
 70
     2
  9
$DIMALTF
 40
25.4
  9
$DIMLFAC
 40
1.0
  9
$DIMTOFL
 70
     0
  9
$DIMTVP
 40
0.0
  9
$DIMTIX
 70
     0
  9
$DIMSOXD
 70
     0
  9
$DIMSAH
 70
     0
  9
$DIMBLK1
  1

  9
$DIMBLK2
  1

  9
$DIMSTYLE
  2
STANDARD
  9
$DIMCLRD
 70
    60
  9
$DIMCLRE
 70
    70
  9
$DIMCLRT
 70
    60
  9
$DIMTFAC
 40
0.064286
  9
$DIMGAP
 40
5.0
  9
$DIMJUST
 70
     0
  9
$DIMSD1
 70
     0
  9
$DIMSD2
 70
     0
  9
$DIMTOLJ
 70
     1
  9
$DIMTZIN
 70
     0
  9
$DIMALTZ
 70
     0
  9
$DIMALTTZ
 70
     0
  9
$DIMUPT
 70
     0
  9
$DIMDEC
 70
     0
  9
$DIMTDEC
 70
     0
  9
$DIMALTU
 70
     2
  9
$DIMALTTD
 70
     2
  9
$DIMTXSTY
  7
SUNPOU
  9
$DIMAUNIT
 70
     0
  9
$DIMADEC
 70
     0
  9
$DIMALTRND
 40
0.0
  9
$DIMAZIN
 70
     0
  9
$DIMDSEP
 70
    46
  9
$DIMATFIT
 70
     3
  9
$DIMFRAC
 70
     0
  9
$DIMLDRBLK
  1

  9
$DIMLUNIT
 70
     2
  9
$DIMLWD
 70
    -2
  9
$DIMLWE
 70
    -2
  9
$DIMTMOVE
 70
     0
  9
$LUNITS
 70
     2
  9
$LUPREC
 70
     5
  9
$SKETCHINC
 40
0.1
  9
$FILLETRAD
 40
0.0
  9
$AUNITS
 70
     0
  9
$AUPREC
 70
     0
  9
$MENU
  1
acad
  9
$ELEVATION
 40
0.0
  9
$PELEVATION
 40
0.0
  9
$THICKNESS
 40
0.0
  9
$LIMCHECK
 70
     0
  9
$CHAMFERA
 40
0.0
  9
$CHAMFERB
 40
0.0
  9
$CHAMFERC
 40
0.0
  9
$CHAMFERD
 40
0.0
  9
$SKPOLY
 70
     0
  9
$TDCREATE
 40
2450623.654673033
  9
$TDUCREATE
 40
2450623.279673032
  9
$TDUPDATE
 40
2453909.480962315
  9
$TDUUPDATE
 40
2453909.105962315
  9
$TDINDWG
 40
0.2949966667
  9
$TDUSRTIMER
 40
0.2949964931
  9
$USRTIMER
 70
     1
  9
$ANGBASE
 50
0.0
  9
$ANGDIR
 70
     0
  9
$PDMODE
 70
     0
  9
$PDSIZE
 40
0.0
  9
$PLINEWID
 40
0.0
  9
$SPLFRAME
 70
     0
  9
$SPLINETYPE
 70
     6
  9
$SPLINESEGS
 70
     8
  9
$HANDSEED
  5
318E
  9
$SURFTAB1
 70
     6
  9
$SURFTAB2
 70
     6
  9
$SURFTYPE
 70
     6
  9
$SURFU
 70
     6
  9
$SURFV
 70
     6
  9
$UCSBASE
  2

  9
$UCSNAME
  2

  9
$UCSORG
 10
0.0
 20
0.0
 30
0.0
  9
$UCSXDIR
 10
1.0
 20
0.0
 30
0.0
  9
$UCSYDIR
 10
0.0
 20
1.0
 30
0.0
  9
$UCSORTHOREF
  2

  9
$UCSORTHOVIEW
 70
     0
  9
$UCSORGTOP
 10
0.0
 20
0.0
 30
0.0
  9
$UCSORGBOTTOM
 10
0.0
 20
0.0
 30
0.0
  9
$UCSORGLEFT
 10
0.0
 20
0.0
 30
0.0
  9
$UCSORGRIGHT
 10
0.0
 20
0.0
 30
0.0
  9
$UCSORGFRONT
 10
0.0
 20
0.0
 30
0.0
  9
$UCSORGBACK
 10
0.0
 20
0.0
 30
0.0
  9
$PUCSBASE
  2

  9
$PUCSNAME
  2

  9
$PUCSORG
 10
0.0
 20
0.0
 30
0.0
  9
$PUCSXDIR
 10
1.0
 20
0.0
 30
0.0
  9
$PUCSYDIR
 10
0.0
 20
1.0
 30
0.0
  9
$PUCSORTHOREF
  2

  9
$PUCSORTHOVIEW
 70
     0
  9
$PUCSORGTOP
 10
0.0
 20
0.0
 30
0.0
  9
$PUCSORGBOTTOM
 10
0.0
 20
0.0
 30
0.0
  9
$PUCSORGLEFT
 10
0.0
 20
0.0
 30
0.0
  9
$PUCSORGRIGHT
 10
0.0
 20
0.0
 30
0.0
  9
$PUCSORGFRONT
 10
0.0
 20
0.0
 30
0.0
  9
$PUCSORGBACK
 10
0.0
 20
0.0
 30
0.0
  9
$USERI1
 70
     0
  9
$USERI2
 70
     0
  9
$USERI3
 70
     0
  9
$USERI4
 70
     0
  9
$USERI5
 70
     0
  9
$USERR1
 40
0.0
  9
$USERR2
 40
0.0
  9
$USERR3
 40
0.0
  9
$USERR4
 40
0.0
  9
$USERR5
 40
0.0
  9
$WORLDVIEW
 70
     1
  9
$SHADEDGE
 70
     3
  9
$SHADEDIF
 70
    70
  9
$TILEMODE
 70
     1
  9
$MAXACTVP
 70
    16
  9
$PINSBASE
 10
0.0
 20
0.0
 30
0.0
  9
$PLIMCHECK
 70
     0
  9
$PEXTMIN
 10
1.000000000000000E+20
 20
1.000000000000000E+20
 30
1.000000000000000E+20
  9
$PEXTMAX
 10
-1.000000000000000E+20
 20
-1.000000000000000E+20
 30
-1.000000000000000E+20
  9
$PLIMMIN
 10
0.0
 20
0.0
  9
$PLIMMAX
 10
12.0
 20
9.0
  9
$UNITMODE
 70
     0
  9
$VISRETAIN
 70
     0
  9
$PLINEGEN
 70
     0
  9
$PSLTSCALE
 70
     1
  9
$TREEDEPTH
 70
  3020
  9
$CMLSTYLE
  2
STANDARD
  9
$CMLJUST
 70
     0
  9
$CMLSCALE
 40
1.0
  9
$PROXYGRAPHICS
 70
     1
  9
$MEASUREMENT
 70
     0
  9
$CELWEIGHT
370
    -1
  9
$ENDCAPS
280
     0
  9
$JOINSTYLE
280
     0
  9
$LWDISPLAY
290
     0
  9
$INSUNITS
 70
     0
  9
$HYPERLINKBASE
  1

  9
$STYLESHEET
  1

  9
$XEDIT
290
     1
  9
$CEPSNTYPE
380
     0
  9
$PSTYLEMODE
290
     1
  9
$FINGERPRINTGUID
  2
{FB88A696-E29C-4009-92AF-A3599A8169D5}
  9
$VERSIONGUID
  2
{CFA30F86-A51A-4826-9D0D-F51F9E5B474E}
  9
$EXTNAMES
290
     1
  9
$PSVPSCALE
 40
0.0
  9
$OLESTARTUP
290
     0
  0
ENDSEC
  0
SECTION
  2
CLASSES
  0
CLASS
  1
DICTIONARYVAR
  2
AcDbDictionaryVar
  3
ObjectDBX Classes
 90
        0
280
     0
281
     0
  0
CLASS
  1
ACDBDICTIONARYWDFLT
  2
AcDbDictionaryWithDefault
  3
ObjectDBX Classes
 90
        0
280
     0
281
     0
  0
CLASS
  1
ACDBPLACEHOLDER
  2
AcDbPlaceHolder
  3
ObjectDBX Classes
 90
        0
280
     0
281
     0
  0
CLASS
  1
LAYOUT
  2
AcDbLayout
  3
ObjectDBX Classes
 90
        0
280
     0
281
     0
  0
CLASS
  1
TABLESTYLE
  2
AcDbTableStyle
  3
ObjectDBX Classes
 90
     2047
280
     0
281
     0
  0
ENDSEC
  0
SECTION
  2
TABLES
  0
TABLE
  2
VPORT
  5
12
330
0
100
AcDbSymbolTable
 70
     2
  0
VPORT
  5
3188
330
12
100
AcDbSymbolTableRecord
100
AcDbViewportTableRecord
  2
*Active
 70
     0
 10
0.0
 20
0.0
 11
1.0
 21
1.0
 12
402.9615789149066
 22
664.9461558892915
 13
0.0
 23
0.0
 14
1.0
 24
1.0
 15
0.0
 25
0.0
 16
0.0
 26
0.0
 36
1.0
 17
0.0
 27
0.0
 37
0.0
 40
1340.204678347267
 41
1.559691912708601
 42
50.0
 43
0.0
 44
0.0
 50
0.0
 51
0.0
 71
     0
 72
 20000
 73
     1
 74
     1
 75
     0
 76
     0
 77
     0
 78
     0
281
     0
 65
     1
110
0.0
120
0.0
130
0.0
111
1.0
121
0.0
131
0.0
112
0.0
122
1.0
132
0.0
 79
     0
146
0.0
  0
ENDTAB
  0
TABLE
  2
LTYPE
  5
D
330
0
100
AcDbSymbolTable
 70
     1
  0
LTYPE
  5
E
330
D
100
AcDbSymbolTableRecord
100
AcDbLinetypeTableRecord
  2
BYBLOCK
 70
     0
  3

 72
    65
 73
     0
 40
0.0
  0
LTYPE
  5
F
330
D
100
AcDbSymbolTableRecord
100
AcDbLinetypeTableRecord
  2
BYLAYER
 70
     0
  3

 72
    65
 73
     0
 40
0.0
  0
LTYPE
  5
5
330
D
100
AcDbSymbolTableRecord
100
AcDbLinetypeTableRecord
  2
CONTINUOUS
 70
     0
  3
Solid line
 72
    65
 73
     0
 40
0.0
  0
ENDTAB
  0
TABLE
  2
LAYER
  5
A
330
0
100
AcDbSymbolTable
 70
     6
  0
LAYER
  5
4
330
A
100
AcDbSymbolTableRecord
100
AcDbLayerTableRecord
  2
0
 70
     0
 62
     7
  6
CONTINUOUS
370
    -3
390
57
  0
LAYER
  5
25
330
A
100
AcDbSymbolTableRecord
100
AcDbLayerTableRecord
  2
KIJUN
 70
     0
 62
     7
  6
CONTINUOUS
370
    -3
390
57
  0
LAYER
  5
22
330
A
100
AcDbSymbolTableRecord
100
AcDbLayerTableRecord
  2
HOJO
 70
     0
 62
     3
  6
CONTINUOUS
370
    -3
390
57
  0
LAYER
  5
1B
330
A
100
AcDbSymbolTableRecord
100
AcDbLayerTableRecord
  2
WAKU
 70
     0
 62
     1
  6
CONTINUOUS
370
    -3
390
57
  0
LAYER
  5
31
330
A
100
AcDbSymbolTableRecord
100
AcDbLayerTableRecord
  2
DEFPOINTS
 70
     0
 62
     7
  6
CONTINUOUS
290
     0
370
    -3
390
57
  0
LAYER
  5
28
330
A
100
AcDbSymbolTableRecord
100
AcDbLayerTableRecord
  2
SUNPOU
 70
     0
 62
    70
  6
CONTINUOUS
370
    -3
390
57
  0
ENDTAB
  0
TABLE
  2
STYLE
  5
B
330
0
100
AcDbSymbolTable
 70
     3
  0
STYLE
  5
C
330
B
100
AcDbSymbolTableRecord
100
AcDbTextStyleTableRecord
  2
STANDARD
 70
     0
 40
0.0
 41
1.0
 50
0.0
 71
     0
 42
0.2
  3
txt
  4

  0
STYLE
  5
1C
330
B
100
AcDbSymbolTableRecord
100
AcDbTextStyleTableRecord
  2
SUNPOU
 70
     0
 40
0.0
 41
1.0
 50
0.0
 71
     0
 42
30.0
  3
txt
  4
bigfont
  0
STYLE
  5
1AD
330
B
100
AcDbSymbolTableRecord
100
AcDbTextStyleTableRecord
  2
LIFE
 70
     0
 40
0.0
 41
0.7
 50
0.0
 71
     0
 42
10.0
  3
romans
  4
extfont
  0
ENDTAB
  0
TABLE
  2
VIEW
  5
10
330
0
100
AcDbSymbolTable
 70
     0
  0
ENDTAB
  0
TABLE
  2
UCS
  5
11
330
0
100
AcDbSymbolTable
 70
     0
  0
ENDTAB
  0
TABLE
  2
APPID
  5
14
330
0
100
AcDbSymbolTable
 70
     2
  0
APPID
  5
15
330
14
100
AcDbSymbolTableRecord
100
AcDbRegAppTableRecord
  2
ACAD
 70
     0
  0
APPID
  5
2EB0
330
14
100
AcDbSymbolTableRecord
100
AcDbRegAppTableRecord
  2
ACAD_EXEMPT_FROM_CAD_STANDARDS
 70
     0
  0
ENDTAB
  0
TABLE
  2
DIMSTYLE
  5
16
330
0
100
AcDbSymbolTable
 70
     2
100
AcDbDimStyleTable
 71
     1
340
1E
  0
DIMSTYLE
105
1E
330
16
100
AcDbSymbolTableRecord
100
AcDbDimStyleTableRecord
  2
STANDARD
 70
     0
340
C
  0
DIMSTYLE
105
1AE
102
{ACAD_REACTORS
330
320
330
374
330
20E5
330
3120
330
3121
102
}
330
16
100
AcDbSymbolTableRecord
100
AcDbDimStyleTableRecord
  2
STANDARD$0
 70
     0
 40
2.0
 41
1.0
 42
2.0
 43
0.0
 44
1.0
 73
     0
 74
     0
 77
     3
 78
     9
140
4.5
141
0.0
147
1.0
172
     1
173
     1
178
     3
271
     2
340
1AD
341
109
343
109
344
109
  0
ENDTAB
  0
TABLE
  2
BLOCK_RECORD
  5
1
330
0
100
AcDbSymbolTable
 70
     6
  0
BLOCK_RECORD
  5
2
330
1
100
AcDbSymbolTableRecord
100
AcDbBlockTableRecord
  2
*MODEL_SPACE
340
5A
  0
BLOCK_RECORD
  5
7
330
1
100
AcDbSymbolTableRecord
100
AcDbBlockTableRecord
  2
*PAPER_SPACE
340
5B
  0
BLOCK_RECORD
  5
109
330
1
100
AcDbSymbolTableRecord
100
AcDbBlockTableRecord
  2
_Dot
340
0
102
{BLKREFS
331
30A1
331
30A2
331
30AA
331
30AB
331
3157
331
3158
331
3160
331
3161
331
3169
331
316A
102
}
  0
BLOCK_RECORD
  5
321
330
1
100
AcDbSymbolTableRecord
100
AcDbBlockTableRecord
  2
*D1
340
0
  0
BLOCK_RECORD
  5
375
330
1
100
AcDbSymbolTableRecord
100
AcDbBlockTableRecord
  2
*D2
340
0
  0
BLOCK_RECORD
  5
20E7
330
1
100
AcDbSymbolTableRecord
100
AcDbBlockTableRecord
  2
*D3
340
0
  0
BLOCK_RECORD
  5
313C
330
1
100
AcDbSymbolTableRecord
100
AcDbBlockTableRecord
  2
*D4
340
0
  0
BLOCK_RECORD
  5
3148
330
1
100
AcDbSymbolTableRecord
100
AcDbBlockTableRecord
  2
*D5
340
0
  0
ENDTAB
  0
ENDSEC
  0
SECTION
  2
BLOCKS
  0
BLOCK
  5
3
330
2
100
AcDbEntity
  8
0
100
AcDbBlockBegin
  2
*MODEL_SPACE
 70
     0
 10
0.0
 20
0.0
 30
0.0
  3
*MODEL_SPACE
  1

  0
ENDBLK
  5
6
330
2
100
AcDbEntity
  8
0
100
AcDbBlockEnd
  0
BLOCK
  5
8
330
7
100
AcDbEntity
 67
     1
  8
0
100
AcDbBlockBegin
  2
*PAPER_SPACE
 70
     0
 10
0.0
 20
0.0
 30
0.0
  3
*PAPER_SPACE
  1

  0
ENDBLK
  5
9
330
7
100
AcDbEntity
 67
     1
  8
0
100
AcDbBlockEnd
  0
BLOCK
  5
10C
330
109
100
AcDbEntity
  8
0
100
AcDbBlockBegin
  2
_Dot
 70
     0
 10
0.0
 20
0.0
 30
0.0
  3
_Dot
  1

  0
LWPOLYLINE
  5
10A
330
109
100
AcDbEntity
  8
0
  6
ByBlock
 62
     0
100
AcDbPolyline
 90
        2
 70
     1
 43
0.5
 10
-0.25
 20
0.0
 42
1.0
 10
0.25
 20
0.0
 42
1.0
  0
LINE
  5
10B
330
109
100
AcDbEntity
  8
0
  6
ByBlock
 62
     0
370
    -2
100
AcDbLine
 10
-0.5
 20
0.0
 30
0.0
 11
-1.0
 21
0.0
 31
0.0
  0
ENDBLK
  5
10D
330
109
100
AcDbEntity
  8
0
100
AcDbBlockEnd
  0
BLOCK
  5
32B
330
321
100
AcDbEntity
  8
0
100
AcDbBlockBegin
  2
*D1
 70
     1
 10
0.0
 20
0.0
 30
0.0
  3
*D1
  1

  0
LINE
  5
309E
330
321
100
AcDbEntity
  8
SUNPOU
 62
    70
370
    -2
100
AcDbLine
 10
345.9018012767701
 20
286.1403597044817
 30
0.0
 11
345.9018012767701
 21
189.8758579135334
 31
0.0
  0
LINE
  5
309F
330
321
100
AcDbEntity
  8
SUNPOU
 62
    70
370
    -2
100
AcDbLine
 10
405.9018012767698
 20
286.1403597044817
 30
0.0
 11
405.9018012767698
 21
189.8758579135334
 31
0.0
  0
LINE
  5
30A0
330
321
100
AcDbEntity
  8
SUNPOU
 62
    60
370
    -2
100
AcDbLine
 10
351.9018012767701
 20
189.8758579135334
 30
0.0
 11
399.9018012767699
 21
189.8758579135334
 31
0.0
  0
INSERT
  5
30A1
330
321
100
AcDbEntity
  8
SUNPOU
 62
    60
370
    -2
100
AcDbBlockReference
  2
_Dot
 10
345.9018012767701
 20
189.8758579135334
 30
0.0
 41
6.0
 42
6.0
 43
6.0
 50
180.0
  0
INSERT
  5
30A2
330
321
100
AcDbEntity
  8
SUNPOU
 62
    60
370
    -2
100
AcDbBlockReference
  2
_Dot
 10
405.9018012767698
 20
189.8758579135334
 30
0.0
 41
6.0
 42
6.0
 43
6.0
  0
MTEXT
  5
30A3
330
321
100
AcDbEntity
  8
SUNPOU
 62
    60
100
AcDbMText
 10
375.90180127677
 20
209.8758579135334
 30
0.0
 40
20.0
 41
0.0
 71
     5
 72
     1
  1
\A1;60
  7
SUNPOU
 73
     1
 44
1.0
1001
ACAD
1000
MTEXTBEGIN
1070
    73
1070
     1
1070
    44
1040
1.0
1070
    74
1070
     0
1000
MTEXTEND
  0
POINT
  5
30A4
330
321
100
AcDbEntity
  8
DEFPOINTS
 62
     0
100
AcDbPoint
 10
345.9018012767701
 20
292.1403597044817
 30
0.0
  0
POINT
  5
30A5
330
321
100
AcDbEntity
  8
DEFPOINTS
 62
     0
100
AcDbPoint
 10
405.9018012767698
 20
292.1403597044817
 30
0.0
  0
POINT
  5
30A6
330
321
100
AcDbEntity
  8
DEFPOINTS
 62
     0
100
AcDbPoint
 10
405.9018012767698
 20
189.8758579135334
 30
0.0
  0
ENDBLK
  5
32C
330
321
100
AcDbEntity
  8
0
100
AcDbBlockEnd
  0
BLOCK
  5
37F
330
375
100
AcDbEntity
  8
0
100
AcDbBlockBegin
  2
*D2
 70
     1
 10
0.0
 20
0.0
 30
0.0
  3
*D2
  1

  0
LINE
  5
3166
330
375
100
AcDbEntity
  8
SUNPOU
 62
    70
370
    -2
100
AcDbLine
 10
339.9018012767702
 20
292.1403597044818
 30
0.0
 11
162.059222898937
 21
292.1403597044818
 31
0.0
  0
LINE
  5
3167
330
375
100
AcDbEntity
  8
SUNPOU
 62
    70
370
    -2
100
AcDbLine
 10
339.9018012767702
 20
1192.140359704482
 30
0.0
 11
162.0592228989372
 21
1192.140359704482
 31
0.0
  0
LINE
  5
3168
330
375
100
AcDbEntity
  8
SUNPOU
 62
    60
370
    -2
100
AcDbLine
 10
162.059222898937
 20
298.1403597044818
 30
0.0
 11
162.0592228989372
 21
1186.140359704482
 31
0.0
  0
INSERT
  5
3169
330
375
100
AcDbEntity
  8
SUNPOU
 62
    60
370
    -2
100
AcDbBlockReference
  2
_Dot
 10
162.059222898937
 20
292.1403597044818
 30
0.0
 41
6.0
 42
6.0
 43
6.0
 50
270.0
  0
INSERT
  5
316A
330
375
100
AcDbEntity
  8
SUNPOU
 62
    60
370
    -2
100
AcDbBlockReference
  2
_Dot
 10
162.0592228989372
 20
1192.140359704482
 30
0.0
 41
6.0
 42
6.0
 43
6.0
 50
90.0
  0
MTEXT
  5
316B
330
375
100
AcDbEntity
  8
SUNPOU
 62
    60
100
AcDbMText
 10
142.059222898937
 20
742.1403597044818
 30
0.0
 40
20.0
 41
0.0
 71
     5
 72
     1
  1
\A1;900
  7
SUNPOU
 11
0.0000000000000001
 21
1.0
 31
0.0
 73
     1
 44
1.0
1001
ACAD
1000
MTEXTBEGIN
1070
    73
1070
     1
1070
    44
1040
1.0
1070
    74
1070
     0
1000
MTEXTEND
  0
POINT
  5
316C
330
375
100
AcDbEntity
  8
DEFPOINTS
 62
     0
100
AcDbPoint
 10
345.9018012767702
 20
292.1403597044818
 30
0.0
  0
POINT
  5
316D
330
375
100
AcDbEntity
  8
DEFPOINTS
 62
     0
100
AcDbPoint
 10
345.9018012767702
 20
1192.140359704482
 30
0.0
  0
POINT
  5
316E
330
375
100
AcDbEntity
  8
DEFPOINTS
 62
     0
100
AcDbPoint
 10
162.0592228989372
 20
1192.140359704482
 30
0.0
  0
ENDBLK
  5
380
330
375
100
AcDbEntity
  8
0
100
AcDbBlockEnd
  0
BLOCK
  5
20F1
330
20E7
100
AcDbEntity
  8
0
100
AcDbBlockBegin
  2
*D3
 70
     1
 10
0.0
 20
0.0
 30
0.0
  3
*D3
  1

  0
LINE
  5
30A7
330
20E7
100
AcDbEntity
  8
SUNPOU
 62
    70
370
    -2
100
AcDbLine
 10
339.9018012767702
 20
292.1403597044818
 30
0.0
 11
245.525697405832
 21
292.1403597044818
 31
0.0
  0
LINE
  5
30A8
330
20E7
100
AcDbEntity
  8
SUNPOU
 62
    70
370
    -2
100
AcDbLine
 10
339.9018012767701
 20
427.1403597044817
 30
0.0
 11
245.525697405832
 21
427.1403597044817
 31
0.0
  0
LINE
  5
30A9
330
20E7
100
AcDbEntity
  8
SUNPOU
 62
    60
370
    -2
100
AcDbLine
 10
245.525697405832
 20
298.1403597044818
 30
0.0
 11
245.525697405832
 21
421.1403597044817
 31
0.0
  0
INSERT
  5
30AA
330
20E7
100
AcDbEntity
  8
SUNPOU
 62
    60
370
    -2
100
AcDbBlockReference
  2
_Dot
 10
245.525697405832
 20
292.1403597044818
 30
0.0
 41
6.0
 42
6.0
 43
6.0
 50
270.0
  0
INSERT
  5
30AB
330
20E7
100
AcDbEntity
  8
SUNPOU
 62
    60
370
    -2
100
AcDbBlockReference
  2
_Dot
 10
245.525697405832
 20
427.1403597044817
 30
0.0
 41
6.0
 42
6.0
 43
6.0
 50
90.0
  0
MTEXT
  5
30AC
330
20E7
100
AcDbEntity
  8
SUNPOU
 62
    60
100
AcDbMText
 10
225.525697405832
 20
359.6403597044818
 30
0.0
 40
20.0
 41
0.0
 71
     5
 72
     1
  1
\A1;135
  7
SUNPOU
 11
0.0000000000000001
 21
1.0
 31
0.0
 73
     1
 44
1.0
1001
ACAD
1000
MTEXTBEGIN
1070
    73
1070
     1
1070
    44
1040
1.0
1070
    74
1070
     0
1000
MTEXTEND
  0
POINT
  5
30AD
330
20E7
100
AcDbEntity
  8
DEFPOINTS
 62
     0
100
AcDbPoint
 10
345.9018012767702
 20
292.1403597044818
 30
0.0
  0
POINT
  5
30AE
330
20E7
100
AcDbEntity
  8
DEFPOINTS
 62
     0
100
AcDbPoint
 10
345.9018012767701
 20
427.1403597044817
 30
0.0
  0
POINT
  5
30AF
330
20E7
100
AcDbEntity
  8
DEFPOINTS
 62
     0
100
AcDbPoint
 10
245.525697405832
 20
427.1403597044817
 30
0.0
  0
ENDBLK
  5
20F2
330
20E7
100
AcDbEntity
  8
0
100
AcDbBlockEnd
  0
BLOCK
  5
3146
330
313C
100
AcDbEntity
  8
0
100
AcDbBlockBegin
  2
*D4
 70
     1
 10
0.0
 20
0.0
 30
0.0
  3
*D4
  1

  0
LINE
  5
3154
330
313C
100
AcDbEntity
  8
SUNPOU
 62
    70
370
    -2
100
AcDbLine
 10
345.9018012767701
 20
1198.140359704482
 30
0.0
 11
345.9018012767701
 21
1294.40486149543
 31
0.0
  0
LINE
  5
3155
330
313C
100
AcDbEntity
  8
SUNPOU
 62
    70
370
    -2
100
AcDbLine
 10
405.9018012767698
 20
1198.140359704482
 30
0.0
 11
405.9018012767698
 21
1294.40486149543
 31
0.0
  0
LINE
  5
3156
330
313C
100
AcDbEntity
  8
SUNPOU
 62
    60
370
    -2
100
AcDbLine
 10
351.9018012767701
 20
1294.40486149543
 30
0.0
 11
399.9018012767699
 21
1294.40486149543
 31
0.0
  0
INSERT
  5
3157
330
313C
100
AcDbEntity
  8
SUNPOU
 62
    60
370
    -2
100
AcDbBlockReference
  2
_Dot
 10
345.9018012767701
 20
1294.40486149543
 30
0.0
 41
6.0
 42
6.0
 43
6.0
 50
180.0
  0
INSERT
  5
3158
330
313C
100
AcDbEntity
  8
SUNPOU
 62
    60
370
    -2
100
AcDbBlockReference
  2
_Dot
 10
405.9018012767698
 20
1294.40486149543
 30
0.0
 41
6.0
 42
6.0
 43
6.0
  0
MTEXT
  5
3159
330
313C
100
AcDbEntity
  8
SUNPOU
 62
    60
100
AcDbMText
 10
375.90180127677
 20
1314.40486149543
 30
0.0
 40
20.0
 41
0.0
 71
     5
 72
     1
  1
\A1;60
  7
SUNPOU
 73
     1
 44
1.0
1001
ACAD
1000
MTEXTBEGIN
1070
    73
1070
     1
1070
    44
1040
1.0
1070
    74
1070
     0
1000
MTEXTEND
  0
POINT
  5
315A
330
313C
100
AcDbEntity
  8
DEFPOINTS
 62
     0
100
AcDbPoint
 10
345.9018012767701
 20
1192.140359704482
 30
0.0
  0
POINT
  5
315B
330
313C
100
AcDbEntity
  8
DEFPOINTS
 62
     0
100
AcDbPoint
 10
405.9018012767698
 20
1192.140359704482
 30
0.0
  0
POINT
  5
315C
330
313C
100
AcDbEntity
  8
DEFPOINTS
 62
     0
100
AcDbPoint
 10
405.9018012767698
 20
1294.40486149543
 30
0.0
  0
ENDBLK
  5
3147
330
313C
100
AcDbEntity
  8
0
100
AcDbBlockEnd
  0
BLOCK
  5
3152
330
3148
100
AcDbEntity
  8
0
100
AcDbBlockBegin
  2
*D5
 70
     1
 10
0.0
 20
0.0
 30
0.0
  3
*D5
  1

  0
LINE
  5
315D
330
3148
100
AcDbEntity
  8
SUNPOU
 62
    70
370
    -2
100
AcDbLine
 10
339.9018012767702
 20
1192.140359704482
 30
0.0
 11
245.525697405832
 21
1192.140359704482
 31
0.0
  0
LINE
  5
315E
330
3148
100
AcDbEntity
  8
SUNPOU
 62
    70
370
    -2
100
AcDbLine
 10
339.9018012767701
 20
1057.140359704482
 30
0.0
 11
245.525697405832
 21
1057.140359704482
 31
0.0
  0
LINE
  5
315F
330
3148
100
AcDbEntity
  8
SUNPOU
 62
    60
370
    -2
100
AcDbLine
 10
245.525697405832
 20
1186.140359704482
 30
0.0
 11
245.525697405832
 21
1063.140359704482
 31
0.0
  0
INSERT
  5
3160
330
3148
100
AcDbEntity
  8
SUNPOU
 62
    60
370
    -2
100
AcDbBlockReference
  2
_Dot
 10
245.525697405832
 20
1192.140359704482
 30
0.0
 41
6.0
 42
6.0
 43
6.0
 50
90.0
  0
INSERT
  5
3161
330
3148
100
AcDbEntity
  8
SUNPOU
 62
    60
370
    -2
100
AcDbBlockReference
  2
_Dot
 10
245.525697405832
 20
1057.140359704482
 30
0.0
 41
6.0
 42
6.0
 43
6.0
 50
270.0
  0
MTEXT
  5
3162
330
3148
100
AcDbEntity
  8
SUNPOU
 62
    60
100
AcDbMText
 10
225.5256974058319
 20
1124.640359704482
 30
0.0
 40
20.0
 41
0.0
 71
     5
 72
     1
  1
\A1;135
  7
SUNPOU
 11
0.0000000000000001
 21
1.0
 31
0.0
 73
     1
 44
1.0
1001
ACAD
1000
MTEXTBEGIN
1070
    73
1070
     1
1070
    44
1040
1.0
1070
    74
1070
     0
1000
MTEXTEND
  0
POINT
  5
3163
330
3148
100
AcDbEntity
  8
DEFPOINTS
 62
     0
100
AcDbPoint
 10
345.9018012767702
 20
1192.140359704482
 30
0.0
  0
POINT
  5
3164
330
3148
100
AcDbEntity
  8
DEFPOINTS
 62
     0
100
AcDbPoint
 10
345.9018012767701
 20
1057.140359704482
 30
0.0
  0
POINT
  5
3165
330
3148
100
AcDbEntity
  8
DEFPOINTS
 62
     0
100
AcDbPoint
 10
245.525697405832
 20
1057.140359704482
 30
0.0
  0
ENDBLK
  5
3153
330
3148
100
AcDbEntity
  8
0
100
AcDbBlockEnd
  0
ENDSEC
  0
SECTION
  2
ENTITIES
  0
LINE
  5
1F
330
2
100
AcDbEntity
  8
WAKU
100
AcDbLine
 10
0.0
 20
70.0
 30
0.0
 11
802.4448582724989
 21
70.0
 31
0.0
  0
LINE
  5
20
330
2
100
AcDbEntity
  8
WAKU
100
AcDbLine
 10
0.0
 20
0.0
 30
0.0
 11
802.4448582724989
 21
0.0
 31
0.0
  0
TEXT
  5
21
330
2
100
AcDbEntity
  8
HOJO
100
AcDbText
 10
48.26983000000012
 20
11.83313000000009
 30
0.0
 40
45.0
  1
0611-090
  7
SUNPOU
100
AcDbText
  0
DIMENSION
  5
320
330
2
100
AcDbEntity
  8
SUNPOU
100
AcDbDimension
  2
*D1
 10
405.9018012767698
 20
189.8758579135334
 30
0.0
 11
375.90180127677
 21
209.8758579135334
 31
0.0
 70
    32
 71
     5
 42
59.99999999999983
  3
STANDARD$0
100
AcDbAlignedDimension
 13
345.9018012767701
 23
292.1403597044817
 33
0.0
 14
405.9018012767698
 24
292.1403597044817
 34
0.0
100
AcDbRotatedDimension
1001
ACAD
1000
DSTYLE
1002
{
1070
    41
1040
3.0
1070
    42
1040
3.0
1070
    44
1040
0.0
1070
    77
1070
     1
1070
   140
1040
10.0
1070
   146
1040
0.064286
1070
   147
1040
5.0
1070
   176
1070
    60
1070
   177
1070
    70
1070
   178
1070
    60
1070
   271
1070
     0
1070
   272
1070
     0
1070
   340
1005
1C
1070
   342
1005
109
1002
}
  0
DIMENSION
  5
374
330
2
100
AcDbEntity
  8
SUNPOU
100
AcDbDimension
  2
*D2
 10
162.0592228989372
 20
1192.140359704482
 30
0.0
 11
142.059222898937
 21
742.1403597044818
 31
0.0
 70
    32
 71
     5
 42
900.0
  3
STANDARD$0
100
AcDbAlignedDimension
 13
345.9018012767702
 23
292.1403597044818
 33
0.0
 14
345.9018012767702
 24
1192.140359704482
 34
0.0
 50
90.0
100
AcDbRotatedDimension
1001
ACAD
1000
DSTYLE
1002
{
1070
    41
1040
3.0
1070
    42
1040
3.0
1070
    44
1040
0.0
1070
    77
1070
     1
1070
   140
1040
10.0
1070
   146
1040
0.064286
1070
   147
1040
5.0
1070
   176
1070
    60
1070
   177
1070
    70
1070
   178
1070
    60
1070
   271
1070
     0
1070
   272
1070
     0
1070
   340
1005
1C
1070
   342
1005
109
1002
}
  0
DIMENSION
  5
20E5
330
2
100
AcDbEntity
  8
SUNPOU
100
AcDbDimension
  2
*D3
 10
245.525697405832
 20
427.1403597044817
 30
0.0
 11
225.525697405832
 21
359.6403597044818
 31
0.0
 70
    32
 71
     5
 42
134.9999999999999
  3
STANDARD$0
100
AcDbAlignedDimension
 13
345.9018012767702
 23
292.1403597044818
 33
0.0
 14
345.9018012767701
 24
427.1403597044817
 34
0.0
 50
90.0
100
AcDbRotatedDimension
1001
ACAD
1000
DSTYLE
1002
{
1070
    41
1040
3.0
1070
    42
1040
3.0
1070
    44
1040
0.0
1070
    77
1070
     1
1070
   140
1040
10.0
1070
   146
1040
0.064286
1070
   147
1040
5.0
1070
   176
1070
    60
1070
   177
1070
    70
1070
   178
1070
    60
1070
   271
1070
     0
1070
   272
1070
     0
1070
   340
1005
1C
1070
   342
1005
109
1002
}
  0
TEXT
  5
2E7F
330
2
100
AcDbEntity
  8
HOJO
100
AcDbText
 10
470.2016363591537
 20
16.14254471732295
 30
0.0
 40
35.0
  1
60x60  900
  7
SUNPOU
100
AcDbText
  0
LINE
  5
2EB6
102
{ACAD_REACTORS
330
316F
102
}
330
2
100
AcDbEntity
  8
KIJUN
100
AcDbLine
 10
345.9018012767702
 20
292.1403597044818
 30
0.0
 11
345.9018012767701
 21
427.1403597044817
 31
0.0
  0
LINE
  5
2EB7
102
{ACAD_REACTORS
330
316F
102
}
330
2
100
AcDbEntity
  8
KIJUN
100
AcDbLine
 10
405.9018012767699
 20
292.1403597044816
 30
0.0
 11
405.9018012767699
 21
427.1403597044816
 31
0.0
  0
LINE
  5
2EB8
102
{ACAD_REACTORS
330
316F
102
}
330
2
100
AcDbEntity
  8
KIJUN
100
AcDbLine
 10
345.9018012767701
 20
427.1403597044817
 30
0.0
 11
405.9018012767699
 21
427.1403597044816
 31
0.0
  0
ARC
  5
2EBB
102
{ACAD_REACTORS
330
316F
102
}
330
2
100
AcDbEntity
  8
KIJUN
100
AcDbCircle
 10
409.8567002674928
 20
431.8339834428851
 30
0.0
 40
22.37918818605715
100
AcDbArc
 50
202.8592776117249
 51
259.8211058800947
  0
ARC
  5
2EC2
102
{ACAD_REACTORS
330
316F
102
}
330
2
100
AcDbEntity
  8
KIJUN
100
AcDbCircle
 10
375.9018012767701
 20
402.9181374822595
 30
0.0
 40
24.2222222222221
100
AcDbArc
 50
56.60151153201258
 51
123.3984884679847
  0
ARC
  5
2EC3
102
{ACAD_REACTORS
330
316F
102
}
330
2
100
AcDbEntity
  8
KIJUN
100
AcDbCircle
 10
341.9469022860472
 20
431.8339834428851
 30
0.0
 40
22.37918818605715
100
AcDbArc
 50
280.1788941199072
 51
337.1407223882757
  0
LINE
  5
2F46
102
{ACAD_REACTORS
330
316F
102
}
330
2
100
AcDbEntity
  8
KIJUN
100
AcDbLine
 10
405.90180127677
 20
497.1403597044816
 30
0.0
 11
405.90180127677
 21
987.1403597044817
 31
0.0
  0
LINE
  5
2F47
102
{ACAD_REACTORS
330
316F
102
}
330
2
100
AcDbEntity
  8
KIJUN
100
AcDbLine
 10
345.9018012767701
 20
497.1403597044817
 30
0.0
 11
345.9018012767701
 21
987.1403597044817
 31
0.0
  0
LINE
  5
309D
102
{ACAD_REACTORS
330
316F
102
}
330
2
100
AcDbEntity
  8
KIJUN
100
AcDbLine
 10
345.9018012767702
 20
292.1403597044818
 30
0.0
 11
405.9018012767699
 21
292.1403597044816
 31
0.0
  0
LINE
  5
30BA
102
{ACAD_REACTORS
330
316F
102
}
330
2
100
AcDbEntity
  8
KIJUN
100
AcDbLine
 10
352.40180127677
 20
448.1403597044818
 30
0.0
 11
399.4018012767702
 21
448.1403597044816
 31
0.0
  0
LINE
  5
30BB
102
{ACAD_REACTORS
330
316F
102
}
330
2
100
AcDbEntity
  8
KIJUN
100
AcDbLine
 10
352.4018012767701
 20
453.1403597044817
 30
0.0
 11
399.4018012767701
 21
453.1403597044815
 31
0.0
  0
LINE
  5
30BF
102
{ACAD_REACTORS
330
316F
102
}
330
2
100
AcDbEntity
  8
KIJUN
100
AcDbLine
 10
404.40180127677
 20
427.1403597044815
 30
0.0
 11
404.40180127677
 21
437.1403597044816
 31
0.0
  0
LINE
  5
30C1
102
{ACAD_REACTORS
330
316F
102
}
330
2
100
AcDbEntity
  8
KIJUN
100
AcDbLine
 10
399.4018012767702
 20
448.1403597044816
 30
0.0
 11
399.4018012767701
 21
453.1403597044815
 31
0.0
  0
ARC
  5
30C3
102
{ACAD_REACTORS
330
316F
102
}
330
2
100
AcDbEntity
  8
KIJUN
100
AcDbCircle
 10
388.7609701790124
 20
436.6672546600465
 30
0.0
 40
15.64798472045691
100
AcDbArc
 50
1.732558810612571
 51
47.15535075021616
  0
LINE
  5
30E5
102
{ACAD_REACTORS
330
316F
102
}
330
2
100
AcDbEntity
  8
KIJUN
100
AcDbLine
 10
400.90180127677
 20
497.1403597044816
 30
0.0
 11
400.90180127677
 21
987.1403597044817
 31
0.0
  0
LINE
  5
30E6
102
{ACAD_REACTORS
330
316F
102
}
330
2
100
AcDbEntity
  8
KIJUN
100
AcDbLine
 10
397.9018012767701
 20
497.1403597044816
 30
0.0
 11
397.9018012767701
 21
987.1403597044817
 31
0.0
  0
LINE
  5
30E7
102
{ACAD_REACTORS
330
316F
102
}
330
2
100
AcDbEntity
  8
KIJUN
100
AcDbLine
 10
392.4018012767701
 20
497.1403597044816
 30
0.0
 11
392.40180127677
 21
987.1403597044817
 31
0.0
  0
LINE
  5
30E8
102
{ACAD_REACTORS
330
316F
102
}
330
2
100
AcDbEntity
  8
KIJUN
100
AcDbLine
 10
388.9018012767701
 20
497.1403597044816
 30
0.0
 11
388.9018012767701
 21
987.1403597044817
 31
0.0
  0
LINE
  5
30E9
102
{ACAD_REACTORS
330
316F
102
}
330
2
100
AcDbEntity
  8
KIJUN
100
AcDbLine
 10
378.9018012767701
 20
497.1403597044816
 30
0.0
 11
378.9018012767702
 21
987.1403597044817
 31
0.0
  0
LINE
  5
3104
102
{ACAD_REACTORS
330
316F
102
}
330
2
100
AcDbEntity
  8
KIJUN
100
AcDbLine
 10
350.90180127677
 20
497.1403597044816
 30
0.0
 11
350.90180127677
 21
987.1403597044817
 31
0.0
  0
LINE
  5
3105
102
{ACAD_REACTORS
330
316F
102
}
330
2
100
AcDbEntity
  8
KIJUN
100
AcDbLine
 10
353.90180127677
 20
497.1403597044816
 30
0.0
 11
353.90180127677
 21
987.1403597044817
 31
0.0
  0
LINE
  5
3106
102
{ACAD_REACTORS
330
316F
102
}
330
2
100
AcDbEntity
  8
KIJUN
100
AcDbLine
 10
359.40180127677
 20
497.1403597044816
 30
0.0
 11
359.40180127677
 21
987.1403597044817
 31
0.0
  0
LINE
  5
3107
102
{ACAD_REACTORS
330
316F
102
}
330
2
100
AcDbEntity
  8
KIJUN
100
AcDbLine
 10
362.90180127677
 20
497.1403597044816
 30
0.0
 11
362.90180127677
 21
987.1403597044817
 31
0.0
  0
LINE
  5
3108
102
{ACAD_REACTORS
330
316F
102
}
330
2
100
AcDbEntity
  8
KIJUN
100
AcDbLine
 10
372.90180127677
 20
497.1403597044816
 30
0.0
 11
372.90180127677
 21
987.1403597044817
 31
0.0
  0
LINE
  5
3109
102
{ACAD_REACTORS
330
316F
102
}
330
2
100
AcDbEntity
  8
KIJUN
100
AcDbLine
 10
405.90180127677
 20
497.1403597044816
 30
0.0
 11
345.9018012767701
 21
497.1403597044817
 31
0.0
  0
LINE
  5
310A
102
{ACAD_REACTORS
330
316F
102
}
330
2
100
AcDbEntity
  8
KIJUN
100
AcDbLine
 10
395.4018012767701
 20
474.1403597044817
 30
0.0
 11
356.40180127677
 21
474.1403597044817
 31
0.0
  0
LINE
  5
310B
102
{ACAD_REACTORS
330
316F
102
}
330
2
100
AcDbEntity
  8
KIJUN
100
AcDbLine
 10
392.9018012767682
 20
486.1403597044816
 30
0.0
 11
358.9018012767719
 21
486.1403597044818
 31
0.0
  0
LINE
  5
310D
102
{ACAD_REACTORS
330
316F
102
}
330
2
100
AcDbEntity
  8
KIJUN
100
AcDbLine
 10
395.4018012767701
 20
474.1403597044817
 30
0.0
 11
395.4018012767701
 21
480.1403597044816
 31
0.0
  0
ARC
  5
3112
102
{ACAD_REACTORS
330
316F
102
}
330
2
100
AcDbEntity
  8
KIJUN
100
AcDbCircle
 10
388.1018012767702
 20
491.6403597044815
 30
0.0
 40
7.299999999999879
100
AcDbArc
 50
311.1120904391561
 51
48.88790956083431
  0
ARC
  5
3115
102
{ACAD_REACTORS
330
316F
102
}
330
2
100
AcDbEntity
  8
KIJUN
100
AcDbCircle
 10
386.9518012767701
 20
480.1403597044816
 30
0.0
 40
8.449999999999992
100
AcDbArc
 50
0.0
 51
45.23972989608036
  0
ARC
  5
3116
102
{ACAD_REACTORS
330
316F
102
}
330
2
100
AcDbEntity
  8
KIJUN
100
AcDbCircle
 10
403.0678815353219
 20
464.7196130870629
 30
0.0
 40
12.14575042392053
100
AcDbArc
 50
129.1367814853067
 51
252.431814249819
  0
LINE
  5
3118
102
{ACAD_REACTORS
330
316F
102
}
330
2
100
AcDbEntity
  8
KIJUN
100
AcDbLine
 10
347.4018012767701
 20
427.1403597044815
 30
0.0
 11
347.4018012767701
 21
437.1403597044816
 31
0.0
  0
LINE
  5
3119
102
{ACAD_REACTORS
330
316F
102
}
330
2
100
AcDbEntity
  8
KIJUN
100
AcDbLine
 10
352.40180127677
 20
448.1403597044818
 30
0.0
 11
352.40180127677
 21
453.1403597044815
 31
0.0
  0
ARC
  5
311A
102
{ACAD_REACTORS
330
316F
102
}
330
2
100
AcDbEntity
  8
KIJUN
100
AcDbCircle
 10
363.0426323745278
 20
436.6672546600465
 30
0.0
 40
15.64798472045691
100
AcDbArc
 50
132.8446492497859
 51
178.2674411893875
  0
LINE
  5
311B
102
{ACAD_REACTORS
330
316F
102
}
330
2
100
AcDbEntity
  8
KIJUN
100
AcDbLine
 10
356.4018012767701
 20
474.1403597044817
 30
0.0
 11
356.4018012767701
 21
480.1403597044816
 31
0.0
  0
ARC
  5
311C
102
{ACAD_REACTORS
330
316F
102
}
330
2
100
AcDbEntity
  8
KIJUN
100
AcDbCircle
 10
363.70180127677
 20
491.6403597044815
 30
0.0
 40
7.299999999999879
100
AcDbArc
 50
131.1120904391655
 51
228.8879095608432
  0
ARC
  5
311D
102
{ACAD_REACTORS
330
316F
102
}
330
2
100
AcDbEntity
  8
KIJUN
100
AcDbCircle
 10
364.8518012767701
 20
480.1403597044816
 30
0.0
 40
8.449999999999992
100
AcDbArc
 50
134.7602701039177
 51
180.0
  0
ARC
  5
311E
102
{ACAD_REACTORS
330
316F
102
}
330
2
100
AcDbEntity
  8
KIJUN
100
AcDbCircle
 10
348.7357210182182
 20
464.7196130870629
 30
0.0
 40
12.14575042392053
100
AcDbArc
 50
287.5681857501807
 51
50.86321851469365
  0
DIMENSION
  5
3120
330
2
100
AcDbEntity
  8
SUNPOU
100
AcDbDimension
  2
*D4
 10
405.9018012767698
 20
1294.40486149543
 30
0.0
 11
375.90180127677
 21
1314.40486149543
 31
0.0
 70
    32
 71
     5
 42
59.99999999999983
  3
STANDARD$0
100
AcDbAlignedDimension
 13
345.9018012767701
 23
1192.140359704482
 33
0.0
 14
405.9018012767698
 24
1192.140359704482
 34
0.0
100
AcDbRotatedDimension
1001
ACAD
1000
DSTYLE
1002
{
1070
    41
1040
3.0
1070
    42
1040
3.0
1070
    44
1040
0.0
1070
    77
1070
     1
1070
   140
1040
10.0
1070
   146
1040
0.064286
1070
   147
1040
5.0
1070
   176
1070
    60
1070
   177
1070
    70
1070
   178
1070
    60
1070
   271
1070
     0
1070
   272
1070
     0
1070
   340
1005
1C
1070
   342
1005
109
1002
}
  0
DIMENSION
  5
3121
330
2
100
AcDbEntity
  8
SUNPOU
100
AcDbDimension
  2
*D5
 10
245.525697405832
 20
1057.140359704482
 30
0.0
 11
225.5256974058319
 21
1124.640359704482
 31
0.0
 70
    32
 71
     5
 42
135.0
  3
STANDARD$0
100
AcDbAlignedDimension
 13
345.9018012767702
 23
1192.140359704482
 33
0.0
 14
345.9018012767701
 24
1057.140359704482
 34
0.0
 50
270.0
100
AcDbRotatedDimension
1001
ACAD
1000
DSTYLE
1002
{
1070
    41
1040
3.0
1070
    42
1040
3.0
1070
    44
1040
0.0
1070
    77
1070
     1
1070
   140
1040
10.0
1070
   146
1040
0.064286
1070
   147
1040
5.0
1070
   176
1070
    60
1070
   177
1070
    70
1070
   178
1070
    60
1070
   271
1070
     0
1070
   272
1070
     0
1070
   340
1005
1C
1070
   342
1005
109
1002
}
  0
LINE
  5
3122
102
{ACAD_REACTORS
330
316F
102
}
330
2
100
AcDbEntity
  8
KIJUN
100
AcDbLine
 10
345.9018012767702
 20
1192.140359704482
 30
0.0
 11
345.9018012767701
 21
1057.140359704482
 31
0.0
  0
LINE
  5
3123
102
{ACAD_REACTORS
330
316F
102
}
330
2
100
AcDbEntity
  8
KIJUN
100
AcDbLine
 10
405.9018012767699
 20
1192.140359704482
 30
0.0
 11
405.9018012767699
 21
1057.140359704482
 31
0.0
  0
LINE
  5
3124
102
{ACAD_REACTORS
330
316F
102
}
330
2
100
AcDbEntity
  8
KIJUN
100
AcDbLine
 10
345.9018012767701
 20
1057.140359704482
 30
0.0
 11
405.9018012767699
 21
1057.140359704482
 31
0.0
  0
ARC
  5
3125
102
{ACAD_REACTORS
330
316F
102
}
330
2
100
AcDbEntity
  8
KIJUN
100
AcDbCircle
 10
409.8567002674928
 20
1052.446735966078
 30
0.0
 40
22.37918818605715
100
AcDbArc
 50
100.1788941199062
 51
157.14072238827
  0
ARC
  5
3126
102
{ACAD_REACTORS
330
316F
102
}
330
2
100
AcDbEntity
  8
KIJUN
100
AcDbCircle
 10
375.9018012767701
 20
1081.362581926704
 30
0.0
 40
24.2222222222221
100
AcDbArc
 50
236.6015115320186
 51
303.3984884679905
  0
ARC
  5
3127
102
{ACAD_REACTORS
330
316F
102
}
330
2
100
AcDbEntity
  8
KIJUN
100
AcDbCircle
 10
341.9469022860472
 20
1052.446735966078
 30
0.0
 40
22.37918818605715
100
AcDbArc
 50
22.85927761172988
 51
79.82110588009202
  0
LINE
  5
3128
102
{ACAD_REACTORS
330
316F
102
}
330
2
100
AcDbEntity
  8
KIJUN
100
AcDbLine
 10
345.9018012767702
 20
1192.140359704482
 30
0.0
 11
405.9018012767699
 21
1192.140359704482
 31
0.0
  0
LINE
  5
3129
102
{ACAD_REACTORS
330
316F
102
}
330
2
100
AcDbEntity
  8
KIJUN
100
AcDbLine
 10
352.40180127677
 20
1036.140359704481
 30
0.0
 11
399.4018012767702
 21
1036.140359704482
 31
0.0
  0
LINE
  5
312A
102
{ACAD_REACTORS
330
316F
102
}
330
2
100
AcDbEntity
  8
KIJUN
100
AcDbLine
 10
352.4018012767701
 20
1031.140359704482
 30
0.0
 11
399.4018012767701
 21
1031.140359704482
 31
0.0
  0
LINE
  5
312B
102
{ACAD_REACTORS
330
316F
102
}
330
2
100
AcDbEntity
  8
KIJUN
100
AcDbLine
 10
404.40180127677
 20
1057.140359704482
 30
0.0
 11
404.40180127677
 21
1047.140359704482
 31
0.0
  0
LINE
  5
312C
102
{ACAD_REACTORS
330
316F
102
}
330
2
100
AcDbEntity
  8
KIJUN
100
AcDbLine
 10
399.4018012767702
 20
1036.140359704482
 30
0.0
 11
399.4018012767701
 21
1031.140359704482
 31
0.0
  0
ARC
  5
312D
102
{ACAD_REACTORS
330
316F
102
}
330
2
100
AcDbEntity
  8
KIJUN
100
AcDbCircle
 10
388.7609701790124
 20
1047.613464748917
 30
0.0
 40
15.64798472045691
100
AcDbArc
 50
312.8446492497882
 51
358.2674411893827
  0
LINE
  5
312E
102
{ACAD_REACTORS
330
316F
102
}
330
2
100
AcDbEntity
  8
KIJUN
100
AcDbLine
 10
405.90180127677
 20
987.1403597044817
 30
0.0
 11
345.9018012767701
 21
987.1403597044817
 31
0.0
  0
LINE
  5
312F
102
{ACAD_REACTORS
330
316F
102
}
330
2
100
AcDbEntity
  8
KIJUN
100
AcDbLine
 10
395.4018012767701
 20
1010.140359704482
 30
0.0
 11
356.40180127677
 21
1010.140359704482
 31
0.0
  0
LINE
  5
3130
102
{ACAD_REACTORS
330
316F
102
}
330
2
100
AcDbEntity
  8
KIJUN
100
AcDbLine
 10
392.9018012767682
 20
998.1403597044819
 30
0.0
 11
358.9018012767719
 21
998.1403597044815
 31
0.0
  0
LINE
  5
3131
102
{ACAD_REACTORS
330
316F
102
}
330
2
100
AcDbEntity
  8
KIJUN
100
AcDbLine
 10
395.4018012767701
 20
1010.140359704482
 30
0.0
 11
395.4018012767701
 21
1004.140359704482
 31
0.0
  0
ARC
  5
3132
102
{ACAD_REACTORS
330
316F
102
}
330
2
100
AcDbEntity
  8
KIJUN
100
AcDbCircle
 10
388.1018012767702
 20
992.6403597044819
 30
0.0
 40
7.299999999999879
100
AcDbArc
 50
311.1120904391681
 51
48.8879095608459
  0
ARC
  5
3133
102
{ACAD_REACTORS
330
316F
102
}
330
2
100
AcDbEntity
  8
KIJUN
100
AcDbCircle
 10
386.9518012767701
 20
1004.140359704482
 30
0.0
 40
8.449999999999992
100
AcDbArc
 50
314.7602701039228
 51
0.0
  0
ARC
  5
3134
102
{ACAD_REACTORS
330
316F
102
}
330
2
100
AcDbEntity
  8
KIJUN
100
AcDbCircle
 10
403.0678815353219
 20
1019.5611063219
 30
0.0
 40
12.14575042392053
100
AcDbArc
 50
107.5681857501817
 51
230.8632185146932
  0
LINE
  5
3135
102
{ACAD_REACTORS
330
316F
102
}
330
2
100
AcDbEntity
  8
KIJUN
100
AcDbLine
 10
347.4018012767701
 20
1057.140359704482
 30
0.0
 11
347.4018012767701
 21
1047.140359704482
 31
0.0
  0
LINE
  5
3136
102
{ACAD_REACTORS
330
316F
102
}
330
2
100
AcDbEntity
  8
KIJUN
100
AcDbLine
 10
352.40180127677
 20
1036.140359704481
 30
0.0
 11
352.40180127677
 21
1031.140359704482
 31
0.0
  0
ARC
  5
3137
102
{ACAD_REACTORS
330
316F
102
}
330
2
100
AcDbEntity
  8
KIJUN
100
AcDbCircle
 10
363.0426323745278
 20
1047.613464748917
 30
0.0
 40
15.64798472045691
100
AcDbArc
 50
181.7325588106172
 51
227.1553507502107
  0
LINE
  5
3138
102
{ACAD_REACTORS
330
316F
102
}
330
2
100
AcDbEntity
  8
KIJUN
100
AcDbLine
 10
356.4018012767701
 20
1010.140359704482
 30
0.0
 11
356.4018012767701
 21
1004.140359704482
 31
0.0
  0
ARC
  5
3139
102
{ACAD_REACTORS
330
316F
102
}
330
2
100
AcDbEntity
  8
KIJUN
100
AcDbCircle
 10
363.70180127677
 20
992.6403597044819
 30
0.0
 40
7.299999999999879
100
AcDbArc
 50
131.1120904391545
 51
228.887909560832
  0
ARC
  5
313A
102
{ACAD_REACTORS
330
316F
102
}
330
2
100
AcDbEntity
  8
KIJUN
100
AcDbCircle
 10
364.8518012767701
 20
1004.140359704482
 30
0.0
 40
8.449999999999992
100
AcDbArc
 50
180.0
 51
225.2397298960782
  0
ARC
  5
313B
102
{ACAD_REACTORS
330
316F
102
}
330
2
100
AcDbEntity
  8
KIJUN
100
AcDbCircle
 10
348.7357210182182
 20
1019.5611063219
 30
0.0
 40
12.14575042392053
100
AcDbArc
 50
309.1367814853065
 51
72.43181424981859
  0
ENDSEC
  0
SECTION
  2
OBJECTS
  0
DICTIONARY
  5
1A
330
0
100
AcDbDictionary
281
     1
  3
ACAD_COLOR
350
2E6A
  3
ACAD_GROUP
350
18
  3
ACAD_LAYOUT
350
58
  3
ACAD_MATERIAL
350
2E69
  3
ACAD_MLINESTYLE
350
19
  3
ACAD_PLOTSETTINGS
350
59
  3
ACAD_PLOTSTYLENAME
350
56
  3
ACAD_TABLESTYLE
350
2E6B
  3
ACDBHEADERROUNDTRIPXREC
350
3189
  3
AcDbVariableDictionary
350
2E7D
  0
DICTIONARY
  5
2E6A
102
{ACAD_REACTORS
330
1A
102
}
330
1A
100
AcDbDictionary
281
     1
  0
DICTIONARY
  5
18
102
{ACAD_REACTORS
330
1A
102
}
330
1A
100
AcDbDictionary
281
     1
  3
*A1
350
3A0
  3
*A10
350
2A6B
  3
*A11
350
2E65
  3
*A12
350
1CB2
  3
*A13
350
171C
  3
*A14
350
171D
  3
*A15
350
1CB1
  3
*A16
350
9D9
  3
*A17
350
3A1
  3
*A18
350
6E6
  3
*A19
350
6E7
  3
*A2
350
1131
  3
*A20
350
9DA
  3
*A21
350
DE0
  3
*A22
350
DE1
  3
*A3
350
25D6
  3
*A4
350
21DD
  3
*A5
350
21DE
  3
*A6
350
25D5
  3
*A7
350
316F
  3
*A8
350
2A6A
  3
*A9
350
1132
  0
DICTIONARY
  5
58
102
{ACAD_REACTORS
330
1A
102
}
330
1A
100
AcDbDictionary
281
     1
  3
Model
350
5A
  3
ﾚｲｱｳﾄ1
350
5B
  0
DICTIONARY
  5
2E69
102
{ACAD_REACTORS
330
1A
102
}
330
1A
100
AcDbDictionary
281
     1
  0
DICTIONARY
  5
19
102
{ACAD_REACTORS
330
1A
102
}
330
1A
100
AcDbDictionary
281
     1
  3
STANDARD
350
1D
  0
DICTIONARY
  5
59
102
{ACAD_REACTORS
330
1A
102
}
330
1A
100
AcDbDictionary
281
     1
  0
ACDBDICTIONARYWDFLT
  5
56
102
{ACAD_REACTORS
330
1A
102
}
330
1A
100
AcDbDictionary
281
     1
  3
Normal
350
57
100
AcDbDictionaryWithDefault
340
57
  0
DICTIONARY
  5
2E6B
102
{ACAD_REACTORS
330
1A
102
}
330
1A
100
AcDbDictionary
281
     1
  3
Standard
350
2E6C
  0
DICTIONARY
  5
3189
102
{ACAD_REACTORS
330
1A
102
}
330
1A
100
AcDbDictionary
281
     1
  0
DICTIONARY
  5
2E7D
102
{ACAD_REACTORS
330
1A
102
}
330
1A
100
AcDbDictionary
281
     1
  3
CTABLESTYLE
350
2E7E
  3
DIMASSOC
350
303E
  3
PROJECTNAME
350
303F
  0
GROUP
  5
3A0
102
{ACAD_REACTORS
330
18
102
}
330
18
100
AcDbGroup
300

 70
     1
 71
     1
  0
GROUP
  5
2A6B
102
{ACAD_REACTORS
330
18
102
}
330
18
100
AcDbGroup
300

 70
     1
 71
     1
  0
GROUP
  5
2E65
102
{ACAD_REACTORS
330
18
102
}
330
18
100
AcDbGroup
300

 70
     1
 71
     1
  0
GROUP
  5
1CB2
102
{ACAD_REACTORS
330
18
102
}
330
18
100
AcDbGroup
300

 70
     1
 71
     1
  0
GROUP
  5
171C
102
{ACAD_REACTORS
330
18
102
}
330
18
100
AcDbGroup
300

 70
     1
 71
     1
  0
GROUP
  5
171D
102
{ACAD_REACTORS
330
18
102
}
330
18
100
AcDbGroup
300

 70
     1
 71
     1
  0
GROUP
  5
1CB1
102
{ACAD_REACTORS
330
18
102
}
330
18
100
AcDbGroup
300

 70
     1
 71
     1
  0
GROUP
  5
9D9
102
{ACAD_REACTORS
330
18
102
}
330
18
100
AcDbGroup
300

 70
     1
 71
     1
  0
GROUP
  5
3A1
102
{ACAD_REACTORS
330
18
102
}
330
18
100
AcDbGroup
300

 70
     1
 71
     1
  0
GROUP
  5
6E6
102
{ACAD_REACTORS
330
18
102
}
330
18
100
AcDbGroup
300

 70
     1
 71
     1
  0
GROUP
  5
6E7
102
{ACAD_REACTORS
330
18
102
}
330
18
100
AcDbGroup
300

 70
     1
 71
     1
  0
GROUP
  5
1131
102
{ACAD_REACTORS
330
18
102
}
330
18
100
AcDbGroup
300

 70
     1
 71
     1
  0
GROUP
  5
9DA
102
{ACAD_REACTORS
330
18
102
}
330
18
100
AcDbGroup
300

 70
     1
 71
     1
  0
GROUP
  5
DE0
102
{ACAD_REACTORS
330
18
102
}
330
18
100
AcDbGroup
300

 70
     1
 71
     1
  0
GROUP
  5
DE1
102
{ACAD_REACTORS
330
18
102
}
330
18
100
AcDbGroup
300

 70
     1
 71
     1
  0
GROUP
  5
25D6
102
{ACAD_REACTORS
330
18
102
}
330
18
100
AcDbGroup
300

 70
     1
 71
     1
  0
GROUP
  5
21DD
102
{ACAD_REACTORS
330
18
102
}
330
18
100
AcDbGroup
300

 70
     1
 71
     1
  0
GROUP
  5
21DE
102
{ACAD_REACTORS
330
18
102
}
330
18
100
AcDbGroup
300

 70
     1
 71
     1
  0
GROUP
  5
25D5
102
{ACAD_REACTORS
330
18
102
}
330
18
100
AcDbGroup
300

 70
     1
 71
     1
  0
GROUP
  5
316F
102
{ACAD_REACTORS
330
18
102
}
330
18
100
AcDbGroup
300

 70
     1
 71
     1
340
313B
340
313A
340
3139
340
3138
340
3137
340
3136
340
3135
340
3134
340
3133
340
3132
340
3131
340
3130
340
312F
340
312E
340
312D
340
312C
340
312B
340
312A
340
3129
340
3128
340
3127
340
3126
340
3125
340
3124
340
3123
340
3122
340
311E
340
311D
340
311C
340
311B
340
311A
340
3119
340
3118
340
3116
340
3115
340
3112
340
310D
340
310B
340
310A
340
3109
340
3108
340
3107
340
3106
340
3105
340
3104
340
30E9
340
30E8
340
30E7
340
30E6
340
30E5
340
30C3
340
30C1
340
30BF
340
30BB
340
30BA
340
309D
340
2F47
340
2F46
340
2EC3
340
2EC2
340
2EBB
340
2EB8
340
2EB7
340
2EB6
  0
GROUP
  5
2A6A
102
{ACAD_REACTORS
330
18
102
}
330
18
100
AcDbGroup
300

 70
     1
 71
     1
  0
GROUP
  5
1132
102
{ACAD_REACTORS
330
18
102
}
330
18
100
AcDbGroup
300

 70
     1
 71
     1
  0
LAYOUT
  5
5A
102
{ACAD_XDICTIONARY
360
318A
102
}
102
{ACAD_REACTORS
330
58
102
}
330
58
100
AcDbPlotSettings
  1

  2
なし
  4

  6

 40
0.0
 41
0.0
 42
0.0
 43
0.0
 44
0.0
 45
0.0
 46
0.0
 47
0.0
 48
0.0
 49
0.0
140
0.0
141
0.0
142
1.0
143
1.0
 70
  1712
 72
     0
 73
     0
 74
     0
  7
monochrome.ctb
 75
     0
147
1.0
148
0.0
149
0.0
100
AcDbLayout
  1
Model
 70
     1
 71
     0
 10
0.0
 20
0.0
 11
12.0
 21
9.0
 12
0.0
 22
0.0
 32
0.0
 14
0.0
 24
0.0
 34
0.0
 15
0.0
 25
0.0
 35
0.0
146
0.0
 13
0.0
 23
0.0
 33
0.0
 16
1.0
 26
0.0
 36
0.0
 17
0.0
 27
1.0
 37
0.0
 76
     0
330
2
  0
LAYOUT
  5
5B
102
{ACAD_XDICTIONARY
360
318C
102
}
102
{ACAD_REACTORS
330
58
102
}
330
58
100
AcDbPlotSettings
  1

  2
なし
  4

  6

 40
0.0
 41
0.0
 42
0.0
 43
0.0
 44
0.0
 45
0.0
 46
0.0
 47
0.0
 48
0.0
 49
0.0
140
0.0
141
0.0
142
1.0
143
1.0
 70
   688
 72
     0
 73
     0
 74
     5
  7
monochrome.ctb
 75
    16
147
1.0
148
0.0
149
0.0
100
AcDbLayout
  1
ﾚｲｱｳﾄ1
 70
     1
 71
     1
 10
0.0
 20
0.0
 11
12.0
 21
9.0
 12
0.0
 22
0.0
 32
0.0
 14
1.000000000000000E+20
 24
1.000000000000000E+20
 34
1.000000000000000E+20
 15
-1.000000000000000E+20
 25
-1.000000000000000E+20
 35
-1.000000000000000E+20
146
0.0
 13
0.0
 23
0.0
 33
0.0
 16
1.0
 26
0.0
 36
0.0
 17
0.0
 27
1.0
 37
0.0
 76
     0
330
7
  0
MLINESTYLE
  5
1D
102
{ACAD_REACTORS
330
19
102
}
330
19
100
AcDbMlineStyle
  2
STANDARD
 70
     0
  3

 62
   256
 51
90.0
 52
90.0
 71
     2
 49
0.5
 62
   256
  6
BYLAYER
 49
-0.5
 62
   256
  6
BYLAYER
  0
ACDBPLACEHOLDER
  5
57
102
{ACAD_REACTORS
330
56
102
}
330
56
  0
TABLESTYLE
  5
2E6C
102
{ACAD_REACTORS
330
2E6B
102
}
330
2E6B
100
AcDbTableStyle
  3
Standard
 70
     0
 71
     0
 40
0.06
 41
0.06
280
     0
281
     0
  7
STANDARD
140
0.18
170
     2
 62
     0
 63
     7
283
     0
274
    -2
284
     1
 64
     0
275
    -2
285
     1
 65
     0
276
    -2
286
     1
 66
     0
277
    -2
287
     1
 67
     0
278
    -2
288
     1
 68
     0
279
    -2
289
     1
 69
     0
  7
STANDARD
140
0.25
170
     5
 62
     0
 63
     7
283
     0
274
    -2
284
     1
 64
     0
275
    -2
285
     1
 65
     0
276
    -2
286
     1
 66
     0
277
    -2
287
     1
 67
     0
278
    -2
288
     1
 68
     0
279
    -2
289
     1
 69
     0
  7
STANDARD
140
0.18
170
     5
 62
     0
 63
     7
283
     0
274
    -2
284
     1
 64
     0
275
    -2
285
     1
 65
     0
276
    -2
286
     1
 66
     0
277
    -2
287
     1
 67
     0
278
    -2
288
     1
 68
     0
279
    -2
289
     1
 69
     0
  0
DICTIONARYVAR
  5
2E7E
102
{ACAD_REACTORS
330
2E7D
102
}
330
2E7D
100
DictionaryVariables
280
     0
  1
STANDARD
  0
DICTIONARYVAR
  5
303E
102
{ACAD_REACTORS
330
2E7D
102
}
330
2E7D
100
DictionaryVariables
280
     0
  1
1
  0
DICTIONARYVAR
  5
303F
102
{ACAD_REACTORS
330
2E7D
102
}
330
2E7D
100
DictionaryVariables
280
     0
  1

  0
DICTIONARY
  5
318A
330
5A
100
AcDbDictionary
280
     1
281
     1
  3
ACAD_XREC_ROUNDTRIP
360
318B
  0
DICTIONARY
  5
318C
330
5B
100
AcDbDictionary
280
     1
281
     1
  3
ACAD_XREC_ROUNDTRIP
360
318D
  0
XRECORD
  5
318B
102
{ACAD_REACTORS
330
318A
102
}
330
318A
100
AcDbXrecord
280
     1
102
SHADEPLOT
 70
     0
102
SHADEPLOTRESLEVEL
 70
     2
102
SHADEPLOTCUSTOMDPI
 70
   300
  0
XRECORD
  5
318D
102
{ACAD_REACTORS
330
318C
102
}
330
318C
100
AcDbXrecord
280
     1
102
SHADEPLOT
 70
     0
102
SHADEPLOTRESLEVEL
 70
     2
102
SHADEPLOTCUSTOMDPI
 70
   300
  0
ENDSEC
  0
EOF
