  0
SECTION
  2
HEADER
  9
$ACADVER
  1
AC1015
  9
$ACADMAINTVER
 70
    18
  9
$DWGCODEPAGE
  3
ANSI_932
  9
$INSBASE
 10
0.0
 20
0.0
 30
0.0
  9
$EXTMIN
 10
-44.28153970259484
 20
0.0
 30
0.0
  9
$EXTMAX
 10
426.6643503351043
 20
141.1144890416577
 30
0.0
  9
$LIMMIN
 10
0.0
 20
0.0
  9
$LIMMAX
 10
420.0
 20
297.0
  9
$ORTHOMODE
 70
     1
  9
$REGENMODE
 70
     1
  9
$FILLMODE
 70
     1
  9
$QTEXTMODE
 70
     0
  9
$MIRRTEXT
 70
     1
  9
$LTSCALE
 40
1.0
  9
$ATTMODE
 70
     1
  9
$TEXTSIZE
 40
30.0
  9
$TRACEWID
 40
0.05
  9
$TEXTSTYLE
  7
SUNPOU
  9
$CLAYER
  8
0
  9
$CELTYPE
  6
BYLAYER
  9
$CECOLOR
 62
     7
  9
$CELTSCALE
 40
1.0
  9
$DISPSILH
 70
     0
  9
$DIMSCALE
 40
1.0
  9
$DIMASZ
 40
3.0
  9
$DIMEXO
 40
2.0
  9
$DIMDLI
 40
0.38
  9
$DIMRND
 40
0.0
  9
$DIMDLE
 40
0.0
  9
$DIMEXE
 40
0.0
  9
$DIMTP
 40
0.0
  9
$DIMTM
 40
0.0
  9
$DIMTXT
 40
7.0
  9
$DIMCEN
 40
1.0
  9
$DIMTSZ
 40
0.0
  9
$DIMTOL
 70
     0
  9
$DIMLIM
 70
     0
  9
$DIMTIH
 70
     0
  9
$DIMTOH
 70
     0
  9
$DIMSE1
 70
     0
  9
$DIMSE2
 70
     0
  9
$DIMTAD
 70
     1
  9
$DIMZIN
 70
     0
  9
$DIMBLK
  1

  9
$DIMASO
 70
     1
  9
$DIMSHO
 70
     1
  9
$DIMPOST
  1

  9
$DIMAPOST
  1

  9
$DIMALT
 70
     0
  9
$DIMALTD
 70
     2
  9
$DIMALTF
 40
25.4
  9
$DIMLFAC
 40
1.0
  9
$DIMTOFL
 70
     0
  9
$DIMTVP
 40
0.0
  9
$DIMTIX
 70
     1
  9
$DIMSOXD
 70
     0
  9
$DIMSAH
 70
     1
  9
$DIMBLK1
  1
DOTSMALL
  9
$DIMBLK2
  1
DOTSMALL
  9
$DIMSTYLE
  2
1
  9
$DIMCLRD
 70
    60
  9
$DIMCLRE
 70
    70
  9
$DIMCLRT
 70
    60
  9
$DIMTFAC
 40
0.0642857142857143
  9
$DIMGAP
 40
1.0
  9
$DIMJUST
 70
     0
  9
$DIMSD1
 70
     0
  9
$DIMSD2
 70
     0
  9
$DIMTOLJ
 70
     1
  9
$DIMTZIN
 70
     0
  9
$DIMALTZ
 70
     0
  9
$DIMALTTZ
 70
     0
  9
$DIMUPT
 70
     0
  9
$DIMDEC
 70
     0
  9
$DIMTDEC
 70
     4
  9
$DIMALTU
 70
     2
  9
$DIMALTTD
 70
     2
  9
$DIMTXSTY
  7
STANDARD
  9
$DIMAUNIT
 70
     0
  9
$DIMADEC
 70
     0
  9
$DIMALTRND
 40
0.0
  9
$DIMAZIN
 70
     0
  9
$DIMDSEP
 70
    46
  9
$DIMATFIT
 70
     3
  9
$DIMFRAC
 70
     0
  9
$DIMLDRBLK
  1
DOTSMALL
  9
$DIMLUNIT
 70
     2
  9
$DIMLWD
 70
    -2
  9
$DIMLWE
 70
    -2
  9
$DIMTMOVE
 70
     0
  9
$LUNITS
 70
     4
  9
$LUPREC
 70
     4
  9
$SKETCHINC
 40
0.1
  9
$FILLETRAD
 40
3.0
  9
$AUNITS
 70
     0
  9
$AUPREC
 70
     2
  9
$MENU
  1
acad
  9
$ELEVATION
 40
0.0
  9
$PELEVATION
 40
0.0
  9
$THICKNESS
 40
0.0
  9
$LIMCHECK
 70
     0
  9
$CHAMFERA
 40
0.0
  9
$CHAMFERB
 40
0.0
  9
$CHAMFERC
 40
0.0
  9
$CHAMFERD
 40
0.0
  9
$SKPOLY
 70
     0
  9
$TDCREATE
 40
2450623.676023380
  9
$TDUCREATE
 40
2450623.301023380
  9
$TDUPDATE
 40
2453882.377657940
  9
$TDUUPDATE
 40
2453882.002657940
  9
$TDINDWG
 40
5.3812128704
  9
$TDUSRTIMER
 40
5.3812126736
  9
$USRTIMER
 70
     1
  9
$ANGBASE
 50
0.0
  9
$ANGDIR
 70
     0
  9
$PDMODE
 70
     0
  9
$PDSIZE
 40
0.0
  9
$PLINEWID
 40
0.0
  9
$SPLFRAME
 70
     0
  9
$SPLINETYPE
 70
     6
  9
$SPLINESEGS
 70
     8
  9
$HANDSEED
  5
233
  9
$SURFTAB1
 70
     6
  9
$SURFTAB2
 70
     6
  9
$SURFTYPE
 70
     6
  9
$SURFU
 70
     6
  9
$SURFV
 70
     6
  9
$UCSBASE
  2

  9
$UCSNAME
  2

  9
$UCSORG
 10
0.0
 20
0.0
 30
0.0
  9
$UCSXDIR
 10
1.0
 20
0.0
 30
0.0
  9
$UCSYDIR
 10
0.0
 20
1.0
 30
0.0
  9
$UCSORTHOREF
  2

  9
$UCSORTHOVIEW
 70
     0
  9
$UCSORGTOP
 10
0.0
 20
0.0
 30
0.0
  9
$UCSORGBOTTOM
 10
0.0
 20
0.0
 30
0.0
  9
$UCSORGLEFT
 10
0.0
 20
0.0
 30
0.0
  9
$UCSORGRIGHT
 10
0.0
 20
0.0
 30
0.0
  9
$UCSORGFRONT
 10
0.0
 20
0.0
 30
0.0
  9
$UCSORGBACK
 10
0.0
 20
0.0
 30
0.0
  9
$PUCSBASE
  2

  9
$PUCSNAME
  2

  9
$PUCSORG
 10
0.0
 20
0.0
 30
0.0
  9
$PUCSXDIR
 10
1.0
 20
0.0
 30
0.0
  9
$PUCSYDIR
 10
0.0
 20
1.0
 30
0.0
  9
$PUCSORTHOREF
  2

  9
$PUCSORTHOVIEW
 70
     0
  9
$PUCSORGTOP
 10
0.0
 20
0.0
 30
0.0
  9
$PUCSORGBOTTOM
 10
0.0
 20
0.0
 30
0.0
  9
$PUCSORGLEFT
 10
0.0
 20
0.0
 30
0.0
  9
$PUCSORGRIGHT
 10
0.0
 20
0.0
 30
0.0
  9
$PUCSORGFRONT
 10
0.0
 20
0.0
 30
0.0
  9
$PUCSORGBACK
 10
0.0
 20
0.0
 30
0.0
  9
$USERI1
 70
     0
  9
$USERI2
 70
     0
  9
$USERI3
 70
     0
  9
$USERI4
 70
     0
  9
$USERI5
 70
     0
  9
$USERR1
 40
0.0
  9
$USERR2
 40
0.0
  9
$USERR3
 40
0.0
  9
$USERR4
 40
0.0
  9
$USERR5
 40
0.0
  9
$WORLDVIEW
 70
     1
  9
$SHADEDGE
 70
     3
  9
$SHADEDIF
 70
    70
  9
$TILEMODE
 70
     1
  9
$MAXACTVP
 70
    16
  9
$PINSBASE
 10
0.0
 20
0.0
 30
0.0
  9
$PLIMCHECK
 70
     0
  9
$PEXTMIN
 10
1.000000000000000E+20
 20
1.000000000000000E+20
 30
1.000000000000000E+20
  9
$PEXTMAX
 10
-1.000000000000000E+20
 20
-1.000000000000000E+20
 30
-1.000000000000000E+20
  9
$PLIMMIN
 10
0.0
 20
0.0
  9
$PLIMMAX
 10
12.0
 20
9.0
  9
$UNITMODE
 70
     0
  9
$VISRETAIN
 70
     0
  9
$PLINEGEN
 70
     0
  9
$PSLTSCALE
 70
     1
  9
$TREEDEPTH
 70
  3020
  9
$CMLSTYLE
  2
STANDARD
  9
$CMLJUST
 70
     0
  9
$CMLSCALE
 40
1.0
  9
$PROXYGRAPHICS
 70
     1
  9
$MEASUREMENT
 70
     0
  9
$CELWEIGHT
370
    -1
  9
$ENDCAPS
280
     0
  9
$JOINSTYLE
280
     0
  9
$LWDISPLAY
290
     0
  9
$INSUNITS
 70
     0
  9
$HYPERLINKBASE
  1

  9
$STYLESHEET
  1

  9
$XEDIT
290
     1
  9
$CEPSNTYPE
380
     0
  9
$PSTYLEMODE
290
     1
  9
$FINGERPRINTGUID
  2
{F5849E95-259F-4339-9340-0AB2AE4C7E39}
  9
$VERSIONGUID
  2
{A3BF8061-4147-4F89-96ED-6BB57A33A680}
  9
$EXTNAMES
290
     1
  9
$PSVPSCALE
 40
0.0
  9
$OLESTARTUP
290
     0
  0
ENDSEC
  0
SECTION
  2
CLASSES
  0
CLASS
  1
DICTIONARYVAR
  2
AcDbDictionaryVar
  3
ObjectDBX Classes
 90
        0
280
     0
281
     0
  0
CLASS
  1
RASTERVARIABLES
  2
AcDbRasterVariables
  3
ISM
 90
    32768
280
     0
281
     0
  0
CLASS
  1
ACDBDICTIONARYWDFLT
  2
AcDbDictionaryWithDefault
  3
ObjectDBX Classes
 90
        0
280
     0
281
     0
  0
CLASS
  1
ACDBPLACEHOLDER
  2
AcDbPlaceHolder
  3
ObjectDBX Classes
 90
        0
280
     0
281
     0
  0
CLASS
  1
LAYOUT
  2
AcDbLayout
  3
ObjectDBX Classes
 90
        0
280
     0
281
     0
  0
CLASS
  1
AEC_VARS_DWG_SETUP
  2
AecDbVarsDwgSetup
  3
AecBase
 90
    32897
280
     1
281
     0
  0
CLASS
  1
AEC_DISP_REP_MASS_ELEM_MODEL
  2
AecDbDispRepMassElemModel
  3
AecBase
 90
    32897
280
     1
281
     0
  0
CLASS
  1
AEC_DISP_PROPS_MASS_ELEM_MODEL
  2
AecDbDispPropsMassElem
  3
AecBase
 90
    32897
280
     1
281
     0
  0
CLASS
  1
AEC_DISP_REP_MASS_ELEM_SCHEM
  2
AecDbDispRepMassElemSchem
  3
AecBase
 90
    32897
280
     1
281
     0
  0
CLASS
  1
AEC_DISP_REP_DOOR_ELEV
  2
AecDbDispRepDoorElev
  3
AecArchBase
 90
    32897
280
     1
281
     0
  0
CLASS
  1
AEC_DISP_PROPS_DOOR
  2
AecDbDispPropsDoor
  3
AecArchBase
 90
    32897
280
     1
281
     0
  0
CLASS
  1
AEC_DISP_REP_MASKBLOCK_REF
  2
AecDbDispRepMaskBlockRef
  3
AecBase
 90
    32897
280
     1
281
     0
  0
CLASS
  1
AEC_DISP_PROPS_MASKBLOCK
  2
AecDbDispPropsMaskBlock
  3
AecBase
 90
    32897
280
     1
281
     0
  0
CLASS
  1
AEC_DISP_REP_LAYOUT_GRID3D
  2
AecDbDispRepLayoutGrid3d
  3
AecBase
 90
    32897
280
     1
281
     0
  0
CLASS
  1
AEC_DISP_PROPS_LAYOUT_GRID3D
  2
AecDbDispPropsLayoutGrid3d
  3
AecBase
 90
    32897
280
     1
281
     0
  0
CLASS
  1
AEC_DISP_REP_ENT_REF
  2
AecDbDispRepEntRef
  3
AecBase
 90
    32897
280
     1
281
     0
  0
CLASS
  1
AEC_DISP_PROPS_ENT_REF
  2
AecDbDispPropsEntRef
  3
AecBase
 90
    32897
280
     1
281
     0
  0
CLASS
  1
AEC_DISP_REP_CLIP_VOLUME_RESULT_SUBDIV
  2
AecDbDispRepClipVolResSubDiv
  3
AecBase
 90
    32897
280
     1
281
     0
  0
CLASS
  1
AEC_DISP_PROPS_CLIP_VOLUME_RESULT
  2
AecDbDispPropsClipVolResSubDiv
  3
AecBase
 90
    32897
280
     1
281
     0
  0
CLASS
  1
AEC_DISP_REP_CLIP_VOLUME_RESULT
  2
AecDbDispRepClipVolResult
  3
AecBase
 90
    32897
280
     1
281
     0
  0
CLASS
  1
AEC_DISP_REP_CLIP_VOLUME_PLAN
  2
AecDbDispRepClipVolPlan
  3
AecBase
 90
    32897
280
     1
281
     0
  0
CLASS
  1
AEC_DISP_PROPS_CLIP_VOLUME
  2
AecDbDispPropsClipVol
  3
AecBase
 90
    32897
280
     1
281
     0
  0
CLASS
  1
AEC_DISP_REP_CLIP_VOLUME_MODEL
  2
AecDbDispRepClipVolModel
  3
AecBase
 90
    32897
280
     1
281
     0
  0
CLASS
  1
AEC_DISP_REP_ANCHOR_ENT_TO_NODE
  2
AecDbDispRepAnchorEntToNode
  3
AecBase
 90
    32897
280
     1
281
     0
  0
CLASS
  1
AEC_DISP_PROPS_ENT
  2
AecDbDispPropsEnt
  3
AecBase
 90
    32897
280
     1
281
     0
  0
CLASS
  1
AEC_DISP_REP_LAYOUT_GRID2D
  2
AecDbDispRepLayoutGrid2d
  3
AecBase
 90
    32897
280
     1
281
     0
  0
CLASS
  1
AEC_DISP_PROPS_LAYOUT_GRID2D
  2
AecDbDispPropsLayoutGrid2d
  3
AecBase
 90
    32897
280
     1
281
     0
  0
CLASS
  1
AEC_DISP_REP_LAYOUT_CURVE
  2
AecDbDispRepLayoutCurve
  3
AecBase
 90
    32897
280
     1
281
     0
  0
CLASS
  1
AEC_DISP_PROPS_LAYOUT_CURVE
  2
AecDbDispPropsLayoutCurve
  3
AecBase
 90
    32897
280
     1
281
     0
  0
CLASS
  1
AEC_DISP_REP_ANCHOR
  2
AecDbDispRepAnchor
  3
AecBase
 90
    32897
280
     1
281
     0
  0
CLASS
  1
AEC_DISP_REP_CAMERA
  2
AecDbDispRepCamera
  3
AecBase
 90
    32897
280
     1
281
     0
  0
CLASS
  1
AEC_DISP_PROPS_CAMERA
  2
AecDbDispPropsCamera
  3
AecBase
 90
    32897
280
     1
281
     0
  0
CLASS
  1
AEC_DISP_REP_SLICE
  2
AecDbDispRepSlice
  3
AecBase
 90
    32897
280
     1
281
     0
  0
CLASS
  1
AEC_DISP_PROPS_SLICE
  2
AecDbDispPropsSlice
  3
AecBase
 90
    32897
280
     1
281
     0
  0
CLASS
  1
AEC_DISP_REP_MVBLOCK_REF
  2
AecDbDispRepMvBlockRef
  3
AecBase
 90
    32897
280
     1
281
     0
  0
CLASS
  1
AEC_DISP_REP_MVBLOCK_REF_MODEL
  2
AecDbDispRepMvBlockRefModel
  3
AecBase
 90
    32897
280
     1
281
     0
  0
CLASS
  1
AEC_DISP_REP_MASS_GROUP_MODEL
  2
AecDbDispRepMassGroupModel
  3
AecBase
 90
    32897
280
     1
281
     0
  0
CLASS
  1
AEC_DISP_PROPS_MASS_GROUP
  2
AecDbDispPropsMassGroup
  3
AecBase
 90
    32897
280
     1
281
     0
  0
CLASS
  1
AEC_DISP_REP_MASS_GROUP_PLAN
  2
AecDbDispRepMassGroupPlan
  3
AecBase
 90
    32897
280
     1
281
     0
  0
CLASS
  1
AEC_DISP_REP_DOOR_RCP
  2
AecDbDispRepDoorRcp
  3
AecArchBase
 90
    32897
280
     1
281
     0
  0
CLASS
  1
AEC_DISP_REP_DOOR_NOMINAL
  2
AecDbDispRepDoorNominal
  3
AecArchBase
 90
    32897
280
     1
281
     0
  0
CLASS
  1
AEC_DISP_PROPS_DOOR_NOMINAL
  2
AecDbDispPropsDoorNominal
  3
AecArchBase
 90
    32897
280
     1
281
     0
  0
CLASS
  1
AEC_DISP_REP_DOOR_PLAN
  2
AecDbDispRepDoorPlan
  3
AecArchBase
 90
    32897
280
     1
281
     0
  0
CLASS
  1
AEC_DISP_REP_DOOR_MODEL
  2
AecDbDispRepDoorModel
  3
AecArchBase
 90
    32897
280
     1
281
     0
  0
CLASS
  1
AEC_DISP_REP_MVBLOCK_REF_RCP
  2
AecDbDispRepMvBlockRefRcp
  3
AecArchBase
 90
    32897
280
     1
281
     0
  0
CLASS
  1
AEC_DISP_REP_MASS_GROUP_RCP
  2
AecDbDispRepMassGroupRcp
  3
AecArchBase
 90
    32897
280
     1
281
     0
  0
CLASS
  1
AEC_DISP_REP_MASS_ELEM_RCP
  2
AecDbDispRepMassElemRcp
  3
AecArchBase
 90
    32897
280
     1
281
     0
  0
CLASS
  1
AEC_DISP_REP_MASKBLOCK_REF_RCP
  2
AecDbDispRepMaskBlockRefRcp
  3
AecArchBase
 90
    32897
280
     1
281
     0
  0
CLASS
  1
AEC_DISP_REP_COLUMN_GRID_RCP
  2
AecDbDispRepColumnGridRcp
  3
AecArchBase
 90
    32897
280
     1
281
     0
  0
CLASS
  1
AEC_DISP_REP_COLUMN_GRID_MODEL
  2
AecDbDispRepColumnGridModel
  3
AecArchBase
 90
    32897
280
     1
281
     0
  0
CLASS
  1
AEC_DISP_REP_COLUMN_GRID
  2
AecDbDispRepColumnGrid
  3
AecArchBase
 90
    32897
280
     1
281
     0
  0
CLASS
  1
AEC_DISP_REP_CEILING_GRID_RCP
  2
AecDbDispRepCeilingGridRcp
  3
AecArchBase
 90
    32897
280
     1
281
     0
  0
CLASS
  1
AEC_DISP_REP_CEILING_GRID_MODEL
  2
AecDbDispRepCeilingGridModel
  3
AecArchBase
 90
    32897
280
     1
281
     0
  0
CLASS
  1
AEC_DISP_REP_CEILING_GRID
  2
AecDbDispRepCeilingGrid
  3
AecArchBase
 90
    33661
280
     1
281
     0
  0
CLASS
  1
AEC_DISP_REP_BDG_SECTION_SUBDIV
  2
AecDbDispRepBdgSectionSubDiv
  3
AecArchBase
 90
    32897
280
     1
281
     0
  0
CLASS
  1
AEC_DISP_REP_BDG_SECTION_MODEL
  2
AecDbDispRepBdgSectionModel
  3
AecArchBase
 90
    32897
280
     1
281
     0
  0
CLASS
  1
AEC_DISP_REP_BDG_SECTIONLINE_RCP
  2
AecDbDispRepBdgSectionLineRcp
  3
AecArchBase
 90
    32897
280
     1
281
     0
  0
CLASS
  1
AEC_DISP_REP_BDG_SECTIONLINE_PLAN
  2
AecDbDispRepBdgSectionLinePlan
  3
AecArchBase
 90
    32897
280
     1
281
     0
  0
CLASS
  1
AEC_DISP_REP_BDG_ELEVLINE_RCP
  2
AecDbDispRepBdgElevLineRcp
  3
AecArchBase
 90
    32897
280
     1
281
     0
  0
CLASS
  1
AEC_DISP_REP_BDG_ELEVLINE_PLAN
  2
AecDbDispRepBdgElevLinePlan
  3
AecArchBase
 90
    32897
280
     1
281
     0
  0
CLASS
  1
AEC_DISP_REP_BDG_SECTIONLINE_MODEL
  2
AecDbDispRepBdgSectionLineModel
  3
AecArchBase
 90
    32897
280
     1
281
     0
  0
CLASS
  1
AEC_DISP_REP_BDG_ELEVLINE_MODEL
  2
AecDbDispRepBdgElevLineModel
  3
AecArchBase
 90
    32897
280
     1
281
     0
  0
CLASS
  1
AEC_DISP_REP_ANCHOR_BUB_TO_GRID_RCP
  2
AecDbDispRepAnchorBubToGridRcp
  3
AecArchBase
 90
    32897
280
     1
281
     0
  0
CLASS
  1
AEC_DISP_REP_ANCHOR_BUB_TO_GRID_MODEL
  2
AecDbDispRepAnchorBubToGridMdl
  3
AecArchBase
 90
    32897
280
     1
281
     0
  0
CLASS
  1
AEC_DISP_REP_ANCHOR_BUB_TO_GRID
  2
AecDbDispRepAnchorBubToGrid
  3
AecArchBase
 90
    32897
280
     1
281
     0
  0
CLASS
  1
AEC_DISP_REP_WINDOW_RCP
  2
AecDbDispRepWindowRcp
  3
AecArchBase
 90
    32897
280
     1
281
     0
  0
CLASS
  1
AEC_DISP_PROPS_WINDOW
  2
AecDbDispPropsWindow
  3
AecArchBase
 90
    32897
280
     1
281
     0
  0
CLASS
  1
AEC_DISP_REP_ROOF_RCP
  2
AecDbDispRepRoofRcp
  3
AecArchBase
 90
    32897
280
     1
281
     0
  0
CLASS
  1
AEC_DISP_PROPS_ROOF
  2
AecDbDispPropsRoof
  3
AecArchBase
 90
    32897
280
     1
281
     0
  0
CLASS
  1
AEC_DISP_REP_ROOF_PLAN
  2
AecDbDispRepRoofPlan
  3
AecArchBase
 90
    32897
280
     1
281
     0
  0
CLASS
  1
AEC_DISP_REP_WINDOW_SILL_PLAN
  2
AecDbDispRepWindowSillPlan
  3
AecArchBase
 90
    32897
280
     1
281
     0
  0
CLASS
  1
AEC_DISP_PROPS_WINDOW_SILL_PLAN
  2
AecDbDispPropsWindowSillPlan
  3
AecArchBase
 90
    32897
280
     1
281
     0
  0
CLASS
  1
AEC_DISP_REP_SPACE_PLAN
  2
AecDbDispRepSpacePlan
  3
AecArchBase
 90
    32897
280
     1
281
     0
  0
CLASS
  1
AEC_DISP_PROPS_SPACE_PLAN
  2
AecDbDispPropsSpacePlan
  3
AecArchBase
 90
    32897
280
     1
281
     0
  0
CLASS
  1
AEC_DISP_REP_SPACE_MODEL
  2
AecDbDispRepSpaceModel
  3
AecArchBase
 90
    32897
280
     1
281
     0
  0
CLASS
  1
AEC_DISP_PROPS_SPACE_MODEL
  2
AecDbDispPropsSpaceModel
  3
AecArchBase
 90
    32897
280
     1
281
     0
  0
CLASS
  1
AEC_DISP_REP_WINDOW_MODEL
  2
AecDbDispRepWindowModel
  3
AecArchBase
 90
    32897
280
     1
281
     0
  0
CLASS
  1
AEC_DISP_REP_WINDOW_NOMINAL
  2
AecDbDispRepWindowNominal
  3
AecArchBase
 90
    32897
280
     1
281
     0
  0
CLASS
  1
AEC_DISP_PROPS_WINDOW_NOMINAL
  2
AecDbDispPropsWindowNominal
  3
AecArchBase
 90
    32897
280
     1
281
     0
  0
CLASS
  1
AEC_DISP_REP_OPENING
  2
AecDbDispRepOpening
  3
AecArchBase
 90
    32897
280
     1
281
     0
  0
CLASS
  1
AEC_DISP_PROPS_OPENING
  2
AecDbDispPropsOpening
  3
AecArchBase
 90
    32897
280
     1
281
     0
  0
CLASS
  1
AEC_DISP_REP_OPENING_MODEL
  2
AecDbDispRepOpeningModel
  3
AecArchBase
 90
    32897
280
     1
281
     0
  0
CLASS
  1
AEC_DISP_REP_RAILING_PLAN
  2
AecDbDispRepRailingPlan
  3
AecArchBase
 90
    32897
280
     1
281
     0
  0
CLASS
  1
AEC_DISP_PROPS_RAILING_PLAN
  2
AecDbDispPropsRailingPlan
  3
AecArchBase
 90
    32897
280
     1
281
     0
  0
CLASS
  1
AEC_DISP_REP_RAILING_MODEL
  2
AecDbDispRepRailingModel
  3
AecArchBase
 90
    32897
280
     1
281
     0
  0
CLASS
  1
AEC_DISP_PROPS_RAILING_MODEL
  2
AecDbDispPropsRailingModel
  3
AecArchBase
 90
    32897
280
     1
281
     0
  0
CLASS
  1
AEC_DISP_REP_WINDOW_ELEV
  2
AecDbDispRepWindowElev
  3
AecArchBase
 90
    32897
280
     1
281
     0
  0
CLASS
  1
AEC_DISP_REP_DOOR_THRESHOLD_PLAN
  2
AecDbDispRepDoorThresholdPlan
  3
AecArchBase
 90
    32897
280
     1
281
     0
  0
CLASS
  1
AEC_DISP_PROPS_DOOR_THRESHOLD_PLAN
  2
AecDbDispPropsDoorThresholdPlan
  3
AecArchBase
 90
    32897
280
     1
281
     0
  0
CLASS
  1
AEC_DISP_REP_ROOF_MODEL
  2
AecDbDispRepRoofModel
  3
AecArchBase
 90
    32897
280
     1
281
     0
  0
CLASS
  1
AEC_DISP_REP_WINDOW_PLAN
  2
AecDbDispRepWindowPlan
  3
AecArchBase
 90
    32897
280
     1
281
     0
  0
CLASS
  1
AEC_DISP_REP_WALL_SCHEM
  2
AecDbDispRepWallSchem
  3
AecArchBase
 90
    32897
280
     1
281
     0
  0
CLASS
  1
AEC_DISP_PROPS_WALL_SCHEM
  2
AecDbDispPropsWallSchem
  3
AecArchBase
 90
    32897
280
     1
281
     0
  0
CLASS
  1
AEC_DISP_REP_WALL_RCP
  2
AecDbDispRepWallRcp
  3
AecArchBase
 90
    32897
280
     1
281
     0
  0
CLASS
  1
AEC_DISP_PROPS_WALL_PLAN
  2
AecDbDispPropsWallPlan
  3
AecArchBase
 90
    32897
280
     1
281
     0
  0
CLASS
  1
AEC_DISP_REP_WALL_PLAN
  2
AecDbDispRepWallPlan
  3
AecArchBase
 90
    32897
280
     1
281
     0
  0
CLASS
  1
AEC_DISP_REP_WALL_MODEL
  2
AecDbDispRepWallModel
  3
AecArchBase
 90
    32897
280
     1
281
     0
  0
CLASS
  1
AEC_DISP_PROPS_WALL
  2
AecDbDispPropsWall
  3
AecArchBase
 90
    32897
280
     1
281
     0
  0
CLASS
  1
AEC_DISP_REP_WALL_GRAPH
  2
AecDbDispRepWallGraph
  3
AecArchBase
 90
    32897
280
     1
281
     0
  0
CLASS
  1
AEC_DISP_REP_STAIR_RCP
  2
AecDbDispRepStairRcp
  3
AecArchBase
 90
    32897
280
     1
281
     0
  0
CLASS
  1
AEC_DISP_PROPS_STAIR_PLAN
  2
AecDbDispPropsStairPlan
  3
AecArchBase
 90
    32897
280
     1
281
     0
  0
CLASS
  1
AEC_DISP_REP_STAIR_PLAN
  2
AecDbDispRepStairPlan
  3
AecArchBase
 90
    32897
280
     1
281
     0
  0
CLASS
  1
AEC_DISP_REP_STAIR_MODEL
  2
AecDbDispRepStairModel
  3
AecArchBase
 90
    32897
280
     1
281
     0
  0
CLASS
  1
AEC_DISP_PROPS_STAIR_MODEL
  2
AecDbDispPropsStairModel
  3
AecArchBase
 90
    32897
280
     1
281
     0
  0
CLASS
  1
AEC_DISP_REP_SPACE_BOUNDARY_SCHEM
  2
AecDbDispRepSpaceBoundarySketch
  3
AecArchBase
 90
    32897
280
     1
281
     0
  0
CLASS
  1
AEC_DISP_REP_SPACE_BOUNDARY_PLAN
  2
AecDbDispRepSpaceBoundaryPlan
  3
AecArchBase
 90
    32897
280
     1
281
     0
  0
CLASS
  1
AEC_DISP_REP_SPACE_BOUNDARY_MODEL
  2
AecDbDispRepSpaceBoundaryModel
  3
AecArchBase
 90
    32897
280
     1
281
     0
  0
CLASS
  1
AEC_DISP_REP_SPACE_BOUNDARY_DIAGRAM
  2
AecDbDispRepSpaceBoundaryDgrm
  3
AecArchBase
 90
    32897
280
     1
281
     0
  0
CLASS
  1
AEC_DISP_REP_SPACE_VOLUME
  2
AecDbDispRepSpaceVolume
  3
AecArchBase
 90
    32897
280
     1
281
     0
  0
CLASS
  1
AEC_DISP_REP_SPACE_RCP
  2
AecDbDispRepSpaceRcp
  3
AecArchBase
 90
    32897
280
     1
281
     0
  0
CLASS
  1
AEC_DISP_REP_ANCHOR_TAG_TO_ENT
  2
AecDbDispRepAnchorTagToEnt
  3
AecScheduleData
 90
    32897
280
     1
281
     0
  0
CLASS
  1
AEC_DISP_REP_SCHEDULE_TABLE
  2
AecDbDispRepScheduleTable
  3
AecSchedule
 90
    32897
280
     1
281
     0
  0
CLASS
  1
AEC_DISP_PROPS_SCHEDULE_TABLE
  2
AecDbDispPropsScheduleTable
  3
AecSchedule
 90
    32897
280
     1
281
     0
  0
CLASS
  1
AEC_DISP_REP_SET
  2
AecDbDispRepSet
  3
AecBase
 90
    32897
280
     1
281
     0
  0
CLASS
  1
AEC_DISP_REP_CONFIG
  2
AecDbDispRepConfig
  3
AecBase
 90
    32897
280
     1
281
     0
  0
CLASS
  1
TABLESTYLE
  2
AcDbTableStyle
  3
ObjectDBX Classes
 90
     4095
280
     0
281
     0
  0
CLASS
  1
MATERIAL
  2
AcDbMaterial
  3
ObjectDBX Classes
 90
     1153
280
     0
281
     0
  0
CLASS
  1
VISUALSTYLE
  2
AcDbVisualStyle
  3
ObjectDBX Classes
 90
     4095
280
     0
281
     0
  0
CLASS
  1
SCALE
  2
AcDbScale
  3
ObjectDBX Classes
 90
     1153
280
     0
281
     0
  0
CLASS
  1
MLEADERSTYLE
  2
AcDbMLeaderStyle
  3
ACDB_MLEADERSTYLE_CLASS
 90
    36863
280
     0
281
     0
  0
CLASS
  1
ACDBSECTIONVIEWSTYLE
  2
AcDbSectionViewStyle
  3
ObjectDBX Classes
 90
    33793
280
     0
281
     0
  0
CLASS
  1
ACDBDETAILVIEWSTYLE
  2
AcDbDetailViewStyle
  3
ObjectDBX Classes
 90
    33793
280
     0
281
     0
  0
CLASS
  1
CELLSTYLEMAP
  2
AcDbCellStyleMap
  3
ObjectDBX Classes
 90
     1152
280
     0
281
     0
  0
ENDSEC
  0
SECTION
  2
TABLES
  0
TABLE
  2
VPORT
  5
2F
330
0
100
AcDbSymbolTable
 70
     1
  0
VPORT
  5
30
330
2F
100
AcDbSymbolTableRecord
100
AcDbViewportTableRecord
  2
*Active
 70
     0
 10
0.0
 20
0.0
 11
1.0
 21
1.0
 12
307.3852529883504
 22
83.94818132909955
 13
0.0
 23
0.0
 14
1.0
 24
1.0
 15
0.0
 25
0.0
 16
0.0
 26
0.0
 36
1.0
 17
0.0
 27
0.0
 37
0.0
 40
390.6498077484213
 41
2.043307086614173
 42
50.0
 43
0.0
 44
0.0
 50
0.0
 51
0.0
 71
     0
 72
 20000
 73
     1
 74
     1
 75
     0
 76
     0
 77
     0
 78
     0
281
     0
 65
     1
110
0.0
120
0.0
130
0.0
111
1.0
121
0.0
131
0.0
112
0.0
122
1.0
132
0.0
 79
     0
146
0.0
1001
ACAD_NAV_VCDISPLAY
1070
     3
  0
ENDTAB
  0
TABLE
  2
LTYPE
  5
2A
330
0
100
AcDbSymbolTable
 70
     1
  0
LTYPE
  5
2B
330
2A
100
AcDbSymbolTableRecord
100
AcDbLinetypeTableRecord
  2
BYBLOCK
 70
     0
  3

 72
    65
 73
     0
 40
0.0
  0
LTYPE
  5
2C
330
2A
100
AcDbSymbolTableRecord
100
AcDbLinetypeTableRecord
  2
BYLAYER
 70
     0
  3

 72
    65
 73
     0
 40
0.0
  0
LTYPE
  5
14
330
2A
100
AcDbSymbolTableRecord
100
AcDbLinetypeTableRecord
  2
CONTINUOUS
 70
     0
  3
Solid line
 72
    65
 73
     0
 40
0.0
  0
ENDTAB
  0
TABLE
  2
LAYER
  5
26
330
0
100
AcDbSymbolTable
 70
     6
  0
LAYER
  5
6
330
26
100
AcDbSymbolTableRecord
100
AcDbLayerTableRecord
  2
0
 70
     0
 62
     7
  6
CONTINUOUS
370
    -3
390
7
  0
LAYER
  5
8C
330
26
100
AcDbSymbolTableRecord
100
AcDbLayerTableRecord
  2
DEFPOINTS
 70
     0
 62
     7
  6
CONTINUOUS
290
     0
370
    -3
390
7
  0
LAYER
  5
81
330
26
100
AcDbSymbolTableRecord
100
AcDbLayerTableRecord
  2
SUNPOU
 70
     0
 62
    70
  6
CONTINUOUS
370
    -3
390
7
  0
LAYER
  5
63
330
26
100
AcDbSymbolTableRecord
100
AcDbLayerTableRecord
  2
KIJUN
 70
     0
 62
     7
  6
CONTINUOUS
370
    -3
390
7
  0
LAYER
  5
20D
330
26
100
AcDbSymbolTableRecord
100
AcDbLayerTableRecord
  2
HOJO
 70
     0
 62
     3
  6
CONTINUOUS
370
    -3
390
7
  0
LAYER
  5
20F
330
26
100
AcDbSymbolTableRecord
100
AcDbLayerTableRecord
  2
WAKU
 70
     0
 62
     1
  6
CONTINUOUS
370
    -3
390
7
  0
ENDTAB
  0
TABLE
  2
STYLE
  5
27
330
0
100
AcDbSymbolTable
 70
     3
  0
STYLE
  5
28
330
27
100
AcDbSymbolTableRecord
100
AcDbTextStyleTableRecord
  2
STANDARD
 70
     0
 40
0.0
 41
1.0
 50
0.0
 71
     0
 42
0.2
  3
txt
  4

  0
STYLE
  5
4C
330
27
100
AcDbSymbolTableRecord
100
AcDbTextStyleTableRecord
  2
SUNPOU
 70
     0
 40
0.0
 41
1.0
 50
0.0
 71
     0
 42
30.0
  3
txt
  4
bigfont
  0
STYLE
  5
8A
330
27
100
AcDbSymbolTableRecord
100
AcDbTextStyleTableRecord
  2
LIFE
 70
     0
 40
0.0
 41
0.7
 50
0.0
 71
     0
 42
10.0
  3
romans
  4
extfont
  0
ENDTAB
  0
TABLE
  2
VIEW
  5
2D
330
0
100
AcDbSymbolTable
 70
     0
  0
ENDTAB
  0
TABLE
  2
UCS
  5
2E
330
0
100
AcDbSymbolTable
 70
     0
  0
ENDTAB
  0
TABLE
  2
APPID
  5
34
330
0
100
AcDbSymbolTable
 70
     2
  0
APPID
  5
A
330
34
100
AcDbSymbolTableRecord
100
AcDbRegAppTableRecord
  2
ACAD
 70
     0
  0
APPID
  5
33
330
34
100
AcDbSymbolTableRecord
100
AcDbRegAppTableRecord
  2
ACAD_NAV_VCDISPLAY
 70
     0
  0
ENDTAB
  0
TABLE
  2
DIMSTYLE
  5
35
330
0
100
AcDbSymbolTable
 70
     3
100
AcDbDimStyleTable
 71
     2
340
36
340
3B
  0
DIMSTYLE
105
36
330
35
100
AcDbSymbolTableRecord
100
AcDbDimStyleTableRecord
  2
STANDARD
 70
     0
 41
3.0
 42
2.0
 44
0.0
 73
     0
 74
     0
 77
     1
140
2.799999999999998
141
1.0
146
0.0642857142857143
147
1.0
173
     1
174
     1
176
    60
177
    70
178
    60
271
     0
340
28
341
37
343
37
344
37
  0
DIMSTYLE
105
90
102
{ACAD_REACTORS
330
80
330
1FF
102
}
330
35
100
AcDbSymbolTableRecord
100
AcDbDimStyleTableRecord
  2
STANDARD$0
 70
     0
 40
2.0
 41
1.0
 42
2.0
 43
0.0
 44
1.0
 73
     0
 74
     0
 77
     3
 78
     9
140
4.5
141
0.0
147
1.0
172
     1
173
     1
178
     3
271
     2
340
8A
341
91
343
91
344
91
  0
DIMSTYLE
105
3B
330
35
100
AcDbSymbolTableRecord
100
AcDbDimStyleTableRecord
  2
1
 70
     0
 41
3.0
 42
2.0
 44
0.0
 73
     0
 74
     0
 77
     1
140
7.0
141
1.0
146
0.0642857142857143
147
1.0
173
     1
174
     1
176
    60
177
    70
178
    60
271
     0
340
28
341
37
343
37
344
37
  0
ENDTAB
  0
TABLE
  2
BLOCK_RECORD
  5
1
330
0
100
AcDbSymbolTable
 70
     4
  0
BLOCK_RECORD
  5
2
102
{ACAD_XDICTIONARY
360
3
102
}
330
1
100
AcDbSymbolTableRecord
100
AcDbBlockTableRecord
  2
*MODEL_SPACE
340
1E
  0
BLOCK_RECORD
  5
20
102
{ACAD_XDICTIONARY
360
21
102
}
330
1
100
AcDbSymbolTableRecord
100
AcDbBlockTableRecord
  2
*PAPER_SPACE
340
25
  0
BLOCK_RECORD
  5
37
330
1
100
AcDbSymbolTableRecord
100
AcDbBlockTableRecord
  2
_DOTSMALL
340
0
102
{BLKREFS
331
87
331
88
331
205
331
206
102
}
  0
BLOCK_RECORD
  5
91
330
1
100
AcDbSymbolTableRecord
100
AcDbBlockTableRecord
  2
_DOT
340
0
  0
BLOCK_RECORD
  5
200
330
1
100
AcDbSymbolTableRecord
100
AcDbBlockTableRecord
  2
*D2
340
0
  0
BLOCK_RECORD
  5
82
330
1
100
AcDbSymbolTableRecord
100
AcDbBlockTableRecord
  2
*D3
340
0
  0
ENDTAB
  0
ENDSEC
  0
SECTION
  2
BLOCKS
  0
BLOCK
  5
5
330
2
100
AcDbEntity
  8
0
100
AcDbBlockBegin
  2
*MODEL_SPACE
 70
     0
 10
0.0
 20
0.0
 30
0.0
  3
*MODEL_SPACE
  1

  0
ENDBLK
  5
1D
330
2
100
AcDbEntity
  8
0
100
AcDbBlockEnd
  0
BLOCK
  5
23
330
20
100
AcDbEntity
 67
     1
  8
0
100
AcDbBlockBegin
  2
*PAPER_SPACE
 70
     0
 10
0.0
 20
0.0
 30
0.0
  3
*PAPER_SPACE
  1

  0
ENDBLK
  5
24
330
20
100
AcDbEntity
 67
     1
  8
0
100
AcDbBlockEnd
  0
BLOCK
  5
38
330
37
100
AcDbEntity
  8
0
100
AcDbBlockBegin
  2
_DOTSMALL
 70
     0
 10
0.0
 20
0.0
 30
0.0
  3
_DOTSMALL
  1

  0
LWPOLYLINE
  5
39
330
37
100
AcDbEntity
  8
0
  6
ByBlock
 62
     0
100
AcDbPolyline
 90
        2
 70
     1
 43
0.5
 10
-0.0625
 20
0.0
 42
1.0
 10
0.0625
 20
0.0
 42
1.0
  0
ENDBLK
  5
3A
330
37
100
AcDbEntity
  8
0
100
AcDbBlockEnd
  0
BLOCK
  5
92
330
91
100
AcDbEntity
  8
0
100
AcDbBlockBegin
  2
_DOT
 70
     0
 10
0.0
 20
0.0
 30
0.0
  3
_DOT
  1

  0
LWPOLYLINE
  5
93
330
91
100
AcDbEntity
  8
0
  6
ByBlock
 62
     0
100
AcDbPolyline
 90
        2
 70
     1
 43
0.5
 10
-0.25
 20
0.0
 42
1.0
 10
0.25
 20
0.0
 42
1.0
  0
LINE
  5
94
330
91
100
AcDbEntity
  8
0
  6
ByBlock
 62
     0
100
AcDbLine
 10
-0.5
 20
0.0
 30
0.0
 11
-1.0
 21
0.0
 31
0.0
  0
ENDBLK
  5
95
330
91
100
AcDbEntity
  8
0
100
AcDbBlockEnd
  0
BLOCK
  5
201
330
200
100
AcDbEntity
  8
0
 62
     7
100
AcDbBlockBegin
  2
*D2
 70
     1
 10
0.0
 20
0.0
 30
0.0
  3
*D2
  1

  0
LINE
  5
202
330
200
100
AcDbEntity
  8
SUNPOU
 62
    70
370
    -2
100
AcDbLine
 10
22.60778862658748
 20
54.5573968984207
 30
0.0
 11
22.60778862658748
 21
60.15958215779233
 31
0.0
  0
LINE
  5
203
330
200
100
AcDbEntity
  8
SUNPOU
 62
    70
370
    -2
100
AcDbLine
 10
51.60778862658748
 20
54.5573968984207
 30
0.0
 11
51.60778862658748
 21
60.15958215779233
 31
0.0
  0
LINE
  5
204
330
200
100
AcDbEntity
  8
SUNPOU
 62
    60
370
    -2
100
AcDbLine
 10
22.60778862658748
 20
60.15958215779233
 30
0.0
 11
51.60778862658748
 21
60.15958215779233
 31
0.0
  0
INSERT
  5
205
330
200
100
AcDbEntity
  8
SUNPOU
 62
    60
370
    -2
100
AcDbBlockReference
  2
_DOTSMALL
 10
22.60778862658748
 20
60.15958215779233
 30
0.0
 41
4.0
 42
4.0
 43
4.0
 50
180.0
  0
INSERT
  5
206
330
200
100
AcDbEntity
  8
SUNPOU
 62
    60
370
    -2
100
AcDbBlockReference
  2
_DOTSMALL
 10
51.60778862658748
 20
60.15958215779233
 30
0.0
 41
4.0
 42
4.0
 43
4.0
  0
MTEXT
  5
207
330
200
100
AcDbEntity
  8
SUNPOU
 62
    60
100
AcDbMText
 10
37.10778862658748
 20
65.15958215779233
 30
0.0
 40
6.0
 41
0.0
 71
     5
 72
     1
  1
\A1;24
  7
LIFE
 73
     1
 44
1.0
1001
ACAD
1000
MTEXTBEGIN
1070
    73
1070
     1
1070
    44
1040
1.0
1070
    74
1070
     0
1000
MTEXTEND
  0
POINT
  5
208
330
200
100
AcDbEntity
  8
DEFPOINTS
 62
     0
100
AcDbPoint
 10
22.60778862658748
 20
50.5573968984207
 30
0.0
  0
POINT
  5
209
330
200
100
AcDbEntity
  8
DEFPOINTS
 62
     0
100
AcDbPoint
 10
51.60778862658748
 20
50.5573968984207
 30
0.0
  0
POINT
  5
20A
330
200
100
AcDbEntity
  8
DEFPOINTS
 62
     0
100
AcDbPoint
 10
51.60778862658748
 20
60.15958215779233
 30
0.0
  0
ENDBLK
  5
20B
330
200
100
AcDbEntity
  8
0
 62
     7
100
AcDbBlockEnd
  0
BLOCK
  5
83
330
82
100
AcDbEntity
  8
0
 62
     7
100
AcDbBlockBegin
  2
*D3
 70
     1
 10
0.0
 20
0.0
 30
0.0
  3
*D3
  1

  0
LINE
  5
84
330
82
100
AcDbEntity
  8
SUNPOU
 62
    70
370
    -2
100
AcDbLine
 10
18.85363572392088
 20
31.55739689842093
 30
0.0
 11
10.59799153556053
 21
31.55739689842093
 31
0.0
  0
LINE
  5
85
330
82
100
AcDbEntity
  8
SUNPOU
 62
    70
370
    -2
100
AcDbLine
 10
18.60778862658747
 20
50.75739689842071
 30
0.0
 11
10.59799153556054
 21
50.75739689842071
 31
0.0
  0
LINE
  5
86
330
82
100
AcDbEntity
  8
SUNPOU
 62
    60
370
    -2
100
AcDbLine
 10
10.59799153556053
 20
31.55739689842093
 30
0.0
 11
10.59799153556054
 21
50.75739689842071
 31
0.0
  0
INSERT
  5
87
330
82
100
AcDbEntity
  8
SUNPOU
 62
    60
370
    -2
100
AcDbBlockReference
  2
_DOTSMALL
 10
10.59799153556053
 20
31.55739689842093
 30
0.0
 41
4.0
 42
4.0
 43
4.0
 50
270.0
  0
INSERT
  5
88
330
82
100
AcDbEntity
  8
SUNPOU
 62
    60
370
    -2
100
AcDbBlockReference
  2
_DOTSMALL
 10
10.59799153556054
 20
50.75739689842071
 30
0.0
 41
4.0
 42
4.0
 43
4.0
 50
90.0
  0
MTEXT
  5
89
330
82
100
AcDbEntity
  8
SUNPOU
 62
    60
100
AcDbMText
 10
5.59799153556053
 20
41.15739689842082
 30
0.0
 40
6.0
 41
0.0
 71
     5
 72
     1
  1
\A1;16
  7
LIFE
 11
0.0000000000000001
 21
1.0
 31
0.0
 73
     1
 44
1.0
1001
ACAD
1000
MTEXTBEGIN
1070
    73
1070
     1
1070
    44
1040
1.0
1070
    74
1070
     0
1000
MTEXTEND
  0
POINT
  5
8B
330
82
100
AcDbEntity
  8
DEFPOINTS
 62
     0
100
AcDbPoint
 10
22.85363572392088
 20
31.55739689842093
 30
0.0
  0
POINT
  5
8D
330
82
100
AcDbEntity
  8
DEFPOINTS
 62
     0
100
AcDbPoint
 10
22.60778862658748
 20
50.75739689842071
 30
0.0
  0
POINT
  5
8E
330
82
100
AcDbEntity
  8
DEFPOINTS
 62
     0
100
AcDbPoint
 10
10.59799153556054
 20
50.75739689842071
 30
0.0
  0
ENDBLK
  5
8F
330
82
100
AcDbEntity
  8
0
 62
     7
100
AcDbBlockEnd
  0
ENDSEC
  0
SECTION
  2
ENTITIES
  0
ARC
  5
62
330
2
100
AcDbEntity
  8
KIJUN
 62
     7
100
AcDbCircle
 10
333.4688140583164
 20
41.4724678503135
 30
0.0
 40
1.186405552594083
100
AcDbArc
 50
20.35272927117458
 51
129.4114137054883
  0
ARC
  5
64
330
2
100
AcDbEntity
  8
KIJUN
 62
     7
100
AcDbCircle
 10
333.8634288330973
 20
41.7613187323873
 30
0.0
 40
2.598812642507719
100
AcDbArc
 50
347.0634050151971
 51
103.7873549223451
  0
ARC
  5
65
330
2
100
AcDbEntity
  8
KIJUN
 62
     7
100
AcDbCircle
 10
332.3009136018042
 20
42.18733267714153
 30
0.0
 40
2.30018048826267
100
AcDbArc
 50
352.4497289817157
 51
65.7925849488356
  0
LINE
  5
66
330
2
100
AcDbEntity
  8
KIJUN
 62
     7
100
AcDbLine
 10
214.9195953102159
 20
35.78167969872087
 30
0.0
 11
349.6695953102159
 21
35.78167969872086
 31
0.0
  0
LINE
  5
67
330
2
100
AcDbEntity
  8
KIJUN
 62
     7
100
AcDbLine
 10
214.9195953102159
 20
35.07610799923538
 30
0.0
 11
349.6695953102159
 21
35.07610799923535
 31
0.0
  0
LINE
  5
68
330
2
100
AcDbEntity
  8
KIJUN
 62
     7
100
AcDbLine
 10
214.9195953102159
 20
31.55739689842044
 30
0.0
 11
349.6695953102157
 21
31.55739689841996
 31
0.0
  0
LINE
  5
69
330
2
100
AcDbEntity
  8
KIJUN
 62
     7
100
AcDbLine
 10
214.9195953102159
 20
50.75739689842071
 30
0.0
 11
349.6695953102159
 21
50.75739689842068
 31
0.0
  0
LINE
  5
6A
330
2
100
AcDbEntity
  8
KIJUN
 62
     7
100
AcDbLine
 10
214.9195953102159
 20
45.43102068264854
 30
0.0
 11
349.6695953102159
 21
45.43102068264853
 31
0.0
  0
ARC
  5
6B
330
2
100
AcDbEntity
  8
KIJUN
 62
     7
100
AcDbCircle
 10
332.0121433367245
 20
41.51120444398568
 30
0.0
 40
5.162818374113481
100
AcDbArc
 50
318.7217719435281
 51
19.90474642220968
  0
ARC
  5
6C
330
2
100
AcDbEntity
  8
KIJUN
 62
     7
100
AcDbCircle
 10
333.3042112822755
 20
41.40660597582612
 30
0.0
 40
5.032257579205856
100
AcDbArc
 50
319.000933068048
 51
27.75164924871539
  0
LINE
  5
6D
330
2
100
AcDbEntity
  8
KIJUN
 62
     7
100
AcDbLine
 10
338.2178738115606
 20
36.58690821666007
 30
0.0
 11
339.8246732614858
 21
40.82146370641478
 31
0.0
  0
ARC
  5
6E
330
2
100
AcDbEntity
  8
KIJUN
 62
     7
100
AcDbCircle
 10
279.7847830236302
 20
10.87334287646448
 30
0.0
 40
67.77697168790613
100
AcDbArc
 50
22.2656304000788
 51
26.26899091120006
  0
ARC
  5
6F
330
2
100
AcDbEntity
  8
KIJUN
 62
     7
100
AcDbCircle
 10
348.5765219457613
 20
40.75171329656951
 30
0.0
 40
2.132147539918503
100
AcDbArc
 50
129.8299606752888
 51
288.8738455177826
  0
ARC
  5
70
330
2
100
AcDbEntity
  8
KIJUN
 62
     7
100
AcDbCircle
 10
347.9142975351694
 20
41.51120444398568
 30
0.0
 40
5.162818374113481
100
AcDbArc
 50
160.0952535777893
 51
221.2782280564718
  0
ARC
  5
71
330
2
100
AcDbEntity
  8
KIJUN
 62
     7
100
AcDbCircle
 10
346.6222295896183
 20
41.40660597582612
 30
0.0
 40
5.032257579205856
100
AcDbArc
 50
152.2483507512844
 51
220.999066931952
  0
ARC
  5
72
330
2
100
AcDbEntity
  8
KIJUN
 62
     7
100
AcDbCircle
 10
348.5358851629919
 20
39.86012550315993
 30
0.0
 40
1.227739216330264
100
AcDbArc
 50
22.56977229973366
 51
337.4302277002656
  0
ARC
  5
73
330
2
100
AcDbEntity
  8
KIJUN
 62
     7
100
AcDbCircle
 10
338.5226817354838
 20
41.26617535403787
 30
0.0
 40
2.598812642507719
100
AcDbArc
 50
107.1206789773027
 51
149.819499465694
  0
ARC
  5
74
330
2
100
AcDbEntity
  8
KIJUN
 62
     7
100
AcDbCircle
 10
339.6187215000524
 20
44.42891607488585
 30
0.0
 40
0.5
100
AcDbArc
 50
46.44916600267676
 51
126.3401741923301
  0
ARC
  5
75
330
2
100
AcDbEntity
  8
KIJUN
 62
     7
100
AcDbCircle
 10
340.2157515354072
 20
40.50992272409168
 30
0.0
 40
0.5
100
AcDbArc
 50
46.14615657424493
 51
141.4584531796573
  0
ARC
  5
76
330
2
100
AcDbEntity
  8
KIJUN
 62
     7
100
AcDbCircle
 10
347.6255272700897
 20
42.18733267714153
 30
0.0
 40
2.30018048826267
100
AcDbArc
 50
114.2074150511642
 51
187.5502710182843
  0
ARC
  5
77
330
2
100
AcDbEntity
  8
KIJUN
 62
     7
100
AcDbCircle
 10
346.4576268135775
 20
41.4724678503135
 30
0.0
 40
1.186405552594083
100
AcDbArc
 50
50.58858629451131
 51
159.6472707288253
  0
ARC
  5
78
330
2
100
AcDbEntity
  8
KIJUN
 62
     7
100
AcDbCircle
 10
346.0630120387965
 20
41.7613187323873
 30
0.0
 40
2.598812642507719
100
AcDbArc
 50
76.21264507765484
 51
192.9365949848028
  0
ARC
  5
79
330
2
100
AcDbEntity
  8
KIJUN
 62
     7
100
AcDbCircle
 10
341.40375913641
 20
41.26617535403787
 30
0.0
 40
2.598812642507719
100
AcDbArc
 50
30.18050053430565
 51
72.87932102269689
  0
ARC
  5
7A
330
2
100
AcDbEntity
  8
KIJUN
 62
     7
100
AcDbCircle
 10
361.8744056538114
 20
14.17595590345582
 30
0.0
 40
38.05738377850636
100
AcDbArc
 50
126.3401741923301
 51
129.2295785746241
  0
ARC
  5
7B
330
2
100
AcDbEntity
  8
KIJUN
 62
     7
100
AcDbCircle
 10
322.8898913327504
 20
26.83170175645275
 30
0.0
 40
24.77994461557308
100
AcDbArc
 50
40.64465911434824
 51
46.44916600266667
  0
CIRCLE
  5
7C
330
2
100
AcDbEntity
  8
KIJUN
 62
     7
100
AcDbCircle
 10
348.737546079412
 20
42.63203427122155
 30
0.0
 40
0.9444147817925111
  0
ARC
  5
7D
330
2
100
AcDbEntity
  8
KIJUN
 62
     7
100
AcDbCircle
 10
350.0157049379151
 20
44.33550290204951
 30
0.0
 40
0.9444147817925111
100
AcDbArc
 50
111.4987253514077
 51
248.5012746485923
  0
ARC
  5
7E
330
2
100
AcDbEntity
  8
KIJUN
 62
     7
100
AcDbCircle
 10
338.6089520854822
 20
36.27536723433742
 30
0.0
 40
0.5
100
AcDbArc
 50
141.4584531796585
 51
269.3565194003615
  0
ARC
  5
7F
330
2
100
AcDbEntity
  8
KIJUN
 62
     7
100
AcDbCircle
 10
342.1224369453617
 20
36.23590613573426
 30
0.0
 40
0.5
100
AcDbArc
 50
269.3565194003624
 51
39.5246936706091
  0
DIMENSION
  5
80
330
2
100
AcDbEntity
  8
SUNPOU
100
AcDbDimension
  2
*D3
 10
10.59799153556054
 20
50.75739689842071
 30
0.0
 11
5.59799153556053
 21
41.15739689842082
 31
0.0
  1
16
 71
     5
 42
19.19999999999978
  3
STANDARD$0
100
AcDbAlignedDimension
 13
22.85363572392088
 23
31.55739689842093
 33
0.0
 14
22.60778862658748
 24
50.75739689842071
 34
0.0
 50
270.0
100
AcDbRotatedDimension
1001
ACAD
1000
DSTYLE
1002
{
1070
    41
1040
2.0
1070
    44
1040
0.0
1070
    77
1070
     1
1070
    78
1070
     0
1070
   140
1040
3.0
1070
   141
1040
1.0
1070
   146
1040
0.0642857142857143
1070
   172
1070
     0
1070
   173
1070
     0
1070
   176
1070
    60
1070
   177
1070
    70
1070
   178
1070
    60
1070
   271
1070
     0
1070
   272
1070
     0
1070
   341
1005
0
1070
   342
1005
37
1070
   343
1005
0
1070
   344
1005
0
1002
}
  0
LINE
  5
96
330
2
100
AcDbEntity
  8
KIJUN
 62
     7
100
AcDbLine
 10
222.7178738115605
 20
36.58690821666009
 30
0.0
 11
224.3246732614859
 21
40.8214637064148
 31
0.0
  0
ARC
  5
97
330
2
100
AcDbEntity
  8
KIJUN
 62
     7
100
AcDbCircle
 10
164.2847830236302
 20
10.87334287646449
 30
0.0
 40
67.77697168790613
100
AcDbArc
 50
22.2656304000788
 51
26.26899091120006
  0
ARC
  5
98
330
2
100
AcDbEntity
  8
KIJUN
 62
     7
100
AcDbCircle
 10
216.5121433367245
 20
41.5112044439857
 30
0.0
 40
5.162818374113481
100
AcDbArc
 50
318.7217719435281
 51
19.90474642220968
  0
ARC
  5
99
330
2
100
AcDbEntity
  8
KIJUN
 62
     7
100
AcDbCircle
 10
217.8042112822756
 20
41.40660597582613
 30
0.0
 40
5.032257579205856
100
AcDbArc
 50
319.000933068048
 51
27.75164924871539
  0
ARC
  5
9A
330
2
100
AcDbEntity
  8
KIJUN
 62
     7
100
AcDbCircle
 10
215.8499189261325
 20
40.75171329656952
 30
0.0
 40
2.132147539918503
100
AcDbArc
 50
251.1261544822169
 51
50.17003932471145
  0
CIRCLE
  5
9B
330
2
100
AcDbEntity
  8
KIJUN
 62
     7
100
AcDbCircle
 10
233.0358851629919
 20
39.8601255031604
 30
0.0
 40
1.227739216330264
  0
ARC
  5
9C
330
2
100
AcDbEntity
  8
KIJUN
 62
     7
100
AcDbCircle
 10
233.0765219457614
 20
40.75171329656952
 30
0.0
 40
2.132147539918503
100
AcDbArc
 50
129.8299606752888
 51
288.8738455177826
  0
ARC
  5
9D
330
2
100
AcDbEntity
  8
KIJUN
 62
     7
100
AcDbCircle
 10
231.1222295896183
 20
41.40660597582613
 30
0.0
 40
5.032257579205856
100
AcDbArc
 50
152.2483507512844
 51
220.999066931952
  0
ARC
  5
9E
330
2
100
AcDbEntity
  8
KIJUN
 62
     7
100
AcDbCircle
 10
232.4142975351694
 20
41.5112044439857
 30
0.0
 40
5.162818374113481
100
AcDbArc
 50
160.0952535777893
 51
221.2782280564718
  0
ARC
  5
9F
330
2
100
AcDbEntity
  8
KIJUN
 62
     7
100
AcDbCircle
 10
215.890555708902
 20
39.8601255031604
 30
0.0
 40
1.227739216330264
100
AcDbArc
 50
217.7347670759702
 51
142.2652329240298
  0
ARC
  5
A0
330
2
100
AcDbEntity
  8
KIJUN
 62
     7
100
AcDbCircle
 10
269.6222295896183
 20
41.40660597582612
 30
0.0
 40
5.032257579205856
100
AcDbArc
 50
152.2483507512844
 51
220.999066931952
  0
ARC
  5
A1
330
2
100
AcDbEntity
  8
KIJUN
 62
     7
100
AcDbCircle
 10
270.9142975351694
 20
41.51120444398568
 30
0.0
 40
5.162818374113481
100
AcDbArc
 50
160.0952535777893
 51
221.2782280564718
  0
ARC
  5
A2
330
2
100
AcDbEntity
  8
KIJUN
 62
     7
100
AcDbCircle
 10
271.5765219457613
 20
40.75171329656952
 30
0.0
 40
2.132147539918503
100
AcDbArc
 50
129.8299606752888
 51
288.8738455177826
  0
ARC
  5
A3
330
2
100
AcDbEntity
  8
KIJUN
 62
     7
100
AcDbCircle
 10
202.7847830236302
 20
10.87334287646449
 30
0.0
 40
67.77697168790613
100
AcDbArc
 50
22.2656304000788
 51
26.26899091120006
  0
LINE
  5
A4
330
2
100
AcDbEntity
  8
KIJUN
 62
     7
100
AcDbLine
 10
261.2178738115606
 20
36.58690821666008
 30
0.0
 11
262.8246732614858
 21
40.82146370641479
 31
0.0
  0
CIRCLE
  5
A5
330
2
100
AcDbEntity
  8
KIJUN
 62
     7
100
AcDbCircle
 10
271.5358851629919
 20
39.8601255031604
 30
0.0
 40
1.227739216330264
  0
CIRCLE
  5
A6
330
2
100
AcDbEntity
  8
KIJUN
 62
     7
100
AcDbCircle
 10
274.0064683872934
 20
39.96091378767008
 30
0.0
 40
1.227739216330264
  0
CIRCLE
  5
A7
330
2
100
AcDbEntity
  8
KIJUN
 62
     7
100
AcDbCircle
 10
254.3905557089021
 20
39.8601255031604
 30
0.0
 40
1.227739216330264
  0
CIRCLE
  5
A8
330
2
100
AcDbEntity
  8
KIJUN
 62
     7
100
AcDbCircle
 10
251.9199724846004
 20
39.9609137876701
 30
0.0
 40
1.227739216330264
  0
ARC
  5
A9
330
2
100
AcDbEntity
  8
KIJUN
 62
     7
100
AcDbCircle
 10
254.3499189261326
 20
40.75171329656952
 30
0.0
 40
2.132147539918503
100
AcDbArc
 50
251.1261544822169
 51
50.17003932471145
  0
ARC
  5
AA
330
2
100
AcDbEntity
  8
KIJUN
 62
     7
100
AcDbCircle
 10
256.3042112822756
 20
41.40660597582613
 30
0.0
 40
5.032257579205856
100
AcDbArc
 50
319.000933068048
 51
27.75164924871539
  0
ARC
  5
AB
330
2
100
AcDbEntity
  8
KIJUN
 62
     7
100
AcDbCircle
 10
255.0121433367246
 20
41.5112044439857
 30
0.0
 40
5.162818374113481
100
AcDbArc
 50
318.7217719435281
 51
19.90474642220968
  0
ARC
  5
AC
330
2
100
AcDbEntity
  8
KIJUN
 62
     7
100
AcDbCircle
 10
250.3722295896184
 20
41.40660597582613
 30
0.0
 40
5.032257579205856
100
AcDbArc
 50
152.2483507512844
 51
220.999066931952
  0
ARC
  5
AD
330
2
100
AcDbEntity
  8
KIJUN
 62
     7
100
AcDbCircle
 10
251.6642975351694
 20
41.5112044439857
 30
0.0
 40
5.162818374113481
100
AcDbArc
 50
160.0952535777893
 51
221.2782280564718
  0
ARC
  5
AE
330
2
100
AcDbEntity
  8
KIJUN
 62
     7
100
AcDbCircle
 10
252.3265219457615
 20
40.75171329656952
 30
0.0
 40
2.132147539918503
100
AcDbArc
 50
129.8299606752888
 51
288.8738455177826
  0
LINE
  5
AF
330
2
100
AcDbEntity
  8
KIJUN
 62
     7
100
AcDbLine
 10
241.9678738115606
 20
36.58690821666009
 30
0.0
 11
243.5746732614858
 21
40.8214637064148
 31
0.0
  0
ARC
  5
B0
330
2
100
AcDbEntity
  8
KIJUN
 62
     7
100
AcDbCircle
 10
183.5347830236302
 20
10.87334287646449
 30
0.0
 40
67.77697168790613
100
AcDbArc
 50
22.2656304000788
 51
26.26899091120006
  0
ARC
  5
B1
330
2
100
AcDbEntity
  8
KIJUN
 62
     7
100
AcDbCircle
 10
235.7621433367246
 20
41.5112044439857
 30
0.0
 40
5.162818374113481
100
AcDbArc
 50
318.7217719435281
 51
19.90474642220968
  0
ARC
  5
B2
330
2
100
AcDbEntity
  8
KIJUN
 62
     7
100
AcDbCircle
 10
237.0542112822756
 20
41.40660597582613
 30
0.0
 40
5.032257579205856
100
AcDbArc
 50
319.000933068048
 51
27.75164924871539
  0
ARC
  5
B3
330
2
100
AcDbEntity
  8
KIJUN
 62
     7
100
AcDbCircle
 10
312.0999189261326
 20
40.75171329656952
 30
0.0
 40
2.132147539918503
100
AcDbArc
 50
251.1261544822169
 51
50.17003932471145
  0
CIRCLE
  5
B4
330
2
100
AcDbEntity
  8
KIJUN
 62
     7
100
AcDbCircle
 10
312.5064683872934
 20
39.96091378766962
 30
0.0
 40
1.227739216330264
  0
ARC
  5
B5
330
2
100
AcDbEntity
  8
KIJUN
 62
     7
100
AcDbCircle
 10
309.4142975351693
 20
41.51120444398568
 30
0.0
 40
5.162818374113481
100
AcDbArc
 50
160.0952535777893
 51
221.2782280564718
  0
ARC
  5
B6
330
2
100
AcDbEntity
  8
KIJUN
 62
     7
100
AcDbCircle
 10
308.1222295896183
 20
41.40660597582612
 30
0.0
 40
5.032257579205856
100
AcDbArc
 50
152.2483507512844
 51
220.999066931952
  0
ARC
  5
B7
330
2
100
AcDbEntity
  8
KIJUN
 62
     7
100
AcDbCircle
 10
310.0765219457613
 20
40.75171329656952
 30
0.0
 40
2.132147539918503
100
AcDbArc
 50
129.8299606752888
 51
288.8738455177826
  0
CIRCLE
  5
B8
330
2
100
AcDbEntity
  8
KIJUN
 62
     7
100
AcDbCircle
 10
310.0358851629918
 20
39.86012550315994
 30
0.0
 40
1.227739216330264
  0
CIRCLE
  5
B9
330
2
100
AcDbEntity
  8
KIJUN
 62
     7
100
AcDbCircle
 10
292.890555708902
 20
39.86012550315994
 30
0.0
 40
1.227739216330264
  0
ARC
  5
BA
330
2
100
AcDbEntity
  8
KIJUN
 62
     7
100
AcDbCircle
 10
292.8499189261326
 20
40.75171329656952
 30
0.0
 40
2.132147539918503
100
AcDbArc
 50
251.1261544822169
 51
50.17003932471145
  0
ARC
  5
BB
330
2
100
AcDbEntity
  8
KIJUN
 62
     7
100
AcDbCircle
 10
294.8042112822755
 20
41.40660597582612
 30
0.0
 40
5.032257579205856
100
AcDbArc
 50
319.000933068048
 51
27.75164924871539
  0
ARC
  5
BC
330
2
100
AcDbEntity
  8
KIJUN
 62
     7
100
AcDbCircle
 10
293.5121433367245
 20
41.51120444398568
 30
0.0
 40
5.162818374113481
100
AcDbArc
 50
318.7217719435281
 51
19.90474642220968
  0
ARC
  5
BD
330
2
100
AcDbEntity
  8
KIJUN
 62
     7
100
AcDbCircle
 10
241.2847830236302
 20
10.87334287646448
 30
0.0
 40
67.77697168790613
100
AcDbArc
 50
22.2656304000788
 51
26.26899091120006
  0
LINE
  5
BE
330
2
100
AcDbEntity
  8
KIJUN
 62
     7
100
AcDbLine
 10
299.7178738115604
 20
36.58690821666008
 30
0.0
 11
301.3246732614858
 21
40.82146370641479
 31
0.0
  0
CIRCLE
  5
BF
330
2
100
AcDbEntity
  8
KIJUN
 62
     7
100
AcDbCircle
 10
290.7858851629919
 20
39.8601255031604
 30
0.0
 40
1.227739216330264
  0
LINE
  5
C0
330
2
100
AcDbEntity
  8
KIJUN
 62
     7
100
AcDbLine
 10
280.4678738115604
 20
36.58690821666008
 30
0.0
 11
282.0746732614858
 21
40.82146370641479
 31
0.0
  0
ARC
  5
C1
330
2
100
AcDbEntity
  8
KIJUN
 62
     7
100
AcDbCircle
 10
222.0347830236303
 20
10.87334287646449
 30
0.0
 40
67.77697168790613
100
AcDbArc
 50
22.2656304000788
 51
26.26899091120006
  0
ARC
  5
C2
330
2
100
AcDbEntity
  8
KIJUN
 62
     7
100
AcDbCircle
 10
274.2621433367245
 20
41.51120444398568
 30
0.0
 40
5.162818374113481
100
AcDbArc
 50
318.7217719435281
 51
19.90474642220968
  0
ARC
  5
C3
330
2
100
AcDbEntity
  8
KIJUN
 62
     7
100
AcDbCircle
 10
275.5542112822755
 20
41.40660597582612
 30
0.0
 40
5.032257579205856
100
AcDbArc
 50
319.000933068048
 51
27.75164924871539
  0
ARC
  5
C4
330
2
100
AcDbEntity
  8
KIJUN
 62
     7
100
AcDbCircle
 10
273.5999189261325
 20
40.75171329656952
 30
0.0
 40
2.132147539918503
100
AcDbArc
 50
251.1261544822169
 51
50.17003932471145
  0
ARC
  5
C5
330
2
100
AcDbEntity
  8
KIJUN
 62
     7
100
AcDbCircle
 10
290.8265219457613
 20
40.75171329656952
 30
0.0
 40
2.132147539918503
100
AcDbArc
 50
129.8299606752888
 51
288.8738455177826
  0
ARC
  5
C6
330
2
100
AcDbEntity
  8
KIJUN
 62
     7
100
AcDbCircle
 10
288.8722295896183
 20
41.40660597582612
 30
0.0
 40
5.032257579205856
100
AcDbArc
 50
152.2483507512844
 51
220.999066931952
  0
ARC
  5
C7
330
2
100
AcDbEntity
  8
KIJUN
 62
     7
100
AcDbCircle
 10
290.1642975351693
 20
41.51120444398568
 30
0.0
 40
5.162818374113481
100
AcDbArc
 50
160.0952535777893
 51
221.2782280564718
  0
CIRCLE
  5
C8
330
2
100
AcDbEntity
  8
KIJUN
 62
     7
100
AcDbCircle
 10
235.5064683872935
 20
39.9609137876701
 30
0.0
 40
1.227739216330264
  0
ARC
  5
C9
330
2
100
AcDbEntity
  8
KIJUN
 62
     7
100
AcDbCircle
 10
235.0999189261326
 20
40.75171329656952
 30
0.0
 40
2.132147539918503
100
AcDbArc
 50
251.1261544822169
 51
50.17003932471145
  0
ARC
  5
CA
330
2
100
AcDbEntity
  8
KIJUN
 62
     7
100
AcDbCircle
 10
314.0542112822755
 20
41.40660597582612
 30
0.0
 40
5.032257579205856
100
AcDbArc
 50
319.000933068048
 51
27.75164924871539
  0
ARC
  5
CB
330
2
100
AcDbEntity
  8
KIJUN
 62
     7
100
AcDbCircle
 10
312.7621433367246
 20
41.51120444398568
 30
0.0
 40
5.162818374113481
100
AcDbArc
 50
318.7217719435281
 51
19.90474642220968
  0
ARC
  5
CC
330
2
100
AcDbEntity
  8
KIJUN
 62
     7
100
AcDbCircle
 10
260.5347830236302
 20
10.87334287646448
 30
0.0
 40
67.77697168790613
100
AcDbArc
 50
22.2656304000788
 51
26.26899091120006
  0
LINE
  5
CD
330
2
100
AcDbEntity
  8
KIJUN
 62
     7
100
AcDbLine
 10
318.9678738115605
 20
36.58690821666007
 30
0.0
 11
320.5746732614858
 21
40.82146370641478
 31
0.0
  0
ARC
  5
CE
330
2
100
AcDbEntity
  8
KIJUN
 62
     7
100
AcDbCircle
 10
329.3265219457613
 20
40.75171329656951
 30
0.0
 40
2.132147539918503
100
AcDbArc
 50
129.8299606752888
 51
288.8738455177826
  0
ARC
  5
CF
330
2
100
AcDbEntity
  8
KIJUN
 62
     7
100
AcDbCircle
 10
328.6642975351693
 20
41.51120444398568
 30
0.0
 40
5.162818374113481
100
AcDbArc
 50
160.0952535777893
 51
221.2782280564718
  0
ARC
  5
D0
330
2
100
AcDbEntity
  8
KIJUN
 62
     7
100
AcDbCircle
 10
327.3722295896183
 20
41.40660597582612
 30
0.0
 40
5.032257579205856
100
AcDbArc
 50
152.2483507512844
 51
220.999066931952
  0
ARC
  5
D1
330
2
100
AcDbEntity
  8
KIJUN
 62
     7
100
AcDbCircle
 10
331.3499189261325
 20
40.75171329656951
 30
0.0
 40
2.132147539918503
100
AcDbArc
 50
251.1261544822169
 51
50.17003932471145
  0
CIRCLE
  5
D2
330
2
100
AcDbEntity
  8
KIJUN
 62
     7
100
AcDbCircle
 10
328.9199724846004
 20
39.96091378766962
 30
0.0
 40
1.227739216330264
  0
CIRCLE
  5
D3
330
2
100
AcDbEntity
  8
KIJUN
 62
     7
100
AcDbCircle
 10
331.3905557089021
 20
39.86012550315993
 30
0.0
 40
1.227739216330264
  0
ARC
  5
D4
330
2
100
AcDbEntity
  8
KIJUN
 62
     7
100
AcDbCircle
 10
155.4142975351696
 20
41.51120444398661
 30
0.0
 40
5.162818374113481
100
AcDbArc
 50
160.0952535777893
 51
221.2782280564718
  0
ARC
  5
D5
330
2
100
AcDbEntity
  8
KIJUN
 62
     7
100
AcDbCircle
 10
154.1222295896185
 20
41.40660597582704
 30
0.0
 40
5.032257579205856
100
AcDbArc
 50
152.2483507512844
 51
220.999066931952
  0
ARC
  5
D6
330
2
100
AcDbEntity
  8
KIJUN
 62
     7
100
AcDbCircle
 10
156.0765219457615
 20
40.75171329657044
 30
0.0
 40
2.132147539918503
100
AcDbArc
 50
129.8299606752888
 51
288.8738455177826
  0
ARC
  5
D7
330
2
100
AcDbEntity
  8
KIJUN
 62
     7
100
AcDbCircle
 10
138.8499189261327
 20
40.75171329657046
 30
0.0
 40
2.132147539918503
100
AcDbArc
 50
251.1261544822169
 51
50.17003932471145
  0
ARC
  5
D8
330
2
100
AcDbEntity
  8
KIJUN
 62
     7
100
AcDbCircle
 10
140.8042112822757
 20
41.40660597582704
 30
0.0
 40
5.032257579205856
100
AcDbArc
 50
319.000933068048
 51
27.75164924871539
  0
ARC
  5
D9
330
2
100
AcDbEntity
  8
KIJUN
 62
     7
100
AcDbCircle
 10
139.5121433367247
 20
41.51120444398661
 30
0.0
 40
5.162818374113481
100
AcDbArc
 50
318.7217719435281
 51
19.90474642220968
  0
ARC
  5
DA
330
2
100
AcDbEntity
  8
KIJUN
 62
     7
100
AcDbCircle
 10
87.28478302363049
 20
10.87334287646543
 30
0.0
 40
67.77697168790613
100
AcDbArc
 50
22.2656304000788
 51
26.26899091120006
  0
LINE
  5
DB
330
2
100
AcDbEntity
  8
KIJUN
 62
     7
100
AcDbLine
 10
145.7178738115607
 20
36.586908216661
 30
0.0
 11
147.324673261486
 21
40.82146370641571
 31
0.0
  0
CIRCLE
  5
DC
330
2
100
AcDbEntity
  8
KIJUN
 62
     7
100
AcDbCircle
 10
156.035885162992
 20
39.86012550316086
 30
0.0
 40
1.227739216330264
  0
LINE
  5
DD
330
2
100
AcDbEntity
  8
KIJUN
 62
     7
100
AcDbLine
 10
164.9678738115607
 20
36.58690821666053
 30
0.0
 11
166.574673261486
 21
40.82146370641524
 31
0.0
  0
ARC
  5
DE
330
2
100
AcDbEntity
  8
KIJUN
 62
     7
100
AcDbCircle
 10
106.5347830236305
 20
10.87334287646494
 30
0.0
 40
67.77697168790613
100
AcDbArc
 50
22.2656304000788
 51
26.26899091120006
  0
ARC
  5
DF
330
2
100
AcDbEntity
  8
KIJUN
 62
     7
100
AcDbCircle
 10
158.7621433367247
 20
41.51120444398616
 30
0.0
 40
5.162818374113481
100
AcDbArc
 50
318.7217719435281
 51
19.90474642220968
  0
ARC
  5
E0
330
2
100
AcDbEntity
  8
KIJUN
 62
     7
100
AcDbCircle
 10
160.0542112822758
 20
41.40660597582662
 30
0.0
 40
5.032257579205856
100
AcDbArc
 50
319.000933068048
 51
27.75164924871539
  0
ARC
  5
E1
330
2
100
AcDbEntity
  8
KIJUN
 62
     7
100
AcDbCircle
 10
158.0999189261327
 20
40.75171329657
 30
0.0
 40
2.132147539918503
100
AcDbArc
 50
251.1261544822169
 51
50.17003932471145
  0
CIRCLE
  5
E2
330
2
100
AcDbEntity
  8
KIJUN
 62
     7
100
AcDbCircle
 10
158.1405557089023
 20
39.86012550316086
 30
0.0
 40
1.227739216330264
  0
CIRCLE
  5
E3
330
2
100
AcDbEntity
  8
KIJUN
 62
     7
100
AcDbCircle
 10
175.285885162992
 20
39.86012550316086
 30
0.0
 40
1.227739216330264
  0
ARC
  5
E4
330
2
100
AcDbEntity
  8
KIJUN
 62
     7
100
AcDbCircle
 10
175.3265219457615
 20
40.75171329657
 30
0.0
 40
2.132147539918503
100
AcDbArc
 50
129.8299606752888
 51
288.8738455177826
  0
ARC
  5
E5
330
2
100
AcDbEntity
  8
KIJUN
 62
     7
100
AcDbCircle
 10
173.3722295896185
 20
41.40660597582662
 30
0.0
 40
5.032257579205856
100
AcDbArc
 50
152.2483507512844
 51
220.999066931952
  0
ARC
  5
E6
330
2
100
AcDbEntity
  8
KIJUN
 62
     7
100
AcDbCircle
 10
174.6642975351695
 20
41.51120444398616
 30
0.0
 40
5.162818374113481
100
AcDbArc
 50
160.0952535777893
 51
221.2782280564718
  0
ARC
  5
E7
330
2
100
AcDbEntity
  8
KIJUN
 62
     7
100
AcDbCircle
 10
211.8722295896185
 20
41.4066059758266
 30
0.0
 40
5.032257579205856
100
AcDbArc
 50
152.2483507512844
 51
220.999066931952
  0
ARC
  5
E8
330
2
100
AcDbEntity
  8
KIJUN
 62
     7
100
AcDbCircle
 10
213.1642975351696
 20
41.51120444398615
 30
0.0
 40
5.162818374113481
100
AcDbArc
 50
160.0952535777893
 51
221.2782280564718
  0
ARC
  5
E9
330
2
100
AcDbEntity
  8
KIJUN
 62
     7
100
AcDbCircle
 10
213.8265219457615
 20
40.75171329656998
 30
0.0
 40
2.132147539918503
100
AcDbArc
 50
129.8299606752888
 51
288.8738455177826
  0
ARC
  5
EA
330
2
100
AcDbEntity
  8
KIJUN
 62
     7
100
AcDbCircle
 10
145.0347830236304
 20
10.87334287646493
 30
0.0
 40
67.77697168790613
100
AcDbArc
 50
22.2656304000788
 51
26.26899091120006
  0
LINE
  5
EB
330
2
100
AcDbEntity
  8
KIJUN
 62
     7
100
AcDbLine
 10
203.4678738115607
 20
36.58690821666052
 30
0.0
 11
205.074673261486
 21
40.82146370641523
 31
0.0
  0
ARC
  5
EC
330
2
100
AcDbEntity
  8
KIJUN
 62
     7
100
AcDbCircle
 10
213.7858851629921
 20
39.86012550316085
 30
0.0
 40
1.227739216330264
100
AcDbArc
 50
22.56977229973366
 51
337.4302277002656
  0
CIRCLE
  5
ED
330
2
100
AcDbEntity
  8
KIJUN
 62
     7
100
AcDbCircle
 10
196.6405557089023
 20
39.86012550316086
 30
0.0
 40
1.227739216330264
  0
CIRCLE
  5
EE
330
2
100
AcDbEntity
  8
KIJUN
 62
     7
100
AcDbCircle
 10
194.1699724846006
 20
39.96091378767055
 30
0.0
 40
1.227739216330264
  0
ARC
  5
EF
330
2
100
AcDbEntity
  8
KIJUN
 62
     7
100
AcDbCircle
 10
196.5999189261328
 20
40.75171329657
 30
0.0
 40
2.132147539918503
100
AcDbArc
 50
251.1261544822169
 51
50.17003932471145
  0
ARC
  5
F0
330
2
100
AcDbEntity
  8
KIJUN
 62
     7
100
AcDbCircle
 10
198.5542112822757
 20
41.40660597582662
 30
0.0
 40
5.032257579205856
100
AcDbArc
 50
319.000933068048
 51
27.75164924871539
  0
ARC
  5
F1
330
2
100
AcDbEntity
  8
KIJUN
 62
     7
100
AcDbCircle
 10
197.2621433367247
 20
41.51120444398616
 30
0.0
 40
5.162818374113481
100
AcDbArc
 50
318.7217719435281
 51
19.90474642220968
  0
ARC
  5
F2
330
2
100
AcDbEntity
  8
KIJUN
 62
     7
100
AcDbCircle
 10
192.6222295896186
 20
41.40660597582662
 30
0.0
 40
5.032257579205856
100
AcDbArc
 50
152.2483507512844
 51
220.999066931952
  0
ARC
  5
F3
330
2
100
AcDbEntity
  8
KIJUN
 62
     7
100
AcDbCircle
 10
193.9142975351695
 20
41.51120444398616
 30
0.0
 40
5.162818374113481
100
AcDbArc
 50
160.0952535777893
 51
221.2782280564718
  0
ARC
  5
F4
330
2
100
AcDbEntity
  8
KIJUN
 62
     7
100
AcDbCircle
 10
194.5765219457615
 20
40.75171329657
 30
0.0
 40
2.132147539918503
100
AcDbArc
 50
129.8299606752888
 51
288.8738455177826
  0
LINE
  5
F5
330
2
100
AcDbEntity
  8
KIJUN
 62
     7
100
AcDbLine
 10
184.2178738115607
 20
36.58690821666053
 30
0.0
 11
185.824673261486
 21
40.82146370641524
 31
0.0
  0
ARC
  5
F6
330
2
100
AcDbEntity
  8
KIJUN
 62
     7
100
AcDbCircle
 10
125.7847830236304
 20
10.87334287646493
 30
0.0
 40
67.77697168790613
100
AcDbArc
 50
22.2656304000788
 51
26.26899091120006
  0
ARC
  5
F7
330
2
100
AcDbEntity
  8
KIJUN
 62
     7
100
AcDbCircle
 10
178.0121433367247
 20
41.51120444398616
 30
0.0
 40
5.162818374113481
100
AcDbArc
 50
318.7217719435281
 51
19.90474642220968
  0
ARC
  5
F8
330
2
100
AcDbEntity
  8
KIJUN
 62
     7
100
AcDbCircle
 10
179.3042112822758
 20
41.40660597582662
 30
0.0
 40
5.032257579205856
100
AcDbArc
 50
319.000933068048
 51
27.75164924871539
  0
CIRCLE
  5
F9
330
2
100
AcDbEntity
  8
KIJUN
 62
     7
100
AcDbCircle
 10
177.7564683872937
 20
39.96091378767055
 30
0.0
 40
1.227739216330264
  0
ARC
  5
FA
330
2
100
AcDbEntity
  8
KIJUN
 62
     7
100
AcDbCircle
 10
177.3499189261327
 20
40.75171329657
 30
0.0
 40
2.132147539918503
100
AcDbArc
 50
251.1261544822169
 51
50.17003932471145
  0
ARC
  5
FB
330
2
100
AcDbEntity
  8
KIJUN
 62
     7
100
AcDbCircle
 10
100.3499189261328
 20
40.75171329657046
 30
0.0
 40
2.132147539918503
100
AcDbArc
 50
251.1261544822169
 51
50.17003932471145
  0
ARC
  5
FC
330
2
100
AcDbEntity
  8
KIJUN
 62
     7
100
AcDbCircle
 10
102.3042112822758
 20
41.40660597582704
 30
0.0
 40
5.032257579205856
100
AcDbArc
 50
319.000933068048
 51
27.75164924871539
  0
ARC
  5
FD
330
2
100
AcDbEntity
  8
KIJUN
 62
     7
100
AcDbCircle
 10
101.0121433367247
 20
41.51120444398661
 30
0.0
 40
5.162818374113481
100
AcDbArc
 50
318.7217719435281
 51
19.90474642220968
  0
ARC
  5
FE
330
2
100
AcDbEntity
  8
KIJUN
 62
     7
100
AcDbCircle
 10
48.78478302363049
 20
10.87334287646543
 30
0.0
 40
67.77697168790613
100
AcDbArc
 50
22.2656304000788
 51
26.26899091120006
  0
LINE
  5
FF
330
2
100
AcDbEntity
  8
KIJUN
 62
     7
100
AcDbLine
 10
107.2178738115608
 20
36.58690821666101
 30
0.0
 11
108.8246732614861
 21
40.82146370641572
 31
0.0
  0
ARC
  5
100
330
2
100
AcDbEntity
  8
KIJUN
 62
     7
100
AcDbCircle
 10
117.5765219457616
 20
40.75171329657046
 30
0.0
 40
2.132147539918503
100
AcDbArc
 50
129.8299606752888
 51
288.8738455177826
  0
ARC
  5
101
330
2
100
AcDbEntity
  8
KIJUN
 62
     7
100
AcDbCircle
 10
116.9142975351695
 20
41.51120444398661
 30
0.0
 40
5.162818374113481
100
AcDbArc
 50
160.0952535777893
 51
221.2782280564718
  0
ARC
  5
102
330
2
100
AcDbEntity
  8
KIJUN
 62
     7
100
AcDbCircle
 10
115.6222295896186
 20
41.40660597582704
 30
0.0
 40
5.032257579205856
100
AcDbArc
 50
152.2483507512844
 51
220.999066931952
  0
ARC
  5
103
330
2
100
AcDbEntity
  8
KIJUN
 62
     7
100
AcDbCircle
 10
97.66429753516959
 20
41.51120444398661
 30
0.0
 40
5.162818374113481
100
AcDbArc
 50
160.0952535777893
 51
221.2782280564718
  0
ARC
  5
104
330
2
100
AcDbEntity
  8
KIJUN
 62
     7
100
AcDbCircle
 10
96.37222958961858
 20
41.40660597582704
 30
0.0
 40
5.032257579205856
100
AcDbArc
 50
152.2483507512844
 51
220.999066931952
  0
ARC
  5
105
330
2
100
AcDbEntity
  8
KIJUN
 62
     7
100
AcDbCircle
 10
98.32652194576155
 20
40.75171329657046
 30
0.0
 40
2.132147539918503
100
AcDbArc
 50
129.8299606752888
 51
288.8738455177826
  0
CIRCLE
  5
106
330
2
100
AcDbEntity
  8
KIJUN
 62
     7
100
AcDbCircle
 10
100.7564683872937
 20
39.96091378767057
 30
0.0
 40
1.227739216330264
  0
CIRCLE
  5
107
330
2
100
AcDbEntity
  8
KIJUN
 62
     7
100
AcDbCircle
 10
98.28588516299207
 20
39.86012550316086
 30
0.0
 40
1.227739216330264
  0
ARC
  5
108
330
2
100
AcDbEntity
  8
KIJUN
 62
     7
100
AcDbCircle
 10
81.14055570890235
 20
39.86012550316088
 30
0.0
 40
1.227739216330264
100
AcDbArc
 50
217.7347670759702
 51
142.2652329240298
  0
ARC
  5
109
330
2
100
AcDbEntity
  8
KIJUN
 62
     7
100
AcDbCircle
 10
81.09991892613278
 20
40.75171329657046
 30
0.0
 40
2.132147539918503
100
AcDbArc
 50
251.1261544822169
 51
50.17003932471145
  0
ARC
  5
10A
330
2
100
AcDbEntity
  8
KIJUN
 62
     7
100
AcDbCircle
 10
83.05421128227584
 20
41.40660597582704
 30
0.0
 40
5.032257579205856
100
AcDbArc
 50
319.000933068048
 51
27.75164924871539
  0
ARC
  5
10B
330
2
100
AcDbEntity
  8
KIJUN
 62
     7
100
AcDbCircle
 10
81.76214333672476
 20
41.51120444398663
 30
0.0
 40
5.162818374113481
100
AcDbArc
 50
318.7217719435281
 51
19.90474642220968
  0
ARC
  5
10C
330
2
100
AcDbEntity
  8
KIJUN
 62
     7
100
AcDbCircle
 10
29.53478302363049
 20
10.87334287646543
 30
0.0
 40
67.77697168790613
100
AcDbArc
 50
22.2656304000788
 51
26.26899091120006
  0
LINE
  5
10D
330
2
100
AcDbEntity
  8
KIJUN
 62
     7
100
AcDbLine
 10
87.96787381156075
 20
36.58690821666101
 30
0.0
 11
89.57467326148611
 21
40.82146370641572
 31
0.0
  0
ARC
  5
10E
330
2
100
AcDbEntity
  8
KIJUN
 62
     7
100
AcDbCircle
 10
120.2621433367247
 20
41.51120444398661
 30
0.0
 40
5.162818374113481
100
AcDbArc
 50
318.7217719435281
 51
19.90474642220968
  0
ARC
  5
10F
330
2
100
AcDbEntity
  8
KIJUN
 62
     7
100
AcDbCircle
 10
121.5542112822757
 20
41.40660597582704
 30
0.0
 40
5.032257579205856
100
AcDbArc
 50
319.000933068048
 51
27.75164924871539
  0
ARC
  5
110
330
2
100
AcDbEntity
  8
KIJUN
 62
     7
100
AcDbCircle
 10
119.5999189261328
 20
40.75171329657046
 30
0.0
 40
2.132147539918503
100
AcDbArc
 50
251.1261544822169
 51
50.17003932471145
  0
CIRCLE
  5
111
330
2
100
AcDbEntity
  8
KIJUN
 62
     7
100
AcDbCircle
 10
117.1699724846007
 20
39.96091378767057
 30
0.0
 40
1.227739216330264
  0
CIRCLE
  5
112
330
2
100
AcDbEntity
  8
KIJUN
 62
     7
100
AcDbCircle
 10
119.6405557089023
 20
39.86012550316086
 30
0.0
 40
1.227739216330264
  0
CIRCLE
  5
113
330
2
100
AcDbEntity
  8
KIJUN
 62
     7
100
AcDbCircle
 10
139.2564683872937
 20
39.96091378767057
 30
0.0
 40
1.227739216330264
  0
CIRCLE
  5
114
330
2
100
AcDbEntity
  8
KIJUN
 62
     7
100
AcDbCircle
 10
136.785885162992
 20
39.86012550316086
 30
0.0
 40
1.227739216330264
  0
LINE
  5
115
330
2
100
AcDbEntity
  8
KIJUN
 62
     7
100
AcDbLine
 10
126.4678738115607
 20
36.58690821666101
 30
0.0
 11
128.074673261486
 21
40.82146370641572
 31
0.0
  0
ARC
  5
116
330
2
100
AcDbEntity
  8
KIJUN
 62
     7
100
AcDbCircle
 10
68.0347830236305
 20
10.87334287646543
 30
0.0
 40
67.77697168790613
100
AcDbArc
 50
22.2656304000788
 51
26.26899091120006
  0
ARC
  5
117
330
2
100
AcDbEntity
  8
KIJUN
 62
     7
100
AcDbCircle
 10
136.8265219457615
 20
40.75171329657046
 30
0.0
 40
2.132147539918503
100
AcDbArc
 50
129.8299606752888
 51
288.8738455177826
  0
ARC
  5
118
330
2
100
AcDbEntity
  8
KIJUN
 62
     7
100
AcDbCircle
 10
136.1642975351695
 20
41.51120444398661
 30
0.0
 40
5.162818374113481
100
AcDbArc
 50
160.0952535777893
 51
221.2782280564718
  0
ARC
  5
119
330
2
100
AcDbEntity
  8
KIJUN
 62
     7
100
AcDbCircle
 10
134.8722295896185
 20
41.40660597582704
 30
0.0
 40
5.032257579205856
100
AcDbArc
 50
152.2483507512844
 51
220.999066931952
  0
ARC
  5
11A
330
2
100
AcDbEntity
  8
KIJUN
 62
     7
100
AcDbCircle
 10
153.5630120387967
 20
41.76131873238777
 30
0.0
 40
2.598812642507719
100
AcDbArc
 50
76.21264507765484
 51
192.9365949848028
  0
LINE
  5
11B
330
2
100
AcDbEntity
  8
KIJUN
 62
     7
100
AcDbLine
 10
80.16959531021617
 20
45.43102068264857
 30
0.0
 11
214.9195953102161
 21
45.43102068264854
 31
0.0
  0
LINE
  5
11C
330
2
100
AcDbEntity
  8
KIJUN
 62
     7
100
AcDbLine
 10
80.16959531021617
 20
50.75739689842071
 30
0.0
 11
214.9195953102161
 21
50.75739689842116
 31
0.0
  0
ARC
  5
11D
330
2
100
AcDbEntity
  8
KIJUN
 62
     7
100
AcDbCircle
 10
243.3687215000524
 20
44.42891607488586
 30
0.0
 40
0.5
100
AcDbArc
 50
46.44916600267676
 51
126.3401741923301
  0
CIRCLE
  5
11E
330
2
100
AcDbEntity
  8
KIJUN
 62
     7
100
AcDbCircle
 10
273.0157049379151
 20
44.33550290204951
 30
0.0
 40
0.9444147817925111
  0
CIRCLE
  5
11F
330
2
100
AcDbEntity
  8
KIJUN
 62
     7
100
AcDbCircle
 10
273.8678073022317
 20
42.63203427122202
 30
0.0
 40
0.9444147817925111
  0
CIRCLE
  5
120
330
2
100
AcDbEntity
  8
KIJUN
 62
     7
100
AcDbCircle
 10
271.737546079412
 20
42.63203427122202
 30
0.0
 40
0.9444147817925111
  0
ARC
  5
121
330
2
100
AcDbEntity
  8
KIJUN
 62
     7
100
AcDbCircle
 10
245.8898913327504
 20
26.83170175645322
 30
0.0
 40
24.77994461557308
100
AcDbArc
 50
40.64465911434824
 51
46.44916600266667
  0
ARC
  5
122
330
2
100
AcDbEntity
  8
KIJUN
 62
     7
100
AcDbCircle
 10
284.8744056538113
 20
14.17595590345631
 30
0.0
 40
38.05738377850636
100
AcDbArc
 50
126.3401741923301
 51
129.2295785746241
  0
ARC
  5
123
330
2
100
AcDbEntity
  8
KIJUN
 62
     7
100
AcDbCircle
 10
264.40375913641
 20
41.26617535403788
 30
0.0
 40
2.598812642507719
100
AcDbArc
 50
30.18050053430565
 51
72.87932102269689
  0
ARC
  5
124
330
2
100
AcDbEntity
  8
KIJUN
 62
     7
100
AcDbCircle
 10
269.0630120387965
 20
41.76131873238776
 30
0.0
 40
2.598812642507719
100
AcDbArc
 50
76.21264507765484
 51
192.9365949848028
  0
ARC
  5
125
330
2
100
AcDbEntity
  8
KIJUN
 62
     7
100
AcDbCircle
 10
269.4576268135775
 20
41.47246785031351
 30
0.0
 40
1.186405552594083
100
AcDbArc
 50
50.58858629451131
 51
159.6472707288253
  0
ARC
  5
126
330
2
100
AcDbEntity
  8
KIJUN
 62
     7
100
AcDbCircle
 10
270.6255272700897
 20
42.18733267714198
 30
0.0
 40
2.30018048826267
100
AcDbArc
 50
114.2074150511642
 51
187.5502710182843
  0
ARC
  5
127
330
2
100
AcDbEntity
  8
KIJUN
 62
     7
100
AcDbCircle
 10
263.2157515354071
 20
40.50992272409168
 30
0.0
 40
0.5
100
AcDbArc
 50
46.14615657424493
 51
141.4584531796573
  0
ARC
  5
128
330
2
100
AcDbEntity
  8
KIJUN
 62
     7
100
AcDbCircle
 10
262.6187215000524
 20
44.42891607488586
 30
0.0
 40
0.5
100
AcDbArc
 50
46.44916600267676
 51
126.3401741923301
  0
ARC
  5
129
330
2
100
AcDbEntity
  8
KIJUN
 62
     7
100
AcDbCircle
 10
255.3009136018041
 20
42.187332677142
 30
0.0
 40
2.30018048826267
100
AcDbArc
 50
352.4497289817157
 51
65.7925849488356
  0
ARC
  5
12A
330
2
100
AcDbEntity
  8
KIJUN
 62
     7
100
AcDbCircle
 10
256.8634288330973
 20
41.76131873238777
 30
0.0
 40
2.598812642507719
100
AcDbArc
 50
347.0634050151971
 51
103.7873549223451
  0
ARC
  5
12B
330
2
100
AcDbEntity
  8
KIJUN
 62
     7
100
AcDbCircle
 10
261.522681735484
 20
41.26617535403788
 30
0.0
 40
2.598812642507719
100
AcDbArc
 50
107.1206789773027
 51
149.819499465694
  0
ARC
  5
12C
330
2
100
AcDbEntity
  8
KIJUN
 62
     7
100
AcDbCircle
 10
256.4688140583163
 20
41.47246785031351
 30
0.0
 40
1.186405552594083
100
AcDbArc
 50
20.35272927117458
 51
129.4114137054883
  0
CIRCLE
  5
12D
330
2
100
AcDbEntity
  8
KIJUN
 62
     7
100
AcDbCircle
 10
252.0586335696624
 20
42.63203427122203
 30
0.0
 40
0.9444147817925111
  0
CIRCLE
  5
12E
330
2
100
AcDbEntity
  8
KIJUN
 62
     7
100
AcDbCircle
 10
254.1888947924819
 20
42.63203427122203
 30
0.0
 40
0.9444147817925111
  0
CIRCLE
  5
12F
330
2
100
AcDbEntity
  8
KIJUN
 62
     7
100
AcDbCircle
 10
252.9107359339789
 20
44.33550290204951
 30
0.0
 40
0.9444147817925111
  0
ARC
  5
130
330
2
100
AcDbEntity
  8
KIJUN
 62
     7
100
AcDbCircle
 10
226.6398913327504
 20
26.83170175645322
 30
0.0
 40
24.77994461557308
100
AcDbArc
 50
40.64465911434824
 51
46.44916600266667
  0
ARC
  5
131
330
2
100
AcDbEntity
  8
KIJUN
 62
     7
100
AcDbCircle
 10
251.3755272700897
 20
42.187332677142
 30
0.0
 40
2.30018048826267
100
AcDbArc
 50
114.2074150511642
 51
187.5502710182843
  0
ARC
  5
132
330
2
100
AcDbEntity
  8
KIJUN
 62
     7
100
AcDbCircle
 10
249.8130120387966
 20
41.76131873238777
 30
0.0
 40
2.598812642507719
100
AcDbArc
 50
76.21264507765484
 51
192.9365949848028
  0
ARC
  5
133
330
2
100
AcDbEntity
  8
KIJUN
 62
     7
100
AcDbCircle
 10
245.1537591364101
 20
41.26617535403789
 30
0.0
 40
2.598812642507719
100
AcDbArc
 50
30.18050053430565
 51
72.87932102269689
  0
ARC
  5
134
330
2
100
AcDbEntity
  8
KIJUN
 62
     7
100
AcDbCircle
 10
250.2076268135777
 20
41.47246785031351
 30
0.0
 40
1.186405552594083
100
AcDbArc
 50
50.58858629451131
 51
159.6472707288253
  0
ARC
  5
135
330
2
100
AcDbEntity
  8
KIJUN
 62
     7
100
AcDbCircle
 10
243.9657515354072
 20
40.5099227240917
 30
0.0
 40
0.5
100
AcDbArc
 50
46.14615657424493
 51
141.4584531796573
  0
CIRCLE
  5
136
330
2
100
AcDbEntity
  8
KIJUN
 62
     7
100
AcDbCircle
 10
311.515704937915
 20
44.33550290204951
 30
0.0
 40
0.9444147817925111
  0
CIRCLE
  5
137
330
2
100
AcDbEntity
  8
KIJUN
 62
     7
100
AcDbCircle
 10
312.3678073022317
 20
42.63203427122156
 30
0.0
 40
0.9444147817925111
  0
ARC
  5
138
330
2
100
AcDbEntity
  8
KIJUN
 62
     7
100
AcDbCircle
 10
313.0509136018042
 20
42.18733267714154
 30
0.0
 40
2.30018048826267
100
AcDbArc
 50
352.4497289817157
 51
65.7925849488356
  0
ARC
  5
139
330
2
100
AcDbEntity
  8
KIJUN
 62
     7
100
AcDbCircle
 10
314.2188140583164
 20
41.47246785031351
 30
0.0
 40
1.186405552594083
100
AcDbArc
 50
20.35272927117458
 51
129.4114137054883
  0
CIRCLE
  5
13A
330
2
100
AcDbEntity
  8
KIJUN
 62
     7
100
AcDbCircle
 10
310.237546079412
 20
42.63203427122156
 30
0.0
 40
0.9444147817925111
  0
ARC
  5
13B
330
2
100
AcDbEntity
  8
KIJUN
 62
     7
100
AcDbCircle
 10
307.9576268135775
 20
41.47246785031351
 30
0.0
 40
1.186405552594083
100
AcDbArc
 50
50.58858629451131
 51
159.6472707288253
  0
ARC
  5
13C
330
2
100
AcDbEntity
  8
KIJUN
 62
     7
100
AcDbCircle
 10
302.9037591364101
 20
41.26617535403788
 30
0.0
 40
2.598812642507719
100
AcDbArc
 50
30.18050053430565
 51
72.87932102269689
  0
ARC
  5
13D
330
2
100
AcDbEntity
  8
KIJUN
 62
     7
100
AcDbCircle
 10
307.5630120387965
 20
41.7613187323873
 30
0.0
 40
2.598812642507719
100
AcDbArc
 50
76.21264507765484
 51
192.9365949848028
  0
ARC
  5
13E
330
2
100
AcDbEntity
  8
KIJUN
 62
     7
100
AcDbCircle
 10
309.1255272700897
 20
42.18733267714154
 30
0.0
 40
2.30018048826267
100
AcDbArc
 50
114.2074150511642
 51
187.5502710182843
  0
ARC
  5
13F
330
2
100
AcDbEntity
  8
KIJUN
 62
     7
100
AcDbCircle
 10
301.1187215000524
 20
44.42891607488586
 30
0.0
 40
0.5
100
AcDbArc
 50
46.44916600267676
 51
126.3401741923301
  0
ARC
  5
140
330
2
100
AcDbEntity
  8
KIJUN
 62
     7
100
AcDbCircle
 10
284.3898913327505
 20
26.83170175645277
 30
0.0
 40
24.77994461557308
100
AcDbArc
 50
40.64465911434824
 51
46.44916600266667
  0
ARC
  5
141
330
2
100
AcDbEntity
  8
KIJUN
 62
     7
100
AcDbCircle
 10
293.8009136018041
 20
42.18733267714154
 30
0.0
 40
2.30018048826267
100
AcDbArc
 50
352.4497289817157
 51
65.7925849488356
  0
ARC
  5
142
330
2
100
AcDbEntity
  8
KIJUN
 62
     7
100
AcDbCircle
 10
295.3634288330973
 20
41.7613187323873
 30
0.0
 40
2.598812642507719
100
AcDbArc
 50
347.0634050151971
 51
103.7873549223451
  0
ARC
  5
143
330
2
100
AcDbEntity
  8
KIJUN
 62
     7
100
AcDbCircle
 10
300.0226817354838
 20
41.26617535403788
 30
0.0
 40
2.598812642507719
100
AcDbArc
 50
107.1206789773027
 51
149.819499465694
  0
ARC
  5
144
330
2
100
AcDbEntity
  8
KIJUN
 62
     7
100
AcDbCircle
 10
294.9688140583163
 20
41.47246785031351
 30
0.0
 40
1.186405552594083
100
AcDbArc
 50
20.35272927117458
 51
129.4114137054883
  0
ARC
  5
145
330
2
100
AcDbEntity
  8
KIJUN
 62
     7
100
AcDbCircle
 10
323.3744056538113
 20
14.17595590345582
 30
0.0
 40
38.05738377850636
100
AcDbArc
 50
126.3401741923301
 51
129.2295785746241
  0
ARC
  5
146
330
2
100
AcDbEntity
  8
KIJUN
 62
     7
100
AcDbCircle
 10
301.7157515354071
 20
40.50992272409168
 30
0.0
 40
0.5
100
AcDbArc
 50
46.14615657424493
 51
141.4584531796573
  0
CIRCLE
  5
147
330
2
100
AcDbEntity
  8
KIJUN
 62
     7
100
AcDbCircle
 10
290.987546079412
 20
42.63203427122202
 30
0.0
 40
0.9444147817925111
  0
CIRCLE
  5
148
330
2
100
AcDbEntity
  8
KIJUN
 62
     7
100
AcDbCircle
 10
293.1178073022316
 20
42.63203427122202
 30
0.0
 40
0.9444147817925111
  0
CIRCLE
  5
149
330
2
100
AcDbEntity
  8
KIJUN
 62
     7
100
AcDbCircle
 10
292.265704937915
 20
44.33550290204951
 30
0.0
 40
0.9444147817925111
  0
ARC
  5
14A
330
2
100
AcDbEntity
  8
KIJUN
 62
     7
100
AcDbCircle
 10
282.4657515354072
 20
40.50992272409168
 30
0.0
 40
0.5
100
AcDbArc
 50
46.14615657424493
 51
141.4584531796573
  0
ARC
  5
14B
330
2
100
AcDbEntity
  8
KIJUN
 62
     7
100
AcDbCircle
 10
304.1244056538113
 20
14.17595590345631
 30
0.0
 40
38.05738377850636
100
AcDbArc
 50
126.3401741923301
 51
129.2295785746241
  0
ARC
  5
14C
330
2
100
AcDbEntity
  8
KIJUN
 62
     7
100
AcDbCircle
 10
275.7188140583163
 20
41.47246785031351
 30
0.0
 40
1.186405552594083
100
AcDbArc
 50
20.35272927117458
 51
129.4114137054883
  0
ARC
  5
14D
330
2
100
AcDbEntity
  8
KIJUN
 62
     7
100
AcDbCircle
 10
280.7726817354838
 20
41.26617535403788
 30
0.0
 40
2.598812642507719
100
AcDbArc
 50
107.1206789773027
 51
149.819499465694
  0
ARC
  5
14E
330
2
100
AcDbEntity
  8
KIJUN
 62
     7
100
AcDbCircle
 10
276.1134288330973
 20
41.76131873238776
 30
0.0
 40
2.598812642507719
100
AcDbArc
 50
347.0634050151971
 51
103.7873549223451
  0
ARC
  5
14F
330
2
100
AcDbEntity
  8
KIJUN
 62
     7
100
AcDbCircle
 10
274.5509136018041
 20
42.18733267714198
 30
0.0
 40
2.30018048826267
100
AcDbArc
 50
352.4497289817157
 51
65.7925849488356
  0
ARC
  5
150
330
2
100
AcDbEntity
  8
KIJUN
 62
     7
100
AcDbCircle
 10
265.1398913327504
 20
26.83170175645321
 30
0.0
 40
24.77994461557308
100
AcDbArc
 50
40.64465911434824
 51
46.44916600266667
  0
ARC
  5
151
330
2
100
AcDbEntity
  8
KIJUN
 62
     7
100
AcDbCircle
 10
281.8687215000525
 20
44.42891607488586
 30
0.0
 40
0.5
100
AcDbArc
 50
46.44916600267676
 51
126.3401741923301
  0
ARC
  5
152
330
2
100
AcDbEntity
  8
KIJUN
 62
     7
100
AcDbCircle
 10
289.8755272700897
 20
42.18733267714198
 30
0.0
 40
2.30018048826267
100
AcDbArc
 50
114.2074150511642
 51
187.5502710182843
  0
ARC
  5
153
330
2
100
AcDbEntity
  8
KIJUN
 62
     7
100
AcDbCircle
 10
288.3130120387965
 20
41.76131873238776
 30
0.0
 40
2.598812642507719
100
AcDbArc
 50
76.21264507765484
 51
192.9365949848028
  0
ARC
  5
154
330
2
100
AcDbEntity
  8
KIJUN
 62
     7
100
AcDbCircle
 10
283.65375913641
 20
41.26617535403788
 30
0.0
 40
2.598812642507719
100
AcDbArc
 50
30.18050053430565
 51
72.87932102269689
  0
ARC
  5
155
330
2
100
AcDbEntity
  8
KIJUN
 62
     7
100
AcDbCircle
 10
288.7076268135776
 20
41.47246785031351
 30
0.0
 40
1.186405552594083
100
AcDbArc
 50
50.58858629451131
 51
159.6472707288253
  0
ARC
  5
156
330
2
100
AcDbEntity
  8
KIJUN
 62
     7
100
AcDbCircle
 10
320.3687215000524
 20
44.42891607488586
 30
0.0
 40
0.5
100
AcDbArc
 50
46.44916600267676
 51
126.3401741923301
  0
ARC
  5
157
330
2
100
AcDbEntity
  8
KIJUN
 62
     7
100
AcDbCircle
 10
319.2726817354838
 20
41.26617535403787
 30
0.0
 40
2.598812642507719
100
AcDbArc
 50
107.1206789773027
 51
149.819499465694
  0
ARC
  5
158
330
2
100
AcDbEntity
  8
KIJUN
 62
     7
100
AcDbCircle
 10
342.6244056538113
 20
14.17595590345582
 30
0.0
 40
38.05738377850636
100
AcDbArc
 50
126.3401741923301
 51
129.2295785746241
  0
ARC
  5
159
330
2
100
AcDbEntity
  8
KIJUN
 62
     7
100
AcDbCircle
 10
320.9657515354071
 20
40.50992272409168
 30
0.0
 40
0.5
100
AcDbArc
 50
46.14615657424493
 51
141.4584531796573
  0
ARC
  5
15A
330
2
100
AcDbEntity
  8
KIJUN
 62
     7
100
AcDbCircle
 10
327.2076268135775
 20
41.4724678503135
 30
0.0
 40
1.186405552594083
100
AcDbArc
 50
50.58858629451131
 51
159.6472707288253
  0
ARC
  5
15B
330
2
100
AcDbEntity
  8
KIJUN
 62
     7
100
AcDbCircle
 10
322.15375913641
 20
41.26617535403787
 30
0.0
 40
2.598812642507719
100
AcDbArc
 50
30.18050053430565
 51
72.87932102269689
  0
ARC
  5
15C
330
2
100
AcDbEntity
  8
KIJUN
 62
     7
100
AcDbCircle
 10
326.8130120387965
 20
41.7613187323873
 30
0.0
 40
2.598812642507719
100
AcDbArc
 50
76.21264507765484
 51
192.9365949848028
  0
ARC
  5
15D
330
2
100
AcDbEntity
  8
KIJUN
 62
     7
100
AcDbCircle
 10
328.3755272700897
 20
42.18733267714153
 30
0.0
 40
2.30018048826267
100
AcDbArc
 50
114.2074150511642
 51
187.5502710182843
  0
ARC
  5
15E
330
2
100
AcDbEntity
  8
KIJUN
 62
     7
100
AcDbCircle
 10
303.6398913327503
 20
26.83170175645277
 30
0.0
 40
24.77994461557308
100
AcDbArc
 50
40.64465911434824
 51
46.44916600266667
  0
CIRCLE
  5
15F
330
2
100
AcDbEntity
  8
KIJUN
 62
     7
100
AcDbCircle
 10
329.9107359339789
 20
44.33550290204951
 30
0.0
 40
0.9444147817925111
  0
CIRCLE
  5
160
330
2
100
AcDbEntity
  8
KIJUN
 62
     7
100
AcDbCircle
 10
331.1888947924818
 20
42.63203427122155
 30
0.0
 40
0.9444147817925111
  0
CIRCLE
  5
161
330
2
100
AcDbEntity
  8
KIJUN
 62
     7
100
AcDbCircle
 10
329.0586335696622
 20
42.63203427122155
 30
0.0
 40
0.9444147817925111
  0
ARC
  5
162
330
2
100
AcDbEntity
  8
KIJUN
 62
     7
100
AcDbCircle
 10
314.6134288330974
 20
41.7613187323873
 30
0.0
 40
2.598812642507719
100
AcDbArc
 50
347.0634050151971
 51
103.7873549223451
  0
ARC
  5
163
330
2
100
AcDbEntity
  8
KIJUN
 62
     7
100
AcDbCircle
 10
224.7157515354071
 20
40.5099227240917
 30
0.0
 40
0.5
100
AcDbArc
 50
46.14615657424493
 51
141.4584531796573
  0
ARC
  5
164
330
2
100
AcDbEntity
  8
KIJUN
 62
     7
100
AcDbCircle
 10
246.3744056538114
 20
14.17595590345632
 30
0.0
 40
38.05738377850636
100
AcDbArc
 50
126.3401741923301
 51
129.2295785746241
  0
ARC
  5
165
330
2
100
AcDbEntity
  8
KIJUN
 62
     7
100
AcDbCircle
 10
217.9688140583163
 20
41.47246785031351
 30
0.0
 40
1.186405552594083
100
AcDbArc
 50
20.35272927117458
 51
129.4114137054883
  0
ARC
  5
166
330
2
100
AcDbEntity
  8
KIJUN
 62
     7
100
AcDbCircle
 10
223.0226817354838
 20
41.26617535403789
 30
0.0
 40
2.598812642507719
100
AcDbArc
 50
107.1206789773027
 51
149.819499465694
  0
ARC
  5
167
330
2
100
AcDbEntity
  8
KIJUN
 62
     7
100
AcDbCircle
 10
218.3634288330973
 20
41.76131873238777
 30
0.0
 40
2.598812642507719
100
AcDbArc
 50
347.0634050151971
 51
103.7873549223451
  0
ARC
  5
168
330
2
100
AcDbEntity
  8
KIJUN
 62
     7
100
AcDbCircle
 10
216.8009136018041
 20
42.187332677142
 30
0.0
 40
2.30018048826267
100
AcDbArc
 50
352.4497289817157
 51
65.7925849488356
  0
ARC
  5
169
330
2
100
AcDbEntity
  8
KIJUN
 62
     7
100
AcDbCircle
 10
207.3898913327504
 20
26.83170175645322
 30
0.0
 40
24.77994461557308
100
AcDbArc
 50
40.64465911434824
 51
46.44916600266667
  0
ARC
  5
16A
330
2
100
AcDbEntity
  8
KIJUN
 62
     7
100
AcDbCircle
 10
224.1187215000524
 20
44.42891607488586
 30
0.0
 40
0.5
100
AcDbArc
 50
46.44916600267676
 51
126.3401741923301
  0
ARC
  5
16B
330
2
100
AcDbEntity
  8
KIJUN
 62
     7
100
AcDbCircle
 10
232.1255272700897
 20
42.187332677142
 30
0.0
 40
2.30018048826267
100
AcDbArc
 50
114.2074150511642
 51
187.5502710182843
  0
ARC
  5
16C
330
2
100
AcDbEntity
  8
KIJUN
 62
     7
100
AcDbCircle
 10
230.5630120387966
 20
41.76131873238777
 30
0.0
 40
2.598812642507719
100
AcDbArc
 50
76.21264507765484
 51
192.9365949848028
  0
ARC
  5
16D
330
2
100
AcDbEntity
  8
KIJUN
 62
     7
100
AcDbCircle
 10
225.90375913641
 20
41.26617535403789
 30
0.0
 40
2.598812642507719
100
AcDbArc
 50
30.18050053430565
 51
72.87932102269689
  0
ARC
  5
16E
330
2
100
AcDbEntity
  8
KIJUN
 62
     7
100
AcDbCircle
 10
230.9576268135775
 20
41.47246785031351
 30
0.0
 40
1.186405552594083
100
AcDbArc
 50
50.58858629451131
 51
159.6472707288253
  0
CIRCLE
  5
16F
330
2
100
AcDbEntity
  8
KIJUN
 62
     7
100
AcDbCircle
 10
233.2375460794121
 20
42.63203427122203
 30
0.0
 40
0.9444147817925111
  0
CIRCLE
  5
170
330
2
100
AcDbEntity
  8
KIJUN
 62
     7
100
AcDbCircle
 10
216.1178073022316
 20
42.63203427122203
 30
0.0
 40
0.9444147817925111
  0
ARC
  5
171
330
2
100
AcDbEntity
  8
KIJUN
 62
     7
100
AcDbCircle
 10
215.265704937915
 20
44.33550290204951
 30
0.0
 40
0.9444147817925111
100
AcDbArc
 50
248.5012746486049
 51
111.498725351395
  0
ARC
  5
172
330
2
100
AcDbEntity
  8
KIJUN
 62
     7
100
AcDbCircle
 10
237.6134288330974
 20
41.76131873238777
 30
0.0
 40
2.598812642507719
100
AcDbArc
 50
347.0634050151971
 51
103.7873549223451
  0
ARC
  5
173
330
2
100
AcDbEntity
  8
KIJUN
 62
     7
100
AcDbCircle
 10
265.6244056538113
 20
14.17595590345631
 30
0.0
 40
38.05738377850636
100
AcDbArc
 50
126.3401741923301
 51
129.2295785746241
  0
ARC
  5
174
330
2
100
AcDbEntity
  8
KIJUN
 62
     7
100
AcDbCircle
 10
242.2726817354838
 20
41.26617535403789
 30
0.0
 40
2.598812642507719
100
AcDbArc
 50
107.1206789773027
 51
149.819499465694
  0
ARC
  5
175
330
2
100
AcDbEntity
  8
KIJUN
 62
     7
100
AcDbCircle
 10
237.2188140583165
 20
41.47246785031351
 30
0.0
 40
1.186405552594083
100
AcDbArc
 50
20.35272927117458
 51
129.4114137054883
  0
ARC
  5
176
330
2
100
AcDbEntity
  8
KIJUN
 62
     7
100
AcDbCircle
 10
236.0509136018042
 20
42.187332677142
 30
0.0
 40
2.30018048826267
100
AcDbArc
 50
352.4497289817157
 51
65.7925849488356
  0
CIRCLE
  5
177
330
2
100
AcDbEntity
  8
KIJUN
 62
     7
100
AcDbCircle
 10
235.3678073022316
 20
42.63203427122203
 30
0.0
 40
0.9444147817925111
  0
CIRCLE
  5
178
330
2
100
AcDbEntity
  8
KIJUN
 62
     7
100
AcDbCircle
 10
234.515704937915
 20
44.33550290204951
 30
0.0
 40
0.9444147817925111
  0
ARC
  5
179
330
2
100
AcDbEntity
  8
KIJUN
 62
     7
100
AcDbCircle
 10
153.9576268135778
 20
41.47246785031398
 30
0.0
 40
1.186405552594083
100
AcDbArc
 50
50.58858629451131
 51
159.6472707288253
  0
ARC
  5
17A
330
2
100
AcDbEntity
  8
KIJUN
 62
     7
100
AcDbCircle
 10
155.12552727009
 20
42.18733267714201
 30
0.0
 40
2.30018048826267
100
AcDbArc
 50
114.2074150511642
 51
187.5502710182843
  0
CIRCLE
  5
17B
330
2
100
AcDbEntity
  8
KIJUN
 62
     7
100
AcDbCircle
 10
157.5157049379153
 20
44.33550290205043
 30
0.0
 40
0.9444147817925111
  0
CIRCLE
  5
17C
330
2
100
AcDbEntity
  8
KIJUN
 62
     7
100
AcDbCircle
 10
158.3678073022318
 20
42.63203427122248
 30
0.0
 40
0.9444147817925111
  0
CIRCLE
  5
17D
330
2
100
AcDbEntity
  8
KIJUN
 62
     7
100
AcDbCircle
 10
156.2375460794122
 20
42.63203427122248
 30
0.0
 40
0.9444147817925111
  0
ARC
  5
17E
330
2
100
AcDbEntity
  8
KIJUN
 62
     7
100
AcDbCircle
 10
166.9657515354073
 20
40.50992272409215
 30
0.0
 40
0.5
100
AcDbArc
 50
46.14615657424493
 51
141.4584531796573
  0
ARC
  5
17F
330
2
100
AcDbEntity
  8
KIJUN
 62
     7
100
AcDbCircle
 10
188.6244056538115
 20
14.17595590345633
 30
0.0
 40
38.05738377850636
100
AcDbArc
 50
126.3401741923301
 51
129.2295785746241
  0
ARC
  5
180
330
2
100
AcDbEntity
  8
KIJUN
 62
     7
100
AcDbCircle
 10
160.2188140583165
 20
41.47246785031351
 30
0.0
 40
1.186405552594083
100
AcDbArc
 50
20.35272927117458
 51
129.4114137054883
  0
ARC
  5
181
330
2
100
AcDbEntity
  8
KIJUN
 62
     7
100
AcDbCircle
 10
165.272681735484
 20
41.26617535403833
 30
0.0
 40
2.598812642507719
100
AcDbArc
 50
107.1206789773027
 51
149.819499465694
  0
ARC
  5
182
330
2
100
AcDbEntity
  8
KIJUN
 62
     7
100
AcDbCircle
 10
160.6134288330976
 20
41.76131873238777
 30
0.0
 40
2.598812642507719
100
AcDbArc
 50
347.0634050151971
 51
103.7873549223451
  0
ARC
  5
183
330
2
100
AcDbEntity
  8
KIJUN
 62
     7
100
AcDbCircle
 10
159.0509136018043
 20
42.18733267714201
 30
0.0
 40
2.30018048826267
100
AcDbArc
 50
352.4497289817157
 51
65.7925849488356
  0
ARC
  5
184
330
2
100
AcDbEntity
  8
KIJUN
 62
     7
100
AcDbCircle
 10
149.6398913327506
 20
26.83170175645323
 30
0.0
 40
24.77994461557308
100
AcDbArc
 50
40.64465911434824
 51
46.44916600266667
  0
ARC
  5
185
330
2
100
AcDbEntity
  8
KIJUN
 62
     7
100
AcDbCircle
 10
166.3687215000526
 20
44.42891607488631
 30
0.0
 40
0.5
100
AcDbArc
 50
46.44916600267676
 51
126.3401741923301
  0
ARC
  5
186
330
2
100
AcDbEntity
  8
KIJUN
 62
     7
100
AcDbCircle
 10
174.3755272700899
 20
42.18733267714201
 30
0.0
 40
2.30018048826267
100
AcDbArc
 50
114.2074150511642
 51
187.5502710182843
  0
ARC
  5
187
330
2
100
AcDbEntity
  8
KIJUN
 62
     7
100
AcDbCircle
 10
172.8130120387967
 20
41.76131873238777
 30
0.0
 40
2.598812642507719
100
AcDbArc
 50
76.21264507765484
 51
192.9365949848028
  0
ARC
  5
188
330
2
100
AcDbEntity
  8
KIJUN
 62
     7
100
AcDbCircle
 10
168.1537591364102
 20
41.26617535403833
 30
0.0
 40
2.598812642507719
100
AcDbArc
 50
30.18050053430565
 51
72.87932102269689
  0
ARC
  5
189
330
2
100
AcDbEntity
  8
KIJUN
 62
     7
100
AcDbCircle
 10
173.2076268135778
 20
41.47246785031351
 30
0.0
 40
1.186405552594083
100
AcDbArc
 50
50.58858629451131
 51
159.6472707288253
  0
CIRCLE
  5
18A
330
2
100
AcDbEntity
  8
KIJUN
 62
     7
100
AcDbCircle
 10
175.4875460794122
 20
42.63203427122248
 30
0.0
 40
0.9444147817925111
  0
ARC
  5
18B
330
2
100
AcDbEntity
  8
KIJUN
 62
     7
100
AcDbCircle
 10
215.2657049379153
 20
44.33550290204998
 30
0.0
 40
0.9444147817925111
100
AcDbArc
 50
111.4987253514077
 51
248.5012746485923
  0
CIRCLE
  5
18C
330
2
100
AcDbEntity
  8
KIJUN
 62
     7
100
AcDbCircle
 10
213.9875460794122
 20
42.63203427122246
 30
0.0
 40
0.9444147817925111
  0
ARC
  5
18D
330
2
100
AcDbEntity
  8
KIJUN
 62
     7
100
AcDbCircle
 10
188.1398913327506
 20
26.83170175645323
 30
0.0
 40
24.77994461557308
100
AcDbArc
 50
40.64465911434824
 51
46.44916600266667
  0
ARC
  5
18E
330
2
100
AcDbEntity
  8
KIJUN
 62
     7
100
AcDbCircle
 10
227.1244056538116
 20
14.17595590345632
 30
0.0
 40
38.05738377850636
100
AcDbArc
 50
126.3401741923301
 51
129.2295785746241
  0
ARC
  5
18F
330
2
100
AcDbEntity
  8
KIJUN
 62
     7
100
AcDbCircle
 10
206.6537591364102
 20
41.26617535403833
 30
0.0
 40
2.598812642507719
100
AcDbArc
 50
30.18050053430565
 51
72.87932102269689
  0
ARC
  5
190
330
2
100
AcDbEntity
  8
KIJUN
 62
     7
100
AcDbCircle
 10
211.3130120387967
 20
41.76131873238777
 30
0.0
 40
2.598812642507719
100
AcDbArc
 50
76.21264507765484
 51
192.9365949848028
  0
ARC
  5
191
330
2
100
AcDbEntity
  8
KIJUN
 62
     7
100
AcDbCircle
 10
211.7076268135778
 20
41.47246785031351
 30
0.0
 40
1.186405552594083
100
AcDbArc
 50
50.58858629451131
 51
159.6472707288253
  0
ARC
  5
192
330
2
100
AcDbEntity
  8
KIJUN
 62
     7
100
AcDbCircle
 10
212.87552727009
 20
42.187332677142
 30
0.0
 40
2.30018048826267
100
AcDbArc
 50
114.2074150511642
 51
187.5502710182843
  0
ARC
  5
193
330
2
100
AcDbEntity
  8
KIJUN
 62
     7
100
AcDbCircle
 10
205.4657515354073
 20
40.50992272409215
 30
0.0
 40
0.5
100
AcDbArc
 50
46.14615657424493
 51
141.4584531796573
  0
ARC
  5
194
330
2
100
AcDbEntity
  8
KIJUN
 62
     7
100
AcDbCircle
 10
204.8687215000526
 20
44.42891607488629
 30
0.0
 40
0.5
100
AcDbArc
 50
46.44916600267676
 51
126.3401741923301
  0
ARC
  5
195
330
2
100
AcDbEntity
  8
KIJUN
 62
     7
100
AcDbCircle
 10
197.5509136018043
 20
42.18733267714201
 30
0.0
 40
2.30018048826267
100
AcDbArc
 50
352.4497289817157
 51
65.7925849488356
  0
ARC
  5
196
330
2
100
AcDbEntity
  8
KIJUN
 62
     7
100
AcDbCircle
 10
199.1134288330976
 20
41.76131873238777
 30
0.0
 40
2.598812642507719
100
AcDbArc
 50
347.0634050151971
 51
103.7873549223451
  0
ARC
  5
197
330
2
100
AcDbEntity
  8
KIJUN
 62
     7
100
AcDbCircle
 10
203.7726817354841
 20
41.26617535403833
 30
0.0
 40
2.598812642507719
100
AcDbArc
 50
107.1206789773027
 51
149.819499465694
  0
ARC
  5
198
330
2
100
AcDbEntity
  8
KIJUN
 62
     7
100
AcDbCircle
 10
198.7188140583165
 20
41.47246785031351
 30
0.0
 40
1.186405552594083
100
AcDbArc
 50
20.35272927117458
 51
129.4114137054883
  0
CIRCLE
  5
199
330
2
100
AcDbEntity
  8
KIJUN
 62
     7
100
AcDbCircle
 10
194.3086335696624
 20
42.63203427122248
 30
0.0
 40
0.9444147817925111
  0
CIRCLE
  5
19A
330
2
100
AcDbEntity
  8
KIJUN
 62
     7
100
AcDbCircle
 10
196.438894792482
 20
42.63203427122248
 30
0.0
 40
0.9444147817925111
  0
CIRCLE
  5
19B
330
2
100
AcDbEntity
  8
KIJUN
 62
     7
100
AcDbCircle
 10
195.160735933979
 20
44.33550290204998
 30
0.0
 40
0.9444147817925111
  0
ARC
  5
19C
330
2
100
AcDbEntity
  8
KIJUN
 62
     7
100
AcDbCircle
 10
168.8898913327506
 20
26.83170175645323
 30
0.0
 40
24.77994461557308
100
AcDbArc
 50
40.64465911434824
 51
46.44916600266667
  0
ARC
  5
19D
330
2
100
AcDbEntity
  8
KIJUN
 62
     7
100
AcDbCircle
 10
193.62552727009
 20
42.18733267714201
 30
0.0
 40
2.30018048826267
100
AcDbArc
 50
114.2074150511642
 51
187.5502710182843
  0
ARC
  5
19E
330
2
100
AcDbEntity
  8
KIJUN
 62
     7
100
AcDbCircle
 10
192.0630120387967
 20
41.76131873238777
 30
0.0
 40
2.598812642507719
100
AcDbArc
 50
76.21264507765484
 51
192.9365949848028
  0
ARC
  5
19F
330
2
100
AcDbEntity
  8
KIJUN
 62
     7
100
AcDbCircle
 10
187.4037591364102
 20
41.26617535403833
 30
0.0
 40
2.598812642507719
100
AcDbArc
 50
30.18050053430565
 51
72.87932102269689
  0
ARC
  5
1A0
330
2
100
AcDbEntity
  8
KIJUN
 62
     7
100
AcDbCircle
 10
192.4576268135778
 20
41.47246785031351
 30
0.0
 40
1.186405552594083
100
AcDbArc
 50
50.58858629451131
 51
159.6472707288253
  0
ARC
  5
1A1
330
2
100
AcDbEntity
  8
KIJUN
 62
     7
100
AcDbCircle
 10
186.2157515354073
 20
40.50992272409215
 30
0.0
 40
0.5
100
AcDbArc
 50
46.14615657424493
 51
141.4584531796573
  0
ARC
  5
1A2
330
2
100
AcDbEntity
  8
KIJUN
 62
     7
100
AcDbCircle
 10
179.8634288330976
 20
41.76131873238777
 30
0.0
 40
2.598812642507719
100
AcDbArc
 50
347.0634050151971
 51
103.7873549223451
  0
ARC
  5
1A3
330
2
100
AcDbEntity
  8
KIJUN
 62
     7
100
AcDbCircle
 10
207.8744056538115
 20
14.17595590345632
 30
0.0
 40
38.05738377850636
100
AcDbArc
 50
126.3401741923301
 51
129.2295785746241
  0
ARC
  5
1A4
330
2
100
AcDbEntity
  8
KIJUN
 62
     7
100
AcDbCircle
 10
184.5226817354841
 20
41.26617535403833
 30
0.0
 40
2.598812642507719
100
AcDbArc
 50
107.1206789773027
 51
149.819499465694
  0
ARC
  5
1A5
330
2
100
AcDbEntity
  8
KIJUN
 62
     7
100
AcDbCircle
 10
185.6187215000526
 20
44.42891607488629
 30
0.0
 40
0.5
100
AcDbArc
 50
46.44916600267676
 51
126.3401741923301
  0
ARC
  5
1A6
330
2
100
AcDbEntity
  8
KIJUN
 62
     7
100
AcDbCircle
 10
179.4688140583165
 20
41.47246785031351
 30
0.0
 40
1.186405552594083
100
AcDbArc
 50
20.35272927117458
 51
129.4114137054883
  0
ARC
  5
1A7
330
2
100
AcDbEntity
  8
KIJUN
 62
     7
100
AcDbCircle
 10
178.3009136018045
 20
42.18733267714201
 30
0.0
 40
2.30018048826267
100
AcDbArc
 50
352.4497289817157
 51
65.7925849488356
  0
CIRCLE
  5
1A8
330
2
100
AcDbEntity
  8
KIJUN
 62
     7
100
AcDbCircle
 10
177.6178073022318
 20
42.63203427122248
 30
0.0
 40
0.9444147817925111
  0
CIRCLE
  5
1A9
330
2
100
AcDbEntity
  8
KIJUN
 62
     7
100
AcDbCircle
 10
176.7657049379153
 20
44.33550290204999
 30
0.0
 40
0.9444147817925111
  0
CIRCLE
  5
1AA
330
2
100
AcDbEntity
  8
KIJUN
 62
     7
100
AcDbCircle
 10
81.36780730223188
 20
42.63203427122249
 30
0.0
 40
0.9444147817925111
  0
ARC
  5
1AB
330
2
100
AcDbEntity
  8
KIJUN
 62
     7
100
AcDbCircle
 10
80.51570493791535
 20
44.33550290205046
 30
0.0
 40
0.9444147817925111
100
AcDbArc
 50
248.5012746486049
 51
111.498725351395
  0
ARC
  5
1AC
330
2
100
AcDbEntity
  8
KIJUN
 62
     7
100
AcDbCircle
 10
148.9037591364102
 20
41.26617535403878
 30
0.0
 40
2.598812642507719
100
AcDbArc
 50
30.18050053430565
 51
72.87932102269689
  0
ARC
  5
1AD
330
2
100
AcDbEntity
  8
KIJUN
 62
     7
100
AcDbCircle
 10
147.1187215000526
 20
44.42891607488678
 30
0.0
 40
0.5
100
AcDbArc
 50
46.44916600267676
 51
126.3401741923301
  0
ARC
  5
1AE
330
2
100
AcDbEntity
  8
KIJUN
 62
     7
100
AcDbCircle
 10
130.3898913327506
 20
26.83170175645324
 30
0.0
 40
24.77994461557308
100
AcDbArc
 50
40.64465911434824
 51
46.44916600266667
  0
ARC
  5
1AF
330
2
100
AcDbEntity
  8
KIJUN
 62
     7
100
AcDbCircle
 10
139.8009136018045
 20
42.18733267714202
 30
0.0
 40
2.30018048826267
100
AcDbArc
 50
352.4497289817157
 51
65.7925849488356
  0
ARC
  5
1B0
330
2
100
AcDbEntity
  8
KIJUN
 62
     7
100
AcDbCircle
 10
141.3634288330976
 20
41.76131873238777
 30
0.0
 40
2.598812642507719
100
AcDbArc
 50
347.0634050151971
 51
103.7873549223451
  0
ARC
  5
1B1
330
2
100
AcDbEntity
  8
KIJUN
 62
     7
100
AcDbCircle
 10
146.0226817354841
 20
41.26617535403878
 30
0.0
 40
2.598812642507719
100
AcDbArc
 50
107.1206789773027
 51
149.819499465694
  0
ARC
  5
1B2
330
2
100
AcDbEntity
  8
KIJUN
 62
     7
100
AcDbCircle
 10
140.9688140583165
 20
41.47246785031398
 30
0.0
 40
1.186405552594083
100
AcDbArc
 50
20.35272927117458
 51
129.4114137054883
  0
ARC
  5
1B3
330
2
100
AcDbEntity
  8
KIJUN
 62
     7
100
AcDbCircle
 10
169.3744056538115
 20
14.17595590345633
 30
0.0
 40
38.05738377850636
100
AcDbArc
 50
126.3401741923301
 51
129.2295785746241
  0
ARC
  5
1B4
330
2
100
AcDbEntity
  8
KIJUN
 62
     7
100
AcDbCircle
 10
147.7157515354073
 20
40.50992272409262
 30
0.0
 40
0.5
100
AcDbArc
 50
46.14615657424493
 51
141.4584531796573
  0
ARC
  5
1B5
330
2
100
AcDbEntity
  8
KIJUN
 62
     7
100
AcDbCircle
 10
101.3009136018043
 20
42.18733267714202
 30
0.0
 40
2.30018048826267
100
AcDbArc
 50
352.4497289817157
 51
65.7925849488356
  0
ARC
  5
1B6
330
2
100
AcDbEntity
  8
KIJUN
 62
     7
100
AcDbCircle
 10
102.4688140583166
 20
41.47246785031398
 30
0.0
 40
1.186405552594083
100
AcDbArc
 50
20.35272927117458
 51
129.4114137054883
  0
ARC
  5
1B7
330
2
100
AcDbEntity
  8
KIJUN
 62
     7
100
AcDbCircle
 10
108.6187215000527
 20
44.42891607488678
 30
0.0
 40
0.5
100
AcDbArc
 50
46.44916600267676
 51
126.3401741923301
  0
ARC
  5
1B8
330
2
100
AcDbEntity
  8
KIJUN
 62
     7
100
AcDbCircle
 10
107.5226817354841
 20
41.26617535403878
 30
0.0
 40
2.598812642507719
100
AcDbArc
 50
107.1206789773027
 51
149.819499465694
  0
ARC
  5
1B9
330
2
100
AcDbEntity
  8
KIJUN
 62
     7
100
AcDbCircle
 10
130.8744056538115
 20
14.17595590345633
 30
0.0
 40
38.05738377850636
100
AcDbArc
 50
126.3401741923301
 51
129.2295785746241
  0
ARC
  5
1BA
330
2
100
AcDbEntity
  8
KIJUN
 62
     7
100
AcDbCircle
 10
102.8634288330977
 20
41.76131873238777
 30
0.0
 40
2.598812642507719
100
AcDbArc
 50
347.0634050151971
 51
103.7873549223451
  0
ARC
  5
1BB
330
2
100
AcDbEntity
  8
KIJUN
 62
     7
100
AcDbCircle
 10
109.2157515354074
 20
40.50992272409263
 30
0.0
 40
0.5
100
AcDbArc
 50
46.14615657424493
 51
141.4584531796573
  0
ARC
  5
1BC
330
2
100
AcDbEntity
  8
KIJUN
 62
     7
100
AcDbCircle
 10
115.4576268135778
 20
41.47246785031398
 30
0.0
 40
1.186405552594083
100
AcDbArc
 50
50.58858629451131
 51
159.6472707288253
  0
ARC
  5
1BD
330
2
100
AcDbEntity
  8
KIJUN
 62
     7
100
AcDbCircle
 10
110.4037591364102
 20
41.26617535403878
 30
0.0
 40
2.598812642507719
100
AcDbArc
 50
30.18050053430565
 51
72.87932102269689
  0
ARC
  5
1BE
330
2
100
AcDbEntity
  8
KIJUN
 62
     7
100
AcDbCircle
 10
115.0630120387967
 20
41.76131873238777
 30
0.0
 40
2.598812642507719
100
AcDbArc
 50
76.21264507765484
 51
192.9365949848028
  0
ARC
  5
1BF
330
2
100
AcDbEntity
  8
KIJUN
 62
     7
100
AcDbCircle
 10
116.62552727009
 20
42.18733267714202
 30
0.0
 40
2.30018048826267
100
AcDbArc
 50
114.2074150511642
 51
187.5502710182843
  0
ARC
  5
1C0
330
2
100
AcDbEntity
  8
KIJUN
 62
     7
100
AcDbCircle
 10
91.88989133275065
 20
26.83170175645324
 30
0.0
 40
24.77994461557308
100
AcDbArc
 50
40.64465911434824
 51
46.44916600266667
  0
CIRCLE
  5
1C1
330
2
100
AcDbEntity
  8
KIJUN
 62
     7
100
AcDbCircle
 10
99.76570493791538
 20
44.33550290205046
 30
0.0
 40
0.9444147817925111
  0
CIRCLE
  5
1C2
330
2
100
AcDbEntity
  8
KIJUN
 62
     7
100
AcDbCircle
 10
98.48754607941227
 20
42.63203427122248
 30
0.0
 40
0.9444147817925111
  0
CIRCLE
  5
1C3
330
2
100
AcDbEntity
  8
KIJUN
 62
     7
100
AcDbCircle
 10
100.617807302232
 20
42.63203427122248
 30
0.0
 40
0.9444147817925111
  0
ARC
  5
1C4
330
2
100
AcDbEntity
  8
KIJUN
 62
     7
100
AcDbCircle
 10
96.20762681357787
 20
41.47246785031398
 30
0.0
 40
1.186405552594083
100
AcDbArc
 50
50.58858629451131
 51
159.6472707288253
  0
ARC
  5
1C5
330
2
100
AcDbEntity
  8
KIJUN
 62
     7
100
AcDbCircle
 10
91.15375913641026
 20
41.26617535403878
 30
0.0
 40
2.598812642507719
100
AcDbArc
 50
30.18050053430565
 51
72.87932102269689
  0
ARC
  5
1C6
330
2
100
AcDbEntity
  8
KIJUN
 62
     7
100
AcDbCircle
 10
95.81301203879679
 20
41.76131873238777
 30
0.0
 40
2.598812642507719
100
AcDbArc
 50
76.21264507765484
 51
192.9365949848028
  0
ARC
  5
1C7
330
2
100
AcDbEntity
  8
KIJUN
 62
     7
100
AcDbCircle
 10
97.37552727008999
 20
42.18733267714202
 30
0.0
 40
2.30018048826267
100
AcDbArc
 50
114.2074150511642
 51
187.5502710182843
  0
ARC
  5
1C8
330
2
100
AcDbEntity
  8
KIJUN
 62
     7
100
AcDbCircle
 10
89.36872150005269
 20
44.42891607488678
 30
0.0
 40
0.5
100
AcDbArc
 50
46.44916600267676
 51
126.3401741923301
  0
ARC
  5
1C9
330
2
100
AcDbEntity
  8
KIJUN
 62
     7
100
AcDbCircle
 10
72.63989133275067
 20
26.83170175645325
 30
0.0
 40
24.77994461557308
100
AcDbArc
 50
40.64465911434824
 51
46.44916600266667
  0
ARC
  5
1CA
330
2
100
AcDbEntity
  8
KIJUN
 62
     7
100
AcDbCircle
 10
82.05091360180432
 20
42.18733267714202
 30
0.0
 40
2.30018048826267
100
AcDbArc
 50
352.4497289817157
 51
65.7925849488356
  0
ARC
  5
1CB
330
2
100
AcDbEntity
  8
KIJUN
 62
     7
100
AcDbCircle
 10
83.61342883309772
 20
41.76131873238777
 30
0.0
 40
2.598812642507719
100
AcDbArc
 50
347.0634050151971
 51
103.7873549223451
  0
ARC
  5
1CC
330
2
100
AcDbEntity
  8
KIJUN
 62
     7
100
AcDbCircle
 10
88.27268173548418
 20
41.26617535403878
 30
0.0
 40
2.598812642507719
100
AcDbArc
 50
107.1206789773027
 51
149.819499465694
  0
ARC
  5
1CD
330
2
100
AcDbEntity
  8
KIJUN
 62
     7
100
AcDbCircle
 10
83.21881405831659
 20
41.47246785031398
 30
0.0
 40
1.186405552594083
100
AcDbArc
 50
20.35272927117458
 51
129.4114137054883
  0
ARC
  5
1CE
330
2
100
AcDbEntity
  8
KIJUN
 62
     7
100
AcDbCircle
 10
111.6244056538116
 20
14.17595590345633
 30
0.0
 40
38.05738377850636
100
AcDbArc
 50
126.3401741923301
 51
129.2295785746241
  0
ARC
  5
1CF
330
2
100
AcDbEntity
  8
KIJUN
 62
     7
100
AcDbCircle
 10
89.96575153540737
 20
40.50992272409263
 30
0.0
 40
0.5
100
AcDbArc
 50
46.14615657424493
 51
141.4584531796573
  0
CIRCLE
  5
1D0
330
2
100
AcDbEntity
  8
KIJUN
 62
     7
100
AcDbCircle
 10
118.1607359339791
 20
44.33550290205046
 30
0.0
 40
0.9444147817925111
  0
CIRCLE
  5
1D1
330
2
100
AcDbEntity
  8
KIJUN
 62
     7
100
AcDbCircle
 10
119.438894792482
 20
42.63203427122248
 30
0.0
 40
0.9444147817925111
  0
CIRCLE
  5
1D2
330
2
100
AcDbEntity
  8
KIJUN
 62
     7
100
AcDbCircle
 10
117.3086335696624
 20
42.63203427122248
 30
0.0
 40
0.9444147817925111
  0
ARC
  5
1D3
330
2
100
AcDbEntity
  8
KIJUN
 62
     7
100
AcDbCircle
 10
121.7188140583165
 20
41.47246785031398
 30
0.0
 40
1.186405552594083
100
AcDbArc
 50
20.35272927117458
 51
129.4114137054883
  0
ARC
  5
1D4
330
2
100
AcDbEntity
  8
KIJUN
 62
     7
100
AcDbCircle
 10
126.772681735484
 20
41.26617535403878
 30
0.0
 40
2.598812642507719
100
AcDbArc
 50
107.1206789773027
 51
149.819499465694
  0
ARC
  5
1D5
330
2
100
AcDbEntity
  8
KIJUN
 62
     7
100
AcDbCircle
 10
122.1134288330976
 20
41.76131873238777
 30
0.0
 40
2.598812642507719
100
AcDbArc
 50
347.0634050151971
 51
103.7873549223451
  0
ARC
  5
1D6
330
2
100
AcDbEntity
  8
KIJUN
 62
     7
100
AcDbCircle
 10
120.5509136018044
 20
42.18733267714202
 30
0.0
 40
2.30018048826267
100
AcDbArc
 50
352.4497289817157
 51
65.7925849488356
  0
ARC
  5
1D7
330
2
100
AcDbEntity
  8
KIJUN
 62
     7
100
AcDbCircle
 10
127.8687215000526
 20
44.42891607488678
 30
0.0
 40
0.5
100
AcDbArc
 50
46.44916600267676
 51
126.3401741923301
  0
ARC
  5
1D8
330
2
100
AcDbEntity
  8
KIJUN
 62
     7
100
AcDbCircle
 10
128.4657515354073
 20
40.50992272409263
 30
0.0
 40
0.5
100
AcDbArc
 50
46.14615657424493
 51
141.4584531796573
  0
ARC
  5
1D9
330
2
100
AcDbEntity
  8
KIJUN
 62
     7
100
AcDbCircle
 10
135.8755272700899
 20
42.18733267714202
 30
0.0
 40
2.30018048826267
100
AcDbArc
 50
114.2074150511642
 51
187.5502710182843
  0
ARC
  5
1DA
330
2
100
AcDbEntity
  8
KIJUN
 62
     7
100
AcDbCircle
 10
134.7076268135778
 20
41.47246785031398
 30
0.0
 40
1.186405552594083
100
AcDbArc
 50
50.58858629451131
 51
159.6472707288253
  0
ARC
  5
1DB
330
2
100
AcDbEntity
  8
KIJUN
 62
     7
100
AcDbCircle
 10
134.3130120387967
 20
41.76131873238777
 30
0.0
 40
2.598812642507719
100
AcDbArc
 50
76.21264507765484
 51
192.9365949848028
  0
ARC
  5
1DC
330
2
100
AcDbEntity
  8
KIJUN
 62
     7
100
AcDbCircle
 10
129.6537591364102
 20
41.26617535403878
 30
0.0
 40
2.598812642507719
100
AcDbArc
 50
30.18050053430565
 51
72.87932102269689
  0
ARC
  5
1DD
330
2
100
AcDbEntity
  8
KIJUN
 62
     7
100
AcDbCircle
 10
150.1244056538115
 20
14.17595590345633
 30
0.0
 40
38.05738377850636
100
AcDbArc
 50
126.3401741923301
 51
129.2295785746241
  0
ARC
  5
1DE
330
2
100
AcDbEntity
  8
KIJUN
 62
     7
100
AcDbCircle
 10
111.1398913327506
 20
26.83170175645324
 30
0.0
 40
24.77994461557308
100
AcDbArc
 50
40.64465911434824
 51
46.44916600266667
  0
CIRCLE
  5
1DF
330
2
100
AcDbEntity
  8
KIJUN
 62
     7
100
AcDbCircle
 10
136.9875460794122
 20
42.63203427122248
 30
0.0
 40
0.9444147817925111
  0
CIRCLE
  5
1E0
330
2
100
AcDbEntity
  8
KIJUN
 62
     7
100
AcDbCircle
 10
139.1178073022318
 20
42.63203427122248
 30
0.0
 40
0.9444147817925111
  0
CIRCLE
  5
1E1
330
2
100
AcDbEntity
  8
KIJUN
 62
     7
100
AcDbCircle
 10
138.2657049379153
 20
44.33550290205046
 30
0.0
 40
0.9444147817925111
  0
LINE
  5
1E2
330
2
100
AcDbEntity
  8
KIJUN
 62
     7
100
AcDbLine
 10
80.16959531021617
 20
35.78167969872089
 30
0.0
 11
214.9195953102161
 21
35.78167969872087
 31
0.0
  0
LINE
  5
1E3
330
2
100
AcDbEntity
  8
KIJUN
 62
     7
100
AcDbLine
 10
80.16959531021617
 20
35.07610799923539
 30
0.0
 11
214.9195953102161
 21
35.07610799923538
 31
0.0
  0
LINE
  5
1E4
330
2
100
AcDbEntity
  8
KIJUN
 62
     7
100
AcDbLine
 10
80.16959531021615
 20
31.55739689842092
 30
0.0
 11
214.9195953102159
 21
31.55739689842044
 31
0.0
  0
ARC
  5
1E5
330
2
100
AcDbEntity
  8
KIJUN
 62
     7
100
AcDbCircle
 10
265.1224369453617
 20
36.23590613573471
 30
0.0
 40
0.5
100
AcDbArc
 50
269.3565194003624
 51
39.5246936706091
  0
ARC
  5
1E6
330
2
100
AcDbEntity
  8
KIJUN
 62
     7
100
AcDbCircle
 10
261.6089520854822
 20
36.27536723433788
 30
0.0
 40
0.5
100
AcDbArc
 50
141.4584531796585
 51
269.3565194003615
  0
ARC
  5
1E7
330
2
100
AcDbEntity
  8
KIJUN
 62
     7
100
AcDbCircle
 10
245.8724369453617
 20
36.23590613573473
 30
0.0
 40
0.5
100
AcDbArc
 50
269.3565194003624
 51
39.5246936706091
  0
ARC
  5
1E8
330
2
100
AcDbEntity
  8
KIJUN
 62
     7
100
AcDbCircle
 10
300.1089520854822
 20
36.27536723433742
 30
0.0
 40
0.5
100
AcDbArc
 50
141.4584531796585
 51
269.3565194003615
  0
ARC
  5
1E9
330
2
100
AcDbEntity
  8
KIJUN
 62
     7
100
AcDbCircle
 10
303.6224369453618
 20
36.23590613573428
 30
0.0
 40
0.5
100
AcDbArc
 50
269.3565194003624
 51
39.5246936706091
  0
ARC
  5
1EA
330
2
100
AcDbEntity
  8
KIJUN
 62
     7
100
AcDbCircle
 10
284.3724369453617
 20
36.23590613573471
 30
0.0
 40
0.5
100
AcDbArc
 50
269.3565194003624
 51
39.5246936706091
  0
ARC
  5
1EB
330
2
100
AcDbEntity
  8
KIJUN
 62
     7
100
AcDbCircle
 10
280.8589520854822
 20
36.27536723433788
 30
0.0
 40
0.5
100
AcDbArc
 50
141.4584531796585
 51
269.3565194003615
  0
ARC
  5
1EC
330
2
100
AcDbEntity
  8
KIJUN
 62
     7
100
AcDbCircle
 10
319.3589520854822
 20
36.27536723433742
 30
0.0
 40
0.5
100
AcDbArc
 50
141.4584531796585
 51
269.3565194003615
  0
ARC
  5
1ED
330
2
100
AcDbEntity
  8
KIJUN
 62
     7
100
AcDbCircle
 10
322.8724369453618
 20
36.23590613573426
 30
0.0
 40
0.5
100
AcDbArc
 50
269.3565194003624
 51
39.5246936706091
  0
ARC
  5
1EE
330
2
100
AcDbEntity
  8
KIJUN
 62
     7
100
AcDbCircle
 10
226.6224369453617
 20
36.23590613573473
 30
0.0
 40
0.5
100
AcDbArc
 50
269.3565194003624
 51
39.5246936706091
  0
ARC
  5
1EF
330
2
100
AcDbEntity
  8
KIJUN
 62
     7
100
AcDbCircle
 10
223.1089520854824
 20
36.27536723433788
 30
0.0
 40
0.5
100
AcDbArc
 50
141.4584531796585
 51
269.3565194003615
  0
ARC
  5
1F0
330
2
100
AcDbEntity
  8
KIJUN
 62
     7
100
AcDbCircle
 10
242.3589520854822
 20
36.27536723433788
 30
0.0
 40
0.5
100
AcDbArc
 50
141.4584531796585
 51
269.3565194003615
  0
ARC
  5
1F1
330
2
100
AcDbEntity
  8
KIJUN
 62
     7
100
AcDbCircle
 10
168.8724369453621
 20
36.23590613573473
 30
0.0
 40
0.5
100
AcDbArc
 50
269.3565194003624
 51
39.5246936706091
  0
ARC
  5
1F2
330
2
100
AcDbEntity
  8
KIJUN
 62
     7
100
AcDbCircle
 10
165.3589520854824
 20
36.27536723433789
 30
0.0
 40
0.5
100
AcDbArc
 50
141.4584531796585
 51
269.3565194003615
  0
ARC
  5
1F3
330
2
100
AcDbEntity
  8
KIJUN
 62
     7
100
AcDbCircle
 10
207.372436945362
 20
36.23590613573473
 30
0.0
 40
0.5
100
AcDbArc
 50
269.3565194003624
 51
39.5246936706091
  0
ARC
  5
1F4
330
2
100
AcDbEntity
  8
KIJUN
 62
     7
100
AcDbCircle
 10
203.8589520854825
 20
36.27536723433788
 30
0.0
 40
0.5
100
AcDbArc
 50
141.4584531796585
 51
269.3565194003615
  0
ARC
  5
1F5
330
2
100
AcDbEntity
  8
KIJUN
 62
     7
100
AcDbCircle
 10
188.1224369453619
 20
36.23590613573473
 30
0.0
 40
0.5
100
AcDbArc
 50
269.3565194003624
 51
39.5246936706091
  0
ARC
  5
1F6
330
2
100
AcDbEntity
  8
KIJUN
 62
     7
100
AcDbCircle
 10
184.6089520854824
 20
36.27536723433789
 30
0.0
 40
0.5
100
AcDbArc
 50
141.4584531796585
 51
269.3565194003615
  0
ARC
  5
1F7
330
2
100
AcDbEntity
  8
KIJUN
 62
     7
100
AcDbCircle
 10
146.1089520854824
 20
36.27536723433789
 30
0.0
 40
0.5
100
AcDbArc
 50
141.4584531796585
 51
269.3565194003615
  0
ARC
  5
1F8
330
2
100
AcDbEntity
  8
KIJUN
 62
     7
100
AcDbCircle
 10
149.6224369453619
 20
36.23590613573473
 30
0.0
 40
0.5
100
AcDbArc
 50
269.3565194003624
 51
39.5246936706091
  0
ARC
  5
1F9
330
2
100
AcDbEntity
  8
KIJUN
 62
     7
100
AcDbCircle
 10
107.6089520854825
 20
36.2753672343379
 30
0.0
 40
0.5
100
AcDbArc
 50
141.4584531796585
 51
269.3565194003615
  0
ARC
  5
1FA
330
2
100
AcDbEntity
  8
KIJUN
 62
     7
100
AcDbCircle
 10
111.1224369453621
 20
36.23590613573473
 30
0.0
 40
0.5
100
AcDbArc
 50
269.3565194003624
 51
39.5246936706091
  0
ARC
  5
1FB
330
2
100
AcDbEntity
  8
KIJUN
 62
     7
100
AcDbCircle
 10
88.35895208548247
 20
36.2753672343379
 30
0.0
 40
0.5
100
AcDbArc
 50
141.4584531796585
 51
269.3565194003615
  0
ARC
  5
1FC
330
2
100
AcDbEntity
  8
KIJUN
 62
     7
100
AcDbCircle
 10
91.87243694536197
 20
36.23590613573473
 30
0.0
 40
0.5
100
AcDbArc
 50
269.3565194003624
 51
39.5246936706091
  0
ARC
  5
1FD
330
2
100
AcDbEntity
  8
KIJUN
 62
     7
100
AcDbCircle
 10
126.8589520854824
 20
36.2753672343379
 30
0.0
 40
0.5
100
AcDbArc
 50
141.4584531796585
 51
269.3565194003615
  0
ARC
  5
1FE
330
2
100
AcDbEntity
  8
KIJUN
 62
     7
100
AcDbCircle
 10
130.3724369453621
 20
36.23590613573473
 30
0.0
 40
0.5
100
AcDbArc
 50
269.3565194003624
 51
39.5246936706091
  0
DIMENSION
  5
1FF
330
2
100
AcDbEntity
  8
SUNPOU
100
AcDbDimension
  2
*D2
 10
51.60778862658748
 20
60.15958215779233
 30
0.0
 11
37.10778862658748
 21
65.15958215779233
 31
0.0
  1
24
 71
     5
 42
29.0
  3
STANDARD$0
100
AcDbAlignedDimension
 13
22.60778862658748
 23
50.5573968984207
 33
0.0
 14
51.60778862658748
 24
50.5573968984207
 34
0.0
100
AcDbRotatedDimension
1001
ACAD
1000
DSTYLE
1002
{
1070
    41
1040
2.0
1070
    44
1040
0.0
1070
    77
1070
     1
1070
    78
1070
     0
1070
   140
1040
3.0
1070
   141
1040
1.0
1070
   146
1040
0.0642857142857143
1070
   172
1070
     0
1070
   173
1070
     0
1070
   176
1070
    60
1070
   177
1070
    70
1070
   178
1070
    60
1070
   271
1070
     0
1070
   272
1070
     0
1070
   341
1005
0
1070
   342
1005
37
1070
   343
1005
0
1070
   344
1005
0
1002
}
  0
TEXT
  5
20C
330
2
100
AcDbEntity
  8
HOJO
100
AcDbText
 10
0.4800524458614746
 20
1.183313000000011
 30
0.0
 40
4.5
  1
PM837
  7
SUNPOU
100
AcDbText
  0
LINE
  5
20E
330
2
100
AcDbEntity
  8
WAKU
100
AcDbLine
 10
0.0
 20
0.0
 30
0.0
 11
44.67747103027142
 21
0.0
 31
0.0
  0
LINE
  5
210
330
2
100
AcDbEntity
  8
WAKU
100
AcDbLine
 10
0.0
 20
7.0
 30
0.0
 11
44.67747103027142
 21
7.0
 31
0.0
  0
TEXT
  5
211
330
2
100
AcDbEntity
  8
HOJO
100
AcDbText
 10
30.73070169873484
 20
2.522193000000015
 30
0.0
 40
3.0
  1
16\U+00D724
  7
SUNPOU
100
AcDbText
  0
LWPOLYLINE
  5
212
330
2
100
AcDbEntity
  8
KIJUN
100
AcDbPolyline
 90
       19
 70
     0
 43
0.0
 10
46.60778862658722
 20
48.14249906395362
 42
0.1077760222711094
 10
47.01548497051037
 20
45.76854463618299
 10
49.39334382780765
 20
43.36643859556722
 10
49.5401461801002
 20
42.5638586998029
 42
0.1107687945157371
 10
50.54547305919683
 20
39.68593648026658
 42
-0.0702865335604348
 10
50.85893972732101
 20
39.29182138127768
 42
-0.5905157640470611
 10
48.40778862658766
 20
34.55739689842092
 10
48.40778862658739
 20
32.75739689842071
 42
-0.4142135623730951
 10
47.20778862658739
 20
31.55739689842092
 10
23.80778862658729
 20
31.55739689842071
 42
-0.4142135623730951
 10
22.60778862658748
 20
32.75739689842072
 10
22.60778862658748
 20
43.5573968984209
 42
-0.4142135623730951
 10
23.80778862658729
 20
44.75739689842089
 10
40.60778862658747
 20
44.75739689842072
 10
40.60778862658747
 20
49.5573968984209
 42
-0.4142135623730951
 10
41.80778862658729
 20
50.75739689842091
 10
45.40778862658766
 20
50.75739689842071
 42
-0.4142135623730951
 10
46.60778862658765
 20
49.5573968984209
 10
46.60778862658747
 20
48.14055417347532
  0
ENDSEC
  0
SECTION
  2
OBJECTS
  0
DICTIONARY
  5
9
330
0
100
AcDbDictionary
281
     1
  3
ACAD_COLOR
350
48
  3
ACAD_GROUP
350
3D
  3
ACAD_LAYOUT
350
1F
  3
ACAD_MATERIAL
350
C
  3
ACAD_MLEADERSTYLE
350
4B
  3
ACAD_MLINESTYLE
350
3E
  3
ACAD_PLOTSETTINGS
350
3F
  3
ACAD_PLOTSTYLENAME
350
8
  3
ACAD_SCALELIST
350
49
  3
ACAD_TABLESTYLE
350
4A
  3
ACAD_VISUALSTYLE
350
32
  3
ACDB_RECOMPOSE_DATA
350
224
  3
AcDbVariableDictionary
350
217
  0
DICTIONARY
  5
3
330
2
100
AcDbDictionary
280
     1
281
     1
  3
ACAD_LAYOUTSELFREF
360
4
  0
DICTIONARY
  5
21
330
20
100
AcDbDictionary
280
     1
281
     1
  3
ACAD_LAYOUTSELFREF
360
22
  0
DICTIONARY
  5
48
102
{ACAD_REACTORS
330
9
102
}
330
9
100
AcDbDictionary
281
     1
  0
DICTIONARY
  5
3D
102
{ACAD_REACTORS
330
9
102
}
330
9
100
AcDbDictionary
281
     1
  0
DICTIONARY
  5
1F
102
{ACAD_REACTORS
330
9
102
}
330
9
100
AcDbDictionary
281
     1
  3
Model
350
1E
  3
ﾚｲｱｳﾄ1
350
25
  0
DICTIONARY
  5
C
102
{ACAD_REACTORS
330
9
102
}
330
9
100
AcDbDictionary
281
     1
  3
ByBlock
350
40
  3
ByLayer
350
15
  3
Global
350
B
  0
DICTIONARY
  5
4B
102
{ACAD_REACTORS
330
9
102
}
330
9
100
AcDbDictionary
281
     1
  0
DICTIONARY
  5
3E
102
{ACAD_REACTORS
330
9
102
}
330
9
100
AcDbDictionary
281
     1
  3
STANDARD
350
4D
  0
DICTIONARY
  5
3F
102
{ACAD_REACTORS
330
9
102
}
330
9
100
AcDbDictionary
281
     1
  0
ACDBDICTIONARYWDFLT
  5
8
102
{ACAD_REACTORS
330
9
102
}
330
9
100
AcDbDictionary
281
     1
  3
Normal
350
7
100
AcDbDictionaryWithDefault
340
7
  0
DICTIONARY
  5
49
102
{ACAD_REACTORS
330
9
102
}
330
9
100
AcDbDictionary
281
     1
  3
A0
350
51
  3
A1
350
52
  3
A2
350
53
  3
A3
350
54
  3
A4
350
55
  3
A5
350
56
  3
A6
350
57
  3
A7
350
58
  3
A8
350
59
  3
A9
350
5A
  3
B0
350
5B
  3
B1
350
5C
  3
B2
350
5D
  3
B3
350
5E
  3
B4
350
5F
  3
B5
350
60
  3
B6
350
61
  0
DICTIONARY
  5
4A
102
{ACAD_REACTORS
330
9
102
}
330
9
100
AcDbDictionary
281
     1
  3
Standard
350
4E
  0
DICTIONARY
  5
32
102
{ACAD_REACTORS
330
9
102
}
330
9
100
AcDbDictionary
281
     1
  3
2dWireframe
350
31
  3
Realistic
350
4F
  3
Wireframe
350
50
  0
XRECORD
  5
224
102
{ACAD_REACTORS
330
9
102
}
330
9
100
AcDbXrecord
280
     1
 90
        1
330
4E
  0
DICTIONARY
  5
217
102
{ACAD_REACTORS
330
9
102
}
330
9
100
AcDbDictionary
281
     1
  3
CANNOSCALE
350
21C
  3
CMLEADERSTYLE
350
219
  3
CTABLESTYLE
350
218
  3
CVIEWDETAILSTYLE
350
21A
  3
CVIEWSECTIONSTYLE
350
21B
  3
DIMASSOC
350
220
  3
HIDETEXT
350
21F
  3
INDEXCTL
350
21E
  3
SORTENTS
350
21D
  3
XCLIPFRAME
350
221
  0
XRECORD
  5
4
102
{ACAD_REACTORS
330
3
102
}
330
3
100
AcDbXrecord
280
     1
340
2
  0
XRECORD
  5
22
102
{ACAD_REACTORS
330
21
102
}
330
21
100
AcDbXrecord
280
     1
340
20
  0
LAYOUT
  5
1E
102
{ACAD_XDICTIONARY
360
227
102
}
102
{ACAD_REACTORS
330
1F
102
}
330
1F
100
AcDbPlotSettings
  1

  2
なし
  4

  6

 40
0.0
 41
0.0
 42
0.0
 43
0.0
 44
0.0
 45
0.0
 46
0.0
 47
0.0
 48
0.0
 49
0.0
140
0.0
141
0.0
142
1.0
143
1.0
 70
  1712
 72
     0
 73
     0
 74
     0
  7
monochrome.ctb
 75
     0
147
1.0
148
0.0
149
0.0
100
AcDbLayout
  1
Model
 70
     1
 71
     0
 10
0.0
 20
0.0
 11
12.0
 21
9.0
 12
0.0
 22
0.0
 32
0.0
 14
0.0
 24
0.0
 34
0.0
 15
0.0
 25
0.0
 35
0.0
146
0.0
 13
0.0
 23
0.0
 33
0.0
 16
1.0
 26
0.0
 36
0.0
 17
0.0
 27
1.0
 37
0.0
 76
     0
330
2
  0
LAYOUT
  5
25
102
{ACAD_XDICTIONARY
360
229
102
}
102
{ACAD_REACTORS
330
1F
102
}
330
1F
100
AcDbPlotSettings
  1

  2
なし
  4

  6

 40
0.0
 41
0.0
 42
0.0
 43
0.0
 44
0.0
 45
0.0
 46
0.0
 47
0.0
 48
0.0
 49
0.0
140
0.0
141
0.0
142
1.0
143
1.0
 70
   688
 72
     0
 73
     0
 74
     5
  7
monochrome.ctb
 75
    16
147
1.0
148
0.0
149
0.0
100
AcDbLayout
  1
ﾚｲｱｳﾄ1
 70
     1
 71
     1
 10
0.0
 20
0.0
 11
12.0
 21
9.0
 12
0.0
 22
0.0
 32
0.0
 14
1.000000000000000E+20
 24
1.000000000000000E+20
 34
1.000000000000000E+20
 15
-1.000000000000000E+20
 25
-1.000000000000000E+20
 35
-1.000000000000000E+20
146
0.0
 13
0.0
 23
0.0
 33
0.0
 16
1.0
 26
0.0
 36
0.0
 17
0.0
 27
1.0
 37
0.0
 76
     0
330
20
  0
MATERIAL
  5
40
102
{ACAD_XDICTIONARY
360
41
102
}
102
{ACAD_REACTORS
330
C
102
}
330
C
100
AcDbMaterial
  1
ByBlock
 72
     0
 43
0.0208333333333333
 43
0.0
 43
0.0
 43
0.0
 43
0.0
 43
0.0208333333333333
 43
0.0
 43
0.0
 43
0.0
 43
0.0
 43
1.0
 43
0.0
 43
0.0
 43
0.0
 43
0.0
 43
1.0
 77
     0
 47
0.0208333333333333
 47
0.0
 47
0.0
 47
0.0
 47
0.0
 47
0.0208333333333333
 47
0.0
 47
0.0
 47
0.0
 47
0.0
 47
1.0
 47
0.0
 47
0.0
 47
0.0
 47
0.0
 47
1.0
171
     0
 49
0.0208333333333333
 49
0.0
 49
0.0
 49
0.0
 49
0.0
 49
0.0208333333333333
 49
0.0
 49
0.0
 49
0.0
 49
0.0
 49
1.0
 49
0.0
 49
0.0
 49
0.0
 49
0.0
 49
1.0
175
     0
142
0.0208333333333333
142
0.0
142
0.0
142
0.0
142
0.0
142
0.0208333333333333
142
0.0
142
0.0
142
0.0
142
0.0
142
1.0
142
0.0
142
0.0
142
0.0
142
0.0
142
1.0
179
     0
144
0.0208333333333333
144
0.0
144
0.0
144
0.0
144
0.0
144
0.0208333333333333
144
0.0
144
0.0
144
0.0
144
0.0
144
1.0
144
0.0
144
0.0
144
0.0
144
0.0
144
1.0
147
0.0208333333333333
147
0.0
147
0.0
147
0.0
147
0.0
147
0.0208333333333333
147
0.0
147
0.0
147
0.0
147
0.0
147
1.0
147
0.0
147
0.0
147
0.0
147
0.0
147
1.0
  0
MATERIAL
  5
15
102
{ACAD_XDICTIONARY
360
16
102
}
102
{ACAD_REACTORS
330
C
102
}
330
C
100
AcDbMaterial
  1
ByLayer
 72
     0
 43
0.0208333333333333
 43
0.0
 43
0.0
 43
0.0
 43
0.0
 43
0.0208333333333333
 43
0.0
 43
0.0
 43
0.0
 43
0.0
 43
1.0
 43
0.0
 43
0.0
 43
0.0
 43
0.0
 43
1.0
 77
     0
 47
0.0208333333333333
 47
0.0
 47
0.0
 47
0.0
 47
0.0
 47
0.0208333333333333
 47
0.0
 47
0.0
 47
0.0
 47
0.0
 47
1.0
 47
0.0
 47
0.0
 47
0.0
 47
0.0
 47
1.0
171
     0
 49
0.0208333333333333
 49
0.0
 49
0.0
 49
0.0
 49
0.0
 49
0.0208333333333333
 49
0.0
 49
0.0
 49
0.0
 49
0.0
 49
1.0
 49
0.0
 49
0.0
 49
0.0
 49
0.0
 49
1.0
175
     0
142
0.0208333333333333
142
0.0
142
0.0
142
0.0
142
0.0
142
0.0208333333333333
142
0.0
142
0.0
142
0.0
142
0.0
142
1.0
142
0.0
142
0.0
142
0.0
142
0.0
142
1.0
179
     0
144
0.0208333333333333
144
0.0
144
0.0
144
0.0
144
0.0
144
0.0208333333333333
144
0.0
144
0.0
144
0.0
144
0.0
144
1.0
144
0.0
144
0.0
144
0.0
144
0.0
144
1.0
147
0.0208333333333333
147
0.0
147
0.0
147
0.0
147
0.0
147
0.0208333333333333
147
0.0
147
0.0
147
0.0
147
0.0
147
1.0
147
0.0
147
0.0
147
0.0
147
0.0
147
1.0
  0
MATERIAL
  5
B
102
{ACAD_XDICTIONARY
360
D
102
}
102
{ACAD_REACTORS
330
C
102
}
330
C
100
AcDbMaterial
  1
Global
 72
     0
 43
0.0208333333333333
 43
0.0
 43
0.0
 43
0.0
 43
0.0
 43
0.0208333333333333
 43
0.0
 43
0.0
 43
0.0
 43
0.0
 43
1.0
 43
0.0
 43
0.0
 43
0.0
 43
0.0
 43
1.0
 77
     0
 47
0.0208333333333333
 47
0.0
 47
0.0
 47
0.0
 47
0.0
 47
0.0208333333333333
 47
0.0
 47
0.0
 47
0.0
 47
0.0
 47
1.0
 47
0.0
 47
0.0
 47
0.0
 47
0.0
 47
1.0
171
     0
 49
0.0208333333333333
 49
0.0
 49
0.0
 49
0.0
 49
0.0
 49
0.0208333333333333
 49
0.0
 49
0.0
 49
0.0
 49
0.0
 49
1.0
 49
0.0
 49
0.0
 49
0.0
 49
0.0
 49
1.0
175
     0
142
0.0208333333333333
142
0.0
142
0.0
142
0.0
142
0.0
142
0.0208333333333333
142
0.0
142
0.0
142
0.0
142
0.0
142
1.0
142
0.0
142
0.0
142
0.0
142
0.0
142
1.0
179
     0
144
0.0208333333333333
144
0.0
144
0.0
144
0.0
144
0.0
144
0.0208333333333333
144
0.0
144
0.0
144
0.0
144
0.0
144
1.0
144
0.0
144
0.0
144
0.0
144
0.0
144
1.0
147
0.0208333333333333
147
0.0
147
0.0
147
0.0
147
0.0
147
0.0208333333333333
147
0.0
147
0.0
147
0.0
147
0.0
147
1.0
147
0.0
147
0.0
147
0.0
147
0.0
147
1.0
  0
MLINESTYLE
  5
4D
102
{ACAD_REACTORS
330
3E
102
}
330
3E
100
AcDbMlineStyle
  2
STANDARD
 70
     0
  3

 62
   256
 51
90.0
 52
90.0
 71
     2
 49
0.5
 62
   256
  6
BYLAYER
 49
-0.5
 62
   256
  6
BYLAYER
  0
ACDBPLACEHOLDER
  5
7
102
{ACAD_REACTORS
330
8
102
}
330
8
  0
SCALE
  5
51
102
{ACAD_REACTORS
330
49
102
}
330
49
100
AcDbScale
 70
     0
300
1:1
140
1.0
141
1.0
290
     1
  0
SCALE
  5
52
102
{ACAD_REACTORS
330
49
102
}
330
49
100
AcDbScale
 70
     0
300
1/128" = 1'-0"
140
0.0078125
141
12.0
290
     0
  0
SCALE
  5
53
102
{ACAD_REACTORS
330
49
102
}
330
49
100
AcDbScale
 70
     0
300
1/64" = 1'-0"
140
0.015625
141
12.0
290
     0
  0
SCALE
  5
54
102
{ACAD_REACTORS
330
49
102
}
330
49
100
AcDbScale
 70
     0
300
1/32" = 1'-0"
140
0.03125
141
12.0
290
     0
  0
SCALE
  5
55
102
{ACAD_REACTORS
330
49
102
}
330
49
100
AcDbScale
 70
     0
300
1/16" = 1'-0"
140
0.0625
141
12.0
290
     0
  0
SCALE
  5
56
102
{ACAD_REACTORS
330
49
102
}
330
49
100
AcDbScale
 70
     0
300
3/32" = 1'-0"
140
0.09375
141
12.0
290
     0
  0
SCALE
  5
57
102
{ACAD_REACTORS
330
49
102
}
330
49
100
AcDbScale
 70
     0
300
1/8" = 1'-0"
140
0.125
141
12.0
290
     0
  0
SCALE
  5
58
102
{ACAD_REACTORS
330
49
102
}
330
49
100
AcDbScale
 70
     0
300
3/16" = 1'-0"
140
0.1875
141
12.0
290
     0
  0
SCALE
  5
59
102
{ACAD_REACTORS
330
49
102
}
330
49
100
AcDbScale
 70
     0
300
1/4" = 1'-0"
140
0.25
141
12.0
290
     0
  0
SCALE
  5
5A
102
{ACAD_REACTORS
330
49
102
}
330
49
100
AcDbScale
 70
     0
300
3/8" = 1'-0"
140
0.375
141
12.0
290
     0
  0
SCALE
  5
5B
102
{ACAD_REACTORS
330
49
102
}
330
49
100
AcDbScale
 70
     0
300
1/2" = 1'-0"
140
0.5
141
12.0
290
     0
  0
SCALE
  5
5C
102
{ACAD_REACTORS
330
49
102
}
330
49
100
AcDbScale
 70
     0
300
3/4" = 1'-0"
140
0.75
141
12.0
290
     0
  0
SCALE
  5
5D
102
{ACAD_REACTORS
330
49
102
}
330
49
100
AcDbScale
 70
     0
300
1" = 1'-0"
140
1.0
141
12.0
290
     0
  0
SCALE
  5
5E
102
{ACAD_REACTORS
330
49
102
}
330
49
100
AcDbScale
 70
     0
300
1-1/2" = 1'-0"
140
1.5
141
12.0
290
     0
  0
SCALE
  5
5F
102
{ACAD_REACTORS
330
49
102
}
330
49
100
AcDbScale
 70
     0
300
3" = 1'-0"
140
3.0
141
12.0
290
     0
  0
SCALE
  5
60
102
{ACAD_REACTORS
330
49
102
}
330
49
100
AcDbScale
 70
     0
300
6" = 1'-0"
140
6.0
141
12.0
290
     0
  0
SCALE
  5
61
102
{ACAD_REACTORS
330
49
102
}
330
49
100
AcDbScale
 70
     0
300
1'-0" = 1'-0"
140
12.0
141
12.0
290
     0
  0
TABLESTYLE
  5
4E
102
{ACAD_XDICTIONARY
360
222
102
}
102
{ACAD_REACTORS
330
4A
102
}
330
4A
100
AcDbTableStyle
  3
Standard
 70
     0
 71
     0
 40
0.06
 41
0.06
280
     0
281
     0
  7
STANDARD
140
0.18
170
     2
 62
     0
 63
     7
283
     0
274
    -2
284
     1
 64
     0
275
    -2
285
     1
 65
     0
276
    -2
286
     1
 66
     0
277
    -2
287
     1
 67
     0
278
    -2
288
     1
 68
     0
279
    -2
289
     1
 69
     0
  7
STANDARD
140
0.25
170
     5
 62
     0
 63
     7
283
     0
274
    -2
284
     1
 64
     0
275
    -2
285
     1
 65
     0
276
    -2
286
     1
 66
     0
277
    -2
287
     1
 67
     0
278
    -2
288
     1
 68
     0
279
    -2
289
     1
 69
     0
  7
STANDARD
140
0.18
170
     5
 62
     0
 63
     7
283
     0
274
    -2
284
     1
 64
     0
275
    -2
285
     1
 65
     0
276
    -2
286
     1
 66
     0
277
    -2
287
     1
 67
     0
278
    -2
288
     1
 68
     0
279
    -2
289
     1
 69
     0
  0
VISUALSTYLE
  5
31
102
{ACAD_XDICTIONARY
360
22B
102
}
102
{ACAD_REACTORS
330
32
102
}
330
32
100
AcDbVisualStyle
  2
2dWireframe
 70
     4
 71
     0
 72
     2
 73
     0
 90
        0
 40
-0.6
 41
-30.0
 62
     5
 63
     7
 74
     1
 91
        4
 64
     7
 65
   257
 75
     1
175
     1
 42
1.0
 92
        0
 66
   257
 43
1.0
 76
     1
 77
     6
 78
     2
 67
     7
 79
     5
170
     0
171
     0
290
     0
174
     0
 93
        1
 44
0.0
173
     0
291
     0
 45
0.0
1001
ACAD
1000
AcDbSavedByObjectVersion
1070
     0
  0
VISUALSTYLE
  5
4F
102
{ACAD_XDICTIONARY
360
22F
102
}
102
{ACAD_REACTORS
330
32
102
}
330
32
100
AcDbVisualStyle
  2
Realistic
 70
     8
 71
     2
 72
     3
 73
     0
 90
        2
 40
-0.6
 41
30.0
 62
     5
 63
     7
 74
     0
 91
        0
 64
     7
 65
   257
 75
     1
175
     1
 42
1.0
 92
        8
 66
   257
 43
1.0
 76
     1
 77
     6
 78
     2
 67
     7
 79
     3
170
     0
171
     0
290
     0
174
     0
 93
       13
 44
0.0
173
     0
291
     0
 45
0.0
1001
ACAD
1000
AcDbSavedByObjectVersion
1070
     0
  0
VISUALSTYLE
  5
50
102
{ACAD_XDICTIONARY
360
231
102
}
102
{ACAD_REACTORS
330
32
102
}
330
32
100
AcDbVisualStyle
  2
Wireframe
 70
     5
 71
     0
 72
     2
 73
     0
 90
        0
 40
-0.6
 41
-30.0
 62
     5
 63
     7
 74
     1
 91
        4
 64
     7
 65
   257
 75
     1
175
     1
 42
1.0
 92
        0
 66
   257
 43
1.0
 76
     1
 77
     6
 78
     2
 67
     7
 79
     3
170
     0
171
     0
290
     0
174
     0
 93
        1
 44
0.0
173
     0
291
     0
 45
0.0
1001
ACAD
1000
AcDbSavedByObjectVersion
1070
     0
  0
DICTIONARYVAR
  5
21C
102
{ACAD_REACTORS
330
217
102
}
330
217
100
DictionaryVariables
280
     0
  1
1:1
  0
DICTIONARYVAR
  5
219
102
{ACAD_REACTORS
330
217
102
}
330
217
100
DictionaryVariables
280
     0
  1
STANDARD
  0
DICTIONARYVAR
  5
218
102
{ACAD_REACTORS
330
217
102
}
330
217
100
DictionaryVariables
280
     0
  1
STANDARD
  0
DICTIONARYVAR
  5
21A
102
{ACAD_REACTORS
330
217
102
}
330
217
100
DictionaryVariables
280
     0
  1

  0
DICTIONARYVAR
  5
21B
102
{ACAD_REACTORS
330
217
102
}
330
217
100
DictionaryVariables
280
     0
  1

  0
DICTIONARYVAR
  5
220
102
{ACAD_REACTORS
330
217
102
}
330
217
100
DictionaryVariables
280
     0
  1
1
  0
DICTIONARYVAR
  5
21F
102
{ACAD_REACTORS
330
217
102
}
330
217
100
DictionaryVariables
280
     0
  1
1
  0
DICTIONARYVAR
  5
21E
102
{ACAD_REACTORS
330
217
102
}
330
217
100
DictionaryVariables
280
     0
  1
0
  0
DICTIONARYVAR
  5
21D
102
{ACAD_REACTORS
330
217
102
}
330
217
100
DictionaryVariables
280
     0
  1
127
  0
DICTIONARYVAR
  5
221
102
{ACAD_REACTORS
330
217
102
}
330
217
100
DictionaryVariables
280
     0
  1
2
  0
DICTIONARY
  5
227
330
1E
100
AcDbDictionary
280
     1
281
     1
  3
ACAD_XREC_ROUNDTRIP
360
228
  0
DICTIONARY
  5
229
330
25
100
AcDbDictionary
280
     1
281
     1
  3
ACAD_XREC_ROUNDTRIP
360
22A
  0
DICTIONARY
  5
41
330
40
100
AcDbDictionary
280
     1
281
     1
  3
ACAD_XREC_ROUNDTRIP
360
22D
  3
BUMPTILE
360
42
  3
DIFFUSETILE
360
43
  3
OPACITYTILE
360
44
  3
REFLECTIONTILE
360
45
  3
REFRACTIONTILE
360
46
  3
SPECULARTILE
360
47
  0
DICTIONARY
  5
16
330
15
100
AcDbDictionary
280
     1
281
     1
  3
ACAD_XREC_ROUNDTRIP
360
226
  3
BUMPTILE
360
17
  3
DIFFUSETILE
360
18
  3
OPACITYTILE
360
19
  3
REFLECTIONTILE
360
1A
  3
REFRACTIONTILE
360
1B
  3
SPECULARTILE
360
1C
  0
DICTIONARY
  5
D
330
B
100
AcDbDictionary
280
     1
281
     1
  3
ACAD_XREC_ROUNDTRIP
360
225
  3
BUMPTILE
360
E
  3
DIFFUSETILE
360
F
  3
OPACITYTILE
360
10
  3
REFLECTIONTILE
360
11
  3
REFRACTIONTILE
360
12
  3
SPECULARTILE
360
13
  0
DICTIONARY
  5
222
330
4E
100
AcDbDictionary
280
     1
281
     1
  3
ACAD_ROUNDTRIP_2008_TABLESTYLE_CELLSTYLEMAP
360
223
  3
ACAD_XREC_ROUNDTRIP
360
22E
  0
DICTIONARY
  5
22B
330
31
100
AcDbDictionary
280
     1
281
     1
  3
ACAD_XREC_ROUNDTRIP
360
22C
  0
DICTIONARY
  5
22F
330
4F
100
AcDbDictionary
280
     1
281
     1
  3
ACAD_XREC_ROUNDTRIP
360
230
  0
DICTIONARY
  5
231
330
50
100
AcDbDictionary
280
     1
281
     1
  3
ACAD_XREC_ROUNDTRIP
360
232
  0
XRECORD
  5
228
102
{ACAD_REACTORS
330
227
102
}
330
227
100
AcDbXrecord
280
     1
102
SHADEPLOT
 70
     0
102
SHADEPLOTRESLEVEL
 70
     2
102
SHADEPLOTCUSTOMDPI
 70
   300
  0
XRECORD
  5
22A
102
{ACAD_REACTORS
330
229
102
}
330
229
100
AcDbXrecord
280
     1
102
SHADEPLOT
 70
     0
102
SHADEPLOTRESLEVEL
 70
     2
102
SHADEPLOTCUSTOMDPI
 70
   300
  0
XRECORD
  5
22D
102
{ACAD_REACTORS
330
41
102
}
330
41
100
AcDbXrecord
280
     1
102
MATERIAL
148
0.0
149
0.0
149
0.0
 93
        0
 94
      127
282
     0
 72
     0
 77
     0
171
     0
175
     0
179
     0
273
     0
  0
XRECORD
  5
42
102
{ACAD_REACTORS
330
41
102
}
330
41
100
AcDbXrecord
280
     1
270
     1
271
     1
  0
XRECORD
  5
43
102
{ACAD_REACTORS
330
41
102
}
330
41
100
AcDbXrecord
280
     1
270
     1
271
     1
  0
XRECORD
  5
44
102
{ACAD_REACTORS
330
41
102
}
330
41
100
AcDbXrecord
280
     1
270
     1
271
     1
  0
XRECORD
  5
45
102
{ACAD_REACTORS
330
41
102
}
330
41
100
AcDbXrecord
280
     1
270
     1
271
     1
  0
XRECORD
  5
46
102
{ACAD_REACTORS
330
41
102
}
330
41
100
AcDbXrecord
280
     1
270
     1
271
     1
  0
XRECORD
  5
47
102
{ACAD_REACTORS
330
41
102
}
330
41
100
AcDbXrecord
280
     1
270
     1
271
     1
  0
XRECORD
  5
226
102
{ACAD_REACTORS
330
16
102
}
330
16
100
AcDbXrecord
280
     1
102
MATERIAL
148
0.0
149
0.0
149
0.0
 93
        0
 94
      127
282
     0
 72
     0
 77
     0
171
     0
175
     0
179
     0
273
     0
  0
XRECORD
  5
17
102
{ACAD_REACTORS
330
16
102
}
330
16
100
AcDbXrecord
280
     1
270
     1
271
     1
  0
XRECORD
  5
18
102
{ACAD_REACTORS
330
16
102
}
330
16
100
AcDbXrecord
280
     1
270
     1
271
     1
  0
XRECORD
  5
19
102
{ACAD_REACTORS
330
16
102
}
330
16
100
AcDbXrecord
280
     1
270
     1
271
     1
  0
XRECORD
  5
1A
102
{ACAD_REACTORS
330
16
102
}
330
16
100
AcDbXrecord
280
     1
270
     1
271
     1
  0
XRECORD
  5
1B
102
{ACAD_REACTORS
330
16
102
}
330
16
100
AcDbXrecord
280
     1
270
     1
271
     1
  0
XRECORD
  5
1C
102
{ACAD_REACTORS
330
16
102
}
330
16
100
AcDbXrecord
280
     1
270
     1
271
     1
  0
XRECORD
  5
225
102
{ACAD_REACTORS
330
D
102
}
330
D
100
AcDbXrecord
280
     1
102
MATERIAL
148
0.0
149
0.0
149
0.0
 93
        0
 94
      127
282
     0
 72
     0
 77
     0
171
     0
175
     0
179
     0
273
     0
  0
XRECORD
  5
E
102
{ACAD_REACTORS
330
D
102
}
330
D
100
AcDbXrecord
280
     1
270
     1
271
     1
  0
XRECORD
  5
F
102
{ACAD_REACTORS
330
D
102
}
330
D
100
AcDbXrecord
280
     1
270
     1
271
     1
  0
XRECORD
  5
10
102
{ACAD_REACTORS
330
D
102
}
330
D
100
AcDbXrecord
280
     1
270
     1
271
     1
  0
XRECORD
  5
11
102
{ACAD_REACTORS
330
D
102
}
330
D
100
AcDbXrecord
280
     1
270
     1
271
     1
  0
XRECORD
  5
12
102
{ACAD_REACTORS
330
D
102
}
330
D
100
AcDbXrecord
280
     1
270
     1
271
     1
  0
XRECORD
  5
13
102
{ACAD_REACTORS
330
D
102
}
330
D
100
AcDbXrecord
280
     1
270
     1
271
     1
  0
CELLSTYLEMAP
  5
223
102
{ACAD_REACTORS
330
222
102
}
330
222
100
AcDbCellStyleMap
 90
        3
300
CELLSTYLE
  1
TABLEFORMAT_BEGIN
 90
        5
170
     1
 91
        0
 92
    32768
 62
   257
 93
        1
300
CONTENTFORMAT
  1
CONTENTFORMAT_BEGIN
 90
        0
 91
        0
 92
        4
 93
        0
300

 40
0.0
140
1.0
 94
        5
 62
     0
340
28
144
0.25
309
CONTENTFORMAT_END
171
     0
 94
        6
 95
        1
302
GRIDFORMAT
  1
GRIDFORMAT_BEGIN
 90
        0
 91
        1
 62
     0
 92
       -2
340
0
 93
        0
 40
0.045
309
GRIDFORMAT_END
 95
        2
302
GRIDFORMAT
  1
GRIDFORMAT_BEGIN
 90
        0
 91
        1
 62
     0
 92
       -2
340
0
 93
        0
 40
0.045
309
GRIDFORMAT_END
 95
        4
302
GRIDFORMAT
  1
GRIDFORMAT_BEGIN
 90
        0
 91
        1
 62
     0
 92
       -2
340
0
 93
        0
 40
0.045
309
GRIDFORMAT_END
 95
        8
302
GRIDFORMAT
  1
GRIDFORMAT_BEGIN
 90
        0
 91
        1
 62
     0
 92
       -2
340
0
 93
        0
 40
0.045
309
GRIDFORMAT_END
 95
       16
302
GRIDFORMAT
  1
GRIDFORMAT_BEGIN
 90
        0
 91
        1
 62
     0
 92
       -2
340
0
 93
        0
 40
0.045
309
GRIDFORMAT_END
 95
       32
302
GRIDFORMAT
  1
GRIDFORMAT_BEGIN
 90
        0
 91
        1
 62
     0
 92
       -2
340
0
 93
        0
 40
0.045
309
GRIDFORMAT_END
309
TABLEFORMAT_END
  1
CELLSTYLE_BEGIN
 90
        1
 91
        1
300
_TITLE
309
CELLSTYLE_END
300
CELLSTYLE
  1
TABLEFORMAT_BEGIN
 90
        5
170
     1
 91
        0
 92
        0
 62
   257
 93
        1
300
CONTENTFORMAT
  1
CONTENTFORMAT_BEGIN
 90
        0
 91
        0
 92
        4
 93
        0
300

 40
0.0
140
1.0
 94
        5
 62
     0
340
28
144
0.18
309
CONTENTFORMAT_END
171
     0
 94
        6
 95
        1
302
GRIDFORMAT
  1
GRIDFORMAT_BEGIN
 90
        0
 91
        1
 62
     0
 92
       -2
340
0
 93
        0
 40
0.045
309
GRIDFORMAT_END
 95
        2
302
GRIDFORMAT
  1
GRIDFORMAT_BEGIN
 90
        0
 91
        1
 62
     0
 92
       -2
340
0
 93
        0
 40
0.045
309
GRIDFORMAT_END
 95
        4
302
GRIDFORMAT
  1
GRIDFORMAT_BEGIN
 90
        0
 91
        1
 62
     0
 92
       -2
340
0
 93
        0
 40
0.045
309
GRIDFORMAT_END
 95
        8
302
GRIDFORMAT
  1
GRIDFORMAT_BEGIN
 90
        0
 91
        1
 62
     0
 92
       -2
340
0
 93
        0
 40
0.045
309
GRIDFORMAT_END
 95
       16
302
GRIDFORMAT
  1
GRIDFORMAT_BEGIN
 90
        0
 91
        1
 62
     0
 92
       -2
340
0
 93
        0
 40
0.045
309
GRIDFORMAT_END
 95
       32
302
GRIDFORMAT
  1
GRIDFORMAT_BEGIN
 90
        0
 91
        1
 62
     0
 92
       -2
340
0
 93
        0
 40
0.045
309
GRIDFORMAT_END
309
TABLEFORMAT_END
  1
CELLSTYLE_BEGIN
 90
        2
 91
        1
300
_HEADER
309
CELLSTYLE_END
300
CELLSTYLE
  1
TABLEFORMAT_BEGIN
 90
        5
170
     1
 91
        0
 92
        0
 62
   257
 93
        1
300
CONTENTFORMAT
  1
CONTENTFORMAT_BEGIN
 90
        0
 91
        0
 92
        4
 93
        0
300

 40
0.0
140
1.0
 94
        2
 62
     0
340
28
144
0.18
309
CONTENTFORMAT_END
171
     0
 94
        6
 95
        1
302
GRIDFORMAT
  1
GRIDFORMAT_BEGIN
 90
        0
 91
        1
 62
     0
 92
       -2
340
0
 93
        0
 40
0.045
309
GRIDFORMAT_END
 95
        2
302
GRIDFORMAT
  1
GRIDFORMAT_BEGIN
 90
        0
 91
        1
 62
     0
 92
       -2
340
0
 93
        0
 40
0.045
309
GRIDFORMAT_END
 95
        4
302
GRIDFORMAT
  1
GRIDFORMAT_BEGIN
 90
        0
 91
        1
 62
     0
 92
       -2
340
0
 93
        0
 40
0.045
309
GRIDFORMAT_END
 95
        8
302
GRIDFORMAT
  1
GRIDFORMAT_BEGIN
 90
        0
 91
        1
 62
     0
 92
       -2
340
0
 93
        0
 40
0.045
309
GRIDFORMAT_END
 95
       16
302
GRIDFORMAT
  1
GRIDFORMAT_BEGIN
 90
        0
 91
        1
 62
     0
 92
       -2
340
0
 93
        0
 40
0.045
309
GRIDFORMAT_END
 95
       32
302
GRIDFORMAT
  1
GRIDFORMAT_BEGIN
 90
        0
 91
        1
 62
     0
 92
       -2
340
0
 93
        0
 40
0.045
309
GRIDFORMAT_END
309
TABLEFORMAT_END
  1
CELLSTYLE_BEGIN
 90
        3
 91
        2
300
_DATA
309
CELLSTYLE_END
  0
XRECORD
  5
22E
102
{ACAD_REACTORS
330
222
102
}
330
222
100
AcDbXrecord
280
     1
102
ACAD_ROUNDTRIP_PRE2007_TABLESTYLE
 90
        4
 91
        0
  1

 92
        4
 93
        0
  2

 94
        4
 95
        0
  3

  0
XRECORD
  5
22C
102
{ACAD_REACTORS
330
22B
102
}
330
22B
100
AcDbXrecord
280
     1
102
RTVSPost2010Prop28
280
     1
102
RTVSPost2010PropOp28
 70
     1
102
RTVSPost2010Prop29
280
     1
102
RTVSPost2010PropOp29
 70
     1
102
RTVSPost2010Prop30
280
     0
102
RTVSPost2010PropOp30
 70
     1
102
RTVSPost2010Prop31
280
     0
102
RTVSPost2010PropOp31
 70
     1
102
RTVSPost2010Prop32
280
     0
102
RTVSPost2010PropOp32
 70
     1
102
RTVSPost2010Prop33
280
     0
102
RTVSPost2010PropOp33
 70
     1
102
RTVSPost2010Prop34
280
     0
102
RTVSPost2010PropOp34
 70
     1
102
RTVSPost2010Prop35
280
     0
102
RTVSPost2010PropOp35
 70
     1
102
RTVSPost2010Prop36
280
     0
102
RTVSPost2010PropOp36
 70
     1
102
RTVSPost2010Prop37
 90
       50
102
RTVSPost2010PropOp37
 70
     1
102
RTVSPost2010Prop38
140
0.0
102
RTVSPost2010PropOp38
 70
     1
102
RTVSPost2010Prop39
140
1.0
102
RTVSPost2010PropOp39
 70
     1
102
RTVSPost2010Prop40
 90
        0
102
RTVSPost2010PropOp40
 70
     1
102
RTVSPost2010Prop41ColorIndex
 90
       18
102
RTVSPost2010Prop41ColorRGB
 90
        0
102
RTVSPost2010PropOp41
 70
     1
102
RTVSPost2010Prop42
 90
       50
102
RTVSPost2010PropOp42
 70
     1
102
RTVSPost2010Prop43
 90
        3
102
RTVSPost2010PropOp43
 70
     1
102
RTVSPost2010Prop44ColorIndex
 90
        5
102
RTVSPost2010Prop44ColorRGB
 90
      255
102
RTVSPost2010PropOp44
 70
     1
102
RTVSPost2010Prop45
280
     0
102
RTVSPost2010PropOp45
 70
     1
102
RTVSPost2010Prop46
 90
       50
102
RTVSPost2010PropOp46
 70
     1
102
RTVSPost2010Prop47
 90
       50
102
RTVSPost2010PropOp47
 70
     1
102
RTVSPost2010Prop48
 90
       50
102
RTVSPost2010PropOp48
 70
     1
102
RTVSPost2010Prop49
280
     0
102
RTVSPost2010PropOp49
 70
     1
102
RTVSPost2010Prop50
 90
       50
102
RTVSPost2010PropOp50
 70
     1
102
RTVSPost2010Prop51ColorIndex
 90
      256
102
RTVSPost2010Prop51ColorRGB
 90
-16777216
102
RTVSPost2010PropOp51
 70
     0
102
RTVSPost2010Prop52
140
1.0
102
RTVSPost2010PropOp52
 70
     0
102
RTVSPost2010Prop53
 90
        2
102
RTVSPost2010PropOp53
 70
     1
102
RTVSPost2010Prop54
  1
strokes_ogs.tif
102
RTVSPost2010PropOp54
 70
     1
102
RTVSPost2010Prop55
280
     0
102
RTVSPost2010PropOp55
 70
     1
102
RTVSPost2010Prop56
140
1.0
102
RTVSPost2010PropOp56
 70
     1
102
RTVSPost2010Prop57
140
1.0
102
RTVSPost2010PropOp57
 70
     1
102
RTVSPropertyOp0
 70
     1
102
RTVSPropertyOp1
 70
     1
102
RTVSPropertyOp2
 70
     1
102
RTVSPropertyOp3
 70
     1
102
RTVSPropertyOp4
 70
     1
102
RTVSPropertyOp5
 70
     1
102
RTVSPropertyOp6
 70
     1
102
RTVSPropertyOp7
 70
     1
102
RTVSPropertyOp8
 70
     1
102
RTVSPropertyOp9
 70
     1
102
RTVSPropertyOp10
 70
     1
102
RTVSPropertyOp11
 70
     1
102
RTVSPropertyOp12
 70
     1
102
RTVSPropertyOp13
 70
     1
102
RTVSPropertyOp14
 70
     1
102
RTVSPropertyOp15
 70
     1
102
RTVSPropertyOp16
 70
     1
102
RTVSPropertyOp17
 70
     1
102
RTVSPropertyOp18
 70
     1
102
RTVSPropertyOp19
 70
     1
102
RTVSPropertyOp20
 70
     1
102
RTVSPropertyOp21
 70
     1
102
RTVSPropertyOp22
 70
     1
102
RTVSPropertyOp23
 70
     1
102
RTVSPropertyOp24
 70
     1
102
RTVSPropertyOp25
 70
     1
102
RTVSPropertyOp26
 70
     1
102
RTVSPropertyOp27
 70
     1
102
RTVSPropertyOp28
 70
     1
102
RTVSPropertyOp29
 70
     1
102
RTVSPropertyOp30
 70
     1
102
RTVSPropertyOp31
 70
     1
102
RTVSPropertyOp32
 70
     1
102
RTVSPropertyOp33
 70
     1
102
RTVSPropertyOp34
 70
     1
102
RTVSPropertyOp35
 70
     1
102
RTVSPropertyOp36
 70
     1
102
RTVSPropertyOp37
 70
     1
102
RTVSPropertyOp38
 70
     1
102
RTVSPropertyOp39
 70
     1
102
RTVSPropertyOp40
 70
     1
102
RTVSPropertyOp41
 70
     1
102
RTVSPropertyOp42
 70
     1
102
RTVSPropertyOp43
 70
     1
102
RTVSPropertyOp44
 70
     1
102
RTVSPropertyOp45
 70
     1
102
RTVSPropertyOp46
 70
     1
102
RTVSPropertyOp47
 70
     1
102
RTVSPropertyOp48
 70
     1
102
RTVSPropertyOp49
 70
     1
102
RTVSPropertyOp50
 70
     1
102
RTVSPropertyOp51
 70
     0
102
RTVSPropertyOp52
 70
     0
102
RTVSPropertyOp53
 70
     1
102
RTVSPropertyOp54
 70
     1
102
RTVSPropertyOp55
 70
     1
102
RTVSPropertyOp56
 70
     1
102
RTVSPropertyOp57
 70
     1
102
RTVSPropertyOp58
 70
     1
102
RTVSPropertyOp59
 70
     1
102
RTVSPropertyOp60
 70
     1
102
RTVSPropertyOp61
 70
     1
102
RTVSPropertyOp62
 70
     1
  0
XRECORD
  5
230
102
{ACAD_REACTORS
330
22F
102
}
330
22F
100
AcDbXrecord
280
     1
102
RTVSPost2010Prop28
280
     0
102
RTVSPost2010PropOp28
 70
     1
102
RTVSPost2010Prop29
280
     1
102
RTVSPost2010PropOp29
 70
     1
102
RTVSPost2010Prop30
280
     1
102
RTVSPost2010PropOp30
 70
     1
102
RTVSPost2010Prop31
280
     0
102
RTVSPost2010PropOp31
 70
     1
102
RTVSPost2010Prop32
280
     0
102
RTVSPost2010PropOp32
 70
     1
102
RTVSPost2010Prop33
280
     0
102
RTVSPost2010PropOp33
 70
     1
102
RTVSPost2010Prop34
280
     0
102
RTVSPost2010PropOp34
 70
     1
102
RTVSPost2010Prop35
280
     0
102
RTVSPost2010PropOp35
 70
     1
102
RTVSPost2010Prop36
280
     0
102
RTVSPost2010PropOp36
 70
     1
102
RTVSPost2010Prop37
 90
       50
102
RTVSPost2010PropOp37
 70
     1
102
RTVSPost2010Prop38
140
0.0
102
RTVSPost2010PropOp38
 70
     1
102
RTVSPost2010Prop39
140
1.0
102
RTVSPost2010PropOp39
 70
     1
102
RTVSPost2010Prop40
 90
        0
102
RTVSPost2010PropOp40
 70
     1
102
RTVSPost2010Prop41ColorIndex
 90
       18
102
RTVSPost2010Prop41ColorRGB
 90
        0
102
RTVSPost2010PropOp41
 70
     1
102
RTVSPost2010Prop42
 90
       50
102
RTVSPost2010PropOp42
 70
     1
102
RTVSPost2010Prop43
 90
        3
102
RTVSPost2010PropOp43
 70
     1
102
RTVSPost2010Prop44ColorIndex
 90
        5
102
RTVSPost2010Prop44ColorRGB
 90
      255
102
RTVSPost2010PropOp44
 70
     1
102
RTVSPost2010Prop45
280
     0
102
RTVSPost2010PropOp45
 70
     1
102
RTVSPost2010Prop46
 90
       50
102
RTVSPost2010PropOp46
 70
     1
102
RTVSPost2010Prop47
 90
       50
102
RTVSPost2010PropOp47
 70
     1
102
RTVSPost2010Prop48
 90
       50
102
RTVSPost2010PropOp48
 70
     1
102
RTVSPost2010Prop49
280
     0
102
RTVSPost2010PropOp49
 70
     1
102
RTVSPost2010Prop50
 90
       50
102
RTVSPost2010PropOp50
 70
     1
102
RTVSPost2010Prop51ColorIndex
 90
      256
102
RTVSPost2010Prop51ColorRGB
 90
-16777216
102
RTVSPost2010PropOp51
 70
     0
102
RTVSPost2010Prop52
140
1.0
102
RTVSPost2010PropOp52
 70
     0
102
RTVSPost2010Prop53
 90
        2
102
RTVSPost2010PropOp53
 70
     1
102
RTVSPost2010Prop54
  1
strokes_ogs.tif
102
RTVSPost2010PropOp54
 70
     1
102
RTVSPost2010Prop55
280
     0
102
RTVSPost2010PropOp55
 70
     1
102
RTVSPost2010Prop56
140
1.0
102
RTVSPost2010PropOp56
 70
     1
102
RTVSPost2010Prop57
140
1.0
102
RTVSPost2010PropOp57
 70
     1
102
RTVSPropertyOp0
 70
     1
102
RTVSPropertyOp1
 70
     1
102
RTVSPropertyOp2
 70
     1
102
RTVSPropertyOp3
 70
     1
102
RTVSPropertyOp4
 70
     1
102
RTVSPropertyOp5
 70
     1
102
RTVSPropertyOp6
 70
     1
102
RTVSPropertyOp7
 70
     1
102
RTVSPropertyOp8
 70
     1
102
RTVSPropertyOp9
 70
     1
102
RTVSPropertyOp10
 70
     1
102
RTVSPropertyOp11
 70
     1
102
RTVSPropertyOp12
 70
     1
102
RTVSPropertyOp13
 70
     1
102
RTVSPropertyOp14
 70
     1
102
RTVSPropertyOp15
 70
     1
102
RTVSPropertyOp16
 70
     1
102
RTVSPropertyOp17
 70
     1
102
RTVSPropertyOp18
 70
     1
102
RTVSPropertyOp19
 70
     1
102
RTVSPropertyOp20
 70
     1
102
RTVSPropertyOp21
 70
     1
102
RTVSPropertyOp22
 70
     1
102
RTVSPropertyOp23
 70
     1
102
RTVSPropertyOp24
 70
     1
102
RTVSPropertyOp25
 70
     1
102
RTVSPropertyOp26
 70
     1
102
RTVSPropertyOp27
 70
     1
102
RTVSPropertyOp28
 70
     1
102
RTVSPropertyOp29
 70
     1
102
RTVSPropertyOp30
 70
     1
102
RTVSPropertyOp31
 70
     1
102
RTVSPropertyOp32
 70
     1
102
RTVSPropertyOp33
 70
     1
102
RTVSPropertyOp34
 70
     1
102
RTVSPropertyOp35
 70
     1
102
RTVSPropertyOp36
 70
     1
102
RTVSPropertyOp37
 70
     1
102
RTVSPropertyOp38
 70
     1
102
RTVSPropertyOp39
 70
     1
102
RTVSPropertyOp40
 70
     1
102
RTVSPropertyOp41
 70
     1
102
RTVSPropertyOp42
 70
     1
102
RTVSPropertyOp43
 70
     1
102
RTVSPropertyOp44
 70
     1
102
RTVSPropertyOp45
 70
     1
102
RTVSPropertyOp46
 70
     1
102
RTVSPropertyOp47
 70
     1
102
RTVSPropertyOp48
 70
     1
102
RTVSPropertyOp49
 70
     1
102
RTVSPropertyOp50
 70
     1
102
RTVSPropertyOp51
 70
     0
102
RTVSPropertyOp52
 70
     0
102
RTVSPropertyOp53
 70
     1
102
RTVSPropertyOp54
 70
     1
102
RTVSPropertyOp55
 70
     1
102
RTVSPropertyOp56
 70
     1
102
RTVSPropertyOp57
 70
     1
102
RTVSPropertyOp58
 70
     1
102
RTVSPropertyOp59
 70
     1
102
RTVSPropertyOp60
 70
     1
102
RTVSPropertyOp61
 70
     1
102
RTVSPropertyOp62
 70
     1
  0
XRECORD
  5
232
102
{ACAD_REACTORS
330
231
102
}
330
231
100
AcDbXrecord
280
     1
102
RTVSPost2010Prop28
280
     0
102
RTVSPost2010PropOp28
 70
     1
102
RTVSPost2010Prop29
280
     1
102
RTVSPost2010PropOp29
 70
     1
102
RTVSPost2010Prop30
280
     1
102
RTVSPost2010PropOp30
 70
     1
102
RTVSPost2010Prop31
280
     0
102
RTVSPost2010PropOp31
 70
     1
102
RTVSPost2010Prop32
280
     0
102
RTVSPost2010PropOp32
 70
     1
102
RTVSPost2010Prop33
280
     0
102
RTVSPost2010PropOp33
 70
     1
102
RTVSPost2010Prop34
280
     0
102
RTVSPost2010PropOp34
 70
     1
102
RTVSPost2010Prop35
280
     0
102
RTVSPost2010PropOp35
 70
     1
102
RTVSPost2010Prop36
280
     0
102
RTVSPost2010PropOp36
 70
     1
102
RTVSPost2010Prop37
 90
       50
102
RTVSPost2010PropOp37
 70
     1
102
RTVSPost2010Prop38
140
0.0
102
RTVSPost2010PropOp38
 70
     1
102
RTVSPost2010Prop39
140
1.0
102
RTVSPost2010PropOp39
 70
     1
102
RTVSPost2010Prop40
 90
        0
102
RTVSPost2010PropOp40
 70
     1
102
RTVSPost2010Prop41ColorIndex
 90
       18
102
RTVSPost2010Prop41ColorRGB
 90
        0
102
RTVSPost2010PropOp41
 70
     1
102
RTVSPost2010Prop42
 90
       50
102
RTVSPost2010PropOp42
 70
     1
102
RTVSPost2010Prop43
 90
        3
102
RTVSPost2010PropOp43
 70
     1
102
RTVSPost2010Prop44ColorIndex
 90
        5
102
RTVSPost2010Prop44ColorRGB
 90
      255
102
RTVSPost2010PropOp44
 70
     1
102
RTVSPost2010Prop45
280
     0
102
RTVSPost2010PropOp45
 70
     1
102
RTVSPost2010Prop46
 90
       50
102
RTVSPost2010PropOp46
 70
     1
102
RTVSPost2010Prop47
 90
       50
102
RTVSPost2010PropOp47
 70
     1
102
RTVSPost2010Prop48
 90
       50
102
RTVSPost2010PropOp48
 70
     1
102
RTVSPost2010Prop49
280
     0
102
RTVSPost2010PropOp49
 70
     1
102
RTVSPost2010Prop50
 90
       50
102
RTVSPost2010PropOp50
 70
     1
102
RTVSPost2010Prop51ColorIndex
 90
      256
102
RTVSPost2010Prop51ColorRGB
 90
-16777216
102
RTVSPost2010PropOp51
 70
     0
102
RTVSPost2010Prop52
140
1.0
102
RTVSPost2010PropOp52
 70
     0
102
RTVSPost2010Prop53
 90
        2
102
RTVSPost2010PropOp53
 70
     1
102
RTVSPost2010Prop54
  1
strokes_ogs.tif
102
RTVSPost2010PropOp54
 70
     1
102
RTVSPost2010Prop55
280
     0
102
RTVSPost2010PropOp55
 70
     1
102
RTVSPost2010Prop56
140
1.0
102
RTVSPost2010PropOp56
 70
     1
102
RTVSPost2010Prop57
140
1.0
102
RTVSPost2010PropOp57
 70
     1
102
RTVSPropertyOp0
 70
     1
102
RTVSPropertyOp1
 70
     1
102
RTVSPropertyOp2
 70
     1
102
RTVSPropertyOp3
 70
     1
102
RTVSPropertyOp4
 70
     1
102
RTVSPropertyOp5
 70
     1
102
RTVSPropertyOp6
 70
     1
102
RTVSPropertyOp7
 70
     1
102
RTVSPropertyOp8
 70
     1
102
RTVSPropertyOp9
 70
     1
102
RTVSPropertyOp10
 70
     1
102
RTVSPropertyOp11
 70
     1
102
RTVSPropertyOp12
 70
     1
102
RTVSPropertyOp13
 70
     1
102
RTVSPropertyOp14
 70
     1
102
RTVSPropertyOp15
 70
     1
102
RTVSPropertyOp16
 70
     1
102
RTVSPropertyOp17
 70
     1
102
RTVSPropertyOp18
 70
     1
102
RTVSPropertyOp19
 70
     1
102
RTVSPropertyOp20
 70
     1
102
RTVSPropertyOp21
 70
     1
102
RTVSPropertyOp22
 70
     1
102
RTVSPropertyOp23
 70
     1
102
RTVSPropertyOp24
 70
     1
102
RTVSPropertyOp25
 70
     1
102
RTVSPropertyOp26
 70
     1
102
RTVSPropertyOp27
 70
     1
102
RTVSPropertyOp28
 70
     1
102
RTVSPropertyOp29
 70
     1
102
RTVSPropertyOp30
 70
     1
102
RTVSPropertyOp31
 70
     1
102
RTVSPropertyOp32
 70
     1
102
RTVSPropertyOp33
 70
     1
102
RTVSPropertyOp34
 70
     1
102
RTVSPropertyOp35
 70
     1
102
RTVSPropertyOp36
 70
     1
102
RTVSPropertyOp37
 70
     1
102
RTVSPropertyOp38
 70
     1
102
RTVSPropertyOp39
 70
     1
102
RTVSPropertyOp40
 70
     1
102
RTVSPropertyOp41
 70
     1
102
RTVSPropertyOp42
 70
     1
102
RTVSPropertyOp43
 70
     1
102
RTVSPropertyOp44
 70
     1
102
RTVSPropertyOp45
 70
     1
102
RTVSPropertyOp46
 70
     1
102
RTVSPropertyOp47
 70
     1
102
RTVSPropertyOp48
 70
     1
102
RTVSPropertyOp49
 70
     1
102
RTVSPropertyOp50
 70
     1
102
RTVSPropertyOp51
 70
     0
102
RTVSPropertyOp52
 70
     0
102
RTVSPropertyOp53
 70
     1
102
RTVSPropertyOp54
 70
     1
102
RTVSPropertyOp55
 70
     1
102
RTVSPropertyOp56
 70
     1
102
RTVSPropertyOp57
 70
     1
102
RTVSPropertyOp58
 70
     1
102
RTVSPropertyOp59
 70
     1
102
RTVSPropertyOp60
 70
     1
102
RTVSPropertyOp61
 70
     1
102
RTVSPropertyOp62
 70
     1
  0
ENDSEC
  0
EOF
