  0
SECTION
  2
HEADER
  9
$ACADVER
  1
AC1015
  9
$ACADMAINTVER
 70
    18
  9
$DWGCODEPAGE
  3
ANSI_932
  9
$INSBASE
 10
0.0
 20
0.0
 30
0.0
  9
$EXTMIN
 10
-28.27844378071529
 20
0.0
 30
0.0
  9
$EXTMAX
 10
399.8875655662099
 20
134.1173382855833
 30
0.0
  9
$LIMMIN
 10
0.0
 20
0.0
  9
$LIMMAX
 10
420.0
 20
297.0
  9
$ORTHOMODE
 70
     1
  9
$REGENMODE
 70
     1
  9
$FILLMODE
 70
     1
  9
$QTEXTMODE
 70
     0
  9
$MIRRTEXT
 70
     1
  9
$LTSCALE
 40
1.0
  9
$ATTMODE
 70
     1
  9
$TEXTSIZE
 40
30.0
  9
$TRACEWID
 40
0.05
  9
$TEXTSTYLE
  7
SUNPOU
  9
$CLAYER
  8
0
  9
$CELTYPE
  6
BYLAYER
  9
$CECOLOR
 62
     7
  9
$CELTSCALE
 40
1.0
  9
$DISPSILH
 70
     0
  9
$DIMSCALE
 40
1.0
  9
$DIMASZ
 40
3.0
  9
$DIMEXO
 40
2.0
  9
$DIMDLI
 40
0.38
  9
$DIMRND
 40
0.0
  9
$DIMDLE
 40
0.0
  9
$DIMEXE
 40
0.0
  9
$DIMTP
 40
0.0
  9
$DIMTM
 40
0.0
  9
$DIMTXT
 40
7.0
  9
$DIMCEN
 40
1.0
  9
$DIMTSZ
 40
0.0
  9
$DIMTOL
 70
     0
  9
$DIMLIM
 70
     0
  9
$DIMTIH
 70
     0
  9
$DIMTOH
 70
     0
  9
$DIMSE1
 70
     0
  9
$DIMSE2
 70
     0
  9
$DIMTAD
 70
     1
  9
$DIMZIN
 70
     0
  9
$DIMBLK
  1

  9
$DIMASO
 70
     1
  9
$DIMSHO
 70
     1
  9
$DIMPOST
  1

  9
$DIMAPOST
  1

  9
$DIMALT
 70
     0
  9
$DIMALTD
 70
     2
  9
$DIMALTF
 40
25.4
  9
$DIMLFAC
 40
1.0
  9
$DIMTOFL
 70
     0
  9
$DIMTVP
 40
0.0
  9
$DIMTIX
 70
     1
  9
$DIMSOXD
 70
     0
  9
$DIMSAH
 70
     1
  9
$DIMBLK1
  1
DOTSMALL
  9
$DIMBLK2
  1
DOTSMALL
  9
$DIMSTYLE
  2
1
  9
$DIMCLRD
 70
    60
  9
$DIMCLRE
 70
    70
  9
$DIMCLRT
 70
    60
  9
$DIMTFAC
 40
0.0642857142857143
  9
$DIMGAP
 40
1.0
  9
$DIMJUST
 70
     0
  9
$DIMSD1
 70
     0
  9
$DIMSD2
 70
     0
  9
$DIMTOLJ
 70
     1
  9
$DIMTZIN
 70
     0
  9
$DIMALTZ
 70
     0
  9
$DIMALTTZ
 70
     0
  9
$DIMUPT
 70
     0
  9
$DIMDEC
 70
     0
  9
$DIMTDEC
 70
     4
  9
$DIMALTU
 70
     2
  9
$DIMALTTD
 70
     2
  9
$DIMTXSTY
  7
STANDARD
  9
$DIMAUNIT
 70
     0
  9
$DIMADEC
 70
     0
  9
$DIMALTRND
 40
0.0
  9
$DIMAZIN
 70
     0
  9
$DIMDSEP
 70
    46
  9
$DIMATFIT
 70
     3
  9
$DIMFRAC
 70
     0
  9
$DIMLDRBLK
  1
DOTSMALL
  9
$DIMLUNIT
 70
     2
  9
$DIMLWD
 70
    -2
  9
$DIMLWE
 70
    -2
  9
$DIMTMOVE
 70
     0
  9
$LUNITS
 70
     4
  9
$LUPREC
 70
     4
  9
$SKETCHINC
 40
0.1
  9
$FILLETRAD
 40
3.0
  9
$AUNITS
 70
     0
  9
$AUPREC
 70
     2
  9
$MENU
  1
acad
  9
$ELEVATION
 40
0.0
  9
$PELEVATION
 40
0.0
  9
$THICKNESS
 40
0.0
  9
$LIMCHECK
 70
     0
  9
$CHAMFERA
 40
0.0
  9
$CHAMFERB
 40
0.0
  9
$CHAMFERC
 40
0.0
  9
$CHAMFERD
 40
0.0
  9
$SKPOLY
 70
     0
  9
$TDCREATE
 40
2450623.676023380
  9
$TDUCREATE
 40
2450623.301023380
  9
$TDUPDATE
 40
2453882.376244039
  9
$TDUUPDATE
 40
2453882.001244039
  9
$TDINDWG
 40
5.3812048843
  9
$TDUSRTIMER
 40
5.3812046759
  9
$USRTIMER
 70
     1
  9
$ANGBASE
 50
0.0
  9
$ANGDIR
 70
     0
  9
$PDMODE
 70
     0
  9
$PDSIZE
 40
0.0
  9
$PLINEWID
 40
0.0
  9
$SPLFRAME
 70
     0
  9
$SPLINETYPE
 70
     6
  9
$SPLINESEGS
 70
     8
  9
$HANDSEED
  5
16D
  9
$SURFTAB1
 70
     6
  9
$SURFTAB2
 70
     6
  9
$SURFTYPE
 70
     6
  9
$SURFU
 70
     6
  9
$SURFV
 70
     6
  9
$UCSBASE
  2

  9
$UCSNAME
  2

  9
$UCSORG
 10
0.0
 20
0.0
 30
0.0
  9
$UCSXDIR
 10
1.0
 20
0.0
 30
0.0
  9
$UCSYDIR
 10
0.0
 20
1.0
 30
0.0
  9
$UCSORTHOREF
  2

  9
$UCSORTHOVIEW
 70
     0
  9
$UCSORGTOP
 10
0.0
 20
0.0
 30
0.0
  9
$UCSORGBOTTOM
 10
0.0
 20
0.0
 30
0.0
  9
$UCSORGLEFT
 10
0.0
 20
0.0
 30
0.0
  9
$UCSORGRIGHT
 10
0.0
 20
0.0
 30
0.0
  9
$UCSORGFRONT
 10
0.0
 20
0.0
 30
0.0
  9
$UCSORGBACK
 10
0.0
 20
0.0
 30
0.0
  9
$PUCSBASE
  2

  9
$PUCSNAME
  2

  9
$PUCSORG
 10
0.0
 20
0.0
 30
0.0
  9
$PUCSXDIR
 10
1.0
 20
0.0
 30
0.0
  9
$PUCSYDIR
 10
0.0
 20
1.0
 30
0.0
  9
$PUCSORTHOREF
  2

  9
$PUCSORTHOVIEW
 70
     0
  9
$PUCSORGTOP
 10
0.0
 20
0.0
 30
0.0
  9
$PUCSORGBOTTOM
 10
0.0
 20
0.0
 30
0.0
  9
$PUCSORGLEFT
 10
0.0
 20
0.0
 30
0.0
  9
$PUCSORGRIGHT
 10
0.0
 20
0.0
 30
0.0
  9
$PUCSORGFRONT
 10
0.0
 20
0.0
 30
0.0
  9
$PUCSORGBACK
 10
0.0
 20
0.0
 30
0.0
  9
$USERI1
 70
     0
  9
$USERI2
 70
     0
  9
$USERI3
 70
     0
  9
$USERI4
 70
     0
  9
$USERI5
 70
     0
  9
$USERR1
 40
0.0
  9
$USERR2
 40
0.0
  9
$USERR3
 40
0.0
  9
$USERR4
 40
0.0
  9
$USERR5
 40
0.0
  9
$WORLDVIEW
 70
     1
  9
$SHADEDGE
 70
     3
  9
$SHADEDIF
 70
    70
  9
$TILEMODE
 70
     1
  9
$MAXACTVP
 70
    16
  9
$PINSBASE
 10
0.0
 20
0.0
 30
0.0
  9
$PLIMCHECK
 70
     0
  9
$PEXTMIN
 10
1.000000000000000E+20
 20
1.000000000000000E+20
 30
1.000000000000000E+20
  9
$PEXTMAX
 10
-1.000000000000000E+20
 20
-1.000000000000000E+20
 30
-1.000000000000000E+20
  9
$PLIMMIN
 10
0.0
 20
0.0
  9
$PLIMMAX
 10
12.0
 20
9.0
  9
$UNITMODE
 70
     0
  9
$VISRETAIN
 70
     0
  9
$PLINEGEN
 70
     0
  9
$PSLTSCALE
 70
     1
  9
$TREEDEPTH
 70
  3020
  9
$CMLSTYLE
  2
STANDARD
  9
$CMLJUST
 70
     0
  9
$CMLSCALE
 40
1.0
  9
$PROXYGRAPHICS
 70
     1
  9
$MEASUREMENT
 70
     0
  9
$CELWEIGHT
370
    -1
  9
$ENDCAPS
280
     0
  9
$JOINSTYLE
280
     0
  9
$LWDISPLAY
290
     0
  9
$INSUNITS
 70
     0
  9
$HYPERLINKBASE
  1

  9
$STYLESHEET
  1

  9
$XEDIT
290
     1
  9
$CEPSNTYPE
380
     0
  9
$PSTYLEMODE
290
     1
  9
$FINGERPRINTGUID
  2
{0E79AE5D-C92A-4305-B5BA-F358CEC1AB72}
  9
$VERSIONGUID
  2
{89112B17-DA5C-4D1C-BEF7-33AD5B0E9F0C}
  9
$EXTNAMES
290
     1
  9
$PSVPSCALE
 40
0.0
  9
$OLESTARTUP
290
     0
  0
ENDSEC
  0
SECTION
  2
CLASSES
  0
CLASS
  1
DICTIONARYVAR
  2
AcDbDictionaryVar
  3
ObjectDBX Classes
 90
        0
280
     0
281
     0
  0
CLASS
  1
RASTERVARIABLES
  2
AcDbRasterVariables
  3
ISM
 90
    32768
280
     0
281
     0
  0
CLASS
  1
ACDBDICTIONARYWDFLT
  2
AcDbDictionaryWithDefault
  3
ObjectDBX Classes
 90
        0
280
     0
281
     0
  0
CLASS
  1
ACDBPLACEHOLDER
  2
AcDbPlaceHolder
  3
ObjectDBX Classes
 90
        0
280
     0
281
     0
  0
CLASS
  1
LAYOUT
  2
AcDbLayout
  3
ObjectDBX Classes
 90
        0
280
     0
281
     0
  0
CLASS
  1
AEC_VARS_DWG_SETUP
  2
AecDbVarsDwgSetup
  3
AecBase
 90
    32897
280
     1
281
     0
  0
CLASS
  1
AEC_DISP_REP_MASS_ELEM_MODEL
  2
AecDbDispRepMassElemModel
  3
AecBase
 90
    32897
280
     1
281
     0
  0
CLASS
  1
AEC_DISP_PROPS_MASS_ELEM_MODEL
  2
AecDbDispPropsMassElem
  3
AecBase
 90
    32897
280
     1
281
     0
  0
CLASS
  1
AEC_DISP_REP_MASS_ELEM_SCHEM
  2
AecDbDispRepMassElemSchem
  3
AecBase
 90
    32897
280
     1
281
     0
  0
CLASS
  1
AEC_DISP_REP_DOOR_ELEV
  2
AecDbDispRepDoorElev
  3
AecArchBase
 90
    32897
280
     1
281
     0
  0
CLASS
  1
AEC_DISP_PROPS_DOOR
  2
AecDbDispPropsDoor
  3
AecArchBase
 90
    32897
280
     1
281
     0
  0
CLASS
  1
AEC_DISP_REP_MASKBLOCK_REF
  2
AecDbDispRepMaskBlockRef
  3
AecBase
 90
    32897
280
     1
281
     0
  0
CLASS
  1
AEC_DISP_PROPS_MASKBLOCK
  2
AecDbDispPropsMaskBlock
  3
AecBase
 90
    32897
280
     1
281
     0
  0
CLASS
  1
AEC_DISP_REP_LAYOUT_GRID3D
  2
AecDbDispRepLayoutGrid3d
  3
AecBase
 90
    32897
280
     1
281
     0
  0
CLASS
  1
AEC_DISP_PROPS_LAYOUT_GRID3D
  2
AecDbDispPropsLayoutGrid3d
  3
AecBase
 90
    32897
280
     1
281
     0
  0
CLASS
  1
AEC_DISP_REP_ENT_REF
  2
AecDbDispRepEntRef
  3
AecBase
 90
    32897
280
     1
281
     0
  0
CLASS
  1
AEC_DISP_PROPS_ENT_REF
  2
AecDbDispPropsEntRef
  3
AecBase
 90
    32897
280
     1
281
     0
  0
CLASS
  1
AEC_DISP_REP_CLIP_VOLUME_RESULT_SUBDIV
  2
AecDbDispRepClipVolResSubDiv
  3
AecBase
 90
    32897
280
     1
281
     0
  0
CLASS
  1
AEC_DISP_PROPS_CLIP_VOLUME_RESULT
  2
AecDbDispPropsClipVolResSubDiv
  3
AecBase
 90
    32897
280
     1
281
     0
  0
CLASS
  1
AEC_DISP_REP_CLIP_VOLUME_RESULT
  2
AecDbDispRepClipVolResult
  3
AecBase
 90
    32897
280
     1
281
     0
  0
CLASS
  1
AEC_DISP_REP_CLIP_VOLUME_PLAN
  2
AecDbDispRepClipVolPlan
  3
AecBase
 90
    32897
280
     1
281
     0
  0
CLASS
  1
AEC_DISP_PROPS_CLIP_VOLUME
  2
AecDbDispPropsClipVol
  3
AecBase
 90
    32897
280
     1
281
     0
  0
CLASS
  1
AEC_DISP_REP_CLIP_VOLUME_MODEL
  2
AecDbDispRepClipVolModel
  3
AecBase
 90
    32897
280
     1
281
     0
  0
CLASS
  1
AEC_DISP_REP_ANCHOR_ENT_TO_NODE
  2
AecDbDispRepAnchorEntToNode
  3
AecBase
 90
    32897
280
     1
281
     0
  0
CLASS
  1
AEC_DISP_PROPS_ENT
  2
AecDbDispPropsEnt
  3
AecBase
 90
    32897
280
     1
281
     0
  0
CLASS
  1
AEC_DISP_REP_LAYOUT_GRID2D
  2
AecDbDispRepLayoutGrid2d
  3
AecBase
 90
    32897
280
     1
281
     0
  0
CLASS
  1
AEC_DISP_PROPS_LAYOUT_GRID2D
  2
AecDbDispPropsLayoutGrid2d
  3
AecBase
 90
    32897
280
     1
281
     0
  0
CLASS
  1
AEC_DISP_REP_LAYOUT_CURVE
  2
AecDbDispRepLayoutCurve
  3
AecBase
 90
    32897
280
     1
281
     0
  0
CLASS
  1
AEC_DISP_PROPS_LAYOUT_CURVE
  2
AecDbDispPropsLayoutCurve
  3
AecBase
 90
    32897
280
     1
281
     0
  0
CLASS
  1
AEC_DISP_REP_ANCHOR
  2
AecDbDispRepAnchor
  3
AecBase
 90
    32897
280
     1
281
     0
  0
CLASS
  1
AEC_DISP_REP_CAMERA
  2
AecDbDispRepCamera
  3
AecBase
 90
    32897
280
     1
281
     0
  0
CLASS
  1
AEC_DISP_PROPS_CAMERA
  2
AecDbDispPropsCamera
  3
AecBase
 90
    32897
280
     1
281
     0
  0
CLASS
  1
AEC_DISP_REP_SLICE
  2
AecDbDispRepSlice
  3
AecBase
 90
    32897
280
     1
281
     0
  0
CLASS
  1
AEC_DISP_PROPS_SLICE
  2
AecDbDispPropsSlice
  3
AecBase
 90
    32897
280
     1
281
     0
  0
CLASS
  1
AEC_DISP_REP_MVBLOCK_REF
  2
AecDbDispRepMvBlockRef
  3
AecBase
 90
    32897
280
     1
281
     0
  0
CLASS
  1
AEC_DISP_REP_MVBLOCK_REF_MODEL
  2
AecDbDispRepMvBlockRefModel
  3
AecBase
 90
    32897
280
     1
281
     0
  0
CLASS
  1
AEC_DISP_REP_MASS_GROUP_MODEL
  2
AecDbDispRepMassGroupModel
  3
AecBase
 90
    32897
280
     1
281
     0
  0
CLASS
  1
AEC_DISP_PROPS_MASS_GROUP
  2
AecDbDispPropsMassGroup
  3
AecBase
 90
    32897
280
     1
281
     0
  0
CLASS
  1
AEC_DISP_REP_MASS_GROUP_PLAN
  2
AecDbDispRepMassGroupPlan
  3
AecBase
 90
    32897
280
     1
281
     0
  0
CLASS
  1
AEC_DISP_REP_DOOR_RCP
  2
AecDbDispRepDoorRcp
  3
AecArchBase
 90
    32897
280
     1
281
     0
  0
CLASS
  1
AEC_DISP_REP_DOOR_NOMINAL
  2
AecDbDispRepDoorNominal
  3
AecArchBase
 90
    32897
280
     1
281
     0
  0
CLASS
  1
AEC_DISP_PROPS_DOOR_NOMINAL
  2
AecDbDispPropsDoorNominal
  3
AecArchBase
 90
    32897
280
     1
281
     0
  0
CLASS
  1
AEC_DISP_REP_DOOR_PLAN
  2
AecDbDispRepDoorPlan
  3
AecArchBase
 90
    32897
280
     1
281
     0
  0
CLASS
  1
AEC_DISP_REP_DOOR_MODEL
  2
AecDbDispRepDoorModel
  3
AecArchBase
 90
    32897
280
     1
281
     0
  0
CLASS
  1
AEC_DISP_REP_MVBLOCK_REF_RCP
  2
AecDbDispRepMvBlockRefRcp
  3
AecArchBase
 90
    32897
280
     1
281
     0
  0
CLASS
  1
AEC_DISP_REP_MASS_GROUP_RCP
  2
AecDbDispRepMassGroupRcp
  3
AecArchBase
 90
    32897
280
     1
281
     0
  0
CLASS
  1
AEC_DISP_REP_MASS_ELEM_RCP
  2
AecDbDispRepMassElemRcp
  3
AecArchBase
 90
    32897
280
     1
281
     0
  0
CLASS
  1
AEC_DISP_REP_MASKBLOCK_REF_RCP
  2
AecDbDispRepMaskBlockRefRcp
  3
AecArchBase
 90
    32897
280
     1
281
     0
  0
CLASS
  1
AEC_DISP_REP_COLUMN_GRID_RCP
  2
AecDbDispRepColumnGridRcp
  3
AecArchBase
 90
    32897
280
     1
281
     0
  0
CLASS
  1
AEC_DISP_REP_COLUMN_GRID_MODEL
  2
AecDbDispRepColumnGridModel
  3
AecArchBase
 90
    32897
280
     1
281
     0
  0
CLASS
  1
AEC_DISP_REP_COLUMN_GRID
  2
AecDbDispRepColumnGrid
  3
AecArchBase
 90
    32897
280
     1
281
     0
  0
CLASS
  1
AEC_DISP_REP_CEILING_GRID_RCP
  2
AecDbDispRepCeilingGridRcp
  3
AecArchBase
 90
    32897
280
     1
281
     0
  0
CLASS
  1
AEC_DISP_REP_CEILING_GRID_MODEL
  2
AecDbDispRepCeilingGridModel
  3
AecArchBase
 90
    32897
280
     1
281
     0
  0
CLASS
  1
AEC_DISP_REP_CEILING_GRID
  2
AecDbDispRepCeilingGrid
  3
AecArchBase
 90
    33661
280
     1
281
     0
  0
CLASS
  1
AEC_DISP_REP_BDG_SECTION_SUBDIV
  2
AecDbDispRepBdgSectionSubDiv
  3
AecArchBase
 90
    32897
280
     1
281
     0
  0
CLASS
  1
AEC_DISP_REP_BDG_SECTION_MODEL
  2
AecDbDispRepBdgSectionModel
  3
AecArchBase
 90
    32897
280
     1
281
     0
  0
CLASS
  1
AEC_DISP_REP_BDG_SECTIONLINE_RCP
  2
AecDbDispRepBdgSectionLineRcp
  3
AecArchBase
 90
    32897
280
     1
281
     0
  0
CLASS
  1
AEC_DISP_REP_BDG_SECTIONLINE_PLAN
  2
AecDbDispRepBdgSectionLinePlan
  3
AecArchBase
 90
    32897
280
     1
281
     0
  0
CLASS
  1
AEC_DISP_REP_BDG_ELEVLINE_RCP
  2
AecDbDispRepBdgElevLineRcp
  3
AecArchBase
 90
    32897
280
     1
281
     0
  0
CLASS
  1
AEC_DISP_REP_BDG_ELEVLINE_PLAN
  2
AecDbDispRepBdgElevLinePlan
  3
AecArchBase
 90
    32897
280
     1
281
     0
  0
CLASS
  1
AEC_DISP_REP_BDG_SECTIONLINE_MODEL
  2
AecDbDispRepBdgSectionLineModel
  3
AecArchBase
 90
    32897
280
     1
281
     0
  0
CLASS
  1
AEC_DISP_REP_BDG_ELEVLINE_MODEL
  2
AecDbDispRepBdgElevLineModel
  3
AecArchBase
 90
    32897
280
     1
281
     0
  0
CLASS
  1
AEC_DISP_REP_ANCHOR_BUB_TO_GRID_RCP
  2
AecDbDispRepAnchorBubToGridRcp
  3
AecArchBase
 90
    32897
280
     1
281
     0
  0
CLASS
  1
AEC_DISP_REP_ANCHOR_BUB_TO_GRID_MODEL
  2
AecDbDispRepAnchorBubToGridMdl
  3
AecArchBase
 90
    32897
280
     1
281
     0
  0
CLASS
  1
AEC_DISP_REP_ANCHOR_BUB_TO_GRID
  2
AecDbDispRepAnchorBubToGrid
  3
AecArchBase
 90
    32897
280
     1
281
     0
  0
CLASS
  1
AEC_DISP_REP_WINDOW_RCP
  2
AecDbDispRepWindowRcp
  3
AecArchBase
 90
    32897
280
     1
281
     0
  0
CLASS
  1
AEC_DISP_PROPS_WINDOW
  2
AecDbDispPropsWindow
  3
AecArchBase
 90
    32897
280
     1
281
     0
  0
CLASS
  1
AEC_DISP_REP_ROOF_RCP
  2
AecDbDispRepRoofRcp
  3
AecArchBase
 90
    32897
280
     1
281
     0
  0
CLASS
  1
AEC_DISP_PROPS_ROOF
  2
AecDbDispPropsRoof
  3
AecArchBase
 90
    32897
280
     1
281
     0
  0
CLASS
  1
AEC_DISP_REP_ROOF_PLAN
  2
AecDbDispRepRoofPlan
  3
AecArchBase
 90
    32897
280
     1
281
     0
  0
CLASS
  1
AEC_DISP_REP_WINDOW_SILL_PLAN
  2
AecDbDispRepWindowSillPlan
  3
AecArchBase
 90
    32897
280
     1
281
     0
  0
CLASS
  1
AEC_DISP_PROPS_WINDOW_SILL_PLAN
  2
AecDbDispPropsWindowSillPlan
  3
AecArchBase
 90
    32897
280
     1
281
     0
  0
CLASS
  1
AEC_DISP_REP_SPACE_PLAN
  2
AecDbDispRepSpacePlan
  3
AecArchBase
 90
    32897
280
     1
281
     0
  0
CLASS
  1
AEC_DISP_PROPS_SPACE_PLAN
  2
AecDbDispPropsSpacePlan
  3
AecArchBase
 90
    32897
280
     1
281
     0
  0
CLASS
  1
AEC_DISP_REP_SPACE_MODEL
  2
AecDbDispRepSpaceModel
  3
AecArchBase
 90
    32897
280
     1
281
     0
  0
CLASS
  1
AEC_DISP_PROPS_SPACE_MODEL
  2
AecDbDispPropsSpaceModel
  3
AecArchBase
 90
    32897
280
     1
281
     0
  0
CLASS
  1
AEC_DISP_REP_WINDOW_MODEL
  2
AecDbDispRepWindowModel
  3
AecArchBase
 90
    32897
280
     1
281
     0
  0
CLASS
  1
AEC_DISP_REP_WINDOW_NOMINAL
  2
AecDbDispRepWindowNominal
  3
AecArchBase
 90
    32897
280
     1
281
     0
  0
CLASS
  1
AEC_DISP_PROPS_WINDOW_NOMINAL
  2
AecDbDispPropsWindowNominal
  3
AecArchBase
 90
    32897
280
     1
281
     0
  0
CLASS
  1
AEC_DISP_REP_OPENING
  2
AecDbDispRepOpening
  3
AecArchBase
 90
    32897
280
     1
281
     0
  0
CLASS
  1
AEC_DISP_PROPS_OPENING
  2
AecDbDispPropsOpening
  3
AecArchBase
 90
    32897
280
     1
281
     0
  0
CLASS
  1
AEC_DISP_REP_OPENING_MODEL
  2
AecDbDispRepOpeningModel
  3
AecArchBase
 90
    32897
280
     1
281
     0
  0
CLASS
  1
AEC_DISP_REP_RAILING_PLAN
  2
AecDbDispRepRailingPlan
  3
AecArchBase
 90
    32897
280
     1
281
     0
  0
CLASS
  1
AEC_DISP_PROPS_RAILING_PLAN
  2
AecDbDispPropsRailingPlan
  3
AecArchBase
 90
    32897
280
     1
281
     0
  0
CLASS
  1
AEC_DISP_REP_RAILING_MODEL
  2
AecDbDispRepRailingModel
  3
AecArchBase
 90
    32897
280
     1
281
     0
  0
CLASS
  1
AEC_DISP_PROPS_RAILING_MODEL
  2
AecDbDispPropsRailingModel
  3
AecArchBase
 90
    32897
280
     1
281
     0
  0
CLASS
  1
AEC_DISP_REP_WINDOW_ELEV
  2
AecDbDispRepWindowElev
  3
AecArchBase
 90
    32897
280
     1
281
     0
  0
CLASS
  1
AEC_DISP_REP_DOOR_THRESHOLD_PLAN
  2
AecDbDispRepDoorThresholdPlan
  3
AecArchBase
 90
    32897
280
     1
281
     0
  0
CLASS
  1
AEC_DISP_PROPS_DOOR_THRESHOLD_PLAN
  2
AecDbDispPropsDoorThresholdPlan
  3
AecArchBase
 90
    32897
280
     1
281
     0
  0
CLASS
  1
AEC_DISP_REP_ROOF_MODEL
  2
AecDbDispRepRoofModel
  3
AecArchBase
 90
    32897
280
     1
281
     0
  0
CLASS
  1
AEC_DISP_REP_WINDOW_PLAN
  2
AecDbDispRepWindowPlan
  3
AecArchBase
 90
    32897
280
     1
281
     0
  0
CLASS
  1
AEC_DISP_REP_WALL_SCHEM
  2
AecDbDispRepWallSchem
  3
AecArchBase
 90
    32897
280
     1
281
     0
  0
CLASS
  1
AEC_DISP_PROPS_WALL_SCHEM
  2
AecDbDispPropsWallSchem
  3
AecArchBase
 90
    32897
280
     1
281
     0
  0
CLASS
  1
AEC_DISP_REP_WALL_RCP
  2
AecDbDispRepWallRcp
  3
AecArchBase
 90
    32897
280
     1
281
     0
  0
CLASS
  1
AEC_DISP_PROPS_WALL_PLAN
  2
AecDbDispPropsWallPlan
  3
AecArchBase
 90
    32897
280
     1
281
     0
  0
CLASS
  1
AEC_DISP_REP_WALL_PLAN
  2
AecDbDispRepWallPlan
  3
AecArchBase
 90
    32897
280
     1
281
     0
  0
CLASS
  1
AEC_DISP_REP_WALL_MODEL
  2
AecDbDispRepWallModel
  3
AecArchBase
 90
    32897
280
     1
281
     0
  0
CLASS
  1
AEC_DISP_PROPS_WALL
  2
AecDbDispPropsWall
  3
AecArchBase
 90
    32897
280
     1
281
     0
  0
CLASS
  1
AEC_DISP_REP_WALL_GRAPH
  2
AecDbDispRepWallGraph
  3
AecArchBase
 90
    32897
280
     1
281
     0
  0
CLASS
  1
AEC_DISP_REP_STAIR_RCP
  2
AecDbDispRepStairRcp
  3
AecArchBase
 90
    32897
280
     1
281
     0
  0
CLASS
  1
AEC_DISP_PROPS_STAIR_PLAN
  2
AecDbDispPropsStairPlan
  3
AecArchBase
 90
    32897
280
     1
281
     0
  0
CLASS
  1
AEC_DISP_REP_STAIR_PLAN
  2
AecDbDispRepStairPlan
  3
AecArchBase
 90
    32897
280
     1
281
     0
  0
CLASS
  1
AEC_DISP_REP_STAIR_MODEL
  2
AecDbDispRepStairModel
  3
AecArchBase
 90
    32897
280
     1
281
     0
  0
CLASS
  1
AEC_DISP_PROPS_STAIR_MODEL
  2
AecDbDispPropsStairModel
  3
AecArchBase
 90
    32897
280
     1
281
     0
  0
CLASS
  1
AEC_DISP_REP_SPACE_BOUNDARY_SCHEM
  2
AecDbDispRepSpaceBoundarySketch
  3
AecArchBase
 90
    32897
280
     1
281
     0
  0
CLASS
  1
AEC_DISP_REP_SPACE_BOUNDARY_PLAN
  2
AecDbDispRepSpaceBoundaryPlan
  3
AecArchBase
 90
    32897
280
     1
281
     0
  0
CLASS
  1
AEC_DISP_REP_SPACE_BOUNDARY_MODEL
  2
AecDbDispRepSpaceBoundaryModel
  3
AecArchBase
 90
    32897
280
     1
281
     0
  0
CLASS
  1
AEC_DISP_REP_SPACE_BOUNDARY_DIAGRAM
  2
AecDbDispRepSpaceBoundaryDgrm
  3
AecArchBase
 90
    32897
280
     1
281
     0
  0
CLASS
  1
AEC_DISP_REP_SPACE_VOLUME
  2
AecDbDispRepSpaceVolume
  3
AecArchBase
 90
    32897
280
     1
281
     0
  0
CLASS
  1
AEC_DISP_REP_SPACE_RCP
  2
AecDbDispRepSpaceRcp
  3
AecArchBase
 90
    32897
280
     1
281
     0
  0
CLASS
  1
AEC_DISP_REP_ANCHOR_TAG_TO_ENT
  2
AecDbDispRepAnchorTagToEnt
  3
AecScheduleData
 90
    32897
280
     1
281
     0
  0
CLASS
  1
AEC_DISP_REP_SCHEDULE_TABLE
  2
AecDbDispRepScheduleTable
  3
AecSchedule
 90
    32897
280
     1
281
     0
  0
CLASS
  1
AEC_DISP_PROPS_SCHEDULE_TABLE
  2
AecDbDispPropsScheduleTable
  3
AecSchedule
 90
    32897
280
     1
281
     0
  0
CLASS
  1
AEC_DISP_REP_SET
  2
AecDbDispRepSet
  3
AecBase
 90
    32897
280
     1
281
     0
  0
CLASS
  1
AEC_DISP_REP_CONFIG
  2
AecDbDispRepConfig
  3
AecBase
 90
    32897
280
     1
281
     0
  0
CLASS
  1
TABLESTYLE
  2
AcDbTableStyle
  3
ObjectDBX Classes
 90
     4095
280
     0
281
     0
  0
CLASS
  1
MATERIAL
  2
AcDbMaterial
  3
ObjectDBX Classes
 90
     1153
280
     0
281
     0
  0
CLASS
  1
VISUALSTYLE
  2
AcDbVisualStyle
  3
ObjectDBX Classes
 90
     4095
280
     0
281
     0
  0
CLASS
  1
SCALE
  2
AcDbScale
  3
ObjectDBX Classes
 90
     1153
280
     0
281
     0
  0
CLASS
  1
MLEADERSTYLE
  2
AcDbMLeaderStyle
  3
ACDB_MLEADERSTYLE_CLASS
 90
    36863
280
     0
281
     0
  0
CLASS
  1
ACDBSECTIONVIEWSTYLE
  2
AcDbSectionViewStyle
  3
ObjectDBX Classes
 90
    33793
280
     0
281
     0
  0
CLASS
  1
ACDBDETAILVIEWSTYLE
  2
AcDbDetailViewStyle
  3
ObjectDBX Classes
 90
    33793
280
     0
281
     0
  0
CLASS
  1
CELLSTYLEMAP
  2
AcDbCellStyleMap
  3
ObjectDBX Classes
 90
     1152
280
     0
281
     0
  0
ENDSEC
  0
SECTION
  2
TABLES
  0
TABLE
  2
VPORT
  5
2F
330
0
100
AcDbSymbolTable
 70
     1
  0
VPORT
  5
30
330
2F
100
AcDbSymbolTableRecord
100
AcDbViewportTableRecord
  2
*Active
 70
     0
 10
0.0
 20
0.0
 11
1.0
 21
1.0
 12
185.0822162014788
 22
37.82945470498572
 13
0.0
 23
0.0
 14
1.0
 24
1.0
 15
0.0
 25
0.0
 16
0.0
 26
0.0
 36
1.0
 17
0.0
 27
0.0
 37
0.0
 40
242.4675082590393
 41
2.043307086614173
 42
50.0
 43
0.0
 44
0.0
 50
0.0
 51
0.0
 71
     0
 72
 20000
 73
     1
 74
     1
 75
     0
 76
     0
 77
     0
 78
     0
281
     0
 65
     1
110
0.0
120
0.0
130
0.0
111
1.0
121
0.0
131
0.0
112
0.0
122
1.0
132
0.0
 79
     0
146
0.0
1001
ACAD_NAV_VCDISPLAY
1070
     3
  0
ENDTAB
  0
TABLE
  2
LTYPE
  5
2A
330
0
100
AcDbSymbolTable
 70
     1
  0
LTYPE
  5
2B
330
2A
100
AcDbSymbolTableRecord
100
AcDbLinetypeTableRecord
  2
BYBLOCK
 70
     0
  3

 72
    65
 73
     0
 40
0.0
  0
LTYPE
  5
2C
330
2A
100
AcDbSymbolTableRecord
100
AcDbLinetypeTableRecord
  2
BYLAYER
 70
     0
  3

 72
    65
 73
     0
 40
0.0
  0
LTYPE
  5
14
330
2A
100
AcDbSymbolTableRecord
100
AcDbLinetypeTableRecord
  2
CONTINUOUS
 70
     0
  3
Solid line
 72
    65
 73
     0
 40
0.0
  0
ENDTAB
  0
TABLE
  2
LAYER
  5
26
330
0
100
AcDbSymbolTable
 70
     6
  0
LAYER
  5
6
330
26
100
AcDbSymbolTableRecord
100
AcDbLayerTableRecord
  2
0
 70
     0
 62
     7
  6
CONTINUOUS
370
    -3
390
7
  0
LAYER
  5
12F
330
26
100
AcDbSymbolTableRecord
100
AcDbLayerTableRecord
  2
DEFPOINTS
 70
     0
 62
     7
  6
CONTINUOUS
290
     0
370
    -3
390
7
  0
LAYER
  5
124
330
26
100
AcDbSymbolTableRecord
100
AcDbLayerTableRecord
  2
SUNPOU
 70
     0
 62
    70
  6
CONTINUOUS
370
    -3
390
7
  0
LAYER
  5
63
330
26
100
AcDbSymbolTableRecord
100
AcDbLayerTableRecord
  2
KIJUN
 70
     0
 62
     7
  6
CONTINUOUS
370
    -3
390
7
  0
LAYER
  5
147
330
26
100
AcDbSymbolTableRecord
100
AcDbLayerTableRecord
  2
HOJO
 70
     0
 62
     3
  6
CONTINUOUS
370
    -3
390
7
  0
LAYER
  5
149
330
26
100
AcDbSymbolTableRecord
100
AcDbLayerTableRecord
  2
WAKU
 70
     0
 62
     1
  6
CONTINUOUS
370
    -3
390
7
  0
ENDTAB
  0
TABLE
  2
STYLE
  5
27
330
0
100
AcDbSymbolTable
 70
     3
  0
STYLE
  5
28
330
27
100
AcDbSymbolTableRecord
100
AcDbTextStyleTableRecord
  2
STANDARD
 70
     0
 40
0.0
 41
1.0
 50
0.0
 71
     0
 42
0.2
  3
txt
  4

  0
STYLE
  5
4C
330
27
100
AcDbSymbolTableRecord
100
AcDbTextStyleTableRecord
  2
SUNPOU
 70
     0
 40
0.0
 41
1.0
 50
0.0
 71
     0
 42
30.0
  3
txt
  4
bigfont
  0
STYLE
  5
12D
330
27
100
AcDbSymbolTableRecord
100
AcDbTextStyleTableRecord
  2
LIFE
 70
     0
 40
0.0
 41
0.7
 50
0.0
 71
     0
 42
10.0
  3
romans
  4
extfont
  0
ENDTAB
  0
TABLE
  2
VIEW
  5
2D
330
0
100
AcDbSymbolTable
 70
     0
  0
ENDTAB
  0
TABLE
  2
UCS
  5
2E
330
0
100
AcDbSymbolTable
 70
     0
  0
ENDTAB
  0
TABLE
  2
APPID
  5
34
330
0
100
AcDbSymbolTable
 70
     2
  0
APPID
  5
A
330
34
100
AcDbSymbolTableRecord
100
AcDbRegAppTableRecord
  2
ACAD
 70
     0
  0
APPID
  5
33
330
34
100
AcDbSymbolTableRecord
100
AcDbRegAppTableRecord
  2
ACAD_NAV_VCDISPLAY
 70
     0
  0
ENDTAB
  0
TABLE
  2
DIMSTYLE
  5
35
330
0
100
AcDbSymbolTable
 70
     3
100
AcDbDimStyleTable
 71
     2
340
36
340
3B
  0
DIMSTYLE
105
36
330
35
100
AcDbSymbolTableRecord
100
AcDbDimStyleTableRecord
  2
STANDARD
 70
     0
 41
3.0
 42
2.0
 44
0.0
 73
     0
 74
     0
 77
     1
140
2.799999999999998
141
1.0
146
0.0642857142857143
147
1.0
173
     1
174
     1
176
    60
177
    70
178
    60
271
     0
340
28
341
37
343
37
344
37
  0
DIMSTYLE
105
133
102
{ACAD_REACTORS
330
139
330
123
102
}
330
35
100
AcDbSymbolTableRecord
100
AcDbDimStyleTableRecord
  2
STANDARD$0
 70
     0
 40
2.0
 41
1.0
 42
2.0
 43
0.0
 44
1.0
 73
     0
 74
     0
 77
     3
 78
     9
140
4.5
141
0.0
147
1.0
172
     1
173
     1
178
     3
271
     2
340
12D
341
134
343
134
344
134
  0
DIMSTYLE
105
3B
330
35
100
AcDbSymbolTableRecord
100
AcDbDimStyleTableRecord
  2
1
 70
     0
 41
3.0
 42
2.0
 44
0.0
 73
     0
 74
     0
 77
     1
140
7.0
141
1.0
146
0.0642857142857143
147
1.0
173
     1
174
     1
176
    60
177
    70
178
    60
271
     0
340
28
341
37
343
37
344
37
  0
ENDTAB
  0
TABLE
  2
BLOCK_RECORD
  5
1
330
0
100
AcDbSymbolTable
 70
     4
  0
BLOCK_RECORD
  5
2
102
{ACAD_XDICTIONARY
360
3
102
}
330
1
100
AcDbSymbolTableRecord
100
AcDbBlockTableRecord
  2
*MODEL_SPACE
340
1E
  0
BLOCK_RECORD
  5
20
102
{ACAD_XDICTIONARY
360
21
102
}
330
1
100
AcDbSymbolTableRecord
100
AcDbBlockTableRecord
  2
*PAPER_SPACE
340
25
  0
BLOCK_RECORD
  5
37
330
1
100
AcDbSymbolTableRecord
100
AcDbBlockTableRecord
  2
_DOTSMALL
340
0
102
{BLKREFS
331
12A
331
12B
331
13F
331
140
102
}
  0
BLOCK_RECORD
  5
134
330
1
100
AcDbSymbolTableRecord
100
AcDbBlockTableRecord
  2
_DOT
340
0
  0
BLOCK_RECORD
  5
13A
330
1
100
AcDbSymbolTableRecord
100
AcDbBlockTableRecord
  2
*D2
340
0
  0
BLOCK_RECORD
  5
125
330
1
100
AcDbSymbolTableRecord
100
AcDbBlockTableRecord
  2
*D3
340
0
  0
ENDTAB
  0
ENDSEC
  0
SECTION
  2
BLOCKS
  0
BLOCK
  5
5
330
2
100
AcDbEntity
  8
0
100
AcDbBlockBegin
  2
*MODEL_SPACE
 70
     0
 10
0.0
 20
0.0
 30
0.0
  3
*MODEL_SPACE
  1

  0
ENDBLK
  5
1D
330
2
100
AcDbEntity
  8
0
100
AcDbBlockEnd
  0
BLOCK
  5
23
330
20
100
AcDbEntity
 67
     1
  8
0
100
AcDbBlockBegin
  2
*PAPER_SPACE
 70
     0
 10
0.0
 20
0.0
 30
0.0
  3
*PAPER_SPACE
  1

  0
ENDBLK
  5
24
330
20
100
AcDbEntity
 67
     1
  8
0
100
AcDbBlockEnd
  0
BLOCK
  5
38
330
37
100
AcDbEntity
  8
0
100
AcDbBlockBegin
  2
_DOTSMALL
 70
     0
 10
0.0
 20
0.0
 30
0.0
  3
_DOTSMALL
  1

  0
LWPOLYLINE
  5
39
330
37
100
AcDbEntity
  8
0
  6
ByBlock
 62
     0
100
AcDbPolyline
 90
        2
 70
     1
 43
0.5
 10
-0.0625
 20
0.0
 42
1.0
 10
0.0625
 20
0.0
 42
1.0
  0
ENDBLK
  5
3A
330
37
100
AcDbEntity
  8
0
100
AcDbBlockEnd
  0
BLOCK
  5
135
330
134
100
AcDbEntity
  8
0
100
AcDbBlockBegin
  2
_DOT
 70
     0
 10
0.0
 20
0.0
 30
0.0
  3
_DOT
  1

  0
LWPOLYLINE
  5
136
330
134
100
AcDbEntity
  8
0
  6
ByBlock
 62
     0
100
AcDbPolyline
 90
        2
 70
     1
 43
0.5
 10
-0.25
 20
0.0
 42
1.0
 10
0.25
 20
0.0
 42
1.0
  0
LINE
  5
137
330
134
100
AcDbEntity
  8
0
  6
ByBlock
 62
     0
100
AcDbLine
 10
-0.5
 20
0.0
 30
0.0
 11
-1.0
 21
0.0
 31
0.0
  0
ENDBLK
  5
138
330
134
100
AcDbEntity
  8
0
100
AcDbBlockEnd
  0
BLOCK
  5
13B
330
13A
100
AcDbEntity
  8
0
 62
     7
100
AcDbBlockBegin
  2
*D2
 70
     1
 10
0.0
 20
0.0
 30
0.0
  3
*D2
  1

  0
LINE
  5
13C
330
13A
100
AcDbEntity
  8
SUNPOU
 62
    70
370
    -2
100
AcDbLine
 10
15.73773789026381
 20
60.44760117103574
 30
0.0
 11
10.65668716554484
 21
60.44760117103574
 31
0.0
  0
LINE
  5
13D
330
13A
100
AcDbEntity
  8
SUNPOU
 62
    70
370
    -2
100
AcDbLine
 10
15.73773789026382
 20
22.44760117103573
 30
0.0
 11
10.65668716554483
 21
22.44760117103573
 31
0.0
  0
LINE
  5
13E
330
13A
100
AcDbEntity
  8
SUNPOU
 62
    60
370
    -2
100
AcDbLine
 10
10.65668716554484
 20
60.44760117103574
 30
0.0
 11
10.65668716554483
 21
22.44760117103573
 31
0.0
  0
INSERT
  5
13F
330
13A
100
AcDbEntity
  8
SUNPOU
 62
    60
370
    -2
100
AcDbBlockReference
  2
_DOTSMALL
 10
10.65668716554484
 20
60.44760117103574
 30
0.0
 41
4.0
 42
4.0
 43
4.0
 50
90.0
  0
INSERT
  5
140
330
13A
100
AcDbEntity
  8
SUNPOU
 62
    60
370
    -2
100
AcDbBlockReference
  2
_DOTSMALL
 10
10.65668716554483
 20
22.44760117103573
 30
0.0
 41
4.0
 42
4.0
 43
4.0
 50
270.0
  0
MTEXT
  5
141
330
13A
100
AcDbEntity
  8
SUNPOU
 62
    60
100
AcDbMText
 10
5.65668716554483
 20
41.44760117103573
 30
0.0
 40
6.0
 41
0.0
 71
     5
 72
     1
  1
\A1;38
  7
LIFE
 11
0.0000000000000001
 21
1.0
 31
0.0
 73
     1
 44
1.0
1001
ACAD
1000
MTEXTBEGIN
1070
    73
1070
     1
1070
    44
1040
1.0
1070
    74
1070
     0
1000
MTEXTEND
  0
POINT
  5
142
330
13A
100
AcDbEntity
  8
DEFPOINTS
 62
     0
100
AcDbPoint
 10
19.73773789026381
 20
60.44760117103573
 30
0.0
  0
POINT
  5
143
330
13A
100
AcDbEntity
  8
DEFPOINTS
 62
     0
100
AcDbPoint
 10
19.73773789026381
 20
22.44760117103573
 30
0.0
  0
POINT
  5
144
330
13A
100
AcDbEntity
  8
DEFPOINTS
 62
     0
100
AcDbPoint
 10
10.65668716554483
 20
22.44760117103573
 30
0.0
  0
ENDBLK
  5
145
330
13A
100
AcDbEntity
  8
0
 62
     7
100
AcDbBlockEnd
  0
BLOCK
  5
126
330
125
100
AcDbEntity
  8
0
 62
     7
100
AcDbBlockBegin
  2
*D3
 70
     1
 10
0.0
 20
0.0
 30
0.0
  3
*D3
  1

  0
LINE
  5
127
330
125
100
AcDbEntity
  8
SUNPOU
 62
    70
370
    -2
100
AcDbLine
 10
19.73773789026381
 20
64.44760117103573
 30
0.0
 11
19.73773789026381
 21
68.05933061242939
 31
0.0
  0
LINE
  5
128
330
125
100
AcDbEntity
  8
SUNPOU
 62
    70
370
    -2
100
AcDbLine
 10
36.73773789026382
 20
64.44760117103573
 30
0.0
 11
36.73773789026382
 21
68.05933061242939
 31
0.0
  0
LINE
  5
129
330
125
100
AcDbEntity
  8
SUNPOU
 62
    60
370
    -2
100
AcDbLine
 10
19.73773789026381
 20
68.05933061242939
 30
0.0
 11
36.73773789026382
 21
68.05933061242939
 31
0.0
  0
INSERT
  5
12A
330
125
100
AcDbEntity
  8
SUNPOU
 62
    60
370
    -2
100
AcDbBlockReference
  2
_DOTSMALL
 10
19.73773789026381
 20
68.05933061242939
 30
0.0
 41
4.0
 42
4.0
 43
4.0
 50
180.0
  0
INSERT
  5
12B
330
125
100
AcDbEntity
  8
SUNPOU
 62
    60
370
    -2
100
AcDbBlockReference
  2
_DOTSMALL
 10
36.73773789026382
 20
68.05933061242939
 30
0.0
 41
4.0
 42
4.0
 43
4.0
  0
MTEXT
  5
12C
330
125
100
AcDbEntity
  8
SUNPOU
 62
    60
100
AcDbMText
 10
28.23773789026382
 20
73.05933061242939
 30
0.0
 40
6.0
 41
0.0
 71
     5
 72
     1
  1
\A1;17
  7
LIFE
 73
     1
 44
1.0
1001
ACAD
1000
MTEXTBEGIN
1070
    73
1070
     1
1070
    44
1040
1.0
1070
    74
1070
     0
1000
MTEXTEND
  0
POINT
  5
12E
330
125
100
AcDbEntity
  8
DEFPOINTS
 62
     0
100
AcDbPoint
 10
19.73773789026381
 20
60.44760117103573
 30
0.0
  0
POINT
  5
130
330
125
100
AcDbEntity
  8
DEFPOINTS
 62
     0
100
AcDbPoint
 10
36.73773789026382
 20
60.44760117103573
 30
0.0
  0
POINT
  5
131
330
125
100
AcDbEntity
  8
DEFPOINTS
 62
     0
100
AcDbPoint
 10
36.73773789026382
 20
68.05933061242939
 30
0.0
  0
ENDBLK
  5
132
330
125
100
AcDbEntity
  8
0
 62
     7
100
AcDbBlockEnd
  0
ENDSEC
  0
SECTION
  2
ENTITIES
  0
ARC
  5
62
330
2
100
AcDbEntity
  8
KIJUN
 62
     7
100
AcDbCircle
 10
330.9570681885416
 20
36.01218648995331
 30
0.0
 40
17.66261928184973
100
AcDbArc
 50
101.0431015064994
 51
133.9217456102804
  0
ARC
  5
64
330
2
100
AcDbEntity
  8
KIJUN
 62
     7
100
AcDbCircle
 10
314.0149471355925
 20
35.90287700159792
 30
0.0
 40
17.6519110326719
100
AcDbArc
 50
46.62858282401913
 51
76.60824593293559
  0
ARC
  5
65
330
2
100
AcDbEntity
  8
KIJUN
 62
     7
100
AcDbCircle
 10
323.1576370489274
 20
47.71700484535284
 30
0.0
 40
6.999999999999997
100
AcDbArc
 50
71.4011992102869
 51
105.3892192047936
  0
ARC
  5
66
330
2
100
AcDbEntity
  8
KIJUN
 62
     7
100
AcDbCircle
 10
322.8014317224096
 20
41.57968682941936
 30
0.0
 40
10.5
100
AcDbArc
 50
181.1476923339958
 51
8.750969569933491
  0
CIRCLE
  5
67
330
2
100
AcDbEntity
  8
KIJUN
 62
     7
100
AcDbCircle
 10
322.8014317224096
 20
41.00252002741028
 30
0.0
 40
8.749999999999998
  0
LINE
  5
68
330
2
100
AcDbEntity
  8
KIJUN
 62
     7
100
AcDbLine
 10
77.2081244343558
 20
22.44760117103573
 30
0.0
 11
348.0439209626188
 21
22.44760117103573
 31
0.0
  0
LINE
  5
69
330
2
100
AcDbEntity
  8
KIJUN
 62
     7
100
AcDbLine
 10
77.2081244343558
 20
60.44760117103573
 30
0.0
 11
348.0439209626188
 21
60.44760117103573
 31
0.0
  0
LINE
  5
6A
330
2
100
AcDbEntity
  8
KIJUN
 62
     7
100
AcDbLine
 10
77.2081244343558
 20
25.12303844016963
 30
0.0
 11
348.0439209626188
 21
25.12303844016963
 31
0.0
  0
LINE
  5
6B
330
2
100
AcDbEntity
  8
KIJUN
 62
     7
100
AcDbLine
 10
348.0439209626188
 20
26.44227684475839
 30
0.0
 11
77.2081244343558
 21
26.44227684475863
 31
0.0
  0
LINE
  5
6C
330
2
100
AcDbEntity
  8
KIJUN
 62
     7
100
AcDbLine
 10
348.0439209626188
 20
59.35260407811704
 30
0.0
 11
343.9544086025662
 21
59.35260407811728
 31
0.0
  0
ARC
  5
6D
330
2
100
AcDbEntity
  8
KIJUN
 62
     7
100
AcDbCircle
 10
329.4594979455114
 20
42.11260632322677
 30
0.0
 40
18.0
100
AcDbArc
 50
0.000000000000007
 51
47.59874520416325
  0
ARC
  5
6E
330
2
100
AcDbEntity
  8
KIJUN
 62
     7
100
AcDbCircle
 10
307.2862718415258
 20
35.32339357631367
 30
0.0
 40
41.93835401208659
100
AcDbArc
 50
16.94629122242476
 51
34.95724660165928
  0
ARC
  5
6F
330
2
100
AcDbEntity
  8
KIJUN
 62
     7
100
AcDbCircle
 10
315.5920666770857
 20
45.07312538728722
 30
0.0
 40
32.14494779071812
100
AcDbArc
 50
4.498524527376127
 51
26.37354482747958
  0
ARC
  5
70
330
2
100
AcDbEntity
  8
KIJUN
 62
     7
100
AcDbCircle
 10
348.0439209626192
 20
29.74834259135236
 30
0.0
 40
0.5844230171078381
100
AcDbArc
 50
180.0
 51
269.9999999999556
  0
LINE
  5
71
330
2
100
AcDbEntity
  8
KIJUN
 62
     7
100
AcDbLine
 10
347.4594979455114
 20
42.11260632322677
 30
0.0
 11
347.4594979455114
 21
29.74834259135236
 31
0.0
  0
ARC
  5
72
330
2
100
AcDbEntity
  8
KIJUN
 62
     7
100
AcDbCircle
 10
333.8547505047404
 20
59.67621471102521
 30
0.0
 40
0.3236106329079119
100
AcDbArc
 50
90.0
 51
270.0
  0
LINE
  5
73
330
2
100
AcDbEntity
  8
KIJUN
 62
     7
100
AcDbLine
 10
348.0439209626188
 20
59.99982534393321
 30
0.0
 11
343.9544086025662
 21
59.99982534393321
 31
0.0
  0
ARC
  5
74
330
2
100
AcDbEntity
  8
KIJUN
 62
     7
100
AcDbCircle
 10
343.9544086025662
 20
59.67621471102521
 30
0.0
 40
0.323610632907912
100
AcDbArc
 50
90.0
 51
270.0
  0
ARC
  5
75
330
2
100
AcDbEntity
  8
KIJUN
 62
     7
100
AcDbCircle
 10
342.0011841874261
 20
59.67621471102521
 30
0.0
 40
0.3236106329079119
100
AcDbArc
 50
270.0
 51
90.0
  0
ARC
  5
76
330
2
100
AcDbEntity
  8
KIJUN
 62
     7
100
AcDbCircle
 10
325.480744993832
 20
37.75550749110692
 30
0.0
 40
23.90040551856065
100
AcDbArc
 50
47.59874520416325
 51
64.63924427045923
  0
LINE
  5
77
330
2
100
AcDbEntity
  8
KIJUN
 62
     7
100
AcDbLine
 10
342.0011841874261
 20
59.99982534393321
 30
0.0
 11
333.8547505047404
 21
59.99982534393321
 31
0.0
  0
LINE
  5
78
330
2
100
AcDbEntity
  8
KIJUN
 62
     7
100
AcDbLine
 10
342.0011841874261
 20
59.35260407811728
 30
0.0
 11
333.8547505047404
 21
59.35260407811728
 31
0.0
  0
ARC
  5
79
330
2
100
AcDbEntity
  8
KIJUN
 62
     7
100
AcDbCircle
 10
321.7757056337932
 20
43.61039440912685
 30
0.0
 40
11.33289553428818
100
AcDbArc
 50
1.974780989965416
 51
71.40119921028689
  0
ARC
  5
7A
330
2
100
AcDbEntity
  8
KIJUN
 62
     7
100
AcDbCircle
 10
340.0977131035606
 20
44.24213877904361
 30
0.0
 40
6.999999999999997
100
AcDbArc
 50
181.9747809899655
 51
188.7509695699334
  0
LWPOLYLINE
  5
7B
330
2
100
AcDbEntity
  8
KIJUN
 62
     7
100
AcDbPolyline
 90
        2
 70
     0
 43
0.0
 10
326.5578476421619
 20
48.90516764943111
 10
326.5578476421619
 20
33.09987240538923
  0
LWPOLYLINE
  5
7C
330
2
100
AcDbEntity
  8
KIJUN
 62
     7
100
AcDbPolyline
 90
        2
 70
     0
 43
0.0
 10
325.7494632658667
 20
32.76409724032391
 10
325.7494632658667
 20
49.24094281449645
  0
ARC
  5
7D
330
2
100
AcDbEntity
  8
KIJUN
 62
     7
100
AcDbCircle
 10
154.7713004031439
 20
37.75550749110716
 30
0.0
 40
23.90040551856089
100
AcDbArc
 50
115.3607557295421
 51
132.4012547958437
  0
LINE
  5
7E
330
2
100
AcDbEntity
  8
KIJUN
 62
     7
100
AcDbLine
 10
138.2508612095494
 20
59.99982534393321
 30
0.0
 11
146.517294892235
 21
59.99982534393321
 31
0.0
  0
LINE
  5
7F
330
2
100
AcDbEntity
  8
KIJUN
 62
     7
100
AcDbLine
 10
138.2508612095494
 20
59.35260407811728
 30
0.0
 11
146.517294892235
 21
59.35260407811728
 31
0.0
  0
ARC
  5
80
330
2
100
AcDbEntity
  8
KIJUN
 62
     7
100
AcDbCircle
 10
221.5415996813799
 20
42.11260632322677
 30
0.0
 40
18.0
100
AcDbArc
 50
0.000000000000007
 51
47.59874520416325
  0
ARC
  5
81
330
2
100
AcDbEntity
  8
KIJUN
 62
     7
100
AcDbCircle
 10
199.3683735773943
 20
35.32339357631367
 30
0.0
 40
41.93835401208659
100
AcDbArc
 50
16.94629122242476
 51
34.95724660165928
  0
LINE
  5
82
330
2
100
AcDbEntity
  8
KIJUN
 62
     7
100
AcDbLine
 10
234.0832859232946
 20
59.99982534393321
 30
0.0
 11
225.9368522406089
 21
59.99982534393321
 31
0.0
  0
LINE
  5
83
330
2
100
AcDbEntity
  8
KIJUN
 62
     7
100
AcDbLine
 10
234.0832859232946
 20
59.35260407811728
 30
0.0
 11
225.9368522406089
 21
59.35260407811728
 31
0.0
  0
ARC
  5
84
330
2
100
AcDbEntity
  8
KIJUN
 62
     7
100
AcDbCircle
 10
324.5714280742572
 20
42.58049406748995
 30
0.0
 40
12.32752738466958
100
AcDbArc
 50
105.3892192047932
 51
185.6381226872158
  0
LWPOLYLINE
  5
85
330
2
100
AcDbEntity
  8
KIJUN
 62
     7
100
AcDbPolyline
 90
        2
 70
     0
 43
0.0
 10
318.7049463268027
 20
33.27068276815697
 10
318.7049463268027
 20
48.73435728666338
  0
LWPOLYLINE
  5
86
330
2
100
AcDbEntity
  8
KIJUN
 62
     7
100
AcDbPolyline
 90
        2
 70
     0
 43
0.0
 10
319.5133307030978
 20
49.11121238110074
 10
319.5133307030978
 20
32.89382767371984
  0
LWPOLYLINE
  5
87
330
2
100
AcDbEntity
  8
KIJUN
 62
     7
100
AcDbPolyline
 90
        2
 70
     0
 43
0.0
 10
322.7468910908647
 20
49.75235004401695
 10
322.7468910908647
 20
32.25269001080363
  0
LWPOLYLINE
  5
88
330
2
100
AcDbEntity
  8
KIJUN
 62
     7
100
AcDbPolyline
 90
        2
 70
     0
 43
0.0
 10
321.9385067145694
 20
32.29517482747445
 10
321.9385067145694
 20
49.70986522734591
  0
ARC
  5
89
330
2
100
AcDbEntity
  8
KIJUN
 62
     7
100
AcDbCircle
 10
262.6741684129543
 20
45.07312538728722
 30
0.0
 40
32.14494779071812
100
AcDbArc
 50
4.498524527376127
 51
26.37354482747958
  0
ARC
  5
8A
330
2
100
AcDbEntity
  8
KIJUN
 62
     7
100
AcDbCircle
 10
254.3683735773943
 20
35.32339357631367
 30
0.0
 40
41.93835401208659
100
AcDbArc
 50
16.94629122242476
 51
34.95724660165928
  0
ARC
  5
8B
330
2
100
AcDbEntity
  8
KIJUN
 62
     7
100
AcDbCircle
 10
335.8836718195811
 20
35.32339357631367
 30
0.0
 40
41.93835401208659
100
AcDbArc
 50
145.0427533983408
 51
163.0537087775752
  0
ARC
  5
8C
330
2
100
AcDbEntity
  8
KIJUN
 62
     7
100
AcDbCircle
 10
327.5778769840212
 20
45.07312538728722
 30
0.0
 40
32.14494779071812
100
AcDbArc
 50
153.6264551725204
 51
175.5014754726239
  0
ARC
  5
8D
330
2
100
AcDbEntity
  8
KIJUN
 62
     7
100
AcDbCircle
 10
276.5415996813799
 20
42.11260632322677
 30
0.0
 40
18.0
100
AcDbArc
 50
0.000000000000007
 51
47.59874520416325
  0
ARC
  5
8E
330
2
100
AcDbEntity
  8
KIJUN
 62
     7
100
AcDbCircle
 10
313.7104457155956
 20
42.11260632322653
 30
0.0
 40
18.0
100
AcDbArc
 50
132.4012547958437
 51
180.0
  0
ARC
  5
8F
330
2
100
AcDbEntity
  8
KIJUN
 62
     7
100
AcDbCircle
 10
295.1260226984878
 20
29.74834259135236
 30
0.0
 40
0.5844230171078381
100
AcDbArc
 50
180.0
 51
0.000000000000007
  0
LINE
  5
90
330
2
100
AcDbEntity
  8
KIJUN
 62
     7
100
AcDbLine
 10
295.7104457155956
 20
42.11260632322653
 30
0.0
 11
295.7104457155956
 21
29.74834259135236
 31
0.0
  0
LINE
  5
91
330
2
100
AcDbEntity
  8
KIJUN
 62
     7
100
AcDbLine
 10
294.5415996813799
 20
42.11260632322677
 30
0.0
 11
294.5415996813799
 21
29.74834259135236
 31
0.0
  0
LINE
  5
92
330
2
100
AcDbEntity
  8
KIJUN
 62
     7
100
AcDbLine
 10
301.1687594736809
 20
59.99982534393321
 30
0.0
 11
309.4351931563664
 21
59.99982534393321
 31
0.0
  0
LINE
  5
93
330
2
100
AcDbEntity
  8
KIJUN
 62
     7
100
AcDbLine
 10
301.1687594736809
 20
59.35260407811728
 30
0.0
 11
309.4351931563664
 21
59.35260407811728
 31
0.0
  0
ARC
  5
94
330
2
100
AcDbEntity
  8
KIJUN
 62
     7
100
AcDbCircle
 10
309.4351931563664
 20
59.67621471102521
 30
0.0
 40
0.323610632907912
100
AcDbArc
 50
270.0
 51
90.0
  0
LINE
  5
95
330
2
100
AcDbEntity
  8
KIJUN
 62
     7
100
AcDbLine
 10
289.0832859232946
 20
59.35260407811728
 30
0.0
 11
280.9368522406089
 21
59.35260407811728
 31
0.0
  0
LINE
  5
96
330
2
100
AcDbEntity
  8
KIJUN
 62
     7
100
AcDbLine
 10
289.0832859232946
 20
59.99982534393321
 30
0.0
 11
280.9368522406089
 21
59.99982534393321
 31
0.0
  0
ARC
  5
97
330
2
100
AcDbEntity
  8
KIJUN
 62
     7
100
AcDbCircle
 10
280.9368522406089
 20
59.67621471102521
 30
0.0
 40
0.3236106329079119
100
AcDbArc
 50
90.0
 51
270.0
  0
ARC
  5
98
330
2
100
AcDbEntity
  8
KIJUN
 62
     7
100
AcDbCircle
 10
289.0832859232946
 20
59.67621471102521
 30
0.0
 40
0.3236106329079119
100
AcDbArc
 50
270.0
 51
90.0
  0
ARC
  5
99
330
2
100
AcDbEntity
  8
KIJUN
 62
     7
100
AcDbCircle
 10
291.0365103384346
 20
59.67621471102521
 30
0.0
 40
0.323610632907912
100
AcDbArc
 50
90.0
 51
270.0
  0
ARC
  5
9A
330
2
100
AcDbEntity
  8
KIJUN
 62
     7
100
AcDbCircle
 10
299.3029440211203
 20
59.67621471102521
 30
0.0
 40
0.323610632907912
100
AcDbArc
 50
270.0
 51
90.0
  0
LINE
  5
9B
330
2
100
AcDbEntity
  8
KIJUN
 62
     7
100
AcDbLine
 10
299.3029440211203
 20
59.99982534393321
 30
0.0
 11
291.0365103384346
 21
59.99982534393321
 31
0.0
  0
LINE
  5
9C
330
2
100
AcDbEntity
  8
KIJUN
 62
     7
100
AcDbLine
 10
299.3029440211203
 20
59.35260407811728
 30
0.0
 11
291.0365103384346
 21
59.35260407811728
 31
0.0
  0
ARC
  5
9D
330
2
100
AcDbEntity
  8
KIJUN
 62
     7
100
AcDbCircle
 10
301.1687594736809
 20
59.67621471102521
 30
0.0
 40
0.323610632907912
100
AcDbArc
 50
90.0
 51
270.0
  0
ARC
  5
9E
330
2
100
AcDbEntity
  8
KIJUN
 62
     7
100
AcDbCircle
 10
317.6891986672753
 20
37.75550749110716
 30
0.0
 40
23.90040551856089
100
AcDbArc
 50
115.3607557295421
 51
132.4012547958437
  0
ARC
  5
9F
330
2
100
AcDbEntity
  8
KIJUN
 62
     7
100
AcDbCircle
 10
272.5628467297006
 20
37.75550749110692
 30
0.0
 40
23.90040551856065
100
AcDbArc
 50
47.59874520416325
 51
64.63924427045923
  0
ARC
  5
A0
330
2
100
AcDbEntity
  8
KIJUN
 62
     7
100
AcDbCircle
 10
285.0977131035606
 20
44.24213877904361
 30
0.0
 40
6.999999999999997
100
AcDbArc
 50
181.9747809899655
 51
188.7509695699334
  0
ARC
  5
A1
330
2
100
AcDbEntity
  8
KIJUN
 62
     7
100
AcDbCircle
 10
268.1576370489274
 20
47.71700484535284
 30
0.0
 40
6.999999999999997
100
AcDbArc
 50
71.4011992102869
 51
105.3892192047936
  0
CIRCLE
  5
A2
330
2
100
AcDbEntity
  8
KIJUN
 62
     7
100
AcDbCircle
 10
267.8014317224097
 20
41.00252002741028
 30
0.0
 40
8.749999999999998
  0
LWPOLYLINE
  5
A3
330
2
100
AcDbEntity
  8
KIJUN
 62
     7
100
AcDbPolyline
 90
        2
 70
     0
 43
0.0
 10
270.7494632658669
 20
32.76409724032391
 10
270.7494632658669
 20
49.24094281449645
  0
LWPOLYLINE
  5
A4
330
2
100
AcDbEntity
  8
KIJUN
 62
     7
100
AcDbPolyline
 90
        2
 70
     0
 43
0.0
 10
271.557847642162
 20
48.90516764943111
 10
271.557847642162
 20
33.09987240538923
  0
LWPOLYLINE
  5
A5
330
2
100
AcDbEntity
  8
KIJUN
 62
     7
100
AcDbPolyline
 90
        2
 70
     0
 43
0.0
 10
266.9385067145695
 20
32.29517482747445
 10
266.9385067145695
 20
49.70986522734591
  0
LWPOLYLINE
  5
A6
330
2
100
AcDbEntity
  8
KIJUN
 62
     7
100
AcDbPolyline
 90
        2
 70
     0
 43
0.0
 10
267.7468910908647
 20
49.75235004401695
 10
267.7468910908647
 20
32.25269001080363
  0
LWPOLYLINE
  5
A7
330
2
100
AcDbEntity
  8
KIJUN
 62
     7
100
AcDbPolyline
 90
        2
 70
     0
 43
0.0
 10
264.5133307030978
 20
49.11121238110074
 10
264.5133307030978
 20
32.89382767371984
  0
LWPOLYLINE
  5
A8
330
2
100
AcDbEntity
  8
KIJUN
 62
     7
100
AcDbPolyline
 90
        2
 70
     0
 43
0.0
 10
263.7049463268027
 20
33.27068276815697
 10
263.7049463268027
 20
48.73435728666338
  0
ARC
  5
A9
330
2
100
AcDbEntity
  8
KIJUN
 62
     7
100
AcDbCircle
 10
259.0149471355926
 20
35.90287700159792
 30
0.0
 40
17.6519110326719
100
AcDbArc
 50
46.62858282401913
 51
76.60824593293559
  0
ARC
  5
AA
330
2
100
AcDbEntity
  8
KIJUN
 62
     7
100
AcDbCircle
 10
275.9570681885416
 20
36.01218648995331
 30
0.0
 40
17.66261928184973
100
AcDbArc
 50
101.0431015064994
 51
133.9217456102804
  0
ARC
  5
AB
330
2
100
AcDbEntity
  8
KIJUN
 62
     7
100
AcDbCircle
 10
266.7757056337932
 20
43.61039440912685
 30
0.0
 40
11.33289553428818
100
AcDbArc
 50
1.974780989965416
 51
71.40119921028689
  0
ARC
  5
AC
330
2
100
AcDbEntity
  8
KIJUN
 62
     7
100
AcDbCircle
 10
267.8014317224097
 20
41.57968682941936
 30
0.0
 40
10.5
100
AcDbArc
 50
181.1476923339958
 51
8.750969569933491
  0
ARC
  5
AD
330
2
100
AcDbEntity
  8
KIJUN
 62
     7
100
AcDbCircle
 10
269.5714280742572
 20
42.58049406748995
 30
0.0
 40
12.32752738466958
100
AcDbArc
 50
105.3892192047932
 51
185.6381226872158
  0
ARC
  5
AE
330
2
100
AcDbEntity
  8
KIJUN
 62
     7
100
AcDbCircle
 10
258.7104457155956
 20
42.11260632322653
 30
0.0
 40
18.0
100
AcDbArc
 50
132.4012547958437
 51
180.0
  0
ARC
  5
AF
330
2
100
AcDbEntity
  8
KIJUN
 62
     7
100
AcDbCircle
 10
272.5778769840212
 20
45.07312538728722
 30
0.0
 40
32.14494779071812
100
AcDbArc
 50
153.6264551725204
 51
175.5014754726239
  0
ARC
  5
B0
330
2
100
AcDbEntity
  8
KIJUN
 62
     7
100
AcDbCircle
 10
280.8836718195812
 20
35.32339357631367
 30
0.0
 40
41.93835401208659
100
AcDbArc
 50
145.0427533983408
 51
163.0537087775752
  0
ARC
  5
B1
330
2
100
AcDbEntity
  8
KIJUN
 62
     7
100
AcDbCircle
 10
207.6741684129543
 20
45.07312538728722
 30
0.0
 40
32.14494779071812
100
AcDbArc
 50
4.498524527376127
 51
26.37354482747958
  0
ARC
  5
B2
330
2
100
AcDbEntity
  8
KIJUN
 62
     7
100
AcDbCircle
 10
240.1260226984878
 20
29.74834259135236
 30
0.0
 40
0.5844230171078381
100
AcDbArc
 50
180.0
 51
0.000000000000007
  0
LINE
  5
B3
330
2
100
AcDbEntity
  8
KIJUN
 62
     7
100
AcDbLine
 10
239.5415996813799
 20
42.11260632322677
 30
0.0
 11
239.5415996813799
 21
29.74834259135236
 31
0.0
  0
LINE
  5
B4
330
2
100
AcDbEntity
  8
KIJUN
 62
     7
100
AcDbLine
 10
240.7104457155956
 20
42.11260632322653
 30
0.0
 11
240.7104457155956
 21
29.74834259135236
 31
0.0
  0
ARC
  5
B5
330
2
100
AcDbEntity
  8
KIJUN
 62
     7
100
AcDbCircle
 10
262.6891986672754
 20
37.75550749110716
 30
0.0
 40
23.90040551856089
100
AcDbArc
 50
115.3607557295421
 51
132.4012547958437
  0
ARC
  5
B6
330
2
100
AcDbEntity
  8
KIJUN
 62
     7
100
AcDbCircle
 10
246.1687594736809
 20
59.67621471102521
 30
0.0
 40
0.323610632907912
100
AcDbArc
 50
90.0
 51
270.0
  0
LINE
  5
B7
330
2
100
AcDbEntity
  8
KIJUN
 62
     7
100
AcDbLine
 10
244.3029440211203
 20
59.35260407811728
 30
0.0
 11
236.0365103384347
 21
59.35260407811728
 31
0.0
  0
LINE
  5
B8
330
2
100
AcDbEntity
  8
KIJUN
 62
     7
100
AcDbLine
 10
244.3029440211203
 20
59.99982534393321
 30
0.0
 11
236.0365103384347
 21
59.99982534393321
 31
0.0
  0
ARC
  5
B9
330
2
100
AcDbEntity
  8
KIJUN
 62
     7
100
AcDbCircle
 10
244.3029440211203
 20
59.67621471102521
 30
0.0
 40
0.323610632907912
100
AcDbArc
 50
270.0
 51
90.0
  0
ARC
  5
BA
330
2
100
AcDbEntity
  8
KIJUN
 62
     7
100
AcDbCircle
 10
236.0365103384347
 20
59.67621471102521
 30
0.0
 40
0.323610632907912
100
AcDbArc
 50
90.0
 51
270.0
  0
ARC
  5
BB
330
2
100
AcDbEntity
  8
KIJUN
 62
     7
100
AcDbCircle
 10
234.0832859232946
 20
59.67621471102521
 30
0.0
 40
0.3236106329079119
100
AcDbArc
 50
270.0
 51
90.0
  0
ARC
  5
BC
330
2
100
AcDbEntity
  8
KIJUN
 62
     7
100
AcDbCircle
 10
254.4351931563665
 20
59.67621471102521
 30
0.0
 40
0.323610632907912
100
AcDbArc
 50
270.0
 51
90.0
  0
LINE
  5
BD
330
2
100
AcDbEntity
  8
KIJUN
 62
     7
100
AcDbLine
 10
246.1687594736809
 20
59.35260407811728
 30
0.0
 11
254.4351931563665
 21
59.35260407811728
 31
0.0
  0
LINE
  5
BE
330
2
100
AcDbEntity
  8
KIJUN
 62
     7
100
AcDbLine
 10
246.1687594736809
 20
59.99982534393321
 30
0.0
 11
254.4351931563665
 21
59.99982534393321
 31
0.0
  0
ARC
  5
BF
330
2
100
AcDbEntity
  8
KIJUN
 62
     7
100
AcDbCircle
 10
212.8014317224097
 20
41.57968682941936
 30
0.0
 40
10.5
100
AcDbArc
 50
181.1476923339958
 51
8.750969569933491
  0
ARC
  5
C0
330
2
100
AcDbEntity
  8
KIJUN
 62
     7
100
AcDbCircle
 10
214.5714280742573
 20
42.58049406748995
 30
0.0
 40
12.32752738466958
100
AcDbArc
 50
105.3892192047932
 51
185.6381226872158
  0
ARC
  5
C1
330
2
100
AcDbEntity
  8
KIJUN
 62
     7
100
AcDbCircle
 10
211.7757056337932
 20
43.61039440912685
 30
0.0
 40
11.33289553428818
100
AcDbArc
 50
1.974780989965416
 51
71.40119921028689
  0
ARC
  5
C2
330
2
100
AcDbEntity
  8
KIJUN
 62
     7
100
AcDbCircle
 10
220.9570681885416
 20
36.01218648995331
 30
0.0
 40
17.66261928184973
100
AcDbArc
 50
101.0431015064994
 51
133.9217456102804
  0
ARC
  5
C3
330
2
100
AcDbEntity
  8
KIJUN
 62
     7
100
AcDbCircle
 10
204.0149471355926
 20
35.90287700159792
 30
0.0
 40
17.6519110326719
100
AcDbArc
 50
46.62858282401913
 51
76.60824593293559
  0
LWPOLYLINE
  5
C4
330
2
100
AcDbEntity
  8
KIJUN
 62
     7
100
AcDbPolyline
 90
        2
 70
     0
 43
0.0
 10
208.7049463268027
 20
33.27068276815697
 10
208.7049463268027
 20
48.73435728666338
  0
LWPOLYLINE
  5
C5
330
2
100
AcDbEntity
  8
KIJUN
 62
     7
100
AcDbPolyline
 90
        2
 70
     0
 43
0.0
 10
209.5133307030978
 20
49.11121238110074
 10
209.5133307030978
 20
32.89382767371984
  0
LWPOLYLINE
  5
C6
330
2
100
AcDbEntity
  8
KIJUN
 62
     7
100
AcDbPolyline
 90
        2
 70
     0
 43
0.0
 10
212.7468910908647
 20
49.75235004401695
 10
212.7468910908647
 20
32.25269001080363
  0
LWPOLYLINE
  5
C7
330
2
100
AcDbEntity
  8
KIJUN
 62
     7
100
AcDbPolyline
 90
        2
 70
     0
 43
0.0
 10
211.9385067145695
 20
32.29517482747445
 10
211.9385067145695
 20
49.70986522734591
  0
LWPOLYLINE
  5
C8
330
2
100
AcDbEntity
  8
KIJUN
 62
     7
100
AcDbPolyline
 90
        2
 70
     0
 43
0.0
 10
216.557847642162
 20
48.90516764943111
 10
216.557847642162
 20
33.09987240538923
  0
LWPOLYLINE
  5
C9
330
2
100
AcDbEntity
  8
KIJUN
 62
     7
100
AcDbPolyline
 90
        2
 70
     0
 43
0.0
 10
215.7494632658668
 20
32.76409724032391
 10
215.7494632658668
 20
49.24094281449645
  0
CIRCLE
  5
CA
330
2
100
AcDbEntity
  8
KIJUN
 62
     7
100
AcDbCircle
 10
212.8014317224097
 20
41.00252002741028
 30
0.0
 40
8.749999999999998
  0
ARC
  5
CB
330
2
100
AcDbEntity
  8
KIJUN
 62
     7
100
AcDbCircle
 10
213.1576370489274
 20
47.71700484535284
 30
0.0
 40
6.999999999999997
100
AcDbArc
 50
71.4011992102869
 51
105.3892192047936
  0
ARC
  5
CC
330
2
100
AcDbEntity
  8
KIJUN
 62
     7
100
AcDbCircle
 10
230.0977131035606
 20
44.24213877904361
 30
0.0
 40
6.999999999999997
100
AcDbArc
 50
181.9747809899655
 51
188.7509695699334
  0
ARC
  5
CD
330
2
100
AcDbEntity
  8
KIJUN
 62
     7
100
AcDbCircle
 10
162.5628467297006
 20
37.75550749110692
 30
0.0
 40
23.90040551856065
100
AcDbArc
 50
47.59874520416325
 51
64.63924427045923
  0
ARC
  5
CE
330
2
100
AcDbEntity
  8
KIJUN
 62
     7
100
AcDbCircle
 10
207.6891986672754
 20
37.75550749110692
 30
0.0
 40
23.90040551856089
100
AcDbArc
 50
115.3607557295421
 51
132.4012547958437
  0
ARC
  5
CF
330
2
100
AcDbEntity
  8
KIJUN
 62
     7
100
AcDbCircle
 10
191.1687594736809
 20
59.67621471102521
 30
0.0
 40
0.323610632907912
100
AcDbArc
 50
90.0
 51
270.0
  0
LINE
  5
D0
330
2
100
AcDbEntity
  8
KIJUN
 62
     7
100
AcDbLine
 10
189.3029440211203
 20
59.35260407811728
 30
0.0
 11
181.0365103384347
 21
59.35260407811728
 31
0.0
  0
LINE
  5
D1
330
2
100
AcDbEntity
  8
KIJUN
 62
     7
100
AcDbLine
 10
189.3029440211203
 20
59.99982534393296
 30
0.0
 11
181.0365103384347
 21
59.99982534393296
 31
0.0
  0
ARC
  5
D2
330
2
100
AcDbEntity
  8
KIJUN
 62
     7
100
AcDbCircle
 10
189.3029440211203
 20
59.67621471102521
 30
0.0
 40
0.323610632907912
100
AcDbArc
 50
270.0
 51
90.0
  0
ARC
  5
D3
330
2
100
AcDbEntity
  8
KIJUN
 62
     7
100
AcDbCircle
 10
181.0365103384347
 20
59.67621471102521
 30
0.0
 40
0.323610632907912
100
AcDbArc
 50
90.0
 51
270.0
  0
ARC
  5
D4
330
2
100
AcDbEntity
  8
KIJUN
 62
     7
100
AcDbCircle
 10
179.0832859232946
 20
59.67621471102521
 30
0.0
 40
0.3236106329079119
100
AcDbArc
 50
270.0
 51
90.0
  0
ARC
  5
D5
330
2
100
AcDbEntity
  8
KIJUN
 62
     7
100
AcDbCircle
 10
170.9368522406089
 20
59.67621471102521
 30
0.0
 40
0.3236106329079119
100
AcDbArc
 50
90.0
 51
270.0
  0
LINE
  5
D6
330
2
100
AcDbEntity
  8
KIJUN
 62
     7
100
AcDbLine
 10
179.0832859232946
 20
59.99982534393296
 30
0.0
 11
170.9368522406089
 21
59.99982534393296
 31
0.0
  0
LINE
  5
D7
330
2
100
AcDbEntity
  8
KIJUN
 62
     7
100
AcDbLine
 10
179.0832859232946
 20
59.35260407811728
 30
0.0
 11
170.9368522406089
 21
59.35260407811728
 31
0.0
  0
ARC
  5
D8
330
2
100
AcDbEntity
  8
KIJUN
 62
     7
100
AcDbCircle
 10
199.4351931563665
 20
59.67621471102521
 30
0.0
 40
0.323610632907912
100
AcDbArc
 50
270.0
 51
90.0
  0
LINE
  5
D9
330
2
100
AcDbEntity
  8
KIJUN
 62
     7
100
AcDbLine
 10
191.1687594736809
 20
59.35260407811728
 30
0.0
 11
199.4351931563665
 21
59.35260407811728
 31
0.0
  0
LINE
  5
DA
330
2
100
AcDbEntity
  8
KIJUN
 62
     7
100
AcDbLine
 10
191.1687594736809
 20
59.99982534393296
 30
0.0
 11
199.4351931563665
 21
59.99982534393296
 31
0.0
  0
ARC
  5
DB
330
2
100
AcDbEntity
  8
KIJUN
 62
     7
100
AcDbCircle
 10
203.7104457155956
 20
42.11260632322631
 30
0.0
 40
18.0
100
AcDbArc
 50
132.4012547958437
 51
180.0
  0
ARC
  5
DC
330
2
100
AcDbEntity
  8
KIJUN
 62
     7
100
AcDbCircle
 10
166.5415996813799
 20
42.11260632322677
 30
0.0
 40
18.0
100
AcDbArc
 50
0.000000000000007
 51
47.59874520416325
  0
ARC
  5
DD
330
2
100
AcDbEntity
  8
KIJUN
 62
     7
100
AcDbCircle
 10
217.5778769840213
 20
45.07312538728722
 30
0.0
 40
32.14494779071812
100
AcDbArc
 50
153.6264551725204
 51
175.5014754726239
  0
ARC
  5
DE
330
2
100
AcDbEntity
  8
KIJUN
 62
     7
100
AcDbCircle
 10
225.8836718195812
 20
35.32339357631343
 30
0.0
 40
41.93835401208659
100
AcDbArc
 50
145.0427533983408
 51
163.0537087775752
  0
ARC
  5
DF
330
2
100
AcDbEntity
  8
KIJUN
 62
     7
100
AcDbCircle
 10
144.3683735773943
 20
35.32339357631343
 30
0.0
 40
41.93835401208659
100
AcDbArc
 50
16.94629122242476
 51
34.95724660165928
  0
ARC
  5
E0
330
2
100
AcDbEntity
  8
KIJUN
 62
     7
100
AcDbCircle
 10
152.6741684129543
 20
45.07312538728722
 30
0.0
 40
32.14494779071812
100
AcDbArc
 50
4.498524527376127
 51
26.37354482747958
  0
ARC
  5
E1
330
2
100
AcDbEntity
  8
KIJUN
 62
     7
100
AcDbCircle
 10
185.1260226984878
 20
29.74834259135236
 30
0.0
 40
0.5844230171078381
100
AcDbArc
 50
180.0
 51
0.000000000000007
  0
LINE
  5
E2
330
2
100
AcDbEntity
  8
KIJUN
 62
     7
100
AcDbLine
 10
184.5415996813798
 20
42.11260632322677
 30
0.0
 11
184.5415996813798
 21
29.74834259135236
 31
0.0
  0
LINE
  5
E3
330
2
100
AcDbEntity
  8
KIJUN
 62
     7
100
AcDbLine
 10
185.7104457155956
 20
42.11260632322631
 30
0.0
 11
185.7104457155956
 21
29.74834259135236
 31
0.0
  0
ARC
  5
E4
330
2
100
AcDbEntity
  8
KIJUN
 62
     7
100
AcDbCircle
 10
146.517294892235
 20
59.67621471102521
 30
0.0
 40
0.323610632907912
100
AcDbArc
 50
270.0
 51
90.0
  0
ARC
  5
E5
330
2
100
AcDbEntity
  8
KIJUN
 62
     7
100
AcDbCircle
 10
161.6535298101258
 20
42.58049406748995
 30
0.0
 40
12.32752738466958
100
AcDbArc
 50
105.3892192047932
 51
185.6381226872158
  0
ARC
  5
E6
330
2
100
AcDbEntity
  8
KIJUN
 62
     7
100
AcDbCircle
 10
159.8835334582782
 20
41.57968682941936
 30
0.0
 40
10.5
100
AcDbArc
 50
181.1476923339958
 51
8.750969569933491
  0
ARC
  5
E7
330
2
100
AcDbEntity
  8
KIJUN
 62
     7
100
AcDbCircle
 10
158.8578073696617
 20
43.61039440912685
 30
0.0
 40
11.33289553428818
100
AcDbArc
 50
1.974780989965416
 51
71.40119921028689
  0
ARC
  5
E8
330
2
100
AcDbEntity
  8
KIJUN
 62
     7
100
AcDbCircle
 10
168.0391699244101
 20
36.01218648995331
 30
0.0
 40
17.66261928184973
100
AcDbArc
 50
101.0431015064994
 51
133.9217456102804
  0
ARC
  5
E9
330
2
100
AcDbEntity
  8
KIJUN
 62
     7
100
AcDbCircle
 10
151.0970488714611
 20
35.90287700159792
 30
0.0
 40
17.6519110326719
100
AcDbArc
 50
46.62858282401913
 51
76.60824593293559
  0
LWPOLYLINE
  5
EA
330
2
100
AcDbEntity
  8
KIJUN
 62
     7
100
AcDbPolyline
 90
        2
 70
     0
 43
0.0
 10
155.7870480626712
 20
33.27068276815697
 10
155.7870480626712
 20
48.73435728666338
  0
LWPOLYLINE
  5
EB
330
2
100
AcDbEntity
  8
KIJUN
 62
     7
100
AcDbPolyline
 90
        2
 70
     0
 43
0.0
 10
156.5954324389663
 20
49.11121238110074
 10
156.5954324389663
 20
32.89382767371984
  0
LWPOLYLINE
  5
EC
330
2
100
AcDbEntity
  8
KIJUN
 62
     7
100
AcDbPolyline
 90
        2
 70
     0
 43
0.0
 10
159.8289928267332
 20
49.75235004401695
 10
159.8289928267332
 20
32.25269001080363
  0
LWPOLYLINE
  5
ED
330
2
100
AcDbEntity
  8
KIJUN
 62
     7
100
AcDbPolyline
 90
        2
 70
     0
 43
0.0
 10
159.020608450438
 20
32.29517482747445
 10
159.020608450438
 20
49.70986522734591
  0
LWPOLYLINE
  5
EE
330
2
100
AcDbEntity
  8
KIJUN
 62
     7
100
AcDbPolyline
 90
        2
 70
     0
 43
0.0
 10
163.6399493780304
 20
48.90516764943111
 10
163.6399493780304
 20
33.09987240538923
  0
LWPOLYLINE
  5
EF
330
2
100
AcDbEntity
  8
KIJUN
 62
     7
100
AcDbPolyline
 90
        2
 70
     0
 43
0.0
 10
162.8315650017353
 20
32.76409724032391
 10
162.8315650017353
 20
49.24094281449645
  0
CIRCLE
  5
F0
330
2
100
AcDbEntity
  8
KIJUN
 62
     7
100
AcDbCircle
 10
159.8835334582782
 20
41.00252002741028
 30
0.0
 40
8.749999999999998
  0
ARC
  5
F1
330
2
100
AcDbEntity
  8
KIJUN
 62
     7
100
AcDbCircle
 10
160.2397387847959
 20
47.71700484535284
 30
0.0
 40
6.999999999999997
100
AcDbArc
 50
71.4011992102869
 51
105.3892192047936
  0
ARC
  5
F2
330
2
100
AcDbEntity
  8
KIJUN
 62
     7
100
AcDbCircle
 10
177.1798148394291
 20
44.24213877904361
 30
0.0
 40
6.999999999999997
100
AcDbArc
 50
181.9747809899655
 51
188.7509695699334
  0
ARC
  5
F3
330
2
100
AcDbEntity
  8
KIJUN
 62
     7
100
AcDbCircle
 10
217.5628467297006
 20
37.75550749110692
 30
0.0
 40
23.90040551856065
100
AcDbArc
 50
47.59874520416325
 51
64.63924427045923
  0
ARC
  5
F4
330
2
100
AcDbEntity
  8
KIJUN
 62
     7
100
AcDbCircle
 10
225.9368522406089
 20
59.67621471102521
 30
0.0
 40
0.3236106329079119
100
AcDbArc
 50
90.0
 51
270.0
  0
ARC
  5
F5
330
2
100
AcDbEntity
  8
KIJUN
 62
     7
100
AcDbCircle
 10
95.79254745146412
 20
42.11260632322653
 30
0.0
 40
18.0
100
AcDbArc
 50
132.4012547958437
 51
180.0
  0
ARC
  5
F6
330
2
100
AcDbEntity
  8
KIJUN
 62
     7
100
AcDbCircle
 10
109.6599787198897
 20
45.07312538728745
 30
0.0
 40
32.14494779071812
100
AcDbArc
 50
153.6264551725204
 51
175.5014754726239
  0
ARC
  5
F7
330
2
100
AcDbEntity
  8
KIJUN
 62
     7
100
AcDbCircle
 10
117.9657735554497
 20
35.32339357631367
 30
0.0
 40
41.93835401208659
100
AcDbArc
 50
145.0427533983408
 51
163.0537087775752
  0
ARC
  5
F8
330
2
100
AcDbEntity
  8
KIJUN
 62
     7
100
AcDbCircle
 10
77.2081244343563
 20
29.74834259135236
 30
0.0
 40
0.5844230171078381
100
AcDbArc
 50
269.9999999999556
 51
0.000000000000007
  0
LINE
  5
F9
330
2
100
AcDbEntity
  8
KIJUN
 62
     7
100
AcDbLine
 10
77.79254745146414
 20
42.11260632322653
 30
0.0
 11
77.79254745146414
 21
29.74834259135236
 31
0.0
  0
ARC
  5
FA
330
2
100
AcDbEntity
  8
KIJUN
 62
     7
100
AcDbCircle
 10
83.25086120954944
 20
59.67621471102521
 30
0.0
 40
0.323610632907912
100
AcDbArc
 50
90.0
 51
270.0
  0
LINE
  5
FB
330
2
100
AcDbEntity
  8
KIJUN
 62
     7
100
AcDbLine
 10
81.38504575698886
 20
59.35260407811728
 30
0.0
 11
77.2081244343558
 21
59.35260407811704
 31
0.0
  0
LINE
  5
FC
330
2
100
AcDbEntity
  8
KIJUN
 62
     7
100
AcDbLine
 10
81.38504575698886
 20
59.99982534393321
 30
0.0
 11
77.2081244343558
 21
59.99982534393321
 31
0.0
  0
ARC
  5
FD
330
2
100
AcDbEntity
  8
KIJUN
 62
     7
100
AcDbCircle
 10
81.38504575698886
 20
59.67621471102521
 30
0.0
 40
0.323610632907912
100
AcDbArc
 50
270.0
 51
90.0
  0
ARC
  5
FE
330
2
100
AcDbEntity
  8
KIJUN
 62
     7
100
AcDbCircle
 10
91.51729489223496
 20
59.67621471102521
 30
0.0
 40
0.323610632907912
100
AcDbArc
 50
270.0
 51
90.0
  0
LINE
  5
FF
330
2
100
AcDbEntity
  8
KIJUN
 62
     7
100
AcDbLine
 10
83.25086120954944
 20
59.35260407811728
 30
0.0
 11
91.51729489223496
 21
59.35260407811728
 31
0.0
  0
LINE
  5
100
330
2
100
AcDbEntity
  8
KIJUN
 62
     7
100
AcDbLine
 10
83.25086120954944
 20
59.99982534393321
 30
0.0
 11
91.51729489223496
 21
59.99982534393321
 31
0.0
  0
ARC
  5
101
330
2
100
AcDbEntity
  8
KIJUN
 62
     7
100
AcDbCircle
 10
99.77130040314396
 20
37.75550749110716
 30
0.0
 40
23.90040551856089
100
AcDbArc
 50
115.3607557295421
 51
132.4012547958437
  0
ARC
  5
102
330
2
100
AcDbEntity
  8
KIJUN
 62
     7
100
AcDbCircle
 10
122.1798148394291
 20
44.24213877904361
 30
0.0
 40
6.999999999999997
100
AcDbArc
 50
181.9747809899655
 51
188.7509695699334
  0
ARC
  5
103
330
2
100
AcDbEntity
  8
KIJUN
 62
     7
100
AcDbCircle
 10
105.2397387847959
 20
47.71700484535284
 30
0.0
 40
6.999999999999997
100
AcDbArc
 50
71.4011992102869
 51
105.3892192047936
  0
CIRCLE
  5
104
330
2
100
AcDbEntity
  8
KIJUN
 62
     7
100
AcDbCircle
 10
104.8835334582782
 20
41.00252002741028
 30
0.0
 40
8.749999999999998
  0
LWPOLYLINE
  5
105
330
2
100
AcDbEntity
  8
KIJUN
 62
     7
100
AcDbPolyline
 90
        2
 70
     0
 43
0.0
 10
107.8315650017353
 20
32.76409724032391
 10
107.8315650017353
 20
49.24094281449669
  0
LWPOLYLINE
  5
106
330
2
100
AcDbEntity
  8
KIJUN
 62
     7
100
AcDbPolyline
 90
        2
 70
     0
 43
0.0
 10
108.6399493780305
 20
48.90516764943111
 10
108.6399493780305
 20
33.09987240538946
  0
LWPOLYLINE
  5
107
330
2
100
AcDbEntity
  8
KIJUN
 62
     7
100
AcDbPolyline
 90
        2
 70
     0
 43
0.0
 10
104.020608450438
 20
32.29517482747445
 10
104.020608450438
 20
49.70986522734614
  0
LWPOLYLINE
  5
108
330
2
100
AcDbEntity
  8
KIJUN
 62
     7
100
AcDbPolyline
 90
        2
 70
     0
 43
0.0
 10
104.8289928267331
 20
49.75235004401695
 10
104.8289928267331
 20
32.25269001080363
  0
LWPOLYLINE
  5
109
330
2
100
AcDbEntity
  8
KIJUN
 62
     7
100
AcDbPolyline
 90
        2
 70
     0
 43
0.0
 10
101.5954324389663
 20
49.11121238110074
 10
101.5954324389663
 20
32.89382767371984
  0
LWPOLYLINE
  5
10A
330
2
100
AcDbEntity
  8
KIJUN
 62
     7
100
AcDbPolyline
 90
        2
 70
     0
 43
0.0
 10
100.7870480626712
 20
33.2706827681572
 10
100.7870480626712
 20
48.73435728666338
  0
ARC
  5
10B
330
2
100
AcDbEntity
  8
KIJUN
 62
     7
100
AcDbCircle
 10
96.09704887146113
 20
35.90287700159792
 30
0.0
 40
17.6519110326719
100
AcDbArc
 50
46.62858282401913
 51
76.60824593293559
  0
ARC
  5
10C
330
2
100
AcDbEntity
  8
KIJUN
 62
     7
100
AcDbCircle
 10
113.0391699244101
 20
36.01218648995331
 30
0.0
 40
17.66261928184973
100
AcDbArc
 50
101.0431015064994
 51
133.9217456102804
  0
ARC
  5
10D
330
2
100
AcDbEntity
  8
KIJUN
 62
     7
100
AcDbCircle
 10
103.8578073696617
 20
43.61039440912685
 30
0.0
 40
11.33289553428818
100
AcDbArc
 50
1.974780989965416
 51
71.40119921028689
  0
ARC
  5
10E
330
2
100
AcDbEntity
  8
KIJUN
 62
     7
100
AcDbCircle
 10
104.8835334582782
 20
41.57968682941936
 30
0.0
 40
10.5
100
AcDbArc
 50
181.1476923339958
 51
8.750969569933491
  0
ARC
  5
10F
330
2
100
AcDbEntity
  8
KIJUN
 62
     7
100
AcDbCircle
 10
106.6535298101258
 20
42.58049406749018
 30
0.0
 40
12.32752738466958
100
AcDbArc
 50
105.3892192047932
 51
185.6381226872158
  0
LINE
  5
110
330
2
100
AcDbEntity
  8
KIJUN
 62
     7
100
AcDbLine
 10
126.1653876591631
 20
59.35260407811728
 30
0.0
 11
118.0189539764774
 21
59.35260407811728
 31
0.0
  0
LINE
  5
111
330
2
100
AcDbEntity
  8
KIJUN
 62
     7
100
AcDbLine
 10
126.1653876591631
 20
59.99982534393321
 30
0.0
 11
118.0189539764774
 21
59.99982534393321
 31
0.0
  0
ARC
  5
112
330
2
100
AcDbEntity
  8
KIJUN
 62
     7
100
AcDbCircle
 10
118.0189539764774
 20
59.67621471102521
 30
0.0
 40
0.3236106329079119
100
AcDbArc
 50
90.0
 51
270.0
  0
ARC
  5
113
330
2
100
AcDbEntity
  8
KIJUN
 62
     7
100
AcDbCircle
 10
126.1653876591631
 20
59.67621471102521
 30
0.0
 40
0.3236106329079119
100
AcDbArc
 50
270.0
 51
90.0
  0
ARC
  5
114
330
2
100
AcDbEntity
  8
KIJUN
 62
     7
100
AcDbCircle
 10
128.1186120743032
 20
59.67621471102521
 30
0.0
 40
0.323610632907912
100
AcDbArc
 50
90.0
 51
270.0
  0
ARC
  5
115
330
2
100
AcDbEntity
  8
KIJUN
 62
     7
100
AcDbCircle
 10
136.3850457569888
 20
59.67621471102521
 30
0.0
 40
0.323610632907912
100
AcDbArc
 50
270.0
 51
90.0
  0
LINE
  5
116
330
2
100
AcDbEntity
  8
KIJUN
 62
     7
100
AcDbLine
 10
136.3850457569888
 20
59.99982534393321
 30
0.0
 11
128.1186120743032
 21
59.99982534393321
 31
0.0
  0
LINE
  5
117
330
2
100
AcDbEntity
  8
KIJUN
 62
     7
100
AcDbLine
 10
136.3850457569888
 20
59.35260407811728
 30
0.0
 11
128.1186120743032
 21
59.35260407811728
 31
0.0
  0
ARC
  5
118
330
2
100
AcDbEntity
  8
KIJUN
 62
     7
100
AcDbCircle
 10
138.2508612095494
 20
59.67621471102521
 30
0.0
 40
0.323610632907912
100
AcDbArc
 50
90.0
 51
270.0
  0
ARC
  5
119
330
2
100
AcDbEntity
  8
KIJUN
 62
     7
100
AcDbCircle
 10
109.6449484655691
 20
37.75550749110692
 30
0.0
 40
23.90040551856065
100
AcDbArc
 50
47.59874520416325
 51
64.63924427045923
  0
LINE
  5
11A
330
2
100
AcDbEntity
  8
KIJUN
 62
     7
100
AcDbLine
 10
132.7925474514641
 20
42.11260632322653
 30
0.0
 11
132.7925474514641
 21
29.74834259135236
 31
0.0
  0
LINE
  5
11B
330
2
100
AcDbEntity
  8
KIJUN
 62
     7
100
AcDbLine
 10
131.6237014172484
 20
42.11260632322677
 30
0.0
 11
131.6237014172484
 21
29.74834259135236
 31
0.0
  0
ARC
  5
11C
330
2
100
AcDbEntity
  8
KIJUN
 62
     7
100
AcDbCircle
 10
132.2081244343562
 20
29.74834259135236
 30
0.0
 40
0.5844230171078381
100
AcDbArc
 50
180.0
 51
0.000000000000007
  0
ARC
  5
11D
330
2
100
AcDbEntity
  8
KIJUN
 62
     7
100
AcDbCircle
 10
99.75627014882281
 20
45.07312538728722
 30
0.0
 40
32.14494779071812
100
AcDbArc
 50
4.498524527376127
 51
26.37354482747958
  0
ARC
  5
11E
330
2
100
AcDbEntity
  8
KIJUN
 62
     7
100
AcDbCircle
 10
91.4504753132628
 20
35.32339357631367
 30
0.0
 40
41.93835401208659
100
AcDbArc
 50
16.94629122242476
 51
34.95724660165928
  0
ARC
  5
11F
330
2
100
AcDbEntity
  8
KIJUN
 62
     7
100
AcDbCircle
 10
172.9657735554497
 20
35.32339357631367
 30
0.0
 40
41.93835401208659
100
AcDbArc
 50
145.0427533983408
 51
163.0537087775752
  0
ARC
  5
120
330
2
100
AcDbEntity
  8
KIJUN
 62
     7
100
AcDbCircle
 10
164.6599787198898
 20
45.07312538728722
 30
0.0
 40
32.14494779071812
100
AcDbArc
 50
153.6264551725204
 51
175.5014754726239
  0
ARC
  5
121
330
2
100
AcDbEntity
  8
KIJUN
 62
     7
100
AcDbCircle
 10
113.6237014172484
 20
42.11260632322677
 30
0.0
 40
18.0
100
AcDbArc
 50
0.000000000000007
 51
47.59874520416325
  0
ARC
  5
122
330
2
100
AcDbEntity
  8
KIJUN
 62
     7
100
AcDbCircle
 10
150.7925474514641
 20
42.11260632322653
 30
0.0
 40
18.0
100
AcDbArc
 50
132.4012547958437
 51
180.0
  0
DIMENSION
  5
123
330
2
100
AcDbEntity
  8
SUNPOU
100
AcDbDimension
  2
*D3
 10
36.73773789026382
 20
68.05933061242939
 30
0.0
 11
28.23773789026382
 21
73.05933061242939
 31
0.0
 71
     5
 42
17.0
  3
STANDARD$0
100
AcDbAlignedDimension
 13
19.73773789026381
 23
60.44760117103573
 33
0.0
 14
36.73773789026382
 24
60.44760117103573
 34
0.0
 50
0.000000000000007
100
AcDbRotatedDimension
1001
ACAD
1000
DSTYLE
1002
{
1070
    41
1040
2.0
1070
    44
1040
0.0
1070
    77
1070
     1
1070
    78
1070
     0
1070
   140
1040
3.0
1070
   141
1040
1.0
1070
   146
1040
0.0642857142857143
1070
   172
1070
     0
1070
   173
1070
     0
1070
   176
1070
    60
1070
   177
1070
    70
1070
   178
1070
    60
1070
   271
1070
     0
1070
   272
1070
     0
1070
   341
1005
0
1070
   342
1005
37
1070
   343
1005
0
1070
   344
1005
0
1002
}
  0
DIMENSION
  5
139
330
2
100
AcDbEntity
  8
SUNPOU
100
AcDbDimension
  2
*D2
 10
10.65668716554483
 20
22.44760117103573
 30
0.0
 11
5.65668716554483
 21
41.44760117103573
 31
0.0
 71
     5
 42
38.0
  3
STANDARD$0
100
AcDbAlignedDimension
 13
19.73773789026381
 23
60.44760117103573
 33
0.0
 14
19.73773789026381
 24
22.44760117103573
 34
0.0
 50
90.0
100
AcDbRotatedDimension
1001
ACAD
1000
DSTYLE
1002
{
1070
    41
1040
2.0
1070
    44
1040
0.0
1070
    77
1070
     1
1070
    78
1070
     0
1070
   140
1040
3.0
1070
   141
1040
1.0
1070
   146
1040
0.0642857142857143
1070
   172
1070
     0
1070
   173
1070
     0
1070
   176
1070
    60
1070
   177
1070
    70
1070
   178
1070
    60
1070
   271
1070
     0
1070
   272
1070
     0
1070
   341
1005
0
1070
   342
1005
37
1070
   343
1005
0
1070
   344
1005
0
1002
}
  0
TEXT
  5
146
330
2
100
AcDbEntity
  8
HOJO
100
AcDbText
 10
0.1899203423392919
 20
1.183313000000011
 30
0.0
 40
4.5
  1
PM835
  7
SUNPOU
100
AcDbText
  0
LINE
  5
148
330
2
100
AcDbEntity
  8
WAKU
100
AcDbLine
 10
0.0
 20
0.0
 30
0.0
 11
44.67747103027142
 21
0.0
 31
0.0
  0
LINE
  5
14A
330
2
100
AcDbEntity
  8
WAKU
100
AcDbLine
 10
0.0
 20
7.0
 30
0.0
 11
44.67747103027142
 21
7.0
 31
0.0
  0
TEXT
  5
14B
330
2
100
AcDbEntity
  8
HOJO
100
AcDbText
 10
30.54463117557828
 20
2.522193000000015
 30
0.0
 40
3.0
  1
38\U+00D717
  7
SUNPOU
100
AcDbText
  0
LWPOLYLINE
  5
14C
330
2
100
AcDbEntity
  8
KIJUN
100
AcDbPolyline
 90
       16
 70
     1
 43
0.0
 10
34.73773789026382
 20
59.44760117103573
 42
0.4142135623730951
 10
33.73773789026382
 20
60.44760117103573
 10
30.7377378902637
 20
60.44760117103573
 42
0.4142135623730951
 10
29.73773789026381
 20
59.44760117103573
 10
29.73773789026381
 20
53.44760117103573
 10
20.7377378902637
 20
53.44760117103573
 42
0.4142135623730951
 10
19.73773789026381
 20
52.44760117103573
 10
19.73773789026381
 20
23.44760117103573
 42
0.4142135623730951
 10
20.7377378902637
 20
22.44760117103573
 10
35.88854163822582
 20
22.44760117103573
 42
0.4759184235302601
 10
36.40115176354786
 20
24.78145501554171
 42
0.4651950348320151
 10
35.76775488044146
 20
27.35944761366684
 10
35.76775488044217
 20
31.44760117103573
 42
0.107652112473034
 10
36.73773789026382
 20
34.02933679747588
 10
36.73773789026382
 20
51.75071576626071
 42
0.229943720651701
 10
34.7377378902636
 20
54.41416766398472
  0
ENDSEC
  0
SECTION
  2
OBJECTS
  0
DICTIONARY
  5
9
330
0
100
AcDbDictionary
281
     1
  3
ACAD_COLOR
350
48
  3
ACAD_GROUP
350
3D
  3
ACAD_LAYOUT
350
1F
  3
ACAD_MATERIAL
350
C
  3
ACAD_MLEADERSTYLE
350
4B
  3
ACAD_MLINESTYLE
350
3E
  3
ACAD_PLOTSETTINGS
350
3F
  3
ACAD_PLOTSTYLENAME
350
8
  3
ACAD_SCALELIST
350
49
  3
ACAD_TABLESTYLE
350
4A
  3
ACAD_VISUALSTYLE
350
32
  3
ACDB_RECOMPOSE_DATA
350
15E
  3
AcDbVariableDictionary
350
151
  0
DICTIONARY
  5
3
330
2
100
AcDbDictionary
280
     1
281
     1
  3
ACAD_LAYOUTSELFREF
360
4
  0
DICTIONARY
  5
21
330
20
100
AcDbDictionary
280
     1
281
     1
  3
ACAD_LAYOUTSELFREF
360
22
  0
DICTIONARY
  5
48
102
{ACAD_REACTORS
330
9
102
}
330
9
100
AcDbDictionary
281
     1
  0
DICTIONARY
  5
3D
102
{ACAD_REACTORS
330
9
102
}
330
9
100
AcDbDictionary
281
     1
  0
DICTIONARY
  5
1F
102
{ACAD_REACTORS
330
9
102
}
330
9
100
AcDbDictionary
281
     1
  3
Model
350
1E
  3
ﾚｲｱｳﾄ1
350
25
  0
DICTIONARY
  5
C
102
{ACAD_REACTORS
330
9
102
}
330
9
100
AcDbDictionary
281
     1
  3
ByBlock
350
40
  3
ByLayer
350
15
  3
Global
350
B
  0
DICTIONARY
  5
4B
102
{ACAD_REACTORS
330
9
102
}
330
9
100
AcDbDictionary
281
     1
  0
DICTIONARY
  5
3E
102
{ACAD_REACTORS
330
9
102
}
330
9
100
AcDbDictionary
281
     1
  3
STANDARD
350
4D
  0
DICTIONARY
  5
3F
102
{ACAD_REACTORS
330
9
102
}
330
9
100
AcDbDictionary
281
     1
  0
ACDBDICTIONARYWDFLT
  5
8
102
{ACAD_REACTORS
330
9
102
}
330
9
100
AcDbDictionary
281
     1
  3
Normal
350
7
100
AcDbDictionaryWithDefault
340
7
  0
DICTIONARY
  5
49
102
{ACAD_REACTORS
330
9
102
}
330
9
100
AcDbDictionary
281
     1
  3
A0
350
51
  3
A1
350
52
  3
A2
350
53
  3
A3
350
54
  3
A4
350
55
  3
A5
350
56
  3
A6
350
57
  3
A7
350
58
  3
A8
350
59
  3
A9
350
5A
  3
B0
350
5B
  3
B1
350
5C
  3
B2
350
5D
  3
B3
350
5E
  3
B4
350
5F
  3
B5
350
60
  3
B6
350
61
  0
DICTIONARY
  5
4A
102
{ACAD_REACTORS
330
9
102
}
330
9
100
AcDbDictionary
281
     1
  3
Standard
350
4E
  0
DICTIONARY
  5
32
102
{ACAD_REACTORS
330
9
102
}
330
9
100
AcDbDictionary
281
     1
  3
2dWireframe
350
31
  3
Realistic
350
4F
  3
Wireframe
350
50
  0
XRECORD
  5
15E
102
{ACAD_REACTORS
330
9
102
}
330
9
100
AcDbXrecord
280
     1
 90
        1
330
4E
  0
DICTIONARY
  5
151
102
{ACAD_REACTORS
330
9
102
}
330
9
100
AcDbDictionary
281
     1
  3
CANNOSCALE
350
156
  3
CMLEADERSTYLE
350
153
  3
CTABLESTYLE
350
152
  3
CVIEWDETAILSTYLE
350
154
  3
CVIEWSECTIONSTYLE
350
155
  3
DIMASSOC
350
15A
  3
HIDETEXT
350
159
  3
INDEXCTL
350
158
  3
SORTENTS
350
157
  3
XCLIPFRAME
350
15B
  0
XRECORD
  5
4
102
{ACAD_REACTORS
330
3
102
}
330
3
100
AcDbXrecord
280
     1
340
2
  0
XRECORD
  5
22
102
{ACAD_REACTORS
330
21
102
}
330
21
100
AcDbXrecord
280
     1
340
20
  0
LAYOUT
  5
1E
102
{ACAD_XDICTIONARY
360
161
102
}
102
{ACAD_REACTORS
330
1F
102
}
330
1F
100
AcDbPlotSettings
  1

  2
なし
  4

  6

 40
0.0
 41
0.0
 42
0.0
 43
0.0
 44
0.0
 45
0.0
 46
0.0
 47
0.0
 48
0.0
 49
0.0
140
0.0
141
0.0
142
1.0
143
1.0
 70
  1712
 72
     0
 73
     0
 74
     0
  7
monochrome.ctb
 75
     0
147
1.0
148
0.0
149
0.0
100
AcDbLayout
  1
Model
 70
     1
 71
     0
 10
0.0
 20
0.0
 11
12.0
 21
9.0
 12
0.0
 22
0.0
 32
0.0
 14
0.0
 24
0.0
 34
0.0
 15
0.0
 25
0.0
 35
0.0
146
0.0
 13
0.0
 23
0.0
 33
0.0
 16
1.0
 26
0.0
 36
0.0
 17
0.0
 27
1.0
 37
0.0
 76
     0
330
2
  0
LAYOUT
  5
25
102
{ACAD_XDICTIONARY
360
163
102
}
102
{ACAD_REACTORS
330
1F
102
}
330
1F
100
AcDbPlotSettings
  1

  2
なし
  4

  6

 40
0.0
 41
0.0
 42
0.0
 43
0.0
 44
0.0
 45
0.0
 46
0.0
 47
0.0
 48
0.0
 49
0.0
140
0.0
141
0.0
142
1.0
143
1.0
 70
   688
 72
     0
 73
     0
 74
     5
  7
monochrome.ctb
 75
    16
147
1.0
148
0.0
149
0.0
100
AcDbLayout
  1
ﾚｲｱｳﾄ1
 70
     1
 71
     1
 10
0.0
 20
0.0
 11
12.0
 21
9.0
 12
0.0
 22
0.0
 32
0.0
 14
1.000000000000000E+20
 24
1.000000000000000E+20
 34
1.000000000000000E+20
 15
-1.000000000000000E+20
 25
-1.000000000000000E+20
 35
-1.000000000000000E+20
146
0.0
 13
0.0
 23
0.0
 33
0.0
 16
1.0
 26
0.0
 36
0.0
 17
0.0
 27
1.0
 37
0.0
 76
     0
330
20
  0
MATERIAL
  5
40
102
{ACAD_XDICTIONARY
360
41
102
}
102
{ACAD_REACTORS
330
C
102
}
330
C
100
AcDbMaterial
  1
ByBlock
 72
     0
 43
0.0208333333333333
 43
0.0
 43
0.0
 43
0.0
 43
0.0
 43
0.0208333333333333
 43
0.0
 43
0.0
 43
0.0
 43
0.0
 43
1.0
 43
0.0
 43
0.0
 43
0.0
 43
0.0
 43
1.0
 77
     0
 47
0.0208333333333333
 47
0.0
 47
0.0
 47
0.0
 47
0.0
 47
0.0208333333333333
 47
0.0
 47
0.0
 47
0.0
 47
0.0
 47
1.0
 47
0.0
 47
0.0
 47
0.0
 47
0.0
 47
1.0
171
     0
 49
0.0208333333333333
 49
0.0
 49
0.0
 49
0.0
 49
0.0
 49
0.0208333333333333
 49
0.0
 49
0.0
 49
0.0
 49
0.0
 49
1.0
 49
0.0
 49
0.0
 49
0.0
 49
0.0
 49
1.0
175
     0
142
0.0208333333333333
142
0.0
142
0.0
142
0.0
142
0.0
142
0.0208333333333333
142
0.0
142
0.0
142
0.0
142
0.0
142
1.0
142
0.0
142
0.0
142
0.0
142
0.0
142
1.0
179
     0
144
0.0208333333333333
144
0.0
144
0.0
144
0.0
144
0.0
144
0.0208333333333333
144
0.0
144
0.0
144
0.0
144
0.0
144
1.0
144
0.0
144
0.0
144
0.0
144
0.0
144
1.0
147
0.0208333333333333
147
0.0
147
0.0
147
0.0
147
0.0
147
0.0208333333333333
147
0.0
147
0.0
147
0.0
147
0.0
147
1.0
147
0.0
147
0.0
147
0.0
147
0.0
147
1.0
  0
MATERIAL
  5
15
102
{ACAD_XDICTIONARY
360
16
102
}
102
{ACAD_REACTORS
330
C
102
}
330
C
100
AcDbMaterial
  1
ByLayer
 72
     0
 43
0.0208333333333333
 43
0.0
 43
0.0
 43
0.0
 43
0.0
 43
0.0208333333333333
 43
0.0
 43
0.0
 43
0.0
 43
0.0
 43
1.0
 43
0.0
 43
0.0
 43
0.0
 43
0.0
 43
1.0
 77
     0
 47
0.0208333333333333
 47
0.0
 47
0.0
 47
0.0
 47
0.0
 47
0.0208333333333333
 47
0.0
 47
0.0
 47
0.0
 47
0.0
 47
1.0
 47
0.0
 47
0.0
 47
0.0
 47
0.0
 47
1.0
171
     0
 49
0.0208333333333333
 49
0.0
 49
0.0
 49
0.0
 49
0.0
 49
0.0208333333333333
 49
0.0
 49
0.0
 49
0.0
 49
0.0
 49
1.0
 49
0.0
 49
0.0
 49
0.0
 49
0.0
 49
1.0
175
     0
142
0.0208333333333333
142
0.0
142
0.0
142
0.0
142
0.0
142
0.0208333333333333
142
0.0
142
0.0
142
0.0
142
0.0
142
1.0
142
0.0
142
0.0
142
0.0
142
0.0
142
1.0
179
     0
144
0.0208333333333333
144
0.0
144
0.0
144
0.0
144
0.0
144
0.0208333333333333
144
0.0
144
0.0
144
0.0
144
0.0
144
1.0
144
0.0
144
0.0
144
0.0
144
0.0
144
1.0
147
0.0208333333333333
147
0.0
147
0.0
147
0.0
147
0.0
147
0.0208333333333333
147
0.0
147
0.0
147
0.0
147
0.0
147
1.0
147
0.0
147
0.0
147
0.0
147
0.0
147
1.0
  0
MATERIAL
  5
B
102
{ACAD_XDICTIONARY
360
D
102
}
102
{ACAD_REACTORS
330
C
102
}
330
C
100
AcDbMaterial
  1
Global
 72
     0
 43
0.0208333333333333
 43
0.0
 43
0.0
 43
0.0
 43
0.0
 43
0.0208333333333333
 43
0.0
 43
0.0
 43
0.0
 43
0.0
 43
1.0
 43
0.0
 43
0.0
 43
0.0
 43
0.0
 43
1.0
 77
     0
 47
0.0208333333333333
 47
0.0
 47
0.0
 47
0.0
 47
0.0
 47
0.0208333333333333
 47
0.0
 47
0.0
 47
0.0
 47
0.0
 47
1.0
 47
0.0
 47
0.0
 47
0.0
 47
0.0
 47
1.0
171
     0
 49
0.0208333333333333
 49
0.0
 49
0.0
 49
0.0
 49
0.0
 49
0.0208333333333333
 49
0.0
 49
0.0
 49
0.0
 49
0.0
 49
1.0
 49
0.0
 49
0.0
 49
0.0
 49
0.0
 49
1.0
175
     0
142
0.0208333333333333
142
0.0
142
0.0
142
0.0
142
0.0
142
0.0208333333333333
142
0.0
142
0.0
142
0.0
142
0.0
142
1.0
142
0.0
142
0.0
142
0.0
142
0.0
142
1.0
179
     0
144
0.0208333333333333
144
0.0
144
0.0
144
0.0
144
0.0
144
0.0208333333333333
144
0.0
144
0.0
144
0.0
144
0.0
144
1.0
144
0.0
144
0.0
144
0.0
144
0.0
144
1.0
147
0.0208333333333333
147
0.0
147
0.0
147
0.0
147
0.0
147
0.0208333333333333
147
0.0
147
0.0
147
0.0
147
0.0
147
1.0
147
0.0
147
0.0
147
0.0
147
0.0
147
1.0
  0
MLINESTYLE
  5
4D
102
{ACAD_REACTORS
330
3E
102
}
330
3E
100
AcDbMlineStyle
  2
STANDARD
 70
     0
  3

 62
   256
 51
90.0
 52
90.0
 71
     2
 49
0.5
 62
   256
  6
BYLAYER
 49
-0.5
 62
   256
  6
BYLAYER
  0
ACDBPLACEHOLDER
  5
7
102
{ACAD_REACTORS
330
8
102
}
330
8
  0
SCALE
  5
51
102
{ACAD_REACTORS
330
49
102
}
330
49
100
AcDbScale
 70
     0
300
1:1
140
1.0
141
1.0
290
     1
  0
SCALE
  5
52
102
{ACAD_REACTORS
330
49
102
}
330
49
100
AcDbScale
 70
     0
300
1/128" = 1'-0"
140
0.0078125
141
12.0
290
     0
  0
SCALE
  5
53
102
{ACAD_REACTORS
330
49
102
}
330
49
100
AcDbScale
 70
     0
300
1/64" = 1'-0"
140
0.015625
141
12.0
290
     0
  0
SCALE
  5
54
102
{ACAD_REACTORS
330
49
102
}
330
49
100
AcDbScale
 70
     0
300
1/32" = 1'-0"
140
0.03125
141
12.0
290
     0
  0
SCALE
  5
55
102
{ACAD_REACTORS
330
49
102
}
330
49
100
AcDbScale
 70
     0
300
1/16" = 1'-0"
140
0.0625
141
12.0
290
     0
  0
SCALE
  5
56
102
{ACAD_REACTORS
330
49
102
}
330
49
100
AcDbScale
 70
     0
300
3/32" = 1'-0"
140
0.09375
141
12.0
290
     0
  0
SCALE
  5
57
102
{ACAD_REACTORS
330
49
102
}
330
49
100
AcDbScale
 70
     0
300
1/8" = 1'-0"
140
0.125
141
12.0
290
     0
  0
SCALE
  5
58
102
{ACAD_REACTORS
330
49
102
}
330
49
100
AcDbScale
 70
     0
300
3/16" = 1'-0"
140
0.1875
141
12.0
290
     0
  0
SCALE
  5
59
102
{ACAD_REACTORS
330
49
102
}
330
49
100
AcDbScale
 70
     0
300
1/4" = 1'-0"
140
0.25
141
12.0
290
     0
  0
SCALE
  5
5A
102
{ACAD_REACTORS
330
49
102
}
330
49
100
AcDbScale
 70
     0
300
3/8" = 1'-0"
140
0.375
141
12.0
290
     0
  0
SCALE
  5
5B
102
{ACAD_REACTORS
330
49
102
}
330
49
100
AcDbScale
 70
     0
300
1/2" = 1'-0"
140
0.5
141
12.0
290
     0
  0
SCALE
  5
5C
102
{ACAD_REACTORS
330
49
102
}
330
49
100
AcDbScale
 70
     0
300
3/4" = 1'-0"
140
0.75
141
12.0
290
     0
  0
SCALE
  5
5D
102
{ACAD_REACTORS
330
49
102
}
330
49
100
AcDbScale
 70
     0
300
1" = 1'-0"
140
1.0
141
12.0
290
     0
  0
SCALE
  5
5E
102
{ACAD_REACTORS
330
49
102
}
330
49
100
AcDbScale
 70
     0
300
1-1/2" = 1'-0"
140
1.5
141
12.0
290
     0
  0
SCALE
  5
5F
102
{ACAD_REACTORS
330
49
102
}
330
49
100
AcDbScale
 70
     0
300
3" = 1'-0"
140
3.0
141
12.0
290
     0
  0
SCALE
  5
60
102
{ACAD_REACTORS
330
49
102
}
330
49
100
AcDbScale
 70
     0
300
6" = 1'-0"
140
6.0
141
12.0
290
     0
  0
SCALE
  5
61
102
{ACAD_REACTORS
330
49
102
}
330
49
100
AcDbScale
 70
     0
300
1'-0" = 1'-0"
140
12.0
141
12.0
290
     0
  0
TABLESTYLE
  5
4E
102
{ACAD_XDICTIONARY
360
15C
102
}
102
{ACAD_REACTORS
330
4A
102
}
330
4A
100
AcDbTableStyle
  3
Standard
 70
     0
 71
     0
 40
0.06
 41
0.06
280
     0
281
     0
  7
STANDARD
140
0.18
170
     2
 62
     0
 63
     7
283
     0
274
    -2
284
     1
 64
     0
275
    -2
285
     1
 65
     0
276
    -2
286
     1
 66
     0
277
    -2
287
     1
 67
     0
278
    -2
288
     1
 68
     0
279
    -2
289
     1
 69
     0
  7
STANDARD
140
0.25
170
     5
 62
     0
 63
     7
283
     0
274
    -2
284
     1
 64
     0
275
    -2
285
     1
 65
     0
276
    -2
286
     1
 66
     0
277
    -2
287
     1
 67
     0
278
    -2
288
     1
 68
     0
279
    -2
289
     1
 69
     0
  7
STANDARD
140
0.18
170
     5
 62
     0
 63
     7
283
     0
274
    -2
284
     1
 64
     0
275
    -2
285
     1
 65
     0
276
    -2
286
     1
 66
     0
277
    -2
287
     1
 67
     0
278
    -2
288
     1
 68
     0
279
    -2
289
     1
 69
     0
  0
VISUALSTYLE
  5
31
102
{ACAD_XDICTIONARY
360
165
102
}
102
{ACAD_REACTORS
330
32
102
}
330
32
100
AcDbVisualStyle
  2
2dWireframe
 70
     4
 71
     0
 72
     2
 73
     0
 90
        0
 40
-0.6
 41
-30.0
 62
     5
 63
     7
 74
     1
 91
        4
 64
     7
 65
   257
 75
     1
175
     1
 42
1.0
 92
        0
 66
   257
 43
1.0
 76
     1
 77
     6
 78
     2
 67
     7
 79
     5
170
     0
171
     0
290
     0
174
     0
 93
        1
 44
0.0
173
     0
291
     0
 45
0.0
1001
ACAD
1000
AcDbSavedByObjectVersion
1070
     0
  0
VISUALSTYLE
  5
4F
102
{ACAD_XDICTIONARY
360
169
102
}
102
{ACAD_REACTORS
330
32
102
}
330
32
100
AcDbVisualStyle
  2
Realistic
 70
     8
 71
     2
 72
     3
 73
     0
 90
        2
 40
-0.6
 41
30.0
 62
     5
 63
     7
 74
     0
 91
        0
 64
     7
 65
   257
 75
     1
175
     1
 42
1.0
 92
        8
 66
   257
 43
1.0
 76
     1
 77
     6
 78
     2
 67
     7
 79
     3
170
     0
171
     0
290
     0
174
     0
 93
       13
 44
0.0
173
     0
291
     0
 45
0.0
1001
ACAD
1000
AcDbSavedByObjectVersion
1070
     0
  0
VISUALSTYLE
  5
50
102
{ACAD_XDICTIONARY
360
16B
102
}
102
{ACAD_REACTORS
330
32
102
}
330
32
100
AcDbVisualStyle
  2
Wireframe
 70
     5
 71
     0
 72
     2
 73
     0
 90
        0
 40
-0.6
 41
-30.0
 62
     5
 63
     7
 74
     1
 91
        4
 64
     7
 65
   257
 75
     1
175
     1
 42
1.0
 92
        0
 66
   257
 43
1.0
 76
     1
 77
     6
 78
     2
 67
     7
 79
     3
170
     0
171
     0
290
     0
174
     0
 93
        1
 44
0.0
173
     0
291
     0
 45
0.0
1001
ACAD
1000
AcDbSavedByObjectVersion
1070
     0
  0
DICTIONARYVAR
  5
156
102
{ACAD_REACTORS
330
151
102
}
330
151
100
DictionaryVariables
280
     0
  1
1:1
  0
DICTIONARYVAR
  5
153
102
{ACAD_REACTORS
330
151
102
}
330
151
100
DictionaryVariables
280
     0
  1
STANDARD
  0
DICTIONARYVAR
  5
152
102
{ACAD_REACTORS
330
151
102
}
330
151
100
DictionaryVariables
280
     0
  1
STANDARD
  0
DICTIONARYVAR
  5
154
102
{ACAD_REACTORS
330
151
102
}
330
151
100
DictionaryVariables
280
     0
  1

  0
DICTIONARYVAR
  5
155
102
{ACAD_REACTORS
330
151
102
}
330
151
100
DictionaryVariables
280
     0
  1

  0
DICTIONARYVAR
  5
15A
102
{ACAD_REACTORS
330
151
102
}
330
151
100
DictionaryVariables
280
     0
  1
1
  0
DICTIONARYVAR
  5
159
102
{ACAD_REACTORS
330
151
102
}
330
151
100
DictionaryVariables
280
     0
  1
1
  0
DICTIONARYVAR
  5
158
102
{ACAD_REACTORS
330
151
102
}
330
151
100
DictionaryVariables
280
     0
  1
0
  0
DICTIONARYVAR
  5
157
102
{ACAD_REACTORS
330
151
102
}
330
151
100
DictionaryVariables
280
     0
  1
127
  0
DICTIONARYVAR
  5
15B
102
{ACAD_REACTORS
330
151
102
}
330
151
100
DictionaryVariables
280
     0
  1
2
  0
DICTIONARY
  5
161
330
1E
100
AcDbDictionary
280
     1
281
     1
  3
ACAD_XREC_ROUNDTRIP
360
162
  0
DICTIONARY
  5
163
330
25
100
AcDbDictionary
280
     1
281
     1
  3
ACAD_XREC_ROUNDTRIP
360
164
  0
DICTIONARY
  5
41
330
40
100
AcDbDictionary
280
     1
281
     1
  3
ACAD_XREC_ROUNDTRIP
360
167
  3
BUMPTILE
360
42
  3
DIFFUSETILE
360
43
  3
OPACITYTILE
360
44
  3
REFLECTIONTILE
360
45
  3
REFRACTIONTILE
360
46
  3
SPECULARTILE
360
47
  0
DICTIONARY
  5
16
330
15
100
AcDbDictionary
280
     1
281
     1
  3
ACAD_XREC_ROUNDTRIP
360
160
  3
BUMPTILE
360
17
  3
DIFFUSETILE
360
18
  3
OPACITYTILE
360
19
  3
REFLECTIONTILE
360
1A
  3
REFRACTIONTILE
360
1B
  3
SPECULARTILE
360
1C
  0
DICTIONARY
  5
D
330
B
100
AcDbDictionary
280
     1
281
     1
  3
ACAD_XREC_ROUNDTRIP
360
15F
  3
BUMPTILE
360
E
  3
DIFFUSETILE
360
F
  3
OPACITYTILE
360
10
  3
REFLECTIONTILE
360
11
  3
REFRACTIONTILE
360
12
  3
SPECULARTILE
360
13
  0
DICTIONARY
  5
15C
330
4E
100
AcDbDictionary
280
     1
281
     1
  3
ACAD_ROUNDTRIP_2008_TABLESTYLE_CELLSTYLEMAP
360
15D
  3
ACAD_XREC_ROUNDTRIP
360
168
  0
DICTIONARY
  5
165
330
31
100
AcDbDictionary
280
     1
281
     1
  3
ACAD_XREC_ROUNDTRIP
360
166
  0
DICTIONARY
  5
169
330
4F
100
AcDbDictionary
280
     1
281
     1
  3
ACAD_XREC_ROUNDTRIP
360
16A
  0
DICTIONARY
  5
16B
330
50
100
AcDbDictionary
280
     1
281
     1
  3
ACAD_XREC_ROUNDTRIP
360
16C
  0
XRECORD
  5
162
102
{ACAD_REACTORS
330
161
102
}
330
161
100
AcDbXrecord
280
     1
102
SHADEPLOT
 70
     0
102
SHADEPLOTRESLEVEL
 70
     2
102
SHADEPLOTCUSTOMDPI
 70
   300
  0
XRECORD
  5
164
102
{ACAD_REACTORS
330
163
102
}
330
163
100
AcDbXrecord
280
     1
102
SHADEPLOT
 70
     0
102
SHADEPLOTRESLEVEL
 70
     2
102
SHADEPLOTCUSTOMDPI
 70
   300
  0
XRECORD
  5
167
102
{ACAD_REACTORS
330
41
102
}
330
41
100
AcDbXrecord
280
     1
102
MATERIAL
148
0.0
149
0.0
149
0.0
 93
        0
 94
      127
282
     0
 72
     0
 77
     0
171
     0
175
     0
179
     0
273
     0
  0
XRECORD
  5
42
102
{ACAD_REACTORS
330
41
102
}
330
41
100
AcDbXrecord
280
     1
270
     1
271
     1
  0
XRECORD
  5
43
102
{ACAD_REACTORS
330
41
102
}
330
41
100
AcDbXrecord
280
     1
270
     1
271
     1
  0
XRECORD
  5
44
102
{ACAD_REACTORS
330
41
102
}
330
41
100
AcDbXrecord
280
     1
270
     1
271
     1
  0
XRECORD
  5
45
102
{ACAD_REACTORS
330
41
102
}
330
41
100
AcDbXrecord
280
     1
270
     1
271
     1
  0
XRECORD
  5
46
102
{ACAD_REACTORS
330
41
102
}
330
41
100
AcDbXrecord
280
     1
270
     1
271
     1
  0
XRECORD
  5
47
102
{ACAD_REACTORS
330
41
102
}
330
41
100
AcDbXrecord
280
     1
270
     1
271
     1
  0
XRECORD
  5
160
102
{ACAD_REACTORS
330
16
102
}
330
16
100
AcDbXrecord
280
     1
102
MATERIAL
148
0.0
149
0.0
149
0.0
 93
        0
 94
      127
282
     0
 72
     0
 77
     0
171
     0
175
     0
179
     0
273
     0
  0
XRECORD
  5
17
102
{ACAD_REACTORS
330
16
102
}
330
16
100
AcDbXrecord
280
     1
270
     1
271
     1
  0
XRECORD
  5
18
102
{ACAD_REACTORS
330
16
102
}
330
16
100
AcDbXrecord
280
     1
270
     1
271
     1
  0
XRECORD
  5
19
102
{ACAD_REACTORS
330
16
102
}
330
16
100
AcDbXrecord
280
     1
270
     1
271
     1
  0
XRECORD
  5
1A
102
{ACAD_REACTORS
330
16
102
}
330
16
100
AcDbXrecord
280
     1
270
     1
271
     1
  0
XRECORD
  5
1B
102
{ACAD_REACTORS
330
16
102
}
330
16
100
AcDbXrecord
280
     1
270
     1
271
     1
  0
XRECORD
  5
1C
102
{ACAD_REACTORS
330
16
102
}
330
16
100
AcDbXrecord
280
     1
270
     1
271
     1
  0
XRECORD
  5
15F
102
{ACAD_REACTORS
330
D
102
}
330
D
100
AcDbXrecord
280
     1
102
MATERIAL
148
0.0
149
0.0
149
0.0
 93
        0
 94
      127
282
     0
 72
     0
 77
     0
171
     0
175
     0
179
     0
273
     0
  0
XRECORD
  5
E
102
{ACAD_REACTORS
330
D
102
}
330
D
100
AcDbXrecord
280
     1
270
     1
271
     1
  0
XRECORD
  5
F
102
{ACAD_REACTORS
330
D
102
}
330
D
100
AcDbXrecord
280
     1
270
     1
271
     1
  0
XRECORD
  5
10
102
{ACAD_REACTORS
330
D
102
}
330
D
100
AcDbXrecord
280
     1
270
     1
271
     1
  0
XRECORD
  5
11
102
{ACAD_REACTORS
330
D
102
}
330
D
100
AcDbXrecord
280
     1
270
     1
271
     1
  0
XRECORD
  5
12
102
{ACAD_REACTORS
330
D
102
}
330
D
100
AcDbXrecord
280
     1
270
     1
271
     1
  0
XRECORD
  5
13
102
{ACAD_REACTORS
330
D
102
}
330
D
100
AcDbXrecord
280
     1
270
     1
271
     1
  0
CELLSTYLEMAP
  5
15D
102
{ACAD_REACTORS
330
15C
102
}
330
15C
100
AcDbCellStyleMap
 90
        3
300
CELLSTYLE
  1
TABLEFORMAT_BEGIN
 90
        5
170
     1
 91
        0
 92
    32768
 62
   257
 93
        1
300
CONTENTFORMAT
  1
CONTENTFORMAT_BEGIN
 90
        0
 91
        0
 92
        4
 93
        0
300

 40
0.0
140
1.0
 94
        5
 62
     0
340
28
144
0.25
309
CONTENTFORMAT_END
171
     0
 94
        6
 95
        1
302
GRIDFORMAT
  1
GRIDFORMAT_BEGIN
 90
        0
 91
        1
 62
     0
 92
       -2
340
0
 93
        0
 40
0.045
309
GRIDFORMAT_END
 95
        2
302
GRIDFORMAT
  1
GRIDFORMAT_BEGIN
 90
        0
 91
        1
 62
     0
 92
       -2
340
0
 93
        0
 40
0.045
309
GRIDFORMAT_END
 95
        4
302
GRIDFORMAT
  1
GRIDFORMAT_BEGIN
 90
        0
 91
        1
 62
     0
 92
       -2
340
0
 93
        0
 40
0.045
309
GRIDFORMAT_END
 95
        8
302
GRIDFORMAT
  1
GRIDFORMAT_BEGIN
 90
        0
 91
        1
 62
     0
 92
       -2
340
0
 93
        0
 40
0.045
309
GRIDFORMAT_END
 95
       16
302
GRIDFORMAT
  1
GRIDFORMAT_BEGIN
 90
        0
 91
        1
 62
     0
 92
       -2
340
0
 93
        0
 40
0.045
309
GRIDFORMAT_END
 95
       32
302
GRIDFORMAT
  1
GRIDFORMAT_BEGIN
 90
        0
 91
        1
 62
     0
 92
       -2
340
0
 93
        0
 40
0.045
309
GRIDFORMAT_END
309
TABLEFORMAT_END
  1
CELLSTYLE_BEGIN
 90
        1
 91
        1
300
_TITLE
309
CELLSTYLE_END
300
CELLSTYLE
  1
TABLEFORMAT_BEGIN
 90
        5
170
     1
 91
        0
 92
        0
 62
   257
 93
        1
300
CONTENTFORMAT
  1
CONTENTFORMAT_BEGIN
 90
        0
 91
        0
 92
        4
 93
        0
300

 40
0.0
140
1.0
 94
        5
 62
     0
340
28
144
0.18
309
CONTENTFORMAT_END
171
     0
 94
        6
 95
        1
302
GRIDFORMAT
  1
GRIDFORMAT_BEGIN
 90
        0
 91
        1
 62
     0
 92
       -2
340
0
 93
        0
 40
0.045
309
GRIDFORMAT_END
 95
        2
302
GRIDFORMAT
  1
GRIDFORMAT_BEGIN
 90
        0
 91
        1
 62
     0
 92
       -2
340
0
 93
        0
 40
0.045
309
GRIDFORMAT_END
 95
        4
302
GRIDFORMAT
  1
GRIDFORMAT_BEGIN
 90
        0
 91
        1
 62
     0
 92
       -2
340
0
 93
        0
 40
0.045
309
GRIDFORMAT_END
 95
        8
302
GRIDFORMAT
  1
GRIDFORMAT_BEGIN
 90
        0
 91
        1
 62
     0
 92
       -2
340
0
 93
        0
 40
0.045
309
GRIDFORMAT_END
 95
       16
302
GRIDFORMAT
  1
GRIDFORMAT_BEGIN
 90
        0
 91
        1
 62
     0
 92
       -2
340
0
 93
        0
 40
0.045
309
GRIDFORMAT_END
 95
       32
302
GRIDFORMAT
  1
GRIDFORMAT_BEGIN
 90
        0
 91
        1
 62
     0
 92
       -2
340
0
 93
        0
 40
0.045
309
GRIDFORMAT_END
309
TABLEFORMAT_END
  1
CELLSTYLE_BEGIN
 90
        2
 91
        1
300
_HEADER
309
CELLSTYLE_END
300
CELLSTYLE
  1
TABLEFORMAT_BEGIN
 90
        5
170
     1
 91
        0
 92
        0
 62
   257
 93
        1
300
CONTENTFORMAT
  1
CONTENTFORMAT_BEGIN
 90
        0
 91
        0
 92
        4
 93
        0
300

 40
0.0
140
1.0
 94
        2
 62
     0
340
28
144
0.18
309
CONTENTFORMAT_END
171
     0
 94
        6
 95
        1
302
GRIDFORMAT
  1
GRIDFORMAT_BEGIN
 90
        0
 91
        1
 62
     0
 92
       -2
340
0
 93
        0
 40
0.045
309
GRIDFORMAT_END
 95
        2
302
GRIDFORMAT
  1
GRIDFORMAT_BEGIN
 90
        0
 91
        1
 62
     0
 92
       -2
340
0
 93
        0
 40
0.045
309
GRIDFORMAT_END
 95
        4
302
GRIDFORMAT
  1
GRIDFORMAT_BEGIN
 90
        0
 91
        1
 62
     0
 92
       -2
340
0
 93
        0
 40
0.045
309
GRIDFORMAT_END
 95
        8
302
GRIDFORMAT
  1
GRIDFORMAT_BEGIN
 90
        0
 91
        1
 62
     0
 92
       -2
340
0
 93
        0
 40
0.045
309
GRIDFORMAT_END
 95
       16
302
GRIDFORMAT
  1
GRIDFORMAT_BEGIN
 90
        0
 91
        1
 62
     0
 92
       -2
340
0
 93
        0
 40
0.045
309
GRIDFORMAT_END
 95
       32
302
GRIDFORMAT
  1
GRIDFORMAT_BEGIN
 90
        0
 91
        1
 62
     0
 92
       -2
340
0
 93
        0
 40
0.045
309
GRIDFORMAT_END
309
TABLEFORMAT_END
  1
CELLSTYLE_BEGIN
 90
        3
 91
        2
300
_DATA
309
CELLSTYLE_END
  0
XRECORD
  5
168
102
{ACAD_REACTORS
330
15C
102
}
330
15C
100
AcDbXrecord
280
     1
102
ACAD_ROUNDTRIP_PRE2007_TABLESTYLE
 90
        4
 91
        0
  1

 92
        4
 93
        0
  2

 94
        4
 95
        0
  3

  0
XRECORD
  5
166
102
{ACAD_REACTORS
330
165
102
}
330
165
100
AcDbXrecord
280
     1
102
RTVSPost2010Prop28
280
     1
102
RTVSPost2010PropOp28
 70
     1
102
RTVSPost2010Prop29
280
     1
102
RTVSPost2010PropOp29
 70
     1
102
RTVSPost2010Prop30
280
     0
102
RTVSPost2010PropOp30
 70
     1
102
RTVSPost2010Prop31
280
     0
102
RTVSPost2010PropOp31
 70
     1
102
RTVSPost2010Prop32
280
     0
102
RTVSPost2010PropOp32
 70
     1
102
RTVSPost2010Prop33
280
     0
102
RTVSPost2010PropOp33
 70
     1
102
RTVSPost2010Prop34
280
     0
102
RTVSPost2010PropOp34
 70
     1
102
RTVSPost2010Prop35
280
     0
102
RTVSPost2010PropOp35
 70
     1
102
RTVSPost2010Prop36
280
     0
102
RTVSPost2010PropOp36
 70
     1
102
RTVSPost2010Prop37
 90
       50
102
RTVSPost2010PropOp37
 70
     1
102
RTVSPost2010Prop38
140
0.0
102
RTVSPost2010PropOp38
 70
     1
102
RTVSPost2010Prop39
140
1.0
102
RTVSPost2010PropOp39
 70
     1
102
RTVSPost2010Prop40
 90
        0
102
RTVSPost2010PropOp40
 70
     1
102
RTVSPost2010Prop41ColorIndex
 90
       18
102
RTVSPost2010Prop41ColorRGB
 90
        0
102
RTVSPost2010PropOp41
 70
     1
102
RTVSPost2010Prop42
 90
       50
102
RTVSPost2010PropOp42
 70
     1
102
RTVSPost2010Prop43
 90
        3
102
RTVSPost2010PropOp43
 70
     1
102
RTVSPost2010Prop44ColorIndex
 90
        5
102
RTVSPost2010Prop44ColorRGB
 90
      255
102
RTVSPost2010PropOp44
 70
     1
102
RTVSPost2010Prop45
280
     0
102
RTVSPost2010PropOp45
 70
     1
102
RTVSPost2010Prop46
 90
       50
102
RTVSPost2010PropOp46
 70
     1
102
RTVSPost2010Prop47
 90
       50
102
RTVSPost2010PropOp47
 70
     1
102
RTVSPost2010Prop48
 90
       50
102
RTVSPost2010PropOp48
 70
     1
102
RTVSPost2010Prop49
280
     0
102
RTVSPost2010PropOp49
 70
     1
102
RTVSPost2010Prop50
 90
       50
102
RTVSPost2010PropOp50
 70
     1
102
RTVSPost2010Prop51ColorIndex
 90
      256
102
RTVSPost2010Prop51ColorRGB
 90
-16777216
102
RTVSPost2010PropOp51
 70
     0
102
RTVSPost2010Prop52
140
1.0
102
RTVSPost2010PropOp52
 70
     0
102
RTVSPost2010Prop53
 90
        2
102
RTVSPost2010PropOp53
 70
     1
102
RTVSPost2010Prop54
  1
strokes_ogs.tif
102
RTVSPost2010PropOp54
 70
     1
102
RTVSPost2010Prop55
280
     0
102
RTVSPost2010PropOp55
 70
     1
102
RTVSPost2010Prop56
140
1.0
102
RTVSPost2010PropOp56
 70
     1
102
RTVSPost2010Prop57
140
1.0
102
RTVSPost2010PropOp57
 70
     1
102
RTVSPropertyOp0
 70
     1
102
RTVSPropertyOp1
 70
     1
102
RTVSPropertyOp2
 70
     1
102
RTVSPropertyOp3
 70
     1
102
RTVSPropertyOp4
 70
     1
102
RTVSPropertyOp5
 70
     1
102
RTVSPropertyOp6
 70
     1
102
RTVSPropertyOp7
 70
     1
102
RTVSPropertyOp8
 70
     1
102
RTVSPropertyOp9
 70
     1
102
RTVSPropertyOp10
 70
     1
102
RTVSPropertyOp11
 70
     1
102
RTVSPropertyOp12
 70
     1
102
RTVSPropertyOp13
 70
     1
102
RTVSPropertyOp14
 70
     1
102
RTVSPropertyOp15
 70
     1
102
RTVSPropertyOp16
 70
     1
102
RTVSPropertyOp17
 70
     1
102
RTVSPropertyOp18
 70
     1
102
RTVSPropertyOp19
 70
     1
102
RTVSPropertyOp20
 70
     1
102
RTVSPropertyOp21
 70
     1
102
RTVSPropertyOp22
 70
     1
102
RTVSPropertyOp23
 70
     1
102
RTVSPropertyOp24
 70
     1
102
RTVSPropertyOp25
 70
     1
102
RTVSPropertyOp26
 70
     1
102
RTVSPropertyOp27
 70
     1
102
RTVSPropertyOp28
 70
     1
102
RTVSPropertyOp29
 70
     1
102
RTVSPropertyOp30
 70
     1
102
RTVSPropertyOp31
 70
     1
102
RTVSPropertyOp32
 70
     1
102
RTVSPropertyOp33
 70
     1
102
RTVSPropertyOp34
 70
     1
102
RTVSPropertyOp35
 70
     1
102
RTVSPropertyOp36
 70
     1
102
RTVSPropertyOp37
 70
     1
102
RTVSPropertyOp38
 70
     1
102
RTVSPropertyOp39
 70
     1
102
RTVSPropertyOp40
 70
     1
102
RTVSPropertyOp41
 70
     1
102
RTVSPropertyOp42
 70
     1
102
RTVSPropertyOp43
 70
     1
102
RTVSPropertyOp44
 70
     1
102
RTVSPropertyOp45
 70
     1
102
RTVSPropertyOp46
 70
     1
102
RTVSPropertyOp47
 70
     1
102
RTVSPropertyOp48
 70
     1
102
RTVSPropertyOp49
 70
     1
102
RTVSPropertyOp50
 70
     1
102
RTVSPropertyOp51
 70
     0
102
RTVSPropertyOp52
 70
     0
102
RTVSPropertyOp53
 70
     1
102
RTVSPropertyOp54
 70
     1
102
RTVSPropertyOp55
 70
     1
102
RTVSPropertyOp56
 70
     1
102
RTVSPropertyOp57
 70
     1
102
RTVSPropertyOp58
 70
     1
102
RTVSPropertyOp59
 70
     1
102
RTVSPropertyOp60
 70
     1
102
RTVSPropertyOp61
 70
     1
102
RTVSPropertyOp62
 70
     1
  0
XRECORD
  5
16A
102
{ACAD_REACTORS
330
169
102
}
330
169
100
AcDbXrecord
280
     1
102
RTVSPost2010Prop28
280
     0
102
RTVSPost2010PropOp28
 70
     1
102
RTVSPost2010Prop29
280
     1
102
RTVSPost2010PropOp29
 70
     1
102
RTVSPost2010Prop30
280
     1
102
RTVSPost2010PropOp30
 70
     1
102
RTVSPost2010Prop31
280
     0
102
RTVSPost2010PropOp31
 70
     1
102
RTVSPost2010Prop32
280
     0
102
RTVSPost2010PropOp32
 70
     1
102
RTVSPost2010Prop33
280
     0
102
RTVSPost2010PropOp33
 70
     1
102
RTVSPost2010Prop34
280
     0
102
RTVSPost2010PropOp34
 70
     1
102
RTVSPost2010Prop35
280
     0
102
RTVSPost2010PropOp35
 70
     1
102
RTVSPost2010Prop36
280
     0
102
RTVSPost2010PropOp36
 70
     1
102
RTVSPost2010Prop37
 90
       50
102
RTVSPost2010PropOp37
 70
     1
102
RTVSPost2010Prop38
140
0.0
102
RTVSPost2010PropOp38
 70
     1
102
RTVSPost2010Prop39
140
1.0
102
RTVSPost2010PropOp39
 70
     1
102
RTVSPost2010Prop40
 90
        0
102
RTVSPost2010PropOp40
 70
     1
102
RTVSPost2010Prop41ColorIndex
 90
       18
102
RTVSPost2010Prop41ColorRGB
 90
        0
102
RTVSPost2010PropOp41
 70
     1
102
RTVSPost2010Prop42
 90
       50
102
RTVSPost2010PropOp42
 70
     1
102
RTVSPost2010Prop43
 90
        3
102
RTVSPost2010PropOp43
 70
     1
102
RTVSPost2010Prop44ColorIndex
 90
        5
102
RTVSPost2010Prop44ColorRGB
 90
      255
102
RTVSPost2010PropOp44
 70
     1
102
RTVSPost2010Prop45
280
     0
102
RTVSPost2010PropOp45
 70
     1
102
RTVSPost2010Prop46
 90
       50
102
RTVSPost2010PropOp46
 70
     1
102
RTVSPost2010Prop47
 90
       50
102
RTVSPost2010PropOp47
 70
     1
102
RTVSPost2010Prop48
 90
       50
102
RTVSPost2010PropOp48
 70
     1
102
RTVSPost2010Prop49
280
     0
102
RTVSPost2010PropOp49
 70
     1
102
RTVSPost2010Prop50
 90
       50
102
RTVSPost2010PropOp50
 70
     1
102
RTVSPost2010Prop51ColorIndex
 90
      256
102
RTVSPost2010Prop51ColorRGB
 90
-16777216
102
RTVSPost2010PropOp51
 70
     0
102
RTVSPost2010Prop52
140
1.0
102
RTVSPost2010PropOp52
 70
     0
102
RTVSPost2010Prop53
 90
        2
102
RTVSPost2010PropOp53
 70
     1
102
RTVSPost2010Prop54
  1
strokes_ogs.tif
102
RTVSPost2010PropOp54
 70
     1
102
RTVSPost2010Prop55
280
     0
102
RTVSPost2010PropOp55
 70
     1
102
RTVSPost2010Prop56
140
1.0
102
RTVSPost2010PropOp56
 70
     1
102
RTVSPost2010Prop57
140
1.0
102
RTVSPost2010PropOp57
 70
     1
102
RTVSPropertyOp0
 70
     1
102
RTVSPropertyOp1
 70
     1
102
RTVSPropertyOp2
 70
     1
102
RTVSPropertyOp3
 70
     1
102
RTVSPropertyOp4
 70
     1
102
RTVSPropertyOp5
 70
     1
102
RTVSPropertyOp6
 70
     1
102
RTVSPropertyOp7
 70
     1
102
RTVSPropertyOp8
 70
     1
102
RTVSPropertyOp9
 70
     1
102
RTVSPropertyOp10
 70
     1
102
RTVSPropertyOp11
 70
     1
102
RTVSPropertyOp12
 70
     1
102
RTVSPropertyOp13
 70
     1
102
RTVSPropertyOp14
 70
     1
102
RTVSPropertyOp15
 70
     1
102
RTVSPropertyOp16
 70
     1
102
RTVSPropertyOp17
 70
     1
102
RTVSPropertyOp18
 70
     1
102
RTVSPropertyOp19
 70
     1
102
RTVSPropertyOp20
 70
     1
102
RTVSPropertyOp21
 70
     1
102
RTVSPropertyOp22
 70
     1
102
RTVSPropertyOp23
 70
     1
102
RTVSPropertyOp24
 70
     1
102
RTVSPropertyOp25
 70
     1
102
RTVSPropertyOp26
 70
     1
102
RTVSPropertyOp27
 70
     1
102
RTVSPropertyOp28
 70
     1
102
RTVSPropertyOp29
 70
     1
102
RTVSPropertyOp30
 70
     1
102
RTVSPropertyOp31
 70
     1
102
RTVSPropertyOp32
 70
     1
102
RTVSPropertyOp33
 70
     1
102
RTVSPropertyOp34
 70
     1
102
RTVSPropertyOp35
 70
     1
102
RTVSPropertyOp36
 70
     1
102
RTVSPropertyOp37
 70
     1
102
RTVSPropertyOp38
 70
     1
102
RTVSPropertyOp39
 70
     1
102
RTVSPropertyOp40
 70
     1
102
RTVSPropertyOp41
 70
     1
102
RTVSPropertyOp42
 70
     1
102
RTVSPropertyOp43
 70
     1
102
RTVSPropertyOp44
 70
     1
102
RTVSPropertyOp45
 70
     1
102
RTVSPropertyOp46
 70
     1
102
RTVSPropertyOp47
 70
     1
102
RTVSPropertyOp48
 70
     1
102
RTVSPropertyOp49
 70
     1
102
RTVSPropertyOp50
 70
     1
102
RTVSPropertyOp51
 70
     0
102
RTVSPropertyOp52
 70
     0
102
RTVSPropertyOp53
 70
     1
102
RTVSPropertyOp54
 70
     1
102
RTVSPropertyOp55
 70
     1
102
RTVSPropertyOp56
 70
     1
102
RTVSPropertyOp57
 70
     1
102
RTVSPropertyOp58
 70
     1
102
RTVSPropertyOp59
 70
     1
102
RTVSPropertyOp60
 70
     1
102
RTVSPropertyOp61
 70
     1
102
RTVSPropertyOp62
 70
     1
  0
XRECORD
  5
16C
102
{ACAD_REACTORS
330
16B
102
}
330
16B
100
AcDbXrecord
280
     1
102
RTVSPost2010Prop28
280
     0
102
RTVSPost2010PropOp28
 70
     1
102
RTVSPost2010Prop29
280
     1
102
RTVSPost2010PropOp29
 70
     1
102
RTVSPost2010Prop30
280
     1
102
RTVSPost2010PropOp30
 70
     1
102
RTVSPost2010Prop31
280
     0
102
RTVSPost2010PropOp31
 70
     1
102
RTVSPost2010Prop32
280
     0
102
RTVSPost2010PropOp32
 70
     1
102
RTVSPost2010Prop33
280
     0
102
RTVSPost2010PropOp33
 70
     1
102
RTVSPost2010Prop34
280
     0
102
RTVSPost2010PropOp34
 70
     1
102
RTVSPost2010Prop35
280
     0
102
RTVSPost2010PropOp35
 70
     1
102
RTVSPost2010Prop36
280
     0
102
RTVSPost2010PropOp36
 70
     1
102
RTVSPost2010Prop37
 90
       50
102
RTVSPost2010PropOp37
 70
     1
102
RTVSPost2010Prop38
140
0.0
102
RTVSPost2010PropOp38
 70
     1
102
RTVSPost2010Prop39
140
1.0
102
RTVSPost2010PropOp39
 70
     1
102
RTVSPost2010Prop40
 90
        0
102
RTVSPost2010PropOp40
 70
     1
102
RTVSPost2010Prop41ColorIndex
 90
       18
102
RTVSPost2010Prop41ColorRGB
 90
        0
102
RTVSPost2010PropOp41
 70
     1
102
RTVSPost2010Prop42
 90
       50
102
RTVSPost2010PropOp42
 70
     1
102
RTVSPost2010Prop43
 90
        3
102
RTVSPost2010PropOp43
 70
     1
102
RTVSPost2010Prop44ColorIndex
 90
        5
102
RTVSPost2010Prop44ColorRGB
 90
      255
102
RTVSPost2010PropOp44
 70
     1
102
RTVSPost2010Prop45
280
     0
102
RTVSPost2010PropOp45
 70
     1
102
RTVSPost2010Prop46
 90
       50
102
RTVSPost2010PropOp46
 70
     1
102
RTVSPost2010Prop47
 90
       50
102
RTVSPost2010PropOp47
 70
     1
102
RTVSPost2010Prop48
 90
       50
102
RTVSPost2010PropOp48
 70
     1
102
RTVSPost2010Prop49
280
     0
102
RTVSPost2010PropOp49
 70
     1
102
RTVSPost2010Prop50
 90
       50
102
RTVSPost2010PropOp50
 70
     1
102
RTVSPost2010Prop51ColorIndex
 90
      256
102
RTVSPost2010Prop51ColorRGB
 90
-16777216
102
RTVSPost2010PropOp51
 70
     0
102
RTVSPost2010Prop52
140
1.0
102
RTVSPost2010PropOp52
 70
     0
102
RTVSPost2010Prop53
 90
        2
102
RTVSPost2010PropOp53
 70
     1
102
RTVSPost2010Prop54
  1
strokes_ogs.tif
102
RTVSPost2010PropOp54
 70
     1
102
RTVSPost2010Prop55
280
     0
102
RTVSPost2010PropOp55
 70
     1
102
RTVSPost2010Prop56
140
1.0
102
RTVSPost2010PropOp56
 70
     1
102
RTVSPost2010Prop57
140
1.0
102
RTVSPost2010PropOp57
 70
     1
102
RTVSPropertyOp0
 70
     1
102
RTVSPropertyOp1
 70
     1
102
RTVSPropertyOp2
 70
     1
102
RTVSPropertyOp3
 70
     1
102
RTVSPropertyOp4
 70
     1
102
RTVSPropertyOp5
 70
     1
102
RTVSPropertyOp6
 70
     1
102
RTVSPropertyOp7
 70
     1
102
RTVSPropertyOp8
 70
     1
102
RTVSPropertyOp9
 70
     1
102
RTVSPropertyOp10
 70
     1
102
RTVSPropertyOp11
 70
     1
102
RTVSPropertyOp12
 70
     1
102
RTVSPropertyOp13
 70
     1
102
RTVSPropertyOp14
 70
     1
102
RTVSPropertyOp15
 70
     1
102
RTVSPropertyOp16
 70
     1
102
RTVSPropertyOp17
 70
     1
102
RTVSPropertyOp18
 70
     1
102
RTVSPropertyOp19
 70
     1
102
RTVSPropertyOp20
 70
     1
102
RTVSPropertyOp21
 70
     1
102
RTVSPropertyOp22
 70
     1
102
RTVSPropertyOp23
 70
     1
102
RTVSPropertyOp24
 70
     1
102
RTVSPropertyOp25
 70
     1
102
RTVSPropertyOp26
 70
     1
102
RTVSPropertyOp27
 70
     1
102
RTVSPropertyOp28
 70
     1
102
RTVSPropertyOp29
 70
     1
102
RTVSPropertyOp30
 70
     1
102
RTVSPropertyOp31
 70
     1
102
RTVSPropertyOp32
 70
     1
102
RTVSPropertyOp33
 70
     1
102
RTVSPropertyOp34
 70
     1
102
RTVSPropertyOp35
 70
     1
102
RTVSPropertyOp36
 70
     1
102
RTVSPropertyOp37
 70
     1
102
RTVSPropertyOp38
 70
     1
102
RTVSPropertyOp39
 70
     1
102
RTVSPropertyOp40
 70
     1
102
RTVSPropertyOp41
 70
     1
102
RTVSPropertyOp42
 70
     1
102
RTVSPropertyOp43
 70
     1
102
RTVSPropertyOp44
 70
     1
102
RTVSPropertyOp45
 70
     1
102
RTVSPropertyOp46
 70
     1
102
RTVSPropertyOp47
 70
     1
102
RTVSPropertyOp48
 70
     1
102
RTVSPropertyOp49
 70
     1
102
RTVSPropertyOp50
 70
     1
102
RTVSPropertyOp51
 70
     0
102
RTVSPropertyOp52
 70
     0
102
RTVSPropertyOp53
 70
     1
102
RTVSPropertyOp54
 70
     1
102
RTVSPropertyOp55
 70
     1
102
RTVSPropertyOp56
 70
     1
102
RTVSPropertyOp57
 70
     1
102
RTVSPropertyOp58
 70
     1
102
RTVSPropertyOp59
 70
     1
102
RTVSPropertyOp60
 70
     1
102
RTVSPropertyOp61
 70
     1
102
RTVSPropertyOp62
 70
     1
  0
ENDSEC
  0
EOF
