  0
SECTION
  2
HEADER
  9
$ACADVER
  1
AC1015
  9
$ACADMAINTVER
 70
    18
  9
$DWGCODEPAGE
  3
ANSI_932
  9
$INSBASE
 10
0.0
 20
0.0
 30
0.0
  9
$EXTMIN
 10
-23.95912340063182
 20
0.0
 30
0.0
  9
$EXTMAX
 10
457.5427149856814
 20
165.0449785637984
 30
0.0
  9
$LIMMIN
 10
0.0
 20
0.0
  9
$LIMMAX
 10
420.0
 20
297.0
  9
$ORTHOMODE
 70
     1
  9
$REGENMODE
 70
     1
  9
$FILLMODE
 70
     1
  9
$QTEXTMODE
 70
     0
  9
$MIRRTEXT
 70
     1
  9
$LTSCALE
 40
1.0
  9
$ATTMODE
 70
     1
  9
$TEXTSIZE
 40
30.0
  9
$TRACEWID
 40
0.05
  9
$TEXTSTYLE
  7
SUNPOU
  9
$CLAYER
  8
0
  9
$CELTYPE
  6
BYLAYER
  9
$CECOLOR
 62
     7
  9
$CELTSCALE
 40
1.0
  9
$DISPSILH
 70
     0
  9
$DIMSCALE
 40
1.0
  9
$DIMASZ
 40
3.0
  9
$DIMEXO
 40
2.0
  9
$DIMDLI
 40
0.38
  9
$DIMRND
 40
0.0
  9
$DIMDLE
 40
0.0
  9
$DIMEXE
 40
0.0
  9
$DIMTP
 40
0.0
  9
$DIMTM
 40
0.0
  9
$DIMTXT
 40
7.0
  9
$DIMCEN
 40
1.0
  9
$DIMTSZ
 40
0.0
  9
$DIMTOL
 70
     0
  9
$DIMLIM
 70
     0
  9
$DIMTIH
 70
     0
  9
$DIMTOH
 70
     0
  9
$DIMSE1
 70
     0
  9
$DIMSE2
 70
     0
  9
$DIMTAD
 70
     1
  9
$DIMZIN
 70
     0
  9
$DIMBLK
  1

  9
$DIMASO
 70
     1
  9
$DIMSHO
 70
     1
  9
$DIMPOST
  1

  9
$DIMAPOST
  1

  9
$DIMALT
 70
     0
  9
$DIMALTD
 70
     2
  9
$DIMALTF
 40
25.4
  9
$DIMLFAC
 40
1.0
  9
$DIMTOFL
 70
     0
  9
$DIMTVP
 40
0.0
  9
$DIMTIX
 70
     1
  9
$DIMSOXD
 70
     0
  9
$DIMSAH
 70
     1
  9
$DIMBLK1
  1
DOTSMALL
  9
$DIMBLK2
  1
DOTSMALL
  9
$DIMSTYLE
  2
1
  9
$DIMCLRD
 70
    60
  9
$DIMCLRE
 70
    70
  9
$DIMCLRT
 70
    60
  9
$DIMTFAC
 40
0.0642857142857143
  9
$DIMGAP
 40
1.0
  9
$DIMJUST
 70
     0
  9
$DIMSD1
 70
     0
  9
$DIMSD2
 70
     0
  9
$DIMTOLJ
 70
     1
  9
$DIMTZIN
 70
     0
  9
$DIMALTZ
 70
     0
  9
$DIMALTTZ
 70
     0
  9
$DIMUPT
 70
     0
  9
$DIMDEC
 70
     0
  9
$DIMTDEC
 70
     4
  9
$DIMALTU
 70
     2
  9
$DIMALTTD
 70
     2
  9
$DIMTXSTY
  7
STANDARD
  9
$DIMAUNIT
 70
     0
  9
$DIMADEC
 70
     0
  9
$DIMALTRND
 40
0.0
  9
$DIMAZIN
 70
     0
  9
$DIMDSEP
 70
    46
  9
$DIMATFIT
 70
     3
  9
$DIMFRAC
 70
     0
  9
$DIMLDRBLK
  1
DOTSMALL
  9
$DIMLUNIT
 70
     2
  9
$DIMLWD
 70
    -2
  9
$DIMLWE
 70
    -2
  9
$DIMTMOVE
 70
     0
  9
$LUNITS
 70
     4
  9
$LUPREC
 70
     4
  9
$SKETCHINC
 40
0.1
  9
$FILLETRAD
 40
3.0
  9
$AUNITS
 70
     0
  9
$AUPREC
 70
     2
  9
$MENU
  1
acad
  9
$ELEVATION
 40
0.0
  9
$PELEVATION
 40
0.0
  9
$THICKNESS
 40
0.0
  9
$LIMCHECK
 70
     0
  9
$CHAMFERA
 40
0.0
  9
$CHAMFERB
 40
0.0
  9
$CHAMFERC
 40
0.0
  9
$CHAMFERD
 40
0.0
  9
$SKPOLY
 70
     0
  9
$TDCREATE
 40
2450623.676023380
  9
$TDUCREATE
 40
2450623.301023380
  9
$TDUPDATE
 40
2453882.375787373
  9
$TDUUPDATE
 40
2453882.000787373
  9
$TDINDWG
 40
5.3801974074
  9
$TDUSRTIMER
 40
5.3801972222
  9
$USRTIMER
 70
     1
  9
$ANGBASE
 50
0.0
  9
$ANGDIR
 70
     0
  9
$PDMODE
 70
     0
  9
$PDSIZE
 40
0.0
  9
$PLINEWID
 40
0.0
  9
$SPLFRAME
 70
     0
  9
$SPLINETYPE
 70
     6
  9
$SPLINESEGS
 70
     8
  9
$HANDSEED
  5
1D0
  9
$SURFTAB1
 70
     6
  9
$SURFTAB2
 70
     6
  9
$SURFTYPE
 70
     6
  9
$SURFU
 70
     6
  9
$SURFV
 70
     6
  9
$UCSBASE
  2

  9
$UCSNAME
  2

  9
$UCSORG
 10
0.0
 20
0.0
 30
0.0
  9
$UCSXDIR
 10
1.0
 20
0.0
 30
0.0
  9
$UCSYDIR
 10
0.0
 20
1.0
 30
0.0
  9
$UCSORTHOREF
  2

  9
$UCSORTHOVIEW
 70
     0
  9
$UCSORGTOP
 10
0.0
 20
0.0
 30
0.0
  9
$UCSORGBOTTOM
 10
0.0
 20
0.0
 30
0.0
  9
$UCSORGLEFT
 10
0.0
 20
0.0
 30
0.0
  9
$UCSORGRIGHT
 10
0.0
 20
0.0
 30
0.0
  9
$UCSORGFRONT
 10
0.0
 20
0.0
 30
0.0
  9
$UCSORGBACK
 10
0.0
 20
0.0
 30
0.0
  9
$PUCSBASE
  2

  9
$PUCSNAME
  2

  9
$PUCSORG
 10
0.0
 20
0.0
 30
0.0
  9
$PUCSXDIR
 10
1.0
 20
0.0
 30
0.0
  9
$PUCSYDIR
 10
0.0
 20
1.0
 30
0.0
  9
$PUCSORTHOREF
  2

  9
$PUCSORTHOVIEW
 70
     0
  9
$PUCSORGTOP
 10
0.0
 20
0.0
 30
0.0
  9
$PUCSORGBOTTOM
 10
0.0
 20
0.0
 30
0.0
  9
$PUCSORGLEFT
 10
0.0
 20
0.0
 30
0.0
  9
$PUCSORGRIGHT
 10
0.0
 20
0.0
 30
0.0
  9
$PUCSORGFRONT
 10
0.0
 20
0.0
 30
0.0
  9
$PUCSORGBACK
 10
0.0
 20
0.0
 30
0.0
  9
$USERI1
 70
     0
  9
$USERI2
 70
     0
  9
$USERI3
 70
     0
  9
$USERI4
 70
     0
  9
$USERI5
 70
     0
  9
$USERR1
 40
0.0
  9
$USERR2
 40
0.0
  9
$USERR3
 40
0.0
  9
$USERR4
 40
0.0
  9
$USERR5
 40
0.0
  9
$WORLDVIEW
 70
     1
  9
$SHADEDGE
 70
     3
  9
$SHADEDIF
 70
    70
  9
$TILEMODE
 70
     1
  9
$MAXACTVP
 70
    16
  9
$PINSBASE
 10
0.0
 20
0.0
 30
0.0
  9
$PLIMCHECK
 70
     0
  9
$PEXTMIN
 10
1.000000000000000E+20
 20
1.000000000000000E+20
 30
1.000000000000000E+20
  9
$PEXTMAX
 10
-1.000000000000000E+20
 20
-1.000000000000000E+20
 30
-1.000000000000000E+20
  9
$PLIMMIN
 10
0.0
 20
0.0
  9
$PLIMMAX
 10
12.0
 20
9.0
  9
$UNITMODE
 70
     0
  9
$VISRETAIN
 70
     0
  9
$PLINEGEN
 70
     0
  9
$PSLTSCALE
 70
     1
  9
$TREEDEPTH
 70
  3020
  9
$CMLSTYLE
  2
STANDARD
  9
$CMLJUST
 70
     0
  9
$CMLSCALE
 40
1.0
  9
$PROXYGRAPHICS
 70
     1
  9
$MEASUREMENT
 70
     0
  9
$CELWEIGHT
370
    -1
  9
$ENDCAPS
280
     0
  9
$JOINSTYLE
280
     0
  9
$LWDISPLAY
290
     0
  9
$INSUNITS
 70
     0
  9
$HYPERLINKBASE
  1

  9
$STYLESHEET
  1

  9
$XEDIT
290
     1
  9
$CEPSNTYPE
380
     0
  9
$PSTYLEMODE
290
     1
  9
$FINGERPRINTGUID
  2
{3C7CDEE1-9899-497F-B18F-4A4E4E9BE599}
  9
$VERSIONGUID
  2
{5BCA2A86-DE9B-4C7C-B5C9-1A9AD822F004}
  9
$EXTNAMES
290
     1
  9
$PSVPSCALE
 40
0.0
  9
$OLESTARTUP
290
     0
  0
ENDSEC
  0
SECTION
  2
CLASSES
  0
CLASS
  1
DICTIONARYVAR
  2
AcDbDictionaryVar
  3
ObjectDBX Classes
 90
        0
280
     0
281
     0
  0
CLASS
  1
RASTERVARIABLES
  2
AcDbRasterVariables
  3
ISM
 90
    32768
280
     0
281
     0
  0
CLASS
  1
ACDBDICTIONARYWDFLT
  2
AcDbDictionaryWithDefault
  3
ObjectDBX Classes
 90
        0
280
     0
281
     0
  0
CLASS
  1
ACDBPLACEHOLDER
  2
AcDbPlaceHolder
  3
ObjectDBX Classes
 90
        0
280
     0
281
     0
  0
CLASS
  1
LAYOUT
  2
AcDbLayout
  3
ObjectDBX Classes
 90
        0
280
     0
281
     0
  0
CLASS
  1
AEC_VARS_DWG_SETUP
  2
AecDbVarsDwgSetup
  3
AecBase
 90
    32897
280
     1
281
     0
  0
CLASS
  1
AEC_DISP_REP_MASS_ELEM_MODEL
  2
AecDbDispRepMassElemModel
  3
AecBase
 90
    32897
280
     1
281
     0
  0
CLASS
  1
AEC_DISP_PROPS_MASS_ELEM_MODEL
  2
AecDbDispPropsMassElem
  3
AecBase
 90
    32897
280
     1
281
     0
  0
CLASS
  1
AEC_DISP_REP_MASS_ELEM_SCHEM
  2
AecDbDispRepMassElemSchem
  3
AecBase
 90
    32897
280
     1
281
     0
  0
CLASS
  1
AEC_DISP_REP_DOOR_ELEV
  2
AecDbDispRepDoorElev
  3
AecArchBase
 90
    32897
280
     1
281
     0
  0
CLASS
  1
AEC_DISP_PROPS_DOOR
  2
AecDbDispPropsDoor
  3
AecArchBase
 90
    32897
280
     1
281
     0
  0
CLASS
  1
AEC_DISP_REP_MASKBLOCK_REF
  2
AecDbDispRepMaskBlockRef
  3
AecBase
 90
    32897
280
     1
281
     0
  0
CLASS
  1
AEC_DISP_PROPS_MASKBLOCK
  2
AecDbDispPropsMaskBlock
  3
AecBase
 90
    32897
280
     1
281
     0
  0
CLASS
  1
AEC_DISP_REP_LAYOUT_GRID3D
  2
AecDbDispRepLayoutGrid3d
  3
AecBase
 90
    32897
280
     1
281
     0
  0
CLASS
  1
AEC_DISP_PROPS_LAYOUT_GRID3D
  2
AecDbDispPropsLayoutGrid3d
  3
AecBase
 90
    32897
280
     1
281
     0
  0
CLASS
  1
AEC_DISP_REP_ENT_REF
  2
AecDbDispRepEntRef
  3
AecBase
 90
    32897
280
     1
281
     0
  0
CLASS
  1
AEC_DISP_PROPS_ENT_REF
  2
AecDbDispPropsEntRef
  3
AecBase
 90
    32897
280
     1
281
     0
  0
CLASS
  1
AEC_DISP_REP_CLIP_VOLUME_RESULT_SUBDIV
  2
AecDbDispRepClipVolResSubDiv
  3
AecBase
 90
    32897
280
     1
281
     0
  0
CLASS
  1
AEC_DISP_PROPS_CLIP_VOLUME_RESULT
  2
AecDbDispPropsClipVolResSubDiv
  3
AecBase
 90
    32897
280
     1
281
     0
  0
CLASS
  1
AEC_DISP_REP_CLIP_VOLUME_RESULT
  2
AecDbDispRepClipVolResult
  3
AecBase
 90
    32897
280
     1
281
     0
  0
CLASS
  1
AEC_DISP_REP_CLIP_VOLUME_PLAN
  2
AecDbDispRepClipVolPlan
  3
AecBase
 90
    32897
280
     1
281
     0
  0
CLASS
  1
AEC_DISP_PROPS_CLIP_VOLUME
  2
AecDbDispPropsClipVol
  3
AecBase
 90
    32897
280
     1
281
     0
  0
CLASS
  1
AEC_DISP_REP_CLIP_VOLUME_MODEL
  2
AecDbDispRepClipVolModel
  3
AecBase
 90
    32897
280
     1
281
     0
  0
CLASS
  1
AEC_DISP_REP_ANCHOR_ENT_TO_NODE
  2
AecDbDispRepAnchorEntToNode
  3
AecBase
 90
    32897
280
     1
281
     0
  0
CLASS
  1
AEC_DISP_PROPS_ENT
  2
AecDbDispPropsEnt
  3
AecBase
 90
    32897
280
     1
281
     0
  0
CLASS
  1
AEC_DISP_REP_LAYOUT_GRID2D
  2
AecDbDispRepLayoutGrid2d
  3
AecBase
 90
    32897
280
     1
281
     0
  0
CLASS
  1
AEC_DISP_PROPS_LAYOUT_GRID2D
  2
AecDbDispPropsLayoutGrid2d
  3
AecBase
 90
    32897
280
     1
281
     0
  0
CLASS
  1
AEC_DISP_REP_LAYOUT_CURVE
  2
AecDbDispRepLayoutCurve
  3
AecBase
 90
    32897
280
     1
281
     0
  0
CLASS
  1
AEC_DISP_PROPS_LAYOUT_CURVE
  2
AecDbDispPropsLayoutCurve
  3
AecBase
 90
    32897
280
     1
281
     0
  0
CLASS
  1
AEC_DISP_REP_ANCHOR
  2
AecDbDispRepAnchor
  3
AecBase
 90
    32897
280
     1
281
     0
  0
CLASS
  1
AEC_DISP_REP_CAMERA
  2
AecDbDispRepCamera
  3
AecBase
 90
    32897
280
     1
281
     0
  0
CLASS
  1
AEC_DISP_PROPS_CAMERA
  2
AecDbDispPropsCamera
  3
AecBase
 90
    32897
280
     1
281
     0
  0
CLASS
  1
AEC_DISP_REP_SLICE
  2
AecDbDispRepSlice
  3
AecBase
 90
    32897
280
     1
281
     0
  0
CLASS
  1
AEC_DISP_PROPS_SLICE
  2
AecDbDispPropsSlice
  3
AecBase
 90
    32897
280
     1
281
     0
  0
CLASS
  1
AEC_DISP_REP_MVBLOCK_REF
  2
AecDbDispRepMvBlockRef
  3
AecBase
 90
    32897
280
     1
281
     0
  0
CLASS
  1
AEC_DISP_REP_MVBLOCK_REF_MODEL
  2
AecDbDispRepMvBlockRefModel
  3
AecBase
 90
    32897
280
     1
281
     0
  0
CLASS
  1
AEC_DISP_REP_MASS_GROUP_MODEL
  2
AecDbDispRepMassGroupModel
  3
AecBase
 90
    32897
280
     1
281
     0
  0
CLASS
  1
AEC_DISP_PROPS_MASS_GROUP
  2
AecDbDispPropsMassGroup
  3
AecBase
 90
    32897
280
     1
281
     0
  0
CLASS
  1
AEC_DISP_REP_MASS_GROUP_PLAN
  2
AecDbDispRepMassGroupPlan
  3
AecBase
 90
    32897
280
     1
281
     0
  0
CLASS
  1
AEC_DISP_REP_DOOR_RCP
  2
AecDbDispRepDoorRcp
  3
AecArchBase
 90
    32897
280
     1
281
     0
  0
CLASS
  1
AEC_DISP_REP_DOOR_NOMINAL
  2
AecDbDispRepDoorNominal
  3
AecArchBase
 90
    32897
280
     1
281
     0
  0
CLASS
  1
AEC_DISP_PROPS_DOOR_NOMINAL
  2
AecDbDispPropsDoorNominal
  3
AecArchBase
 90
    32897
280
     1
281
     0
  0
CLASS
  1
AEC_DISP_REP_DOOR_PLAN
  2
AecDbDispRepDoorPlan
  3
AecArchBase
 90
    32897
280
     1
281
     0
  0
CLASS
  1
AEC_DISP_REP_DOOR_MODEL
  2
AecDbDispRepDoorModel
  3
AecArchBase
 90
    32897
280
     1
281
     0
  0
CLASS
  1
AEC_DISP_REP_MVBLOCK_REF_RCP
  2
AecDbDispRepMvBlockRefRcp
  3
AecArchBase
 90
    32897
280
     1
281
     0
  0
CLASS
  1
AEC_DISP_REP_MASS_GROUP_RCP
  2
AecDbDispRepMassGroupRcp
  3
AecArchBase
 90
    32897
280
     1
281
     0
  0
CLASS
  1
AEC_DISP_REP_MASS_ELEM_RCP
  2
AecDbDispRepMassElemRcp
  3
AecArchBase
 90
    32897
280
     1
281
     0
  0
CLASS
  1
AEC_DISP_REP_MASKBLOCK_REF_RCP
  2
AecDbDispRepMaskBlockRefRcp
  3
AecArchBase
 90
    32897
280
     1
281
     0
  0
CLASS
  1
AEC_DISP_REP_COLUMN_GRID_RCP
  2
AecDbDispRepColumnGridRcp
  3
AecArchBase
 90
    32897
280
     1
281
     0
  0
CLASS
  1
AEC_DISP_REP_COLUMN_GRID_MODEL
  2
AecDbDispRepColumnGridModel
  3
AecArchBase
 90
    32897
280
     1
281
     0
  0
CLASS
  1
AEC_DISP_REP_COLUMN_GRID
  2
AecDbDispRepColumnGrid
  3
AecArchBase
 90
    32897
280
     1
281
     0
  0
CLASS
  1
AEC_DISP_REP_CEILING_GRID_RCP
  2
AecDbDispRepCeilingGridRcp
  3
AecArchBase
 90
    32897
280
     1
281
     0
  0
CLASS
  1
AEC_DISP_REP_CEILING_GRID_MODEL
  2
AecDbDispRepCeilingGridModel
  3
AecArchBase
 90
    32897
280
     1
281
     0
  0
CLASS
  1
AEC_DISP_REP_CEILING_GRID
  2
AecDbDispRepCeilingGrid
  3
AecArchBase
 90
    33661
280
     1
281
     0
  0
CLASS
  1
AEC_DISP_REP_BDG_SECTION_SUBDIV
  2
AecDbDispRepBdgSectionSubDiv
  3
AecArchBase
 90
    32897
280
     1
281
     0
  0
CLASS
  1
AEC_DISP_REP_BDG_SECTION_MODEL
  2
AecDbDispRepBdgSectionModel
  3
AecArchBase
 90
    32897
280
     1
281
     0
  0
CLASS
  1
AEC_DISP_REP_BDG_SECTIONLINE_RCP
  2
AecDbDispRepBdgSectionLineRcp
  3
AecArchBase
 90
    32897
280
     1
281
     0
  0
CLASS
  1
AEC_DISP_REP_BDG_SECTIONLINE_PLAN
  2
AecDbDispRepBdgSectionLinePlan
  3
AecArchBase
 90
    32897
280
     1
281
     0
  0
CLASS
  1
AEC_DISP_REP_BDG_ELEVLINE_RCP
  2
AecDbDispRepBdgElevLineRcp
  3
AecArchBase
 90
    32897
280
     1
281
     0
  0
CLASS
  1
AEC_DISP_REP_BDG_ELEVLINE_PLAN
  2
AecDbDispRepBdgElevLinePlan
  3
AecArchBase
 90
    32897
280
     1
281
     0
  0
CLASS
  1
AEC_DISP_REP_BDG_SECTIONLINE_MODEL
  2
AecDbDispRepBdgSectionLineModel
  3
AecArchBase
 90
    32897
280
     1
281
     0
  0
CLASS
  1
AEC_DISP_REP_BDG_ELEVLINE_MODEL
  2
AecDbDispRepBdgElevLineModel
  3
AecArchBase
 90
    32897
280
     1
281
     0
  0
CLASS
  1
AEC_DISP_REP_ANCHOR_BUB_TO_GRID_RCP
  2
AecDbDispRepAnchorBubToGridRcp
  3
AecArchBase
 90
    32897
280
     1
281
     0
  0
CLASS
  1
AEC_DISP_REP_ANCHOR_BUB_TO_GRID_MODEL
  2
AecDbDispRepAnchorBubToGridMdl
  3
AecArchBase
 90
    32897
280
     1
281
     0
  0
CLASS
  1
AEC_DISP_REP_ANCHOR_BUB_TO_GRID
  2
AecDbDispRepAnchorBubToGrid
  3
AecArchBase
 90
    32897
280
     1
281
     0
  0
CLASS
  1
AEC_DISP_REP_WINDOW_RCP
  2
AecDbDispRepWindowRcp
  3
AecArchBase
 90
    32897
280
     1
281
     0
  0
CLASS
  1
AEC_DISP_PROPS_WINDOW
  2
AecDbDispPropsWindow
  3
AecArchBase
 90
    32897
280
     1
281
     0
  0
CLASS
  1
AEC_DISP_REP_ROOF_RCP
  2
AecDbDispRepRoofRcp
  3
AecArchBase
 90
    32897
280
     1
281
     0
  0
CLASS
  1
AEC_DISP_PROPS_ROOF
  2
AecDbDispPropsRoof
  3
AecArchBase
 90
    32897
280
     1
281
     0
  0
CLASS
  1
AEC_DISP_REP_ROOF_PLAN
  2
AecDbDispRepRoofPlan
  3
AecArchBase
 90
    32897
280
     1
281
     0
  0
CLASS
  1
AEC_DISP_REP_WINDOW_SILL_PLAN
  2
AecDbDispRepWindowSillPlan
  3
AecArchBase
 90
    32897
280
     1
281
     0
  0
CLASS
  1
AEC_DISP_PROPS_WINDOW_SILL_PLAN
  2
AecDbDispPropsWindowSillPlan
  3
AecArchBase
 90
    32897
280
     1
281
     0
  0
CLASS
  1
AEC_DISP_REP_SPACE_PLAN
  2
AecDbDispRepSpacePlan
  3
AecArchBase
 90
    32897
280
     1
281
     0
  0
CLASS
  1
AEC_DISP_PROPS_SPACE_PLAN
  2
AecDbDispPropsSpacePlan
  3
AecArchBase
 90
    32897
280
     1
281
     0
  0
CLASS
  1
AEC_DISP_REP_SPACE_MODEL
  2
AecDbDispRepSpaceModel
  3
AecArchBase
 90
    32897
280
     1
281
     0
  0
CLASS
  1
AEC_DISP_PROPS_SPACE_MODEL
  2
AecDbDispPropsSpaceModel
  3
AecArchBase
 90
    32897
280
     1
281
     0
  0
CLASS
  1
AEC_DISP_REP_WINDOW_MODEL
  2
AecDbDispRepWindowModel
  3
AecArchBase
 90
    32897
280
     1
281
     0
  0
CLASS
  1
AEC_DISP_REP_WINDOW_NOMINAL
  2
AecDbDispRepWindowNominal
  3
AecArchBase
 90
    32897
280
     1
281
     0
  0
CLASS
  1
AEC_DISP_PROPS_WINDOW_NOMINAL
  2
AecDbDispPropsWindowNominal
  3
AecArchBase
 90
    32897
280
     1
281
     0
  0
CLASS
  1
AEC_DISP_REP_OPENING
  2
AecDbDispRepOpening
  3
AecArchBase
 90
    32897
280
     1
281
     0
  0
CLASS
  1
AEC_DISP_PROPS_OPENING
  2
AecDbDispPropsOpening
  3
AecArchBase
 90
    32897
280
     1
281
     0
  0
CLASS
  1
AEC_DISP_REP_OPENING_MODEL
  2
AecDbDispRepOpeningModel
  3
AecArchBase
 90
    32897
280
     1
281
     0
  0
CLASS
  1
AEC_DISP_REP_RAILING_PLAN
  2
AecDbDispRepRailingPlan
  3
AecArchBase
 90
    32897
280
     1
281
     0
  0
CLASS
  1
AEC_DISP_PROPS_RAILING_PLAN
  2
AecDbDispPropsRailingPlan
  3
AecArchBase
 90
    32897
280
     1
281
     0
  0
CLASS
  1
AEC_DISP_REP_RAILING_MODEL
  2
AecDbDispRepRailingModel
  3
AecArchBase
 90
    32897
280
     1
281
     0
  0
CLASS
  1
AEC_DISP_PROPS_RAILING_MODEL
  2
AecDbDispPropsRailingModel
  3
AecArchBase
 90
    32897
280
     1
281
     0
  0
CLASS
  1
AEC_DISP_REP_WINDOW_ELEV
  2
AecDbDispRepWindowElev
  3
AecArchBase
 90
    32897
280
     1
281
     0
  0
CLASS
  1
AEC_DISP_REP_DOOR_THRESHOLD_PLAN
  2
AecDbDispRepDoorThresholdPlan
  3
AecArchBase
 90
    32897
280
     1
281
     0
  0
CLASS
  1
AEC_DISP_PROPS_DOOR_THRESHOLD_PLAN
  2
AecDbDispPropsDoorThresholdPlan
  3
AecArchBase
 90
    32897
280
     1
281
     0
  0
CLASS
  1
AEC_DISP_REP_ROOF_MODEL
  2
AecDbDispRepRoofModel
  3
AecArchBase
 90
    32897
280
     1
281
     0
  0
CLASS
  1
AEC_DISP_REP_WINDOW_PLAN
  2
AecDbDispRepWindowPlan
  3
AecArchBase
 90
    32897
280
     1
281
     0
  0
CLASS
  1
AEC_DISP_REP_WALL_SCHEM
  2
AecDbDispRepWallSchem
  3
AecArchBase
 90
    32897
280
     1
281
     0
  0
CLASS
  1
AEC_DISP_PROPS_WALL_SCHEM
  2
AecDbDispPropsWallSchem
  3
AecArchBase
 90
    32897
280
     1
281
     0
  0
CLASS
  1
AEC_DISP_REP_WALL_RCP
  2
AecDbDispRepWallRcp
  3
AecArchBase
 90
    32897
280
     1
281
     0
  0
CLASS
  1
AEC_DISP_PROPS_WALL_PLAN
  2
AecDbDispPropsWallPlan
  3
AecArchBase
 90
    32897
280
     1
281
     0
  0
CLASS
  1
AEC_DISP_REP_WALL_PLAN
  2
AecDbDispRepWallPlan
  3
AecArchBase
 90
    32897
280
     1
281
     0
  0
CLASS
  1
AEC_DISP_REP_WALL_MODEL
  2
AecDbDispRepWallModel
  3
AecArchBase
 90
    32897
280
     1
281
     0
  0
CLASS
  1
AEC_DISP_PROPS_WALL
  2
AecDbDispPropsWall
  3
AecArchBase
 90
    32897
280
     1
281
     0
  0
CLASS
  1
AEC_DISP_REP_WALL_GRAPH
  2
AecDbDispRepWallGraph
  3
AecArchBase
 90
    32897
280
     1
281
     0
  0
CLASS
  1
AEC_DISP_REP_STAIR_RCP
  2
AecDbDispRepStairRcp
  3
AecArchBase
 90
    32897
280
     1
281
     0
  0
CLASS
  1
AEC_DISP_PROPS_STAIR_PLAN
  2
AecDbDispPropsStairPlan
  3
AecArchBase
 90
    32897
280
     1
281
     0
  0
CLASS
  1
AEC_DISP_REP_STAIR_PLAN
  2
AecDbDispRepStairPlan
  3
AecArchBase
 90
    32897
280
     1
281
     0
  0
CLASS
  1
AEC_DISP_REP_STAIR_MODEL
  2
AecDbDispRepStairModel
  3
AecArchBase
 90
    32897
280
     1
281
     0
  0
CLASS
  1
AEC_DISP_PROPS_STAIR_MODEL
  2
AecDbDispPropsStairModel
  3
AecArchBase
 90
    32897
280
     1
281
     0
  0
CLASS
  1
AEC_DISP_REP_SPACE_BOUNDARY_SCHEM
  2
AecDbDispRepSpaceBoundarySketch
  3
AecArchBase
 90
    32897
280
     1
281
     0
  0
CLASS
  1
AEC_DISP_REP_SPACE_BOUNDARY_PLAN
  2
AecDbDispRepSpaceBoundaryPlan
  3
AecArchBase
 90
    32897
280
     1
281
     0
  0
CLASS
  1
AEC_DISP_REP_SPACE_BOUNDARY_MODEL
  2
AecDbDispRepSpaceBoundaryModel
  3
AecArchBase
 90
    32897
280
     1
281
     0
  0
CLASS
  1
AEC_DISP_REP_SPACE_BOUNDARY_DIAGRAM
  2
AecDbDispRepSpaceBoundaryDgrm
  3
AecArchBase
 90
    32897
280
     1
281
     0
  0
CLASS
  1
AEC_DISP_REP_SPACE_VOLUME
  2
AecDbDispRepSpaceVolume
  3
AecArchBase
 90
    32897
280
     1
281
     0
  0
CLASS
  1
AEC_DISP_REP_SPACE_RCP
  2
AecDbDispRepSpaceRcp
  3
AecArchBase
 90
    32897
280
     1
281
     0
  0
CLASS
  1
AEC_DISP_REP_ANCHOR_TAG_TO_ENT
  2
AecDbDispRepAnchorTagToEnt
  3
AecScheduleData
 90
    32897
280
     1
281
     0
  0
CLASS
  1
AEC_DISP_REP_SCHEDULE_TABLE
  2
AecDbDispRepScheduleTable
  3
AecSchedule
 90
    32897
280
     1
281
     0
  0
CLASS
  1
AEC_DISP_PROPS_SCHEDULE_TABLE
  2
AecDbDispPropsScheduleTable
  3
AecSchedule
 90
    32897
280
     1
281
     0
  0
CLASS
  1
AEC_DISP_REP_SET
  2
AecDbDispRepSet
  3
AecBase
 90
    32897
280
     1
281
     0
  0
CLASS
  1
AEC_DISP_REP_CONFIG
  2
AecDbDispRepConfig
  3
AecBase
 90
    32897
280
     1
281
     0
  0
CLASS
  1
TABLESTYLE
  2
AcDbTableStyle
  3
ObjectDBX Classes
 90
     4095
280
     0
281
     0
  0
CLASS
  1
MATERIAL
  2
AcDbMaterial
  3
ObjectDBX Classes
 90
     1153
280
     0
281
     0
  0
CLASS
  1
VISUALSTYLE
  2
AcDbVisualStyle
  3
ObjectDBX Classes
 90
     4095
280
     0
281
     0
  0
CLASS
  1
SCALE
  2
AcDbScale
  3
ObjectDBX Classes
 90
     1153
280
     0
281
     0
  0
CLASS
  1
MLEADERSTYLE
  2
AcDbMLeaderStyle
  3
ACDB_MLEADERSTYLE_CLASS
 90
    36863
280
     0
281
     0
  0
CLASS
  1
ACDBSECTIONVIEWSTYLE
  2
AcDbSectionViewStyle
  3
ObjectDBX Classes
 90
    33793
280
     0
281
     0
  0
CLASS
  1
ACDBDETAILVIEWSTYLE
  2
AcDbDetailViewStyle
  3
ObjectDBX Classes
 90
    33793
280
     0
281
     0
  0
CLASS
  1
CELLSTYLEMAP
  2
AcDbCellStyleMap
  3
ObjectDBX Classes
 90
     1152
280
     0
281
     0
  0
ENDSEC
  0
SECTION
  2
TABLES
  0
TABLE
  2
VPORT
  5
2F
330
0
100
AcDbSymbolTable
 70
     1
  0
VPORT
  5
30
330
2F
100
AcDbSymbolTableRecord
100
AcDbViewportTableRecord
  2
*Active
 70
     0
 10
0.0
 20
0.0
 11
1.0
 21
1.0
 12
189.5698033668725
 22
70.04786590388381
 13
0.0
 23
0.0
 14
1.0
 24
1.0
 15
0.0
 25
0.0
 16
0.0
 26
0.0
 36
1.0
 17
0.0
 27
0.0
 37
0.0
 40
416.567797484527
 41
2.043307086614173
 42
50.0
 43
0.0
 44
0.0
 50
0.0
 51
0.0
 71
     0
 72
 20000
 73
     1
 74
     1
 75
     0
 76
     0
 77
     0
 78
     0
281
     0
 65
     1
110
0.0
120
0.0
130
0.0
111
1.0
121
0.0
131
0.0
112
0.0
122
1.0
132
0.0
 79
     0
146
0.0
1001
ACAD_NAV_VCDISPLAY
1070
     3
  0
ENDTAB
  0
TABLE
  2
LTYPE
  5
2A
330
0
100
AcDbSymbolTable
 70
     1
  0
LTYPE
  5
2B
330
2A
100
AcDbSymbolTableRecord
100
AcDbLinetypeTableRecord
  2
BYBLOCK
 70
     0
  3

 72
    65
 73
     0
 40
0.0
  0
LTYPE
  5
2C
330
2A
100
AcDbSymbolTableRecord
100
AcDbLinetypeTableRecord
  2
BYLAYER
 70
     0
  3

 72
    65
 73
     0
 40
0.0
  0
LTYPE
  5
14
330
2A
100
AcDbSymbolTableRecord
100
AcDbLinetypeTableRecord
  2
CONTINUOUS
 70
     0
  3
Solid line
 72
    65
 73
     0
 40
0.0
  0
ENDTAB
  0
TABLE
  2
LAYER
  5
26
330
0
100
AcDbSymbolTable
 70
     6
  0
LAYER
  5
6
330
26
100
AcDbSymbolTableRecord
100
AcDbLayerTableRecord
  2
0
 70
     0
 62
     7
  6
CONTINUOUS
370
    -3
390
7
  0
LAYER
  5
192
330
26
100
AcDbSymbolTableRecord
100
AcDbLayerTableRecord
  2
DEFPOINTS
 70
     0
 62
     7
  6
CONTINUOUS
290
     0
370
    -3
390
7
  0
LAYER
  5
187
330
26
100
AcDbSymbolTableRecord
100
AcDbLayerTableRecord
  2
SUNPOU
 70
     0
 62
    70
  6
CONTINUOUS
370
    -3
390
7
  0
LAYER
  5
63
330
26
100
AcDbSymbolTableRecord
100
AcDbLayerTableRecord
  2
KIJUN
 70
     0
 62
     7
  6
CONTINUOUS
370
    -3
390
7
  0
LAYER
  5
1AA
330
26
100
AcDbSymbolTableRecord
100
AcDbLayerTableRecord
  2
HOJO
 70
     0
 62
     3
  6
CONTINUOUS
370
    -3
390
7
  0
LAYER
  5
1AC
330
26
100
AcDbSymbolTableRecord
100
AcDbLayerTableRecord
  2
WAKU
 70
     0
 62
     1
  6
CONTINUOUS
370
    -3
390
7
  0
ENDTAB
  0
TABLE
  2
STYLE
  5
27
330
0
100
AcDbSymbolTable
 70
     3
  0
STYLE
  5
28
330
27
100
AcDbSymbolTableRecord
100
AcDbTextStyleTableRecord
  2
STANDARD
 70
     0
 40
0.0
 41
1.0
 50
0.0
 71
     0
 42
0.2
  3
txt
  4

  0
STYLE
  5
4C
330
27
100
AcDbSymbolTableRecord
100
AcDbTextStyleTableRecord
  2
SUNPOU
 70
     0
 40
0.0
 41
1.0
 50
0.0
 71
     0
 42
30.0
  3
txt
  4
bigfont
  0
STYLE
  5
190
330
27
100
AcDbSymbolTableRecord
100
AcDbTextStyleTableRecord
  2
LIFE
 70
     0
 40
0.0
 41
0.7
 50
0.0
 71
     0
 42
10.0
  3
romans
  4
extfont
  0
ENDTAB
  0
TABLE
  2
VIEW
  5
2D
330
0
100
AcDbSymbolTable
 70
     0
  0
ENDTAB
  0
TABLE
  2
UCS
  5
2E
330
0
100
AcDbSymbolTable
 70
     0
  0
ENDTAB
  0
TABLE
  2
APPID
  5
34
330
0
100
AcDbSymbolTable
 70
     2
  0
APPID
  5
A
330
34
100
AcDbSymbolTableRecord
100
AcDbRegAppTableRecord
  2
ACAD
 70
     0
  0
APPID
  5
33
330
34
100
AcDbSymbolTableRecord
100
AcDbRegAppTableRecord
  2
ACAD_NAV_VCDISPLAY
 70
     0
  0
ENDTAB
  0
TABLE
  2
DIMSTYLE
  5
35
330
0
100
AcDbSymbolTable
 70
     3
100
AcDbDimStyleTable
 71
     2
340
36
340
3B
  0
DIMSTYLE
105
36
330
35
100
AcDbSymbolTableRecord
100
AcDbDimStyleTableRecord
  2
STANDARD
 70
     0
 41
3.0
 42
2.0
 44
0.0
 73
     0
 74
     0
 77
     1
140
2.799999999999998
141
1.0
146
0.0642857142857143
147
1.0
173
     1
174
     1
176
    60
177
    70
178
    60
271
     0
340
28
341
37
343
37
344
37
  0
DIMSTYLE
105
196
102
{ACAD_REACTORS
330
186
330
19C
102
}
330
35
100
AcDbSymbolTableRecord
100
AcDbDimStyleTableRecord
  2
STANDARD$0
 70
     0
 40
2.0
 41
1.0
 42
2.0
 43
0.0
 44
1.0
 73
     0
 74
     0
 77
     3
 78
     9
140
4.5
141
0.0
147
1.0
172
     1
173
     1
178
     3
271
     2
340
190
341
197
343
197
344
197
  0
DIMSTYLE
105
3B
330
35
100
AcDbSymbolTableRecord
100
AcDbDimStyleTableRecord
  2
1
 70
     0
 41
3.0
 42
2.0
 44
0.0
 73
     0
 74
     0
 77
     1
140
7.0
141
1.0
146
0.0642857142857143
147
1.0
173
     1
174
     1
176
    60
177
    70
178
    60
271
     0
340
28
341
37
343
37
344
37
  0
ENDTAB
  0
TABLE
  2
BLOCK_RECORD
  5
1
330
0
100
AcDbSymbolTable
 70
     4
  0
BLOCK_RECORD
  5
2
102
{ACAD_XDICTIONARY
360
3
102
}
330
1
100
AcDbSymbolTableRecord
100
AcDbBlockTableRecord
  2
*MODEL_SPACE
340
1E
  0
BLOCK_RECORD
  5
20
102
{ACAD_XDICTIONARY
360
21
102
}
330
1
100
AcDbSymbolTableRecord
100
AcDbBlockTableRecord
  2
*PAPER_SPACE
340
25
  0
BLOCK_RECORD
  5
37
330
1
100
AcDbSymbolTableRecord
100
AcDbBlockTableRecord
  2
_DOTSMALL
340
0
102
{BLKREFS
331
18D
331
18E
331
1A2
331
1A3
102
}
  0
BLOCK_RECORD
  5
197
330
1
100
AcDbSymbolTableRecord
100
AcDbBlockTableRecord
  2
_DOT
340
0
  0
BLOCK_RECORD
  5
19D
330
1
100
AcDbSymbolTableRecord
100
AcDbBlockTableRecord
  2
*D2
340
0
  0
BLOCK_RECORD
  5
188
330
1
100
AcDbSymbolTableRecord
100
AcDbBlockTableRecord
  2
*D3
340
0
  0
ENDTAB
  0
ENDSEC
  0
SECTION
  2
BLOCKS
  0
BLOCK
  5
5
330
2
100
AcDbEntity
  8
0
100
AcDbBlockBegin
  2
*MODEL_SPACE
 70
     0
 10
0.0
 20
0.0
 30
0.0
  3
*MODEL_SPACE
  1

  0
ENDBLK
  5
1D
330
2
100
AcDbEntity
  8
0
100
AcDbBlockEnd
  0
BLOCK
  5
23
330
20
100
AcDbEntity
 67
     1
  8
0
100
AcDbBlockBegin
  2
*PAPER_SPACE
 70
     0
 10
0.0
 20
0.0
 30
0.0
  3
*PAPER_SPACE
  1

  0
ENDBLK
  5
24
330
20
100
AcDbEntity
 67
     1
  8
0
100
AcDbBlockEnd
  0
BLOCK
  5
38
330
37
100
AcDbEntity
  8
0
100
AcDbBlockBegin
  2
_DOTSMALL
 70
     0
 10
0.0
 20
0.0
 30
0.0
  3
_DOTSMALL
  1

  0
LWPOLYLINE
  5
39
330
37
100
AcDbEntity
  8
0
  6
ByBlock
 62
     0
100
AcDbPolyline
 90
        2
 70
     1
 43
0.5
 10
-0.0625
 20
0.0
 42
1.0
 10
0.0625
 20
0.0
 42
1.0
  0
ENDBLK
  5
3A
330
37
100
AcDbEntity
  8
0
100
AcDbBlockEnd
  0
BLOCK
  5
198
330
197
100
AcDbEntity
  8
0
100
AcDbBlockBegin
  2
_DOT
 70
     0
 10
0.0
 20
0.0
 30
0.0
  3
_DOT
  1

  0
LWPOLYLINE
  5
199
330
197
100
AcDbEntity
  8
0
  6
ByBlock
 62
     0
100
AcDbPolyline
 90
        2
 70
     1
 43
0.5
 10
-0.25
 20
0.0
 42
1.0
 10
0.25
 20
0.0
 42
1.0
  0
LINE
  5
19A
330
197
100
AcDbEntity
  8
0
  6
ByBlock
 62
     0
100
AcDbLine
 10
-0.5
 20
0.0
 30
0.0
 11
-1.0
 21
0.0
 31
0.0
  0
ENDBLK
  5
19B
330
197
100
AcDbEntity
  8
0
100
AcDbBlockEnd
  0
BLOCK
  5
19E
330
19D
100
AcDbEntity
  8
0
 62
     7
100
AcDbBlockBegin
  2
*D2
 70
     1
 10
0.0
 20
0.0
 30
0.0
  3
*D2
  1

  0
LINE
  5
19F
330
19D
100
AcDbEntity
  8
SUNPOU
 62
    70
370
    -2
100
AcDbLine
 10
22.8357449297971
 20
61.39502551071911
 30
0.0
 11
22.8357449297971
 21
69.39008819992825
 31
0.0
  0
LINE
  5
1A0
330
19D
100
AcDbEntity
  8
SUNPOU
 62
    70
370
    -2
100
AcDbLine
 10
56.8357449297971
 20
61.39502551071911
 30
0.0
 11
56.8357449297971
 21
69.39008819992825
 31
0.0
  0
LINE
  5
1A1
330
19D
100
AcDbEntity
  8
SUNPOU
 62
    60
370
    -2
100
AcDbLine
 10
22.8357449297971
 20
69.39008819992825
 30
0.0
 11
56.8357449297971
 21
69.39008819992825
 31
0.0
  0
INSERT
  5
1A2
330
19D
100
AcDbEntity
  8
SUNPOU
 62
    60
370
    -2
100
AcDbBlockReference
  2
_DOTSMALL
 10
22.8357449297971
 20
69.39008819992825
 30
0.0
 41
4.0
 42
4.0
 43
4.0
 50
180.0
  0
INSERT
  5
1A3
330
19D
100
AcDbEntity
  8
SUNPOU
 62
    60
370
    -2
100
AcDbBlockReference
  2
_DOTSMALL
 10
56.8357449297971
 20
69.39008819992825
 30
0.0
 41
4.0
 42
4.0
 43
4.0
  0
MTEXT
  5
1A4
330
19D
100
AcDbEntity
  8
SUNPOU
 62
    60
100
AcDbMText
 10
39.8357449297971
 20
74.39008819992825
 30
0.0
 40
6.0
 41
0.0
 71
     5
 72
     1
  1
\A1;34
  7
LIFE
 73
     1
 44
1.0
1001
ACAD
1000
MTEXTBEGIN
1070
    73
1070
     1
1070
    44
1040
1.0
1070
    74
1070
     0
1000
MTEXTEND
  0
POINT
  5
1A5
330
19D
100
AcDbEntity
  8
DEFPOINTS
 62
     0
100
AcDbPoint
 10
22.8357449297971
 20
57.39502551071911
 30
0.0
  0
POINT
  5
1A6
330
19D
100
AcDbEntity
  8
DEFPOINTS
 62
     0
100
AcDbPoint
 10
56.8357449297971
 20
57.39502551071911
 30
0.0
  0
POINT
  5
1A7
330
19D
100
AcDbEntity
  8
DEFPOINTS
 62
     0
100
AcDbPoint
 10
56.8357449297971
 20
69.39008819992825
 30
0.0
  0
ENDBLK
  5
1A8
330
19D
100
AcDbEntity
  8
0
 62
     7
100
AcDbBlockEnd
  0
BLOCK
  5
189
330
188
100
AcDbEntity
  8
0
 62
     7
100
AcDbBlockBegin
  2
*D3
 70
     1
 10
0.0
 20
0.0
 30
0.0
  3
*D3
  1

  0
LINE
  5
18A
330
188
100
AcDbEntity
  8
SUNPOU
 62
    70
370
    -2
100
AcDbLine
 10
18.8357449297971
 20
24.39502551071911
 30
0.0
 11
10.43984598649307
 21
24.39502551071911
 31
0.0
  0
LINE
  5
18B
330
188
100
AcDbEntity
  8
SUNPOU
 62
    70
370
    -2
100
AcDbLine
 10
18.8357449297971
 20
57.39502551071911
 30
0.0
 11
10.43984598649308
 21
57.39502551071911
 31
0.0
  0
LINE
  5
18C
330
188
100
AcDbEntity
  8
SUNPOU
 62
    60
370
    -2
100
AcDbLine
 10
10.43984598649307
 20
24.39502551071911
 30
0.0
 11
10.43984598649308
 21
57.39502551071911
 31
0.0
  0
INSERT
  5
18D
330
188
100
AcDbEntity
  8
SUNPOU
 62
    60
370
    -2
100
AcDbBlockReference
  2
_DOTSMALL
 10
10.43984598649307
 20
24.39502551071911
 30
0.0
 41
4.0
 42
4.0
 43
4.0
 50
270.0
  0
INSERT
  5
18E
330
188
100
AcDbEntity
  8
SUNPOU
 62
    60
370
    -2
100
AcDbBlockReference
  2
_DOTSMALL
 10
10.43984598649308
 20
57.39502551071911
 30
0.0
 41
4.0
 42
4.0
 43
4.0
 50
90.0
  0
MTEXT
  5
18F
330
188
100
AcDbEntity
  8
SUNPOU
 62
    60
100
AcDbMText
 10
5.439845986493074
 20
40.89502551071911
 30
0.0
 40
6.0
 41
0.0
 71
     5
 72
     1
  1
\A1;33
  7
LIFE
 11
0.0000000000000001
 21
1.0
 31
0.0
 73
     1
 44
1.0
1001
ACAD
1000
MTEXTBEGIN
1070
    73
1070
     1
1070
    44
1040
1.0
1070
    74
1070
     0
1000
MTEXTEND
  0
POINT
  5
191
330
188
100
AcDbEntity
  8
DEFPOINTS
 62
     0
100
AcDbPoint
 10
22.8357449297971
 20
24.39502551071911
 30
0.0
  0
POINT
  5
193
330
188
100
AcDbEntity
  8
DEFPOINTS
 62
     0
100
AcDbPoint
 10
22.8357449297971
 20
57.39502551071911
 30
0.0
  0
POINT
  5
194
330
188
100
AcDbEntity
  8
DEFPOINTS
 62
     0
100
AcDbPoint
 10
10.43984598649308
 20
57.39502551071911
 30
0.0
  0
ENDBLK
  5
195
330
188
100
AcDbEntity
  8
0
 62
     7
100
AcDbBlockEnd
  0
ENDSEC
  0
SECTION
  2
ENTITIES
  0
SPLINE
  5
62
330
2
100
AcDbEntity
  8
KIJUN
 62
     7
100
AcDbSpline
210
0.0
220
0.0
230
1.0
 70
     8
 71
     3
 72
     8
 73
     4
 74
     0
 42
0.000000001
 43
0.0000000001
 40
4.077818511621876
 40
4.077818511621876
 40
4.077818511621876
 40
4.077818511621876
 40
45.59176721917093
 40
45.59176721917093
 40
45.59176721917093
 40
45.59176721917093
 10
272.4993221218332
 20
37.96846962244132
 30
0.0
 10
286.3325213901594
 20
38.33229487324803
 30
0.0
 10
300.165720658485
 20
38.69612012405451
 30
0.0
 10
314.2966223041562
 20
35.68754982550404
 30
0.0
  0
SPLINE
  5
64
330
2
100
AcDbEntity
  8
KIJUN
 62
     7
100
AcDbSpline
210
0.0
220
0.0
230
1.0
 70
     8
 71
     3
 72
     8
 73
     4
 74
     0
 42
0.000000001
 43
0.0000000001
 40
0.0
 40
0.0
 40
0.0
 40
0.0
 40
45.23866278161221
 40
45.23866278161221
 40
45.23866278161221
 40
45.23866278161221
 10
269.9491650664348
 20
38.31890169556692
 30
0.0
 10
284.186215148889
 20
39.27938623256461
 30
0.0
 10
299.0034983671289
 20
39.84901414968664
 30
0.0
 10
314.2966223041558
 20
36.92624897558136
 30
0.0
  0
SPLINE
  5
65
330
2
100
AcDbEntity
  8
KIJUN
 62
     7
100
AcDbSpline
210
0.0
220
0.0
230
1.0
 70
    24
 71
     3
 72
     8
 73
     4
 74
     0
 42
0.000000001
 43
0.0000000001
 40
4.077818511621876
 40
4.077818511621876
 40
4.077818511621876
 40
4.077818511621876
 40
45.59176721917063
 40
45.59176721917063
 40
45.59176721917063
 40
45.59176721917063
 10
352.4993221218333
 20
37.96846962244132
 30
0.0
 10
366.332521390159
 20
38.33229487324803
 30
0.0
 10
380.1657206584846
 20
38.69612012405451
 30
0.0
 10
393.9989199268105
 20
39.059945374861
 30
0.0
  0
SPLINE
  5
66
330
2
100
AcDbEntity
  8
KIJUN
 62
     7
100
AcDbSpline
210
0.0
220
0.0
230
1.0
 70
     8
 71
     3
 72
     8
 73
     4
 74
     0
 42
0.000000001
 43
0.0000000001
 40
0.0
 40
0.0
 40
0.0
 40
0.0
 40
45.23866278161301
 40
45.23866278161301
 40
45.23866278161301
 40
45.23866278161301
 10
349.9491650664349
 20
38.31890169556692
 30
0.0
 10
364.186215148889
 20
39.27938623256461
 30
0.0
 10
379.0034983671293
 20
39.84901414968686
 30
0.0
 10
393.9989199268116
 20
40.29864452493852
 30
0.0
  0
LWPOLYLINE
  5
67
330
2
100
AcDbEntity
  8
KIJUN
 62
     7
100
AcDbPolyline
 90
        8
 70
     1
 43
0.0
 10
136.9989199268106
 20
52.14041655696433
 10
130.9989199268106
 20
52.14041655696433
 42
-0.4142135623730951
 10
129.9989199268106
 20
53.14041655696434
 10
129.9989199268106
 20
55.14041655696434
 42
-0.4142135623730951
 10
130.9989199268106
 20
56.14041655696434
 10
136.9989199268106
 20
56.14041655696434
 42
-0.4142135623730951
 10
137.9989199268106
 20
55.14041655696434
 10
137.9989199268106
 20
53.14041655696434
 42
-0.4142135623730951
  0
LINE
  5
68
330
2
100
AcDbEntity
  8
KIJUN
 62
     7
100
AcDbLine
 10
139.9933692577892
 20
40.81312273122222
 30
0.0
 11
115.0729310954543
 21
39.50552820389913
 31
0.0
  0
LINE
  5
69
330
2
100
AcDbEntity
  8
KIJUN
 62
     7
100
AcDbLine
 10
113.801279602349
 20
28.07200654424451
 30
0.0
 11
131.9000065415816
 21
28.34735497933917
 31
0.0
  0
LINE
  5
6A
330
2
100
AcDbEntity
  8
KIJUN
 62
     7
100
AcDbLine
 10
128.1357892962183
 20
44.20922678799189
 30
0.0
 11
139.8355058957076
 21
47.84204507471559
 31
0.0
  0
LINE
  5
6B
330
2
100
AcDbEntity
  8
KIJUN
 62
     7
100
AcDbLine
 10
127.1435842442401
 20
43.39777529309077
 30
0.0
 11
140.827710947682
 21
46.57978003270119
 31
0.0
  0
LINE
  5
6C
330
2
100
AcDbEntity
  8
KIJUN
 62
     7
100
AcDbLine
 10
127.6586944616947
 20
43.51369215304639
 30
0.0
 11
137.0972393425859
 21
45.50834114443573
 31
0.0
  0
LINE
  5
6D
330
2
100
AcDbEntity
  8
KIJUN
 62
     7
100
AcDbLine
 10
121.8910842365576
 20
36.36590629698963
 30
0.0
 11
134.579826731859
 21
33.59902106389682
 31
0.0
  0
LINE
  5
6E
330
2
100
AcDbEntity
  8
KIJUN
 62
     7
100
AcDbLine
 10
116.6339417367121
 20
32.0209123247926
 30
0.0
 11
136.8473349423251
 21
28.20606018082736
 31
0.0
  0
LINE
  5
6F
330
2
100
AcDbEntity
  8
KIJUN
 62
     7
100
AcDbLine
 10
129.308390809088
 20
47.36488939303064
 30
0.0
 11
136.7686679922861
 21
50.00592646937303
 31
0.0
  0
LINE
  5
70
330
2
100
AcDbEntity
  8
KIJUN
 62
     7
100
AcDbLine
 10
130.3005958610624
 20
46.10262435101622
 30
0.0
 11
137.7608730442607
 21
48.74366142735864
 31
0.0
  0
LINE
  5
71
330
2
100
AcDbEntity
  8
KIJUN
 62
     7
100
AcDbLine
 10
393.9989199268105
 20
57.39502551071955
 30
0.0
 11
73.99891992681067
 21
57.39502551071979
 31
0.0
  0
LINE
  5
72
330
2
100
AcDbEntity
  8
KIJUN
 62
     7
100
AcDbLine
 10
73.99891992681067
 20
24.39502551071956
 30
0.0
 11
393.9989199268105
 21
24.39502551071911
 31
0.0
  0
LINE
  5
73
330
2
100
AcDbEntity
  8
KIJUN
 62
     7
100
AcDbLine
 10
73.99891992681067
 20
25.81543937285465
 30
0.0
 11
393.9989199268105
 21
25.8154393728542
 31
0.0
  0
LINE
  5
74
330
2
100
AcDbEntity
  8
KIJUN
 62
     7
100
AcDbLine
 10
73.99891992681067
 20
52.1404165569648
 30
0.0
 11
393.9989199268105
 21
52.14041655696456
 31
0.0
  0
LWPOLYLINE
  5
75
330
2
100
AcDbEntity
  8
KIJUN
 62
     7
100
AcDbPolyline
 90
        8
 70
     1
 43
0.0
 10
78.99891992681067
 20
52.14041655696411
 10
80.99891992681067
 20
52.14041655696411
 42
0.4142135623730951
 10
81.99891992681068
 20
53.14041655696411
 10
81.99891992681068
 20
55.14041655696411
 42
0.4142135623730951
 10
80.99891992681067
 20
56.14041655696411
 10
78.99891992681067
 20
56.14041655696411
 42
0.4142135623730951
 10
77.99891992681068
 20
55.14041655696411
 10
77.99891992681068
 20
53.14041655696411
 42
0.4142135623730951
  0
LWPOLYLINE
  5
76
330
2
100
AcDbEntity
  8
KIJUN
 62
     7
100
AcDbPolyline
 90
        8
 70
     1
 43
0.0
 10
82.99891992681068
 20
52.14041655696456
 10
88.99891992681068
 20
52.14041655696456
 42
0.4142135623730951
 10
89.99891992681069
 20
53.14041655696456
 10
89.99891992681069
 20
55.14041655696455
 42
0.4142135623730951
 10
88.99891992681068
 20
56.14041655696457
 10
82.99891992681068
 20
56.14041655696457
 42
0.4142135623730951
 10
81.99891992681068
 20
55.14041655696455
 10
81.99891992681068
 20
53.14041655696456
 42
0.4142135623730951
  0
LWPOLYLINE
  5
77
330
2
100
AcDbEntity
  8
KIJUN
 62
     7
100
AcDbPolyline
 90
        8
 70
     1
 43
0.0
 10
90.99891992681069
 20
52.14041655696456
 10
92.99891992681068
 20
52.14041655696456
 42
0.4142135623730951
 10
93.99891992681068
 20
53.14041655696456
 10
93.99891992681068
 20
55.14041655696455
 42
0.4142135623730951
 10
92.99891992681068
 20
56.14041655696457
 10
90.99891992681069
 20
56.14041655696457
 42
0.4142135623730951
 10
89.99891992681069
 20
55.14041655696455
 10
89.99891992681069
 20
53.14041655696456
 42
0.4142135623730951
  0
LWPOLYLINE
  5
78
330
2
100
AcDbEntity
  8
KIJUN
 62
     7
100
AcDbPolyline
 90
        8
 70
     1
 43
0.0
 10
94.99891992681069
 20
52.14041655696456
 10
96.99891992681068
 20
52.14041655696456
 42
0.4142135623730951
 10
97.99891992681068
 20
53.14041655696456
 10
97.99891992681068
 20
55.14041655696455
 42
0.4142135623730951
 10
96.99891992681068
 20
56.14041655696457
 10
94.99891992681069
 20
56.14041655696457
 42
0.4142135623730951
 10
93.99891992681068
 20
55.14041655696455
 10
93.99891992681068
 20
53.14041655696456
 42
0.4142135623730951
  0
LWPOLYLINE
  5
79
330
2
100
AcDbEntity
  8
KIJUN
 62
     7
100
AcDbPolyline
 90
        8
 70
     1
 43
0.0
 10
104.9989199268106
 20
52.14041655696456
 10
98.9989199268107
 20
52.14041655696456
 42
-0.4142135623730951
 10
97.99891992681068
 20
53.14041655696456
 10
97.99891992681068
 20
55.14041655696455
 42
-0.4142135623730951
 10
98.9989199268107
 20
56.14041655696457
 10
104.9989199268106
 20
56.14041655696457
 42
-0.4142135623730951
 10
105.9989199268106
 20
55.14041655696455
 10
105.9989199268106
 20
53.14041655696456
 42
-0.4142135623730951
  0
LWPOLYLINE
  5
7A
330
2
100
AcDbEntity
  8
KIJUN
 62
     7
100
AcDbPolyline
 90
        8
 70
     1
 43
0.0
 10
110.9989199268106
 20
52.14041655696456
 10
112.9989199268106
 20
52.14041655696456
 42
0.4142135623730951
 10
113.9989199268106
 20
53.14041655696456
 10
113.9989199268106
 20
55.14041655696455
 42
0.4142135623730951
 10
112.9989199268106
 20
56.14041655696457
 10
110.9989199268106
 20
56.14041655696457
 42
0.4142135623730951
 10
109.9989199268106
 20
55.14041655696455
 10
109.9989199268106
 20
53.14041655696456
 42
0.4142135623730951
  0
LWPOLYLINE
  5
7B
330
2
100
AcDbEntity
  8
KIJUN
 62
     7
100
AcDbPolyline
 90
        8
 70
     1
 43
0.0
 10
106.9989199268106
 20
52.14041655696456
 10
108.9989199268106
 20
52.14041655696456
 42
0.4142135623730951
 10
109.9989199268106
 20
53.14041655696456
 10
109.9989199268106
 20
55.14041655696455
 42
0.4142135623730951
 10
108.9989199268106
 20
56.14041655696457
 10
106.9989199268106
 20
56.14041655696457
 42
0.4142135623730951
 10
105.9989199268106
 20
55.14041655696455
 10
105.9989199268106
 20
53.14041655696456
 42
0.4142135623730951
  0
LWPOLYLINE
  5
7C
330
2
100
AcDbEntity
  8
KIJUN
 62
     7
100
AcDbPolyline
 90
        8
 70
     1
 43
0.0
 10
114.9989199268106
 20
52.14041655696456
 10
120.9989199268106
 20
52.14041655696456
 42
0.4142135623730951
 10
121.9989199268106
 20
53.14041655696456
 10
121.9989199268106
 20
55.14041655696455
 42
0.4142135623730951
 10
120.9989199268106
 20
56.14041655696457
 10
114.9989199268106
 20
56.14041655696457
 42
0.4142135623730951
 10
113.9989199268106
 20
55.14041655696455
 10
113.9989199268106
 20
53.14041655696456
 42
0.4142135623730951
  0
LWPOLYLINE
  5
7D
330
2
100
AcDbEntity
  8
KIJUN
 62
     7
100
AcDbPolyline
 90
        8
 70
     1
 43
0.0
 10
126.9989199268106
 20
52.14041655696456
 10
128.9989199268106
 20
52.14041655696456
 42
0.4142135623730951
 10
129.9989199268106
 20
53.14041655696456
 10
129.9989199268106
 20
55.14041655696455
 42
0.4142135623730951
 10
128.9989199268106
 20
56.14041655696457
 10
126.9989199268106
 20
56.14041655696457
 42
0.4142135623730951
 10
125.9989199268106
 20
55.14041655696455
 10
125.9989199268106
 20
53.14041655696456
 42
0.4142135623730951
  0
LWPOLYLINE
  5
7E
330
2
100
AcDbEntity
  8
KIJUN
 62
     7
100
AcDbPolyline
 90
        8
 70
     1
 43
0.0
 10
122.9989199268106
 20
52.14041655696456
 10
124.9989199268106
 20
52.14041655696456
 42
0.4142135623730951
 10
125.9989199268106
 20
53.14041655696456
 10
125.9989199268106
 20
55.14041655696455
 42
0.4142135623730951
 10
124.9989199268106
 20
56.14041655696457
 10
122.9989199268106
 20
56.14041655696457
 42
0.4142135623730951
 10
121.9989199268106
 20
55.14041655696455
 10
121.9989199268106
 20
53.14041655696456
 42
0.4142135623730951
  0
LWPOLYLINE
  5
7F
330
2
100
AcDbEntity
  8
KIJUN
 62
     7
100
AcDbPolyline
 90
        8
 70
     1
 43
0.0
 10
74.99891992681068
 20
52.14041655696411
 10
76.99891992681068
 20
52.14041655696411
 42
0.4142135623730951
 10
77.99891992681068
 20
53.14041655696411
 10
77.99891992681068
 20
55.14041655696411
 42
0.4142135623730951
 10
76.99891992681068
 20
56.14041655696411
 10
74.99891992681068
 20
56.14041655696411
 42
0.4142135623730951
 10
73.99891992681067
 20
55.14041655696411
 10
73.99891992681067
 20
53.14041655696411
 42
0.4142135623730951
  0
LINE
  5
80
330
2
100
AcDbEntity
  8
KIJUN
 62
     7
100
AcDbLine
 10
112.8093471672068
 20
42.44696248483278
 30
0.0
 11
130.3005958610624
 21
46.10262435101622
 31
0.0
  0
LINE
  5
81
330
2
100
AcDbEntity
  8
KIJUN
 62
     7
100
AcDbLine
 10
111.8171421152323
 20
43.7092275268472
 30
0.0
 11
129.308390809088
 21
47.36488939303064
 31
0.0
  0
LINE
  5
82
330
2
100
AcDbEntity
  8
KIJUN
 62
     7
100
AcDbLine
 10
93.84885698867902
 20
45.45759222005773
 30
0.0
 11
114.8383619591836
 21
47.20594617168654
 31
0.0
  0
ARC
  5
83
330
2
100
AcDbEntity
  8
KIJUN
 62
     7
100
AcDbCircle
 10
94.0867624110665
 20
26.25095803792106
 30
0.0
 40
14.51715798374468
100
AcDbArc
 50
74.40588462068825
 51
92.82247479470623
  0
ARC
  5
84
330
2
100
AcDbEntity
  8
KIJUN
 62
     7
100
AcDbCircle
 10
102.9345009984858
 20
30.7944358059704
 30
0.0
 40
13.80457788132031
100
AcDbArc
 50
115.0462415187181
 51
133.8451108254631
  0
LINE
  5
85
330
2
100
AcDbEntity
  8
KIJUN
 62
     7
100
AcDbLine
 10
90.01804243981951
 20
41.04198153943142
 30
0.0
 11
97.09033882066615
 21
43.30091968117613
 31
0.0
  0
LINE
  5
86
330
2
100
AcDbEntity
  8
KIJUN
 62
     7
100
AcDbLine
 10
84.61600591976321
 20
39.67100013000282
 30
0.0
 11
100.8303524573429
 21
40.35329335471334
 31
0.0
  0
LINE
  5
87
330
2
100
AcDbEntity
  8
KIJUN
 62
     7
100
AcDbLine
 10
85.25317416682174
 20
41.78108750916209
 30
0.0
 11
92.00627005515389
 21
43.36294800417095
 31
0.0
  0
LINE
  5
88
330
2
100
AcDbEntity
  8
KIJUN
 62
     7
100
AcDbLine
 10
86.0808877535751
 20
40.67763616374378
 30
0.0
 11
90.01804243981951
 21
41.04198153943142
 31
0.0
  0
LINE
  5
89
330
2
100
AcDbEntity
  8
KIJUN
 62
     7
100
AcDbLine
 10
113.3550202862957
 20
40.51623374818909
 30
0.0
 11
121.4296746014875
 21
42.82197104399329
 31
0.0
  0
LINE
  5
8A
330
2
100
AcDbEntity
  8
KIJUN
 62
     7
100
AcDbLine
 10
111.8171421152323
 20
43.7092275268472
 30
0.0
 11
108.6369046788126
 21
43.23239786281128
 31
0.0
  0
CIRCLE
  5
8B
330
2
100
AcDbEntity
  8
KIJUN
 62
     7
100
AcDbCircle
 10
102.7690172655097
 20
41.78108750916209
 30
0.0
 40
0.9952876527897378
  0
ARC
  5
8C
330
2
100
AcDbEntity
  8
KIJUN
 62
     7
100
AcDbCircle
 10
100.7621140926189
 20
5.247412463229749
 30
0.0
 40
23.55056246428957
100
AcDbArc
 50
63.73351765398618
 51
86.5100644189957
  0
ARC
  5
8D
330
2
100
AcDbEntity
  8
KIJUN
 62
     7
100
AcDbCircle
 10
69.17829616842664
 20
-113.828998735563
 30
0.0
 40
148.7518267113519
100
AcDbArc
 50
72.54343238690115
 51
76.86081332784446
  0
ARC
  5
8E
330
2
100
AcDbEntity
  8
KIJUN
 62
     7
100
AcDbCircle
 10
100.7048600577718
 20
51.00806871528476
 30
0.0
 40
19.07257937263615
100
AcDbArc
 50
269.0097181533336
 51
311.9718395319408
  0
ARC
  5
8F
330
2
100
AcDbEntity
  8
KIJUN
 62
     7
100
AcDbCircle
 10
98.18621904163956
 20
5.209943633233081
 30
0.0
 40
35.11402735526805
100
AcDbArc
 50
64.21630458404897
 51
78.93326485059507
  0
LINE
  5
90
330
2
100
AcDbEntity
  8
KIJUN
 62
     7
100
AcDbLine
 10
100.8303524573429
 20
40.35329335471334
 30
0.0
 11
104.9264343373816
 21
39.67100013000282
 31
0.0
  0
LINE
  5
91
330
2
100
AcDbEntity
  8
KIJUN
 62
     7
100
AcDbLine
 10
112.4322030588032
 20
37.9799224837405
 30
0.0
 11
121.8910842365576
 21
36.36590629698963
 31
0.0
  0
LINE
  5
92
330
2
100
AcDbEntity
  8
KIJUN
 62
     7
100
AcDbLine
 10
121.4296746014875
 20
42.82197104399329
 30
0.0
 11
127.6586944616947
 21
43.51369215304639
 31
0.0
  0
LINE
  5
93
330
2
100
AcDbEntity
  8
KIJUN
 62
     7
100
AcDbLine
 10
74.06835871877546
 20
39.46102550294067
 30
0.0
 11
79.66076593213665
 21
40.51559943190665
 31
0.0
  0
LINE
  5
94
330
2
100
AcDbEntity
  8
KIJUN
 62
     7
100
AcDbLine
 10
73.99891992681067
 20
45.53633451449679
 30
0.0
 11
80.39938636941769
 21
47.15941303281675
 31
0.0
  0
ARC
  5
95
330
2
100
AcDbEntity
  8
KIJUN
 62
     7
100
AcDbCircle
 10
75.50889831828953
 20
52.00797445743666
 30
0.0
 40
13.24088632719681
100
AcDbArc
 50
263.3597224210817
 51
291.9896170664358
  0
LINE
  5
96
330
2
100
AcDbEntity
  8
KIJUN
 62
     7
100
AcDbLine
 10
83.02308479145585
 20
35.46352205676868
 30
0.0
 11
73.99891992681067
 21
34.4937313661431
 31
0.0
  0
ARC
  5
97
330
2
100
AcDbEntity
  8
KIJUN
 62
     7
100
AcDbCircle
 10
75.76277745390871
 20
48.68958365529016
 30
0.0
 40
11.03387783824815
100
AcDbArc
 50
260.8013254379122
 51
289.7753459090848
  0
ARC
  5
98
330
2
100
AcDbEntity
  8
KIJUN
 62
     7
100
AcDbCircle
 10
114.6671217983389
 20
-330.2242314286443
 30
0.0
 40
367.0543258528649
100
AcDbArc
 50
90.18843699109991
 51
94.94565262722971
  0
LINE
  5
99
330
2
100
AcDbEntity
  8
KIJUN
 62
     7
100
AcDbLine
 10
79.66076593213665
 20
40.51559943190665
 30
0.0
 11
85.25317416682174
 21
41.78108750916209
 31
0.0
  0
LINE
  5
9A
330
2
100
AcDbEntity
  8
KIJUN
 62
     7
100
AcDbLine
 10
80.39938636941769
 20
47.15941303281675
 30
0.0
 11
89.47385960769086
 21
50.74496391317307
 31
0.0
  0
ARC
  5
9B
330
2
100
AcDbEntity
  8
KIJUN
 62
     7
100
AcDbCircle
 10
85.06014394603017
 20
29.61758632873176
 30
0.0
 40
11.10705272669535
100
AcDbArc
 50
84.72704851916871
 51
114.4281805726988
  0
ARC
  5
9C
330
2
100
AcDbEntity
  8
KIJUN
 62
     7
100
AcDbCircle
 10
83.38191637374984
 20
34.01353013184763
 30
0.0
 40
5.790504622880997
100
AcDbArc
 50
77.69457063088201
 51
132.1520991772229
  0
ARC
  5
9D
330
2
100
AcDbEntity
  8
KIJUN
 62
     7
100
AcDbCircle
 10
92.50211593365021
 20
-235.179262378094
 30
0.0
 40
267.2336026648006
100
AcDbArc
 50
88.31173322413439
 51
93.97032390655645
  0
LWPOLYLINE
  5
9E
330
2
100
AcDbEntity
  8
KIJUN
 62
     7
100
AcDbPolyline
 90
        8
 70
     1
 43
0.0
 10
314.9989199268106
 20
52.14041655696411
 10
316.9989199268107
 20
52.14041655696411
 42
0.4142135623730951
 10
317.9989199268107
 20
53.14041655696411
 10
317.9989199268107
 20
55.14041655696411
 42
0.4142135623730951
 10
316.9989199268107
 20
56.14041655696411
 10
314.9989199268106
 20
56.14041655696411
 42
0.4142135623730951
 10
313.9989199268107
 20
55.14041655696411
 10
313.9989199268107
 20
53.14041655696411
 42
0.4142135623730951
  0
LINE
  5
9F
330
2
100
AcDbEntity
  8
KIJUN
 62
     7
100
AcDbLine
 10
307.4813115875763
 20
47.74408879831097
 30
0.0
 11
322.9774280538654
 21
48.18119608398664
 31
0.0
  0
LINE
  5
A0
330
2
100
AcDbEntity
  8
KIJUN
 62
     7
100
AcDbLine
 10
308.4735166395508
 20
46.4818237562966
 30
0.0
 11
320.3109703664689
 21
47.13699183643217
 31
0.0
  0
LINE
  5
A1
330
2
100
AcDbEntity
  8
KIJUN
 62
     7
100
AcDbLine
 10
304.4144736841551
 20
49.90797019296842
 30
0.0
 11
319.2791780202601
 21
49.9844287892709
 31
0.0
  0
LINE
  5
A2
330
2
100
AcDbEntity
  8
KIJUN
 62
     7
100
AcDbLine
 10
305.4066787361293
 20
48.64570515095403
 30
0.0
 11
319.8203837476462
 21
49.4434611260047
 31
0.0
  0
LINE
  5
A3
330
2
100
AcDbEntity
  8
KIJUN
 62
     7
100
AcDbLine
 10
323.0230847914558
 20
36.69579359381492
 30
0.0
 11
313.9989199268107
 21
36.98271577993324
 31
0.0
  0
LINE
  5
A4
330
2
100
AcDbEntity
  8
KIJUN
 62
     7
100
AcDbLine
 10
314.178402325876
 20
45.58184901394002
 30
0.0
 11
320.3993863694177
 21
47.15941303281629
 31
0.0
  0
LINE
  5
A5
330
2
100
AcDbEntity
  8
KIJUN
 62
     7
100
AcDbLine
 10
323.0230847914558
 20
35.46352205676822
 30
0.0
 11
313.9989199268107
 21
35.75044424288654
 31
0.0
  0
ARC
  5
A6
330
2
100
AcDbEntity
  8
KIJUN
 62
     7
100
AcDbCircle
 10
332.5021159336502
 20
-235.1792623780944
 30
0.0
 40
267.2336026648006
100
AcDbArc
 50
88.31173322413439
 51
93.97032390655645
  0
ARC
  5
A7
330
2
100
AcDbEntity
  8
KIJUN
 62
     7
100
AcDbCircle
 10
313.4758371267644
 20
-18.10686588961556
 30
0.0
 40
58.84203567618509
100
AcDbArc
 50
79.0867041804253
 51
94.79662035855717
  0
LWPOLYLINE
  5
A8
330
2
100
AcDbEntity
  8
KIJUN
 62
     7
100
AcDbPolyline
 90
        8
 70
     1
 43
0.0
 10
222.9989199268107
 20
52.14041655696433
 10
224.9989199268107
 20
52.14041655696433
 42
0.4142135623730951
 10
225.9989199268106
 20
53.14041655696434
 10
225.9989199268106
 20
55.14041655696434
 42
0.4142135623730951
 10
224.9989199268107
 20
56.14041655696434
 10
222.9989199268107
 20
56.14041655696434
 42
0.4142135623730951
 10
221.9989199268106
 20
55.14041655696434
 10
221.9989199268106
 20
53.14041655696434
 42
0.4142135623730951
  0
LINE
  5
A9
330
2
100
AcDbEntity
  8
KIJUN
 62
     7
100
AcDbLine
 10
214.5798267318591
 20
33.5990210638966
 30
0.0
 11
228.8835009072581
 21
33.36844789213188
 31
0.0
  0
ARC
  5
AA
330
2
100
AcDbEntity
  8
KIJUN
 62
     7
100
AcDbCircle
 10
229.0558308173012
 20
-1346.62011057555
 30
0.0
 40
1392.179813816572
100
AcDbArc
 50
89.79943824693036
 51
90.49216720418547
  0
LINE
  5
AB
330
2
100
AcDbEntity
  8
KIJUN
 62
     7
100
AcDbLine
 10
218.1158543661049
 20
48.80076262741731
 30
0.0
 11
225.4066787361292
 21
48.64570515095426
 31
0.0
  0
LINE
  5
AC
330
2
100
AcDbEntity
  8
KIJUN
 62
     7
100
AcDbLine
 10
217.1236493141304
 20
50.06302766943171
 30
0.0
 11
224.4144736841549
 21
49.90797019296866
 31
0.0
  0
LINE
  5
AD
330
2
100
AcDbEntity
  8
KIJUN
 62
     7
100
AcDbLine
 10
220.1904872175519
 20
47.89914627477428
 30
0.0
 11
227.4813115875763
 21
47.74408879831121
 31
0.0
  0
LINE
  5
AE
330
2
100
AcDbEntity
  8
KIJUN
 62
     7
100
AcDbLine
 10
221.1826922695263
 20
46.63688123275989
 30
0.0
 11
228.4735166395507
 21
46.48182375629682
 31
0.0
  0
LINE
  5
AF
330
2
100
AcDbEntity
  8
KIJUN
 62
     7
100
AcDbLine
 10
214.7270513420076
 20
30.89058616145399
 30
0.0
 11
227.8728162018592
 21
27.358312872927
 31
0.0
  0
LINE
  5
B0
330
2
100
AcDbEntity
  8
KIJUN
 62
     7
100
AcDbLine
 10
227.810436058312
 20
40.32374348321428
 30
0.0
 11
219.9933692577892
 21
40.813122731222
 31
0.0
  0
LINE
  5
B1
330
2
100
AcDbEntity
  8
KIJUN
 62
     7
100
AcDbLine
 10
220.1904872175519
 20
47.89914627477428
 30
0.0
 11
227.4813115875763
 21
47.74408879831121
 31
0.0
  0
LINE
  5
B2
330
2
100
AcDbEntity
  8
KIJUN
 62
     7
100
AcDbLine
 10
221.1826922695263
 20
46.63688123275989
 30
0.0
 11
228.4735166395507
 21
46.48182375629682
 31
0.0
  0
LWPOLYLINE
  5
B3
330
2
100
AcDbEntity
  8
KIJUN
 62
     7
100
AcDbPolyline
 90
        8
 70
     1
 43
0.0
 10
216.9989199268106
 20
52.14041655696433
 10
210.9989199268106
 20
52.14041655696433
 42
-0.4142135623730951
 10
209.9989199268106
 20
53.14041655696434
 10
209.9989199268106
 20
55.14041655696434
 42
-0.4142135623730951
 10
210.9989199268106
 20
56.14041655696434
 10
216.9989199268106
 20
56.14041655696434
 42
-0.4142135623730951
 10
217.9989199268106
 20
55.14041655696434
 10
217.9989199268106
 20
53.14041655696434
 42
-0.4142135623730951
  0
LWPOLYLINE
  5
B4
330
2
100
AcDbEntity
  8
KIJUN
 62
     7
100
AcDbPolyline
 90
        8
 70
     1
 43
0.0
 10
202.9989199268106
 20
52.14041655696456
 10
204.9989199268107
 20
52.14041655696456
 42
0.4142135623730951
 10
205.9989199268106
 20
53.14041655696456
 10
205.9989199268106
 20
55.14041655696455
 42
0.4142135623730951
 10
204.9989199268107
 20
56.14041655696457
 10
202.9989199268106
 20
56.14041655696457
 42
0.4142135623730951
 10
201.9989199268106
 20
55.14041655696455
 10
201.9989199268106
 20
53.14041655696456
 42
0.4142135623730951
  0
LWPOLYLINE
  5
B5
330
2
100
AcDbEntity
  8
KIJUN
 62
     7
100
AcDbPolyline
 90
        8
 70
     1
 43
0.0
 10
206.9989199268106
 20
52.14041655696456
 10
208.9989199268106
 20
52.14041655696456
 42
0.4142135623730951
 10
209.9989199268106
 20
53.14041655696456
 10
209.9989199268106
 20
55.14041655696455
 42
0.4142135623730951
 10
208.9989199268106
 20
56.14041655696457
 10
206.9989199268106
 20
56.14041655696457
 42
0.4142135623730951
 10
205.9989199268106
 20
55.14041655696455
 10
205.9989199268106
 20
53.14041655696456
 42
0.4142135623730951
  0
LWPOLYLINE
  5
B6
330
2
100
AcDbEntity
  8
KIJUN
 62
     7
100
AcDbPolyline
 90
        8
 70
     1
 43
0.0
 10
194.9989199268106
 20
52.14041655696456
 10
200.9989199268106
 20
52.14041655696456
 42
0.4142135623730951
 10
201.9989199268106
 20
53.14041655696456
 10
201.9989199268106
 20
55.14041655696455
 42
0.4142135623730951
 10
200.9989199268106
 20
56.14041655696457
 10
194.9989199268106
 20
56.14041655696457
 42
0.4142135623730951
 10
193.9989199268105
 20
55.14041655696455
 10
193.9989199268105
 20
53.14041655696456
 42
0.4142135623730951
  0
LWPOLYLINE
  5
B7
330
2
100
AcDbEntity
  8
KIJUN
 62
     7
100
AcDbPolyline
 90
        8
 70
     1
 43
0.0
 10
186.9989199268106
 20
52.14041655696456
 10
188.9989199268105
 20
52.14041655696456
 42
0.4142135623730951
 10
189.9989199268105
 20
53.14041655696456
 10
189.9989199268105
 20
55.14041655696455
 42
0.4142135623730951
 10
188.9989199268105
 20
56.14041655696457
 10
186.9989199268106
 20
56.14041655696457
 42
0.4142135623730951
 10
185.9989199268105
 20
55.14041655696455
 10
185.9989199268105
 20
53.14041655696456
 42
0.4142135623730951
  0
LWPOLYLINE
  5
B8
330
2
100
AcDbEntity
  8
KIJUN
 62
     7
100
AcDbPolyline
 90
        8
 70
     1
 43
0.0
 10
190.9989199268105
 20
52.14041655696456
 10
192.9989199268105
 20
52.14041655696456
 42
0.4142135623730951
 10
193.9989199268105
 20
53.14041655696456
 10
193.9989199268105
 20
55.14041655696455
 42
0.4142135623730951
 10
192.9989199268105
 20
56.14041655696457
 10
190.9989199268105
 20
56.14041655696457
 42
0.4142135623730951
 10
189.9989199268105
 20
55.14041655696455
 10
189.9989199268105
 20
53.14041655696456
 42
0.4142135623730951
  0
LWPOLYLINE
  5
B9
330
2
100
AcDbEntity
  8
KIJUN
 62
     7
100
AcDbPolyline
 90
        8
 70
     1
 43
0.0
 10
184.9989199268105
 20
52.14041655696456
 10
178.9989199268106
 20
52.14041655696456
 42
-0.4142135623730951
 10
177.9989199268106
 20
53.14041655696456
 10
177.9989199268106
 20
55.14041655696455
 42
-0.4142135623730951
 10
178.9989199268106
 20
56.14041655696457
 10
184.9989199268105
 20
56.14041655696457
 42
-0.4142135623730951
 10
185.9989199268105
 20
55.14041655696455
 10
185.9989199268105
 20
53.14041655696456
 42
-0.4142135623730951
  0
LWPOLYLINE
  5
BA
330
2
100
AcDbEntity
  8
KIJUN
 62
     7
100
AcDbPolyline
 90
        8
 70
     1
 43
0.0
 10
174.9989199268106
 20
52.14041655696456
 10
176.9989199268106
 20
52.14041655696456
 42
0.4142135623730951
 10
177.9989199268106
 20
53.14041655696456
 10
177.9989199268106
 20
55.14041655696455
 42
0.4142135623730951
 10
176.9989199268106
 20
56.14041655696457
 10
174.9989199268106
 20
56.14041655696457
 42
0.4142135623730951
 10
173.9989199268106
 20
55.14041655696455
 10
173.9989199268106
 20
53.14041655696456
 42
0.4142135623730951
  0
LWPOLYLINE
  5
BB
330
2
100
AcDbEntity
  8
KIJUN
 62
     7
100
AcDbPolyline
 90
        8
 70
     1
 43
0.0
 10
170.9989199268106
 20
52.14041655696456
 10
172.9989199268105
 20
52.14041655696456
 42
0.4142135623730951
 10
173.9989199268106
 20
53.14041655696456
 10
173.9989199268106
 20
55.14041655696455
 42
0.4142135623730951
 10
172.9989199268105
 20
56.14041655696457
 10
170.9989199268106
 20
56.14041655696457
 42
0.4142135623730951
 10
169.9989199268105
 20
55.14041655696455
 10
169.9989199268105
 20
53.14041655696456
 42
0.4142135623730951
  0
LWPOLYLINE
  5
BC
330
2
100
AcDbEntity
  8
KIJUN
 62
     7
100
AcDbPolyline
 90
        8
 70
     1
 43
0.0
 10
162.9989199268105
 20
52.14041655696456
 10
168.9989199268105
 20
52.14041655696456
 42
0.4142135623730951
 10
169.9989199268105
 20
53.14041655696456
 10
169.9989199268105
 20
55.14041655696455
 42
0.4142135623730951
 10
168.9989199268105
 20
56.14041655696457
 10
162.9989199268105
 20
56.14041655696457
 42
0.4142135623730951
 10
161.9989199268105
 20
55.14041655696455
 10
161.9989199268105
 20
53.14041655696456
 42
0.4142135623730951
  0
LWPOLYLINE
  5
BD
330
2
100
AcDbEntity
  8
KIJUN
 62
     7
100
AcDbPolyline
 90
        8
 70
     1
 43
0.0
 10
158.9989199268105
 20
52.14041655696411
 10
160.9989199268105
 20
52.14041655696411
 42
0.4142135623730951
 10
161.9989199268105
 20
53.14041655696411
 10
161.9989199268105
 20
55.14041655696411
 42
0.4142135623730951
 10
160.9989199268105
 20
56.14041655696411
 10
158.9989199268105
 20
56.14041655696411
 42
0.4142135623730951
 10
157.9989199268106
 20
55.14041655696411
 10
157.9989199268106
 20
53.14041655696411
 42
0.4142135623730951
  0
LWPOLYLINE
  5
BE
330
2
100
AcDbEntity
  8
KIJUN
 62
     7
100
AcDbPolyline
 90
        8
 70
     1
 43
0.0
 10
154.9989199268106
 20
52.14041655696411
 10
156.9989199268106
 20
52.14041655696411
 42
0.4142135623730951
 10
157.9989199268106
 20
53.14041655696411
 10
157.9989199268106
 20
55.14041655696411
 42
0.4142135623730951
 10
156.9989199268106
 20
56.14041655696411
 10
154.9989199268106
 20
56.14041655696411
 42
0.4142135623730951
 10
153.9989199268106
 20
55.14041655696411
 10
153.9989199268106
 20
53.14041655696411
 42
0.4142135623730951
  0
LWPOLYLINE
  5
BF
330
2
100
AcDbEntity
  8
KIJUN
 62
     7
100
AcDbPolyline
 90
        8
 70
     1
 43
0.0
 10
142.9989199268106
 20
52.14041655696433
 10
144.9989199268106
 20
52.14041655696433
 42
0.4142135623730951
 10
145.9989199268106
 20
53.14041655696434
 10
145.9989199268106
 20
55.14041655696434
 42
0.4142135623730951
 10
144.9989199268106
 20
56.14041655696434
 10
142.9989199268106
 20
56.14041655696434
 42
0.4142135623730951
 10
141.9989199268106
 20
55.14041655696434
 10
141.9989199268106
 20
53.14041655696434
 42
0.4142135623730951
  0
LWPOLYLINE
  5
C0
330
2
100
AcDbEntity
  8
KIJUN
 62
     7
100
AcDbPolyline
 90
        8
 70
     1
 43
0.0
 10
138.9989199268106
 20
52.14041655696433
 10
140.9989199268106
 20
52.14041655696433
 42
0.4142135623730951
 10
141.9989199268106
 20
53.14041655696434
 10
141.9989199268106
 20
55.14041655696434
 42
0.4142135623730951
 10
140.9989199268106
 20
56.14041655696434
 10
138.9989199268106
 20
56.14041655696434
 42
0.4142135623730951
 10
137.9989199268106
 20
55.14041655696434
 10
137.9989199268106
 20
53.14041655696434
 42
0.4142135623730951
  0
LWPOLYLINE
  5
C1
330
2
100
AcDbEntity
  8
KIJUN
 62
     7
100
AcDbPolyline
 90
        8
 70
     1
 43
0.0
 10
146.9989199268106
 20
52.14041655696433
 10
152.9989199268106
 20
52.14041655696433
 42
0.4142135623730951
 10
153.9989199268106
 20
53.14041655696434
 10
153.9989199268106
 20
55.14041655696434
 42
0.4142135623730951
 10
152.9989199268106
 20
56.14041655696434
 10
146.9989199268106
 20
56.14041655696434
 42
0.4142135623730951
 10
145.9989199268106
 20
55.14041655696434
 10
145.9989199268106
 20
53.14041655696434
 42
0.4142135623730951
  0
LWPOLYLINE
  5
C2
330
2
100
AcDbEntity
  8
KIJUN
 62
     7
100
AcDbPolyline
 90
        8
 70
     1
 43
0.0
 10
218.9989199268106
 20
52.14041655696433
 10
220.9989199268106
 20
52.14041655696433
 42
0.4142135623730951
 10
221.9989199268106
 20
53.14041655696434
 10
221.9989199268106
 20
55.14041655696434
 42
0.4142135623730951
 10
220.9989199268106
 20
56.14041655696434
 10
218.9989199268106
 20
56.14041655696434
 42
0.4142135623730951
 10
217.9989199268106
 20
55.14041655696434
 10
217.9989199268106
 20
53.14041655696434
 42
0.4142135623730951
  0
LINE
  5
C3
330
2
100
AcDbEntity
  8
KIJUN
 62
     7
100
AcDbLine
 10
141.1826922695263
 20
46.6368812327601
 30
0.0
 11
148.4735166395505
 21
46.48182375629703
 31
0.0
  0
LINE
  5
C4
330
2
100
AcDbEntity
  8
KIJUN
 62
     7
100
AcDbLine
 10
140.1904872175518
 20
47.89914627477452
 30
0.0
 11
147.4813115875763
 21
47.74408879831145
 31
0.0
  0
ARC
  5
C5
330
2
100
AcDbEntity
  8
KIJUN
 62
     7
100
AcDbCircle
 10
147.9379198404417
 20
41.31558413840781
 30
0.0
 40
1.0
100
AcDbArc
 50
262.675786208825
 51
308.1411815552039
  0
LINE
  5
C6
330
2
100
AcDbEntity
  8
KIJUN
 62
     7
100
AcDbLine
 10
147.810436058312
 20
40.3237434832145
 30
0.0
 11
139.9933692577892
 21
40.81312273122222
 31
0.0
  0
LINE
  5
C7
330
2
100
AcDbEntity
  8
KIJUN
 62
     7
100
AcDbLine
 10
148.883500907258
 20
33.36844789213211
 30
0.0
 11
153.9989199268511
 21
31.41299206817172
 31
0.0
  0
LINE
  5
C8
330
2
100
AcDbEntity
  8
KIJUN
 62
     7
100
AcDbLine
 10
134.7270513420074
 20
30.89058616145422
 30
0.0
 11
147.8728162018592
 21
27.35831287292722
 31
0.0
  0
ARC
  5
C9
330
2
100
AcDbEntity
  8
KIJUN
 62
     7
100
AcDbCircle
 10
141.1614295955418
 20
45.63710730896793
 30
0.0
 40
1.0
100
AcDbArc
 50
88.78164670458424
 51
109.4946384115794
  0
LINE
  5
CA
330
2
100
AcDbEntity
  8
KIJUN
 62
     7
100
AcDbLine
 10
141.1826922695263
 20
46.6368812327601
 30
0.0
 11
148.4735166395505
 21
46.48182375629703
 31
0.0
  0
ARC
  5
CB
330
2
100
AcDbEntity
  8
KIJUN
 62
     7
100
AcDbCircle
 10
140.1692245435673
 20
46.89937235098233
 30
0.0
 40
1.0
100
AcDbArc
 50
88.78164670458424
 51
109.4946384115794
  0
LINE
  5
CC
330
2
100
AcDbEntity
  8
KIJUN
 62
     7
100
AcDbLine
 10
140.1904872175518
 20
47.89914627477452
 30
0.0
 11
147.4813115875763
 21
47.74408879831145
 31
0.0
  0
LINE
  5
CD
330
2
100
AcDbEntity
  8
KIJUN
 62
     7
100
AcDbLine
 10
137.1236493141303
 20
50.06302766943195
 30
0.0
 11
144.4144736841549
 21
49.9079701929689
 31
0.0
  0
LINE
  5
CE
330
2
100
AcDbEntity
  8
KIJUN
 62
     7
100
AcDbLine
 10
138.1158543661049
 20
48.80076262741755
 30
0.0
 11
145.4066787361293
 21
48.64570515095446
 31
0.0
  0
ARC
  5
CF
330
2
100
AcDbEntity
  8
KIJUN
 62
     7
100
AcDbCircle
 10
138.0945916921205
 20
47.80098870362535
 30
0.0
 40
1.0
100
AcDbArc
 50
88.78164670458424
 51
109.4946384115794
  0
ARC
  5
D0
330
2
100
AcDbEntity
  8
KIJUN
 62
     7
100
AcDbCircle
 10
149.0558308173012
 20
-1346.62011057555
 30
0.0
 40
1392.179813816572
100
AcDbArc
 50
89.79943824693036
 51
90.49216720418547
  0
LINE
  5
D1
330
2
100
AcDbEntity
  8
KIJUN
 62
     7
100
AcDbLine
 10
134.579826731859
 20
33.59902106389682
 30
0.0
 11
148.883500907258
 21
33.36844789213211
 31
0.0
  0
LINE
  5
D2
330
2
100
AcDbEntity
  8
KIJUN
 62
     7
100
AcDbLine
 10
210.3005958610624
 20
46.10262435101599
 30
0.0
 11
217.7608730442607
 21
48.74366142735841
 31
0.0
  0
LINE
  5
D3
330
2
100
AcDbEntity
  8
KIJUN
 62
     7
100
AcDbLine
 10
209.308390809088
 20
47.3648893930304
 30
0.0
 11
216.7686679922862
 21
50.00592646937281
 31
0.0
  0
ARC
  5
D4
330
2
100
AcDbEntity
  8
KIJUN
 62
     7
100
AcDbCircle
 10
218.0945916921205
 20
47.80098870362514
 30
0.0
 40
1.0
100
AcDbArc
 50
88.78164670458424
 51
109.4946384115794
  0
ARC
  5
D5
330
2
100
AcDbEntity
  8
KIJUN
 62
     7
100
AcDbCircle
 10
220.1692245435674
 20
46.89937235098208
 30
0.0
 40
1.0
100
AcDbArc
 50
88.78164670458424
 51
109.4946384115794
  0
ARC
  5
D6
330
2
100
AcDbEntity
  8
KIJUN
 62
     7
100
AcDbCircle
 10
221.1614295955418
 20
45.63710730896771
 30
0.0
 40
1.0
100
AcDbArc
 50
88.78164670458424
 51
109.4946384115794
  0
ARC
  5
D7
330
2
100
AcDbEntity
  8
KIJUN
 62
     7
100
AcDbCircle
 10
155.7627774539087
 20
48.68958365528992
 30
0.0
 40
11.03387783824815
100
AcDbArc
 50
260.8013254379122
 51
289.7753459090848
  0
LINE
  5
D8
330
2
100
AcDbEntity
  8
KIJUN
 62
     7
100
AcDbLine
 10
163.0230847914558
 20
35.46352205676845
 30
0.0
 11
153.9989199268106
 21
34.49373136614286
 31
0.0
  0
ARC
  5
D9
330
2
100
AcDbEntity
  8
KIJUN
 62
     7
100
AcDbCircle
 10
155.5088983182895
 20
52.00797445743642
 30
0.0
 40
13.24088632719681
100
AcDbArc
 50
263.3597224210817
 51
291.9896170664358
  0
LINE
  5
DA
330
2
100
AcDbEntity
  8
KIJUN
 62
     7
100
AcDbLine
 10
153.9989199268106
 20
45.53633451449655
 30
0.0
 11
160.3993863694177
 21
47.15941303281653
 31
0.0
  0
LINE
  5
DB
330
2
100
AcDbEntity
  8
KIJUN
 62
     7
100
AcDbLine
 10
154.0683587187754
 20
39.46102550294046
 30
0.0
 11
159.6607659321366
 21
40.51559943190642
 31
0.0
  0
ARC
  5
DC
330
2
100
AcDbEntity
  8
KIJUN
 62
     7
100
AcDbCircle
 10
172.5021159336502
 20
-235.1792623780943
 30
0.0
 40
267.2336026648006
100
AcDbArc
 50
88.31173322413439
 51
93.97032390655645
  0
LINE
  5
DD
330
2
100
AcDbEntity
  8
KIJUN
 62
     7
100
AcDbLine
 10
201.4296746014874
 20
42.82197104399307
 30
0.0
 11
207.6586944616947
 21
43.51369215304617
 31
0.0
  0
LINE
  5
DE
330
2
100
AcDbEntity
  8
KIJUN
 62
     7
100
AcDbLine
 10
192.4322030588032
 20
37.97992248374028
 30
0.0
 11
201.8910842365576
 21
36.36590629698941
 31
0.0
  0
LINE
  5
DF
330
2
100
AcDbEntity
  8
KIJUN
 62
     7
100
AcDbLine
 10
180.8303524573429
 20
40.35329335471311
 30
0.0
 11
184.9264343373815
 21
39.67100013000258
 31
0.0
  0
ARC
  5
E0
330
2
100
AcDbEntity
  8
KIJUN
 62
     7
100
AcDbCircle
 10
178.1862190416394
 20
5.209943633232853
 30
0.0
 40
35.11402735526805
100
AcDbArc
 50
64.21630458404897
 51
78.93326485059507
  0
ARC
  5
E1
330
2
100
AcDbEntity
  8
KIJUN
 62
     7
100
AcDbCircle
 10
180.7048600577718
 20
51.00806871528453
 30
0.0
 40
19.07257937263615
100
AcDbArc
 50
269.0097181533336
 51
311.9718395319408
  0
ARC
  5
E2
330
2
100
AcDbEntity
  8
KIJUN
 62
     7
100
AcDbCircle
 10
149.1782961684266
 20
-113.8289987355632
 30
0.0
 40
148.7518267113519
100
AcDbArc
 50
72.54343238690115
 51
76.86081332784446
  0
ARC
  5
E3
330
2
100
AcDbEntity
  8
KIJUN
 62
     7
100
AcDbCircle
 10
180.7621140926189
 20
5.247412463229521
 30
0.0
 40
23.55056246428957
100
AcDbArc
 50
63.73351765398618
 51
86.5100644189957
  0
CIRCLE
  5
E4
330
2
100
AcDbEntity
  8
KIJUN
 62
     7
100
AcDbCircle
 10
182.7690172655097
 20
41.78108750916186
 30
0.0
 40
0.9952876527897378
  0
LINE
  5
E5
330
2
100
AcDbEntity
  8
KIJUN
 62
     7
100
AcDbLine
 10
191.8171421152323
 20
43.70922752684696
 30
0.0
 11
188.6369046788125
 21
43.23239786281106
 31
0.0
  0
LINE
  5
E6
330
2
100
AcDbEntity
  8
KIJUN
 62
     7
100
AcDbLine
 10
193.3550202862957
 20
40.51623374818888
 30
0.0
 11
201.4296746014874
 21
42.82197104399307
 31
0.0
  0
ARC
  5
E7
330
2
100
AcDbEntity
  8
KIJUN
 62
     7
100
AcDbCircle
 10
163.3819163737498
 20
34.01353013184741
 30
0.0
 40
5.790504622880997
100
AcDbArc
 50
77.69457063088201
 51
132.1520991772229
  0
ARC
  5
E8
330
2
100
AcDbEntity
  8
KIJUN
 62
     7
100
AcDbCircle
 10
165.0601439460301
 20
29.61758632873154
 30
0.0
 40
11.10705272669535
100
AcDbArc
 50
84.72704851916871
 51
114.4281805726988
  0
LINE
  5
E9
330
2
100
AcDbEntity
  8
KIJUN
 62
     7
100
AcDbLine
 10
166.0808877535751
 20
40.67763616374355
 30
0.0
 11
170.0180424398195
 21
41.04198153943122
 31
0.0
  0
LINE
  5
EA
330
2
100
AcDbEntity
  8
KIJUN
 62
     7
100
AcDbLine
 10
160.3993863694177
 20
47.15941303281653
 30
0.0
 11
169.4738596076908
 21
50.74496391317286
 31
0.0
  0
LINE
  5
EB
330
2
100
AcDbEntity
  8
KIJUN
 62
     7
100
AcDbLine
 10
159.6607659321366
 20
40.51559943190642
 30
0.0
 11
165.2531741668217
 21
41.78108750916186
 31
0.0
  0
LINE
  5
EC
330
2
100
AcDbEntity
  8
KIJUN
 62
     7
100
AcDbLine
 10
165.2531741668217
 20
41.78108750916186
 30
0.0
 11
172.0062700551539
 21
43.36294800417072
 31
0.0
  0
LINE
  5
ED
330
2
100
AcDbEntity
  8
KIJUN
 62
     7
100
AcDbLine
 10
164.6160059197631
 20
39.67100013000258
 30
0.0
 11
180.8303524573429
 21
40.35329335471311
 31
0.0
  0
ARC
  5
EE
330
2
100
AcDbEntity
  8
KIJUN
 62
     7
100
AcDbCircle
 10
194.6671217983389
 20
-330.2242314286444
 30
0.0
 40
367.0543258528649
100
AcDbArc
 50
90.18843699109991
 51
94.94565262722971
  0
LINE
  5
EF
330
2
100
AcDbEntity
  8
KIJUN
 62
     7
100
AcDbLine
 10
170.0180424398195
 20
41.04198153943122
 30
0.0
 11
177.0903388206661
 21
43.3009196811759
 31
0.0
  0
ARC
  5
F0
330
2
100
AcDbEntity
  8
KIJUN
 62
     7
100
AcDbCircle
 10
182.9345009984858
 20
30.79443580597018
 30
0.0
 40
13.80457788132031
100
AcDbArc
 50
115.0462415187181
 51
133.8451108254631
  0
ARC
  5
F1
330
2
100
AcDbEntity
  8
KIJUN
 62
     7
100
AcDbCircle
 10
174.0867624110665
 20
26.25095803792084
 30
0.0
 40
14.51715798374468
100
AcDbArc
 50
74.40588462068825
 51
92.82247479470623
  0
LINE
  5
F2
330
2
100
AcDbEntity
  8
KIJUN
 62
     7
100
AcDbLine
 10
173.848856988679
 20
45.4575922200575
 30
0.0
 11
194.8383619591836
 21
47.20594617168631
 31
0.0
  0
LINE
  5
F3
330
2
100
AcDbEntity
  8
KIJUN
 62
     7
100
AcDbLine
 10
196.633941736712
 20
32.02091232479239
 30
0.0
 11
216.8473349423252
 21
28.20606018082713
 31
0.0
  0
LINE
  5
F4
330
2
100
AcDbEntity
  8
KIJUN
 62
     7
100
AcDbLine
 10
201.8910842365576
 20
36.36590629698941
 30
0.0
 11
214.5798267318591
 21
33.5990210638966
 31
0.0
  0
LINE
  5
F5
330
2
100
AcDbEntity
  8
KIJUN
 62
     7
100
AcDbLine
 10
207.6586944616947
 20
43.51369215304617
 30
0.0
 11
217.0972393425859
 21
45.50834114443552
 31
0.0
  0
LINE
  5
F6
330
2
100
AcDbEntity
  8
KIJUN
 62
     7
100
AcDbLine
 10
207.1435842442401
 20
43.39777529309053
 30
0.0
 11
220.8277109476821
 21
46.57978003270096
 31
0.0
  0
LINE
  5
F7
330
2
100
AcDbEntity
  8
KIJUN
 62
     7
100
AcDbLine
 10
208.1357892962182
 20
44.20922678799166
 30
0.0
 11
219.8355058957076
 21
47.84204507471536
 31
0.0
  0
LINE
  5
F8
330
2
100
AcDbEntity
  8
KIJUN
 62
     7
100
AcDbLine
 10
191.8171421152323
 20
43.70922752684696
 30
0.0
 11
209.308390809088
 21
47.3648893930304
 31
0.0
  0
LINE
  5
F9
330
2
100
AcDbEntity
  8
KIJUN
 62
     7
100
AcDbLine
 10
192.8093471672068
 20
42.44696248483257
 30
0.0
 11
210.3005958610624
 21
46.10262435101599
 31
0.0
  0
LINE
  5
FA
330
2
100
AcDbEntity
  8
KIJUN
 62
     7
100
AcDbLine
 10
193.801279602349
 20
28.07200654424428
 30
0.0
 11
211.9000065415816
 21
28.34735497933894
 31
0.0
  0
LINE
  5
FB
330
2
100
AcDbEntity
  8
KIJUN
 62
     7
100
AcDbLine
 10
219.9933692577892
 20
40.813122731222
 30
0.0
 11
195.0729310954543
 21
39.50552820389891
 31
0.0
  0
LWPOLYLINE
  5
FC
330
2
100
AcDbEntity
  8
KIJUN
 62
     7
100
AcDbPolyline
 90
        8
 70
     1
 43
0.0
 10
226.9989199268107
 20
52.14041655696433
 10
232.9989199268107
 20
52.14041655696433
 42
0.4142135623730951
 10
233.9989199268106
 20
53.14041655696434
 10
233.9989199268106
 20
55.14041655696434
 42
0.4142135623730951
 10
232.9989199268107
 20
56.14041655696434
 10
226.9989199268107
 20
56.14041655696434
 42
0.4142135623730951
 10
225.9989199268106
 20
55.14041655696434
 10
225.9989199268106
 20
53.14041655696434
 42
0.4142135623730951
  0
LWPOLYLINE
  5
FD
330
2
100
AcDbEntity
  8
KIJUN
 62
     7
100
AcDbPolyline
 90
        8
 70
     1
 43
0.0
 10
306.9989199268106
 20
52.14041655696433
 10
312.9989199268106
 20
52.14041655696433
 42
0.4142135623730951
 10
313.9989199268107
 20
53.14041655696434
 10
313.9989199268107
 20
55.14041655696434
 42
0.4142135623730951
 10
312.9989199268106
 20
56.14041655696434
 10
306.9989199268106
 20
56.14041655696434
 42
0.4142135623730951
 10
305.9989199268107
 20
55.14041655696434
 10
305.9989199268107
 20
53.14041655696434
 42
0.4142135623730951
  0
LWPOLYLINE
  5
FE
330
2
100
AcDbEntity
  8
KIJUN
 62
     7
100
AcDbPolyline
 90
        8
 70
     1
 43
0.0
 10
296.9989199268106
 20
52.14041655696433
 10
290.9989199268107
 20
52.14041655696433
 42
-0.4142135623730951
 10
289.9989199268106
 20
53.14041655696434
 10
289.9989199268106
 20
55.14041655696434
 42
-0.4142135623730951
 10
290.9989199268107
 20
56.14041655696434
 10
296.9989199268106
 20
56.14041655696434
 42
-0.4142135623730951
 10
297.9989199268107
 20
55.14041655696434
 10
297.9989199268107
 20
53.14041655696434
 42
-0.4142135623730951
  0
LWPOLYLINE
  5
FF
330
2
100
AcDbEntity
  8
KIJUN
 62
     7
100
AcDbPolyline
 90
        8
 70
     1
 43
0.0
 10
282.9989199268107
 20
52.14041655696456
 10
284.9989199268107
 20
52.14041655696456
 42
0.4142135623730951
 10
285.9989199268106
 20
53.14041655696456
 10
285.9989199268106
 20
55.14041655696455
 42
0.4142135623730951
 10
284.9989199268107
 20
56.14041655696457
 10
282.9989199268107
 20
56.14041655696457
 42
0.4142135623730951
 10
281.9989199268106
 20
55.14041655696455
 10
281.9989199268106
 20
53.14041655696456
 42
0.4142135623730951
  0
LWPOLYLINE
  5
100
330
2
100
AcDbEntity
  8
KIJUN
 62
     7
100
AcDbPolyline
 90
        8
 70
     1
 43
0.0
 10
286.9989199268107
 20
52.14041655696456
 10
288.9989199268107
 20
52.14041655696456
 42
0.4142135623730951
 10
289.9989199268106
 20
53.14041655696456
 10
289.9989199268106
 20
55.14041655696455
 42
0.4142135623730951
 10
288.9989199268107
 20
56.14041655696457
 10
286.9989199268107
 20
56.14041655696457
 42
0.4142135623730951
 10
285.9989199268106
 20
55.14041655696455
 10
285.9989199268106
 20
53.14041655696456
 42
0.4142135623730951
  0
LWPOLYLINE
  5
101
330
2
100
AcDbEntity
  8
KIJUN
 62
     7
100
AcDbPolyline
 90
        8
 70
     1
 43
0.0
 10
274.9989199268107
 20
52.14041655696456
 10
280.9989199268107
 20
52.14041655696456
 42
0.4142135623730951
 10
281.9989199268106
 20
53.14041655696456
 10
281.9989199268106
 20
55.14041655696455
 42
0.4142135623730951
 10
280.9989199268107
 20
56.14041655696457
 10
274.9989199268107
 20
56.14041655696457
 42
0.4142135623730951
 10
273.9989199268106
 20
55.14041655696455
 10
273.9989199268106
 20
53.14041655696456
 42
0.4142135623730951
  0
LWPOLYLINE
  5
102
330
2
100
AcDbEntity
  8
KIJUN
 62
     7
100
AcDbPolyline
 90
        8
 70
     1
 43
0.0
 10
266.9989199268106
 20
52.14041655696456
 10
268.9989199268106
 20
52.14041655696456
 42
0.4142135623730951
 10
269.9989199268107
 20
53.14041655696456
 10
269.9989199268107
 20
55.14041655696455
 42
0.4142135623730951
 10
268.9989199268106
 20
56.14041655696457
 10
266.9989199268106
 20
56.14041655696457
 42
0.4142135623730951
 10
265.9989199268107
 20
55.14041655696455
 10
265.9989199268107
 20
53.14041655696456
 42
0.4142135623730951
  0
LWPOLYLINE
  5
103
330
2
100
AcDbEntity
  8
KIJUN
 62
     7
100
AcDbPolyline
 90
        8
 70
     1
 43
0.0
 10
270.9989199268106
 20
52.14041655696456
 10
272.9989199268107
 20
52.14041655696456
 42
0.4142135623730951
 10
273.9989199268106
 20
53.14041655696456
 10
273.9989199268106
 20
55.14041655696455
 42
0.4142135623730951
 10
272.9989199268107
 20
56.14041655696457
 10
270.9989199268106
 20
56.14041655696457
 42
0.4142135623730951
 10
269.9989199268107
 20
55.14041655696455
 10
269.9989199268107
 20
53.14041655696456
 42
0.4142135623730951
  0
LWPOLYLINE
  5
104
330
2
100
AcDbEntity
  8
KIJUN
 62
     7
100
AcDbPolyline
 90
        8
 70
     1
 43
0.0
 10
264.9989199268106
 20
52.14041655696456
 10
258.9989199268106
 20
52.14041655696456
 42
-0.4142135623730951
 10
257.9989199268107
 20
53.14041655696456
 10
257.9989199268107
 20
55.14041655696455
 42
-0.4142135623730951
 10
258.9989199268106
 20
56.14041655696457
 10
264.9989199268106
 20
56.14041655696457
 42
-0.4142135623730951
 10
265.9989199268107
 20
55.14041655696455
 10
265.9989199268107
 20
53.14041655696456
 42
-0.4142135623730951
  0
LWPOLYLINE
  5
105
330
2
100
AcDbEntity
  8
KIJUN
 62
     7
100
AcDbPolyline
 90
        8
 70
     1
 43
0.0
 10
254.9989199268106
 20
52.14041655696456
 10
256.9989199268106
 20
52.14041655696456
 42
0.4142135623730951
 10
257.9989199268107
 20
53.14041655696456
 10
257.9989199268107
 20
55.14041655696455
 42
0.4142135623730951
 10
256.9989199268106
 20
56.14041655696457
 10
254.9989199268106
 20
56.14041655696457
 42
0.4142135623730951
 10
253.9989199268107
 20
55.14041655696455
 10
253.9989199268107
 20
53.14041655696456
 42
0.4142135623730951
  0
LWPOLYLINE
  5
106
330
2
100
AcDbEntity
  8
KIJUN
 62
     7
100
AcDbPolyline
 90
        8
 70
     1
 43
0.0
 10
250.9989199268106
 20
52.14041655696456
 10
252.9989199268106
 20
52.14041655696456
 42
0.4142135623730951
 10
253.9989199268107
 20
53.14041655696456
 10
253.9989199268107
 20
55.14041655696455
 42
0.4142135623730951
 10
252.9989199268106
 20
56.14041655696457
 10
250.9989199268106
 20
56.14041655696457
 42
0.4142135623730951
 10
249.9989199268107
 20
55.14041655696455
 10
249.9989199268107
 20
53.14041655696456
 42
0.4142135623730951
  0
LWPOLYLINE
  5
107
330
2
100
AcDbEntity
  8
KIJUN
 62
     7
100
AcDbPolyline
 90
        8
 70
     1
 43
0.0
 10
242.9989199268107
 20
52.14041655696456
 10
248.9989199268106
 20
52.14041655696456
 42
0.4142135623730951
 10
249.9989199268107
 20
53.14041655696456
 10
249.9989199268107
 20
55.14041655696455
 42
0.4142135623730951
 10
248.9989199268106
 20
56.14041655696457
 10
242.9989199268107
 20
56.14041655696457
 42
0.4142135623730951
 10
241.9989199268106
 20
55.14041655696455
 10
241.9989199268106
 20
53.14041655696456
 42
0.4142135623730951
  0
LWPOLYLINE
  5
108
330
2
100
AcDbEntity
  8
KIJUN
 62
     7
100
AcDbPolyline
 90
        8
 70
     1
 43
0.0
 10
238.9989199268107
 20
52.14041655696411
 10
240.9989199268107
 20
52.14041655696411
 42
0.4142135623730951
 10
241.9989199268106
 20
53.14041655696411
 10
241.9989199268106
 20
55.14041655696411
 42
0.4142135623730951
 10
240.9989199268107
 20
56.14041655696411
 10
238.9989199268107
 20
56.14041655696411
 42
0.4142135623730951
 10
237.9989199268106
 20
55.14041655696411
 10
237.9989199268106
 20
53.14041655696411
 42
0.4142135623730951
  0
LWPOLYLINE
  5
109
330
2
100
AcDbEntity
  8
KIJUN
 62
     7
100
AcDbPolyline
 90
        8
 70
     1
 43
0.0
 10
234.9989199268107
 20
52.14041655696411
 10
236.9989199268107
 20
52.14041655696411
 42
0.4142135623730951
 10
237.9989199268106
 20
53.14041655696411
 10
237.9989199268106
 20
55.14041655696411
 42
0.4142135623730951
 10
236.9989199268107
 20
56.14041655696411
 10
234.9989199268107
 20
56.14041655696411
 42
0.4142135623730951
 10
233.9989199268106
 20
55.14041655696411
 10
233.9989199268106
 20
53.14041655696411
 42
0.4142135623730951
  0
LWPOLYLINE
  5
10A
330
2
100
AcDbEntity
  8
KIJUN
 62
     7
100
AcDbPolyline
 90
        8
 70
     1
 43
0.0
 10
298.9989199268105
 20
52.14041655696433
 10
300.9989199268106
 20
52.14041655696433
 42
0.4142135623730951
 10
301.9989199268107
 20
53.14041655696434
 10
301.9989199268107
 20
55.14041655696434
 42
0.4142135623730951
 10
300.9989199268106
 20
56.14041655696434
 10
298.9989199268105
 20
56.14041655696434
 42
0.4142135623730951
 10
297.9989199268107
 20
55.14041655696434
 10
297.9989199268107
 20
53.14041655696434
 42
0.4142135623730951
  0
LWPOLYLINE
  5
10B
330
2
100
AcDbEntity
  8
KIJUN
 62
     7
100
AcDbPolyline
 90
        8
 70
     1
 43
0.0
 10
302.9989199268106
 20
52.14041655696433
 10
304.9989199268106
 20
52.14041655696433
 42
0.4142135623730951
 10
305.9989199268107
 20
53.14041655696434
 10
305.9989199268107
 20
55.14041655696434
 42
0.4142135623730951
 10
304.9989199268106
 20
56.14041655696434
 10
302.9989199268106
 20
56.14041655696434
 42
0.4142135623730951
 10
301.9989199268107
 20
55.14041655696434
 10
301.9989199268107
 20
53.14041655696434
 42
0.4142135623730951
  0
LINE
  5
10C
330
2
100
AcDbEntity
  8
KIJUN
 62
     7
100
AcDbLine
 10
228.8835009072581
 20
33.36844789213188
 30
0.0
 11
233.9989199268511
 21
31.41299206817149
 31
0.0
  0
ARC
  5
10D
330
2
100
AcDbEntity
  8
KIJUN
 62
     7
100
AcDbCircle
 10
227.9379198404417
 20
41.31558413840758
 30
0.0
 40
1.0
100
AcDbArc
 50
262.675786208825
 51
308.1411815552039
  0
LINE
  5
10E
330
2
100
AcDbEntity
  8
KIJUN
 62
     7
100
AcDbLine
 10
301.1826922695263
 20
46.63688123275965
 30
0.0
 11
308.4735166395508
 21
46.4818237562966
 31
0.0
  0
LINE
  5
10F
330
2
100
AcDbEntity
  8
KIJUN
 62
     7
100
AcDbLine
 10
300.1904872175519
 20
47.89914627477407
 30
0.0
 11
307.4813115875763
 21
47.74408879831097
 31
0.0
  0
ARC
  5
110
330
2
100
AcDbEntity
  8
KIJUN
 62
     7
100
AcDbCircle
 10
313.9325951713923
 20
46.55116776584992
 30
0.0
 40
1.0
100
AcDbArc
 50
269.7994382469401
 51
284.2295390564983
  0
ARC
  5
111
330
2
100
AcDbEntity
  8
KIJUN
 62
     7
100
AcDbCircle
 10
307.9379198404418
 20
41.31558413840735
 30
0.0
 40
1.0
100
AcDbArc
 50
262.675786208825
 51
308.1411815552039
  0
LINE
  5
112
330
2
100
AcDbEntity
  8
KIJUN
 62
     7
100
AcDbLine
 10
299.9933692577892
 20
40.81312273122176
 30
0.0
 11
275.0729310954543
 21
39.50552820389867
 31
0.0
  0
LINE
  5
113
330
2
100
AcDbEntity
  8
KIJUN
 62
     7
100
AcDbLine
 10
307.810436058312
 20
40.32374348321403
 30
0.0
 11
299.9933692577892
 21
40.81312273122176
 31
0.0
  0
LINE
  5
114
330
2
100
AcDbEntity
  8
KIJUN
 62
     7
100
AcDbLine
 10
308.8835009072581
 20
33.36844789213166
 30
0.0
 11
313.9989199268511
 21
31.41299206817127
 31
0.0
  0
LINE
  5
115
330
2
100
AcDbEntity
  8
KIJUN
 62
     7
100
AcDbLine
 10
294.7270513420076
 20
30.89058616145376
 30
0.0
 11
307.8728162018592
 21
27.35831287292677
 31
0.0
  0
ARC
  5
116
330
2
100
AcDbEntity
  8
KIJUN
 62
     7
100
AcDbCircle
 10
301.1614295955418
 20
45.63710730896747
 30
0.0
 40
1.0
100
AcDbArc
 50
88.78164670458424
 51
109.4946384115794
  0
LINE
  5
117
330
2
100
AcDbEntity
  8
KIJUN
 62
     7
100
AcDbLine
 10
301.1826922695263
 20
46.63688123275965
 30
0.0
 11
308.4735166395508
 21
46.4818237562966
 31
0.0
  0
ARC
  5
118
330
2
100
AcDbEntity
  8
KIJUN
 62
     7
100
AcDbCircle
 10
300.1692245435674
 20
46.89937235098186
 30
0.0
 40
1.0
100
AcDbArc
 50
88.78164670458424
 51
109.4946384115794
  0
LINE
  5
119
330
2
100
AcDbEntity
  8
KIJUN
 62
     7
100
AcDbLine
 10
300.1904872175519
 20
47.89914627477407
 30
0.0
 11
307.4813115875763
 21
47.74408879831097
 31
0.0
  0
LINE
  5
11A
330
2
100
AcDbEntity
  8
KIJUN
 62
     7
100
AcDbLine
 10
297.1236493141305
 20
50.0630276694315
 30
0.0
 11
304.4144736841551
 21
49.90797019296842
 31
0.0
  0
ARC
  5
11B
330
2
100
AcDbEntity
  8
KIJUN
 62
     7
100
AcDbCircle
 10
297.102386640146
 20
49.06325374563929
 30
0.0
 40
1.0
100
AcDbArc
 50
88.78164670458424
 51
109.4946384115794
  0
LINE
  5
11C
330
2
100
AcDbEntity
  8
KIJUN
 62
     7
100
AcDbLine
 10
298.1158543661049
 20
48.8007626274171
 30
0.0
 11
305.4066787361293
 21
48.64570515095403
 31
0.0
  0
ARC
  5
11D
330
2
100
AcDbEntity
  8
KIJUN
 62
     7
100
AcDbCircle
 10
298.0945916921205
 20
47.80098870362491
 30
0.0
 40
1.0
100
AcDbArc
 50
88.78164670458424
 51
109.4946384115794
  0
ARC
  5
11E
330
2
100
AcDbEntity
  8
KIJUN
 62
     7
100
AcDbCircle
 10
309.0558308173012
 20
-1346.620110575551
 30
0.0
 40
1392.179813816572
100
AcDbArc
 50
89.79943824693036
 51
90.49216720418547
  0
LINE
  5
11F
330
2
100
AcDbEntity
  8
KIJUN
 62
     7
100
AcDbLine
 10
294.579826731859
 20
33.59902106389637
 30
0.0
 11
308.8835009072581
 21
33.36844789213166
 31
0.0
  0
LINE
  5
120
330
2
100
AcDbEntity
  8
KIJUN
 62
     7
100
AcDbLine
 10
253.848856988679
 20
45.45759222005727
 30
0.0
 11
274.8383619591837
 21
47.20594617168607
 31
0.0
  0
ARC
  5
121
330
2
100
AcDbEntity
  8
KIJUN
 62
     7
100
AcDbCircle
 10
254.0867624110665
 20
26.25095803792061
 30
0.0
 40
14.51715798374468
100
AcDbArc
 50
74.40588462068825
 51
92.82247479470623
  0
ARC
  5
122
330
2
100
AcDbEntity
  8
KIJUN
 62
     7
100
AcDbCircle
 10
262.9345009984858
 20
30.79443580596995
 30
0.0
 40
13.80457788132031
100
AcDbArc
 50
115.0462415187181
 51
133.8451108254631
  0
LINE
  5
123
330
2
100
AcDbEntity
  8
KIJUN
 62
     7
100
AcDbLine
 10
250.0180424398195
 20
41.04198153943099
 30
0.0
 11
257.090338820666
 21
43.30091968117566
 31
0.0
  0
ARC
  5
124
330
2
100
AcDbEntity
  8
KIJUN
 62
     7
100
AcDbCircle
 10
274.6671217983389
 20
-330.2242314286447
 30
0.0
 40
367.0543258528649
100
AcDbArc
 50
90.18843699109991
 51
94.94565262722971
  0
LINE
  5
125
330
2
100
AcDbEntity
  8
KIJUN
 62
     7
100
AcDbLine
 10
244.6160059197632
 20
39.67100013000236
 30
0.0
 11
260.830352457343
 21
40.35329335471288
 31
0.0
  0
LINE
  5
126
330
2
100
AcDbEntity
  8
KIJUN
 62
     7
100
AcDbLine
 10
245.2531741668217
 20
41.78108750916162
 30
0.0
 11
252.0062700551539
 21
43.36294800417049
 31
0.0
  0
LINE
  5
127
330
2
100
AcDbEntity
  8
KIJUN
 62
     7
100
AcDbLine
 10
239.6607659321367
 20
40.51559943190618
 30
0.0
 11
245.2531741668217
 21
41.78108750916162
 31
0.0
  0
LINE
  5
128
330
2
100
AcDbEntity
  8
KIJUN
 62
     7
100
AcDbLine
 10
240.3993863694177
 20
47.15941303281629
 30
0.0
 11
249.4738596076908
 21
50.74496391317262
 31
0.0
  0
LINE
  5
129
330
2
100
AcDbEntity
  8
KIJUN
 62
     7
100
AcDbLine
 10
246.0808877535751
 20
40.67763616374333
 30
0.0
 11
250.0180424398195
 21
41.04198153943099
 31
0.0
  0
ARC
  5
12A
330
2
100
AcDbEntity
  8
KIJUN
 62
     7
100
AcDbCircle
 10
245.0601439460301
 20
29.6175863287313
 30
0.0
 40
11.10705272669535
100
AcDbArc
 50
84.72704851916871
 51
114.4281805726988
  0
ARC
  5
12B
330
2
100
AcDbEntity
  8
KIJUN
 62
     7
100
AcDbCircle
 10
243.3819163737498
 20
34.01353013184717
 30
0.0
 40
5.790504622880997
100
AcDbArc
 50
77.69457063088201
 51
132.1520991772229
  0
LINE
  5
12C
330
2
100
AcDbEntity
  8
KIJUN
 62
     7
100
AcDbLine
 10
273.3550202862957
 20
40.51623374818865
 30
0.0
 11
281.4296746014874
 21
42.82197104399283
 31
0.0
  0
LINE
  5
12D
330
2
100
AcDbEntity
  8
KIJUN
 62
     7
100
AcDbLine
 10
271.8171421152324
 20
43.70922752684673
 30
0.0
 11
268.6369046788126
 21
43.23239786281084
 31
0.0
  0
CIRCLE
  5
12E
330
2
100
AcDbEntity
  8
KIJUN
 62
     7
100
AcDbCircle
 10
262.7690172655097
 20
41.78108750916162
 30
0.0
 40
0.9952876527897378
  0
ARC
  5
12F
330
2
100
AcDbEntity
  8
KIJUN
 62
     7
100
AcDbCircle
 10
260.7621140926188
 20
5.247412463229294
 30
0.0
 40
23.55056246428957
100
AcDbArc
 50
63.73351765398618
 51
86.5100644189957
  0
ARC
  5
130
330
2
100
AcDbEntity
  8
KIJUN
 62
     7
100
AcDbCircle
 10
229.1782961684267
 20
-113.8289987355634
 30
0.0
 40
148.7518267113519
100
AcDbArc
 50
72.54343238690115
 51
76.86081332784446
  0
ARC
  5
131
330
2
100
AcDbEntity
  8
KIJUN
 62
     7
100
AcDbCircle
 10
260.7048600577718
 20
51.00806871528431
 30
0.0
 40
19.07257937263615
100
AcDbArc
 50
269.0097181533336
 51
311.9718395319408
  0
ARC
  5
132
330
2
100
AcDbEntity
  8
KIJUN
 62
     7
100
AcDbCircle
 10
258.1862190416395
 20
5.209943633232627
 30
0.0
 40
35.11402735526805
100
AcDbArc
 50
64.21630458404897
 51
78.93326485059507
  0
LINE
  5
133
330
2
100
AcDbEntity
  8
KIJUN
 62
     7
100
AcDbLine
 10
260.830352457343
 20
40.35329335471288
 30
0.0
 11
264.9264343373815
 21
39.67100013000236
 31
0.0
  0
LINE
  5
134
330
2
100
AcDbEntity
  8
KIJUN
 62
     7
100
AcDbLine
 10
273.801279602349
 20
28.07200654424406
 30
0.0
 11
291.9000065415816
 21
28.34735497933872
 31
0.0
  0
LINE
  5
135
330
2
100
AcDbEntity
  8
KIJUN
 62
     7
100
AcDbLine
 10
272.8093471672068
 20
42.44696248483234
 30
0.0
 11
290.3005958610624
 21
46.10262435101577
 31
0.0
  0
LINE
  5
136
330
2
100
AcDbEntity
  8
KIJUN
 62
     7
100
AcDbLine
 10
271.8171421152324
 20
43.70922752684673
 30
0.0
 11
289.3083908090879
 21
47.36488939303018
 31
0.0
  0
LINE
  5
137
330
2
100
AcDbEntity
  8
KIJUN
 62
     7
100
AcDbLine
 10
272.4322030588032
 20
37.97992248374004
 30
0.0
 11
281.8910842365576
 21
36.36590629698918
 31
0.0
  0
LINE
  5
138
330
2
100
AcDbEntity
  8
KIJUN
 62
     7
100
AcDbLine
 10
281.4296746014874
 20
42.82197104399283
 30
0.0
 11
287.6586944616946
 21
43.51369215304595
 31
0.0
  0
ARC
  5
139
330
2
100
AcDbEntity
  8
KIJUN
 62
     7
100
AcDbCircle
 10
252.5021159336502
 20
-235.1792623780944
 30
0.0
 40
267.2336026648006
100
AcDbArc
 50
88.31173322413439
 51
93.97032390655645
  0
LINE
  5
13A
330
2
100
AcDbEntity
  8
KIJUN
 62
     7
100
AcDbLine
 10
234.0683587187754
 20
39.46102550294023
 30
0.0
 11
239.6607659321367
 21
40.51559943190618
 31
0.0
  0
LINE
  5
13B
330
2
100
AcDbEntity
  8
KIJUN
 62
     7
100
AcDbLine
 10
233.9989199268106
 20
45.53633451449632
 30
0.0
 11
240.3993863694177
 21
47.15941303281629
 31
0.0
  0
ARC
  5
13C
330
2
100
AcDbEntity
  8
KIJUN
 62
     7
100
AcDbCircle
 10
235.5088983182896
 20
52.0079744574362
 30
0.0
 40
13.24088632719681
100
AcDbArc
 50
263.3597224210817
 51
291.9896170664358
  0
LINE
  5
13D
330
2
100
AcDbEntity
  8
KIJUN
 62
     7
100
AcDbLine
 10
243.0230847914559
 20
35.46352205676822
 30
0.0
 11
233.9989199268106
 21
34.49373136614264
 31
0.0
  0
ARC
  5
13E
330
2
100
AcDbEntity
  8
KIJUN
 62
     7
100
AcDbCircle
 10
235.7627774539087
 20
48.68958365528971
 30
0.0
 40
11.03387783824815
100
AcDbArc
 50
260.8013254379122
 51
289.7753459090848
  0
LINE
  5
13F
330
2
100
AcDbEntity
  8
KIJUN
 62
     7
100
AcDbLine
 10
288.1357892962182
 20
44.20922678799144
 30
0.0
 11
299.8355058957076
 21
47.84204507471513
 31
0.0
  0
LINE
  5
140
330
2
100
AcDbEntity
  8
KIJUN
 62
     7
100
AcDbLine
 10
287.1435842442401
 20
43.39777529309031
 30
0.0
 11
300.8277109476821
 21
46.57978003270073
 31
0.0
  0
LINE
  5
141
330
2
100
AcDbEntity
  8
KIJUN
 62
     7
100
AcDbLine
 10
289.3083908090879
 20
47.36488939303018
 30
0.0
 11
296.7686679922863
 21
50.00592646937257
 31
0.0
  0
LINE
  5
142
330
2
100
AcDbEntity
  8
KIJUN
 62
     7
100
AcDbLine
 10
290.3005958610624
 20
46.10262435101577
 30
0.0
 11
297.7608730442608
 21
48.74366142735817
 31
0.0
  0
LINE
  5
143
330
2
100
AcDbEntity
  8
KIJUN
 62
     7
100
AcDbLine
 10
287.6586944616946
 20
43.51369215304595
 30
0.0
 11
297.0972393425858
 21
45.50834114443529
 31
0.0
  0
LINE
  5
144
330
2
100
AcDbEntity
  8
KIJUN
 62
     7
100
AcDbLine
 10
281.8910842365576
 20
36.36590629698918
 30
0.0
 11
294.579826731859
 21
33.59902106389637
 31
0.0
  0
LINE
  5
145
330
2
100
AcDbEntity
  8
KIJUN
 62
     7
100
AcDbLine
 10
276.6339417367121
 20
32.02091232479217
 30
0.0
 11
296.8473349423252
 21
28.20606018082692
 31
0.0
  0
LWPOLYLINE
  5
146
330
2
100
AcDbEntity
  8
KIJUN
 62
     7
100
AcDbPolyline
 90
        8
 70
     1
 43
0.0
 10
318.9989199268106
 20
52.14041655696411
 10
320.9989199268106
 20
52.14041655696411
 42
0.4142135623730951
 10
321.9989199268106
 20
53.14041655696411
 10
321.9989199268106
 20
55.14041655696411
 42
0.4142135623730951
 10
320.9989199268106
 20
56.14041655696411
 10
318.9989199268106
 20
56.14041655696411
 42
0.4142135623730951
 10
317.9989199268107
 20
55.14041655696411
 10
317.9989199268107
 20
53.14041655696411
 42
0.4142135623730951
  0
ARC
  5
147
330
2
100
AcDbEntity
  8
KIJUN
 62
     7
100
AcDbCircle
 10
339.6589063339847
 20
37.5239708070449
 30
0.0
 40
1.0
100
AcDbArc
 50
272.3370079579309
 51
39.1060857593862
  0
ARC
  5
148
330
2
100
AcDbEntity
  8
KIJUN
 62
     7
100
AcDbCircle
 10
354.6671217983057
 20
-328.991959891601
 30
0.0
 40
367.0543258528649
100
AcDbArc
 50
92.25491394632502
 51
94.94565262722971
  0
LWPOLYLINE
  5
149
330
2
100
AcDbEntity
  8
KIJUN
 62
     7
100
AcDbPolyline
 90
        8
 70
     1
 43
0.0
 10
376.9989199268107
 20
52.14041655696433
 10
370.9989199268105
 20
52.14041655696433
 42
-0.4142135623730951
 10
369.9989199268107
 20
53.14041655696434
 10
369.9989199268107
 20
55.14041655696434
 42
-0.4142135623730951
 10
370.9989199268105
 20
56.14041655696434
 10
376.9989199268107
 20
56.14041655696434
 42
-0.4142135623730951
 10
377.9989199268105
 20
55.14041655696434
 10
377.9989199268105
 20
53.14041655696434
 42
-0.4142135623730951
  0
LWPOLYLINE
  5
14A
330
2
100
AcDbEntity
  8
KIJUN
 62
     7
100
AcDbPolyline
 90
        8
 70
     1
 43
0.0
 10
382.9989199268107
 20
52.14041655696433
 10
384.9989199268107
 20
52.14041655696433
 42
0.4142135623730951
 10
385.9989199268105
 20
53.14041655696434
 10
385.9989199268105
 20
55.14041655696434
 42
0.4142135623730951
 10
384.9989199268107
 20
56.14041655696434
 10
382.9989199268107
 20
56.14041655696434
 42
0.4142135623730951
 10
381.9989199268105
 20
55.14041655696434
 10
381.9989199268105
 20
53.14041655696434
 42
0.4142135623730951
  0
LWPOLYLINE
  5
14B
330
2
100
AcDbEntity
  8
KIJUN
 62
     7
100
AcDbPolyline
 90
        8
 70
     1
 43
0.0
 10
378.9989199268107
 20
52.14041655696433
 10
380.9989199268107
 20
52.14041655696433
 42
0.4142135623730951
 10
381.9989199268105
 20
53.14041655696434
 10
381.9989199268105
 20
55.14041655696434
 42
0.4142135623730951
 10
380.9989199268107
 20
56.14041655696434
 10
378.9989199268107
 20
56.14041655696434
 42
0.4142135623730951
 10
377.9989199268105
 20
55.14041655696434
 10
377.9989199268105
 20
53.14041655696434
 42
0.4142135623730951
  0
LWPOLYLINE
  5
14C
330
2
100
AcDbEntity
  8
KIJUN
 62
     7
100
AcDbPolyline
 90
        8
 70
     1
 43
0.0
 10
386.9989199268107
 20
52.14041655696433
 10
392.9989199268107
 20
52.14041655696433
 42
0.4142135623730951
 10
393.9989199268105
 20
53.14041655696434
 10
393.9989199268105
 20
55.14041655696434
 42
0.4142135623730951
 10
392.9989199268107
 20
56.14041655696434
 10
386.9989199268107
 20
56.14041655696434
 42
0.4142135623730951
 10
385.9989199268105
 20
55.14041655696434
 10
385.9989199268105
 20
53.14041655696434
 42
0.4142135623730951
  0
LINE
  5
14D
330
2
100
AcDbEntity
  8
KIJUN
 62
     7
100
AcDbLine
 10
374.7270513420076
 20
30.89058616145376
 30
0.0
 11
387.8728162018592
 21
27.35831287292677
 31
0.0
  0
LINE
  5
14E
330
2
100
AcDbEntity
  8
KIJUN
 62
     7
100
AcDbLine
 10
356.6339417367121
 20
32.02091232479217
 30
0.0
 11
376.8473349423252
 21
28.20606018082692
 31
0.0
  0
LINE
  5
14F
330
2
100
AcDbEntity
  8
KIJUN
 62
     7
100
AcDbLine
 10
353.801279602349
 20
28.07200654424406
 30
0.0
 11
371.9000065415816
 21
28.34735497933872
 31
0.0
  0
ARC
  5
150
330
2
100
AcDbEntity
  8
KIJUN
 62
     7
100
AcDbCircle
 10
381.1614295955418
 20
45.63710730896747
 30
0.0
 40
1.0
100
AcDbArc
 50
88.78164670458424
 51
109.4946384115794
  0
LINE
  5
151
330
2
100
AcDbEntity
  8
KIJUN
 62
     7
100
AcDbLine
 10
367.14358424424
 20
43.39777529309031
 30
0.0
 11
380.8277109476822
 21
46.57978003270073
 31
0.0
  0
LINE
  5
152
330
2
100
AcDbEntity
  8
KIJUN
 62
     7
100
AcDbLine
 10
381.1826922695262
 20
46.63688123275965
 30
0.0
 11
388.4735166395507
 21
46.4818237562966
 31
0.0
  0
ARC
  5
153
330
2
100
AcDbEntity
  8
KIJUN
 62
     7
100
AcDbCircle
 10
380.1692245435675
 20
46.89937235098186
 30
0.0
 40
1.0
100
AcDbArc
 50
88.78164670458424
 51
109.4946384115794
  0
LINE
  5
154
330
2
100
AcDbEntity
  8
KIJUN
 62
     7
100
AcDbLine
 10
368.1357892962182
 20
44.20922678799144
 30
0.0
 11
379.8355058957076
 21
47.84204507471513
 31
0.0
  0
LINE
  5
155
330
2
100
AcDbEntity
  8
KIJUN
 62
     7
100
AcDbLine
 10
380.1904872175519
 20
47.89914627477407
 30
0.0
 11
387.4813115875764
 21
47.74408879831097
 31
0.0
  0
LINE
  5
156
330
2
100
AcDbEntity
  8
KIJUN
 62
     7
100
AcDbLine
 10
388.4735166395507
 20
46.4818237562966
 30
0.0
 11
393.9989199268105
 21
46.78763849882494
 31
0.0
  0
LINE
  5
157
330
2
100
AcDbEntity
  8
KIJUN
 62
     7
100
AcDbLine
 10
387.4813115875764
 20
47.74408879831097
 30
0.0
 11
393.9989199268105
 21
47.92793447967647
 31
0.0
  0
LINE
  5
158
330
2
100
AcDbEntity
  8
KIJUN
 62
     7
100
AcDbLine
 10
384.4144736841549
 20
49.90797019296842
 30
0.0
 11
393.9989199268105
 21
49.95726907503677
 31
0.0
  0
LINE
  5
159
330
2
100
AcDbEntity
  8
KIJUN
 62
     7
100
AcDbLine
 10
385.4066787361293
 20
48.64570515095403
 30
0.0
 11
393.9989199268105
 21
49.1212603079014
 31
0.0
  0
ARC
  5
15A
330
2
100
AcDbEntity
  8
KIJUN
 62
     7
100
AcDbCircle
 10
377.1023866401459
 20
49.06325374563929
 30
0.0
 40
1.0
100
AcDbArc
 50
88.78164670458424
 51
109.4946384115794
  0
ARC
  5
15B
330
2
100
AcDbEntity
  8
KIJUN
 62
     7
100
AcDbCircle
 10
378.0945916921205
 20
47.80098870362491
 30
0.0
 40
1.0
100
AcDbArc
 50
88.78164670458424
 51
109.4946384115794
  0
LINE
  5
15C
330
2
100
AcDbEntity
  8
KIJUN
 62
     7
100
AcDbLine
 10
378.1158543661049
 20
48.8007626274171
 30
0.0
 11
385.4066787361293
 21
48.64570515095403
 31
0.0
  0
LINE
  5
15D
330
2
100
AcDbEntity
  8
KIJUN
 62
     7
100
AcDbLine
 10
370.3005958610625
 20
46.10262435101577
 30
0.0
 11
377.7608730442608
 21
48.74366142735817
 31
0.0
  0
LINE
  5
15E
330
2
100
AcDbEntity
  8
KIJUN
 62
     7
100
AcDbLine
 10
352.8093471672068
 20
42.44696248483234
 30
0.0
 11
370.3005958610625
 21
46.10262435101577
 31
0.0
  0
ARC
  5
15F
330
2
100
AcDbEntity
  8
KIJUN
 62
     7
100
AcDbCircle
 10
378.1310568178528
 20
40.61638637892139
 30
0.0
 40
5.0
100
AcDbArc
 50
90.32194567753547
 51
101.9327518860541
  0
LINE
  5
160
330
2
100
AcDbEntity
  8
KIJUN
 62
     7
100
AcDbLine
 10
377.1236493141305
 20
50.0630276694315
 30
0.0
 11
384.4144736841549
 21
49.90797019296842
 31
0.0
  0
LINE
  5
161
330
2
100
AcDbEntity
  8
KIJUN
 62
     7
100
AcDbLine
 10
369.308390809088
 20
47.36488939303018
 30
0.0
 11
376.7686679922862
 21
50.00592646937257
 31
0.0
  0
LINE
  5
162
330
2
100
AcDbEntity
  8
KIJUN
 62
     7
100
AcDbLine
 10
351.8171421152325
 20
43.70922752684673
 30
0.0
 11
348.6369046788127
 21
43.23239786281084
 31
0.0
  0
LINE
  5
163
330
2
100
AcDbEntity
  8
KIJUN
 62
     7
100
AcDbLine
 10
351.8171421152325
 20
43.70922752684673
 30
0.0
 11
369.308390809088
 21
47.36488939303018
 31
0.0
  0
LINE
  5
164
330
2
100
AcDbEntity
  8
KIJUN
 62
     7
100
AcDbLine
 10
333.848856988679
 20
45.45759222005727
 30
0.0
 11
354.8383619591837
 21
47.20594617168607
 31
0.0
  0
LINE
  5
165
330
2
100
AcDbEntity
  8
KIJUN
 62
     7
100
AcDbLine
 10
378.1029619052674
 20
45.61630744588709
 30
0.0
 11
393.9989199268105
 21
45.70562796617086
 31
0.0
  0
LINE
  5
166
330
2
100
AcDbEntity
  8
KIJUN
 62
     7
100
AcDbLine
 10
367.6586944616947
 20
43.51369215304595
 30
0.0
 11
377.0972393425859
 21
45.50834114443529
 31
0.0
  0
LINE
  5
167
330
2
100
AcDbEntity
  8
KIJUN
 62
     7
100
AcDbLine
 10
361.4296746014876
 20
42.82197104399283
 30
0.0
 11
367.6586944616947
 21
43.51369215304595
 31
0.0
  0
LINE
  5
168
330
2
100
AcDbEntity
  8
KIJUN
 62
     7
100
AcDbLine
 10
353.3550202862957
 20
40.51623374818865
 30
0.0
 11
361.4296746014876
 21
42.82197104399283
 31
0.0
  0
LINE
  5
169
330
2
100
AcDbEntity
  8
KIJUN
 62
     7
100
AcDbLine
 10
388.8835009072581
 20
33.36844789213166
 30
0.0
 11
393.9989199268102
 21
33.0276127748196
 31
0.0
  0
LINE
  5
16A
330
2
100
AcDbEntity
  8
KIJUN
 62
     7
100
AcDbLine
 10
374.5798267318591
 20
33.59902106389637
 30
0.0
 11
388.8835009072581
 21
33.36844789213166
 31
0.0
  0
LINE
  5
16B
330
2
100
AcDbEntity
  8
KIJUN
 62
     7
100
AcDbLine
 10
361.8910842365576
 20
36.36590629698918
 30
0.0
 11
374.5798267318591
 21
33.59902106389637
 31
0.0
  0
LINE
  5
16C
330
2
100
AcDbEntity
  8
KIJUN
 62
     7
100
AcDbLine
 10
352.4322030588032
 20
37.97992248374004
 30
0.0
 11
361.8910842365576
 21
36.36590629698918
 31
0.0
  0
CIRCLE
  5
16D
330
2
100
AcDbEntity
  8
KIJUN
 62
     7
100
AcDbCircle
 10
342.7690172655097
 20
41.78108750916162
 30
0.0
 40
0.9952876527897378
  0
LINE
  5
16E
330
2
100
AcDbEntity
  8
KIJUN
 62
     7
100
AcDbLine
 10
325.2531741668217
 20
41.78108750916162
 30
0.0
 11
332.0062700551538
 21
43.36294800417049
 31
0.0
  0
LINE
  5
16F
330
2
100
AcDbEntity
  8
KIJUN
 62
     7
100
AcDbLine
 10
319.6607659321366
 20
40.51559943190618
 30
0.0
 11
325.2531741668217
 21
41.78108750916162
 31
0.0
  0
LINE
  5
170
330
2
100
AcDbEntity
  8
KIJUN
 62
     7
100
AcDbLine
 10
320.3993863694177
 20
47.15941303281629
 30
0.0
 11
329.4738596076907
 21
50.74496391317262
 31
0.0
  0
ARC
  5
171
330
2
100
AcDbEntity
  8
KIJUN
 62
     7
100
AcDbCircle
 10
334.0867624110664
 20
26.25095803792061
 30
0.0
 40
14.51715798374468
100
AcDbArc
 50
74.40588462068825
 51
92.82247479470623
  0
ARC
  5
172
330
2
100
AcDbEntity
  8
KIJUN
 62
     7
100
AcDbCircle
 10
342.9345009984857
 20
30.79443580596995
 30
0.0
 40
13.80457788132031
100
AcDbArc
 50
115.0462415187181
 51
133.8451108254631
  0
LINE
  5
173
330
2
100
AcDbEntity
  8
KIJUN
 62
     7
100
AcDbLine
 10
330.0180424398195
 20
41.04198153943099
 30
0.0
 11
337.090338820666
 21
43.30091968117566
 31
0.0
  0
LINE
  5
174
330
2
100
AcDbEntity
  8
KIJUN
 62
     7
100
AcDbLine
 10
326.0808877535751
 20
40.67763616374333
 30
0.0
 11
330.0180424398195
 21
41.04198153943099
 31
0.0
  0
ARC
  5
175
330
2
100
AcDbEntity
  8
KIJUN
 62
     7
100
AcDbCircle
 10
325.0601439460301
 20
29.6175863287313
 30
0.0
 40
11.10705272669535
100
AcDbArc
 50
84.72704851916871
 51
108.1546623751276
  0
LWPOLYLINE
  5
176
330
2
100
AcDbEntity
  8
KIJUN
 62
     7
100
AcDbPolyline
 90
        8
 70
     1
 43
0.0
 10
362.9989199268105
 20
52.14041655696456
 10
364.9989199268105
 20
52.14041655696456
 42
0.4142135623730951
 10
365.9989199268107
 20
53.14041655696456
 10
365.9989199268107
 20
55.14041655696455
 42
0.4142135623730951
 10
364.9989199268105
 20
56.14041655696457
 10
362.9989199268105
 20
56.14041655696457
 42
0.4142135623730951
 10
361.9989199268107
 20
55.14041655696455
 10
361.9989199268107
 20
53.14041655696456
 42
0.4142135623730951
  0
LWPOLYLINE
  5
177
330
2
100
AcDbEntity
  8
KIJUN
 62
     7
100
AcDbPolyline
 90
        8
 70
     1
 43
0.0
 10
366.9989199268105
 20
52.14041655696456
 10
368.9989199268105
 20
52.14041655696456
 42
0.4142135623730951
 10
369.9989199268107
 20
53.14041655696456
 10
369.9989199268107
 20
55.14041655696455
 42
0.4142135623730951
 10
368.9989199268105
 20
56.14041655696457
 10
366.9989199268105
 20
56.14041655696457
 42
0.4142135623730951
 10
365.9989199268107
 20
55.14041655696455
 10
365.9989199268107
 20
53.14041655696456
 42
0.4142135623730951
  0
LWPOLYLINE
  5
178
330
2
100
AcDbEntity
  8
KIJUN
 62
     7
100
AcDbPolyline
 90
        8
 70
     1
 43
0.0
 10
354.9989199268106
 20
52.14041655696456
 10
360.9989199268106
 20
52.14041655696456
 42
0.4142135623730951
 10
361.9989199268107
 20
53.14041655696456
 10
361.9989199268107
 20
55.14041655696455
 42
0.4142135623730951
 10
360.9989199268106
 20
56.14041655696457
 10
354.9989199268106
 20
56.14041655696457
 42
0.4142135623730951
 10
353.9989199268107
 20
55.14041655696455
 10
353.9989199268107
 20
53.14041655696456
 42
0.4142135623730951
  0
LWPOLYLINE
  5
179
330
2
100
AcDbEntity
  8
KIJUN
 62
     7
100
AcDbPolyline
 90
        8
 70
     1
 43
0.0
 10
346.9989199268107
 20
52.14041655696456
 10
348.9989199268106
 20
52.14041655696456
 42
0.4142135623730951
 10
349.9989199268107
 20
53.14041655696456
 10
349.9989199268107
 20
55.14041655696455
 42
0.4142135623730951
 10
348.9989199268106
 20
56.14041655696457
 10
346.9989199268107
 20
56.14041655696457
 42
0.4142135623730951
 10
345.9989199268106
 20
55.14041655696455
 10
345.9989199268106
 20
53.14041655696456
 42
0.4142135623730951
  0
LWPOLYLINE
  5
17A
330
2
100
AcDbEntity
  8
KIJUN
 62
     7
100
AcDbPolyline
 90
        8
 70
     1
 43
0.0
 10
350.9989199268106
 20
52.14041655696456
 10
352.9989199268106
 20
52.14041655696456
 42
0.4142135623730951
 10
353.9989199268107
 20
53.14041655696456
 10
353.9989199268107
 20
55.14041655696455
 42
0.4142135623730951
 10
352.9989199268106
 20
56.14041655696457
 10
350.9989199268106
 20
56.14041655696457
 42
0.4142135623730951
 10
349.9989199268107
 20
55.14041655696455
 10
349.9989199268107
 20
53.14041655696456
 42
0.4142135623730951
  0
LWPOLYLINE
  5
17B
330
2
100
AcDbEntity
  8
KIJUN
 62
     7
100
AcDbPolyline
 90
        8
 70
     1
 43
0.0
 10
344.9989199268107
 20
52.14041655696456
 10
338.9989199268107
 20
52.14041655696456
 42
-0.4142135623730951
 10
337.9989199268106
 20
53.14041655696456
 10
337.9989199268106
 20
55.14041655696455
 42
-0.4142135623730951
 10
338.9989199268107
 20
56.14041655696457
 10
344.9989199268107
 20
56.14041655696457
 42
-0.4142135623730951
 10
345.9989199268106
 20
55.14041655696455
 10
345.9989199268106
 20
53.14041655696456
 42
-0.4142135623730951
  0
LWPOLYLINE
  5
17C
330
2
100
AcDbEntity
  8
KIJUN
 62
     7
100
AcDbPolyline
 90
        8
 70
     1
 43
0.0
 10
334.9989199268107
 20
52.14041655696456
 10
336.9989199268107
 20
52.14041655696456
 42
0.4142135623730951
 10
337.9989199268106
 20
53.14041655696456
 10
337.9989199268106
 20
55.14041655696455
 42
0.4142135623730951
 10
336.9989199268107
 20
56.14041655696457
 10
334.9989199268107
 20
56.14041655696457
 42
0.4142135623730951
 10
333.9989199268106
 20
55.14041655696455
 10
333.9989199268106
 20
53.14041655696456
 42
0.4142135623730951
  0
ARC
  5
17D
330
2
100
AcDbEntity
  8
KIJUN
 62
     7
100
AcDbCircle
 10
340.7621140926189
 20
5.247412463229294
 30
0.0
 40
23.55056246428957
100
AcDbArc
 50
63.73351765398618
 51
86.5100644189957
  0
ARC
  5
17E
330
2
100
AcDbEntity
  8
KIJUN
 62
     7
100
AcDbCircle
 10
309.1782961684266
 20
-113.8289987355634
 30
0.0
 40
148.7518267113519
100
AcDbArc
 50
72.54343238690115
 51
76.86081332784446
  0
ARC
  5
17F
330
2
100
AcDbEntity
  8
KIJUN
 62
     7
100
AcDbCircle
 10
354.667121798339
 20
-330.2242314286447
 30
0.0
 40
367.0543258528649
100
AcDbArc
 50
92.33700795792113
 51
94.94565262722971
  0
ARC
  5
180
330
2
100
AcDbEntity
  8
KIJUN
 62
     7
100
AcDbCircle
 10
340.7048600577718
 20
51.00806871528431
 30
0.0
 40
19.07257937263615
100
AcDbArc
 50
269.0097181533336
 51
311.9718395319408
  0
ARC
  5
181
330
2
100
AcDbEntity
  8
KIJUN
 62
     7
100
AcDbCircle
 10
338.1862190416395
 20
5.209943633232627
 30
0.0
 40
35.11402735526805
100
AcDbArc
 50
64.21630458404897
 51
78.93326485059507
  0
LINE
  5
182
330
2
100
AcDbEntity
  8
KIJUN
 62
     7
100
AcDbLine
 10
340.8303524573429
 20
40.35329335471288
 30
0.0
 11
344.9264343373815
 21
39.67100013000236
 31
0.0
  0
LINE
  5
183
330
2
100
AcDbEntity
  8
KIJUN
 62
     7
100
AcDbLine
 10
324.6160059197632
 20
39.67100013000236
 30
0.0
 11
340.8303524573429
 21
40.35329335471288
 31
0.0
  0
LWPOLYLINE
  5
184
330
2
100
AcDbEntity
  8
KIJUN
 62
     7
100
AcDbPolyline
 90
        8
 70
     1
 43
0.0
 10
330.9989199268107
 20
52.14041655696456
 10
332.9989199268107
 20
52.14041655696456
 42
0.4142135623730951
 10
333.9989199268106
 20
53.14041655696456
 10
333.9989199268106
 20
55.14041655696455
 42
0.4142135623730951
 10
332.9989199268107
 20
56.14041655696457
 10
330.9989199268107
 20
56.14041655696457
 42
0.4142135623730951
 10
329.9989199268106
 20
55.14041655696455
 10
329.9989199268106
 20
53.14041655696456
 42
0.4142135623730951
  0
LWPOLYLINE
  5
185
330
2
100
AcDbEntity
  8
KIJUN
 62
     7
100
AcDbPolyline
 90
        8
 70
     1
 43
0.0
 10
322.9989199268107
 20
52.14041655696456
 10
328.9989199268107
 20
52.14041655696456
 42
0.4142135623730951
 10
329.9989199268106
 20
53.14041655696456
 10
329.9989199268106
 20
55.14041655696455
 42
0.4142135623730951
 10
328.9989199268107
 20
56.14041655696457
 10
322.9989199268107
 20
56.14041655696457
 42
0.4142135623730951
 10
321.9989199268106
 20
55.14041655696455
 10
321.9989199268106
 20
53.14041655696456
 42
0.4142135623730951
  0
DIMENSION
  5
186
330
2
100
AcDbEntity
  8
SUNPOU
100
AcDbDimension
  2
*D3
 10
10.43984598649308
 20
57.39502551071911
 30
0.0
 11
5.439845986493074
 21
40.89502551071911
 31
0.0
 71
     5
 42
33.00000000000001
  3
STANDARD$0
100
AcDbAlignedDimension
 13
22.8357449297971
 23
24.39502551071911
 33
0.0
 14
22.8357449297971
 24
57.39502551071911
 34
0.0
 50
90.0
100
AcDbRotatedDimension
1001
ACAD
1000
DSTYLE
1002
{
1070
    41
1040
2.0
1070
    44
1040
0.0
1070
    77
1070
     1
1070
    78
1070
     0
1070
   140
1040
3.0
1070
   141
1040
1.0
1070
   146
1040
0.0642857142857143
1070
   172
1070
     0
1070
   173
1070
     0
1070
   176
1070
    60
1070
   177
1070
    70
1070
   178
1070
    60
1070
   271
1070
     0
1070
   272
1070
     0
1070
   341
1005
0
1070
   342
1005
37
1070
   343
1005
0
1070
   344
1005
0
1002
}
  0
DIMENSION
  5
19C
330
2
100
AcDbEntity
  8
SUNPOU
100
AcDbDimension
  2
*D2
 10
56.8357449297971
 20
69.39008819992825
 30
0.0
 11
39.8357449297971
 21
74.39008819992825
 31
0.0
 71
     5
 42
34.0
  3
STANDARD$0
100
AcDbAlignedDimension
 13
22.8357449297971
 23
57.39502551071911
 33
0.0
 14
56.8357449297971
 24
57.39502551071911
 34
0.0
 50
0.000000000000007
100
AcDbRotatedDimension
1001
ACAD
1000
DSTYLE
1002
{
1070
    41
1040
2.0
1070
    44
1040
0.0
1070
    77
1070
     1
1070
    78
1070
     0
1070
   140
1040
3.0
1070
   141
1040
1.0
1070
   146
1040
0.0642857142857143
1070
   172
1070
     0
1070
   173
1070
     0
1070
   176
1070
    60
1070
   177
1070
    70
1070
   178
1070
    60
1070
   271
1070
     0
1070
   272
1070
     0
1070
   341
1005
0
1070
   342
1005
37
1070
   343
1005
0
1070
   344
1005
0
1002
}
  0
TEXT
  5
1A9
330
2
100
AcDbEntity
  8
HOJO
100
AcDbText
 10
0.1742662643119956
 20
1.183313000000011
 30
0.0
 40
4.5
  1
PM834
  7
SUNPOU
100
AcDbText
  0
LINE
  5
1AB
330
2
100
AcDbEntity
  8
WAKU
100
AcDbLine
 10
0.0
 20
0.0
 30
0.0
 11
44.67747103027142
 21
0.0
 31
0.0
  0
LINE
  5
1AD
330
2
100
AcDbEntity
  8
WAKU
100
AcDbLine
 10
0.0
 20
7.0
 30
0.0
 11
44.67747103027142
 21
7.0
 31
0.0
  0
TEXT
  5
1AE
330
2
100
AcDbEntity
  8
HOJO
100
AcDbText
 10
29.95219878097419
 20
2.522193000000015
 30
0.0
 40
3.0
  1
33\U+00D734
  7
SUNPOU
100
AcDbText
  0
LWPOLYLINE
  5
1AF
330
2
100
AcDbEntity
  8
KIJUN
100
AcDbPolyline
 90
       22
 70
     1
 43
0.0
 10
46.37706460490751
 20
53.25907126714064
 42
0.4477577594670123
 10
46.22315942631185
 20
55.47018071430625
 42
-0.231894742213094
 10
45.83574492979709
 20
56.26058504179929
 10
45.83574492979709
 20
56.3950255107191
 42
0.4142135623730951
 10
44.83574492979708
 20
57.39502551071911
 10
40.83574492979709
 20
57.39502551071908
 42
0.4142135623730951
 10
39.83574492979709
 20
56.3950255107191
 10
39.83574492979709
 20
49.39502551071909
 10
23.8357449297971
 20
49.39502551071909
 42
0.4142135623730951
 10
22.8357449297971
 20
48.39502551071909
 10
22.8357449297971
 20
25.39502551071911
 42
0.4142135623730951
 10
23.8357449297971
 20
24.39502551071911
 10
44.83574492979708
 20
24.39502551071911
 42
0.3372176030866019
 10
45.83574492979756
 20
25.81543937285426
 42
0.2869438417304815
 10
52.49331401380596
 20
29.44320663285186
 42
0.2326112942038056
 10
56.83574492979659
 20
41.39502551072307
 42
0.1872459370669286
 10
56.13117478369339
 20
43.40561790478512
 42
-0.1632580841560674
 10
55.65505397505279
 20
44.58531868637671
 42
0.3108391515833093
 10
52.54565475873814
 20
48.77469908825498
 10
52.54437026065795
 20
48.8843607151328
 42
0.2737671769331928
 10
51.486120534906
 20
50.62540869929762
 42
0.1104376126831204
 10
46.46222767065848
 20
52.14041655696436
  0
ENDSEC
  0
SECTION
  2
OBJECTS
  0
DICTIONARY
  5
9
330
0
100
AcDbDictionary
281
     1
  3
ACAD_COLOR
350
48
  3
ACAD_GROUP
350
3D
  3
ACAD_LAYOUT
350
1F
  3
ACAD_MATERIAL
350
C
  3
ACAD_MLEADERSTYLE
350
4B
  3
ACAD_MLINESTYLE
350
3E
  3
ACAD_PLOTSETTINGS
350
3F
  3
ACAD_PLOTSTYLENAME
350
8
  3
ACAD_SCALELIST
350
49
  3
ACAD_TABLESTYLE
350
4A
  3
ACAD_VISUALSTYLE
350
32
  3
ACDB_RECOMPOSE_DATA
350
1C1
  3
AcDbVariableDictionary
350
1B4
  0
DICTIONARY
  5
3
330
2
100
AcDbDictionary
280
     1
281
     1
  3
ACAD_LAYOUTSELFREF
360
4
  0
DICTIONARY
  5
21
330
20
100
AcDbDictionary
280
     1
281
     1
  3
ACAD_LAYOUTSELFREF
360
22
  0
DICTIONARY
  5
48
102
{ACAD_REACTORS
330
9
102
}
330
9
100
AcDbDictionary
281
     1
  0
DICTIONARY
  5
3D
102
{ACAD_REACTORS
330
9
102
}
330
9
100
AcDbDictionary
281
     1
  0
DICTIONARY
  5
1F
102
{ACAD_REACTORS
330
9
102
}
330
9
100
AcDbDictionary
281
     1
  3
Model
350
1E
  3
ﾚｲｱｳﾄ1
350
25
  0
DICTIONARY
  5
C
102
{ACAD_REACTORS
330
9
102
}
330
9
100
AcDbDictionary
281
     1
  3
ByBlock
350
40
  3
ByLayer
350
15
  3
Global
350
B
  0
DICTIONARY
  5
4B
102
{ACAD_REACTORS
330
9
102
}
330
9
100
AcDbDictionary
281
     1
  0
DICTIONARY
  5
3E
102
{ACAD_REACTORS
330
9
102
}
330
9
100
AcDbDictionary
281
     1
  3
STANDARD
350
4D
  0
DICTIONARY
  5
3F
102
{ACAD_REACTORS
330
9
102
}
330
9
100
AcDbDictionary
281
     1
  0
ACDBDICTIONARYWDFLT
  5
8
102
{ACAD_REACTORS
330
9
102
}
330
9
100
AcDbDictionary
281
     1
  3
Normal
350
7
100
AcDbDictionaryWithDefault
340
7
  0
DICTIONARY
  5
49
102
{ACAD_REACTORS
330
9
102
}
330
9
100
AcDbDictionary
281
     1
  3
A0
350
51
  3
A1
350
52
  3
A2
350
53
  3
A3
350
54
  3
A4
350
55
  3
A5
350
56
  3
A6
350
57
  3
A7
350
58
  3
A8
350
59
  3
A9
350
5A
  3
B0
350
5B
  3
B1
350
5C
  3
B2
350
5D
  3
B3
350
5E
  3
B4
350
5F
  3
B5
350
60
  3
B6
350
61
  0
DICTIONARY
  5
4A
102
{ACAD_REACTORS
330
9
102
}
330
9
100
AcDbDictionary
281
     1
  3
Standard
350
4E
  0
DICTIONARY
  5
32
102
{ACAD_REACTORS
330
9
102
}
330
9
100
AcDbDictionary
281
     1
  3
2dWireframe
350
31
  3
Realistic
350
4F
  3
Wireframe
350
50
  0
XRECORD
  5
1C1
102
{ACAD_REACTORS
330
9
102
}
330
9
100
AcDbXrecord
280
     1
 90
        1
330
4E
  0
DICTIONARY
  5
1B4
102
{ACAD_REACTORS
330
9
102
}
330
9
100
AcDbDictionary
281
     1
  3
CANNOSCALE
350
1B9
  3
CMLEADERSTYLE
350
1B6
  3
CTABLESTYLE
350
1B5
  3
CVIEWDETAILSTYLE
350
1B7
  3
CVIEWSECTIONSTYLE
350
1B8
  3
DIMASSOC
350
1BD
  3
HIDETEXT
350
1BC
  3
INDEXCTL
350
1BB
  3
SORTENTS
350
1BA
  3
XCLIPFRAME
350
1BE
  0
XRECORD
  5
4
102
{ACAD_REACTORS
330
3
102
}
330
3
100
AcDbXrecord
280
     1
340
2
  0
XRECORD
  5
22
102
{ACAD_REACTORS
330
21
102
}
330
21
100
AcDbXrecord
280
     1
340
20
  0
LAYOUT
  5
1E
102
{ACAD_XDICTIONARY
360
1C4
102
}
102
{ACAD_REACTORS
330
1F
102
}
330
1F
100
AcDbPlotSettings
  1

  2
なし
  4

  6

 40
0.0
 41
0.0
 42
0.0
 43
0.0
 44
0.0
 45
0.0
 46
0.0
 47
0.0
 48
0.0
 49
0.0
140
0.0
141
0.0
142
1.0
143
1.0
 70
  1712
 72
     0
 73
     0
 74
     0
  7
monochrome.ctb
 75
     0
147
1.0
148
0.0
149
0.0
100
AcDbLayout
  1
Model
 70
     1
 71
     0
 10
0.0
 20
0.0
 11
12.0
 21
9.0
 12
0.0
 22
0.0
 32
0.0
 14
0.0
 24
0.0
 34
0.0
 15
0.0
 25
0.0
 35
0.0
146
0.0
 13
0.0
 23
0.0
 33
0.0
 16
1.0
 26
0.0
 36
0.0
 17
0.0
 27
1.0
 37
0.0
 76
     0
330
2
  0
LAYOUT
  5
25
102
{ACAD_XDICTIONARY
360
1C6
102
}
102
{ACAD_REACTORS
330
1F
102
}
330
1F
100
AcDbPlotSettings
  1

  2
なし
  4

  6

 40
0.0
 41
0.0
 42
0.0
 43
0.0
 44
0.0
 45
0.0
 46
0.0
 47
0.0
 48
0.0
 49
0.0
140
0.0
141
0.0
142
1.0
143
1.0
 70
   688
 72
     0
 73
     0
 74
     5
  7
monochrome.ctb
 75
    16
147
1.0
148
0.0
149
0.0
100
AcDbLayout
  1
ﾚｲｱｳﾄ1
 70
     1
 71
     1
 10
0.0
 20
0.0
 11
12.0
 21
9.0
 12
0.0
 22
0.0
 32
0.0
 14
1.000000000000000E+20
 24
1.000000000000000E+20
 34
1.000000000000000E+20
 15
-1.000000000000000E+20
 25
-1.000000000000000E+20
 35
-1.000000000000000E+20
146
0.0
 13
0.0
 23
0.0
 33
0.0
 16
1.0
 26
0.0
 36
0.0
 17
0.0
 27
1.0
 37
0.0
 76
     0
330
20
  0
MATERIAL
  5
40
102
{ACAD_XDICTIONARY
360
41
102
}
102
{ACAD_REACTORS
330
C
102
}
330
C
100
AcDbMaterial
  1
ByBlock
 72
     0
 43
0.0208333333333333
 43
0.0
 43
0.0
 43
0.0
 43
0.0
 43
0.0208333333333333
 43
0.0
 43
0.0
 43
0.0
 43
0.0
 43
1.0
 43
0.0
 43
0.0
 43
0.0
 43
0.0
 43
1.0
 77
     0
 47
0.0208333333333333
 47
0.0
 47
0.0
 47
0.0
 47
0.0
 47
0.0208333333333333
 47
0.0
 47
0.0
 47
0.0
 47
0.0
 47
1.0
 47
0.0
 47
0.0
 47
0.0
 47
0.0
 47
1.0
171
     0
 49
0.0208333333333333
 49
0.0
 49
0.0
 49
0.0
 49
0.0
 49
0.0208333333333333
 49
0.0
 49
0.0
 49
0.0
 49
0.0
 49
1.0
 49
0.0
 49
0.0
 49
0.0
 49
0.0
 49
1.0
175
     0
142
0.0208333333333333
142
0.0
142
0.0
142
0.0
142
0.0
142
0.0208333333333333
142
0.0
142
0.0
142
0.0
142
0.0
142
1.0
142
0.0
142
0.0
142
0.0
142
0.0
142
1.0
179
     0
144
0.0208333333333333
144
0.0
144
0.0
144
0.0
144
0.0
144
0.0208333333333333
144
0.0
144
0.0
144
0.0
144
0.0
144
1.0
144
0.0
144
0.0
144
0.0
144
0.0
144
1.0
147
0.0208333333333333
147
0.0
147
0.0
147
0.0
147
0.0
147
0.0208333333333333
147
0.0
147
0.0
147
0.0
147
0.0
147
1.0
147
0.0
147
0.0
147
0.0
147
0.0
147
1.0
  0
MATERIAL
  5
15
102
{ACAD_XDICTIONARY
360
16
102
}
102
{ACAD_REACTORS
330
C
102
}
330
C
100
AcDbMaterial
  1
ByLayer
 72
     0
 43
0.0208333333333333
 43
0.0
 43
0.0
 43
0.0
 43
0.0
 43
0.0208333333333333
 43
0.0
 43
0.0
 43
0.0
 43
0.0
 43
1.0
 43
0.0
 43
0.0
 43
0.0
 43
0.0
 43
1.0
 77
     0
 47
0.0208333333333333
 47
0.0
 47
0.0
 47
0.0
 47
0.0
 47
0.0208333333333333
 47
0.0
 47
0.0
 47
0.0
 47
0.0
 47
1.0
 47
0.0
 47
0.0
 47
0.0
 47
0.0
 47
1.0
171
     0
 49
0.0208333333333333
 49
0.0
 49
0.0
 49
0.0
 49
0.0
 49
0.0208333333333333
 49
0.0
 49
0.0
 49
0.0
 49
0.0
 49
1.0
 49
0.0
 49
0.0
 49
0.0
 49
0.0
 49
1.0
175
     0
142
0.0208333333333333
142
0.0
142
0.0
142
0.0
142
0.0
142
0.0208333333333333
142
0.0
142
0.0
142
0.0
142
0.0
142
1.0
142
0.0
142
0.0
142
0.0
142
0.0
142
1.0
179
     0
144
0.0208333333333333
144
0.0
144
0.0
144
0.0
144
0.0
144
0.0208333333333333
144
0.0
144
0.0
144
0.0
144
0.0
144
1.0
144
0.0
144
0.0
144
0.0
144
0.0
144
1.0
147
0.0208333333333333
147
0.0
147
0.0
147
0.0
147
0.0
147
0.0208333333333333
147
0.0
147
0.0
147
0.0
147
0.0
147
1.0
147
0.0
147
0.0
147
0.0
147
0.0
147
1.0
  0
MATERIAL
  5
B
102
{ACAD_XDICTIONARY
360
D
102
}
102
{ACAD_REACTORS
330
C
102
}
330
C
100
AcDbMaterial
  1
Global
 72
     0
 43
0.0208333333333333
 43
0.0
 43
0.0
 43
0.0
 43
0.0
 43
0.0208333333333333
 43
0.0
 43
0.0
 43
0.0
 43
0.0
 43
1.0
 43
0.0
 43
0.0
 43
0.0
 43
0.0
 43
1.0
 77
     0
 47
0.0208333333333333
 47
0.0
 47
0.0
 47
0.0
 47
0.0
 47
0.0208333333333333
 47
0.0
 47
0.0
 47
0.0
 47
0.0
 47
1.0
 47
0.0
 47
0.0
 47
0.0
 47
0.0
 47
1.0
171
     0
 49
0.0208333333333333
 49
0.0
 49
0.0
 49
0.0
 49
0.0
 49
0.0208333333333333
 49
0.0
 49
0.0
 49
0.0
 49
0.0
 49
1.0
 49
0.0
 49
0.0
 49
0.0
 49
0.0
 49
1.0
175
     0
142
0.0208333333333333
142
0.0
142
0.0
142
0.0
142
0.0
142
0.0208333333333333
142
0.0
142
0.0
142
0.0
142
0.0
142
1.0
142
0.0
142
0.0
142
0.0
142
0.0
142
1.0
179
     0
144
0.0208333333333333
144
0.0
144
0.0
144
0.0
144
0.0
144
0.0208333333333333
144
0.0
144
0.0
144
0.0
144
0.0
144
1.0
144
0.0
144
0.0
144
0.0
144
0.0
144
1.0
147
0.0208333333333333
147
0.0
147
0.0
147
0.0
147
0.0
147
0.0208333333333333
147
0.0
147
0.0
147
0.0
147
0.0
147
1.0
147
0.0
147
0.0
147
0.0
147
0.0
147
1.0
  0
MLINESTYLE
  5
4D
102
{ACAD_REACTORS
330
3E
102
}
330
3E
100
AcDbMlineStyle
  2
STANDARD
 70
     0
  3

 62
   256
 51
90.0
 52
90.0
 71
     2
 49
0.5
 62
   256
  6
BYLAYER
 49
-0.5
 62
   256
  6
BYLAYER
  0
ACDBPLACEHOLDER
  5
7
102
{ACAD_REACTORS
330
8
102
}
330
8
  0
SCALE
  5
51
102
{ACAD_REACTORS
330
49
102
}
330
49
100
AcDbScale
 70
     0
300
1:1
140
1.0
141
1.0
290
     1
  0
SCALE
  5
52
102
{ACAD_REACTORS
330
49
102
}
330
49
100
AcDbScale
 70
     0
300
1/128" = 1'-0"
140
0.0078125
141
12.0
290
     0
  0
SCALE
  5
53
102
{ACAD_REACTORS
330
49
102
}
330
49
100
AcDbScale
 70
     0
300
1/64" = 1'-0"
140
0.015625
141
12.0
290
     0
  0
SCALE
  5
54
102
{ACAD_REACTORS
330
49
102
}
330
49
100
AcDbScale
 70
     0
300
1/32" = 1'-0"
140
0.03125
141
12.0
290
     0
  0
SCALE
  5
55
102
{ACAD_REACTORS
330
49
102
}
330
49
100
AcDbScale
 70
     0
300
1/16" = 1'-0"
140
0.0625
141
12.0
290
     0
  0
SCALE
  5
56
102
{ACAD_REACTORS
330
49
102
}
330
49
100
AcDbScale
 70
     0
300
3/32" = 1'-0"
140
0.09375
141
12.0
290
     0
  0
SCALE
  5
57
102
{ACAD_REACTORS
330
49
102
}
330
49
100
AcDbScale
 70
     0
300
1/8" = 1'-0"
140
0.125
141
12.0
290
     0
  0
SCALE
  5
58
102
{ACAD_REACTORS
330
49
102
}
330
49
100
AcDbScale
 70
     0
300
3/16" = 1'-0"
140
0.1875
141
12.0
290
     0
  0
SCALE
  5
59
102
{ACAD_REACTORS
330
49
102
}
330
49
100
AcDbScale
 70
     0
300
1/4" = 1'-0"
140
0.25
141
12.0
290
     0
  0
SCALE
  5
5A
102
{ACAD_REACTORS
330
49
102
}
330
49
100
AcDbScale
 70
     0
300
3/8" = 1'-0"
140
0.375
141
12.0
290
     0
  0
SCALE
  5
5B
102
{ACAD_REACTORS
330
49
102
}
330
49
100
AcDbScale
 70
     0
300
1/2" = 1'-0"
140
0.5
141
12.0
290
     0
  0
SCALE
  5
5C
102
{ACAD_REACTORS
330
49
102
}
330
49
100
AcDbScale
 70
     0
300
3/4" = 1'-0"
140
0.75
141
12.0
290
     0
  0
SCALE
  5
5D
102
{ACAD_REACTORS
330
49
102
}
330
49
100
AcDbScale
 70
     0
300
1" = 1'-0"
140
1.0
141
12.0
290
     0
  0
SCALE
  5
5E
102
{ACAD_REACTORS
330
49
102
}
330
49
100
AcDbScale
 70
     0
300
1-1/2" = 1'-0"
140
1.5
141
12.0
290
     0
  0
SCALE
  5
5F
102
{ACAD_REACTORS
330
49
102
}
330
49
100
AcDbScale
 70
     0
300
3" = 1'-0"
140
3.0
141
12.0
290
     0
  0
SCALE
  5
60
102
{ACAD_REACTORS
330
49
102
}
330
49
100
AcDbScale
 70
     0
300
6" = 1'-0"
140
6.0
141
12.0
290
     0
  0
SCALE
  5
61
102
{ACAD_REACTORS
330
49
102
}
330
49
100
AcDbScale
 70
     0
300
1'-0" = 1'-0"
140
12.0
141
12.0
290
     0
  0
TABLESTYLE
  5
4E
102
{ACAD_XDICTIONARY
360
1BF
102
}
102
{ACAD_REACTORS
330
4A
102
}
330
4A
100
AcDbTableStyle
  3
Standard
 70
     0
 71
     0
 40
0.06
 41
0.06
280
     0
281
     0
  7
STANDARD
140
0.18
170
     2
 62
     0
 63
     7
283
     0
274
    -2
284
     1
 64
     0
275
    -2
285
     1
 65
     0
276
    -2
286
     1
 66
     0
277
    -2
287
     1
 67
     0
278
    -2
288
     1
 68
     0
279
    -2
289
     1
 69
     0
  7
STANDARD
140
0.25
170
     5
 62
     0
 63
     7
283
     0
274
    -2
284
     1
 64
     0
275
    -2
285
     1
 65
     0
276
    -2
286
     1
 66
     0
277
    -2
287
     1
 67
     0
278
    -2
288
     1
 68
     0
279
    -2
289
     1
 69
     0
  7
STANDARD
140
0.18
170
     5
 62
     0
 63
     7
283
     0
274
    -2
284
     1
 64
     0
275
    -2
285
     1
 65
     0
276
    -2
286
     1
 66
     0
277
    -2
287
     1
 67
     0
278
    -2
288
     1
 68
     0
279
    -2
289
     1
 69
     0
  0
VISUALSTYLE
  5
31
102
{ACAD_XDICTIONARY
360
1C8
102
}
102
{ACAD_REACTORS
330
32
102
}
330
32
100
AcDbVisualStyle
  2
2dWireframe
 70
     4
 71
     0
 72
     2
 73
     0
 90
        0
 40
-0.6
 41
-30.0
 62
     5
 63
     7
 74
     1
 91
        4
 64
     7
 65
   257
 75
     1
175
     1
 42
1.0
 92
        0
 66
   257
 43
1.0
 76
     1
 77
     6
 78
     2
 67
     7
 79
     5
170
     0
171
     0
290
     0
174
     0
 93
        1
 44
0.0
173
     0
291
     0
 45
0.0
1001
ACAD
1000
AcDbSavedByObjectVersion
1070
     0
  0
VISUALSTYLE
  5
4F
102
{ACAD_XDICTIONARY
360
1CC
102
}
102
{ACAD_REACTORS
330
32
102
}
330
32
100
AcDbVisualStyle
  2
Realistic
 70
     8
 71
     2
 72
     3
 73
     0
 90
        2
 40
-0.6
 41
30.0
 62
     5
 63
     7
 74
     0
 91
        0
 64
     7
 65
   257
 75
     1
175
     1
 42
1.0
 92
        8
 66
   257
 43
1.0
 76
     1
 77
     6
 78
     2
 67
     7
 79
     3
170
     0
171
     0
290
     0
174
     0
 93
       13
 44
0.0
173
     0
291
     0
 45
0.0
1001
ACAD
1000
AcDbSavedByObjectVersion
1070
     0
  0
VISUALSTYLE
  5
50
102
{ACAD_XDICTIONARY
360
1CE
102
}
102
{ACAD_REACTORS
330
32
102
}
330
32
100
AcDbVisualStyle
  2
Wireframe
 70
     5
 71
     0
 72
     2
 73
     0
 90
        0
 40
-0.6
 41
-30.0
 62
     5
 63
     7
 74
     1
 91
        4
 64
     7
 65
   257
 75
     1
175
     1
 42
1.0
 92
        0
 66
   257
 43
1.0
 76
     1
 77
     6
 78
     2
 67
     7
 79
     3
170
     0
171
     0
290
     0
174
     0
 93
        1
 44
0.0
173
     0
291
     0
 45
0.0
1001
ACAD
1000
AcDbSavedByObjectVersion
1070
     0
  0
DICTIONARYVAR
  5
1B9
102
{ACAD_REACTORS
330
1B4
102
}
330
1B4
100
DictionaryVariables
280
     0
  1
1:1
  0
DICTIONARYVAR
  5
1B6
102
{ACAD_REACTORS
330
1B4
102
}
330
1B4
100
DictionaryVariables
280
     0
  1
STANDARD
  0
DICTIONARYVAR
  5
1B5
102
{ACAD_REACTORS
330
1B4
102
}
330
1B4
100
DictionaryVariables
280
     0
  1
STANDARD
  0
DICTIONARYVAR
  5
1B7
102
{ACAD_REACTORS
330
1B4
102
}
330
1B4
100
DictionaryVariables
280
     0
  1

  0
DICTIONARYVAR
  5
1B8
102
{ACAD_REACTORS
330
1B4
102
}
330
1B4
100
DictionaryVariables
280
     0
  1

  0
DICTIONARYVAR
  5
1BD
102
{ACAD_REACTORS
330
1B4
102
}
330
1B4
100
DictionaryVariables
280
     0
  1
1
  0
DICTIONARYVAR
  5
1BC
102
{ACAD_REACTORS
330
1B4
102
}
330
1B4
100
DictionaryVariables
280
     0
  1
1
  0
DICTIONARYVAR
  5
1BB
102
{ACAD_REACTORS
330
1B4
102
}
330
1B4
100
DictionaryVariables
280
     0
  1
0
  0
DICTIONARYVAR
  5
1BA
102
{ACAD_REACTORS
330
1B4
102
}
330
1B4
100
DictionaryVariables
280
     0
  1
127
  0
DICTIONARYVAR
  5
1BE
102
{ACAD_REACTORS
330
1B4
102
}
330
1B4
100
DictionaryVariables
280
     0
  1
2
  0
DICTIONARY
  5
1C4
330
1E
100
AcDbDictionary
280
     1
281
     1
  3
ACAD_XREC_ROUNDTRIP
360
1C5
  0
DICTIONARY
  5
1C6
330
25
100
AcDbDictionary
280
     1
281
     1
  3
ACAD_XREC_ROUNDTRIP
360
1C7
  0
DICTIONARY
  5
41
330
40
100
AcDbDictionary
280
     1
281
     1
  3
ACAD_XREC_ROUNDTRIP
360
1CA
  3
BUMPTILE
360
42
  3
DIFFUSETILE
360
43
  3
OPACITYTILE
360
44
  3
REFLECTIONTILE
360
45
  3
REFRACTIONTILE
360
46
  3
SPECULARTILE
360
47
  0
DICTIONARY
  5
16
330
15
100
AcDbDictionary
280
     1
281
     1
  3
ACAD_XREC_ROUNDTRIP
360
1C3
  3
BUMPTILE
360
17
  3
DIFFUSETILE
360
18
  3
OPACITYTILE
360
19
  3
REFLECTIONTILE
360
1A
  3
REFRACTIONTILE
360
1B
  3
SPECULARTILE
360
1C
  0
DICTIONARY
  5
D
330
B
100
AcDbDictionary
280
     1
281
     1
  3
ACAD_XREC_ROUNDTRIP
360
1C2
  3
BUMPTILE
360
E
  3
DIFFUSETILE
360
F
  3
OPACITYTILE
360
10
  3
REFLECTIONTILE
360
11
  3
REFRACTIONTILE
360
12
  3
SPECULARTILE
360
13
  0
DICTIONARY
  5
1BF
330
4E
100
AcDbDictionary
280
     1
281
     1
  3
ACAD_ROUNDTRIP_2008_TABLESTYLE_CELLSTYLEMAP
360
1C0
  3
ACAD_XREC_ROUNDTRIP
360
1CB
  0
DICTIONARY
  5
1C8
330
31
100
AcDbDictionary
280
     1
281
     1
  3
ACAD_XREC_ROUNDTRIP
360
1C9
  0
DICTIONARY
  5
1CC
330
4F
100
AcDbDictionary
280
     1
281
     1
  3
ACAD_XREC_ROUNDTRIP
360
1CD
  0
DICTIONARY
  5
1CE
330
50
100
AcDbDictionary
280
     1
281
     1
  3
ACAD_XREC_ROUNDTRIP
360
1CF
  0
XRECORD
  5
1C5
102
{ACAD_REACTORS
330
1C4
102
}
330
1C4
100
AcDbXrecord
280
     1
102
SHADEPLOT
 70
     0
102
SHADEPLOTRESLEVEL
 70
     2
102
SHADEPLOTCUSTOMDPI
 70
   300
  0
XRECORD
  5
1C7
102
{ACAD_REACTORS
330
1C6
102
}
330
1C6
100
AcDbXrecord
280
     1
102
SHADEPLOT
 70
     0
102
SHADEPLOTRESLEVEL
 70
     2
102
SHADEPLOTCUSTOMDPI
 70
   300
  0
XRECORD
  5
1CA
102
{ACAD_REACTORS
330
41
102
}
330
41
100
AcDbXrecord
280
     1
102
MATERIAL
148
0.0
149
0.0
149
0.0
 93
        0
 94
      127
282
     0
 72
     0
 77
     0
171
     0
175
     0
179
     0
273
     0
  0
XRECORD
  5
42
102
{ACAD_REACTORS
330
41
102
}
330
41
100
AcDbXrecord
280
     1
270
     1
271
     1
  0
XRECORD
  5
43
102
{ACAD_REACTORS
330
41
102
}
330
41
100
AcDbXrecord
280
     1
270
     1
271
     1
  0
XRECORD
  5
44
102
{ACAD_REACTORS
330
41
102
}
330
41
100
AcDbXrecord
280
     1
270
     1
271
     1
  0
XRECORD
  5
45
102
{ACAD_REACTORS
330
41
102
}
330
41
100
AcDbXrecord
280
     1
270
     1
271
     1
  0
XRECORD
  5
46
102
{ACAD_REACTORS
330
41
102
}
330
41
100
AcDbXrecord
280
     1
270
     1
271
     1
  0
XRECORD
  5
47
102
{ACAD_REACTORS
330
41
102
}
330
41
100
AcDbXrecord
280
     1
270
     1
271
     1
  0
XRECORD
  5
1C3
102
{ACAD_REACTORS
330
16
102
}
330
16
100
AcDbXrecord
280
     1
102
MATERIAL
148
0.0
149
0.0
149
0.0
 93
        0
 94
      127
282
     0
 72
     0
 77
     0
171
     0
175
     0
179
     0
273
     0
  0
XRECORD
  5
17
102
{ACAD_REACTORS
330
16
102
}
330
16
100
AcDbXrecord
280
     1
270
     1
271
     1
  0
XRECORD
  5
18
102
{ACAD_REACTORS
330
16
102
}
330
16
100
AcDbXrecord
280
     1
270
     1
271
     1
  0
XRECORD
  5
19
102
{ACAD_REACTORS
330
16
102
}
330
16
100
AcDbXrecord
280
     1
270
     1
271
     1
  0
XRECORD
  5
1A
102
{ACAD_REACTORS
330
16
102
}
330
16
100
AcDbXrecord
280
     1
270
     1
271
     1
  0
XRECORD
  5
1B
102
{ACAD_REACTORS
330
16
102
}
330
16
100
AcDbXrecord
280
     1
270
     1
271
     1
  0
XRECORD
  5
1C
102
{ACAD_REACTORS
330
16
102
}
330
16
100
AcDbXrecord
280
     1
270
     1
271
     1
  0
XRECORD
  5
1C2
102
{ACAD_REACTORS
330
D
102
}
330
D
100
AcDbXrecord
280
     1
102
MATERIAL
148
0.0
149
0.0
149
0.0
 93
        0
 94
      127
282
     0
 72
     0
 77
     0
171
     0
175
     0
179
     0
273
     0
  0
XRECORD
  5
E
102
{ACAD_REACTORS
330
D
102
}
330
D
100
AcDbXrecord
280
     1
270
     1
271
     1
  0
XRECORD
  5
F
102
{ACAD_REACTORS
330
D
102
}
330
D
100
AcDbXrecord
280
     1
270
     1
271
     1
  0
XRECORD
  5
10
102
{ACAD_REACTORS
330
D
102
}
330
D
100
AcDbXrecord
280
     1
270
     1
271
     1
  0
XRECORD
  5
11
102
{ACAD_REACTORS
330
D
102
}
330
D
100
AcDbXrecord
280
     1
270
     1
271
     1
  0
XRECORD
  5
12
102
{ACAD_REACTORS
330
D
102
}
330
D
100
AcDbXrecord
280
     1
270
     1
271
     1
  0
XRECORD
  5
13
102
{ACAD_REACTORS
330
D
102
}
330
D
100
AcDbXrecord
280
     1
270
     1
271
     1
  0
CELLSTYLEMAP
  5
1C0
102
{ACAD_REACTORS
330
1BF
102
}
330
1BF
100
AcDbCellStyleMap
 90
        3
300
CELLSTYLE
  1
TABLEFORMAT_BEGIN
 90
        5
170
     1
 91
        0
 92
    32768
 62
   257
 93
        1
300
CONTENTFORMAT
  1
CONTENTFORMAT_BEGIN
 90
        0
 91
        0
 92
        4
 93
        0
300

 40
0.0
140
1.0
 94
        5
 62
     0
340
28
144
0.25
309
CONTENTFORMAT_END
171
     0
 94
        6
 95
        1
302
GRIDFORMAT
  1
GRIDFORMAT_BEGIN
 90
        0
 91
        1
 62
     0
 92
       -2
340
0
 93
        0
 40
0.045
309
GRIDFORMAT_END
 95
        2
302
GRIDFORMAT
  1
GRIDFORMAT_BEGIN
 90
        0
 91
        1
 62
     0
 92
       -2
340
0
 93
        0
 40
0.045
309
GRIDFORMAT_END
 95
        4
302
GRIDFORMAT
  1
GRIDFORMAT_BEGIN
 90
        0
 91
        1
 62
     0
 92
       -2
340
0
 93
        0
 40
0.045
309
GRIDFORMAT_END
 95
        8
302
GRIDFORMAT
  1
GRIDFORMAT_BEGIN
 90
        0
 91
        1
 62
     0
 92
       -2
340
0
 93
        0
 40
0.045
309
GRIDFORMAT_END
 95
       16
302
GRIDFORMAT
  1
GRIDFORMAT_BEGIN
 90
        0
 91
        1
 62
     0
 92
       -2
340
0
 93
        0
 40
0.045
309
GRIDFORMAT_END
 95
       32
302
GRIDFORMAT
  1
GRIDFORMAT_BEGIN
 90
        0
 91
        1
 62
     0
 92
       -2
340
0
 93
        0
 40
0.045
309
GRIDFORMAT_END
309
TABLEFORMAT_END
  1
CELLSTYLE_BEGIN
 90
        1
 91
        1
300
_TITLE
309
CELLSTYLE_END
300
CELLSTYLE
  1
TABLEFORMAT_BEGIN
 90
        5
170
     1
 91
        0
 92
        0
 62
   257
 93
        1
300
CONTENTFORMAT
  1
CONTENTFORMAT_BEGIN
 90
        0
 91
        0
 92
        4
 93
        0
300

 40
0.0
140
1.0
 94
        5
 62
     0
340
28
144
0.18
309
CONTENTFORMAT_END
171
     0
 94
        6
 95
        1
302
GRIDFORMAT
  1
GRIDFORMAT_BEGIN
 90
        0
 91
        1
 62
     0
 92
       -2
340
0
 93
        0
 40
0.045
309
GRIDFORMAT_END
 95
        2
302
GRIDFORMAT
  1
GRIDFORMAT_BEGIN
 90
        0
 91
        1
 62
     0
 92
       -2
340
0
 93
        0
 40
0.045
309
GRIDFORMAT_END
 95
        4
302
GRIDFORMAT
  1
GRIDFORMAT_BEGIN
 90
        0
 91
        1
 62
     0
 92
       -2
340
0
 93
        0
 40
0.045
309
GRIDFORMAT_END
 95
        8
302
GRIDFORMAT
  1
GRIDFORMAT_BEGIN
 90
        0
 91
        1
 62
     0
 92
       -2
340
0
 93
        0
 40
0.045
309
GRIDFORMAT_END
 95
       16
302
GRIDFORMAT
  1
GRIDFORMAT_BEGIN
 90
        0
 91
        1
 62
     0
 92
       -2
340
0
 93
        0
 40
0.045
309
GRIDFORMAT_END
 95
       32
302
GRIDFORMAT
  1
GRIDFORMAT_BEGIN
 90
        0
 91
        1
 62
     0
 92
       -2
340
0
 93
        0
 40
0.045
309
GRIDFORMAT_END
309
TABLEFORMAT_END
  1
CELLSTYLE_BEGIN
 90
        2
 91
        1
300
_HEADER
309
CELLSTYLE_END
300
CELLSTYLE
  1
TABLEFORMAT_BEGIN
 90
        5
170
     1
 91
        0
 92
        0
 62
   257
 93
        1
300
CONTENTFORMAT
  1
CONTENTFORMAT_BEGIN
 90
        0
 91
        0
 92
        4
 93
        0
300

 40
0.0
140
1.0
 94
        2
 62
     0
340
28
144
0.18
309
CONTENTFORMAT_END
171
     0
 94
        6
 95
        1
302
GRIDFORMAT
  1
GRIDFORMAT_BEGIN
 90
        0
 91
        1
 62
     0
 92
       -2
340
0
 93
        0
 40
0.045
309
GRIDFORMAT_END
 95
        2
302
GRIDFORMAT
  1
GRIDFORMAT_BEGIN
 90
        0
 91
        1
 62
     0
 92
       -2
340
0
 93
        0
 40
0.045
309
GRIDFORMAT_END
 95
        4
302
GRIDFORMAT
  1
GRIDFORMAT_BEGIN
 90
        0
 91
        1
 62
     0
 92
       -2
340
0
 93
        0
 40
0.045
309
GRIDFORMAT_END
 95
        8
302
GRIDFORMAT
  1
GRIDFORMAT_BEGIN
 90
        0
 91
        1
 62
     0
 92
       -2
340
0
 93
        0
 40
0.045
309
GRIDFORMAT_END
 95
       16
302
GRIDFORMAT
  1
GRIDFORMAT_BEGIN
 90
        0
 91
        1
 62
     0
 92
       -2
340
0
 93
        0
 40
0.045
309
GRIDFORMAT_END
 95
       32
302
GRIDFORMAT
  1
GRIDFORMAT_BEGIN
 90
        0
 91
        1
 62
     0
 92
       -2
340
0
 93
        0
 40
0.045
309
GRIDFORMAT_END
309
TABLEFORMAT_END
  1
CELLSTYLE_BEGIN
 90
        3
 91
        2
300
_DATA
309
CELLSTYLE_END
  0
XRECORD
  5
1CB
102
{ACAD_REACTORS
330
1BF
102
}
330
1BF
100
AcDbXrecord
280
     1
102
ACAD_ROUNDTRIP_PRE2007_TABLESTYLE
 90
        4
 91
        0
  1

 92
        4
 93
        0
  2

 94
        4
 95
        0
  3

  0
XRECORD
  5
1C9
102
{ACAD_REACTORS
330
1C8
102
}
330
1C8
100
AcDbXrecord
280
     1
102
RTVSPost2010Prop28
280
     1
102
RTVSPost2010PropOp28
 70
     1
102
RTVSPost2010Prop29
280
     1
102
RTVSPost2010PropOp29
 70
     1
102
RTVSPost2010Prop30
280
     0
102
RTVSPost2010PropOp30
 70
     1
102
RTVSPost2010Prop31
280
     0
102
RTVSPost2010PropOp31
 70
     1
102
RTVSPost2010Prop32
280
     0
102
RTVSPost2010PropOp32
 70
     1
102
RTVSPost2010Prop33
280
     0
102
RTVSPost2010PropOp33
 70
     1
102
RTVSPost2010Prop34
280
     0
102
RTVSPost2010PropOp34
 70
     1
102
RTVSPost2010Prop35
280
     0
102
RTVSPost2010PropOp35
 70
     1
102
RTVSPost2010Prop36
280
     0
102
RTVSPost2010PropOp36
 70
     1
102
RTVSPost2010Prop37
 90
       50
102
RTVSPost2010PropOp37
 70
     1
102
RTVSPost2010Prop38
140
0.0
102
RTVSPost2010PropOp38
 70
     1
102
RTVSPost2010Prop39
140
1.0
102
RTVSPost2010PropOp39
 70
     1
102
RTVSPost2010Prop40
 90
        0
102
RTVSPost2010PropOp40
 70
     1
102
RTVSPost2010Prop41ColorIndex
 90
       18
102
RTVSPost2010Prop41ColorRGB
 90
        0
102
RTVSPost2010PropOp41
 70
     1
102
RTVSPost2010Prop42
 90
       50
102
RTVSPost2010PropOp42
 70
     1
102
RTVSPost2010Prop43
 90
        3
102
RTVSPost2010PropOp43
 70
     1
102
RTVSPost2010Prop44ColorIndex
 90
        5
102
RTVSPost2010Prop44ColorRGB
 90
      255
102
RTVSPost2010PropOp44
 70
     1
102
RTVSPost2010Prop45
280
     0
102
RTVSPost2010PropOp45
 70
     1
102
RTVSPost2010Prop46
 90
       50
102
RTVSPost2010PropOp46
 70
     1
102
RTVSPost2010Prop47
 90
       50
102
RTVSPost2010PropOp47
 70
     1
102
RTVSPost2010Prop48
 90
       50
102
RTVSPost2010PropOp48
 70
     1
102
RTVSPost2010Prop49
280
     0
102
RTVSPost2010PropOp49
 70
     1
102
RTVSPost2010Prop50
 90
       50
102
RTVSPost2010PropOp50
 70
     1
102
RTVSPost2010Prop51ColorIndex
 90
      256
102
RTVSPost2010Prop51ColorRGB
 90
-16777216
102
RTVSPost2010PropOp51
 70
     0
102
RTVSPost2010Prop52
140
1.0
102
RTVSPost2010PropOp52
 70
     0
102
RTVSPost2010Prop53
 90
        2
102
RTVSPost2010PropOp53
 70
     1
102
RTVSPost2010Prop54
  1
strokes_ogs.tif
102
RTVSPost2010PropOp54
 70
     1
102
RTVSPost2010Prop55
280
     0
102
RTVSPost2010PropOp55
 70
     1
102
RTVSPost2010Prop56
140
1.0
102
RTVSPost2010PropOp56
 70
     1
102
RTVSPost2010Prop57
140
1.0
102
RTVSPost2010PropOp57
 70
     1
102
RTVSPropertyOp0
 70
     1
102
RTVSPropertyOp1
 70
     1
102
RTVSPropertyOp2
 70
     1
102
RTVSPropertyOp3
 70
     1
102
RTVSPropertyOp4
 70
     1
102
RTVSPropertyOp5
 70
     1
102
RTVSPropertyOp6
 70
     1
102
RTVSPropertyOp7
 70
     1
102
RTVSPropertyOp8
 70
     1
102
RTVSPropertyOp9
 70
     1
102
RTVSPropertyOp10
 70
     1
102
RTVSPropertyOp11
 70
     1
102
RTVSPropertyOp12
 70
     1
102
RTVSPropertyOp13
 70
     1
102
RTVSPropertyOp14
 70
     1
102
RTVSPropertyOp15
 70
     1
102
RTVSPropertyOp16
 70
     1
102
RTVSPropertyOp17
 70
     1
102
RTVSPropertyOp18
 70
     1
102
RTVSPropertyOp19
 70
     1
102
RTVSPropertyOp20
 70
     1
102
RTVSPropertyOp21
 70
     1
102
RTVSPropertyOp22
 70
     1
102
RTVSPropertyOp23
 70
     1
102
RTVSPropertyOp24
 70
     1
102
RTVSPropertyOp25
 70
     1
102
RTVSPropertyOp26
 70
     1
102
RTVSPropertyOp27
 70
     1
102
RTVSPropertyOp28
 70
     1
102
RTVSPropertyOp29
 70
     1
102
RTVSPropertyOp30
 70
     1
102
RTVSPropertyOp31
 70
     1
102
RTVSPropertyOp32
 70
     1
102
RTVSPropertyOp33
 70
     1
102
RTVSPropertyOp34
 70
     1
102
RTVSPropertyOp35
 70
     1
102
RTVSPropertyOp36
 70
     1
102
RTVSPropertyOp37
 70
     1
102
RTVSPropertyOp38
 70
     1
102
RTVSPropertyOp39
 70
     1
102
RTVSPropertyOp40
 70
     1
102
RTVSPropertyOp41
 70
     1
102
RTVSPropertyOp42
 70
     1
102
RTVSPropertyOp43
 70
     1
102
RTVSPropertyOp44
 70
     1
102
RTVSPropertyOp45
 70
     1
102
RTVSPropertyOp46
 70
     1
102
RTVSPropertyOp47
 70
     1
102
RTVSPropertyOp48
 70
     1
102
RTVSPropertyOp49
 70
     1
102
RTVSPropertyOp50
 70
     1
102
RTVSPropertyOp51
 70
     0
102
RTVSPropertyOp52
 70
     0
102
RTVSPropertyOp53
 70
     1
102
RTVSPropertyOp54
 70
     1
102
RTVSPropertyOp55
 70
     1
102
RTVSPropertyOp56
 70
     1
102
RTVSPropertyOp57
 70
     1
102
RTVSPropertyOp58
 70
     1
102
RTVSPropertyOp59
 70
     1
102
RTVSPropertyOp60
 70
     1
102
RTVSPropertyOp61
 70
     1
102
RTVSPropertyOp62
 70
     1
  0
XRECORD
  5
1CD
102
{ACAD_REACTORS
330
1CC
102
}
330
1CC
100
AcDbXrecord
280
     1
102
RTVSPost2010Prop28
280
     0
102
RTVSPost2010PropOp28
 70
     1
102
RTVSPost2010Prop29
280
     1
102
RTVSPost2010PropOp29
 70
     1
102
RTVSPost2010Prop30
280
     1
102
RTVSPost2010PropOp30
 70
     1
102
RTVSPost2010Prop31
280
     0
102
RTVSPost2010PropOp31
 70
     1
102
RTVSPost2010Prop32
280
     0
102
RTVSPost2010PropOp32
 70
     1
102
RTVSPost2010Prop33
280
     0
102
RTVSPost2010PropOp33
 70
     1
102
RTVSPost2010Prop34
280
     0
102
RTVSPost2010PropOp34
 70
     1
102
RTVSPost2010Prop35
280
     0
102
RTVSPost2010PropOp35
 70
     1
102
RTVSPost2010Prop36
280
     0
102
RTVSPost2010PropOp36
 70
     1
102
RTVSPost2010Prop37
 90
       50
102
RTVSPost2010PropOp37
 70
     1
102
RTVSPost2010Prop38
140
0.0
102
RTVSPost2010PropOp38
 70
     1
102
RTVSPost2010Prop39
140
1.0
102
RTVSPost2010PropOp39
 70
     1
102
RTVSPost2010Prop40
 90
        0
102
RTVSPost2010PropOp40
 70
     1
102
RTVSPost2010Prop41ColorIndex
 90
       18
102
RTVSPost2010Prop41ColorRGB
 90
        0
102
RTVSPost2010PropOp41
 70
     1
102
RTVSPost2010Prop42
 90
       50
102
RTVSPost2010PropOp42
 70
     1
102
RTVSPost2010Prop43
 90
        3
102
RTVSPost2010PropOp43
 70
     1
102
RTVSPost2010Prop44ColorIndex
 90
        5
102
RTVSPost2010Prop44ColorRGB
 90
      255
102
RTVSPost2010PropOp44
 70
     1
102
RTVSPost2010Prop45
280
     0
102
RTVSPost2010PropOp45
 70
     1
102
RTVSPost2010Prop46
 90
       50
102
RTVSPost2010PropOp46
 70
     1
102
RTVSPost2010Prop47
 90
       50
102
RTVSPost2010PropOp47
 70
     1
102
RTVSPost2010Prop48
 90
       50
102
RTVSPost2010PropOp48
 70
     1
102
RTVSPost2010Prop49
280
     0
102
RTVSPost2010PropOp49
 70
     1
102
RTVSPost2010Prop50
 90
       50
102
RTVSPost2010PropOp50
 70
     1
102
RTVSPost2010Prop51ColorIndex
 90
      256
102
RTVSPost2010Prop51ColorRGB
 90
-16777216
102
RTVSPost2010PropOp51
 70
     0
102
RTVSPost2010Prop52
140
1.0
102
RTVSPost2010PropOp52
 70
     0
102
RTVSPost2010Prop53
 90
        2
102
RTVSPost2010PropOp53
 70
     1
102
RTVSPost2010Prop54
  1
strokes_ogs.tif
102
RTVSPost2010PropOp54
 70
     1
102
RTVSPost2010Prop55
280
     0
102
RTVSPost2010PropOp55
 70
     1
102
RTVSPost2010Prop56
140
1.0
102
RTVSPost2010PropOp56
 70
     1
102
RTVSPost2010Prop57
140
1.0
102
RTVSPost2010PropOp57
 70
     1
102
RTVSPropertyOp0
 70
     1
102
RTVSPropertyOp1
 70
     1
102
RTVSPropertyOp2
 70
     1
102
RTVSPropertyOp3
 70
     1
102
RTVSPropertyOp4
 70
     1
102
RTVSPropertyOp5
 70
     1
102
RTVSPropertyOp6
 70
     1
102
RTVSPropertyOp7
 70
     1
102
RTVSPropertyOp8
 70
     1
102
RTVSPropertyOp9
 70
     1
102
RTVSPropertyOp10
 70
     1
102
RTVSPropertyOp11
 70
     1
102
RTVSPropertyOp12
 70
     1
102
RTVSPropertyOp13
 70
     1
102
RTVSPropertyOp14
 70
     1
102
RTVSPropertyOp15
 70
     1
102
RTVSPropertyOp16
 70
     1
102
RTVSPropertyOp17
 70
     1
102
RTVSPropertyOp18
 70
     1
102
RTVSPropertyOp19
 70
     1
102
RTVSPropertyOp20
 70
     1
102
RTVSPropertyOp21
 70
     1
102
RTVSPropertyOp22
 70
     1
102
RTVSPropertyOp23
 70
     1
102
RTVSPropertyOp24
 70
     1
102
RTVSPropertyOp25
 70
     1
102
RTVSPropertyOp26
 70
     1
102
RTVSPropertyOp27
 70
     1
102
RTVSPropertyOp28
 70
     1
102
RTVSPropertyOp29
 70
     1
102
RTVSPropertyOp30
 70
     1
102
RTVSPropertyOp31
 70
     1
102
RTVSPropertyOp32
 70
     1
102
RTVSPropertyOp33
 70
     1
102
RTVSPropertyOp34
 70
     1
102
RTVSPropertyOp35
 70
     1
102
RTVSPropertyOp36
 70
     1
102
RTVSPropertyOp37
 70
     1
102
RTVSPropertyOp38
 70
     1
102
RTVSPropertyOp39
 70
     1
102
RTVSPropertyOp40
 70
     1
102
RTVSPropertyOp41
 70
     1
102
RTVSPropertyOp42
 70
     1
102
RTVSPropertyOp43
 70
     1
102
RTVSPropertyOp44
 70
     1
102
RTVSPropertyOp45
 70
     1
102
RTVSPropertyOp46
 70
     1
102
RTVSPropertyOp47
 70
     1
102
RTVSPropertyOp48
 70
     1
102
RTVSPropertyOp49
 70
     1
102
RTVSPropertyOp50
 70
     1
102
RTVSPropertyOp51
 70
     0
102
RTVSPropertyOp52
 70
     0
102
RTVSPropertyOp53
 70
     1
102
RTVSPropertyOp54
 70
     1
102
RTVSPropertyOp55
 70
     1
102
RTVSPropertyOp56
 70
     1
102
RTVSPropertyOp57
 70
     1
102
RTVSPropertyOp58
 70
     1
102
RTVSPropertyOp59
 70
     1
102
RTVSPropertyOp60
 70
     1
102
RTVSPropertyOp61
 70
     1
102
RTVSPropertyOp62
 70
     1
  0
XRECORD
  5
1CF
102
{ACAD_REACTORS
330
1CE
102
}
330
1CE
100
AcDbXrecord
280
     1
102
RTVSPost2010Prop28
280
     0
102
RTVSPost2010PropOp28
 70
     1
102
RTVSPost2010Prop29
280
     1
102
RTVSPost2010PropOp29
 70
     1
102
RTVSPost2010Prop30
280
     1
102
RTVSPost2010PropOp30
 70
     1
102
RTVSPost2010Prop31
280
     0
102
RTVSPost2010PropOp31
 70
     1
102
RTVSPost2010Prop32
280
     0
102
RTVSPost2010PropOp32
 70
     1
102
RTVSPost2010Prop33
280
     0
102
RTVSPost2010PropOp33
 70
     1
102
RTVSPost2010Prop34
280
     0
102
RTVSPost2010PropOp34
 70
     1
102
RTVSPost2010Prop35
280
     0
102
RTVSPost2010PropOp35
 70
     1
102
RTVSPost2010Prop36
280
     0
102
RTVSPost2010PropOp36
 70
     1
102
RTVSPost2010Prop37
 90
       50
102
RTVSPost2010PropOp37
 70
     1
102
RTVSPost2010Prop38
140
0.0
102
RTVSPost2010PropOp38
 70
     1
102
RTVSPost2010Prop39
140
1.0
102
RTVSPost2010PropOp39
 70
     1
102
RTVSPost2010Prop40
 90
        0
102
RTVSPost2010PropOp40
 70
     1
102
RTVSPost2010Prop41ColorIndex
 90
       18
102
RTVSPost2010Prop41ColorRGB
 90
        0
102
RTVSPost2010PropOp41
 70
     1
102
RTVSPost2010Prop42
 90
       50
102
RTVSPost2010PropOp42
 70
     1
102
RTVSPost2010Prop43
 90
        3
102
RTVSPost2010PropOp43
 70
     1
102
RTVSPost2010Prop44ColorIndex
 90
        5
102
RTVSPost2010Prop44ColorRGB
 90
      255
102
RTVSPost2010PropOp44
 70
     1
102
RTVSPost2010Prop45
280
     0
102
RTVSPost2010PropOp45
 70
     1
102
RTVSPost2010Prop46
 90
       50
102
RTVSPost2010PropOp46
 70
     1
102
RTVSPost2010Prop47
 90
       50
102
RTVSPost2010PropOp47
 70
     1
102
RTVSPost2010Prop48
 90
       50
102
RTVSPost2010PropOp48
 70
     1
102
RTVSPost2010Prop49
280
     0
102
RTVSPost2010PropOp49
 70
     1
102
RTVSPost2010Prop50
 90
       50
102
RTVSPost2010PropOp50
 70
     1
102
RTVSPost2010Prop51ColorIndex
 90
      256
102
RTVSPost2010Prop51ColorRGB
 90
-16777216
102
RTVSPost2010PropOp51
 70
     0
102
RTVSPost2010Prop52
140
1.0
102
RTVSPost2010PropOp52
 70
     0
102
RTVSPost2010Prop53
 90
        2
102
RTVSPost2010PropOp53
 70
     1
102
RTVSPost2010Prop54
  1
strokes_ogs.tif
102
RTVSPost2010PropOp54
 70
     1
102
RTVSPost2010Prop55
280
     0
102
RTVSPost2010PropOp55
 70
     1
102
RTVSPost2010Prop56
140
1.0
102
RTVSPost2010PropOp56
 70
     1
102
RTVSPost2010Prop57
140
1.0
102
RTVSPost2010PropOp57
 70
     1
102
RTVSPropertyOp0
 70
     1
102
RTVSPropertyOp1
 70
     1
102
RTVSPropertyOp2
 70
     1
102
RTVSPropertyOp3
 70
     1
102
RTVSPropertyOp4
 70
     1
102
RTVSPropertyOp5
 70
     1
102
RTVSPropertyOp6
 70
     1
102
RTVSPropertyOp7
 70
     1
102
RTVSPropertyOp8
 70
     1
102
RTVSPropertyOp9
 70
     1
102
RTVSPropertyOp10
 70
     1
102
RTVSPropertyOp11
 70
     1
102
RTVSPropertyOp12
 70
     1
102
RTVSPropertyOp13
 70
     1
102
RTVSPropertyOp14
 70
     1
102
RTVSPropertyOp15
 70
     1
102
RTVSPropertyOp16
 70
     1
102
RTVSPropertyOp17
 70
     1
102
RTVSPropertyOp18
 70
     1
102
RTVSPropertyOp19
 70
     1
102
RTVSPropertyOp20
 70
     1
102
RTVSPropertyOp21
 70
     1
102
RTVSPropertyOp22
 70
     1
102
RTVSPropertyOp23
 70
     1
102
RTVSPropertyOp24
 70
     1
102
RTVSPropertyOp25
 70
     1
102
RTVSPropertyOp26
 70
     1
102
RTVSPropertyOp27
 70
     1
102
RTVSPropertyOp28
 70
     1
102
RTVSPropertyOp29
 70
     1
102
RTVSPropertyOp30
 70
     1
102
RTVSPropertyOp31
 70
     1
102
RTVSPropertyOp32
 70
     1
102
RTVSPropertyOp33
 70
     1
102
RTVSPropertyOp34
 70
     1
102
RTVSPropertyOp35
 70
     1
102
RTVSPropertyOp36
 70
     1
102
RTVSPropertyOp37
 70
     1
102
RTVSPropertyOp38
 70
     1
102
RTVSPropertyOp39
 70
     1
102
RTVSPropertyOp40
 70
     1
102
RTVSPropertyOp41
 70
     1
102
RTVSPropertyOp42
 70
     1
102
RTVSPropertyOp43
 70
     1
102
RTVSPropertyOp44
 70
     1
102
RTVSPropertyOp45
 70
     1
102
RTVSPropertyOp46
 70
     1
102
RTVSPropertyOp47
 70
     1
102
RTVSPropertyOp48
 70
     1
102
RTVSPropertyOp49
 70
     1
102
RTVSPropertyOp50
 70
     1
102
RTVSPropertyOp51
 70
     0
102
RTVSPropertyOp52
 70
     0
102
RTVSPropertyOp53
 70
     1
102
RTVSPropertyOp54
 70
     1
102
RTVSPropertyOp55
 70
     1
102
RTVSPropertyOp56
 70
     1
102
RTVSPropertyOp57
 70
     1
102
RTVSPropertyOp58
 70
     1
102
RTVSPropertyOp59
 70
     1
102
RTVSPropertyOp60
 70
     1
102
RTVSPropertyOp61
 70
     1
102
RTVSPropertyOp62
 70
     1
  0
ENDSEC
  0
EOF
