  0
SECTION
  2
HEADER
  9
$ACADVER
  1
AC1015
  9
$ACADMAINTVER
 70
    18
  9
$DWGCODEPAGE
  3
ANSI_932
  9
$INSBASE
 10
0.0
 20
0.0
 30
0.0
  9
$EXTMIN
 10
-17.20051149238135
 20
0.0
 30
0.0
  9
$EXTMAX
 10
435.902375882948
 20
153.8516448667801
 30
0.0
  9
$LIMMIN
 10
0.0
 20
0.0
  9
$LIMMAX
 10
420.0
 20
297.0
  9
$ORTHOMODE
 70
     1
  9
$REGENMODE
 70
     1
  9
$FILLMODE
 70
     1
  9
$QTEXTMODE
 70
     0
  9
$MIRRTEXT
 70
     1
  9
$LTSCALE
 40
1.0
  9
$ATTMODE
 70
     1
  9
$TEXTSIZE
 40
30.0
  9
$TRACEWID
 40
0.05
  9
$TEXTSTYLE
  7
SUNPOU
  9
$CLAYER
  8
0
  9
$CELTYPE
  6
BYLAYER
  9
$CECOLOR
 62
     1
  9
$CELTSCALE
 40
1.0
  9
$DISPSILH
 70
     0
  9
$DIMSCALE
 40
1.0
  9
$DIMASZ
 40
3.0
  9
$DIMEXO
 40
2.0
  9
$DIMDLI
 40
0.38
  9
$DIMRND
 40
0.0
  9
$DIMDLE
 40
0.0
  9
$DIMEXE
 40
0.0
  9
$DIMTP
 40
0.0
  9
$DIMTM
 40
0.0
  9
$DIMTXT
 40
7.0
  9
$DIMCEN
 40
1.0
  9
$DIMTSZ
 40
0.0
  9
$DIMTOL
 70
     0
  9
$DIMLIM
 70
     0
  9
$DIMTIH
 70
     0
  9
$DIMTOH
 70
     0
  9
$DIMSE1
 70
     0
  9
$DIMSE2
 70
     0
  9
$DIMTAD
 70
     1
  9
$DIMZIN
 70
     0
  9
$DIMBLK
  1

  9
$DIMASO
 70
     1
  9
$DIMSHO
 70
     1
  9
$DIMPOST
  1

  9
$DIMAPOST
  1

  9
$DIMALT
 70
     0
  9
$DIMALTD
 70
     2
  9
$DIMALTF
 40
25.4
  9
$DIMLFAC
 40
1.0
  9
$DIMTOFL
 70
     0
  9
$DIMTVP
 40
0.0
  9
$DIMTIX
 70
     1
  9
$DIMSOXD
 70
     0
  9
$DIMSAH
 70
     1
  9
$DIMBLK1
  1
DOTSMALL
  9
$DIMBLK2
  1
DOTSMALL
  9
$DIMSTYLE
  2
1
  9
$DIMCLRD
 70
    60
  9
$DIMCLRE
 70
    70
  9
$DIMCLRT
 70
    60
  9
$DIMTFAC
 40
0.0642857142857143
  9
$DIMGAP
 40
1.0
  9
$DIMJUST
 70
     0
  9
$DIMSD1
 70
     0
  9
$DIMSD2
 70
     0
  9
$DIMTOLJ
 70
     1
  9
$DIMTZIN
 70
     0
  9
$DIMALTZ
 70
     0
  9
$DIMALTTZ
 70
     0
  9
$DIMUPT
 70
     0
  9
$DIMDEC
 70
     0
  9
$DIMTDEC
 70
     4
  9
$DIMALTU
 70
     2
  9
$DIMALTTD
 70
     2
  9
$DIMTXSTY
  7
STANDARD
  9
$DIMAUNIT
 70
     0
  9
$DIMADEC
 70
     0
  9
$DIMALTRND
 40
0.0
  9
$DIMAZIN
 70
     0
  9
$DIMDSEP
 70
    46
  9
$DIMATFIT
 70
     3
  9
$DIMFRAC
 70
     0
  9
$DIMLDRBLK
  1
DOTSMALL
  9
$DIMLUNIT
 70
     2
  9
$DIMLWD
 70
    -2
  9
$DIMLWE
 70
    -2
  9
$DIMTMOVE
 70
     0
  9
$LUNITS
 70
     4
  9
$LUPREC
 70
     4
  9
$SKETCHINC
 40
0.1
  9
$FILLETRAD
 40
0.5
  9
$AUNITS
 70
     0
  9
$AUPREC
 70
     2
  9
$MENU
  1
acad
  9
$ELEVATION
 40
0.0
  9
$PELEVATION
 40
0.0
  9
$THICKNESS
 40
0.0
  9
$LIMCHECK
 70
     0
  9
$CHAMFERA
 40
0.0
  9
$CHAMFERB
 40
0.0
  9
$CHAMFERC
 40
0.0
  9
$CHAMFERD
 40
0.0
  9
$SKPOLY
 70
     0
  9
$TDCREATE
 40
2450623.676023380
  9
$TDUCREATE
 40
2450623.301023380
  9
$TDUPDATE
 40
2453882.375042963
  9
$TDUUPDATE
 40
2453882.000042963
  9
$TDINDWG
 40
5.6674662269
  9
$TDUSRTIMER
 40
5.6674662153
  9
$USRTIMER
 70
     1
  9
$ANGBASE
 50
0.0
  9
$ANGDIR
 70
     0
  9
$PDMODE
 70
     0
  9
$PDSIZE
 40
0.0
  9
$PLINEWID
 40
0.0
  9
$SPLFRAME
 70
     0
  9
$SPLINETYPE
 70
     6
  9
$SPLINESEGS
 70
     8
  9
$HANDSEED
  5
493
  9
$SURFTAB1
 70
     6
  9
$SURFTAB2
 70
     6
  9
$SURFTYPE
 70
     6
  9
$SURFU
 70
     6
  9
$SURFV
 70
     6
  9
$UCSBASE
  2

  9
$UCSNAME
  2

  9
$UCSORG
 10
0.0
 20
0.0
 30
0.0
  9
$UCSXDIR
 10
1.0
 20
0.0
 30
0.0
  9
$UCSYDIR
 10
0.0
 20
1.0
 30
0.0
  9
$UCSORTHOREF
  2

  9
$UCSORTHOVIEW
 70
     0
  9
$UCSORGTOP
 10
0.0
 20
0.0
 30
0.0
  9
$UCSORGBOTTOM
 10
0.0
 20
0.0
 30
0.0
  9
$UCSORGLEFT
 10
0.0
 20
0.0
 30
0.0
  9
$UCSORGRIGHT
 10
0.0
 20
0.0
 30
0.0
  9
$UCSORGFRONT
 10
0.0
 20
0.0
 30
0.0
  9
$UCSORGBACK
 10
0.0
 20
0.0
 30
0.0
  9
$PUCSBASE
  2

  9
$PUCSNAME
  2

  9
$PUCSORG
 10
0.0
 20
0.0
 30
0.0
  9
$PUCSXDIR
 10
1.0
 20
0.0
 30
0.0
  9
$PUCSYDIR
 10
0.0
 20
1.0
 30
0.0
  9
$PUCSORTHOREF
  2

  9
$PUCSORTHOVIEW
 70
     0
  9
$PUCSORGTOP
 10
0.0
 20
0.0
 30
0.0
  9
$PUCSORGBOTTOM
 10
0.0
 20
0.0
 30
0.0
  9
$PUCSORGLEFT
 10
0.0
 20
0.0
 30
0.0
  9
$PUCSORGRIGHT
 10
0.0
 20
0.0
 30
0.0
  9
$PUCSORGFRONT
 10
0.0
 20
0.0
 30
0.0
  9
$PUCSORGBACK
 10
0.0
 20
0.0
 30
0.0
  9
$USERI1
 70
     0
  9
$USERI2
 70
     0
  9
$USERI3
 70
     0
  9
$USERI4
 70
     0
  9
$USERI5
 70
     0
  9
$USERR1
 40
0.0
  9
$USERR2
 40
0.0
  9
$USERR3
 40
0.0
  9
$USERR4
 40
0.0
  9
$USERR5
 40
0.0
  9
$WORLDVIEW
 70
     1
  9
$SHADEDGE
 70
     3
  9
$SHADEDIF
 70
    70
  9
$TILEMODE
 70
     1
  9
$MAXACTVP
 70
    16
  9
$PINSBASE
 10
0.0
 20
0.0
 30
0.0
  9
$PLIMCHECK
 70
     0
  9
$PEXTMIN
 10
1.000000000000000E+20
 20
1.000000000000000E+20
 30
1.000000000000000E+20
  9
$PEXTMAX
 10
-1.000000000000000E+20
 20
-1.000000000000000E+20
 30
-1.000000000000000E+20
  9
$PLIMMIN
 10
0.0
 20
0.0
  9
$PLIMMAX
 10
12.0
 20
9.0
  9
$UNITMODE
 70
     0
  9
$VISRETAIN
 70
     0
  9
$PLINEGEN
 70
     0
  9
$PSLTSCALE
 70
     1
  9
$TREEDEPTH
 70
  3020
  9
$CMLSTYLE
  2
STANDARD
  9
$CMLJUST
 70
     0
  9
$CMLSCALE
 40
1.0
  9
$PROXYGRAPHICS
 70
     1
  9
$MEASUREMENT
 70
     0
  9
$CELWEIGHT
370
    -1
  9
$ENDCAPS
280
     0
  9
$JOINSTYLE
280
     0
  9
$LWDISPLAY
290
     0
  9
$INSUNITS
 70
     0
  9
$HYPERLINKBASE
  1

  9
$STYLESHEET
  1

  9
$XEDIT
290
     1
  9
$CEPSNTYPE
380
     0
  9
$PSTYLEMODE
290
     1
  9
$FINGERPRINTGUID
  2
{385797AF-50D0-4B35-9D8B-90F1950EBADA}
  9
$VERSIONGUID
  2
{59A3867C-E1B5-4F82-A380-04DB729E37C9}
  9
$EXTNAMES
290
     1
  9
$PSVPSCALE
 40
0.0
  9
$OLESTARTUP
290
     0
  0
ENDSEC
  0
SECTION
  2
CLASSES
  0
CLASS
  1
DICTIONARYVAR
  2
AcDbDictionaryVar
  3
ObjectDBX Classes
 90
        0
280
     0
281
     0
  0
CLASS
  1
RASTERVARIABLES
  2
AcDbRasterVariables
  3
ISM
 90
    32768
280
     0
281
     0
  0
CLASS
  1
ACDBDICTIONARYWDFLT
  2
AcDbDictionaryWithDefault
  3
ObjectDBX Classes
 90
        0
280
     0
281
     0
  0
CLASS
  1
ACDBPLACEHOLDER
  2
AcDbPlaceHolder
  3
ObjectDBX Classes
 90
        0
280
     0
281
     0
  0
CLASS
  1
LAYOUT
  2
AcDbLayout
  3
ObjectDBX Classes
 90
        0
280
     0
281
     0
  0
CLASS
  1
AEC_VARS_DWG_SETUP
  2
AecDbVarsDwgSetup
  3
AecBase
 90
    32897
280
     1
281
     0
  0
CLASS
  1
AEC_DISP_REP_MASS_ELEM_MODEL
  2
AecDbDispRepMassElemModel
  3
AecBase
 90
    32897
280
     1
281
     0
  0
CLASS
  1
AEC_DISP_PROPS_MASS_ELEM_MODEL
  2
AecDbDispPropsMassElem
  3
AecBase
 90
    32897
280
     1
281
     0
  0
CLASS
  1
AEC_DISP_REP_MASS_ELEM_SCHEM
  2
AecDbDispRepMassElemSchem
  3
AecBase
 90
    32897
280
     1
281
     0
  0
CLASS
  1
AEC_DISP_REP_DOOR_ELEV
  2
AecDbDispRepDoorElev
  3
AecArchBase
 90
    32897
280
     1
281
     0
  0
CLASS
  1
AEC_DISP_PROPS_DOOR
  2
AecDbDispPropsDoor
  3
AecArchBase
 90
    32897
280
     1
281
     0
  0
CLASS
  1
AEC_DISP_REP_MASKBLOCK_REF
  2
AecDbDispRepMaskBlockRef
  3
AecBase
 90
    32897
280
     1
281
     0
  0
CLASS
  1
AEC_DISP_PROPS_MASKBLOCK
  2
AecDbDispPropsMaskBlock
  3
AecBase
 90
    32897
280
     1
281
     0
  0
CLASS
  1
AEC_DISP_REP_LAYOUT_GRID3D
  2
AecDbDispRepLayoutGrid3d
  3
AecBase
 90
    32897
280
     1
281
     0
  0
CLASS
  1
AEC_DISP_PROPS_LAYOUT_GRID3D
  2
AecDbDispPropsLayoutGrid3d
  3
AecBase
 90
    32897
280
     1
281
     0
  0
CLASS
  1
AEC_DISP_REP_ENT_REF
  2
AecDbDispRepEntRef
  3
AecBase
 90
    32897
280
     1
281
     0
  0
CLASS
  1
AEC_DISP_PROPS_ENT_REF
  2
AecDbDispPropsEntRef
  3
AecBase
 90
    32897
280
     1
281
     0
  0
CLASS
  1
AEC_DISP_REP_CLIP_VOLUME_RESULT_SUBDIV
  2
AecDbDispRepClipVolResSubDiv
  3
AecBase
 90
    32897
280
     1
281
     0
  0
CLASS
  1
AEC_DISP_PROPS_CLIP_VOLUME_RESULT
  2
AecDbDispPropsClipVolResSubDiv
  3
AecBase
 90
    32897
280
     1
281
     0
  0
CLASS
  1
AEC_DISP_REP_CLIP_VOLUME_RESULT
  2
AecDbDispRepClipVolResult
  3
AecBase
 90
    32897
280
     1
281
     0
  0
CLASS
  1
AEC_DISP_REP_CLIP_VOLUME_PLAN
  2
AecDbDispRepClipVolPlan
  3
AecBase
 90
    32897
280
     1
281
     0
  0
CLASS
  1
AEC_DISP_PROPS_CLIP_VOLUME
  2
AecDbDispPropsClipVol
  3
AecBase
 90
    32897
280
     1
281
     0
  0
CLASS
  1
AEC_DISP_REP_CLIP_VOLUME_MODEL
  2
AecDbDispRepClipVolModel
  3
AecBase
 90
    32897
280
     1
281
     0
  0
CLASS
  1
AEC_DISP_REP_ANCHOR_ENT_TO_NODE
  2
AecDbDispRepAnchorEntToNode
  3
AecBase
 90
    32897
280
     1
281
     0
  0
CLASS
  1
AEC_DISP_PROPS_ENT
  2
AecDbDispPropsEnt
  3
AecBase
 90
    32897
280
     1
281
     0
  0
CLASS
  1
AEC_DISP_REP_LAYOUT_GRID2D
  2
AecDbDispRepLayoutGrid2d
  3
AecBase
 90
    32897
280
     1
281
     0
  0
CLASS
  1
AEC_DISP_PROPS_LAYOUT_GRID2D
  2
AecDbDispPropsLayoutGrid2d
  3
AecBase
 90
    32897
280
     1
281
     0
  0
CLASS
  1
AEC_DISP_REP_LAYOUT_CURVE
  2
AecDbDispRepLayoutCurve
  3
AecBase
 90
    32897
280
     1
281
     0
  0
CLASS
  1
AEC_DISP_PROPS_LAYOUT_CURVE
  2
AecDbDispPropsLayoutCurve
  3
AecBase
 90
    32897
280
     1
281
     0
  0
CLASS
  1
AEC_DISP_REP_ANCHOR
  2
AecDbDispRepAnchor
  3
AecBase
 90
    32897
280
     1
281
     0
  0
CLASS
  1
AEC_DISP_REP_CAMERA
  2
AecDbDispRepCamera
  3
AecBase
 90
    32897
280
     1
281
     0
  0
CLASS
  1
AEC_DISP_PROPS_CAMERA
  2
AecDbDispPropsCamera
  3
AecBase
 90
    32897
280
     1
281
     0
  0
CLASS
  1
AEC_DISP_REP_SLICE
  2
AecDbDispRepSlice
  3
AecBase
 90
    32897
280
     1
281
     0
  0
CLASS
  1
AEC_DISP_PROPS_SLICE
  2
AecDbDispPropsSlice
  3
AecBase
 90
    32897
280
     1
281
     0
  0
CLASS
  1
AEC_DISP_REP_MVBLOCK_REF
  2
AecDbDispRepMvBlockRef
  3
AecBase
 90
    32897
280
     1
281
     0
  0
CLASS
  1
AEC_DISP_REP_MVBLOCK_REF_MODEL
  2
AecDbDispRepMvBlockRefModel
  3
AecBase
 90
    32897
280
     1
281
     0
  0
CLASS
  1
AEC_DISP_REP_MASS_GROUP_MODEL
  2
AecDbDispRepMassGroupModel
  3
AecBase
 90
    32897
280
     1
281
     0
  0
CLASS
  1
AEC_DISP_PROPS_MASS_GROUP
  2
AecDbDispPropsMassGroup
  3
AecBase
 90
    32897
280
     1
281
     0
  0
CLASS
  1
AEC_DISP_REP_MASS_GROUP_PLAN
  2
AecDbDispRepMassGroupPlan
  3
AecBase
 90
    32897
280
     1
281
     0
  0
CLASS
  1
AEC_DISP_REP_DOOR_RCP
  2
AecDbDispRepDoorRcp
  3
AecArchBase
 90
    32897
280
     1
281
     0
  0
CLASS
  1
AEC_DISP_REP_DOOR_NOMINAL
  2
AecDbDispRepDoorNominal
  3
AecArchBase
 90
    32897
280
     1
281
     0
  0
CLASS
  1
AEC_DISP_PROPS_DOOR_NOMINAL
  2
AecDbDispPropsDoorNominal
  3
AecArchBase
 90
    32897
280
     1
281
     0
  0
CLASS
  1
AEC_DISP_REP_DOOR_PLAN
  2
AecDbDispRepDoorPlan
  3
AecArchBase
 90
    32897
280
     1
281
     0
  0
CLASS
  1
AEC_DISP_REP_DOOR_MODEL
  2
AecDbDispRepDoorModel
  3
AecArchBase
 90
    32897
280
     1
281
     0
  0
CLASS
  1
AEC_DISP_REP_MVBLOCK_REF_RCP
  2
AecDbDispRepMvBlockRefRcp
  3
AecArchBase
 90
    32897
280
     1
281
     0
  0
CLASS
  1
AEC_DISP_REP_MASS_GROUP_RCP
  2
AecDbDispRepMassGroupRcp
  3
AecArchBase
 90
    32897
280
     1
281
     0
  0
CLASS
  1
AEC_DISP_REP_MASS_ELEM_RCP
  2
AecDbDispRepMassElemRcp
  3
AecArchBase
 90
    32897
280
     1
281
     0
  0
CLASS
  1
AEC_DISP_REP_MASKBLOCK_REF_RCP
  2
AecDbDispRepMaskBlockRefRcp
  3
AecArchBase
 90
    32897
280
     1
281
     0
  0
CLASS
  1
AEC_DISP_REP_COLUMN_GRID_RCP
  2
AecDbDispRepColumnGridRcp
  3
AecArchBase
 90
    32897
280
     1
281
     0
  0
CLASS
  1
AEC_DISP_REP_COLUMN_GRID_MODEL
  2
AecDbDispRepColumnGridModel
  3
AecArchBase
 90
    32897
280
     1
281
     0
  0
CLASS
  1
AEC_DISP_REP_COLUMN_GRID
  2
AecDbDispRepColumnGrid
  3
AecArchBase
 90
    32897
280
     1
281
     0
  0
CLASS
  1
AEC_DISP_REP_CEILING_GRID_RCP
  2
AecDbDispRepCeilingGridRcp
  3
AecArchBase
 90
    32897
280
     1
281
     0
  0
CLASS
  1
AEC_DISP_REP_CEILING_GRID_MODEL
  2
AecDbDispRepCeilingGridModel
  3
AecArchBase
 90
    32897
280
     1
281
     0
  0
CLASS
  1
AEC_DISP_REP_CEILING_GRID
  2
AecDbDispRepCeilingGrid
  3
AecArchBase
 90
    33661
280
     1
281
     0
  0
CLASS
  1
AEC_DISP_REP_BDG_SECTION_SUBDIV
  2
AecDbDispRepBdgSectionSubDiv
  3
AecArchBase
 90
    32897
280
     1
281
     0
  0
CLASS
  1
AEC_DISP_REP_BDG_SECTION_MODEL
  2
AecDbDispRepBdgSectionModel
  3
AecArchBase
 90
    32897
280
     1
281
     0
  0
CLASS
  1
AEC_DISP_REP_BDG_SECTIONLINE_RCP
  2
AecDbDispRepBdgSectionLineRcp
  3
AecArchBase
 90
    32897
280
     1
281
     0
  0
CLASS
  1
AEC_DISP_REP_BDG_SECTIONLINE_PLAN
  2
AecDbDispRepBdgSectionLinePlan
  3
AecArchBase
 90
    32897
280
     1
281
     0
  0
CLASS
  1
AEC_DISP_REP_BDG_ELEVLINE_RCP
  2
AecDbDispRepBdgElevLineRcp
  3
AecArchBase
 90
    32897
280
     1
281
     0
  0
CLASS
  1
AEC_DISP_REP_BDG_ELEVLINE_PLAN
  2
AecDbDispRepBdgElevLinePlan
  3
AecArchBase
 90
    32897
280
     1
281
     0
  0
CLASS
  1
AEC_DISP_REP_BDG_SECTIONLINE_MODEL
  2
AecDbDispRepBdgSectionLineModel
  3
AecArchBase
 90
    32897
280
     1
281
     0
  0
CLASS
  1
AEC_DISP_REP_BDG_ELEVLINE_MODEL
  2
AecDbDispRepBdgElevLineModel
  3
AecArchBase
 90
    32897
280
     1
281
     0
  0
CLASS
  1
AEC_DISP_REP_ANCHOR_BUB_TO_GRID_RCP
  2
AecDbDispRepAnchorBubToGridRcp
  3
AecArchBase
 90
    32897
280
     1
281
     0
  0
CLASS
  1
AEC_DISP_REP_ANCHOR_BUB_TO_GRID_MODEL
  2
AecDbDispRepAnchorBubToGridMdl
  3
AecArchBase
 90
    32897
280
     1
281
     0
  0
CLASS
  1
AEC_DISP_REP_ANCHOR_BUB_TO_GRID
  2
AecDbDispRepAnchorBubToGrid
  3
AecArchBase
 90
    32897
280
     1
281
     0
  0
CLASS
  1
AEC_DISP_REP_WINDOW_RCP
  2
AecDbDispRepWindowRcp
  3
AecArchBase
 90
    32897
280
     1
281
     0
  0
CLASS
  1
AEC_DISP_PROPS_WINDOW
  2
AecDbDispPropsWindow
  3
AecArchBase
 90
    32897
280
     1
281
     0
  0
CLASS
  1
AEC_DISP_REP_ROOF_RCP
  2
AecDbDispRepRoofRcp
  3
AecArchBase
 90
    32897
280
     1
281
     0
  0
CLASS
  1
AEC_DISP_PROPS_ROOF
  2
AecDbDispPropsRoof
  3
AecArchBase
 90
    32897
280
     1
281
     0
  0
CLASS
  1
AEC_DISP_REP_ROOF_PLAN
  2
AecDbDispRepRoofPlan
  3
AecArchBase
 90
    32897
280
     1
281
     0
  0
CLASS
  1
AEC_DISP_REP_WINDOW_SILL_PLAN
  2
AecDbDispRepWindowSillPlan
  3
AecArchBase
 90
    32897
280
     1
281
     0
  0
CLASS
  1
AEC_DISP_PROPS_WINDOW_SILL_PLAN
  2
AecDbDispPropsWindowSillPlan
  3
AecArchBase
 90
    32897
280
     1
281
     0
  0
CLASS
  1
AEC_DISP_REP_SPACE_PLAN
  2
AecDbDispRepSpacePlan
  3
AecArchBase
 90
    32897
280
     1
281
     0
  0
CLASS
  1
AEC_DISP_PROPS_SPACE_PLAN
  2
AecDbDispPropsSpacePlan
  3
AecArchBase
 90
    32897
280
     1
281
     0
  0
CLASS
  1
AEC_DISP_REP_SPACE_MODEL
  2
AecDbDispRepSpaceModel
  3
AecArchBase
 90
    32897
280
     1
281
     0
  0
CLASS
  1
AEC_DISP_PROPS_SPACE_MODEL
  2
AecDbDispPropsSpaceModel
  3
AecArchBase
 90
    32897
280
     1
281
     0
  0
CLASS
  1
AEC_DISP_REP_WINDOW_MODEL
  2
AecDbDispRepWindowModel
  3
AecArchBase
 90
    32897
280
     1
281
     0
  0
CLASS
  1
AEC_DISP_REP_WINDOW_NOMINAL
  2
AecDbDispRepWindowNominal
  3
AecArchBase
 90
    32897
280
     1
281
     0
  0
CLASS
  1
AEC_DISP_PROPS_WINDOW_NOMINAL
  2
AecDbDispPropsWindowNominal
  3
AecArchBase
 90
    32897
280
     1
281
     0
  0
CLASS
  1
AEC_DISP_REP_OPENING
  2
AecDbDispRepOpening
  3
AecArchBase
 90
    32897
280
     1
281
     0
  0
CLASS
  1
AEC_DISP_PROPS_OPENING
  2
AecDbDispPropsOpening
  3
AecArchBase
 90
    32897
280
     1
281
     0
  0
CLASS
  1
AEC_DISP_REP_OPENING_MODEL
  2
AecDbDispRepOpeningModel
  3
AecArchBase
 90
    32897
280
     1
281
     0
  0
CLASS
  1
AEC_DISP_REP_RAILING_PLAN
  2
AecDbDispRepRailingPlan
  3
AecArchBase
 90
    32897
280
     1
281
     0
  0
CLASS
  1
AEC_DISP_PROPS_RAILING_PLAN
  2
AecDbDispPropsRailingPlan
  3
AecArchBase
 90
    32897
280
     1
281
     0
  0
CLASS
  1
AEC_DISP_REP_RAILING_MODEL
  2
AecDbDispRepRailingModel
  3
AecArchBase
 90
    32897
280
     1
281
     0
  0
CLASS
  1
AEC_DISP_PROPS_RAILING_MODEL
  2
AecDbDispPropsRailingModel
  3
AecArchBase
 90
    32897
280
     1
281
     0
  0
CLASS
  1
AEC_DISP_REP_WINDOW_ELEV
  2
AecDbDispRepWindowElev
  3
AecArchBase
 90
    32897
280
     1
281
     0
  0
CLASS
  1
AEC_DISP_REP_DOOR_THRESHOLD_PLAN
  2
AecDbDispRepDoorThresholdPlan
  3
AecArchBase
 90
    32897
280
     1
281
     0
  0
CLASS
  1
AEC_DISP_PROPS_DOOR_THRESHOLD_PLAN
  2
AecDbDispPropsDoorThresholdPlan
  3
AecArchBase
 90
    32897
280
     1
281
     0
  0
CLASS
  1
AEC_DISP_REP_ROOF_MODEL
  2
AecDbDispRepRoofModel
  3
AecArchBase
 90
    32897
280
     1
281
     0
  0
CLASS
  1
AEC_DISP_REP_WINDOW_PLAN
  2
AecDbDispRepWindowPlan
  3
AecArchBase
 90
    32897
280
     1
281
     0
  0
CLASS
  1
AEC_DISP_REP_WALL_SCHEM
  2
AecDbDispRepWallSchem
  3
AecArchBase
 90
    32897
280
     1
281
     0
  0
CLASS
  1
AEC_DISP_PROPS_WALL_SCHEM
  2
AecDbDispPropsWallSchem
  3
AecArchBase
 90
    32897
280
     1
281
     0
  0
CLASS
  1
AEC_DISP_REP_WALL_RCP
  2
AecDbDispRepWallRcp
  3
AecArchBase
 90
    32897
280
     1
281
     0
  0
CLASS
  1
AEC_DISP_PROPS_WALL_PLAN
  2
AecDbDispPropsWallPlan
  3
AecArchBase
 90
    32897
280
     1
281
     0
  0
CLASS
  1
AEC_DISP_REP_WALL_PLAN
  2
AecDbDispRepWallPlan
  3
AecArchBase
 90
    32897
280
     1
281
     0
  0
CLASS
  1
AEC_DISP_REP_WALL_MODEL
  2
AecDbDispRepWallModel
  3
AecArchBase
 90
    32897
280
     1
281
     0
  0
CLASS
  1
AEC_DISP_PROPS_WALL
  2
AecDbDispPropsWall
  3
AecArchBase
 90
    32897
280
     1
281
     0
  0
CLASS
  1
AEC_DISP_REP_WALL_GRAPH
  2
AecDbDispRepWallGraph
  3
AecArchBase
 90
    32897
280
     1
281
     0
  0
CLASS
  1
AEC_DISP_REP_STAIR_RCP
  2
AecDbDispRepStairRcp
  3
AecArchBase
 90
    32897
280
     1
281
     0
  0
CLASS
  1
AEC_DISP_PROPS_STAIR_PLAN
  2
AecDbDispPropsStairPlan
  3
AecArchBase
 90
    32897
280
     1
281
     0
  0
CLASS
  1
AEC_DISP_REP_STAIR_PLAN
  2
AecDbDispRepStairPlan
  3
AecArchBase
 90
    32897
280
     1
281
     0
  0
CLASS
  1
AEC_DISP_REP_STAIR_MODEL
  2
AecDbDispRepStairModel
  3
AecArchBase
 90
    32897
280
     1
281
     0
  0
CLASS
  1
AEC_DISP_PROPS_STAIR_MODEL
  2
AecDbDispPropsStairModel
  3
AecArchBase
 90
    32897
280
     1
281
     0
  0
CLASS
  1
AEC_DISP_REP_SPACE_BOUNDARY_SCHEM
  2
AecDbDispRepSpaceBoundarySketch
  3
AecArchBase
 90
    32897
280
     1
281
     0
  0
CLASS
  1
AEC_DISP_REP_SPACE_BOUNDARY_PLAN
  2
AecDbDispRepSpaceBoundaryPlan
  3
AecArchBase
 90
    32897
280
     1
281
     0
  0
CLASS
  1
AEC_DISP_REP_SPACE_BOUNDARY_MODEL
  2
AecDbDispRepSpaceBoundaryModel
  3
AecArchBase
 90
    32897
280
     1
281
     0
  0
CLASS
  1
AEC_DISP_REP_SPACE_BOUNDARY_DIAGRAM
  2
AecDbDispRepSpaceBoundaryDgrm
  3
AecArchBase
 90
    32897
280
     1
281
     0
  0
CLASS
  1
AEC_DISP_REP_SPACE_VOLUME
  2
AecDbDispRepSpaceVolume
  3
AecArchBase
 90
    32897
280
     1
281
     0
  0
CLASS
  1
AEC_DISP_REP_SPACE_RCP
  2
AecDbDispRepSpaceRcp
  3
AecArchBase
 90
    32897
280
     1
281
     0
  0
CLASS
  1
AEC_DISP_REP_ANCHOR_TAG_TO_ENT
  2
AecDbDispRepAnchorTagToEnt
  3
AecScheduleData
 90
    32897
280
     1
281
     0
  0
CLASS
  1
AEC_DISP_REP_SCHEDULE_TABLE
  2
AecDbDispRepScheduleTable
  3
AecSchedule
 90
    32897
280
     1
281
     0
  0
CLASS
  1
AEC_DISP_PROPS_SCHEDULE_TABLE
  2
AecDbDispPropsScheduleTable
  3
AecSchedule
 90
    32897
280
     1
281
     0
  0
CLASS
  1
AEC_DISP_REP_SET
  2
AecDbDispRepSet
  3
AecBase
 90
    32897
280
     1
281
     0
  0
CLASS
  1
AEC_DISP_REP_CONFIG
  2
AecDbDispRepConfig
  3
AecBase
 90
    32897
280
     1
281
     0
  0
CLASS
  1
TABLESTYLE
  2
AcDbTableStyle
  3
ObjectDBX Classes
 90
     4095
280
     0
281
     0
  0
CLASS
  1
MATERIAL
  2
AcDbMaterial
  3
ObjectDBX Classes
 90
     1153
280
     0
281
     0
  0
CLASS
  1
VISUALSTYLE
  2
AcDbVisualStyle
  3
ObjectDBX Classes
 90
     4095
280
     0
281
     0
  0
CLASS
  1
SCALE
  2
AcDbScale
  3
ObjectDBX Classes
 90
     1153
280
     0
281
     0
  0
CLASS
  1
MLEADERSTYLE
  2
AcDbMLeaderStyle
  3
ACDB_MLEADERSTYLE_CLASS
 90
    36863
280
     0
281
     0
  0
CLASS
  1
ACDBSECTIONVIEWSTYLE
  2
AcDbSectionViewStyle
  3
ObjectDBX Classes
 90
    33793
280
     0
281
     0
  0
CLASS
  1
ACDBDETAILVIEWSTYLE
  2
AcDbDetailViewStyle
  3
ObjectDBX Classes
 90
    33793
280
     0
281
     0
  0
CLASS
  1
CELLSTYLEMAP
  2
AcDbCellStyleMap
  3
ObjectDBX Classes
 90
     1152
280
     0
281
     0
  0
ENDSEC
  0
SECTION
  2
TABLES
  0
TABLE
  2
VPORT
  5
2F
330
0
100
AcDbSymbolTable
 70
     1
  0
VPORT
  5
30
330
2F
100
AcDbSymbolTableRecord
100
AcDbViewportTableRecord
  2
*Active
 70
     0
 10
0.0
 20
0.0
 11
1.0
 21
1.0
 12
196.0526348273977
 22
55.75878388542406
 13
0.0
 23
0.0
 14
1.0
 24
1.0
 15
0.0
 25
0.0
 16
0.0
 26
0.0
 36
1.0
 17
0.0
 27
0.0
 37
0.0
 40
256.3179894811014
 41
2.043307086614173
 42
50.0
 43
0.0
 44
0.0
 50
0.0
 51
0.0
 71
     0
 72
 20000
 73
     1
 74
     1
 75
     0
 76
     0
 77
     0
 78
     0
281
     0
 65
     1
110
0.0
120
0.0
130
0.0
111
1.0
121
0.0
131
0.0
112
0.0
122
1.0
132
0.0
 79
     0
146
0.0
1001
ACAD_NAV_VCDISPLAY
1070
     3
  0
ENDTAB
  0
TABLE
  2
LTYPE
  5
2A
330
0
100
AcDbSymbolTable
 70
     1
  0
LTYPE
  5
2B
330
2A
100
AcDbSymbolTableRecord
100
AcDbLinetypeTableRecord
  2
BYBLOCK
 70
     0
  3

 72
    65
 73
     0
 40
0.0
  0
LTYPE
  5
2C
330
2A
100
AcDbSymbolTableRecord
100
AcDbLinetypeTableRecord
  2
BYLAYER
 70
     0
  3

 72
    65
 73
     0
 40
0.0
  0
LTYPE
  5
14
330
2A
100
AcDbSymbolTableRecord
100
AcDbLinetypeTableRecord
  2
CONTINUOUS
 70
     0
  3
Solid line
 72
    65
 73
     0
 40
0.0
  0
ENDTAB
  0
TABLE
  2
LAYER
  5
26
330
0
100
AcDbSymbolTable
 70
     6
  0
LAYER
  5
6
330
26
100
AcDbSymbolTableRecord
100
AcDbLayerTableRecord
  2
0
 70
     0
 62
     7
  6
CONTINUOUS
370
    -3
390
7
  0
LAYER
  5
138
330
26
100
AcDbSymbolTableRecord
100
AcDbLayerTableRecord
  2
DEFPOINTS
 70
     0
 62
     7
  6
CONTINUOUS
290
     0
370
    -3
390
7
  0
LAYER
  5
12D
330
26
100
AcDbSymbolTableRecord
100
AcDbLayerTableRecord
  2
SUNPOU
 70
     0
 62
    70
  6
CONTINUOUS
370
    -3
390
7
  0
LAYER
  5
63
330
26
100
AcDbSymbolTableRecord
100
AcDbLayerTableRecord
  2
KIJUN
 70
     0
 62
     7
  6
CONTINUOUS
370
    -3
390
7
  0
LAYER
  5
46D
330
26
100
AcDbSymbolTableRecord
100
AcDbLayerTableRecord
  2
HOJO
 70
     0
 62
     3
  6
CONTINUOUS
370
    -3
390
7
  0
LAYER
  5
46F
330
26
100
AcDbSymbolTableRecord
100
AcDbLayerTableRecord
  2
WAKU
 70
     0
 62
     1
  6
CONTINUOUS
370
    -3
390
7
  0
ENDTAB
  0
TABLE
  2
STYLE
  5
27
330
0
100
AcDbSymbolTable
 70
     3
  0
STYLE
  5
28
330
27
100
AcDbSymbolTableRecord
100
AcDbTextStyleTableRecord
  2
STANDARD
 70
     0
 40
0.0
 41
1.0
 50
0.0
 71
     0
 42
0.2
  3
txt
  4

  0
STYLE
  5
4C
330
27
100
AcDbSymbolTableRecord
100
AcDbTextStyleTableRecord
  2
SUNPOU
 70
     0
 40
0.0
 41
1.0
 50
0.0
 71
     0
 42
30.0
  3
txt
  4
bigfont
  0
STYLE
  5
136
330
27
100
AcDbSymbolTableRecord
100
AcDbTextStyleTableRecord
  2
LIFE
 70
     0
 40
0.0
 41
0.7
 50
0.0
 71
     0
 42
10.0
  3
romans
  4
extfont
  0
ENDTAB
  0
TABLE
  2
VIEW
  5
2D
330
0
100
AcDbSymbolTable
 70
     0
  0
ENDTAB
  0
TABLE
  2
UCS
  5
2E
330
0
100
AcDbSymbolTable
 70
     0
  0
ENDTAB
  0
TABLE
  2
APPID
  5
34
330
0
100
AcDbSymbolTable
 70
     2
  0
APPID
  5
A
330
34
100
AcDbSymbolTableRecord
100
AcDbRegAppTableRecord
  2
ACAD
 70
     0
  0
APPID
  5
33
330
34
100
AcDbSymbolTableRecord
100
AcDbRegAppTableRecord
  2
ACAD_NAV_VCDISPLAY
 70
     0
  0
ENDTAB
  0
TABLE
  2
DIMSTYLE
  5
35
330
0
100
AcDbSymbolTable
 70
     3
100
AcDbDimStyleTable
 71
     2
340
36
340
3B
  0
DIMSTYLE
105
3B
330
35
100
AcDbSymbolTableRecord
100
AcDbDimStyleTableRecord
  2
STANDARD
 70
     0
 41
3.0
 42
2.0
 44
0.0
 73
     0
 74
     0
 77
     1
140
2.799999999999998
141
1.0
146
0.0642857142857143
147
1.0
173
     1
174
     1
176
    60
177
    70
178
    60
271
     0
340
28
341
37
343
37
344
37
  0
DIMSTYLE
105
13C
102
{ACAD_REACTORS
330
45F
330
12C
102
}
330
35
100
AcDbSymbolTableRecord
100
AcDbDimStyleTableRecord
  2
STANDARD$0
 70
     0
 40
2.0
 41
1.0
 42
2.0
 43
0.0
 44
1.0
 73
     0
 74
     0
 77
     3
 78
     9
140
4.5
141
0.0
147
1.0
172
     1
173
     1
178
     3
271
     2
340
136
341
13D
343
13D
344
13D
  0
DIMSTYLE
105
36
330
35
100
AcDbSymbolTableRecord
100
AcDbDimStyleTableRecord
  2
1
 70
     0
 41
3.0
 42
2.0
 44
0.0
 73
     0
 74
     0
 77
     1
140
7.0
141
1.0
146
0.0642857142857143
147
1.0
173
     1
174
     1
176
    60
177
    70
178
    60
271
     0
340
28
341
37
343
37
344
37
  0
ENDTAB
  0
TABLE
  2
BLOCK_RECORD
  5
1
330
0
100
AcDbSymbolTable
 70
     4
  0
BLOCK_RECORD
  5
2
102
{ACAD_XDICTIONARY
360
3
102
}
330
1
100
AcDbSymbolTableRecord
100
AcDbBlockTableRecord
  2
*MODEL_SPACE
340
1E
  0
BLOCK_RECORD
  5
20
102
{ACAD_XDICTIONARY
360
21
102
}
330
1
100
AcDbSymbolTableRecord
100
AcDbBlockTableRecord
  2
*PAPER_SPACE
340
25
  0
BLOCK_RECORD
  5
37
330
1
100
AcDbSymbolTableRecord
100
AcDbBlockTableRecord
  2
_DOTSMALL
340
0
102
{BLKREFS
331
465
331
466
331
133
331
134
102
}
  0
BLOCK_RECORD
  5
13D
330
1
100
AcDbSymbolTableRecord
100
AcDbBlockTableRecord
  2
_DOT
340
0
  0
BLOCK_RECORD
  5
460
330
1
100
AcDbSymbolTableRecord
100
AcDbBlockTableRecord
  2
*D2
340
0
  0
BLOCK_RECORD
  5
12E
330
1
100
AcDbSymbolTableRecord
100
AcDbBlockTableRecord
  2
*D3
340
0
  0
ENDTAB
  0
ENDSEC
  0
SECTION
  2
BLOCKS
  0
BLOCK
  5
5
330
2
100
AcDbEntity
  8
0
100
AcDbBlockBegin
  2
*MODEL_SPACE
 70
     0
 10
0.0
 20
0.0
 30
0.0
  3
*MODEL_SPACE
  1

  0
ENDBLK
  5
1D
330
2
100
AcDbEntity
  8
0
100
AcDbBlockEnd
  0
BLOCK
  5
23
330
20
100
AcDbEntity
 67
     1
  8
0
100
AcDbBlockBegin
  2
*PAPER_SPACE
 70
     0
 10
0.0
 20
0.0
 30
0.0
  3
*PAPER_SPACE
  1

  0
ENDBLK
  5
24
330
20
100
AcDbEntity
 67
     1
  8
0
100
AcDbBlockEnd
  0
BLOCK
  5
38
330
37
100
AcDbEntity
  8
0
100
AcDbBlockBegin
  2
_DOTSMALL
 70
     0
 10
0.0
 20
0.0
 30
0.0
  3
_DOTSMALL
  1

  0
LWPOLYLINE
  5
39
330
37
100
AcDbEntity
  8
0
  6
ByBlock
 62
     0
100
AcDbPolyline
 90
        2
 70
     1
 43
0.5
 10
-0.0625
 20
0.0
 42
1.0
 10
0.0625
 20
0.0
 42
1.0
  0
ENDBLK
  5
3A
330
37
100
AcDbEntity
  8
0
100
AcDbBlockEnd
  0
BLOCK
  5
13E
330
13D
100
AcDbEntity
  8
0
100
AcDbBlockBegin
  2
_DOT
 70
     0
 10
0.0
 20
0.0
 30
0.0
  3
_DOT
  1

  0
LWPOLYLINE
  5
13F
330
13D
100
AcDbEntity
  8
0
  6
ByBlock
 62
     0
100
AcDbPolyline
 90
        2
 70
     1
 43
0.5
 10
-0.25
 20
0.0
 42
1.0
 10
0.25
 20
0.0
 42
1.0
  0
LINE
  5
140
330
13D
100
AcDbEntity
  8
0
  6
ByBlock
 62
     0
100
AcDbLine
 10
-0.5
 20
0.0
 30
0.0
 11
-1.0
 21
0.0
 31
0.0
  0
ENDBLK
  5
141
330
13D
100
AcDbEntity
  8
0
100
AcDbBlockEnd
  0
BLOCK
  5
461
330
460
100
AcDbEntity
  8
0
 62
     1
100
AcDbBlockBegin
  2
*D2
 70
     1
 10
0.0
 20
0.0
 30
0.0
  3
*D2
  1

  0
LINE
  5
462
330
460
100
AcDbEntity
  8
SUNPOU
 62
    70
370
    -2
100
AcDbLine
 10
20.78376162200697
 20
23.79762338570452
 30
0.0
 11
10.54090621367977
 21
23.79762338570452
 31
0.0
  0
LINE
  5
463
330
460
100
AcDbEntity
  8
SUNPOU
 62
    70
370
    -2
100
AcDbLine
 10
20.78376162200697
 20
72.79762338570453
 30
0.0
 11
10.54090621367978
 21
72.79762338570453
 31
0.0
  0
LINE
  5
464
330
460
100
AcDbEntity
  8
SUNPOU
 62
    60
370
    -2
100
AcDbLine
 10
10.54090621367977
 20
23.79762338570452
 30
0.0
 11
10.54090621367978
 21
72.79762338570453
 31
0.0
  0
INSERT
  5
465
330
460
100
AcDbEntity
  8
SUNPOU
 62
    60
370
    -2
100
AcDbBlockReference
  2
_DOTSMALL
 10
10.54090621367977
 20
23.79762338570452
 30
0.0
 41
4.0
 42
4.0
 43
4.0
 50
270.0
  0
INSERT
  5
466
330
460
100
AcDbEntity
  8
SUNPOU
 62
    60
370
    -2
100
AcDbBlockReference
  2
_DOTSMALL
 10
10.54090621367978
 20
72.79762338570453
 30
0.0
 41
4.0
 42
4.0
 43
4.0
 50
90.0
  0
MTEXT
  5
467
330
460
100
AcDbEntity
  8
SUNPOU
 62
    60
100
AcDbMText
 10
5.540906213679771
 20
48.29762338570453
 30
0.0
 40
6.0
 41
0.0
 71
     5
 72
     1
  1
\A1;49
  7
LIFE
 11
0.0000000000000001
 21
1.0
 31
0.0
 73
     1
 44
1.0
1001
ACAD
1000
MTEXTBEGIN
1070
    73
1070
     1
1070
    44
1040
1.0
1070
    74
1070
     0
1000
MTEXTEND
  0
POINT
  5
468
330
460
100
AcDbEntity
  8
DEFPOINTS
 62
     0
100
AcDbPoint
 10
24.78376162200697
 20
23.79762338570452
 30
0.0
  0
POINT
  5
469
330
460
100
AcDbEntity
  8
DEFPOINTS
 62
     0
100
AcDbPoint
 10
24.78376162200697
 20
72.79762338570453
 30
0.0
  0
POINT
  5
46A
330
460
100
AcDbEntity
  8
DEFPOINTS
 62
     0
100
AcDbPoint
 10
10.54090621367978
 20
72.79762338570453
 30
0.0
  0
ENDBLK
  5
46B
330
460
100
AcDbEntity
  8
0
 62
     1
100
AcDbBlockEnd
  0
BLOCK
  5
12F
330
12E
100
AcDbEntity
  8
0
 62
     1
100
AcDbBlockBegin
  2
*D3
 70
     1
 10
0.0
 20
0.0
 30
0.0
  3
*D3
  1

  0
LINE
  5
130
330
12E
100
AcDbEntity
  8
SUNPOU
 62
    70
370
    -2
100
AcDbLine
 10
24.78376162200697
 20
76.79762338570452
 30
0.0
 11
24.78376162200697
 21
86.58737512405252
 31
0.0
  0
LINE
  5
131
330
12E
100
AcDbEntity
  8
SUNPOU
 62
    70
370
    -2
100
AcDbLine
 10
54.78376162200697
 20
76.79762338570452
 30
0.0
 11
54.78376162200697
 21
86.58737512405252
 31
0.0
  0
LINE
  5
132
330
12E
100
AcDbEntity
  8
SUNPOU
 62
    60
370
    -2
100
AcDbLine
 10
24.78376162200697
 20
86.58737512405252
 30
0.0
 11
54.78376162200697
 21
86.58737512405252
 31
0.0
  0
INSERT
  5
133
330
12E
100
AcDbEntity
  8
SUNPOU
 62
    60
370
    -2
100
AcDbBlockReference
  2
_DOTSMALL
 10
24.78376162200697
 20
86.58737512405252
 30
0.0
 41
4.0
 42
4.0
 43
4.0
 50
180.0
  0
INSERT
  5
134
330
12E
100
AcDbEntity
  8
SUNPOU
 62
    60
370
    -2
100
AcDbBlockReference
  2
_DOTSMALL
 10
54.78376162200697
 20
86.58737512405252
 30
0.0
 41
4.0
 42
4.0
 43
4.0
  0
MTEXT
  5
135
330
12E
100
AcDbEntity
  8
SUNPOU
 62
    60
100
AcDbMText
 10
39.78376162200697
 20
91.58737512405252
 30
0.0
 40
6.0
 41
0.0
 71
     5
 72
     1
  1
\A1;30
  7
LIFE
 73
     1
 44
1.0
1001
ACAD
1000
MTEXTBEGIN
1070
    73
1070
     1
1070
    44
1040
1.0
1070
    74
1070
     0
1000
MTEXTEND
  0
POINT
  5
137
330
12E
100
AcDbEntity
  8
DEFPOINTS
 62
     0
100
AcDbPoint
 10
24.78376162200697
 20
72.79762338570453
 30
0.0
  0
POINT
  5
139
330
12E
100
AcDbEntity
  8
DEFPOINTS
 62
     0
100
AcDbPoint
 10
54.78376162200697
 20
72.79762338570453
 30
0.0
  0
POINT
  5
13A
330
12E
100
AcDbEntity
  8
DEFPOINTS
 62
     0
100
AcDbPoint
 10
54.78376162200697
 20
86.58737512405252
 30
0.0
  0
ENDBLK
  5
13B
330
12E
100
AcDbEntity
  8
0
 62
     1
100
AcDbBlockEnd
  0
ENDSEC
  0
SECTION
  2
ENTITIES
  0
ARC
  5
62
330
2
100
AcDbEntity
  8
KIJUN
 62
     7
100
AcDbCircle
 10
144.5057254857683
 20
63.98534252447614
 30
0.0
 40
5.776891197506127
100
AcDbArc
 50
176.1964165245507
 51
251.0905524209
  0
ARC
  5
64
330
2
100
AcDbEntity
  8
KIJUN
 62
     7
100
AcDbCircle
 10
144.6845312883098
 20
66.4671009142116
 30
0.0
 40
8.253938982304662
100
AcDbArc
 50
199.1115608600486
 51
246.8271064699492
  0
ARC
  5
65
330
2
100
AcDbEntity
  8
KIJUN
 62
     7
100
AcDbCircle
 10
139.4722127833726
 20
61.58041423221305
 30
0.0
 40
4.153878782694281
100
AcDbArc
 50
223.3502473171153
 51
298.9634556282215
  0
ARC
  5
66
330
2
100
AcDbEntity
  8
KIJUN
 62
     7
100
AcDbCircle
 10
139.6350590160993
 20
64.69952012883225
 30
0.0
 40
0.9528257579263044
100
AcDbArc
 50
107.4337710320148
 51
200.325055222582
  0
ARC
  5
67
330
2
100
AcDbEntity
  8
KIJUN
 62
     7
100
AcDbCircle
 10
139.051006663503
 20
67.50542281219619
 30
0.0
 40
2.169746303695041
100
AcDbArc
 50
75.77287577119192
 51
116.2781128380851
  0
ARC
  5
68
330
2
100
AcDbEntity
  8
KIJUN
 62
     7
100
AcDbCircle
 10
139.8849703523967
 20
66.50297649271118
 30
0.0
 40
2.616818318677879
100
AcDbArc
 50
97.28133907108972
 51
116.9822218139252
  0
LINE
  5
69
330
2
100
AcDbEntity
  8
KIJUN
 62
     7
100
AcDbLine
 10
388.5361451360101
 20
70.1803353135244
 30
0.0
 11
80.82914305829634
 21
70.1803353135239
 31
0.0
  0
LINE
  5
6A
330
2
100
AcDbEntity
  8
KIJUN
 62
     7
100
AcDbLine
 10
388.5361451360098
 20
56.79762338570452
 30
0.0
 11
80.82914305829634
 21
56.79762338570407
 31
0.0
  0
LINE
  5
6B
330
2
100
AcDbEntity
  8
KIJUN
 62
     7
100
AcDbLine
 10
388.5361451360098
 20
23.79762338570463
 30
0.0
 11
80.82914305829655
 21
23.79762338570452
 31
0.0
  0
LINE
  5
6C
330
2
100
AcDbEntity
  8
KIJUN
 62
     7
100
AcDbLine
 10
388.5361451360095
 20
72.7976233857043
 30
0.0
 11
80.82914305829634
 21
72.79762338570453
 31
0.0
  0
ARC
  5
6D
330
2
100
AcDbEntity
  8
KIJUN
 62
     7
100
AcDbCircle
 10
157.38407069099
 20
55.02906332842936
 30
0.0
 40
25.00941311334464
100
AcDbArc
 50
203.8375634804316
 51
225.663114231422
  0
ARC
  5
6E
330
2
100
AcDbEntity
  8
KIJUN
 62
     7
100
AcDbCircle
 10
135.4784690378903
 20
41.23461343590514
 30
0.0
 40
14.50171572791927
100
AcDbArc
 50
14.65982390608365
 51
85.63417985261594
  0
ARC
  5
6F
330
2
100
AcDbEntity
  8
KIJUN
 62
     7
100
AcDbCircle
 10
131.2278427293988
 20
37.86721580277566
 30
0.0
 40
18.61382405660328
100
AcDbArc
 50
10.86350063329188
 51
73.28174553280819
  0
LINE
  5
70
330
2
100
AcDbEntity
  8
KIJUN
 62
     7
100
AcDbLine
 10
388.5361451360098
 20
33.79762338570453
 30
0.0
 11
80.82914305829634
 21
33.79762338570453
 31
0.0
  0
LINE
  5
71
330
2
100
AcDbEntity
  8
KIJUN
 62
     7
100
AcDbLine
 10
388.5361451360098
 20
56.79762338570452
 30
0.0
 11
80.82914305829634
 21
56.79762338570452
 31
0.0
  0
ARC
  5
72
330
2
100
AcDbEntity
  8
KIJUN
  6
Continuous
 62
     7
100
AcDbCircle
 10
139.4880328610009
 20
28.21762363362831
 30
0.0
 40
1.112325491518459
100
AcDbArc
 50
229.3981480000003
 51
310.6011049999988
  0
ARC
  5
73
330
2
100
AcDbEntity
  8
KIJUN
 62
     7
100
AcDbCircle
 10
132.7910720061733
 20
32.91787972166292
 30
0.0
 40
6.108388265849264
100
AcDbArc
 50
287.4354925237405
 51
8.28066246144143
  0
ARC
  5
74
330
2
100
AcDbEntity
  8
KIJUN
 62
     7
100
AcDbCircle
 10
132.0795768895111
 20
32.91787972166292
 30
0.0
 40
6.108388265849264
100
AcDbArc
 50
295.2452984501335
 51
8.28066246144143
  0
ARC
  5
75
330
2
100
AcDbEntity
  8
KIJUN
 62
     7
100
AcDbCircle
 10
126.323705320399
 20
79.5107344521824
 30
0.0
 40
10.4
100
AcDbArc
 50
274.5716325401359
 51
286.4941917808768
  0
ARC
  5
76
330
2
100
AcDbEntity
  8
KIJUN
 62
     7
100
AcDbCircle
 10
151.5117445380367
 20
63.89586123993279
 30
0.0
 40
13.73297992259408
100
AcDbArc
 50
158.9212088886231
 51
189.2708478080365
  0
ARC
  5
77
330
2
100
AcDbEntity
  8
KIJUN
 62
     7
100
AcDbCircle
 10
121.1805236971033
 20
63.89586123993279
 30
0.0
 40
13.73297992259408
100
AcDbArc
 50
350.7291521919634
 51
21.07879111137682
  0
ARC
  5
78
330
2
100
AcDbEntity
  8
KIJUN
 62
     7
100
AcDbCircle
 10
127.9999677660318
 20
62.93456567153858
 30
0.0
 40
2.6
100
AcDbArc
 50
1.33225399229193
 51
62.19795810599649
  0
ARC
  5
79
330
2
100
AcDbEntity
  8
KIJUN
 62
     7
100
AcDbCircle
 10
128.7275801027146
 20
64.31448606326734
 30
0.0
 40
1.04
100
AcDbArc
 50
62.19795810599969
 51
116.9906302781861
  0
ARC
  5
7A
330
2
100
AcDbEntity
  8
KIJUN
 62
     7
100
AcDbCircle
 10
130.6954305495794
 20
67.89121729735207
 30
0.0
 40
1.916920883265328
100
AcDbArc
 50
350.0503785042168
 51
99.9465951632095
  0
ARC
  5
7B
330
2
100
AcDbEntity
  8
KIJUN
 62
     7
100
AcDbCircle
 10
131.5313225129063
 20
61.9235667133552
 30
0.0
 40
7.941966794685592
100
AcDbArc
 50
98.44970531066048
 51
106.4941917808769
  0
ARC
  5
7C
330
2
100
AcDbEntity
  8
KIJUN
 62
     7
100
AcDbCircle
 10
127.3174062975237
 20
67.0832272262955
 30
0.0
 40
2.067171992132617
100
AcDbArc
 50
94.57163254013591
 51
296.9906302781796
  0
ARC
  5
7D
330
2
100
AcDbEntity
  8
KIJUN
 62
     7
100
AcDbCircle
 10
133.1719102873324
 20
69.35659549900805
 30
0.0
 40
0.26
100
AcDbArc
 50
104.2271242288215
 51
262.7186609289136
  0
ARC
  5
7E
330
2
100
AcDbEntity
  8
KIJUN
 62
     7
100
AcDbCircle
 10
132.8072978827433
 20
66.50297649271118
 30
0.0
 40
2.616818318677879
100
AcDbArc
 50
63.01777818607469
 51
82.71866092891029
  0
ARC
  5
7F
330
2
100
AcDbEntity
  8
KIJUN
 62
     7
100
AcDbCircle
 10
133.654266162289
 20
66.60080325029861
 30
0.0
 40
1.04
100
AcDbArc
 50
176.725906772897
 51
252.5662289679919
  0
ARC
  5
80
330
2
100
AcDbEntity
  8
KIJUN
 62
     7
100
AcDbCircle
 10
127.7855643335968
 20
66.9365281323516
 30
0.0
 40
4.838296721884834
100
AcDbArc
 50
356.7259067728941
 51
7.403917443343901
  0
ARC
  5
81
330
2
100
AcDbEntity
  8
KIJUN
 62
     7
100
AcDbCircle
 10
133.0572092190406
 20
64.69952012883225
 30
0.0
 40
0.9528257579263044
100
AcDbArc
 50
339.674944777418
 51
72.56622896798511
  0
ARC
  5
82
330
2
100
AcDbEntity
  8
KIJUN
 62
     7
100
AcDbCircle
 10
133.6412615716369
 20
67.50542281219619
 30
0.0
 40
2.169746303695041
100
AcDbArc
 50
73.23997757048359
 51
104.2271242288081
  0
ARC
  5
83
330
2
100
AcDbEntity
  8
KIJUN
 62
     7
100
AcDbCircle
 10
136.2533439256391
 20
67.03249885743247
 30
0.0
 40
3.037040437815087
100
AcDbArc
 50
52.77958515971177
 51
86.25649226184085
  0
ARC
  5
84
330
2
100
AcDbEntity
  8
KIJUN
 62
     7
100
AcDbCircle
 10
136.7153432074853
 20
63.65176058173499
 30
0.0
 40
6.416719871981105
100
AcDbArc
 50
92.35537294120048
 51
112.4307498179295
  0
ARC
  5
85
330
2
100
AcDbEntity
  8
KIJUN
 62
     7
100
AcDbCircle
 10
122.405637767961
 20
69.17546147092245
 30
0.0
 40
0.26
100
AcDbArc
 50
297.1360026157295
 51
100.2457824432781
  0
ARC
  5
86
330
2
100
AcDbEntity
  8
KIJUN
 62
     7
100
AcDbCircle
 10
115.6294287594175
 20
65.74642650489654
 30
0.0
 40
6.133697208539356
100
AcDbArc
 50
335.5425421826853
 51
20.11191035701802
  0
ARC
  5
87
330
2
100
AcDbEntity
  8
KIJUN
 62
     7
100
AcDbCircle
 10
122.6231352773696
 20
67.70482888887084
 30
0.0
 40
1.243192705900487
100
AcDbArc
 50
94.56336777018673
 51
173.0374990346018
  0
ARC
  5
88
330
2
100
AcDbEntity
  8
KIJUN
 62
     7
100
AcDbCircle
 10
121.9499733435297
 20
68.02152409283046
 30
0.0
 40
1.468037716610484
100
AcDbArc
 50
73.80615848752947
 51
140.6195186193183
  0
ARC
  5
89
330
2
100
AcDbEntity
  8
KIJUN
 62
     7
100
AcDbCircle
 10
122.7431887404506
 20
63.60446507693215
 30
0.0
 40
1.581223681833198
100
AcDbArc
 50
194.559504141417
 51
224.730225033182
  0
ARC
  5
8A
330
2
100
AcDbEntity
  8
KIJUN
 62
     7
100
AcDbCircle
 10
126.8346233532026
 20
65.35794975443327
 30
0.0
 40
10.79459167972319
100
AcDbArc
 50
163.5149617427422
 51
192.398061717394
  0
ARC
  5
8B
330
2
100
AcDbEntity
  8
KIJUN
 62
     7
100
AcDbCircle
 10
118.8128117678417
 20
67.42706239370949
 30
0.0
 40
2.517557390391985
100
AcDbArc
 50
37.30780957415443
 51
137.6839964278039
  0
ARC
  5
8C
330
2
100
AcDbEntity
  8
KIJUN
 62
     7
100
AcDbCircle
 10
124.8454683718621
 20
62.27285773634406
 30
0.0
 40
2.342550189021227
100
AcDbArc
 50
348.3786696002813
 51
101.6490579718231
  0
ARC
  5
8D
330
2
100
AcDbEntity
  8
KIJUN
 62
     7
100
AcDbCircle
 10
104.5203579478076
 20
69.35659549900805
 30
0.0
 40
0.26
100
AcDbArc
 50
277.2813390710865
 51
75.77287577117847
  0
ARC
  5
8E
330
2
100
AcDbEntity
  8
KIJUN
 62
     7
100
AcDbCircle
 10
104.8849703523968
 20
66.50297649271118
 30
0.0
 40
2.616818318677879
100
AcDbArc
 50
97.28133907108972
 51
116.9822218139252
  0
ARC
  5
8F
330
2
100
AcDbEntity
  8
KIJUN
 62
     7
100
AcDbCircle
 10
116.5117445380367
 20
63.89586123993279
 30
0.0
 40
13.73297992259408
100
AcDbArc
 50
158.9212088886231
 51
189.2708478080365
  0
ARC
  5
90
330
2
100
AcDbEntity
  8
KIJUN
 62
     7
100
AcDbCircle
 10
110.3748619376163
 20
67.0832272262955
 30
0.0
 40
2.067171992132617
100
AcDbArc
 50
243.0093697218203
 51
85.42836745986408
  0
ARC
  5
91
330
2
100
AcDbEntity
  8
KIJUN
 62
     7
100
AcDbCircle
 10
106.9968376855607
 20
67.89121729735207
 30
0.0
 40
1.916920883265328
100
AcDbArc
 50
80.05340483679052
 51
189.949621495783
  0
ARC
  5
92
330
2
100
AcDbEntity
  8
KIJUN
 62
     7
100
AcDbCircle
 10
106.1609457222337
 20
61.9235667133552
 30
0.0
 40
7.941966794685592
100
AcDbArc
 50
73.50580821912308
 51
81.55029468933955
  0
ARC
  5
93
330
2
100
AcDbEntity
  8
KIJUN
 62
     7
100
AcDbCircle
 10
111.3685629147409
 20
79.5107344521824
 30
0.0
 40
10.4
100
AcDbArc
 50
253.5058082191231
 51
265.4283674598641
  0
ARC
  5
94
330
2
100
AcDbEntity
  8
KIJUN
 62
     7
100
AcDbCircle
 10
104.038002072851
 20
66.60080325029861
 30
0.0
 40
1.04
100
AcDbArc
 50
287.4337710320079
 51
3.274093227102877
  0
ARC
  5
95
330
2
100
AcDbEntity
  8
KIJUN
 62
     7
100
AcDbCircle
 10
109.9067039015432
 20
66.9365281323516
 30
0.0
 40
4.838296721884834
100
AcDbArc
 50
172.596082556656
 51
183.2740932271059
  0
ARC
  5
96
330
2
100
AcDbEntity
  8
KIJUN
 62
     7
100
AcDbCircle
 10
104.6350590160993
 20
64.69952012883225
 30
0.0
 40
0.9528257579263044
100
AcDbArc
 50
107.4337710320148
 51
200.325055222582
  0
ARC
  5
97
330
2
100
AcDbEntity
  8
KIJUN
 62
     7
100
AcDbCircle
 10
109.6923004691082
 20
62.93456567153858
 30
0.0
 40
2.6
100
AcDbArc
 50
117.8020418940034
 51
178.667746007708
  0
ARC
  5
98
330
2
100
AcDbEntity
  8
KIJUN
 62
     7
100
AcDbCircle
 10
108.9646881324253
 20
64.31448606326734
 30
0.0
 40
1.04
100
AcDbArc
 50
63.00936972181374
 51
117.8020418940002
  0
ARC
  5
99
330
2
100
AcDbEntity
  8
KIJUN
 62
     7
100
AcDbCircle
 10
104.0510066635031
 20
67.50542281219619
 30
0.0
 40
2.169746303695041
100
AcDbArc
 50
75.77287577119192
 51
106.7600224295163
  0
ARC
  5
9A
330
2
100
AcDbEntity
  8
KIJUN
 62
     7
100
AcDbCircle
 10
114.6828066975969
 20
69.10427568660221
 30
0.0
 40
0.26
100
AcDbArc
 50
89.38305508701628
 51
254.5333960972705
  0
ARC
  5
9B
330
2
100
AcDbEntity
  8
KIJUN
 62
     7
100
AcDbCircle
 10
111.8014364168783
 20
62.27285773634406
 30
0.0
 40
2.342550189021227
100
AcDbArc
 50
78.35094202817687
 51
191.6213303997185
  0
ARC
  5
9C
330
2
100
AcDbEntity
  8
KIJUN
 62
     7
100
AcDbCircle
 10
90.75675231003726
 20
62.27285773634406
 30
0.0
 40
2.342550189021227
100
AcDbArc
 50
348.3786696002813
 51
101.6490579718231
  0
ARC
  5
9D
330
2
100
AcDbEntity
  8
KIJUN
 62
     7
100
AcDbCircle
 10
93.72758010271473
 20
64.31448606326734
 30
0.0
 40
1.04
100
AcDbArc
 50
62.19795810599969
 51
116.9906302781861
  0
ARC
  5
9E
330
2
100
AcDbEntity
  8
KIJUN
 62
     7
100
AcDbCircle
 10
91.32370532039914
 20
79.5107344521824
 30
0.0
 40
10.4
100
AcDbArc
 50
274.5716325401359
 51
286.4941917808768
  0
ARC
  5
9F
330
2
100
AcDbEntity
  8
KIJUN
 62
     7
100
AcDbCircle
 10
92.31740629752385
 20
67.0832272262955
 30
0.0
 40
2.067171992132617
100
AcDbArc
 50
94.57163254013591
 51
296.9906302781796
  0
ARC
  5
A0
330
2
100
AcDbEntity
  8
KIJUN
 62
     7
100
AcDbCircle
 10
87.87538202931846
 20
69.10427568660221
 30
0.0
 40
0.26
100
AcDbArc
 50
285.4666039027295
 51
90.61694491298373
  0
ARC
  5
A1
330
2
100
AcDbEntity
  8
KIJUN
 62
     7
100
AcDbCircle
 10
75.7235653737128
 20
65.35794975443327
 30
0.0
 40
10.79459167972319
100
AcDbArc
 50
347.601938282605
 51
16.48503825725765
  0
ARC
  5
A2
330
2
100
AcDbEntity
  8
KIJUN
 62
     7
100
AcDbCircle
 10
86.92875996749839
 20
65.74642650489654
 30
0.0
 40
6.133697208539356
100
AcDbArc
 50
159.8880896429819
 51
204.4574578173146
  0
ARC
  5
A3
330
2
100
AcDbEntity
  8
KIJUN
 62
     7
100
AcDbCircle
 10
83.74537695907367
 20
67.42706239370949
 30
0.0
 40
2.517557390391985
100
AcDbArc
 50
42.31600357219599
 51
142.6921904258454
  0
ARC
  5
A4
330
2
100
AcDbEntity
  8
KIJUN
 62
     7
100
AcDbCircle
 10
87.50131090287078
 20
66.51150812469035
 30
0.0
 40
2.383785204801164
100
AcDbArc
 50
79.2799969793088
 51
126.768013646347
  0
ARC
  5
A5
330
2
100
AcDbEntity
  8
KIJUN
 62
     7
100
AcDbCircle
 10
86.96693322127822
 20
67.11932979213035
 30
0.0
 40
2.420726124157759
100
AcDbArc
 50
68.02988239914544
 51
124.1804264575892
  0
ARC
  5
A6
330
2
100
AcDbEntity
  8
KIJUN
 62
     7
100
AcDbCircle
 10
92.99996776603196
 20
62.93456567153858
 30
0.0
 40
2.6
100
AcDbArc
 50
1.33225399229193
 51
62.19795810599649
  0
ARC
  5
A7
330
2
100
AcDbEntity
  8
KIJUN
 62
     7
100
AcDbCircle
 10
96.53132251290646
 20
61.9235667133552
 30
0.0
 40
7.941966794685592
100
AcDbArc
 50
98.44970531066048
 51
106.4941917808769
  0
ARC
  5
A8
330
2
100
AcDbEntity
  8
KIJUN
 62
     7
100
AcDbCircle
 10
79.81499998646523
 20
63.60446507693215
 30
0.0
 40
1.581223681833198
100
AcDbArc
 50
315.2697749668179
 51
345.440495858583
  0
ARC
  5
A9
330
2
100
AcDbEntity
  8
KIJUN
 62
     7
100
AcDbCircle
 10
101.4389243095009
 20
67.03249885743247
 30
0.0
 40
3.037040437815087
100
AcDbArc
 50
93.74350773815917
 51
127.2204148402882
  0
ARC
  5
AA
330
2
100
AcDbEntity
  8
KIJUN
 62
     7
100
AcDbCircle
 10
95.69543054957948
 20
67.89121729735207
 30
0.0
 40
1.916920883265328
100
AcDbArc
 50
350.0503785042168
 51
99.9465951632095
  0
ARC
  5
AB
330
2
100
AcDbEntity
  8
KIJUN
 62
     7
100
AcDbCircle
 10
98.05720921904079
 20
64.69952012883225
 30
0.0
 40
0.9528257579263044
100
AcDbArc
 50
339.674944777418
 51
72.56622896798511
  0
ARC
  5
AC
330
2
100
AcDbEntity
  8
KIJUN
 62
     7
100
AcDbCircle
 10
92.78556433359684
 20
66.9365281323516
 30
0.0
 40
4.838296721884834
100
AcDbArc
 50
356.7259067728942
 51
7.403917443343901
  0
ARC
  5
AD
330
2
100
AcDbEntity
  8
KIJUN
 62
     7
100
AcDbCircle
 10
98.65426616228916
 20
66.60080325029861
 30
0.0
 40
1.04
100
AcDbArc
 50
176.725906772897
 51
252.5662289679919
  0
ARC
  5
AE
330
2
100
AcDbEntity
  8
KIJUN
 62
     7
100
AcDbCircle
 10
98.64126157163703
 20
67.50542281219619
 30
0.0
 40
2.169746303695041
100
AcDbArc
 50
63.7218871619149
 51
104.2271242288081
  0
ARC
  5
AF
330
2
100
AcDbEntity
  8
KIJUN
 62
     7
100
AcDbCircle
 10
97.80729788274339
 20
66.50297649271118
 30
0.0
 40
2.616818318677879
100
AcDbArc
 50
63.01777818607469
 51
82.71866092891029
  0
ARC
  5
B0
330
2
100
AcDbEntity
  8
KIJUN
 62
     7
100
AcDbCircle
 10
98.17191028733242
 20
69.35659549900805
 30
0.0
 40
0.26
100
AcDbArc
 50
104.2271242288215
 51
262.7186609289136
  0
ARC
  5
B1
330
2
100
AcDbEntity
  8
KIJUN
 62
     7
100
AcDbCircle
 10
86.18052369710341
 20
63.89586123993279
 30
0.0
 40
13.73297992259408
100
AcDbArc
 50
350.7291521919634
 51
21.07879111137682
  0
ARC
  5
B2
330
2
100
AcDbEntity
  8
KIJUN
 62
     7
100
AcDbCircle
 10
100.9769250276548
 20
63.65176058173499
 30
0.0
 40
6.416719871981105
100
AcDbArc
 50
67.56925018207031
 51
87.64462705879955
  0
ARC
  5
B3
330
2
100
AcDbEntity
  8
KIJUN
 62
     7
100
AcDbCircle
 10
115.0568778240446
 20
66.51150812469035
 30
0.0
 40
2.383785204801164
100
AcDbArc
 50
53.23198635365302
 51
100.7200030206912
  0
ARC
  5
B4
330
2
100
AcDbEntity
  8
KIJUN
 62
     7
100
AcDbCircle
 10
115.5912555056373
 20
67.11932979213035
 30
0.0
 40
2.420726124157759
100
AcDbArc
 50
55.81957354241068
 51
111.9701176008545
  0
ARC
  5
B5
330
2
100
AcDbEntity
  8
KIJUN
 62
     7
100
AcDbCircle
 10
79.93505344954593
 20
67.70482888887084
 30
0.0
 40
1.243192705900487
100
AcDbArc
 50
6.96250096539817
 51
44.01249706699942
  0
ARC
  5
B6
330
2
100
AcDbEntity
  8
KIJUN
 62
     7
100
AcDbCircle
 10
80.60821538338615
 20
68.02152409283046
 30
0.0
 40
1.468037716610484
100
AcDbArc
 50
39.38048138068159
 51
81.34457040553895
  0
ARC
  5
B7
330
2
100
AcDbEntity
  8
KIJUN
 62
     7
100
AcDbCircle
 10
83.05086220291723
 20
60.58335372711457
 30
0.0
 40
2.846807218628122
100
AcDbArc
 50
137.9076244630808
 51
141.2994922878073
  0
ARC
  5
B8
330
2
100
AcDbEntity
  8
KIJUN
 62
     7
100
AcDbCircle
 10
130.8272120137123
 20
58.40102921013606
 30
0.0
 40
0.5200000000000001
100
AcDbArc
 50
113.172893530061
 51
241.0365443717751
  0
ARC
  5
B9
330
2
100
AcDbEntity
  8
KIJUN
 62
     7
100
AcDbCircle
 10
130.8272120137137
 20
58.40102921013606
 30
0.0
 40
0.5200000000000001
100
AcDbArc
 50
113.172893530061
 51
241.0365443717751
  0
ARC
  5
BA
330
2
100
AcDbEntity
  8
KIJUN
 62
     7
100
AcDbCircle
 10
125.1132536584739
 20
76.75574920224329
 30
0.0
 40
19.07181890402107
100
AcDbArc
 50
279.6298557558726
 51
282.8963807528547
  0
ARC
  5
BB
330
2
100
AcDbEntity
  8
KIJUN
 62
     7
100
AcDbCircle
 10
128.2601419064756
 20
58.20900757919067
 30
0.0
 40
0.26
100
AcDbArc
 50
121.7198393826598
 51
279.6298557558658
  0
ARC
  5
BC
330
2
100
AcDbEntity
  8
KIJUN
 62
     7
100
AcDbCircle
 10
129.0216909885818
 20
59.68566077353667
 30
0.0
 40
1.56
100
AcDbArc
 50
282.8963807528546
 51
311.6620978266835
  0
ARC
  5
BD
330
2
100
AcDbEntity
  8
KIJUN
 62
     7
100
AcDbCircle
 10
132.9057710598649
 20
62.8991329976281
 30
0.0
 40
5.473892038690804
100
AcDbArc
 50
244.8034698932783
 51
310.3742068875849
  0
ARC
  5
BE
330
2
100
AcDbEntity
  8
KIJUN
 62
     7
100
AcDbCircle
 10
120.1308894905343
 20
56.31674866637826
 30
0.0
 40
1.56
100
AcDbArc
 50
82.16061694877096
 51
109.44802973871
  0
ARC
  5
BF
330
2
100
AcDbEntity
  8
KIJUN
 62
     7
100
AcDbCircle
 10
106.8650562214278
 20
58.40102921013606
 30
0.0
 40
0.5200000000000001
100
AcDbArc
 50
298.9634556282248
 51
66.82710646993891
  0
ARC
  5
C0
330
2
100
AcDbEntity
  8
KIJUN
 62
     7
100
AcDbCircle
 10
106.8650562214264
 20
58.40102921013606
 30
0.0
 40
0.5200000000000001
100
AcDbArc
 50
298.9634556282248
 51
66.82710646993891
  0
ARC
  5
C1
330
2
100
AcDbEntity
  8
KIJUN
 62
     7
100
AcDbCircle
 10
112.5790145766661
 20
76.75574920224329
 30
0.0
 40
19.07181890402107
100
AcDbArc
 50
257.1036192471453
 51
260.3701442441275
  0
ARC
  5
C2
330
2
100
AcDbEntity
  8
KIJUN
 62
     7
100
AcDbCircle
 10
109.4321263286645
 20
58.20900757919067
 30
0.0
 40
0.26
100
AcDbArc
 50
260.3701442441341
 51
58.28016061734019
  0
ARC
  5
C3
330
2
100
AcDbEntity
  8
KIJUN
 62
     7
100
AcDbCircle
 10
108.6705772465581
 20
59.68566077353667
 30
0.0
 40
1.56
100
AcDbArc
 50
228.3379021733165
 51
257.1036192471455
  0
ARC
  5
C4
330
2
100
AcDbEntity
  8
KIJUN
 62
     7
100
AcDbCircle
 10
94.02169098858195
 20
59.68566077353667
 30
0.0
 40
1.56
100
AcDbArc
 50
282.8963807528546
 51
311.6620978266835
  0
ARC
  5
C5
330
2
100
AcDbEntity
  8
KIJUN
 62
     7
100
AcDbCircle
 10
82.42729923638108
 20
56.31674866637826
 30
0.0
 40
1.56
100
AcDbArc
 50
70.55197026129
 51
97.83938305122902
  0
ARC
  5
C6
330
2
100
AcDbEntity
  8
KIJUN
 62
     7
100
AcDbCircle
 10
93.26014190647567
 20
58.20900757919067
 30
0.0
 40
0.26
100
AcDbArc
 50
121.7198393826598
 51
279.6298557558658
  0
ARC
  5
C7
330
2
100
AcDbEntity
  8
KIJUN
 62
     7
100
AcDbCircle
 10
90.11325365847399
 20
76.75574920224329
 30
0.0
 40
19.07181890402107
100
AcDbArc
 50
279.6298557558726
 51
282.8963807528547
  0
ARC
  5
C8
330
2
100
AcDbEntity
  8
KIJUN
 62
     7
100
AcDbCircle
 10
98.22005545176747
 20
61.58041423221305
 30
0.0
 40
4.153878782694281
100
AcDbArc
 50
241.0365443717784
 51
316.6497526828844
  0
ARC
  5
C9
330
2
100
AcDbEntity
  8
KIJUN
 62
     7
100
AcDbCircle
 10
96.46034357514992
 20
58.40102921013606
 30
0.0
 40
0.5200000000000001
100
AcDbArc
 50
113.172893530061
 51
241.0365443717751
  0
ARC
  5
CA
330
2
100
AcDbEntity
  8
KIJUN
 62
     7
100
AcDbCircle
 10
104.7864971752751
 20
62.8991329976281
 30
0.0
 40
5.473892038690804
100
AcDbArc
 50
229.625793112415
 51
295.1965301067214
  0
ARC
  5
CB
330
2
100
AcDbEntity
  8
KIJUN
 62
     7
100
AcDbCircle
 10
118.4445895520322
 20
87.10885866951953
 30
0.0
 40
29.95708423381952
100
AcDbArc
 50
261.7217844892822
 51
278.0197889126592
  0
ARC
  5
CC
330
2
100
AcDbEntity
  8
KIJUN
 62
     7
100
AcDbCircle
 10
83.05086220291723
 20
60.58335372711457
 30
0.0
 40
2.846807218628122
100
AcDbArc
 50
218.7005077121926
 51
252.9154668072315
  0
ARC
  5
CD
330
2
100
AcDbEntity
  8
KIJUN
 62
     7
100
AcDbCircle
 10
83.58827069869386
 20
63.25048844068618
 30
0.0
 40
5.5606808285325
100
AcDbArc
 50
240.2520645071191
 51
255.6971566947898
  0
ARC
  5
CE
330
2
100
AcDbEntity
  8
KIJUN
 62
     7
100
AcDbCircle
 10
84.11359917488317
 20
87.10885866951953
 30
0.0
 40
29.95708423381952
100
AcDbArc
 50
263.7055107016812
 51
278.2782155107177
  0
ARC
  5
CF
330
2
100
AcDbEntity
  8
KIJUN
 62
     7
100
AcDbCircle
 10
127.2543998308386
 20
68.02026582480306
 30
0.0
 40
9.741972963138847
100
AcDbArc
 50
290.2269671186342
 51
334.0982741442287
  0
ARC
  5
D0
330
2
100
AcDbEntity
  8
KIJUN
 62
     7
100
AcDbCircle
 10
128.1865427493716
 20
63.98534252447614
 30
0.0
 40
5.776891197506127
100
AcDbArc
 50
288.9094475791
 51
3.803583475449172
  0
ARC
  5
D1
330
2
100
AcDbEntity
  8
KIJUN
 62
     7
100
AcDbCircle
 10
125.3770205840885
 20
62.87356533619544
 30
0.0
 40
5.223656410465215
100
AcDbArc
 50
301.7198393826596
 51
1.332253992292437
  0
ARC
  5
D2
330
2
100
AcDbEntity
  8
KIJUN
 62
     7
100
AcDbCircle
 10
119.5073265239982
 20
60.58335372711457
 30
0.0
 40
2.846807218628122
100
AcDbArc
 50
287.0845331927653
 51
42.09237553691919
  0
ARC
  5
D3
330
2
100
AcDbEntity
  8
KIJUN
 62
     7
100
AcDbCircle
 10
118.9699180282216
 20
63.25048844068618
 30
0.0
 40
5.5606808285325
100
AcDbArc
 50
284.3028433052102
 51
13.69669102359089
  0
ARC
  5
D4
330
2
100
AcDbEntity
  8
KIJUN
 62
     7
100
AcDbCircle
 10
123.2509423275558
 20
61.3137534719139
 30
0.0
 40
3.919454668628717
100
AcDbArc
 50
260.7964501219245
 51
7.140726449066629
  0
ARC
  5
D5
330
2
100
AcDbEntity
  8
KIJUN
 62
     7
100
AcDbCircle
 10
90.37702058408859
 20
62.87356533619544
 30
0.0
 40
5.223656410465215
100
AcDbArc
 50
301.7198393826596
 51
1.332253992292437
  0
ARC
  5
D6
330
2
100
AcDbEntity
  8
KIJUN
 62
     7
100
AcDbCircle
 10
89.16222626573091
 20
61.3137534719139
 30
0.0
 40
3.919454668628717
100
AcDbArc
 50
259.1854946264121
 51
7.140726449066629
  0
ARC
  5
D7
330
2
100
AcDbEntity
  8
KIJUN
 62
     7
100
AcDbCircle
 10
84.88120196639719
 20
63.25048844068618
 30
0.0
 40
5.5606808285325
100
AcDbArc
 50
284.3028433052102
 51
13.69669102359089
  0
ARC
  5
D8
330
2
100
AcDbEntity
  8
KIJUN
 62
     7
100
AcDbCircle
 10
84.23473633254554
 20
60.64903415685781
 30
0.0
 40
3.137837695821676
100
AcDbArc
 50
245.7647518419246
 51
49.64815694151395
  0
ARC
  5
D9
330
2
100
AcDbEntity
  8
KIJUN
 62
     7
100
AcDbCircle
 10
93.18654274937175
 20
63.98534252447614
 30
0.0
 40
5.776891197506127
100
AcDbArc
 50
288.9094475791
 51
3.803583475449172
  0
ARC
  5
DA
330
2
100
AcDbEntity
  8
KIJUN
 62
     7
100
AcDbCircle
 10
93.00773694683021
 20
66.4671009142116
 30
0.0
 40
8.253938982304662
100
AcDbArc
 50
293.1728935300508
 51
340.8884391399514
  0
ARC
  5
DB
330
2
100
AcDbEntity
  8
KIJUN
 62
     7
100
AcDbCircle
 10
110.4378684043015
 20
68.02026582480306
 30
0.0
 40
9.741972963138847
100
AcDbArc
 50
205.9017258557712
 51
249.7730328813659
  0
ARC
  5
DC
330
2
100
AcDbEntity
  8
KIJUN
 62
     7
100
AcDbCircle
 10
109.5057254857684
 20
63.98534252447614
 30
0.0
 40
5.776891197506127
100
AcDbArc
 50
176.1964165245507
 51
251.0905524209
  0
ARC
  5
DD
330
2
100
AcDbEntity
  8
KIJUN
 62
     7
100
AcDbCircle
 10
112.3152476510516
 20
62.87356533619544
 30
0.0
 40
5.223656410465215
100
AcDbArc
 50
178.6677460077074
 51
238.2801606173404
  0
ARC
  5
DE
330
2
100
AcDbEntity
  8
KIJUN
 62
     7
100
AcDbCircle
 10
113.3959624611845
 20
61.3137534719139
 30
0.0
 40
3.919454668628717
100
AcDbArc
 50
172.8592735509333
 51
280.8145053735879
  0
ARC
  5
DF
330
2
100
AcDbEntity
  8
KIJUN
 62
     7
100
AcDbCircle
 10
118.3234523943699
 20
60.64903415685781
 30
0.0
 40
3.137837695821676
100
AcDbArc
 50
130.351843058486
 51
294.2352481580754
  0
ARC
  5
E0
330
2
100
AcDbEntity
  8
KIJUN
 62
     7
100
AcDbCircle
 10
117.6769867605191
 20
63.25048844068618
 30
0.0
 40
5.5606808285325
100
AcDbArc
 50
166.303308976409
 51
255.6971566947898
  0
ARC
  5
E1
330
2
100
AcDbEntity
  8
KIJUN
 62
     7
100
AcDbCircle
 10
86.15197550818521
 20
32.91787972166292
 30
0.0
 40
6.108388265849264
100
AcDbArc
 50
209.3785883317864
 51
252.5645074762595
  0
ARC
  5
E2
330
2
100
AcDbEntity
  8
KIJUN
 62
     7
100
AcDbCircle
 10
86.86347062484747
 20
32.91787972166292
 30
0.0
 40
6.108388265849264
100
AcDbArc
 50
188.9311625470481
 51
244.7547015498664
  0
ARC
  5
E3
330
2
100
AcDbEntity
  8
KIJUN
 62
     7
100
AcDbCircle
 10
87.34538281879741
 20
27.43723329919197
 30
0.0
 40
28.57291239220441
100
AcDbArc
 50
81.47227736687254
 51
103.1826795454165
  0
ARC
  5
E4
330
2
100
AcDbEntity
  8
KIJUN
 62
     7
100
AcDbCircle
 10
75.47846903789042
 20
41.25154365139217
 30
0.0
 40
14.50171572791927
100
AcDbArc
 50
14.65982390608365
 51
68.34799361939284
  0
ARC
  5
E5
330
2
100
AcDbEntity
  8
KIJUN
 62
     7
100
AcDbCircle
 10
85.75555507774181
 20
45.12074762510422
 30
0.0
 40
9.880506472017598
100
AcDbArc
 50
240.0926370236543
 51
306.1379560886738
  0
ARC
  5
E6
330
2
100
AcDbEntity
  8
KIJUN
 62
     7
100
AcDbCircle
 10
71.2278427293989
 20
37.88414601826247
 30
0.0
 40
18.61382405660328
100
AcDbArc
 50
10.86350063329188
 51
58.94801535925861
  0
ARC
  5
E7
330
2
100
AcDbEntity
  8
KIJUN
 62
     7
100
AcDbCircle
 10
101.2278427293989
 20
37.85028558728863
 30
0.0
 40
18.61382405660328
100
AcDbArc
 50
10.86350063329188
 51
73.28174553280819
  0
ARC
  5
E8
330
2
100
AcDbEntity
  8
KIJUN
 62
     7
100
AcDbCircle
 10
125.8996756127205
 20
41.84563416906661
 30
0.0
 40
6.410129501798893
100
AcDbArc
 50
184.3589856293979
 51
227.6615901332811
  0
ARC
  5
E9
330
2
100
AcDbEntity
  8
KIJUN
 62
     7
100
AcDbCircle
 10
115.7555550777417
 20
45.08688719413039
 30
0.0
 40
9.880506472017598
100
AcDbArc
 50
233.6958975838865
 51
306.1379560886738
  0
ARC
  5
EA
330
2
100
AcDbEntity
  8
KIJUN
 62
     7
100
AcDbCircle
 10
142.3840706909899
 20
55.04599354391615
 30
0.0
 40
25.00941311334464
100
AcDbArc
 50
203.8375634804316
 51
225.663114231422
  0
ARC
  5
EB
330
2
100
AcDbEntity
  8
KIJUN
 62
     7
100
AcDbCircle
 10
117.3453828187973
 20
27.45416351467878
 30
0.0
 40
28.57291239220441
100
AcDbArc
 50
81.47227736687254
 51
104.9647676008237
  0
ARC
  5
EC
330
2
100
AcDbEntity
  8
KIJUN
 62
     7
100
AcDbCircle
 10
105.4784690378904
 20
41.26847386687898
 30
0.0
 40
14.50171572791927
100
AcDbArc
 50
14.65982390608365
 51
71.96927186358121
  0
ARC
  5
ED
330
2
100
AcDbEntity
  8
KIJUN
 62
     7
100
AcDbCircle
 10
102.3453828187974
 20
27.42030308370493
 30
0.0
 40
28.57291239220441
100
AcDbArc
 50
81.47227736687254
 51
104.9647676008237
  0
ARC
  5
EE
330
2
100
AcDbEntity
  8
KIJUN
 62
     7
100
AcDbCircle
 10
127.38407069099
 20
55.01213311294232
 30
0.0
 40
25.00941311334464
100
AcDbArc
 50
203.8375634804316
 51
225.663114231422
  0
ARC
  5
EF
330
2
100
AcDbEntity
  8
KIJUN
 62
     7
100
AcDbCircle
 10
90.47846903789043
 20
41.23461343590514
 30
0.0
 40
14.50171572791927
100
AcDbArc
 50
14.65982390608365
 51
85.63417985261594
  0
ARC
  5
F0
330
2
100
AcDbEntity
  8
KIJUN
 62
     7
100
AcDbCircle
 10
86.22784272939888
 20
37.86721580277566
 30
0.0
 40
18.61382405660328
100
AcDbArc
 50
10.86350063329188
 51
73.28174553280819
  0
ARC
  5
F1
330
2
100
AcDbEntity
  8
KIJUN
 62
     7
100
AcDbCircle
 10
110.8996756127206
 20
41.86256438455365
 30
0.0
 40
6.410129501798893
100
AcDbArc
 50
184.3589856293979
 51
227.6615901332811
  0
ARC
  5
F2
330
2
100
AcDbEntity
  8
KIJUN
 62
     7
100
AcDbCircle
 10
100.7555550777418
 20
45.10381740961743
 30
0.0
 40
9.880506472017598
100
AcDbArc
 50
233.6958975838865
 51
306.1379560886738
  0
ARC
  5
F3
330
2
100
AcDbEntity
  8
KIJUN
 62
     7
100
AcDbCircle
 10
112.3840706909901
 20
55.02906332842936
 30
0.0
 40
25.00941311334464
100
AcDbArc
 50
203.8375634804316
 51
225.663114231422
  0
ARC
  5
F4
330
2
100
AcDbEntity
  8
KIJUN
 62
     7
100
AcDbCircle
 10
95.89967561272063
 20
41.87949460004046
 30
0.0
 40
6.410129501798893
100
AcDbArc
 50
184.3589856293979
 51
227.6615901332811
  0
ARC
  5
F5
330
2
100
AcDbEntity
  8
KIJUN
 62
     7
100
AcDbCircle
 10
140.8996756127206
 20
41.87949460004046
 30
0.0
 40
6.410129501798893
100
AcDbArc
 50
184.3589856293979
 51
227.6615901332811
  0
ARC
  5
F6
330
2
100
AcDbEntity
  8
KIJUN
 62
     7
100
AcDbCircle
 10
116.2278427293988
 20
37.88414601826247
 30
0.0
 40
18.61382405660328
100
AcDbArc
 50
10.86350063329188
 51
73.28174553280819
  0
ARC
  5
F7
330
2
100
AcDbEntity
  8
KIJUN
 62
     7
100
AcDbCircle
 10
130.7555550777417
 20
45.12074762510422
 30
0.0
 40
9.880506472017598
100
AcDbArc
 50
233.6958975838865
 51
306.1379560886738
  0
ARC
  5
F8
330
2
100
AcDbEntity
  8
KIJUN
 62
     7
100
AcDbCircle
 10
132.3453828187974
 20
27.43723329919197
 30
0.0
 40
28.57291239220441
100
AcDbArc
 50
81.47227736687254
 51
104.9647676008237
  0
ARC
  5
F9
330
2
100
AcDbEntity
  8
KIJUN
 62
     7
100
AcDbCircle
 10
120.4784690378904
 20
41.25154365139217
 30
0.0
 40
14.50171572791927
100
AcDbArc
 50
14.65982390608365
 51
85.63417985261594
  0
ARC
  5
FA
330
2
100
AcDbEntity
  8
KIJUN
 62
     7
100
AcDbCircle
 10
92.0795768895112
 20
32.91787972166292
 30
0.0
 40
6.108388265849264
100
AcDbArc
 50
295.2452984501335
 51
8.28066246144143
  0
ARC
  5
FB
330
2
100
AcDbEntity
  8
KIJUN
 62
     7
100
AcDbCircle
 10
92.79107200617346
 20
32.91787972166292
 30
0.0
 40
6.108388265849264
100
AcDbArc
 50
287.4354925237405
 51
8.28066246144143
  0
ARC
  5
FC
330
2
100
AcDbEntity
  8
KIJUN
 62
     7
100
AcDbCircle
 10
114.4715237571792
 20
27.84514780259126
 30
0.0
 40
0.5
100
AcDbArc
 50
244.754701549881
 51
295.245298450119
  0
ARC
  5
FD
330
2
100
AcDbEntity
  8
KIJUN
 62
     7
100
AcDbCircle
 10
116.8634706248473
 20
32.91787972166292
 30
0.0
 40
6.108388265849264
100
AcDbArc
 50
171.7193375385585
 51
244.7547015498664
  0
ARC
  5
FE
330
2
100
AcDbEntity
  8
KIJUN
 62
     7
100
AcDbCircle
 10
112.0795768895112
 20
32.91787972166292
 30
0.0
 40
6.108388265849264
100
AcDbArc
 50
295.2452984501335
 51
8.28066246144143
  0
ARC
  5
FF
330
2
100
AcDbEntity
  8
KIJUN
 62
     7
100
AcDbCircle
 10
114.4715237571792
 20
27.56716940871792
 30
0.0
 40
0.5
100
AcDbArc
 50
252.5645074762663
 51
287.4354925237337
  0
ARC
  5
100
330
2
100
AcDbEntity
  8
KIJUN
 62
     7
100
AcDbCircle
 10
112.7910720061734
 20
32.91787972166292
 30
0.0
 40
6.108388265849264
100
AcDbArc
 50
287.4354925237405
 51
8.28066246144143
  0
ARC
  5
101
330
2
100
AcDbEntity
  8
KIJUN
 62
     7
100
AcDbCircle
 10
116.1519755081852
 20
32.91787972166292
 30
0.0
 40
6.108388265849264
100
AcDbArc
 50
171.7193375385585
 51
252.5645074762595
  0
ARC
  5
102
330
2
100
AcDbEntity
  8
KIJUN
 62
     7
100
AcDbCircle
 10
102.7910720061734
 20
32.91787972166292
 30
0.0
 40
6.108388265849264
100
AcDbArc
 50
287.4354925237405
 51
8.28066246144143
  0
ARC
  5
103
330
2
100
AcDbEntity
  8
KIJUN
 62
     7
100
AcDbCircle
 10
102.0795768895112
 20
32.91787972166292
 30
0.0
 40
6.108388265849264
100
AcDbArc
 50
295.2452984501335
 51
8.28066246144143
  0
ARC
  5
104
330
2
100
AcDbEntity
  8
KIJUN
 62
     7
100
AcDbCircle
 10
106.1519755081852
 20
32.91787972166292
 30
0.0
 40
6.108388265849264
100
AcDbArc
 50
171.7193375385585
 51
252.5645074762595
  0
ARC
  5
105
330
2
100
AcDbEntity
  8
KIJUN
 62
     7
100
AcDbCircle
 10
106.8634706248475
 20
32.91787972166292
 30
0.0
 40
6.108388265849264
100
AcDbArc
 50
171.7193375385585
 51
244.7547015498664
  0
ARC
  5
106
330
2
100
AcDbEntity
  8
KIJUN
 62
     7
100
AcDbCircle
 10
104.4715237571793
 20
27.56716940871792
 30
0.0
 40
0.5
100
AcDbArc
 50
252.5645074762663
 51
287.4354925237337
  0
ARC
  5
107
330
2
100
AcDbEntity
  8
KIJUN
 62
     7
100
AcDbCircle
 10
104.4715237571793
 20
27.84514780259126
 30
0.0
 40
0.5
100
AcDbArc
 50
244.754701549881
 51
295.245298450119
  0
ARC
  5
108
330
2
100
AcDbEntity
  8
KIJUN
  6
Continuous
 62
     7
100
AcDbCircle
 10
107.0401623751805
 20
25.32267482449122
 30
0.0
 40
2.678857797858098
100
AcDbArc
 50
49.94295487903014
 51
107.2045338811974
  0
ARC
  5
109
330
2
100
AcDbEntity
  8
KIJUN
  6
Continuous
 62
     7
100
AcDbCircle
 10
111.9028851391781
 20
25.32267482449122
 30
0.0
 40
2.678857797857965
100
AcDbArc
 50
72.79546611880244
 51
130.0570451209698
  0
ARC
  5
10A
330
2
100
AcDbEntity
  8
KIJUN
  6
Continuous
 62
     7
100
AcDbCircle
 10
109.4550146533577
 20
28.21762363362831
 30
0.0
 40
1.112325491518459
100
AcDbArc
 50
229.3988950000011
 51
310.6018519999996
  0
ARC
  5
10B
330
2
100
AcDbEntity
  8
KIJUN
  6
Continuous
 62
     7
100
AcDbCircle
 10
119.4880328610008
 20
28.21762363362831
 30
0.0
 40
1.112325491518459
100
AcDbArc
 50
229.3981480000003
 51
310.6011049999988
  0
ARC
  5
10C
330
2
100
AcDbEntity
  8
KIJUN
  6
Continuous
 62
     7
100
AcDbCircle
 10
117.0401623751804
 20
25.32267482449122
 30
0.0
 40
2.678857797857965
100
AcDbArc
 50
49.94295487903014
 51
107.2045338811974
  0
ARC
  5
10D
330
2
100
AcDbEntity
  8
KIJUN
  6
Continuous
 62
     7
100
AcDbCircle
 10
121.9028851391781
 20
25.32267482449122
 30
0.0
 40
2.678857797858098
100
AcDbArc
 50
72.79546611880244
 51
130.0570451209698
  0
ARC
  5
10E
330
2
100
AcDbEntity
  8
KIJUN
 62
     7
100
AcDbCircle
 10
126.1519755081851
 20
32.91787972166292
 30
0.0
 40
6.108388265849264
100
AcDbArc
 50
171.7193375385585
 51
252.5645074762595
  0
ARC
  5
10F
330
2
100
AcDbEntity
  8
KIJUN
 62
     7
100
AcDbCircle
 10
126.8634706248473
 20
32.91787972166292
 30
0.0
 40
6.108388265849264
100
AcDbArc
 50
171.7193375385585
 51
244.7547015498664
  0
ARC
  5
110
330
2
100
AcDbEntity
  8
KIJUN
 62
     7
100
AcDbCircle
 10
124.4715237571792
 20
27.84514780259126
 30
0.0
 40
0.5
100
AcDbArc
 50
244.754701549881
 51
295.245298450119
  0
ARC
  5
111
330
2
100
AcDbEntity
  8
KIJUN
 62
     7
100
AcDbCircle
 10
124.4715237571792
 20
27.56716940871792
 30
0.0
 40
0.5
100
AcDbArc
 50
252.5645074762663
 51
287.4354925237337
  0
ARC
  5
112
330
2
100
AcDbEntity
  8
KIJUN
 62
     7
100
AcDbCircle
 10
122.0795768895111
 20
32.91787972166292
 30
0.0
 40
6.108388265849264
100
AcDbArc
 50
295.2452984501335
 51
8.28066246144143
  0
ARC
  5
113
330
2
100
AcDbEntity
  8
KIJUN
 62
     7
100
AcDbCircle
 10
122.7910720061733
 20
32.91787972166292
 30
0.0
 40
6.108388265849264
100
AcDbArc
 50
287.4354925237405
 51
8.28066246144143
  0
ARC
  5
114
330
2
100
AcDbEntity
  8
KIJUN
  6
Continuous
 62
     7
100
AcDbCircle
 10
99.48803286100092
 20
28.21762363362831
 30
0.0
 40
1.112325491518459
100
AcDbArc
 50
229.3981480000003
 51
310.6011049999988
  0
ARC
  5
115
330
2
100
AcDbEntity
  8
KIJUN
  6
Continuous
 62
     7
100
AcDbCircle
 10
97.04016237518048
 20
25.32267482449122
 30
0.0
 40
2.678857797857965
100
AcDbArc
 50
49.94295487903014
 51
107.2045338811974
  0
ARC
  5
116
330
2
100
AcDbEntity
  8
KIJUN
  6
Continuous
 62
     7
100
AcDbCircle
 10
101.902885139178
 20
25.32267482449122
 30
0.0
 40
2.678857797858098
100
AcDbArc
 50
72.79546611880244
 51
130.0570451209698
  0
ARC
  5
117
330
2
100
AcDbEntity
  8
KIJUN
 62
     7
100
AcDbCircle
 10
122.0795768895111
 20
32.91787972166292
 30
0.0
 40
6.108388265849264
100
AcDbArc
 50
295.2452984501335
 51
8.28066246144143
  0
ARC
  5
118
330
2
100
AcDbEntity
  8
KIJUN
 62
     7
100
AcDbCircle
 10
122.7910720061733
 20
32.91787972166292
 30
0.0
 40
6.108388265849264
100
AcDbArc
 50
287.4354925237405
 51
8.28066246144143
  0
ARC
  5
119
330
2
100
AcDbEntity
  8
KIJUN
  6
Continuous
 62
     7
100
AcDbCircle
 10
127.0401623751804
 20
25.32267482449122
 30
0.0
 40
2.678857797858098
100
AcDbArc
 50
49.94295487903014
 51
107.2045338811974
  0
ARC
  5
11A
330
2
100
AcDbEntity
  8
KIJUN
  6
Continuous
 62
     7
100
AcDbCircle
 10
131.902885139178
 20
25.32267482449122
 30
0.0
 40
2.678857797857965
100
AcDbArc
 50
72.79546611880244
 51
130.0570451209698
  0
ARC
  5
11B
330
2
100
AcDbEntity
  8
KIJUN
  6
Continuous
 62
     7
100
AcDbCircle
 10
129.4550146533576
 20
28.21762363362831
 30
0.0
 40
1.112325491518459
100
AcDbArc
 50
229.3988950000011
 51
310.6018519999996
  0
ARC
  5
11C
330
2
100
AcDbEntity
  8
KIJUN
  6
Continuous
 62
     7
100
AcDbCircle
 10
137.0401623751804
 20
25.32267482449122
 30
0.0
 40
2.678857797857965
100
AcDbArc
 50
49.94295487903014
 51
107.2045338811974
  0
ARC
  5
11D
330
2
100
AcDbEntity
  8
KIJUN
 62
     7
100
AcDbCircle
 10
136.1519755081852
 20
32.91787972166292
 30
0.0
 40
6.108388265849264
100
AcDbArc
 50
171.7193375385585
 51
252.5645074762595
  0
ARC
  5
11E
330
2
100
AcDbEntity
  8
KIJUN
 62
     7
100
AcDbCircle
 10
134.4715237571792
 20
27.56716940871792
 30
0.0
 40
0.5
100
AcDbArc
 50
252.5645074762663
 51
287.4354925237337
  0
ARC
  5
11F
330
2
100
AcDbEntity
  8
KIJUN
 62
     7
100
AcDbCircle
 10
136.8634706248474
 20
32.91787972166292
 30
0.0
 40
6.108388265849264
100
AcDbArc
 50
171.7193375385585
 51
244.7547015498664
  0
ARC
  5
120
330
2
100
AcDbEntity
  8
KIJUN
 62
     7
100
AcDbCircle
 10
134.4715237571792
 20
27.84514780259126
 30
0.0
 40
0.5
100
AcDbArc
 50
244.754701549881
 51
295.245298450119
  0
ARC
  5
121
330
2
100
AcDbEntity
  8
KIJUN
  6
Continuous
 62
     7
100
AcDbCircle
 10
91.90288513917819
 20
25.32267482449122
 30
0.0
 40
2.678857797857965
100
AcDbArc
 50
72.79546611880244
 51
130.0570451209698
  0
ARC
  5
122
330
2
100
AcDbEntity
  8
KIJUN
  6
Continuous
 62
     7
100
AcDbCircle
 10
89.45501465335775
 20
28.21762363362831
 30
0.0
 40
1.112325491518459
100
AcDbArc
 50
229.3988950000011
 51
310.6018519999996
  0
ARC
  5
123
330
2
100
AcDbEntity
  8
KIJUN
 62
     7
100
AcDbCircle
 10
96.15197550818521
 20
32.91787972166292
 30
0.0
 40
6.108388265849264
100
AcDbArc
 50
171.7193375385585
 51
252.5645074762595
  0
ARC
  5
124
330
2
100
AcDbEntity
  8
KIJUN
 62
     7
100
AcDbCircle
 10
96.86347062484749
 20
32.91787972166292
 30
0.0
 40
6.108388265849264
100
AcDbArc
 50
171.7193375385585
 51
244.7547015498664
  0
ARC
  5
125
330
2
100
AcDbEntity
  8
KIJUN
 62
     7
100
AcDbCircle
 10
82.0795768895112
 20
32.91787972166292
 30
0.0
 40
6.108388265849264
100
AcDbArc
 50
295.2452984501335
 51
8.28066246144143
  0
ARC
  5
126
330
2
100
AcDbEntity
  8
KIJUN
 62
     7
100
AcDbCircle
 10
82.79107200617346
 20
32.91787972166292
 30
0.0
 40
6.108388265849264
100
AcDbArc
 50
287.4354925237405
 51
8.28066246144143
  0
ARC
  5
127
330
2
100
AcDbEntity
  8
KIJUN
  6
Continuous
 62
     7
100
AcDbCircle
 10
87.0401623751805
 20
25.32267482449122
 30
0.0
 40
2.678857797858098
100
AcDbArc
 50
49.94295487903014
 51
107.2045338811974
  0
ARC
  5
128
330
2
100
AcDbEntity
  8
KIJUN
 62
     7
100
AcDbCircle
 10
84.47152375717935
 20
27.56716940871792
 30
0.0
 40
0.5
100
AcDbArc
 50
252.5645074762663
 51
287.4354925237337
  0
ARC
  5
129
330
2
100
AcDbEntity
  8
KIJUN
 62
     7
100
AcDbCircle
 10
84.47152375717935
 20
27.84514780259126
 30
0.0
 40
0.5
100
AcDbArc
 50
244.754701549881
 51
295.245298450119
  0
ARC
  5
12A
330
2
100
AcDbEntity
  8
KIJUN
 62
     7
100
AcDbCircle
 10
94.47152375717935
 20
27.56716940871792
 30
0.0
 40
0.5
100
AcDbArc
 50
252.5645074762663
 51
287.4354925237337
  0
ARC
  5
12B
330
2
100
AcDbEntity
  8
KIJUN
 62
     7
100
AcDbCircle
 10
94.47152375717935
 20
27.84514780259126
 30
0.0
 40
0.5
100
AcDbArc
 50
244.754701549881
 51
295.245298450119
  0
DIMENSION
  5
12C
330
2
100
AcDbEntity
  8
SUNPOU
100
AcDbDimension
  2
*D3
 10
54.78376162200697
 20
86.58737512405252
 30
0.0
 11
39.78376162200697
 21
91.58737512405252
 31
0.0
 71
     5
 42
30.0
  3
STANDARD$0
100
AcDbAlignedDimension
 13
24.78376162200697
 23
72.79762338570453
 33
0.0
 14
54.78376162200697
 24
72.79762338570453
 34
0.0
 50
0.000000000000007
100
AcDbRotatedDimension
1001
ACAD
1000
DSTYLE
1002
{
1070
    41
1040
2.0
1070
    44
1040
0.0
1070
    77
1070
     1
1070
    78
1070
     0
1070
   140
1040
3.0
1070
   141
1040
1.0
1070
   146
1040
0.0642857142857143
1070
   172
1070
     0
1070
   173
1070
     0
1070
   176
1070
    60
1070
   177
1070
    70
1070
   178
1070
    60
1070
   271
1070
     0
1070
   272
1070
     0
1070
   341
1005
0
1070
   342
1005
37
1070
   343
1005
0
1070
   344
1005
0
1002
}
  0
ARC
  5
142
330
2
100
AcDbEntity
  8
KIJUN
 62
     7
100
AcDbCircle
 10
320.3748619376162
 20
67.0832272262955
 30
0.0
 40
2.067171992132617
100
AcDbArc
 50
243.0093697218203
 51
85.42836745986408
  0
ARC
  5
143
330
2
100
AcDbEntity
  8
KIJUN
 62
     7
100
AcDbCircle
 10
321.8014364168783
 20
62.27285773634406
 30
0.0
 40
2.342550189021227
100
AcDbArc
 50
78.35094202817687
 51
191.6213303997185
  0
ARC
  5
144
330
2
100
AcDbEntity
  8
KIJUN
 62
     7
100
AcDbCircle
 10
323.3959624611846
 20
61.3137534719139
 30
0.0
 40
3.919454668628717
100
AcDbArc
 50
172.8592735509333
 51
280.8145053735879
  0
ARC
  5
145
330
2
100
AcDbEntity
  8
KIJUN
 62
     7
100
AcDbCircle
 10
327.6769867605191
 20
63.25048844068618
 30
0.0
 40
5.5606808285325
100
AcDbArc
 50
166.303308976409
 51
255.6971566947898
  0
LINE
  5
146
330
2
100
AcDbEntity
  8
KIJUN
 62
     7
100
AcDbLine
 10
388.5361451360098
 20
23.79762338570452
 30
0.0
 11
226.9564866054274
 21
23.79762338570407
 31
0.0
  0
LINE
  5
147
330
2
100
AcDbEntity
  8
KIJUN
 62
     7
100
AcDbLine
 10
388.5361451360098
 20
33.79762338570453
 30
0.0
 11
291.9140057404641
 21
33.79762338570453
 31
0.0
  0
LINE
  5
148
330
2
100
AcDbEntity
  8
KIJUN
 62
     7
100
AcDbLine
 10
388.5361451360098
 20
33.79762338570431
 30
0.0
 11
226.9564866054274
 21
33.79762338570431
 31
0.0
  0
LINE
  5
149
330
2
100
AcDbEntity
  8
KIJUN
 62
     7
100
AcDbLine
 10
388.5361451360098
 20
56.79762338570452
 30
0.0
 11
291.9140057404641
 21
56.79762338570452
 31
0.0
  0
ARC
  5
14A
330
2
100
AcDbEntity
  8
KIJUN
 62
     7
100
AcDbCircle
 10
325.8523436582938
 20
32.91787972166292
 30
0.0
 40
6.108388265849264
100
AcDbArc
 50
171.7193375385585
 51
252.5645074762595
  0
ARC
  5
14B
330
2
100
AcDbEntity
  8
KIJUN
 62
     7
100
AcDbCircle
 10
326.5638387749563
 20
32.91787972166292
 30
0.0
 40
6.108388265849264
100
AcDbArc
 50
171.7193375385585
 51
244.7547015498664
  0
ARC
  5
14C
330
2
100
AcDbEntity
  8
KIJUN
  6
Continuous
 62
     7
100
AcDbCircle
 10
321.603253289287
 20
25.32267482449122
 30
0.0
 40
2.678857797858098
100
AcDbArc
 50
72.79546611880244
 51
130.0570451209698
  0
ARC
  5
14D
330
2
100
AcDbEntity
  8
KIJUN
 62
     7
100
AcDbCircle
 10
327.3453828187973
 20
27.35258222175747
 30
0.0
 40
28.57291239220441
100
AcDbArc
 50
81.47227736687254
 51
104.9647676008237
  0
ARC
  5
14E
330
2
100
AcDbEntity
  8
KIJUN
 62
     7
100
AcDbCircle
 10
315.4784690378903
 20
41.16689257395768
 30
0.0
 40
14.50171572791927
100
AcDbArc
 50
14.65982390608365
 51
71.96927186358121
  0
ARC
  5
14F
330
2
100
AcDbEntity
  8
KIJUN
 62
     7
100
AcDbCircle
 10
325.7555550777417
 20
45.03609654766973
 30
0.0
 40
9.880506472017598
100
AcDbArc
 50
233.6958975838865
 51
306.1379560886738
  0
ARC
  5
150
330
2
100
AcDbEntity
  8
KIJUN
 62
     7
100
AcDbCircle
 10
311.2278427293988
 20
37.79949494082797
 30
0.0
 40
18.61382405660328
100
AcDbArc
 50
10.86350063329188
 51
73.28174553280819
  0
ARC
  5
151
330
2
100
AcDbEntity
  8
KIJUN
 62
     7
100
AcDbCircle
 10
229.8454683718623
 20
62.27285773634406
 30
0.0
 40
2.342550189021227
100
AcDbArc
 50
348.3786696002813
 51
101.6490579718231
  0
ARC
  5
152
330
2
100
AcDbEntity
  8
KIJUN
 62
     7
100
AcDbCircle
 10
223.9699180282215
 20
63.25048844068618
 30
0.0
 40
5.5606808285325
100
AcDbArc
 50
284.3028433052102
 51
13.69669102359089
  0
ARC
  5
153
330
2
100
AcDbEntity
  8
KIJUN
 62
     7
100
AcDbCircle
 10
228.2509423275558
 20
61.3137534719139
 30
0.0
 40
3.919454668628717
100
AcDbArc
 50
260.7964501219245
 51
7.140726449066629
  0
ARC
  5
154
330
2
100
AcDbEntity
  8
KIJUN
  6
Continuous
 62
     7
100
AcDbCircle
 10
231.9028851391781
 20
25.32267482449122
 30
0.0
 40
2.678857797858098
100
AcDbArc
 50
72.79546611880244
 51
130.0570451209698
  0
ARC
  5
155
330
2
100
AcDbEntity
  8
KIJUN
 62
     7
100
AcDbCircle
 10
235.8523436582939
 20
32.91787972166292
 30
0.0
 40
6.108388265849264
100
AcDbArc
 50
171.7193375385585
 51
252.5645074762595
  0
ARC
  5
156
330
2
100
AcDbEntity
  8
KIJUN
 62
     7
100
AcDbCircle
 10
236.5638387749561
 20
32.91787972166292
 30
0.0
 40
6.108388265849264
100
AcDbArc
 50
171.7193375385585
 51
244.7547015498664
  0
ARC
  5
157
330
2
100
AcDbEntity
  8
KIJUN
 62
     7
100
AcDbCircle
 10
237.3453828187974
 20
27.36951243724428
 30
0.0
 40
28.57291239220441
100
AcDbArc
 50
81.47227736687254
 51
104.9647676008237
  0
ARC
  5
158
330
2
100
AcDbEntity
  8
KIJUN
 62
     7
100
AcDbCircle
 10
235.7555550777418
 20
45.05302676315675
 30
0.0
 40
9.880506472017598
100
AcDbArc
 50
233.6958975838865
 51
306.1379560886738
  0
ARC
  5
159
330
2
100
AcDbEntity
  8
KIJUN
 62
     7
100
AcDbCircle
 10
221.2278427293989
 20
37.81642515631502
 30
0.0
 40
18.61382405660328
100
AcDbArc
 50
10.86350063329188
 51
73.28174553280819
  0
ARC
  5
15A
330
2
100
AcDbEntity
  8
KIJUN
 62
     7
100
AcDbCircle
 10
225.4784690378905
 20
41.18382278944447
 30
0.0
 40
14.50171572791927
100
AcDbArc
 50
14.65982390608365
 51
85.63417985261594
  0
ARC
  5
15B
330
2
100
AcDbEntity
  8
KIJUN
 62
     7
100
AcDbCircle
 10
141.9968376855606
 20
67.89121729735207
 30
0.0
 40
1.916920883265328
100
AcDbArc
 50
80.05340483679052
 51
189.949621495783
  0
ARC
  5
15C
330
2
100
AcDbEntity
  8
KIJUN
 62
     7
100
AcDbCircle
 10
144.9067039015432
 20
66.9365281323516
 30
0.0
 40
4.838296721884834
100
AcDbArc
 50
172.596082556656
 51
183.2740932271059
  0
ARC
  5
15D
330
2
100
AcDbEntity
  8
KIJUN
 62
     7
100
AcDbCircle
 10
139.0380020728509
 20
66.60080325029861
 30
0.0
 40
1.04
100
AcDbArc
 50
287.4337710320079
 51
3.274093227102877
  0
ARC
  5
15E
330
2
100
AcDbEntity
  8
KIJUN
 62
     7
100
AcDbCircle
 10
139.5203579478077
 20
69.35659549900805
 30
0.0
 40
0.26
100
AcDbArc
 50
277.2813390710865
 51
75.77287577117847
  0
ARC
  5
15F
330
2
100
AcDbEntity
  8
KIJUN
 62
     7
100
AcDbCircle
 10
144.6923004691081
 20
62.93456567153858
 30
0.0
 40
2.6
100
AcDbArc
 50
117.8020418940034
 51
178.667746007708
  0
ARC
  5
160
330
2
100
AcDbEntity
  8
KIJUN
 62
     7
100
AcDbCircle
 10
143.9646881324253
 20
64.31448606326734
 30
0.0
 40
1.04
100
AcDbArc
 50
63.00936972181374
 51
117.8020418940002
  0
ARC
  5
161
330
2
100
AcDbEntity
  8
KIJUN
 62
     7
100
AcDbCircle
 10
146.3685629147409
 20
79.5107344521824
 30
0.0
 40
10.4
100
AcDbArc
 50
253.5058082191231
 51
265.4283674598641
  0
ARC
  5
162
330
2
100
AcDbEntity
  8
KIJUN
 62
     7
100
AcDbCircle
 10
145.3748619376162
 20
67.0832272262955
 30
0.0
 40
2.067171992132617
100
AcDbArc
 50
243.0093697218203
 51
85.42836745986408
  0
ARC
  5
163
330
2
100
AcDbEntity
  8
KIJUN
 62
     7
100
AcDbCircle
 10
141.1609457222336
 20
61.9235667133552
 30
0.0
 40
7.941966794685592
100
AcDbArc
 50
73.50580821912308
 51
81.55029468933955
  0
ARC
  5
164
330
2
100
AcDbEntity
  8
KIJUN
 62
     7
100
AcDbCircle
 10
147.8467998632779
 20
62.27285773634406
 30
0.0
 40
2.342550189021227
100
AcDbArc
 50
78.35094202817687
 51
191.6213303997185
  0
ARC
  5
165
330
2
100
AcDbEntity
  8
KIJUN
 62
     7
100
AcDbCircle
 10
209.5203579478079
 20
69.35659549900805
 30
0.0
 40
0.26
100
AcDbArc
 50
277.2813390710865
 51
75.77287577117847
  0
ARC
  5
166
330
2
100
AcDbEntity
  8
KIJUN
 62
     7
100
AcDbCircle
 10
209.8849703523967
 20
66.50297649271118
 30
0.0
 40
2.616818318677879
100
AcDbArc
 50
97.28133907108972
 51
116.9822218139252
  0
ARC
  5
167
330
2
100
AcDbEntity
  8
KIJUN
 62
     7
100
AcDbCircle
 10
221.5117445380367
 20
63.89586123993279
 30
0.0
 40
13.73297992259408
100
AcDbArc
 50
158.9212088886231
 51
189.2708478080365
  0
ARC
  5
168
330
2
100
AcDbEntity
  8
KIJUN
 62
     7
100
AcDbCircle
 10
215.3748619376163
 20
67.0832272262955
 30
0.0
 40
2.067171992132617
100
AcDbArc
 50
243.0093697218203
 51
85.42836745986408
  0
ARC
  5
169
330
2
100
AcDbEntity
  8
KIJUN
 62
     7
100
AcDbCircle
 10
211.9968376855606
 20
67.89121729735207
 30
0.0
 40
1.916920883265328
100
AcDbArc
 50
80.05340483679052
 51
189.949621495783
  0
ARC
  5
16A
330
2
100
AcDbEntity
  8
KIJUN
 62
     7
100
AcDbCircle
 10
211.1609457222336
 20
61.9235667133552
 30
0.0
 40
7.941966794685592
100
AcDbArc
 50
73.50580821912308
 51
81.55029468933955
  0
ARC
  5
16B
330
2
100
AcDbEntity
  8
KIJUN
 62
     7
100
AcDbCircle
 10
216.3685629147411
 20
79.5107344521824
 30
0.0
 40
10.4
100
AcDbArc
 50
253.5058082191231
 51
265.4283674598641
  0
ARC
  5
16C
330
2
100
AcDbEntity
  8
KIJUN
 62
     7
100
AcDbCircle
 10
209.0380020728509
 20
66.60080325029861
 30
0.0
 40
1.04
100
AcDbArc
 50
287.4337710320079
 51
3.274093227102877
  0
ARC
  5
16D
330
2
100
AcDbEntity
  8
KIJUN
 62
     7
100
AcDbCircle
 10
214.9067039015433
 20
66.9365281323516
 30
0.0
 40
4.838296721884834
100
AcDbArc
 50
172.596082556656
 51
183.2740932271059
  0
ARC
  5
16E
330
2
100
AcDbEntity
  8
KIJUN
 62
     7
100
AcDbCircle
 10
209.6350590160994
 20
64.69952012883225
 30
0.0
 40
0.9528257579263044
100
AcDbArc
 50
107.4337710320148
 51
200.325055222582
  0
ARC
  5
16F
330
2
100
AcDbEntity
  8
KIJUN
 62
     7
100
AcDbCircle
 10
214.6923004691083
 20
62.93456567153858
 30
0.0
 40
2.6
100
AcDbArc
 50
117.8020418940034
 51
178.667746007708
  0
ARC
  5
170
330
2
100
AcDbEntity
  8
KIJUN
 62
     7
100
AcDbCircle
 10
213.9646881324253
 20
64.31448606326734
 30
0.0
 40
1.04
100
AcDbArc
 50
63.00936972181374
 51
117.8020418940002
  0
ARC
  5
171
330
2
100
AcDbEntity
  8
KIJUN
 62
     7
100
AcDbCircle
 10
209.0510066635031
 20
67.50542281219619
 30
0.0
 40
2.169746303695041
100
AcDbArc
 50
75.77287577119192
 51
106.7600224295163
  0
ARC
  5
172
330
2
100
AcDbEntity
  8
KIJUN
 62
     7
100
AcDbCircle
 10
227.405637767961
 20
69.17546147092245
 30
0.0
 40
0.26
100
AcDbArc
 50
297.1360026157295
 51
100.2457824432781
  0
ARC
  5
173
330
2
100
AcDbEntity
  8
KIJUN
 62
     7
100
AcDbCircle
 10
220.6294287594175
 20
65.74642650489654
 30
0.0
 40
6.133697208539356
100
AcDbArc
 50
335.5425421826853
 51
20.11191035701802
  0
ARC
  5
174
330
2
100
AcDbEntity
  8
KIJUN
 62
     7
100
AcDbCircle
 10
227.6231352773695
 20
67.70482888887084
 30
0.0
 40
1.243192705900487
100
AcDbArc
 50
94.56336777018673
 51
173.0374990346018
  0
ARC
  5
175
330
2
100
AcDbEntity
  8
KIJUN
 62
     7
100
AcDbCircle
 10
226.9499733435298
 20
68.02152409283046
 30
0.0
 40
1.468037716610484
100
AcDbArc
 50
73.80615848752947
 51
140.6195186193183
  0
ARC
  5
176
330
2
100
AcDbEntity
  8
KIJUN
 62
     7
100
AcDbCircle
 10
227.7431887404508
 20
63.60446507693215
 30
0.0
 40
1.581223681833198
100
AcDbArc
 50
194.5595041414168
 51
224.730225033182
  0
ARC
  5
177
330
2
100
AcDbEntity
  8
KIJUN
 62
     7
100
AcDbCircle
 10
219.682806697597
 20
69.10427568660221
 30
0.0
 40
0.26
100
AcDbArc
 50
89.38305508701628
 51
254.5333960972705
  0
ARC
  5
178
330
2
100
AcDbEntity
  8
KIJUN
 62
     7
100
AcDbCircle
 10
231.8346233532028
 20
65.35794975443327
 30
0.0
 40
10.79459167972319
100
AcDbArc
 50
163.5149617427422
 51
192.398061717394
  0
ARC
  5
179
330
2
100
AcDbEntity
  8
KIJUN
 62
     7
100
AcDbCircle
 10
220.0568778240447
 20
66.51150812469035
 30
0.0
 40
2.383785204801164
100
AcDbArc
 50
53.23198635365302
 51
100.7200030206912
  0
ARC
  5
17A
330
2
100
AcDbEntity
  8
KIJUN
 62
     7
100
AcDbCircle
 10
220.5912555056372
 20
67.11932979213035
 30
0.0
 40
2.420726124157759
100
AcDbArc
 50
55.81957354241068
 51
111.9701176008545
  0
ARC
  5
17B
330
2
100
AcDbEntity
  8
KIJUN
 62
     7
100
AcDbCircle
 10
223.812811767842
 20
67.42706239370949
 30
0.0
 40
2.517557390391985
100
AcDbArc
 50
37.30780957415443
 51
137.6839964278039
  0
ARC
  5
17C
330
2
100
AcDbEntity
  8
KIJUN
 62
     7
100
AcDbCircle
 10
216.8014364168783
 20
62.27285773634406
 30
0.0
 40
2.342550189021227
100
AcDbArc
 50
78.35094202817687
 51
191.6213303997185
  0
ARC
  5
17D
330
2
100
AcDbEntity
  8
KIJUN
 62
     7
100
AcDbCircle
 10
195.7567523100371
 20
62.27285773634406
 30
0.0
 40
2.342550189021227
100
AcDbArc
 50
348.3786696002813
 51
101.6490579718231
  0
ARC
  5
17E
330
2
100
AcDbEntity
  8
KIJUN
 62
     7
100
AcDbCircle
 10
198.7275801027146
 20
64.31448606326734
 30
0.0
 40
1.04
100
AcDbArc
 50
62.19795810599969
 51
116.9906302781861
  0
ARC
  5
17F
330
2
100
AcDbEntity
  8
KIJUN
 62
     7
100
AcDbCircle
 10
196.323705320399
 20
79.5107344521824
 30
0.0
 40
10.4
100
AcDbArc
 50
274.5716325401359
 51
286.4941917808768
  0
ARC
  5
180
330
2
100
AcDbEntity
  8
KIJUN
 62
     7
100
AcDbCircle
 10
197.3174062975237
 20
67.0832272262955
 30
0.0
 40
2.067171992132617
100
AcDbArc
 50
94.57163254013591
 51
296.9906302781796
  0
ARC
  5
181
330
2
100
AcDbEntity
  8
KIJUN
 62
     7
100
AcDbCircle
 10
192.8753820293183
 20
69.10427568660221
 30
0.0
 40
0.26
100
AcDbArc
 50
285.4666039027295
 51
90.61694491298373
  0
ARC
  5
182
330
2
100
AcDbEntity
  8
KIJUN
 62
     7
100
AcDbCircle
 10
185.1525509589552
 20
69.17546147092245
 30
0.0
 40
0.26
100
AcDbArc
 50
79.75421755672186
 51
242.8639973842705
  0
ARC
  5
183
330
2
100
AcDbEntity
  8
KIJUN
 62
     7
100
AcDbCircle
 10
180.7235653737127
 20
65.35794975443327
 30
0.0
 40
10.79459167972319
100
AcDbArc
 50
347.601938282605
 51
16.48503825725764
  0
ARC
  5
184
330
2
100
AcDbEntity
  8
KIJUN
 62
     7
100
AcDbCircle
 10
191.9287599674983
 20
65.74642650489654
 30
0.0
 40
6.133697208539356
100
AcDbArc
 50
159.8880896429819
 51
204.4574578173146
  0
ARC
  5
185
330
2
100
AcDbEntity
  8
KIJUN
 62
     7
100
AcDbCircle
 10
188.7453769590735
 20
67.42706239370949
 30
0.0
 40
2.517557390391985
100
AcDbArc
 50
42.31600357219599
 51
142.6921904258454
  0
ARC
  5
186
330
2
100
AcDbEntity
  8
KIJUN
 62
     7
100
AcDbCircle
 10
184.9350534495458
 20
67.70482888887084
 30
0.0
 40
1.243192705900487
100
AcDbArc
 50
6.962500965398158
 51
85.43663222981328
  0
ARC
  5
187
330
2
100
AcDbEntity
  8
KIJUN
 62
     7
100
AcDbCircle
 10
185.608215383386
 20
68.02152409283046
 30
0.0
 40
1.468037716610484
100
AcDbArc
 50
39.38048138068158
 51
106.1938415124705
  0
ARC
  5
188
330
2
100
AcDbEntity
  8
KIJUN
 62
     7
100
AcDbCircle
 10
192.5013109028707
 20
66.51150812469035
 30
0.0
 40
2.383785204801164
100
AcDbArc
 50
79.2799969793088
 51
126.768013646347
  0
ARC
  5
189
330
2
100
AcDbEntity
  8
KIJUN
 62
     7
100
AcDbCircle
 10
191.9669332212781
 20
67.11932979213035
 30
0.0
 40
2.420726124157759
100
AcDbArc
 50
68.02988239914544
 51
124.1804264575892
  0
ARC
  5
18A
330
2
100
AcDbEntity
  8
KIJUN
 62
     7
100
AcDbCircle
 10
197.9999677660318
 20
62.93456567153858
 30
0.0
 40
2.6
100
AcDbArc
 50
1.332253992291912
 51
62.19795810599649
  0
ARC
  5
18B
330
2
100
AcDbEntity
  8
KIJUN
 62
     7
100
AcDbCircle
 10
182.7127203550537
 20
62.27285773634406
 30
0.0
 40
2.342550189021227
100
AcDbArc
 50
78.35094202817687
 51
191.6213303997185
  0
ARC
  5
18C
330
2
100
AcDbEntity
  8
KIJUN
 62
     7
100
AcDbCircle
 10
201.5313225129064
 20
61.9235667133552
 30
0.0
 40
7.941966794685592
100
AcDbArc
 50
98.44970531066048
 51
106.4941917808769
  0
ARC
  5
18D
330
2
100
AcDbEntity
  8
KIJUN
 62
     7
100
AcDbCircle
 10
184.8149999864651
 20
63.60446507693215
 30
0.0
 40
1.581223681833198
100
AcDbArc
 50
315.2697749668179
 51
345.440495858583
  0
ARC
  5
18E
330
2
100
AcDbEntity
  8
KIJUN
 62
     7
100
AcDbCircle
 10
206.4389243095008
 20
67.03249885743247
 30
0.0
 40
3.037040437815087
100
AcDbArc
 50
93.74350773815917
 51
127.2204148402882
  0
ARC
  5
18F
330
2
100
AcDbEntity
  8
KIJUN
 62
     7
100
AcDbCircle
 10
200.6954305495794
 20
67.89121729735207
 30
0.0
 40
1.916920883265328
100
AcDbArc
 50
350.0503785042168
 51
99.9465951632095
  0
ARC
  5
190
330
2
100
AcDbEntity
  8
KIJUN
 62
     7
100
AcDbCircle
 10
203.0572092190408
 20
64.69952012883225
 30
0.0
 40
0.9528257579263044
100
AcDbArc
 50
339.674944777418
 51
72.56622896798511
  0
ARC
  5
191
330
2
100
AcDbEntity
  8
KIJUN
 62
     7
100
AcDbCircle
 10
197.7855643335967
 20
66.9365281323516
 30
0.0
 40
4.838296721884834
100
AcDbArc
 50
356.7259067728942
 51
7.403917443343904
  0
ARC
  5
192
330
2
100
AcDbEntity
  8
KIJUN
 62
     7
100
AcDbCircle
 10
203.654266162289
 20
66.60080325029861
 30
0.0
 40
1.04
100
AcDbArc
 50
176.725906772897
 51
252.5662289679919
  0
ARC
  5
193
330
2
100
AcDbEntity
  8
KIJUN
 62
     7
100
AcDbCircle
 10
203.641261571637
 20
67.50542281219619
 30
0.0
 40
2.169746303695041
100
AcDbArc
 50
63.7218871619149
 51
104.2271242288081
  0
ARC
  5
194
330
2
100
AcDbEntity
  8
KIJUN
 62
     7
100
AcDbCircle
 10
202.8072978827433
 20
66.50297649271118
 30
0.0
 40
2.616818318677879
100
AcDbArc
 50
63.01777818607469
 51
82.71866092891029
  0
ARC
  5
195
330
2
100
AcDbEntity
  8
KIJUN
 62
     7
100
AcDbCircle
 10
203.1719102873323
 20
69.35659549900805
 30
0.0
 40
0.26
100
AcDbArc
 50
104.2271242288215
 51
262.7186609289136
  0
ARC
  5
196
330
2
100
AcDbEntity
  8
KIJUN
 62
     7
100
AcDbCircle
 10
191.1805236971033
 20
63.89586123993279
 30
0.0
 40
13.73297992259408
100
AcDbArc
 50
350.7291521919634
 51
21.0787911113768
  0
ARC
  5
197
330
2
100
AcDbEntity
  8
KIJUN
 62
     7
100
AcDbCircle
 10
180.3748619376163
 20
67.0832272262955
 30
0.0
 40
2.067171992132617
100
AcDbArc
 50
243.0093697218203
 51
85.42836745986408
  0
ARC
  5
198
330
2
100
AcDbEntity
  8
KIJUN
 62
     7
100
AcDbCircle
 10
174.0380020728509
 20
66.60080325029861
 30
0.0
 40
1.04
100
AcDbArc
 50
287.4337710320079
 51
3.274093227102877
  0
ARC
  5
199
330
2
100
AcDbEntity
  8
KIJUN
 62
     7
100
AcDbCircle
 10
179.9067039015433
 20
66.9365281323516
 30
0.0
 40
4.838296721884834
100
AcDbArc
 50
172.596082556656
 51
183.2740932271059
  0
ARC
  5
19A
330
2
100
AcDbEntity
  8
KIJUN
 62
     7
100
AcDbCircle
 10
174.6350590160993
 20
64.69952012883225
 30
0.0
 40
0.9528257579263044
100
AcDbArc
 50
107.4337710320148
 51
200.325055222582
  0
ARC
  5
19B
330
2
100
AcDbEntity
  8
KIJUN
 62
     7
100
AcDbCircle
 10
176.9968376855606
 20
67.89121729735207
 30
0.0
 40
1.916920883265328
100
AcDbArc
 50
80.05340483679052
 51
189.949621495783
  0
ARC
  5
19C
330
2
100
AcDbEntity
  8
KIJUN
 62
     7
100
AcDbCircle
 10
179.6923004691081
 20
62.93456567153858
 30
0.0
 40
2.6
100
AcDbArc
 50
117.8020418940034
 51
178.667746007708
  0
ARC
  5
19D
330
2
100
AcDbEntity
  8
KIJUN
 62
     7
100
AcDbCircle
 10
176.1609457222336
 20
61.9235667133552
 30
0.0
 40
7.941966794685592
100
AcDbArc
 50
73.50580821912308
 51
81.55029468933955
  0
ARC
  5
19E
330
2
100
AcDbEntity
  8
KIJUN
 62
     7
100
AcDbCircle
 10
181.3685629147409
 20
79.5107344521824
 30
0.0
 40
10.4
100
AcDbArc
 50
253.5058082191231
 51
265.4283674598641
  0
ARC
  5
19F
330
2
100
AcDbEntity
  8
KIJUN
 62
     7
100
AcDbCircle
 10
171.7153432074853
 20
63.65176058173499
 30
0.0
 40
6.416719871981105
100
AcDbArc
 50
92.35537294120048
 51
112.4307498179295
  0
ARC
  5
1A0
330
2
100
AcDbEntity
  8
KIJUN
 62
     7
100
AcDbCircle
 10
186.5117445380367
 20
63.89586123993279
 30
0.0
 40
13.73297992259408
100
AcDbArc
 50
158.9212088886231
 51
189.2708478080365
  0
ARC
  5
1A1
330
2
100
AcDbEntity
  8
KIJUN
 62
     7
100
AcDbCircle
 10
174.5203579478076
 20
69.35659549900805
 30
0.0
 40
0.26
100
AcDbArc
 50
277.2813390710865
 51
75.77287577117847
  0
ARC
  5
1A2
330
2
100
AcDbEntity
  8
KIJUN
 62
     7
100
AcDbCircle
 10
174.8849703523968
 20
66.50297649271118
 30
0.0
 40
2.616818318677879
100
AcDbArc
 50
97.28133907108972
 51
116.9822218139252
  0
ARC
  5
1A3
330
2
100
AcDbEntity
  8
KIJUN
 62
     7
100
AcDbCircle
 10
174.0510066635031
 20
67.50542281219619
 30
0.0
 40
2.169746303695041
100
AcDbArc
 50
75.77287577119192
 51
116.2781128380851
  0
ARC
  5
1A4
330
2
100
AcDbEntity
  8
KIJUN
 62
     7
100
AcDbCircle
 10
171.2533439256392
 20
67.03249885743247
 30
0.0
 40
3.037040437815087
100
AcDbArc
 50
52.77958515971177
 51
86.25649226184085
  0
ARC
  5
1A5
330
2
100
AcDbEntity
  8
KIJUN
 62
     7
100
AcDbCircle
 10
160.8908318182618
 20
62.27285773634406
 30
0.0
 40
2.342550189021227
100
AcDbArc
 50
348.3786696002813
 51
101.6490579718231
  0
ARC
  5
1A6
330
2
100
AcDbEntity
  8
KIJUN
 62
     7
100
AcDbCircle
 10
153.8794564672983
 20
67.42706239370949
 30
0.0
 40
2.517557390391985
100
AcDbArc
 50
42.31600357219599
 51
142.6921904258454
  0
ARC
  5
1A7
330
2
100
AcDbEntity
  8
KIJUN
 62
     7
100
AcDbCircle
 10
157.1010127295028
 20
67.11932979213035
 30
0.0
 40
2.420726124157759
100
AcDbArc
 50
68.02988239914544
 51
124.1804264575892
  0
ARC
  5
1A8
330
2
100
AcDbEntity
  8
KIJUN
 62
     7
100
AcDbCircle
 10
157.6353904110953
 20
66.51150812469035
 30
0.0
 40
2.383785204801164
100
AcDbArc
 50
79.2799969793088
 51
126.768013646347
  0
ARC
  5
1A9
330
2
100
AcDbEntity
  8
KIJUN
 62
     7
100
AcDbCircle
 10
145.8576448819373
 20
65.35794975443327
 30
0.0
 40
10.79459167972319
100
AcDbArc
 50
347.601938282605
 51
16.48503825725765
  0
ARC
  5
1AA
330
2
100
AcDbEntity
  8
KIJUN
 62
     7
100
AcDbCircle
 10
158.009461537543
 20
69.10427568660221
 30
0.0
 40
0.26
100
AcDbArc
 50
285.4666039027295
 51
90.61694491298373
  0
ARC
  5
1AB
330
2
100
AcDbEntity
  8
KIJUN
 62
     7
100
AcDbCircle
 10
149.9490794946893
 20
63.60446507693215
 30
0.0
 40
1.581223681833198
100
AcDbArc
 50
315.2697749668179
 51
345.440495858583
  0
ARC
  5
1AC
330
2
100
AcDbEntity
  8
KIJUN
 62
     7
100
AcDbCircle
 10
150.7422948916102
 20
68.02152409283046
 30
0.0
 40
1.468037716610484
100
AcDbArc
 50
39.38048138068159
 51
106.1938415124705
  0
ARC
  5
1AD
330
2
100
AcDbEntity
  8
KIJUN
 62
     7
100
AcDbCircle
 10
150.0691329577705
 20
67.70482888887084
 30
0.0
 40
1.243192705900487
100
AcDbArc
 50
6.96250096539817
 51
85.43663222981328
  0
ARC
  5
1AE
330
2
100
AcDbEntity
  8
KIJUN
 62
     7
100
AcDbCircle
 10
157.0628394757224
 20
65.74642650489654
 30
0.0
 40
6.133697208539356
100
AcDbArc
 50
159.8880896429819
 51
204.4574578173146
  0
ARC
  5
1AF
330
2
100
AcDbEntity
  8
KIJUN
 62
     7
100
AcDbCircle
 10
150.286630467179
 20
69.17546147092245
 30
0.0
 40
0.26
100
AcDbArc
 50
79.75421755672186
 51
242.8639973842705
  0
ARC
  5
1B0
330
2
100
AcDbEntity
  8
KIJUN
 62
     7
100
AcDbCircle
 10
168.6412615716369
 20
67.50542281219619
 30
0.0
 40
2.169746303695041
100
AcDbArc
 50
73.23997757048359
 51
104.2271242288081
  0
ARC
  5
1B1
330
2
100
AcDbEntity
  8
KIJUN
 62
     7
100
AcDbCircle
 10
163.7275801027147
 20
64.31448606326734
 30
0.0
 40
1.04
100
AcDbArc
 50
62.19795810599969
 51
116.9906302781861
  0
ARC
  5
1B2
330
2
100
AcDbEntity
  8
KIJUN
 62
     7
100
AcDbCircle
 10
162.9999677660318
 20
62.93456567153858
 30
0.0
 40
2.6
100
AcDbArc
 50
1.33225399229193
 51
62.19795810599649
  0
ARC
  5
1B3
330
2
100
AcDbEntity
  8
KIJUN
 62
     7
100
AcDbCircle
 10
168.0572092190406
 20
64.69952012883225
 30
0.0
 40
0.9528257579263044
100
AcDbArc
 50
339.674944777418
 51
72.56622896798511
  0
ARC
  5
1B4
330
2
100
AcDbEntity
  8
KIJUN
 62
     7
100
AcDbCircle
 10
162.7855643335967
 20
66.9365281323516
 30
0.0
 40
4.838296721884834
100
AcDbArc
 50
356.7259067728942
 51
7.403917443343901
  0
ARC
  5
1B5
330
2
100
AcDbEntity
  8
KIJUN
 62
     7
100
AcDbCircle
 10
168.654266162289
 20
66.60080325029861
 30
0.0
 40
1.04
100
AcDbArc
 50
176.725906772897
 51
252.5662289679919
  0
ARC
  5
1B6
330
2
100
AcDbEntity
  8
KIJUN
 62
     7
100
AcDbCircle
 10
161.323705320399
 20
79.5107344521824
 30
0.0
 40
10.4
100
AcDbArc
 50
274.5716325401359
 51
286.4941917808768
  0
ARC
  5
1B7
330
2
100
AcDbEntity
  8
KIJUN
 62
     7
100
AcDbCircle
 10
166.5313225129063
 20
61.9235667133552
 30
0.0
 40
7.941966794685592
100
AcDbArc
 50
98.44970531066048
 51
106.4941917808769
  0
ARC
  5
1B8
330
2
100
AcDbEntity
  8
KIJUN
 62
     7
100
AcDbCircle
 10
165.6954305495794
 20
67.89121729735207
 30
0.0
 40
1.916920883265328
100
AcDbArc
 50
350.0503785042168
 51
99.9465951632095
  0
ARC
  5
1B9
330
2
100
AcDbEntity
  8
KIJUN
 62
     7
100
AcDbCircle
 10
162.3174062975237
 20
67.0832272262955
 30
0.0
 40
2.067171992132617
100
AcDbArc
 50
94.57163254013591
 51
296.9906302781796
  0
ARC
  5
1BA
330
2
100
AcDbEntity
  8
KIJUN
 62
     7
100
AcDbCircle
 10
156.1805236971033
 20
63.89586123993279
 30
0.0
 40
13.73297992259408
100
AcDbArc
 50
350.7291521919634
 51
21.07879111137682
  0
ARC
  5
1BB
330
2
100
AcDbEntity
  8
KIJUN
 62
     7
100
AcDbCircle
 10
167.8072978827433
 20
66.50297649271118
 30
0.0
 40
2.616818318677879
100
AcDbArc
 50
63.01777818607469
 51
82.71866092891029
  0
ARC
  5
1BC
330
2
100
AcDbEntity
  8
KIJUN
 62
     7
100
AcDbCircle
 10
168.1719102873323
 20
69.35659549900805
 30
0.0
 40
0.26
100
AcDbArc
 50
104.2271242288215
 51
262.7186609289136
  0
ARC
  5
1BD
330
2
100
AcDbEntity
  8
KIJUN
 62
     7
100
AcDbCircle
 10
205.9769250276548
 20
63.65176058173499
 30
0.0
 40
6.416719871981105
100
AcDbArc
 50
67.56925018207031
 51
87.64462705879955
  0
ARC
  5
1BE
330
2
100
AcDbEntity
  8
KIJUN
 62
     7
100
AcDbCircle
 10
144.4321263286644
 20
58.20900757919067
 30
0.0
 40
0.26
100
AcDbArc
 50
260.3701442441341
 51
58.28016061734019
  0
ARC
  5
1BF
330
2
100
AcDbEntity
  8
KIJUN
 62
     7
100
AcDbCircle
 10
147.5790145766662
 20
76.75574920224329
 30
0.0
 40
19.07181890402107
100
AcDbArc
 50
257.1036192471453
 51
260.3701442441275
  0
ARC
  5
1C0
330
2
100
AcDbEntity
  8
KIJUN
 62
     7
100
AcDbCircle
 10
143.6705772465581
 20
59.68566077353667
 30
0.0
 40
1.56
100
AcDbArc
 50
228.3379021733165
 51
257.1036192471455
  0
ARC
  5
1C1
330
2
100
AcDbEntity
  8
KIJUN
 62
     7
100
AcDbCircle
 10
141.2319246599901
 20
58.40102921013606
 30
0.0
 40
0.5200000000000001
100
AcDbArc
 50
298.9634556282248
 51
66.82710646993891
  0
ARC
  5
1C2
330
2
100
AcDbEntity
  8
KIJUN
 62
     7
100
AcDbCircle
 10
211.8650562214277
 20
58.40102921013606
 30
0.0
 40
0.5200000000000001
100
AcDbArc
 50
298.9634556282248
 51
66.82710646993891
  0
ARC
  5
1C3
330
2
100
AcDbEntity
  8
KIJUN
 62
     7
100
AcDbCircle
 10
211.8650562214263
 20
58.40102921013606
 30
0.0
 40
0.5200000000000001
100
AcDbArc
 50
298.9634556282248
 51
66.82710646993891
  0
ARC
  5
1C4
330
2
100
AcDbEntity
  8
KIJUN
 62
     7
100
AcDbCircle
 10
217.5790145766662
 20
76.75574920224329
 30
0.0
 40
19.07181890402107
100
AcDbArc
 50
257.1036192471453
 51
260.3701442441275
  0
ARC
  5
1C5
330
2
100
AcDbEntity
  8
KIJUN
 62
     7
100
AcDbCircle
 10
214.4321263286644
 20
58.20900757919067
 30
0.0
 40
0.26
100
AcDbArc
 50
260.3701442441341
 51
58.28016061734019
  0
ARC
  5
1C6
330
2
100
AcDbEntity
  8
KIJUN
 62
     7
100
AcDbCircle
 10
213.6705772465581
 20
59.68566077353667
 30
0.0
 40
1.56
100
AcDbArc
 50
228.3379021733165
 51
257.1036192471455
  0
ARC
  5
1C7
330
2
100
AcDbEntity
  8
KIJUN
 62
     7
100
AcDbCircle
 10
225.1308894905344
 20
56.31674866637826
 30
0.0
 40
1.56
100
AcDbArc
 50
82.16061694877096
 51
109.44802973871
  0
ARC
  5
1C8
330
2
100
AcDbEntity
  8
KIJUN
 62
     7
100
AcDbCircle
 10
223.4445895520325
 20
87.10885866951953
 30
0.0
 40
29.95708423381952
100
AcDbArc
 50
261.7217844892822
 51
278.0197889126592
  0
ARC
  5
1C9
330
2
100
AcDbEntity
  8
KIJUN
 62
     7
100
AcDbCircle
 10
199.0216909885818
 20
59.68566077353667
 30
0.0
 40
1.56
100
AcDbArc
 50
282.8963807528546
 51
311.6620978266835
  0
ARC
  5
1CA
330
2
100
AcDbEntity
  8
KIJUN
 62
     7
100
AcDbCircle
 10
189.113599174883
 20
87.10885866951953
 30
0.0
 40
29.95708423381952
100
AcDbArc
 50
261.9802110873408
 51
278.2782155107177
  0
ARC
  5
1CB
330
2
100
AcDbEntity
  8
KIJUN
 62
     7
100
AcDbCircle
 10
187.4272992363809
 20
56.31674866637826
 30
0.0
 40
1.56
100
AcDbArc
 50
70.55197026129
 51
97.83938305122902
  0
ARC
  5
1CC
330
2
100
AcDbEntity
  8
KIJUN
 62
     7
100
AcDbCircle
 10
198.2601419064755
 20
58.20900757919067
 30
0.0
 40
0.26
100
AcDbArc
 50
121.7198393826598
 51
279.6298557558658
  0
ARC
  5
1CD
330
2
100
AcDbEntity
  8
KIJUN
 62
     7
100
AcDbCircle
 10
195.1132536584738
 20
76.75574920224329
 30
0.0
 40
19.07181890402107
100
AcDbArc
 50
279.6298557558726
 51
282.8963807528547
  0
ARC
  5
1CE
330
2
100
AcDbEntity
  8
KIJUN
 62
     7
100
AcDbCircle
 10
203.2200554517674
 20
61.58041423221305
 30
0.0
 40
4.153878782694281
100
AcDbArc
 50
241.0365443717784
 51
316.6497526828844
  0
ARC
  5
1CF
330
2
100
AcDbEntity
  8
KIJUN
 62
     7
100
AcDbCircle
 10
201.4603435751499
 20
58.40102921013606
 30
0.0
 40
0.5200000000000001
100
AcDbArc
 50
113.172893530061
 51
241.0365443717751
  0
ARC
  5
1D0
330
2
100
AcDbEntity
  8
KIJUN
 62
     7
100
AcDbCircle
 10
182.5790145766661
 20
76.75574920224329
 30
0.0
 40
19.07181890402107
100
AcDbArc
 50
257.1036192471453
 51
260.3701442441275
  0
ARC
  5
1D1
330
2
100
AcDbEntity
  8
KIJUN
 62
     7
100
AcDbCircle
 10
179.4321263286644
 20
58.20900757919067
 30
0.0
 40
0.26
100
AcDbArc
 50
260.3701442441341
 51
58.28016061734019
  0
ARC
  5
1D2
330
2
100
AcDbEntity
  8
KIJUN
 62
     7
100
AcDbCircle
 10
178.6705772465581
 20
59.68566077353667
 30
0.0
 40
1.56
100
AcDbArc
 50
228.3379021733165
 51
257.1036192471455
  0
ARC
  5
1D3
330
2
100
AcDbEntity
  8
KIJUN
 62
     7
100
AcDbCircle
 10
167.9057710598649
 20
62.8991329976281
 30
0.0
 40
5.473892038690804
100
AcDbArc
 50
244.8034698932783
 51
310.3742068875849
  0
ARC
  5
1D4
330
2
100
AcDbEntity
  8
KIJUN
 62
     7
100
AcDbCircle
 10
176.2319246599901
 20
58.40102921013606
 30
0.0
 40
0.5200000000000001
100
AcDbArc
 50
298.9634556282248
 51
66.82710646993891
  0
ARC
  5
1D5
330
2
100
AcDbEntity
  8
KIJUN
 62
     7
100
AcDbCircle
 10
174.4722127833726
 20
61.58041423221305
 30
0.0
 40
4.153878782694281
100
AcDbArc
 50
223.3502473171153
 51
298.9634556282215
  0
ARC
  5
1D6
330
2
100
AcDbEntity
  8
KIJUN
 62
     7
100
AcDbCircle
 10
154.2476786831077
 20
87.10885866951953
 30
0.0
 40
29.95708423381952
100
AcDbArc
 50
261.9802110873408
 51
278.2782155107177
  0
ARC
  5
1D7
330
2
100
AcDbEntity
  8
KIJUN
 62
     7
100
AcDbCircle
 10
152.5613787446056
 20
56.31674866637826
 30
0.0
 40
1.56
100
AcDbArc
 50
70.55197026129
 51
97.83938305122902
  0
ARC
  5
1D8
330
2
100
AcDbEntity
  8
KIJUN
 62
     7
100
AcDbCircle
 10
164.0216909885818
 20
59.68566077353667
 30
0.0
 40
1.56
100
AcDbArc
 50
282.8963807528546
 51
311.6620978266835
  0
ARC
  5
1D9
330
2
100
AcDbEntity
  8
KIJUN
 62
     7
100
AcDbCircle
 10
163.2601419064755
 20
58.20900757919067
 30
0.0
 40
0.26
100
AcDbArc
 50
121.7198393826598
 51
279.6298557558658
  0
ARC
  5
1DA
330
2
100
AcDbEntity
  8
KIJUN
 62
     7
100
AcDbCircle
 10
160.1132536584738
 20
76.75574920224329
 30
0.0
 40
19.07181890402107
100
AcDbArc
 50
279.6298557558726
 51
282.8963807528547
  0
ARC
  5
1DB
330
2
100
AcDbEntity
  8
KIJUN
 62
     7
100
AcDbCircle
 10
165.8272120137137
 20
58.40102921013606
 30
0.0
 40
0.5200000000000001
100
AcDbArc
 50
113.172893530061
 51
241.0365443717751
  0
ARC
  5
1DC
330
2
100
AcDbEntity
  8
KIJUN
 62
     7
100
AcDbCircle
 10
165.8272120137123
 20
58.40102921013606
 30
0.0
 40
0.5200000000000001
100
AcDbArc
 50
113.172893530061
 51
241.0365443717751
  0
ARC
  5
1DD
330
2
100
AcDbEntity
  8
KIJUN
 62
     7
100
AcDbCircle
 10
209.7864971752751
 20
62.8991329976281
 30
0.0
 40
5.473892038690804
100
AcDbArc
 50
229.625793112415
 51
295.1965301067214
  0
ARC
  5
1DE
330
2
100
AcDbEntity
  8
KIJUN
 62
     7
100
AcDbCircle
 10
149.4413259075842
 20
61.3137534719139
 30
0.0
 40
3.919454668628717
100
AcDbArc
 50
172.8592735509333
 51
279.2035498780755
  0
ARC
  5
1DF
330
2
100
AcDbEntity
  8
KIJUN
 62
     7
100
AcDbCircle
 10
153.7223502069185
 20
63.25048844068618
 30
0.0
 40
5.5606808285325
100
AcDbArc
 50
166.303308976409
 51
255.6971566947898
  0
ARC
  5
1E0
330
2
100
AcDbEntity
  8
KIJUN
 62
     7
100
AcDbCircle
 10
147.3152476510515
 20
62.87356533619544
 30
0.0
 40
5.223656410465215
100
AcDbArc
 50
178.6677460077074
 51
238.2801606173404
  0
ARC
  5
1E1
330
2
100
AcDbEntity
  8
KIJUN
 62
     7
100
AcDbCircle
 10
195.3770205840885
 20
62.87356533619544
 30
0.0
 40
5.223656410465215
100
AcDbArc
 50
301.7198393826596
 51
1.332253992292432
  0
ARC
  5
1E2
330
2
100
AcDbEntity
  8
KIJUN
 62
     7
100
AcDbCircle
 10
194.1622262657308
 20
61.3137534719139
 30
0.0
 40
3.919454668628717
100
AcDbArc
 50
259.1854946264121
 51
7.140726449066629
  0
ARC
  5
1E3
330
2
100
AcDbEntity
  8
KIJUN
 62
     7
100
AcDbCircle
 10
189.8812019663971
 20
63.25048844068618
 30
0.0
 40
5.5606808285325
100
AcDbArc
 50
284.3028433052102
 51
13.69669102359089
  0
ARC
  5
1E4
330
2
100
AcDbEntity
  8
KIJUN
 62
     7
100
AcDbCircle
 10
188.5882706986937
 20
63.25048844068618
 30
0.0
 40
5.5606808285325
100
AcDbArc
 50
166.303308976409
 51
255.6971566947898
  0
ARC
  5
1E5
330
2
100
AcDbEntity
  8
KIJUN
 62
     7
100
AcDbCircle
 10
184.3072463993596
 20
61.3137534719139
 30
0.0
 40
3.919454668628717
100
AcDbArc
 50
172.8592735509333
 51
279.2035498780755
  0
ARC
  5
1E6
330
2
100
AcDbEntity
  8
KIJUN
 62
     7
100
AcDbCircle
 10
189.2347363325454
 20
60.64903415685781
 30
0.0
 40
3.137837695821676
100
AcDbArc
 50
245.7647518419246
 51
49.64815694151395
  0
ARC
  5
1E7
330
2
100
AcDbEntity
  8
KIJUN
 62
     7
100
AcDbCircle
 10
188.0508622029171
 20
60.58335372711457
 30
0.0
 40
2.846807218628122
100
AcDbArc
 50
137.9076244630808
 51
252.9154668072315
  0
ARC
  5
1E8
330
2
100
AcDbEntity
  8
KIJUN
 62
     7
100
AcDbCircle
 10
198.1865427493717
 20
63.98534252447614
 30
0.0
 40
5.776891197506127
100
AcDbArc
 50
288.9094475791
 51
3.803583475449157
  0
ARC
  5
1E9
330
2
100
AcDbEntity
  8
KIJUN
 62
     7
100
AcDbCircle
 10
198.0077369468301
 20
66.4671009142116
 30
0.0
 40
8.253938982304662
100
AcDbArc
 50
293.1728935300508
 51
340.8884391399514
  0
ARC
  5
1EA
330
2
100
AcDbEntity
  8
KIJUN
 62
     7
100
AcDbCircle
 10
215.4378684043015
 20
68.02026582480306
 30
0.0
 40
9.741972963138847
100
AcDbArc
 50
205.9017258557712
 51
249.7730328813659
  0
ARC
  5
1EB
330
2
100
AcDbEntity
  8
KIJUN
 62
     7
100
AcDbCircle
 10
214.5057254857683
 20
63.98534252447614
 30
0.0
 40
5.776891197506127
100
AcDbArc
 50
176.1964165245507
 51
251.0905524209
  0
ARC
  5
1EC
330
2
100
AcDbEntity
  8
KIJUN
 62
     7
100
AcDbCircle
 10
217.3152476510515
 20
62.87356533619544
 30
0.0
 40
5.223656410465215
100
AcDbArc
 50
178.6677460077074
 51
238.2801606173404
  0
ARC
  5
1ED
330
2
100
AcDbEntity
  8
KIJUN
 62
     7
100
AcDbCircle
 10
224.5073265239982
 20
60.58335372711457
 30
0.0
 40
2.846807218628122
100
AcDbArc
 50
287.0845331927653
 51
42.09237553691919
  0
ARC
  5
1EE
330
2
100
AcDbEntity
  8
KIJUN
 62
     7
100
AcDbCircle
 10
223.3234523943699
 20
60.64903415685781
 30
0.0
 40
3.137837695821676
100
AcDbArc
 50
130.351843058486
 51
294.2352481580754
  0
ARC
  5
1EF
330
2
100
AcDbEntity
  8
KIJUN
 62
     7
100
AcDbCircle
 10
218.3959624611845
 20
61.3137534719139
 30
0.0
 40
3.919454668628717
100
AcDbArc
 50
172.8592735509333
 51
280.8145053735879
  0
ARC
  5
1F0
330
2
100
AcDbEntity
  8
KIJUN
 62
     7
100
AcDbCircle
 10
222.6769867605193
 20
63.25048844068618
 30
0.0
 40
5.5606808285325
100
AcDbArc
 50
166.303308976409
 51
255.6971566947898
  0
ARC
  5
1F1
330
2
100
AcDbEntity
  8
KIJUN
 62
     7
100
AcDbCircle
 10
182.3152476510515
 20
62.87356533619544
 30
0.0
 40
5.223656410465215
100
AcDbArc
 50
178.6677460077074
 51
238.2801606173404
  0
ARC
  5
1F2
330
2
100
AcDbEntity
  8
KIJUN
 62
     7
100
AcDbCircle
 10
155.0152814746208
 20
63.25048844068618
 30
0.0
 40
5.5606808285325
100
AcDbArc
 50
284.3028433052102
 51
13.69669102359089
  0
ARC
  5
1F3
330
2
100
AcDbEntity
  8
KIJUN
 62
     7
100
AcDbCircle
 10
159.2963057739554
 20
61.3137534719139
 30
0.0
 40
3.919454668628717
100
AcDbArc
 50
259.1854946264121
 51
7.140726449066629
  0
ARC
  5
1F4
330
2
100
AcDbEntity
  8
KIJUN
 62
     7
100
AcDbCircle
 10
154.3688158407701
 20
60.64903415685781
 30
0.0
 40
3.137837695821676
100
AcDbArc
 50
245.7647518419246
 51
49.64815694151395
  0
ARC
  5
1F5
330
2
100
AcDbEntity
  8
KIJUN
 62
     7
100
AcDbCircle
 10
153.1849417111418
 20
60.58335372711457
 30
0.0
 40
2.846807218628122
100
AcDbArc
 50
137.9076244630808
 51
252.9154668072315
  0
ARC
  5
1F6
330
2
100
AcDbEntity
  8
KIJUN
 62
     7
100
AcDbCircle
 10
160.3770205840885
 20
62.87356533619544
 30
0.0
 40
5.223656410465215
100
AcDbArc
 50
301.7198393826596
 51
1.332253992292437
  0
ARC
  5
1F7
330
2
100
AcDbEntity
  8
KIJUN
 62
     7
100
AcDbCircle
 10
163.1865427493716
 20
63.98534252447614
 30
0.0
 40
5.776891197506127
100
AcDbArc
 50
288.9094475791
 51
3.803583475449172
  0
ARC
  5
1F8
330
2
100
AcDbEntity
  8
KIJUN
 62
     7
100
AcDbCircle
 10
162.2543998308385
 20
68.02026582480306
 30
0.0
 40
9.741972963138847
100
AcDbArc
 50
290.2269671186342
 51
334.0982741442287
  0
ARC
  5
1F9
330
2
100
AcDbEntity
  8
KIJUN
 62
     7
100
AcDbCircle
 10
179.6845312883099
 20
66.4671009142116
 30
0.0
 40
8.253938982304662
100
AcDbArc
 50
199.1115608600486
 51
246.8271064699492
  0
ARC
  5
1FA
330
2
100
AcDbEntity
  8
KIJUN
 62
     7
100
AcDbCircle
 10
179.5057254857683
 20
63.98534252447614
 30
0.0
 40
5.776891197506127
100
AcDbArc
 50
176.1964165245507
 51
251.0905524209
  0
ARC
  5
1FB
330
2
100
AcDbEntity
  8
KIJUN
 62
     7
100
AcDbCircle
 10
162.3453828187973
 20
27.40337286821813
 30
0.0
 40
28.57291239220441
100
AcDbArc
 50
81.47227736687254
 51
104.9647676008237
  0
ARC
  5
1FC
330
2
100
AcDbEntity
  8
KIJUN
 62
     7
100
AcDbCircle
 10
150.4784690378904
 20
41.21768322041833
 30
0.0
 40
14.50171572791927
100
AcDbArc
 50
14.65982390608365
 51
71.96927186358121
  0
ARC
  5
1FD
330
2
100
AcDbEntity
  8
KIJUN
 62
     7
100
AcDbCircle
 10
160.7555550777417
 20
45.08688719413039
 30
0.0
 40
9.880506472017598
100
AcDbArc
 50
233.6958975838865
 51
306.1379560886738
  0
ARC
  5
1FE
330
2
100
AcDbEntity
  8
KIJUN
 62
     7
100
AcDbCircle
 10
146.2278427293988
 20
37.85028558728863
 30
0.0
 40
18.61382405660328
100
AcDbArc
 50
10.86350063329188
 51
73.28174553280819
  0
ARC
  5
1FF
330
2
100
AcDbEntity
  8
KIJUN
 62
     7
100
AcDbCircle
 10
170.8996756127205
 20
41.84563416906661
 30
0.0
 40
6.410129501798893
100
AcDbArc
 50
184.3589856293979
 51
227.6615901332811
  0
ARC
  5
200
330
2
100
AcDbEntity
  8
KIJUN
 62
     7
100
AcDbCircle
 10
155.8996756127205
 20
41.86256438455365
 30
0.0
 40
6.410129501798893
100
AcDbArc
 50
184.3589856293979
 51
227.6615901332811
  0
ARC
  5
201
330
2
100
AcDbEntity
  8
KIJUN
 62
     7
100
AcDbCircle
 10
172.38407069099
 20
55.01213311294232
 30
0.0
 40
25.00941311334464
100
AcDbArc
 50
203.8375634804316
 51
225.663114231422
  0
ARC
  5
202
330
2
100
AcDbEntity
  8
KIJUN
 62
     7
100
AcDbCircle
 10
145.7555550777417
 20
45.10381740961743
 30
0.0
 40
9.880506472017598
100
AcDbArc
 50
233.6958975838865
 51
306.1379560886738
  0
ARC
  5
203
330
2
100
AcDbEntity
  8
KIJUN
 62
     7
100
AcDbCircle
 10
147.3453828187974
 20
27.42030308370493
 30
0.0
 40
28.57291239220441
100
AcDbArc
 50
81.47227736687254
 51
104.9647676008237
  0
ARC
  5
204
330
2
100
AcDbEntity
  8
KIJUN
  6
Continuous
 62
     7
100
AcDbCircle
 10
229.4880328610009
 20
28.21762363362831
 30
0.0
 40
1.112325491518459
100
AcDbArc
 50
229.3981480000003
 51
310.6011049999988
  0
ARC
  5
205
330
2
100
AcDbEntity
  8
KIJUN
  6
Continuous
 62
     7
100
AcDbCircle
 10
227.0401623751805
 20
25.32267482449122
 30
0.0
 40
2.678857797857965
100
AcDbArc
 50
49.94295487903014
 51
107.2045338811974
  0
ARC
  5
206
330
2
100
AcDbEntity
  8
KIJUN
 62
     7
100
AcDbCircle
 10
144.4715237571792
 20
27.84514780259126
 30
0.0
 40
0.5
100
AcDbArc
 50
244.754701549881
 51
295.245298450119
  0
ARC
  5
207
330
2
100
AcDbEntity
  8
KIJUN
 62
     7
100
AcDbCircle
 10
144.4715237571792
 20
27.56716940871792
 30
0.0
 40
0.5
100
AcDbArc
 50
252.5645074762663
 51
287.4354925237337
  0
ARC
  5
208
330
2
100
AcDbEntity
  8
KIJUN
  6
Continuous
 62
     7
100
AcDbCircle
 10
141.9028851391781
 20
25.32267482449122
 30
0.0
 40
2.678857797858098
100
AcDbArc
 50
72.79546611880244
 51
130.0570451209698
  0
ARC
  5
209
330
2
100
AcDbEntity
  8
KIJUN
 62
     7
100
AcDbCircle
 10
146.8634706248473
 20
32.91787972166292
 30
0.0
 40
6.108388265849264
100
AcDbArc
 50
171.7193375385585
 51
244.7547015498664
  0
ARC
  5
20A
330
2
100
AcDbEntity
  8
KIJUN
 62
     7
100
AcDbCircle
 10
146.1519755081852
 20
32.91787972166292
 30
0.0
 40
6.108388265849264
100
AcDbArc
 50
171.7193375385585
 51
252.5645074762595
  0
ARC
  5
20B
330
2
100
AcDbEntity
  8
KIJUN
 62
     7
100
AcDbCircle
 10
182.0795768895111
 20
32.91787972166292
 30
0.0
 40
6.108388265849264
100
AcDbArc
 50
295.2452984501335
 51
8.28066246144143
  0
ARC
  5
20C
330
2
100
AcDbEntity
  8
KIJUN
 62
     7
100
AcDbCircle
 10
182.7910720061733
 20
32.91787972166292
 30
0.0
 40
6.108388265849264
100
AcDbArc
 50
287.4354925237405
 51
8.28066246144143
  0
ARC
  5
20D
330
2
100
AcDbEntity
  8
KIJUN
  6
Continuous
 62
     7
100
AcDbCircle
 10
187.0401623751805
 20
25.32267482449122
 30
0.0
 40
2.678857797857965
100
AcDbArc
 50
49.94295487903014
 51
107.2045338811974
  0
ARC
  5
20E
330
2
100
AcDbEntity
  8
KIJUN
  6
Continuous
 62
     7
100
AcDbCircle
 10
189.4880328610008
 20
28.21762363362831
 30
0.0
 40
1.112325491518459
100
AcDbArc
 50
229.3981480000003
 51
310.6011049999988
  0
ARC
  5
20F
330
2
100
AcDbEntity
  8
KIJUN
  6
Continuous
 62
     7
100
AcDbCircle
 10
191.9028851391781
 20
25.32267482449122
 30
0.0
 40
2.678857797858098
100
AcDbArc
 50
72.79546611880244
 51
130.0570451209698
  0
ARC
  5
210
330
2
100
AcDbEntity
  8
KIJUN
 62
     7
100
AcDbCircle
 10
196.1519755081851
 20
32.91787972166292
 30
0.0
 40
6.108388265849264
100
AcDbArc
 50
171.7193375385585
 51
252.5645074762595
  0
ARC
  5
211
330
2
100
AcDbEntity
  8
KIJUN
 62
     7
100
AcDbCircle
 10
196.8634706248474
 20
32.91787972166292
 30
0.0
 40
6.108388265849264
100
AcDbArc
 50
171.7193375385585
 51
244.7547015498664
  0
ARC
  5
212
330
2
100
AcDbEntity
  8
KIJUN
 62
     7
100
AcDbCircle
 10
224.4715237571794
 20
27.84514780259126
 30
0.0
 40
0.5
100
AcDbArc
 50
244.754701549881
 51
295.245298450119
  0
ARC
  5
213
330
2
100
AcDbEntity
  8
KIJUN
 62
     7
100
AcDbCircle
 10
224.4715237571794
 20
27.56716940871792
 30
0.0
 40
0.5
100
AcDbArc
 50
252.5645074762663
 51
287.4354925237337
  0
ARC
  5
214
330
2
100
AcDbEntity
  8
KIJUN
 62
     7
100
AcDbCircle
 10
222.0795768895113
 20
32.91787972166292
 30
0.0
 40
6.108388265849264
100
AcDbArc
 50
295.2452984501335
 51
8.28066246144143
  0
ARC
  5
215
330
2
100
AcDbEntity
  8
KIJUN
 62
     7
100
AcDbCircle
 10
222.7910720061733
 20
32.91787972166292
 30
0.0
 40
6.108388265849264
100
AcDbArc
 50
287.4354925237405
 51
8.28066246144143
  0
ARC
  5
216
330
2
100
AcDbEntity
  8
KIJUN
 62
     7
100
AcDbCircle
 10
226.1519755081851
 20
32.91787972166292
 30
0.0
 40
6.108388265849264
100
AcDbArc
 50
171.7193375385585
 51
252.5645074762595
  0
ARC
  5
217
330
2
100
AcDbEntity
  8
KIJUN
 62
     7
100
AcDbCircle
 10
226.8634706248474
 20
32.91787972166292
 30
0.0
 40
6.108388265849264
100
AcDbArc
 50
171.7193375385585
 51
244.7547015498664
  0
ARC
  5
218
330
2
100
AcDbEntity
  8
KIJUN
  6
Continuous
 62
     7
100
AcDbCircle
 10
217.0401623751805
 20
25.32267482449122
 30
0.0
 40
2.678857797858098
100
AcDbArc
 50
49.94295487903014
 51
107.2045338811974
  0
ARC
  5
219
330
2
100
AcDbEntity
  8
KIJUN
  6
Continuous
 62
     7
100
AcDbCircle
 10
221.9028851391782
 20
25.32267482449122
 30
0.0
 40
2.678857797857965
100
AcDbArc
 50
72.79546611880244
 51
130.0570451209698
  0
ARC
  5
21A
330
2
100
AcDbEntity
  8
KIJUN
  6
Continuous
 62
     7
100
AcDbCircle
 10
219.4550146533578
 20
28.21762363362831
 30
0.0
 40
1.112325491518459
100
AcDbArc
 50
229.3988950000011
 51
310.6018519999996
  0
ARC
  5
21B
330
2
100
AcDbEntity
  8
KIJUN
 62
     7
100
AcDbCircle
 10
196.1519755081851
 20
32.91787972166292
 30
0.0
 40
6.108388265849264
100
AcDbArc
 50
171.7193375385585
 51
252.5645074762595
  0
ARC
  5
21C
330
2
100
AcDbEntity
  8
KIJUN
 62
     7
100
AcDbCircle
 10
196.8634706248474
 20
32.91787972166292
 30
0.0
 40
6.108388265849264
100
AcDbArc
 50
171.7193375385585
 51
244.7547015498664
  0
ARC
  5
21D
330
2
100
AcDbEntity
  8
KIJUN
 62
     7
100
AcDbCircle
 10
194.4715237571792
 20
27.56716940871792
 30
0.0
 40
0.5
100
AcDbArc
 50
252.5645074762663
 51
287.4354925237337
  0
ARC
  5
21E
330
2
100
AcDbEntity
  8
KIJUN
 62
     7
100
AcDbCircle
 10
194.4715237571792
 20
27.84514780259126
 30
0.0
 40
0.5
100
AcDbArc
 50
244.754701549881
 51
295.245298450119
  0
ARC
  5
21F
330
2
100
AcDbEntity
  8
KIJUN
 62
     7
100
AcDbCircle
 10
192.0795768895111
 20
32.91787972166292
 30
0.0
 40
6.108388265849264
100
AcDbArc
 50
295.2452984501335
 51
8.28066246144143
  0
ARC
  5
220
330
2
100
AcDbEntity
  8
KIJUN
 62
     7
100
AcDbCircle
 10
192.7910720061733
 20
32.91787972166292
 30
0.0
 40
6.108388265849264
100
AcDbArc
 50
287.4354925237405
 51
8.28066246144143
  0
ARC
  5
221
330
2
100
AcDbEntity
  8
KIJUN
  6
Continuous
 62
     7
100
AcDbCircle
 10
197.0401623751804
 20
25.32267482449122
 30
0.0
 40
2.678857797858098
100
AcDbArc
 50
49.94295487903014
 51
107.2045338811974
  0
ARC
  5
222
330
2
100
AcDbEntity
  8
KIJUN
  6
Continuous
 62
     7
100
AcDbCircle
 10
201.902885139178
 20
25.32267482449122
 30
0.0
 40
2.678857797857965
100
AcDbArc
 50
72.79546611880244
 51
130.0570451209698
  0
ARC
  5
223
330
2
100
AcDbEntity
  8
KIJUN
  6
Continuous
 62
     7
100
AcDbCircle
 10
199.4550146533576
 20
28.21762363362831
 30
0.0
 40
1.112325491518459
100
AcDbArc
 50
229.3988950000011
 51
310.6018519999996
  0
ARC
  5
224
330
2
100
AcDbEntity
  8
KIJUN
  6
Continuous
 62
     7
100
AcDbCircle
 10
209.4880328610008
 20
28.21762363362831
 30
0.0
 40
1.112325491518459
100
AcDbArc
 50
229.3981480000003
 51
310.6011049999988
  0
ARC
  5
225
330
2
100
AcDbEntity
  8
KIJUN
  6
Continuous
 62
     7
100
AcDbCircle
 10
207.0401623751805
 20
25.32267482449122
 30
0.0
 40
2.678857797857965
100
AcDbArc
 50
49.94295487903014
 51
107.2045338811974
  0
ARC
  5
226
330
2
100
AcDbEntity
  8
KIJUN
  6
Continuous
 62
     7
100
AcDbCircle
 10
211.9028851391782
 20
25.32267482449122
 30
0.0
 40
2.678857797858098
100
AcDbArc
 50
72.79546611880244
 51
130.0570451209698
  0
ARC
  5
227
330
2
100
AcDbEntity
  8
KIJUN
 62
     7
100
AcDbCircle
 10
214.4715237571793
 20
27.84514780259126
 30
0.0
 40
0.5
100
AcDbArc
 50
244.754701549881
 51
295.245298450119
  0
ARC
  5
228
330
2
100
AcDbEntity
  8
KIJUN
 62
     7
100
AcDbCircle
 10
214.4715237571793
 20
27.56716940871792
 30
0.0
 40
0.5
100
AcDbArc
 50
252.5645074762663
 51
287.4354925237337
  0
ARC
  5
229
330
2
100
AcDbEntity
  8
KIJUN
 62
     7
100
AcDbCircle
 10
212.0795768895111
 20
32.91787972166292
 30
0.0
 40
6.108388265849264
100
AcDbArc
 50
295.2452984501335
 51
8.28066246144143
  0
ARC
  5
22A
330
2
100
AcDbEntity
  8
KIJUN
 62
     7
100
AcDbCircle
 10
212.7910720061734
 20
32.91787972166292
 30
0.0
 40
6.108388265849264
100
AcDbArc
 50
287.4354925237405
 51
8.28066246144143
  0
ARC
  5
22B
330
2
100
AcDbEntity
  8
KIJUN
 62
     7
100
AcDbCircle
 10
216.8634706248474
 20
32.91787972166292
 30
0.0
 40
6.108388265849264
100
AcDbArc
 50
171.7193375385585
 51
244.7547015498664
  0
ARC
  5
22C
330
2
100
AcDbEntity
  8
KIJUN
 62
     7
100
AcDbCircle
 10
216.1519755081851
 20
32.91787972166292
 30
0.0
 40
6.108388265849264
100
AcDbArc
 50
171.7193375385585
 51
252.5645074762595
  0
ARC
  5
22D
330
2
100
AcDbEntity
  8
KIJUN
 62
     7
100
AcDbCircle
 10
202.7910720061734
 20
32.91787972166292
 30
0.0
 40
6.108388265849264
100
AcDbArc
 50
287.4354925237405
 51
8.28066246144143
  0
ARC
  5
22E
330
2
100
AcDbEntity
  8
KIJUN
 62
     7
100
AcDbCircle
 10
206.1519755081851
 20
32.91787972166292
 30
0.0
 40
6.108388265849264
100
AcDbArc
 50
171.7193375385585
 51
252.5645074762595
  0
ARC
  5
22F
330
2
100
AcDbEntity
  8
KIJUN
 62
     7
100
AcDbCircle
 10
204.4715237571792
 20
27.56716940871792
 30
0.0
 40
0.5
100
AcDbArc
 50
252.5645074762663
 51
287.4354925237337
  0
ARC
  5
230
330
2
100
AcDbEntity
  8
KIJUN
 62
     7
100
AcDbCircle
 10
206.8634706248474
 20
32.91787972166292
 30
0.0
 40
6.108388265849264
100
AcDbArc
 50
171.7193375385585
 51
244.7547015498664
  0
ARC
  5
231
330
2
100
AcDbEntity
  8
KIJUN
 62
     7
100
AcDbCircle
 10
202.0795768895112
 20
32.91787972166292
 30
0.0
 40
6.108388265849264
100
AcDbArc
 50
295.2452984501335
 51
8.28066246144143
  0
ARC
  5
232
330
2
100
AcDbEntity
  8
KIJUN
 62
     7
100
AcDbCircle
 10
204.4715237571792
 20
27.84514780259126
 30
0.0
 40
0.5
100
AcDbArc
 50
244.754701549881
 51
295.245298450119
  0
ARC
  5
233
330
2
100
AcDbEntity
  8
KIJUN
 62
     7
100
AcDbCircle
 10
154.4715237571792
 20
27.84514780259126
 30
0.0
 40
0.5
100
AcDbArc
 50
244.754701549881
 51
295.245298450119
  0
ARC
  5
234
330
2
100
AcDbEntity
  8
KIJUN
 62
     7
100
AcDbCircle
 10
154.4715237571792
 20
27.56716940871792
 30
0.0
 40
0.5
100
AcDbArc
 50
252.5645074762663
 51
287.4354925237337
  0
ARC
  5
235
330
2
100
AcDbEntity
  8
KIJUN
 62
     7
100
AcDbCircle
 10
164.4715237571792
 20
27.84514780259126
 30
0.0
 40
0.5
100
AcDbArc
 50
244.754701549881
 51
295.245298450119
  0
ARC
  5
236
330
2
100
AcDbEntity
  8
KIJUN
 62
     7
100
AcDbCircle
 10
164.4715237571792
 20
27.56716940871792
 30
0.0
 40
0.5
100
AcDbArc
 50
252.5645074762663
 51
287.4354925237337
  0
ARC
  5
237
330
2
100
AcDbEntity
  8
KIJUN
 62
     7
100
AcDbCircle
 10
162.0795768895111
 20
32.91787972166292
 30
0.0
 40
6.108388265849264
100
AcDbArc
 50
295.2452984501335
 51
8.28066246144143
  0
ARC
  5
238
330
2
100
AcDbEntity
  8
KIJUN
 62
     7
100
AcDbCircle
 10
162.7910720061733
 20
32.91787972166292
 30
0.0
 40
6.108388265849264
100
AcDbArc
 50
287.4354925237405
 51
8.28066246144143
  0
ARC
  5
239
330
2
100
AcDbEntity
  8
KIJUN
  6
Continuous
 62
     7
100
AcDbCircle
 10
161.9028851391781
 20
25.32267482449122
 30
0.0
 40
2.678857797858098
100
AcDbArc
 50
72.79546611880244
 51
130.0570451209698
  0
ARC
  5
23A
330
2
100
AcDbEntity
  8
KIJUN
 62
     7
100
AcDbCircle
 10
166.1519755081852
 20
32.91787972166292
 30
0.0
 40
6.108388265849264
100
AcDbArc
 50
171.7193375385585
 51
252.5645074762595
  0
ARC
  5
23B
330
2
100
AcDbEntity
  8
KIJUN
 62
     7
100
AcDbCircle
 10
166.8634706248473
 20
32.91787972166292
 30
0.0
 40
6.108388265849264
100
AcDbArc
 50
171.7193375385585
 51
244.7547015498664
  0
ARC
  5
23C
330
2
100
AcDbEntity
  8
KIJUN
 62
     7
100
AcDbCircle
 10
152.0795768895111
 20
32.91787972166292
 30
0.0
 40
6.108388265849264
100
AcDbArc
 50
295.2452984501335
 51
8.28066246144143
  0
ARC
  5
23D
330
2
100
AcDbEntity
  8
KIJUN
 62
     7
100
AcDbCircle
 10
152.7910720061733
 20
32.91787972166292
 30
0.0
 40
6.108388265849264
100
AcDbArc
 50
287.4354925237405
 51
8.28066246144143
  0
ARC
  5
23E
330
2
100
AcDbEntity
  8
KIJUN
  6
Continuous
 62
     7
100
AcDbCircle
 10
159.4880328610008
 20
28.21762363362831
 30
0.0
 40
1.112325491518459
100
AcDbArc
 50
229.3981480000003
 51
310.6011049999988
  0
ARC
  5
23F
330
2
100
AcDbEntity
  8
KIJUN
  6
Continuous
 62
     7
100
AcDbCircle
 10
157.0401623751804
 20
25.32267482449122
 30
0.0
 40
2.678857797857965
100
AcDbArc
 50
49.94295487903014
 51
107.2045338811974
  0
ARC
  5
240
330
2
100
AcDbEntity
  8
KIJUN
 62
     7
100
AcDbCircle
 10
156.1519755081852
 20
32.91787972166292
 30
0.0
 40
6.108388265849264
100
AcDbArc
 50
171.7193375385585
 51
252.5645074762595
  0
ARC
  5
241
330
2
100
AcDbEntity
  8
KIJUN
 62
     7
100
AcDbCircle
 10
156.8634706248474
 20
32.91787972166292
 30
0.0
 40
6.108388265849264
100
AcDbArc
 50
171.7193375385585
 51
244.7547015498664
  0
ARC
  5
242
330
2
100
AcDbEntity
  8
KIJUN
  6
Continuous
 62
     7
100
AcDbCircle
 10
151.902885139178
 20
25.32267482449122
 30
0.0
 40
2.678857797857965
100
AcDbArc
 50
72.79546611880244
 51
130.0570451209698
  0
ARC
  5
243
330
2
100
AcDbEntity
  8
KIJUN
  6
Continuous
 62
     7
100
AcDbCircle
 10
149.4550146533576
 20
28.21762363362831
 30
0.0
 40
1.112325491518459
100
AcDbArc
 50
229.3988950000011
 51
310.6018519999996
  0
ARC
  5
244
330
2
100
AcDbEntity
  8
KIJUN
 62
     7
100
AcDbCircle
 10
176.1519755081851
 20
32.91787972166292
 30
0.0
 40
6.108388265849264
100
AcDbArc
 50
171.7193375385585
 51
252.5645074762595
  0
ARC
  5
245
330
2
100
AcDbEntity
  8
KIJUN
  6
Continuous
 62
     7
100
AcDbCircle
 10
169.4880328610008
 20
28.21762363362831
 30
0.0
 40
1.112325491518459
100
AcDbArc
 50
229.3981480000003
 51
310.6011049999988
  0
ARC
  5
246
330
2
100
AcDbEntity
  8
KIJUN
  6
Continuous
 62
     7
100
AcDbCircle
 10
171.9028851391781
 20
25.32267482449122
 30
0.0
 40
2.678857797858098
100
AcDbArc
 50
72.79546611880244
 51
130.0570451209698
  0
ARC
  5
247
330
2
100
AcDbEntity
  8
KIJUN
  6
Continuous
 62
     7
100
AcDbCircle
 10
167.0401623751804
 20
25.32267482449122
 30
0.0
 40
2.678857797857965
100
AcDbArc
 50
49.94295487903014
 51
107.2045338811974
  0
ARC
  5
248
330
2
100
AcDbEntity
  8
KIJUN
 62
     7
100
AcDbCircle
 10
172.7910720061733
 20
32.91787972166292
 30
0.0
 40
6.108388265849264
100
AcDbArc
 50
287.4354925237405
 51
8.28066246144143
  0
ARC
  5
249
330
2
100
AcDbEntity
  8
KIJUN
 62
     7
100
AcDbCircle
 10
172.0795768895111
 20
32.91787972166292
 30
0.0
 40
6.108388265849264
100
AcDbArc
 50
295.2452984501335
 51
8.28066246144143
  0
ARC
  5
24A
330
2
100
AcDbEntity
  8
KIJUN
  6
Continuous
 62
     7
100
AcDbCircle
 10
177.0401623751804
 20
25.32267482449122
 30
0.0
 40
2.678857797858098
100
AcDbArc
 50
49.94295487903014
 51
107.2045338811974
  0
ARC
  5
24B
330
2
100
AcDbEntity
  8
KIJUN
 62
     7
100
AcDbCircle
 10
176.8634706248474
 20
32.91787972166292
 30
0.0
 40
6.108388265849264
100
AcDbArc
 50
171.7193375385585
 51
244.7547015498664
  0
ARC
  5
24C
330
2
100
AcDbEntity
  8
KIJUN
 62
     7
100
AcDbCircle
 10
174.4715237571792
 20
27.56716940871792
 30
0.0
 40
0.5
100
AcDbArc
 50
252.5645074762663
 51
287.4354925237337
  0
ARC
  5
24D
330
2
100
AcDbEntity
  8
KIJUN
 62
     7
100
AcDbCircle
 10
174.4715237571792
 20
27.84514780259126
 30
0.0
 40
0.5
100
AcDbArc
 50
244.754701549881
 51
295.245298450119
  0
ARC
  5
24E
330
2
100
AcDbEntity
  8
KIJUN
 62
     7
100
AcDbCircle
 10
184.4715237571792
 20
27.84514780259126
 30
0.0
 40
0.5
100
AcDbArc
 50
244.754701549881
 51
295.245298450119
  0
ARC
  5
24F
330
2
100
AcDbEntity
  8
KIJUN
 62
     7
100
AcDbCircle
 10
186.8634706248474
 20
32.91787972166292
 30
0.0
 40
6.108388265849264
100
AcDbArc
 50
171.7193375385585
 51
244.7547015498664
  0
ARC
  5
250
330
2
100
AcDbEntity
  8
KIJUN
 62
     7
100
AcDbCircle
 10
184.4715237571792
 20
27.56716940871792
 30
0.0
 40
0.5
100
AcDbArc
 50
252.5645074762663
 51
287.4354925237337
  0
ARC
  5
251
330
2
100
AcDbEntity
  8
KIJUN
 62
     7
100
AcDbCircle
 10
186.1519755081851
 20
32.91787972166292
 30
0.0
 40
6.108388265849264
100
AcDbArc
 50
171.7193375385585
 51
252.5645074762595
  0
ARC
  5
252
330
2
100
AcDbEntity
  8
KIJUN
  6
Continuous
 62
     7
100
AcDbCircle
 10
181.9028851391781
 20
25.32267482449122
 30
0.0
 40
2.678857797857965
100
AcDbArc
 50
72.79546611880244
 51
130.0570451209698
  0
ARC
  5
253
330
2
100
AcDbEntity
  8
KIJUN
  6
Continuous
 62
     7
100
AcDbCircle
 10
179.4550146533576
 20
28.21762363362831
 30
0.0
 40
1.112325491518459
100
AcDbArc
 50
229.3988950000011
 51
310.6018519999996
  0
ARC
  5
254
330
2
100
AcDbEntity
  8
KIJUN
  6
Continuous
 62
     7
100
AcDbCircle
 10
147.0401623751804
 20
25.32267482449122
 30
0.0
 40
2.678857797858098
100
AcDbArc
 50
49.94295487903014
 51
107.2045338811974
  0
ARC
  5
255
330
2
100
AcDbEntity
  8
KIJUN
 62
     7
100
AcDbCircle
 10
142.0795768895111
 20
32.91787972166292
 30
0.0
 40
6.108388265849264
100
AcDbArc
 50
295.2452984501335
 51
8.28066246144143
  0
ARC
  5
256
330
2
100
AcDbEntity
  8
KIJUN
 62
     7
100
AcDbCircle
 10
142.7910720061733
 20
32.91787972166292
 30
0.0
 40
6.108388265849264
100
AcDbArc
 50
287.4354925237405
 51
8.28066246144143
  0
ARC
  5
257
330
2
100
AcDbEntity
  8
KIJUN
 62
     7
100
AcDbCircle
 10
247.38407069099
 20
54.9782726819687
 30
0.0
 40
25.00941311334464
100
AcDbArc
 50
203.8375634804316
 51
225.663114231422
  0
ARC
  5
258
330
2
100
AcDbEntity
  8
KIJUN
 62
     7
100
AcDbCircle
 10
210.4784690378903
 20
41.20075300493152
 30
0.0
 40
14.50171572791927
100
AcDbArc
 50
14.65982390608365
 51
85.63417985261594
  0
ARC
  5
259
330
2
100
AcDbEntity
  8
KIJUN
 62
     7
100
AcDbCircle
 10
222.3453828187974
 20
27.38644265273133
 30
0.0
 40
28.57291239220441
100
AcDbArc
 50
81.47227736687254
 51
104.9647676008237
  0
ARC
  5
25A
330
2
100
AcDbEntity
  8
KIJUN
 62
     7
100
AcDbCircle
 10
220.7555550777418
 20
45.06995697864357
 30
0.0
 40
9.880506472017598
100
AcDbArc
 50
233.6958975838865
 51
306.1379560886738
  0
ARC
  5
25B
330
2
100
AcDbEntity
  8
KIJUN
 62
     7
100
AcDbCircle
 10
206.2278427293989
 20
37.83335537180181
 30
0.0
 40
18.61382405660328
100
AcDbArc
 50
10.86350063329188
 51
73.28174553280819
  0
ARC
  5
25C
330
2
100
AcDbEntity
  8
KIJUN
 62
     7
100
AcDbCircle
 10
230.8996756127206
 20
41.82870395357979
 30
0.0
 40
6.410129501798893
100
AcDbArc
 50
184.3589856293979
 51
227.6615901332811
  0
ARC
  5
25D
330
2
100
AcDbEntity
  8
KIJUN
 62
     7
100
AcDbCircle
 10
162.3453828187973
 20
27.40337286821813
 30
0.0
 40
28.57291239220441
100
AcDbArc
 50
81.47227736687254
 51
104.9647676008237
  0
ARC
  5
25E
330
2
100
AcDbEntity
  8
KIJUN
 62
     7
100
AcDbCircle
 10
150.4784690378904
 20
41.21768322041833
 30
0.0
 40
14.50171572791927
100
AcDbArc
 50
14.65982390608365
 51
71.96927186358121
  0
ARC
  5
25F
330
2
100
AcDbEntity
  8
KIJUN
 62
     7
100
AcDbCircle
 10
161.2278427293988
 20
37.83335537180181
 30
0.0
 40
18.61382405660328
100
AcDbArc
 50
10.86350063329188
 51
73.28174553280819
  0
ARC
  5
260
330
2
100
AcDbEntity
  8
KIJUN
 62
     7
100
AcDbCircle
 10
187.38407069099
 20
54.99520289745547
 30
0.0
 40
25.00941311334464
100
AcDbArc
 50
203.8375634804316
 51
225.663114231422
  0
ARC
  5
261
330
2
100
AcDbEntity
  8
KIJUN
 62
     7
100
AcDbCircle
 10
175.7555550777417
 20
45.06995697864357
 30
0.0
 40
9.880506472017598
100
AcDbArc
 50
233.6958975838865
 51
306.1379560886738
  0
ARC
  5
262
330
2
100
AcDbEntity
  8
KIJUN
 62
     7
100
AcDbCircle
 10
185.8996756127205
 20
41.82870395357979
 30
0.0
 40
6.410129501798893
100
AcDbArc
 50
184.3589856293979
 51
227.6615901332811
  0
ARC
  5
263
330
2
100
AcDbEntity
  8
KIJUN
 62
     7
100
AcDbCircle
 10
177.3453828187973
 20
27.38644265273133
 30
0.0
 40
28.57291239220441
100
AcDbArc
 50
81.47227736687254
 51
104.9647676008237
  0
ARC
  5
264
330
2
100
AcDbEntity
  8
KIJUN
 62
     7
100
AcDbCircle
 10
165.4784690378903
 20
41.20075300493152
 30
0.0
 40
14.50171572791927
100
AcDbArc
 50
14.65982390608365
 51
85.63417985261594
  0
ARC
  5
265
330
2
100
AcDbEntity
  8
KIJUN
 62
     7
100
AcDbCircle
 10
202.3840706909901
 20
54.9782726819687
 30
0.0
 40
25.00941311334464
100
AcDbArc
 50
203.8375634804316
 51
225.663114231422
  0
ARC
  5
266
330
2
100
AcDbEntity
  8
KIJUN
 62
     7
100
AcDbCircle
 10
190.7555550777417
 20
45.05302676315675
 30
0.0
 40
9.880506472017598
100
AcDbArc
 50
233.6958975838865
 51
306.1379560886738
  0
ARC
  5
267
330
2
100
AcDbEntity
  8
KIJUN
 62
     7
100
AcDbCircle
 10
200.8996756127205
 20
41.811773738093
 30
0.0
 40
6.410129501798893
100
AcDbArc
 50
184.3589856293979
 51
227.6615901332811
  0
ARC
  5
268
330
2
100
AcDbEntity
  8
KIJUN
 62
     7
100
AcDbCircle
 10
176.2278427293988
 20
37.81642515631502
 30
0.0
 40
18.61382405660328
100
AcDbArc
 50
10.86350063329188
 51
73.28174553280819
  0
ARC
  5
269
330
2
100
AcDbEntity
  8
KIJUN
 62
     7
100
AcDbCircle
 10
180.4784690378903
 20
41.18382278944447
 30
0.0
 40
14.50171572791927
100
AcDbArc
 50
14.65982390608365
 51
85.63417985261594
  0
ARC
  5
26A
330
2
100
AcDbEntity
  8
KIJUN
 62
     7
100
AcDbCircle
 10
217.3840706909899
 20
54.96134246648164
 30
0.0
 40
25.00941311334464
100
AcDbArc
 50
203.8375634804316
 51
225.663114231422
  0
ARC
  5
26B
330
2
100
AcDbEntity
  8
KIJUN
 62
     7
100
AcDbCircle
 10
192.3453828187973
 20
27.36951243724428
 30
0.0
 40
28.57291239220441
100
AcDbArc
 50
81.47227736687254
 51
104.9647676008237
  0
ARC
  5
26C
330
2
100
AcDbEntity
  8
KIJUN
 62
     7
100
AcDbCircle
 10
195.4784690378903
 20
41.21768322041833
 30
0.0
 40
14.50171572791927
100
AcDbArc
 50
14.65982390608365
 51
71.96927186358121
  0
ARC
  5
26D
330
2
100
AcDbEntity
  8
KIJUN
 62
     7
100
AcDbCircle
 10
207.3453828187973
 20
27.40337286821813
 30
0.0
 40
28.57291239220441
100
AcDbArc
 50
81.47227736687254
 51
104.9647676008237
  0
ARC
  5
26E
330
2
100
AcDbEntity
  8
KIJUN
 62
     7
100
AcDbCircle
 10
232.38407069099
 20
54.99520289745547
 30
0.0
 40
25.00941311334464
100
AcDbArc
 50
203.8375634804316
 51
225.663114231422
  0
ARC
  5
26F
330
2
100
AcDbEntity
  8
KIJUN
 62
     7
100
AcDbCircle
 10
205.7555550777418
 20
45.03609654766973
 30
0.0
 40
9.880506472017598
100
AcDbArc
 50
233.6958975838865
 51
306.1379560886738
  0
ARC
  5
270
330
2
100
AcDbEntity
  8
KIJUN
 62
     7
100
AcDbCircle
 10
215.8996756127205
 20
41.79484352260597
 30
0.0
 40
6.410129501798893
100
AcDbArc
 50
184.3589856293979
 51
227.6615901332811
  0
ARC
  5
271
330
2
100
AcDbEntity
  8
KIJUN
 62
     7
100
AcDbCircle
 10
191.2278427293989
 20
37.79949494082797
 30
0.0
 40
18.61382405660328
100
AcDbArc
 50
10.86350063329188
 51
73.28174553280819
  0
ARC
  5
272
330
2
100
AcDbEntity
  8
KIJUN
 62
     7
100
AcDbCircle
 10
241.4389243095008
 20
67.03249885743247
 30
0.0
 40
3.037040437815087
100
AcDbArc
 50
93.74350773815917
 51
127.2204148402882
  0
ARC
  5
273
330
2
100
AcDbEntity
  8
KIJUN
 62
     7
100
AcDbCircle
 10
226.1805236971033
 20
63.89586123993279
 30
0.0
 40
13.73297992259408
100
AcDbArc
 50
350.7291521919634
 51
21.0787911113768
  0
ARC
  5
274
330
2
100
AcDbEntity
  8
KIJUN
 62
     7
100
AcDbCircle
 10
236.5313225129064
 20
61.9235667133552
 30
0.0
 40
7.941966794685592
100
AcDbArc
 50
98.44970531066048
 51
106.4941917808769
  0
ARC
  5
275
330
2
100
AcDbEntity
  8
KIJUN
 62
     7
100
AcDbCircle
 10
232.3174062975239
 20
67.0832272262955
 30
0.0
 40
2.067171992132617
100
AcDbArc
 50
94.57163254013591
 51
296.9906302781796
  0
ARC
  5
276
330
2
100
AcDbEntity
  8
KIJUN
 62
     7
100
AcDbCircle
 10
231.323705320399
 20
79.5107344521824
 30
0.0
 40
10.4
100
AcDbArc
 50
274.5716325401359
 51
286.4941917808768
  0
ARC
  5
277
330
2
100
AcDbEntity
  8
KIJUN
 62
     7
100
AcDbCircle
 10
233.7275801027146
 20
64.31448606326734
 30
0.0
 40
1.04
100
AcDbArc
 50
62.19795810599969
 51
116.9906302781861
  0
ARC
  5
278
330
2
100
AcDbEntity
  8
KIJUN
 62
     7
100
AcDbCircle
 10
232.9999677660318
 20
62.93456567153858
 30
0.0
 40
2.6
100
AcDbArc
 50
1.332253992291912
 51
62.19795810599649
  0
ARC
  5
279
330
2
100
AcDbEntity
  8
KIJUN
 62
     7
100
AcDbCircle
 10
238.1719102873324
 20
69.35659549900805
 30
0.0
 40
0.26
100
AcDbArc
 50
104.2271242288215
 51
262.7186609289136
  0
ARC
  5
27A
330
2
100
AcDbEntity
  8
KIJUN
 62
     7
100
AcDbCircle
 10
237.8072978827434
 20
66.50297649271118
 30
0.0
 40
2.616818318677879
100
AcDbArc
 50
63.01777818607469
 51
82.71866092891029
  0
ARC
  5
27B
330
2
100
AcDbEntity
  8
KIJUN
 62
     7
100
AcDbCircle
 10
238.641261571637
 20
67.50542281219619
 30
0.0
 40
2.169746303695041
100
AcDbArc
 50
63.7218871619149
 51
104.2271242288081
  0
ARC
  5
27C
330
2
100
AcDbEntity
  8
KIJUN
 62
     7
100
AcDbCircle
 10
238.6542661622891
 20
66.60080325029861
 30
0.0
 40
1.04
100
AcDbArc
 50
176.725906772897
 51
252.5662289679919
  0
ARC
  5
27D
330
2
100
AcDbEntity
  8
KIJUN
 62
     7
100
AcDbCircle
 10
232.7855643335968
 20
66.9365281323516
 30
0.0
 40
4.838296721884834
100
AcDbArc
 50
356.7259067728942
 51
7.403917443343904
  0
ARC
  5
27E
330
2
100
AcDbEntity
  8
KIJUN
 62
     7
100
AcDbCircle
 10
238.0572092190408
 20
64.69952012883225
 30
0.0
 40
0.9528257579263044
100
AcDbArc
 50
339.674944777418
 51
72.56622896798511
  0
ARC
  5
27F
330
2
100
AcDbEntity
  8
KIJUN
 62
     7
100
AcDbCircle
 10
235.6954305495795
 20
67.89121729735207
 30
0.0
 40
1.916920883265328
100
AcDbArc
 50
350.0503785042168
 51
99.9465951632095
  0
ARC
  5
280
330
2
100
AcDbEntity
  8
KIJUN
 62
     7
100
AcDbCircle
 10
301.3237053203992
 20
79.5107344521824
 30
0.0
 40
10.4
100
AcDbArc
 50
274.5716325401359
 51
286.4941917808768
  0
ARC
  5
281
330
2
100
AcDbEntity
  8
KIJUN
 62
     7
100
AcDbCircle
 10
302.3174062975237
 20
67.0832272262955
 30
0.0
 40
2.067171992132617
100
AcDbArc
 50
94.57163254013591
 51
296.9906302781796
  0
ARC
  5
282
330
2
100
AcDbEntity
  8
KIJUN
 62
     7
100
AcDbCircle
 10
314.5203579478077
 20
69.35659549900805
 30
0.0
 40
0.26
100
AcDbArc
 50
277.2813390710865
 51
75.77287577117847
  0
ARC
  5
283
330
2
100
AcDbEntity
  8
KIJUN
 62
     7
100
AcDbCircle
 10
314.8849703523968
 20
66.50297649271118
 30
0.0
 40
2.616818318677879
100
AcDbArc
 50
97.28133907108972
 51
116.9822218139252
  0
ARC
  5
284
330
2
100
AcDbEntity
  8
KIJUN
 62
     7
100
AcDbCircle
 10
326.5117445380367
 20
63.89586123993279
 30
0.0
 40
13.73297992259408
100
AcDbArc
 50
158.9212088886231
 51
189.2708478080365
  0
ARC
  5
285
330
2
100
AcDbEntity
  8
KIJUN
 62
     7
100
AcDbCircle
 10
316.9968376855607
 20
67.89121729735207
 30
0.0
 40
1.916920883265328
100
AcDbArc
 50
80.05340483679052
 51
189.949621495783
  0
ARC
  5
286
330
2
100
AcDbEntity
  8
KIJUN
 62
     7
100
AcDbCircle
 10
316.1609457222338
 20
61.9235667133552
 30
0.0
 40
7.941966794685592
100
AcDbArc
 50
73.50580821912308
 51
81.55029468933955
  0
ARC
  5
287
330
2
100
AcDbEntity
  8
KIJUN
 62
     7
100
AcDbCircle
 10
321.368562914741
 20
79.5107344521824
 30
0.0
 40
10.4
100
AcDbArc
 50
253.5058082191231
 51
265.4283674598641
  0
ARC
  5
288
330
2
100
AcDbEntity
  8
KIJUN
 62
     7
100
AcDbCircle
 10
314.038002072851
 20
66.60080325029861
 30
0.0
 40
1.04
100
AcDbArc
 50
287.4337710320079
 51
3.274093227102877
  0
ARC
  5
289
330
2
100
AcDbEntity
  8
KIJUN
 62
     7
100
AcDbCircle
 10
319.9067039015433
 20
66.9365281323516
 30
0.0
 40
4.838296721884834
100
AcDbArc
 50
172.596082556656
 51
183.2740932271059
  0
ARC
  5
28A
330
2
100
AcDbEntity
  8
KIJUN
 62
     7
100
AcDbCircle
 10
314.6350590160993
 20
64.69952012883225
 30
0.0
 40
0.9528257579263044
100
AcDbArc
 50
107.4337710320148
 51
200.325055222582
  0
ARC
  5
28B
330
2
100
AcDbEntity
  8
KIJUN
 62
     7
100
AcDbCircle
 10
319.6923004691083
 20
62.93456567153858
 30
0.0
 40
2.6
100
AcDbArc
 50
117.8020418940034
 51
178.667746007708
  0
ARC
  5
28C
330
2
100
AcDbEntity
  8
KIJUN
 62
     7
100
AcDbCircle
 10
318.9646881324256
 20
64.31448606326734
 30
0.0
 40
1.04
100
AcDbArc
 50
63.00936972181374
 51
117.8020418940002
  0
ARC
  5
28D
330
2
100
AcDbEntity
  8
KIJUN
 62
     7
100
AcDbCircle
 10
314.0510066635031
 20
67.50542281219619
 30
0.0
 40
2.169746303695041
100
AcDbArc
 50
75.77287577119192
 51
106.7600224295163
  0
ARC
  5
28E
330
2
100
AcDbEntity
  8
KIJUN
 62
     7
100
AcDbCircle
 10
303.7275801027146
 20
64.31448606326734
 30
0.0
 40
1.04
100
AcDbArc
 50
62.19795810599969
 51
116.9906302781861
  0
ARC
  5
28F
330
2
100
AcDbEntity
  8
KIJUN
 62
     7
100
AcDbCircle
 10
302.9999677660319
 20
62.93456567153858
 30
0.0
 40
2.6
100
AcDbArc
 50
1.33225399229193
 51
62.19795810599649
  0
ARC
  5
290
330
2
100
AcDbEntity
  8
KIJUN
 62
     7
100
AcDbCircle
 10
306.5313225129064
 20
61.9235667133552
 30
0.0
 40
7.941966794685592
100
AcDbArc
 50
98.44970531066048
 51
106.4941917808769
  0
ARC
  5
291
330
2
100
AcDbEntity
  8
KIJUN
 62
     7
100
AcDbCircle
 10
311.4389243095008
 20
67.03249885743247
 30
0.0
 40
3.037040437815087
100
AcDbArc
 50
93.74350773815917
 51
127.2204148402882
  0
ARC
  5
292
330
2
100
AcDbEntity
  8
KIJUN
 62
     7
100
AcDbCircle
 10
305.6954305495795
 20
67.89121729735207
 30
0.0
 40
1.916920883265328
100
AcDbArc
 50
350.0503785042168
 51
99.9465951632095
  0
ARC
  5
293
330
2
100
AcDbEntity
  8
KIJUN
 62
     7
100
AcDbCircle
 10
308.0572092190407
 20
64.69952012883225
 30
0.0
 40
0.9528257579263044
100
AcDbArc
 50
339.674944777418
 51
72.56622896798511
  0
ARC
  5
294
330
2
100
AcDbEntity
  8
KIJUN
 62
     7
100
AcDbCircle
 10
302.7855643335968
 20
66.9365281323516
 30
0.0
 40
4.838296721884834
100
AcDbArc
 50
356.7259067728941
 51
7.403917443343901
  0
ARC
  5
295
330
2
100
AcDbEntity
  8
KIJUN
 62
     7
100
AcDbCircle
 10
308.6542661622892
 20
66.60080325029861
 30
0.0
 40
1.04
100
AcDbArc
 50
176.725906772897
 51
252.5662289679919
  0
ARC
  5
296
330
2
100
AcDbEntity
  8
KIJUN
 62
     7
100
AcDbCircle
 10
308.6412615716371
 20
67.50542281219619
 30
0.0
 40
2.169746303695041
100
AcDbArc
 50
63.7218871619149
 51
104.2271242288081
  0
ARC
  5
297
330
2
100
AcDbEntity
  8
KIJUN
 62
     7
100
AcDbCircle
 10
307.8072978827433
 20
66.50297649271118
 30
0.0
 40
2.616818318677879
100
AcDbArc
 50
63.01777818607469
 51
82.71866092891029
  0
ARC
  5
298
330
2
100
AcDbEntity
  8
KIJUN
 62
     7
100
AcDbCircle
 10
308.1719102873323
 20
69.35659549900805
 30
0.0
 40
0.26
100
AcDbArc
 50
104.2271242288215
 51
262.7186609289136
  0
ARC
  5
299
330
2
100
AcDbEntity
  8
KIJUN
 62
     7
100
AcDbCircle
 10
296.1805236971033
 20
63.89586123993279
 30
0.0
 40
13.73297992259408
100
AcDbArc
 50
350.7291521919634
 51
21.07879111137682
  0
ARC
  5
29A
330
2
100
AcDbEntity
  8
KIJUN
 62
     7
100
AcDbCircle
 10
310.9769250276548
 20
63.65176058173499
 30
0.0
 40
6.416719871981105
100
AcDbArc
 50
67.56925018207031
 51
87.64462705879955
  0
ARC
  5
29B
330
2
100
AcDbEntity
  8
KIJUN
 62
     7
100
AcDbCircle
 10
299.9795478800862
 20
62.27285773634406
 30
0.0
 40
2.342550189021227
100
AcDbArc
 50
348.3786696002813
 51
101.6490579718231
  0
ARC
  5
29C
330
2
100
AcDbEntity
  8
KIJUN
 62
     7
100
AcDbCircle
 10
276.7153432074854
 20
63.65176058173499
 30
0.0
 40
6.416719871981105
100
AcDbArc
 50
92.35537294120048
 51
112.4307498179295
  0
ARC
  5
29D
330
2
100
AcDbEntity
  8
KIJUN
 62
     7
100
AcDbCircle
 10
291.5117445380367
 20
63.89586123993279
 30
0.0
 40
13.73297992259408
100
AcDbArc
 50
158.9212088886231
 51
189.2708478080365
  0
ARC
  5
29E
330
2
100
AcDbEntity
  8
KIJUN
 62
     7
100
AcDbCircle
 10
279.5203579478078
 20
69.35659549900805
 30
0.0
 40
0.26
100
AcDbArc
 50
277.2813390710865
 51
75.77287577117847
  0
ARC
  5
29F
330
2
100
AcDbEntity
  8
KIJUN
 62
     7
100
AcDbCircle
 10
279.8849703523969
 20
66.50297649271118
 30
0.0
 40
2.616818318677879
100
AcDbArc
 50
97.28133907108972
 51
116.9822218139252
  0
ARC
  5
2A0
330
2
100
AcDbEntity
  8
KIJUN
 62
     7
100
AcDbCircle
 10
279.0510066635031
 20
67.50542281219619
 30
0.0
 40
2.169746303695041
100
AcDbArc
 50
75.77287577119192
 51
116.2781128380851
  0
ARC
  5
2A1
330
2
100
AcDbEntity
  8
KIJUN
 62
     7
100
AcDbCircle
 10
279.0380020728509
 20
66.60080325029861
 30
0.0
 40
1.04
100
AcDbArc
 50
287.4337710320079
 51
3.274093227102877
  0
ARC
  5
2A2
330
2
100
AcDbEntity
  8
KIJUN
 62
     7
100
AcDbCircle
 10
284.9067039015433
 20
66.9365281323516
 30
0.0
 40
4.838296721884834
100
AcDbArc
 50
172.596082556656
 51
183.2740932271059
  0
ARC
  5
2A3
330
2
100
AcDbEntity
  8
KIJUN
 62
     7
100
AcDbCircle
 10
279.6350590160993
 20
64.69952012883225
 30
0.0
 40
0.9528257579263044
100
AcDbArc
 50
107.4337710320148
 51
200.325055222582
  0
ARC
  5
2A4
330
2
100
AcDbEntity
  8
KIJUN
 62
     7
100
AcDbCircle
 10
281.9968376855608
 20
67.89121729735207
 30
0.0
 40
1.916920883265328
100
AcDbArc
 50
80.05340483679052
 51
189.949621495783
  0
ARC
  5
2A5
330
2
100
AcDbEntity
  8
KIJUN
 62
     7
100
AcDbCircle
 10
276.2533439256391
 20
67.03249885743247
 30
0.0
 40
3.037040437815087
100
AcDbArc
 50
52.77958515971177
 51
86.25649226184085
  0
ARC
  5
2A6
330
2
100
AcDbEntity
  8
KIJUN
 62
     7
100
AcDbCircle
 10
297.8772682486748
 20
63.60446507693215
 30
0.0
 40
1.581223681833198
100
AcDbArc
 50
194.5595041414168
 51
224.730225033182
  0
ARC
  5
2A7
330
2
100
AcDbEntity
  8
KIJUN
 62
     7
100
AcDbCircle
 10
281.1609457222338
 20
61.9235667133552
 30
0.0
 40
7.941966794685592
100
AcDbArc
 50
73.50580821912308
 51
81.55029468933955
  0
ARC
  5
2A8
330
2
100
AcDbEntity
  8
KIJUN
 62
     7
100
AcDbCircle
 10
284.6923004691081
 20
62.93456567153858
 30
0.0
 40
2.6
100
AcDbArc
 50
117.8020418940034
 51
178.667746007708
  0
ARC
  5
2A9
330
2
100
AcDbEntity
  8
KIJUN
 62
     7
100
AcDbCircle
 10
290.7253350138621
 20
67.11932979213035
 30
0.0
 40
2.420726124157759
100
AcDbArc
 50
55.81957354241068
 51
111.9701176008545
  0
ARC
  5
2AA
330
2
100
AcDbEntity
  8
KIJUN
 62
     7
100
AcDbCircle
 10
290.1909573322694
 20
66.51150812469035
 30
0.0
 40
2.383785204801164
100
AcDbArc
 50
53.23198635365302
 51
100.7200030206912
  0
ARC
  5
2AB
330
2
100
AcDbEntity
  8
KIJUN
 62
     7
100
AcDbCircle
 10
297.0840528517541
 20
68.02152409283046
 30
0.0
 40
1.468037716610484
100
AcDbArc
 50
73.80615848752947
 51
140.6195186193183
  0
ARC
  5
2AC
330
2
100
AcDbEntity
  8
KIJUN
 62
     7
100
AcDbCircle
 10
297.7572147855942
 20
67.70482888887084
 30
0.0
 40
1.243192705900487
100
AcDbArc
 50
94.56336777018673
 51
173.0374990346018
  0
ARC
  5
2AD
330
2
100
AcDbEntity
  8
KIJUN
 62
     7
100
AcDbCircle
 10
293.9468912760665
 20
67.42706239370949
 30
0.0
 40
2.517557390391985
100
AcDbArc
 50
37.30780957415443
 51
137.6839964278039
  0
ARC
  5
2AE
330
2
100
AcDbEntity
  8
KIJUN
 62
     7
100
AcDbCircle
 10
290.7635082676417
 20
65.74642650489654
 30
0.0
 40
6.133697208539356
100
AcDbArc
 50
335.5425421826853
 51
20.11191035701802
  0
ARC
  5
2AF
330
2
100
AcDbEntity
  8
KIJUN
 62
     7
100
AcDbCircle
 10
301.9687028614273
 20
65.35794975443327
 30
0.0
 40
10.79459167972319
100
AcDbArc
 50
163.5149617427422
 51
192.398061717394
  0
ARC
  5
2B0
330
2
100
AcDbEntity
  8
KIJUN
 62
     7
100
AcDbCircle
 10
289.8168862058217
 20
69.10427568660221
 30
0.0
 40
0.26
100
AcDbArc
 50
89.38305508701628
 51
254.5333960972705
  0
ARC
  5
2B1
330
2
100
AcDbEntity
  8
KIJUN
 62
     7
100
AcDbCircle
 10
285.3748619376164
 20
67.0832272262955
 30
0.0
 40
2.067171992132617
100
AcDbArc
 50
243.0093697218203
 51
85.42836745986408
  0
ARC
  5
2B2
330
2
100
AcDbEntity
  8
KIJUN
 62
     7
100
AcDbCircle
 10
286.3685629147411
 20
79.5107344521824
 30
0.0
 40
10.4
100
AcDbArc
 50
253.5058082191231
 51
265.4283674598641
  0
ARC
  5
2B3
330
2
100
AcDbEntity
  8
KIJUN
 62
     7
100
AcDbCircle
 10
283.9646881324256
 20
64.31448606326734
 30
0.0
 40
1.04
100
AcDbArc
 50
63.00936972181374
 51
117.8020418940002
  0
ARC
  5
2B4
330
2
100
AcDbEntity
  8
KIJUN
 62
     7
100
AcDbCircle
 10
286.9355159251028
 20
62.27285773634406
 30
0.0
 40
2.342550189021227
100
AcDbArc
 50
78.35094202817687
 51
191.6213303997185
  0
ARC
  5
2B5
330
2
100
AcDbEntity
  8
KIJUN
 62
     7
100
AcDbCircle
 10
252.846799863278
 20
62.27285773634406
 30
0.0
 40
2.342550189021227
100
AcDbArc
 50
78.35094202817687
 51
191.6213303997185
  0
ARC
  5
2B6
330
2
100
AcDbEntity
  8
KIJUN
 62
     7
100
AcDbCircle
 10
265.890831818262
 20
62.27285773634406
 30
0.0
 40
2.342550189021227
100
AcDbArc
 50
348.3786696002813
 51
101.6490579718231
  0
ARC
  5
2B7
330
2
100
AcDbEntity
  8
KIJUN
 62
     7
100
AcDbCircle
 10
258.8794564672984
 20
67.42706239370949
 30
0.0
 40
2.517557390391985
100
AcDbArc
 50
42.31600357219599
 51
142.6921904258454
  0
ARC
  5
2B8
330
2
100
AcDbEntity
  8
KIJUN
 62
     7
100
AcDbCircle
 10
262.1010127295028
 20
67.11932979213035
 30
0.0
 40
2.420726124157759
100
AcDbArc
 50
68.02988239914544
 51
124.1804264575892
  0
ARC
  5
2B9
330
2
100
AcDbEntity
  8
KIJUN
 62
     7
100
AcDbCircle
 10
262.6353904110953
 20
66.51150812469035
 30
0.0
 40
2.383785204801164
100
AcDbArc
 50
79.2799969793088
 51
126.768013646347
  0
ARC
  5
2BA
330
2
100
AcDbEntity
  8
KIJUN
 62
     7
100
AcDbCircle
 10
250.8576448819374
 20
65.35794975443327
 30
0.0
 40
10.79459167972319
100
AcDbArc
 50
347.601938282605
 51
16.48503825725765
  0
ARC
  5
2BB
330
2
100
AcDbEntity
  8
KIJUN
 62
     7
100
AcDbCircle
 10
263.0094615375431
 20
69.10427568660221
 30
0.0
 40
0.26
100
AcDbArc
 50
285.4666039027295
 51
90.61694491298373
  0
ARC
  5
2BC
330
2
100
AcDbEntity
  8
KIJUN
 62
     7
100
AcDbCircle
 10
254.9490794946895
 20
63.60446507693215
 30
0.0
 40
1.581223681833198
100
AcDbArc
 50
315.2697749668179
 51
345.440495858583
  0
ARC
  5
2BD
330
2
100
AcDbEntity
  8
KIJUN
 62
     7
100
AcDbCircle
 10
255.7422948916104
 20
68.02152409283046
 30
0.0
 40
1.468037716610484
100
AcDbArc
 50
39.38048138068159
 51
106.1938415124705
  0
ARC
  5
2BE
330
2
100
AcDbEntity
  8
KIJUN
 62
     7
100
AcDbCircle
 10
255.0691329577705
 20
67.70482888887084
 30
0.0
 40
1.243192705900487
100
AcDbArc
 50
6.96250096539817
 51
85.43663222981328
  0
ARC
  5
2BF
330
2
100
AcDbEntity
  8
KIJUN
 62
     7
100
AcDbCircle
 10
262.0628394757225
 20
65.74642650489654
 30
0.0
 40
6.133697208539356
100
AcDbArc
 50
159.8880896429819
 51
204.4574578173146
  0
ARC
  5
2C0
330
2
100
AcDbEntity
  8
KIJUN
 62
     7
100
AcDbCircle
 10
255.286630467179
 20
69.17546147092245
 30
0.0
 40
0.26
100
AcDbArc
 50
79.75421755672186
 51
242.8639973842705
  0
ARC
  5
2C1
330
2
100
AcDbEntity
  8
KIJUN
 62
     7
100
AcDbCircle
 10
273.641261571637
 20
67.50542281219619
 30
0.0
 40
2.169746303695041
100
AcDbArc
 50
73.23997757048359
 51
104.2271242288081
  0
ARC
  5
2C2
330
2
100
AcDbEntity
  8
KIJUN
 62
     7
100
AcDbCircle
 10
268.7275801027146
 20
64.31448606326734
 30
0.0
 40
1.04
100
AcDbArc
 50
62.19795810599969
 51
116.9906302781861
  0
ARC
  5
2C3
330
2
100
AcDbEntity
  8
KIJUN
 62
     7
100
AcDbCircle
 10
267.9999677660319
 20
62.93456567153858
 30
0.0
 40
2.6
100
AcDbArc
 50
1.33225399229193
 51
62.19795810599649
  0
ARC
  5
2C4
330
2
100
AcDbEntity
  8
KIJUN
 62
     7
100
AcDbCircle
 10
273.0572092190407
 20
64.69952012883225
 30
0.0
 40
0.9528257579263044
100
AcDbArc
 50
339.674944777418
 51
72.56622896798511
  0
ARC
  5
2C5
330
2
100
AcDbEntity
  8
KIJUN
 62
     7
100
AcDbCircle
 10
267.7855643335968
 20
66.9365281323516
 30
0.0
 40
4.838296721884834
100
AcDbArc
 50
356.7259067728942
 51
7.403917443343901
  0
ARC
  5
2C6
330
2
100
AcDbEntity
  8
KIJUN
 62
     7
100
AcDbCircle
 10
273.6542661622891
 20
66.60080325029861
 30
0.0
 40
1.04
100
AcDbArc
 50
176.725906772897
 51
252.5662289679919
  0
ARC
  5
2C7
330
2
100
AcDbEntity
  8
KIJUN
 62
     7
100
AcDbCircle
 10
266.3237053203991
 20
79.5107344521824
 30
0.0
 40
10.4
100
AcDbArc
 50
274.5716325401359
 51
286.4941917808768
  0
ARC
  5
2C8
330
2
100
AcDbEntity
  8
KIJUN
 62
     7
100
AcDbCircle
 10
271.5313225129063
 20
61.9235667133552
 30
0.0
 40
7.941966794685592
100
AcDbArc
 50
98.44970531066048
 51
106.4941917808769
  0
ARC
  5
2C9
330
2
100
AcDbEntity
  8
KIJUN
 62
     7
100
AcDbCircle
 10
270.6954305495794
 20
67.89121729735207
 30
0.0
 40
1.916920883265328
100
AcDbArc
 50
350.0503785042168
 51
99.9465951632095
  0
ARC
  5
2CA
330
2
100
AcDbEntity
  8
KIJUN
 62
     7
100
AcDbCircle
 10
267.3174062975239
 20
67.0832272262955
 30
0.0
 40
2.067171992132617
100
AcDbArc
 50
94.57163254013591
 51
296.9906302781796
  0
ARC
  5
2CB
330
2
100
AcDbEntity
  8
KIJUN
 62
     7
100
AcDbCircle
 10
261.1805236971033
 20
63.89586123993279
 30
0.0
 40
13.73297992259408
100
AcDbArc
 50
350.7291521919634
 51
21.07879111137682
  0
ARC
  5
2CC
330
2
100
AcDbEntity
  8
KIJUN
 62
     7
100
AcDbCircle
 10
272.8072978827433
 20
66.50297649271118
 30
0.0
 40
2.616818318677879
100
AcDbArc
 50
63.01777818607469
 51
82.71866092891029
  0
ARC
  5
2CD
330
2
100
AcDbEntity
  8
KIJUN
 62
     7
100
AcDbCircle
 10
273.1719102873323
 20
69.35659549900805
 30
0.0
 40
0.26
100
AcDbArc
 50
104.2271242288215
 51
262.7186609289136
  0
ARC
  5
2CE
330
2
100
AcDbEntity
  8
KIJUN
 62
     7
100
AcDbCircle
 10
240.9769250276549
 20
63.65176058173499
 30
0.0
 40
6.416719871981105
100
AcDbArc
 50
67.56925018207031
 51
87.64462705879955
  0
ARC
  5
2CF
330
2
100
AcDbEntity
  8
KIJUN
 62
     7
100
AcDbCircle
 10
244.0510066635031
 20
67.50542281219619
 30
0.0
 40
2.169746303695041
100
AcDbArc
 50
75.77287577119192
 51
106.7600224295163
  0
ARC
  5
2D0
330
2
100
AcDbEntity
  8
KIJUN
 62
     7
100
AcDbCircle
 10
244.6350590160994
 20
64.69952012883225
 30
0.0
 40
0.9528257579263044
100
AcDbArc
 50
107.4337710320148
 51
200.325055222582
  0
ARC
  5
2D1
330
2
100
AcDbEntity
  8
KIJUN
 62
     7
100
AcDbCircle
 10
249.9067039015435
 20
66.9365281323516
 30
0.0
 40
4.838296721884834
100
AcDbArc
 50
172.596082556656
 51
183.2740932271059
  0
ARC
  5
2D2
330
2
100
AcDbEntity
  8
KIJUN
 62
     7
100
AcDbCircle
 10
244.0380020728511
 20
66.60080325029861
 30
0.0
 40
1.04
100
AcDbArc
 50
287.4337710320079
 51
3.274093227102877
  0
ARC
  5
2D3
330
2
100
AcDbEntity
  8
KIJUN
 62
     7
100
AcDbCircle
 10
244.8849703523968
 20
66.50297649271118
 30
0.0
 40
2.616818318677879
100
AcDbArc
 50
97.28133907108972
 51
116.9822218139252
  0
ARC
  5
2D4
330
2
100
AcDbEntity
  8
KIJUN
 62
     7
100
AcDbCircle
 10
244.5203579478079
 20
69.35659549900805
 30
0.0
 40
0.26
100
AcDbArc
 50
277.2813390710865
 51
75.77287577117847
  0
ARC
  5
2D5
330
2
100
AcDbEntity
  8
KIJUN
 62
     7
100
AcDbCircle
 10
250.3748619376163
 20
67.0832272262955
 30
0.0
 40
2.067171992132617
100
AcDbArc
 50
243.0093697218203
 51
85.42836745986408
  0
ARC
  5
2D6
330
2
100
AcDbEntity
  8
KIJUN
 62
     7
100
AcDbCircle
 10
246.1609457222337
 20
61.9235667133552
 30
0.0
 40
7.941966794685592
100
AcDbArc
 50
73.50580821912308
 51
81.55029468933955
  0
ARC
  5
2D7
330
2
100
AcDbEntity
  8
KIJUN
 62
     7
100
AcDbCircle
 10
246.9968376855607
 20
67.89121729735207
 30
0.0
 40
1.916920883265328
100
AcDbArc
 50
80.05340483679052
 51
189.949621495783
  0
ARC
  5
2D8
330
2
100
AcDbEntity
  8
KIJUN
 62
     7
100
AcDbCircle
 10
248.9646881324253
 20
64.31448606326734
 30
0.0
 40
1.04
100
AcDbArc
 50
63.00936972181374
 51
117.8020418940002
  0
ARC
  5
2D9
330
2
100
AcDbEntity
  8
KIJUN
 62
     7
100
AcDbCircle
 10
249.6923004691083
 20
62.93456567153858
 30
0.0
 40
2.6
100
AcDbArc
 50
117.8020418940034
 51
178.667746007708
  0
ARC
  5
2DA
330
2
100
AcDbEntity
  8
KIJUN
 62
     7
100
AcDbCircle
 10
256.5117445380368
 20
63.89586123993279
 30
0.0
 40
13.73297992259408
100
AcDbArc
 50
158.9212088886231
 51
189.2708478080365
  0
ARC
  5
2DB
330
2
100
AcDbEntity
  8
KIJUN
 62
     7
100
AcDbCircle
 10
251.3685629147409
 20
79.5107344521824
 30
0.0
 40
10.4
100
AcDbArc
 50
253.5058082191231
 51
265.4283674598641
  0
ARC
  5
2DC
330
2
100
AcDbEntity
  8
KIJUN
 62
     7
100
AcDbCircle
 10
297.5397172761848
 20
69.17546147092245
 30
0.0
 40
0.26
100
AcDbArc
 50
297.1360026157295
 51
100.2457824432781
  0
ARC
  5
2DD
330
2
100
AcDbEntity
  8
KIJUN
 62
     7
100
AcDbCircle
 10
238.2200554517673
 20
61.58041423221305
 30
0.0
 40
4.153878782694281
100
AcDbArc
 50
241.0365443717784
 51
316.6497526828844
  0
ARC
  5
2DE
330
2
100
AcDbEntity
  8
KIJUN
 62
     7
100
AcDbCircle
 10
236.4603435751499
 20
58.40102921013606
 30
0.0
 40
0.5200000000000001
100
AcDbArc
 50
113.172893530061
 51
241.0365443717751
  0
ARC
  5
2DF
330
2
100
AcDbEntity
  8
KIJUN
 62
     7
100
AcDbCircle
 10
234.0216909885818
 20
59.68566077353667
 30
0.0
 40
1.56
100
AcDbArc
 50
282.8963807528546
 51
311.6620978266835
  0
ARC
  5
2E0
330
2
100
AcDbEntity
  8
KIJUN
 62
     7
100
AcDbCircle
 10
230.1132536584739
 20
76.75574920224329
 30
0.0
 40
19.07181890402107
100
AcDbArc
 50
279.6298557558726
 51
282.8963807528547
  0
ARC
  5
2E1
330
2
100
AcDbEntity
  8
KIJUN
 62
     7
100
AcDbCircle
 10
233.2601419064756
 20
58.20900757919067
 30
0.0
 40
0.26
100
AcDbArc
 50
121.7198393826598
 51
279.6298557558658
  0
ARC
  5
2E2
330
2
100
AcDbEntity
  8
KIJUN
 62
     7
100
AcDbCircle
 10
303.2601419064755
 20
58.20900757919067
 30
0.0
 40
0.26
100
AcDbArc
 50
121.7198393826598
 51
279.6298557558658
  0
ARC
  5
2E3
330
2
100
AcDbEntity
  8
KIJUN
 62
     7
100
AcDbCircle
 10
316.8650562214277
 20
58.40102921013606
 30
0.0
 40
0.5200000000000001
100
AcDbArc
 50
298.9634556282248
 51
66.82710646993891
  0
ARC
  5
2E4
330
2
100
AcDbEntity
  8
KIJUN
 62
     7
100
AcDbCircle
 10
316.8650562214263
 20
58.40102921013606
 30
0.0
 40
0.5200000000000001
100
AcDbArc
 50
298.9634556282248
 51
66.82710646993891
  0
ARC
  5
2E5
330
2
100
AcDbEntity
  8
KIJUN
 62
     7
100
AcDbCircle
 10
322.5790145766662
 20
76.75574920224329
 30
0.0
 40
19.07181890402107
100
AcDbArc
 50
257.1036192471453
 51
260.3701442441275
  0
ARC
  5
2E6
330
2
100
AcDbEntity
  8
KIJUN
 62
     7
100
AcDbCircle
 10
319.4321263286644
 20
58.20900757919067
 30
0.0
 40
0.26
100
AcDbArc
 50
260.3701442441341
 51
58.28016061734019
  0
ARC
  5
2E7
330
2
100
AcDbEntity
  8
KIJUN
 62
     7
100
AcDbCircle
 10
318.6705772465582
 20
59.68566077353667
 30
0.0
 40
1.56
100
AcDbArc
 50
228.3379021733165
 51
257.1036192471455
  0
ARC
  5
2E8
330
2
100
AcDbEntity
  8
KIJUN
 62
     7
100
AcDbCircle
 10
304.021690988582
 20
59.68566077353667
 30
0.0
 40
1.56
100
AcDbArc
 50
282.8963807528546
 51
311.6620978266835
  0
ARC
  5
2E9
330
2
100
AcDbEntity
  8
KIJUN
 62
     7
100
AcDbCircle
 10
300.1132536584738
 20
76.75574920224329
 30
0.0
 40
19.07181890402107
100
AcDbArc
 50
279.6298557558726
 51
282.8963807528547
  0
ARC
  5
2EA
330
2
100
AcDbEntity
  8
KIJUN
 62
     7
100
AcDbCircle
 10
308.2200554517675
 20
61.58041423221305
 30
0.0
 40
4.153878782694281
100
AcDbArc
 50
241.0365443717784
 51
316.6497526828844
  0
ARC
  5
2EB
330
2
100
AcDbEntity
  8
KIJUN
 62
     7
100
AcDbCircle
 10
306.4603435751498
 20
58.40102921013606
 30
0.0
 40
0.5200000000000001
100
AcDbArc
 50
113.172893530061
 51
241.0365443717751
  0
ARC
  5
2EC
330
2
100
AcDbEntity
  8
KIJUN
 62
     7
100
AcDbCircle
 10
314.7864971752753
 20
62.8991329976281
 30
0.0
 40
5.473892038690804
100
AcDbArc
 50
229.625793112415
 51
295.1965301067214
  0
ARC
  5
2ED
330
2
100
AcDbEntity
  8
KIJUN
 62
     7
100
AcDbCircle
 10
272.905771059865
 20
62.8991329976281
 30
0.0
 40
5.473892038690804
100
AcDbArc
 50
244.8034698932783
 51
310.3742068875849
  0
ARC
  5
2EE
330
2
100
AcDbEntity
  8
KIJUN
 62
     7
100
AcDbCircle
 10
281.2319246599903
 20
58.40102921013606
 30
0.0
 40
0.5200000000000001
100
AcDbArc
 50
298.9634556282248
 51
66.82710646993891
  0
ARC
  5
2EF
330
2
100
AcDbEntity
  8
KIJUN
 62
     7
100
AcDbCircle
 10
279.4722127833728
 20
61.58041423221305
 30
0.0
 40
4.153878782694281
100
AcDbArc
 50
223.3502473171153
 51
298.9634556282215
  0
ARC
  5
2F0
330
2
100
AcDbEntity
  8
KIJUN
 62
     7
100
AcDbCircle
 10
287.5790145766662
 20
76.75574920224329
 30
0.0
 40
19.07181890402107
100
AcDbArc
 50
257.1036192471453
 51
260.3701442441275
  0
ARC
  5
2F1
330
2
100
AcDbEntity
  8
KIJUN
 62
     7
100
AcDbCircle
 10
284.4321263286644
 20
58.20900757919067
 30
0.0
 40
0.26
100
AcDbArc
 50
260.3701442441341
 51
58.28016061734019
  0
ARC
  5
2F2
330
2
100
AcDbEntity
  8
KIJUN
 62
     7
100
AcDbCircle
 10
295.2649689987591
 20
56.31674866637826
 30
0.0
 40
1.56
100
AcDbArc
 50
82.16061694877096
 51
109.44802973871
  0
ARC
  5
2F3
330
2
100
AcDbEntity
  8
KIJUN
 62
     7
100
AcDbCircle
 10
293.578669060257
 20
87.10885866951953
 30
0.0
 40
29.95708423381952
100
AcDbArc
 50
261.7217844892822
 51
278.0197889126592
  0
ARC
  5
2F4
330
2
100
AcDbEntity
  8
KIJUN
 62
     7
100
AcDbCircle
 10
283.6705772465581
 20
59.68566077353667
 30
0.0
 40
1.56
100
AcDbArc
 50
228.3379021733165
 51
257.1036192471455
  0
ARC
  5
2F5
330
2
100
AcDbEntity
  8
KIJUN
 62
     7
100
AcDbCircle
 10
259.2476786831079
 20
87.10885866951953
 30
0.0
 40
29.95708423381952
100
AcDbArc
 50
261.9802110873408
 51
278.2782155107177
  0
ARC
  5
2F6
330
2
100
AcDbEntity
  8
KIJUN
 62
     7
100
AcDbCircle
 10
257.5613787446056
 20
56.31674866637826
 30
0.0
 40
1.56
100
AcDbArc
 50
70.55197026129
 51
97.83938305122902
  0
ARC
  5
2F7
330
2
100
AcDbEntity
  8
KIJUN
 62
     7
100
AcDbCircle
 10
269.0216909885819
 20
59.68566077353667
 30
0.0
 40
1.56
100
AcDbArc
 50
282.8963807528546
 51
311.6620978266835
  0
ARC
  5
2F8
330
2
100
AcDbEntity
  8
KIJUN
 62
     7
100
AcDbCircle
 10
268.2601419064757
 20
58.20900757919067
 30
0.0
 40
0.26
100
AcDbArc
 50
121.7198393826598
 51
279.6298557558658
  0
ARC
  5
2F9
330
2
100
AcDbEntity
  8
KIJUN
 62
     7
100
AcDbCircle
 10
265.1132536584739
 20
76.75574920224329
 30
0.0
 40
19.07181890402107
100
AcDbArc
 50
279.6298557558726
 51
282.8963807528547
  0
ARC
  5
2FA
330
2
100
AcDbEntity
  8
KIJUN
 62
     7
100
AcDbCircle
 10
270.8272120137138
 20
58.40102921013606
 30
0.0
 40
0.5200000000000001
100
AcDbArc
 50
113.172893530061
 51
241.0365443717751
  0
ARC
  5
2FB
330
2
100
AcDbEntity
  8
KIJUN
 62
     7
100
AcDbCircle
 10
270.8272120137123
 20
58.40102921013606
 30
0.0
 40
0.5200000000000001
100
AcDbArc
 50
113.172893530061
 51
241.0365443717751
  0
ARC
  5
2FC
330
2
100
AcDbEntity
  8
KIJUN
 62
     7
100
AcDbCircle
 10
244.7864971752752
 20
62.8991329976281
 30
0.0
 40
5.473892038690804
100
AcDbArc
 50
229.625793112415
 51
295.1965301067214
  0
ARC
  5
2FD
330
2
100
AcDbEntity
  8
KIJUN
 62
     7
100
AcDbCircle
 10
248.6705772465581
 20
59.68566077353667
 30
0.0
 40
1.56
100
AcDbArc
 50
228.3379021733165
 51
257.1036192471455
  0
ARC
  5
2FE
330
2
100
AcDbEntity
  8
KIJUN
 62
     7
100
AcDbCircle
 10
249.4321263286644
 20
58.20900757919067
 30
0.0
 40
0.26
100
AcDbArc
 50
260.3701442441341
 51
58.28016061734019
  0
ARC
  5
2FF
330
2
100
AcDbEntity
  8
KIJUN
 62
     7
100
AcDbCircle
 10
252.5790145766662
 20
76.75574920224329
 30
0.0
 40
19.07181890402107
100
AcDbArc
 50
257.1036192471453
 51
260.3701442441275
  0
ARC
  5
300
330
2
100
AcDbEntity
  8
KIJUN
 62
     7
100
AcDbCircle
 10
246.8650562214263
 20
58.40102921013606
 30
0.0
 40
0.5200000000000001
100
AcDbArc
 50
298.9634556282248
 51
66.82710646993891
  0
ARC
  5
301
330
2
100
AcDbEntity
  8
KIJUN
 62
     7
100
AcDbCircle
 10
246.8650562214278
 20
58.40102921013606
 30
0.0
 40
0.5200000000000001
100
AcDbArc
 50
298.9634556282248
 51
66.82710646993891
  0
ARC
  5
302
330
2
100
AcDbEntity
  8
KIJUN
 62
     7
100
AcDbCircle
 10
300.3770205840886
 20
62.87356533619544
 30
0.0
 40
5.223656410465215
100
AcDbArc
 50
301.7198393826596
 51
1.332253992292437
  0
ARC
  5
303
330
2
100
AcDbEntity
  8
KIJUN
 62
     7
100
AcDbCircle
 10
303.1865427493718
 20
63.98534252447614
 30
0.0
 40
5.776891197506127
100
AcDbArc
 50
288.9094475791
 51
3.803583475449172
  0
ARC
  5
304
330
2
100
AcDbEntity
  8
KIJUN
 62
     7
100
AcDbCircle
 10
303.0077369468302
 20
66.4671009142116
 30
0.0
 40
8.253938982304662
100
AcDbArc
 50
293.1728935300508
 51
340.8884391399514
  0
ARC
  5
305
330
2
100
AcDbEntity
  8
KIJUN
 62
     7
100
AcDbCircle
 10
320.4378684043017
 20
68.02026582480306
 30
0.0
 40
9.741972963138847
100
AcDbArc
 50
205.9017258557712
 51
249.7730328813659
  0
ARC
  5
306
330
2
100
AcDbEntity
  8
KIJUN
 62
     7
100
AcDbCircle
 10
319.5057254857684
 20
63.98534252447614
 30
0.0
 40
5.776891197506127
100
AcDbArc
 50
176.1964165245507
 51
251.0905524209
  0
ARC
  5
307
330
2
100
AcDbEntity
  8
KIJUN
 62
     7
100
AcDbCircle
 10
322.3152476510516
 20
62.87356533619544
 30
0.0
 40
5.223656410465215
100
AcDbArc
 50
178.6677460077074
 51
238.2801606173404
  0
ARC
  5
308
330
2
100
AcDbEntity
  8
KIJUN
 62
     7
100
AcDbCircle
 10
254.4413259075843
 20
61.3137534719139
 30
0.0
 40
3.919454668628717
100
AcDbArc
 50
172.8592735509333
 51
279.2035498780755
  0
ARC
  5
309
330
2
100
AcDbEntity
  8
KIJUN
 62
     7
100
AcDbCircle
 10
258.7223502069185
 20
63.25048844068618
 30
0.0
 40
5.5606808285325
100
AcDbArc
 50
166.303308976409
 51
255.6971566947898
  0
ARC
  5
30A
330
2
100
AcDbEntity
  8
KIJUN
 62
     7
100
AcDbCircle
 10
260.015281474621
 20
63.25048844068618
 30
0.0
 40
5.5606808285325
100
AcDbArc
 50
284.3028433052102
 51
13.69669102359089
  0
ARC
  5
30B
330
2
100
AcDbEntity
  8
KIJUN
 62
     7
100
AcDbCircle
 10
264.2963057739555
 20
61.3137534719139
 30
0.0
 40
3.919454668628717
100
AcDbArc
 50
259.1854946264121
 51
7.140726449066629
  0
ARC
  5
30C
330
2
100
AcDbEntity
  8
KIJUN
 62
     7
100
AcDbCircle
 10
259.3688158407703
 20
60.64903415685781
 30
0.0
 40
3.137837695821676
100
AcDbArc
 50
245.7647518419246
 51
49.64815694151395
  0
ARC
  5
30D
330
2
100
AcDbEntity
  8
KIJUN
 62
     7
100
AcDbCircle
 10
258.184941711142
 20
60.58335372711457
 30
0.0
 40
2.846807218628122
100
AcDbArc
 50
137.9076244630808
 51
252.9154668072315
  0
ARC
  5
30E
330
2
100
AcDbEntity
  8
KIJUN
 62
     7
100
AcDbCircle
 10
265.3770205840887
 20
62.87356533619544
 30
0.0
 40
5.223656410465215
100
AcDbArc
 50
301.7198393826596
 51
1.332253992292437
  0
ARC
  5
30F
330
2
100
AcDbEntity
  8
KIJUN
 62
     7
100
AcDbCircle
 10
268.1865427493717
 20
63.98534252447614
 30
0.0
 40
5.776891197506127
100
AcDbArc
 50
288.9094475791
 51
3.803583475449172
  0
ARC
  5
310
330
2
100
AcDbEntity
  8
KIJUN
 62
     7
100
AcDbCircle
 10
267.2543998308386
 20
68.02026582480306
 30
0.0
 40
9.741972963138847
100
AcDbArc
 50
290.2269671186342
 51
334.0982741442287
  0
ARC
  5
311
330
2
100
AcDbEntity
  8
KIJUN
 62
     7
100
AcDbCircle
 10
284.6845312883099
 20
66.4671009142116
 30
0.0
 40
8.253938982304662
100
AcDbArc
 50
199.1115608600486
 51
246.8271064699492
  0
ARC
  5
312
330
2
100
AcDbEntity
  8
KIJUN
 62
     7
100
AcDbCircle
 10
284.5057254857683
 20
63.98534252447614
 30
0.0
 40
5.776891197506127
100
AcDbArc
 50
176.1964165245507
 51
251.0905524209
  0
ARC
  5
313
330
2
100
AcDbEntity
  8
KIJUN
 62
     7
100
AcDbCircle
 10
294.6414060322229
 20
60.58335372711457
 30
0.0
 40
2.846807218628122
100
AcDbArc
 50
287.0845331927653
 51
42.09237553691919
  0
ARC
  5
314
330
2
100
AcDbEntity
  8
KIJUN
 62
     7
100
AcDbCircle
 10
293.4575319025945
 20
60.64903415685781
 30
0.0
 40
3.137837695821676
100
AcDbArc
 50
130.351843058486
 51
294.2352481580754
  0
ARC
  5
315
330
2
100
AcDbEntity
  8
KIJUN
 62
     7
100
AcDbCircle
 10
298.3850218357803
 20
61.3137534719139
 30
0.0
 40
3.919454668628717
100
AcDbArc
 50
260.7964501219245
 51
7.140726449066629
  0
ARC
  5
316
330
2
100
AcDbEntity
  8
KIJUN
 62
     7
100
AcDbCircle
 10
294.1039975364462
 20
63.25048844068618
 30
0.0
 40
5.5606808285325
100
AcDbArc
 50
284.3028433052102
 51
13.69669102359089
  0
ARC
  5
317
330
2
100
AcDbEntity
  8
KIJUN
 62
     7
100
AcDbCircle
 10
292.811066268743
 20
63.25048844068618
 30
0.0
 40
5.5606808285325
100
AcDbArc
 50
166.303308976409
 51
255.6971566947898
  0
ARC
  5
318
330
2
100
AcDbEntity
  8
KIJUN
 62
     7
100
AcDbCircle
 10
288.5300419694092
 20
61.3137534719139
 30
0.0
 40
3.919454668628717
100
AcDbArc
 50
172.8592735509333
 51
280.8145053735879
  0
ARC
  5
319
330
2
100
AcDbEntity
  8
KIJUN
 62
     7
100
AcDbCircle
 10
287.3152476510516
 20
62.87356533619544
 30
0.0
 40
5.223656410465215
100
AcDbArc
 50
178.6677460077074
 51
238.2801606173404
  0
ARC
  5
31A
330
2
100
AcDbEntity
  8
KIJUN
 62
     7
100
AcDbCircle
 10
252.3152476510515
 20
62.87356533619544
 30
0.0
 40
5.223656410465215
100
AcDbArc
 50
178.6677460077074
 51
238.2801606173404
  0
ARC
  5
31B
330
2
100
AcDbEntity
  8
KIJUN
 62
     7
100
AcDbCircle
 10
249.5057254857683
 20
63.98534252447614
 30
0.0
 40
5.776891197506127
100
AcDbArc
 50
176.1964165245507
 51
251.0905524209
  0
ARC
  5
31C
330
2
100
AcDbEntity
  8
KIJUN
 62
     7
100
AcDbCircle
 10
233.0077369468301
 20
66.4671009142116
 30
0.0
 40
8.253938982304662
100
AcDbArc
 50
293.1728935300508
 51
340.8884391399514
  0
ARC
  5
31D
330
2
100
AcDbEntity
  8
KIJUN
 62
     7
100
AcDbCircle
 10
250.4378684043015
 20
68.02026582480306
 30
0.0
 40
9.741972963138847
100
AcDbArc
 50
205.9017258557712
 51
249.7730328813659
  0
ARC
  5
31E
330
2
100
AcDbEntity
  8
KIJUN
 62
     7
100
AcDbCircle
 10
233.1865427493717
 20
63.98534252447614
 30
0.0
 40
5.776891197506127
100
AcDbArc
 50
288.9094475791
 51
3.803583475449157
  0
ARC
  5
31F
330
2
100
AcDbEntity
  8
KIJUN
 62
     7
100
AcDbCircle
 10
230.3770205840885
 20
62.87356533619544
 30
0.0
 40
5.223656410465215
100
AcDbArc
 50
301.7198393826596
 51
1.332253992292432
  0
ARC
  5
320
330
2
100
AcDbEntity
  8
KIJUN
  6
Continuous
 62
     7
100
AcDbCircle
 10
289.1884010111096
 20
28.21762363362831
 30
0.0
 40
1.112325491518459
100
AcDbArc
 50
229.3981480000003
 51
310.6011049999988
  0
ARC
  5
321
330
2
100
AcDbEntity
  8
KIJUN
  6
Continuous
 62
     7
100
AcDbCircle
 10
286.7405305252892
 20
25.32267482449122
 30
0.0
 40
2.678857797857965
100
AcDbArc
 50
49.94295487903014
 51
107.2045338811974
  0
ARC
  5
322
330
2
100
AcDbEntity
  8
KIJUN
 62
     7
100
AcDbCircle
 10
282.4914401562821
 20
32.91787972166292
 30
0.0
 40
6.108388265849264
100
AcDbArc
 50
287.4354925237405
 51
8.28066246144143
  0
ARC
  5
323
330
2
100
AcDbEntity
  8
KIJUN
 62
     7
100
AcDbCircle
 10
284.1718919072881
 20
27.56716940871792
 30
0.0
 40
0.5
100
AcDbArc
 50
252.5645074762663
 51
287.4354925237337
  0
ARC
  5
324
330
2
100
AcDbEntity
  8
KIJUN
 62
     7
100
AcDbCircle
 10
281.7799450396199
 20
32.91787972166292
 30
0.0
 40
6.108388265849264
100
AcDbArc
 50
295.2452984501335
 51
8.28066246144143
  0
ARC
  5
325
330
2
100
AcDbEntity
  8
KIJUN
 62
     7
100
AcDbCircle
 10
284.1718919072881
 20
27.84514780259126
 30
0.0
 40
0.5
100
AcDbArc
 50
244.754701549881
 51
295.245298450119
  0
ARC
  5
326
330
2
100
AcDbEntity
  8
KIJUN
 62
     7
100
AcDbCircle
 10
294.1718919072881
 20
27.84514780259126
 30
0.0
 40
0.5
100
AcDbArc
 50
244.754701549881
 51
295.245298450119
  0
ARC
  5
327
330
2
100
AcDbEntity
  8
KIJUN
 62
     7
100
AcDbCircle
 10
294.1718919072881
 20
27.56716940871792
 30
0.0
 40
0.5
100
AcDbArc
 50
252.5645074762663
 51
287.4354925237337
  0
ARC
  5
328
330
2
100
AcDbEntity
  8
KIJUN
 62
     7
100
AcDbCircle
 10
291.7799450396199
 20
32.91787972166292
 30
0.0
 40
6.108388265849264
100
AcDbArc
 50
295.2452984501335
 51
8.28066246144143
  0
ARC
  5
329
330
2
100
AcDbEntity
  8
KIJUN
  6
Continuous
 62
     7
100
AcDbCircle
 10
291.603253289287
 20
25.32267482449122
 30
0.0
 40
2.678857797858098
100
AcDbArc
 50
72.79546611880244
 51
130.0570451209698
  0
ARC
  5
32A
330
2
100
AcDbEntity
  8
KIJUN
 62
     7
100
AcDbCircle
 10
296.5638387749562
 20
32.91787972166292
 30
0.0
 40
6.108388265849264
100
AcDbArc
 50
171.7193375385585
 51
244.7547015498664
  0
ARC
  5
32B
330
2
100
AcDbEntity
  8
KIJUN
 62
     7
100
AcDbCircle
 10
295.8523436582938
 20
32.91787972166292
 30
0.0
 40
6.108388265849264
100
AcDbArc
 50
171.7193375385585
 51
252.5645074762595
  0
ARC
  5
32C
330
2
100
AcDbEntity
  8
KIJUN
  6
Continuous
 62
     7
100
AcDbCircle
 10
301.6032532892868
 20
25.32267482449122
 30
0.0
 40
2.678857797857965
100
AcDbArc
 50
72.79546611880244
 51
130.0570451209698
  0
ARC
  5
32D
330
2
100
AcDbEntity
  8
KIJUN
  6
Continuous
 62
     7
100
AcDbCircle
 10
296.7405305252892
 20
25.32267482449122
 30
0.0
 40
2.678857797858098
100
AcDbArc
 50
49.94295487903014
 51
107.2045338811974
  0
ARC
  5
32E
330
2
100
AcDbEntity
  8
KIJUN
  6
Continuous
 62
     7
100
AcDbCircle
 10
299.1553828034664
 20
28.21762363362831
 30
0.0
 40
1.112325491518459
100
AcDbArc
 50
229.3988950000011
 51
310.6018519999996
  0
ARC
  5
32F
330
2
100
AcDbEntity
  8
KIJUN
 62
     7
100
AcDbCircle
 10
292.491440156282
 20
32.91787972166292
 30
0.0
 40
6.108388265849264
100
AcDbArc
 50
287.4354925237405
 51
8.28066246144143
  0
ARC
  5
330
330
2
100
AcDbEntity
  8
KIJUN
  6
Continuous
 62
     7
100
AcDbCircle
 10
319.1884010111096
 20
28.21762363362831
 30
0.0
 40
1.112325491518459
100
AcDbArc
 50
229.3981480000003
 51
310.6011049999988
  0
ARC
  5
331
330
2
100
AcDbEntity
  8
KIJUN
  6
Continuous
 62
     7
100
AcDbCircle
 10
316.7405305252892
 20
25.32267482449122
 30
0.0
 40
2.678857797857965
100
AcDbArc
 50
49.94295487903014
 51
107.2045338811974
  0
ARC
  5
332
330
2
100
AcDbEntity
  8
KIJUN
 62
     7
100
AcDbCircle
 10
311.7799450396199
 20
32.91787972166292
 30
0.0
 40
6.108388265849264
100
AcDbArc
 50
295.2452984501335
 51
8.28066246144143
  0
ARC
  5
333
330
2
100
AcDbEntity
  8
KIJUN
 62
     7
100
AcDbCircle
 10
312.4914401562821
 20
32.91787972166292
 30
0.0
 40
6.108388265849264
100
AcDbArc
 50
287.4354925237405
 51
8.28066246144143
  0
ARC
  5
334
330
2
100
AcDbEntity
  8
KIJUN
  6
Continuous
 62
     7
100
AcDbCircle
 10
311.6032532892869
 20
25.32267482449122
 30
0.0
 40
2.678857797857965
100
AcDbArc
 50
72.79546611880244
 51
130.0570451209698
  0
ARC
  5
335
330
2
100
AcDbEntity
  8
KIJUN
  6
Continuous
 62
     7
100
AcDbCircle
 10
309.1553828034664
 20
28.21762363362831
 30
0.0
 40
1.112325491518459
100
AcDbArc
 50
229.3988950000011
 51
310.6018519999996
  0
ARC
  5
336
330
2
100
AcDbEntity
  8
KIJUN
 62
     7
100
AcDbCircle
 10
315.8523436582938
 20
32.91787972166292
 30
0.0
 40
6.108388265849264
100
AcDbArc
 50
171.7193375385585
 51
252.5645074762595
  0
ARC
  5
337
330
2
100
AcDbEntity
  8
KIJUN
 62
     7
100
AcDbCircle
 10
316.5638387749563
 20
32.91787972166292
 30
0.0
 40
6.108388265849264
100
AcDbArc
 50
171.7193375385585
 51
244.7547015498664
  0
ARC
  5
338
330
2
100
AcDbEntity
  8
KIJUN
 62
     7
100
AcDbCircle
 10
301.7799450396199
 20
32.91787972166292
 30
0.0
 40
6.108388265849264
100
AcDbArc
 50
295.2452984501335
 51
8.28066246144143
  0
ARC
  5
339
330
2
100
AcDbEntity
  8
KIJUN
 62
     7
100
AcDbCircle
 10
302.4914401562821
 20
32.91787972166292
 30
0.0
 40
6.108388265849264
100
AcDbArc
 50
287.4354925237405
 51
8.28066246144143
  0
ARC
  5
33A
330
2
100
AcDbEntity
  8
KIJUN
  6
Continuous
 62
     7
100
AcDbCircle
 10
306.7405305252892
 20
25.32267482449122
 30
0.0
 40
2.678857797858098
100
AcDbArc
 50
49.94295487903014
 51
107.2045338811974
  0
ARC
  5
33B
330
2
100
AcDbEntity
  8
KIJUN
 62
     7
100
AcDbCircle
 10
305.8523436582938
 20
32.91787972166292
 30
0.0
 40
6.108388265849264
100
AcDbArc
 50
171.7193375385585
 51
252.5645074762595
  0
ARC
  5
33C
330
2
100
AcDbEntity
  8
KIJUN
 62
     7
100
AcDbCircle
 10
306.5638387749562
 20
32.91787972166292
 30
0.0
 40
6.108388265849264
100
AcDbArc
 50
171.7193375385585
 51
244.7547015498664
  0
ARC
  5
33D
330
2
100
AcDbEntity
  8
KIJUN
 62
     7
100
AcDbCircle
 10
304.1718919072879
 20
27.56716940871792
 30
0.0
 40
0.5
100
AcDbArc
 50
252.5645074762663
 51
287.4354925237337
  0
ARC
  5
33E
330
2
100
AcDbEntity
  8
KIJUN
 62
     7
100
AcDbCircle
 10
304.1718919072879
 20
27.84514780259126
 30
0.0
 40
0.5
100
AcDbArc
 50
244.754701549881
 51
295.245298450119
  0
ARC
  5
33F
330
2
100
AcDbEntity
  8
KIJUN
 62
     7
100
AcDbCircle
 10
314.171891907288
 20
27.56716940871792
 30
0.0
 40
0.5
100
AcDbArc
 50
252.5645074762663
 51
287.4354925237337
  0
ARC
  5
340
330
2
100
AcDbEntity
  8
KIJUN
 62
     7
100
AcDbCircle
 10
314.171891907288
 20
27.84514780259126
 30
0.0
 40
0.5
100
AcDbArc
 50
244.754701549881
 51
295.245298450119
  0
ARC
  5
341
330
2
100
AcDbEntity
  8
KIJUN
 62
     7
100
AcDbCircle
 10
231.7799450396198
 20
32.91787972166292
 30
0.0
 40
6.108388265849264
100
AcDbArc
 50
295.2452984501335
 51
8.28066246144143
  0
ARC
  5
342
330
2
100
AcDbEntity
  8
KIJUN
 62
     7
100
AcDbCircle
 10
232.4914401562821
 20
32.91787972166292
 30
0.0
 40
6.108388265849264
100
AcDbArc
 50
287.4354925237405
 51
8.28066246144143
  0
ARC
  5
343
330
2
100
AcDbEntity
  8
KIJUN
  6
Continuous
 62
     7
100
AcDbCircle
 10
236.7405305252891
 20
25.32267482449122
 30
0.0
 40
2.678857797858098
100
AcDbArc
 50
49.94295487903014
 51
107.2045338811974
  0
ARC
  5
344
330
2
100
AcDbEntity
  8
KIJUN
 62
     7
100
AcDbCircle
 10
234.1718919072879
 20
27.56716940871792
 30
0.0
 40
0.5
100
AcDbArc
 50
252.5645074762663
 51
287.4354925237337
  0
ARC
  5
345
330
2
100
AcDbEntity
  8
KIJUN
 62
     7
100
AcDbCircle
 10
234.1718919072879
 20
27.84514780259126
 30
0.0
 40
0.5
100
AcDbArc
 50
244.754701549881
 51
295.245298450119
  0
ARC
  5
346
330
2
100
AcDbEntity
  8
KIJUN
 62
     7
100
AcDbCircle
 10
264.1718919072879
 20
27.84514780259126
 30
0.0
 40
0.5
100
AcDbArc
 50
244.754701549881
 51
295.245298450119
  0
ARC
  5
347
330
2
100
AcDbEntity
  8
KIJUN
 62
     7
100
AcDbCircle
 10
266.5638387749563
 20
32.91787972166292
 30
0.0
 40
6.108388265849264
100
AcDbArc
 50
171.7193375385585
 51
244.7547015498664
  0
ARC
  5
348
330
2
100
AcDbEntity
  8
KIJUN
 62
     7
100
AcDbCircle
 10
261.7799450396199
 20
32.91787972166292
 30
0.0
 40
6.108388265849264
100
AcDbArc
 50
295.2452984501335
 51
8.28066246144143
  0
ARC
  5
349
330
2
100
AcDbEntity
  8
KIJUN
 62
     7
100
AcDbCircle
 10
264.1718919072879
 20
27.56716940871792
 30
0.0
 40
0.5
100
AcDbArc
 50
252.5645074762663
 51
287.4354925237337
  0
ARC
  5
34A
330
2
100
AcDbEntity
  8
KIJUN
 62
     7
100
AcDbCircle
 10
262.491440156282
 20
32.91787972166292
 30
0.0
 40
6.108388265849264
100
AcDbArc
 50
287.4354925237405
 51
8.28066246144143
  0
ARC
  5
34B
330
2
100
AcDbEntity
  8
KIJUN
 62
     7
100
AcDbCircle
 10
265.8523436582939
 20
32.91787972166292
 30
0.0
 40
6.108388265849264
100
AcDbArc
 50
171.7193375385585
 51
252.5645074762595
  0
ARC
  5
34C
330
2
100
AcDbEntity
  8
KIJUN
 62
     7
100
AcDbCircle
 10
252.4914401562821
 20
32.91787972166292
 30
0.0
 40
6.108388265849264
100
AcDbArc
 50
287.4354925237405
 51
8.28066246144143
  0
ARC
  5
34D
330
2
100
AcDbEntity
  8
KIJUN
 62
     7
100
AcDbCircle
 10
251.7799450396199
 20
32.91787972166292
 30
0.0
 40
6.108388265849264
100
AcDbArc
 50
295.2452984501335
 51
8.28066246144143
  0
ARC
  5
34E
330
2
100
AcDbEntity
  8
KIJUN
 62
     7
100
AcDbCircle
 10
255.8523436582939
 20
32.91787972166292
 30
0.0
 40
6.108388265849264
100
AcDbArc
 50
171.7193375385585
 51
252.5645074762595
  0
ARC
  5
34F
330
2
100
AcDbEntity
  8
KIJUN
 62
     7
100
AcDbCircle
 10
256.5638387749562
 20
32.91787972166292
 30
0.0
 40
6.108388265849264
100
AcDbArc
 50
171.7193375385585
 51
244.7547015498664
  0
ARC
  5
350
330
2
100
AcDbEntity
  8
KIJUN
 62
     7
100
AcDbCircle
 10
254.1718919072879
 20
27.56716940871792
 30
0.0
 40
0.5
100
AcDbArc
 50
252.5645074762663
 51
287.4354925237337
  0
ARC
  5
351
330
2
100
AcDbEntity
  8
KIJUN
 62
     7
100
AcDbCircle
 10
254.1718919072879
 20
27.84514780259126
 30
0.0
 40
0.5
100
AcDbArc
 50
244.754701549881
 51
295.245298450119
  0
ARC
  5
352
330
2
100
AcDbEntity
  8
KIJUN
  6
Continuous
 62
     7
100
AcDbCircle
 10
256.7405305252893
 20
25.32267482449122
 30
0.0
 40
2.678857797858098
100
AcDbArc
 50
49.94295487903014
 51
107.2045338811974
  0
ARC
  5
353
330
2
100
AcDbEntity
  8
KIJUN
  6
Continuous
 62
     7
100
AcDbCircle
 10
261.6032532892869
 20
25.32267482449122
 30
0.0
 40
2.678857797857965
100
AcDbArc
 50
72.79546611880244
 51
130.0570451209698
  0
ARC
  5
354
330
2
100
AcDbEntity
  8
KIJUN
  6
Continuous
 62
     7
100
AcDbCircle
 10
259.1553828034664
 20
28.21762363362831
 30
0.0
 40
1.112325491518459
100
AcDbArc
 50
229.3988950000011
 51
310.6018519999996
  0
ARC
  5
355
330
2
100
AcDbEntity
  8
KIJUN
  6
Continuous
 62
     7
100
AcDbCircle
 10
269.1884010111095
 20
28.21762363362831
 30
0.0
 40
1.112325491518459
100
AcDbArc
 50
229.3981480000003
 51
310.6011049999988
  0
ARC
  5
356
330
2
100
AcDbEntity
  8
KIJUN
  6
Continuous
 62
     7
100
AcDbCircle
 10
266.7405305252891
 20
25.32267482449122
 30
0.0
 40
2.678857797857965
100
AcDbArc
 50
49.94295487903014
 51
107.2045338811974
  0
ARC
  5
357
330
2
100
AcDbEntity
  8
KIJUN
  6
Continuous
 62
     7
100
AcDbCircle
 10
271.603253289287
 20
25.32267482449122
 30
0.0
 40
2.678857797858098
100
AcDbArc
 50
72.79546611880244
 51
130.0570451209698
  0
ARC
  5
358
330
2
100
AcDbEntity
  8
KIJUN
 62
     7
100
AcDbCircle
 10
275.8523436582939
 20
32.91787972166292
 30
0.0
 40
6.108388265849264
100
AcDbArc
 50
171.7193375385585
 51
252.5645074762595
  0
ARC
  5
359
330
2
100
AcDbEntity
  8
KIJUN
 62
     7
100
AcDbCircle
 10
276.5638387749563
 20
32.91787972166292
 30
0.0
 40
6.108388265849264
100
AcDbArc
 50
171.7193375385585
 51
244.7547015498664
  0
ARC
  5
35A
330
2
100
AcDbEntity
  8
KIJUN
 62
     7
100
AcDbCircle
 10
274.171891907288
 20
27.84514780259126
 30
0.0
 40
0.5
100
AcDbArc
 50
244.754701549881
 51
295.245298450119
  0
ARC
  5
35B
330
2
100
AcDbEntity
  8
KIJUN
 62
     7
100
AcDbCircle
 10
274.171891907288
 20
27.56716940871792
 30
0.0
 40
0.5
100
AcDbArc
 50
252.5645074762663
 51
287.4354925237337
  0
ARC
  5
35C
330
2
100
AcDbEntity
  8
KIJUN
 62
     7
100
AcDbCircle
 10
271.7799450396199
 20
32.91787972166292
 30
0.0
 40
6.108388265849264
100
AcDbArc
 50
295.2452984501335
 51
8.28066246144143
  0
ARC
  5
35D
330
2
100
AcDbEntity
  8
KIJUN
 62
     7
100
AcDbCircle
 10
272.4914401562823
 20
32.91787972166292
 30
0.0
 40
6.108388265849264
100
AcDbArc
 50
287.4354925237405
 51
8.28066246144143
  0
ARC
  5
35E
330
2
100
AcDbEntity
  8
KIJUN
  6
Continuous
 62
     7
100
AcDbCircle
 10
249.1884010111095
 20
28.21762363362831
 30
0.0
 40
1.112325491518459
100
AcDbArc
 50
229.3981480000003
 51
310.6011049999988
  0
ARC
  5
35F
330
2
100
AcDbEntity
  8
KIJUN
  6
Continuous
 62
     7
100
AcDbCircle
 10
246.7405305252893
 20
25.32267482449122
 30
0.0
 40
2.678857797857965
100
AcDbArc
 50
49.94295487903014
 51
107.2045338811974
  0
ARC
  5
360
330
2
100
AcDbEntity
  8
KIJUN
  6
Continuous
 62
     7
100
AcDbCircle
 10
251.6032532892868
 20
25.32267482449122
 30
0.0
 40
2.678857797858098
100
AcDbArc
 50
72.79546611880244
 51
130.0570451209698
  0
ARC
  5
361
330
2
100
AcDbEntity
  8
KIJUN
 62
     7
100
AcDbCircle
 10
241.7799450396199
 20
32.91787972166292
 30
0.0
 40
6.108388265849264
100
AcDbArc
 50
295.2452984501335
 51
8.28066246144143
  0
ARC
  5
362
330
2
100
AcDbEntity
  8
KIJUN
 62
     7
100
AcDbCircle
 10
242.4914401562821
 20
32.91787972166292
 30
0.0
 40
6.108388265849264
100
AcDbArc
 50
287.4354925237405
 51
8.28066246144143
  0
ARC
  5
363
330
2
100
AcDbEntity
  8
KIJUN
  6
Continuous
 62
     7
100
AcDbCircle
 10
241.6032532892869
 20
25.32267482449122
 30
0.0
 40
2.678857797857965
100
AcDbArc
 50
72.79546611880244
 51
130.0570451209698
  0
ARC
  5
364
330
2
100
AcDbEntity
  8
KIJUN
  6
Continuous
 62
     7
100
AcDbCircle
 10
239.1553828034663
 20
28.21762363362831
 30
0.0
 40
1.112325491518459
100
AcDbArc
 50
229.3988950000011
 51
310.6018519999996
  0
ARC
  5
365
330
2
100
AcDbEntity
  8
KIJUN
 62
     7
100
AcDbCircle
 10
245.8523436582939
 20
32.91787972166292
 30
0.0
 40
6.108388265849264
100
AcDbArc
 50
171.7193375385585
 51
252.5645074762595
  0
ARC
  5
366
330
2
100
AcDbEntity
  8
KIJUN
 62
     7
100
AcDbCircle
 10
246.5638387749561
 20
32.91787972166292
 30
0.0
 40
6.108388265849264
100
AcDbArc
 50
171.7193375385585
 51
244.7547015498664
  0
ARC
  5
367
330
2
100
AcDbEntity
  8
KIJUN
 62
     7
100
AcDbCircle
 10
244.1718919072879
 20
27.56716940871792
 30
0.0
 40
0.5
100
AcDbArc
 50
252.5645074762663
 51
287.4354925237337
  0
ARC
  5
368
330
2
100
AcDbEntity
  8
KIJUN
 62
     7
100
AcDbCircle
 10
244.1718919072879
 20
27.84514780259126
 30
0.0
 40
0.5
100
AcDbArc
 50
244.754701549881
 51
295.245298450119
  0
ARC
  5
369
330
2
100
AcDbEntity
  8
KIJUN
 62
     7
100
AcDbCircle
 10
271.7799450396199
 20
32.91787972166292
 30
0.0
 40
6.108388265849264
100
AcDbArc
 50
295.2452984501335
 51
8.28066246144143
  0
ARC
  5
36A
330
2
100
AcDbEntity
  8
KIJUN
 62
     7
100
AcDbCircle
 10
272.4914401562823
 20
32.91787972166292
 30
0.0
 40
6.108388265849264
100
AcDbArc
 50
287.4354925237405
 51
8.28066246144143
  0
ARC
  5
36B
330
2
100
AcDbEntity
  8
KIJUN
  6
Continuous
 62
     7
100
AcDbCircle
 10
276.7405305252891
 20
25.32267482449122
 30
0.0
 40
2.678857797858098
100
AcDbArc
 50
49.94295487903014
 51
107.2045338811974
  0
ARC
  5
36C
330
2
100
AcDbEntity
  8
KIJUN
  6
Continuous
 62
     7
100
AcDbCircle
 10
279.1553828034663
 20
28.21762363362831
 30
0.0
 40
1.112325491518459
100
AcDbArc
 50
229.3988950000011
 51
310.6018519999996
  0
ARC
  5
36D
330
2
100
AcDbEntity
  8
KIJUN
  6
Continuous
 62
     7
100
AcDbCircle
 10
281.603253289287
 20
25.32267482449122
 30
0.0
 40
2.678857797857965
100
AcDbArc
 50
72.79546611880244
 51
130.0570451209698
  0
ARC
  5
36E
330
2
100
AcDbEntity
  8
KIJUN
 62
     7
100
AcDbCircle
 10
285.8523436582938
 20
32.91787972166292
 30
0.0
 40
6.108388265849264
100
AcDbArc
 50
171.7193375385585
 51
252.5645074762595
  0
ARC
  5
36F
330
2
100
AcDbEntity
  8
KIJUN
 62
     7
100
AcDbCircle
 10
286.5638387749561
 20
32.91787972166292
 30
0.0
 40
6.108388265849264
100
AcDbArc
 50
171.7193375385585
 51
244.7547015498664
  0
ARC
  5
370
330
2
100
AcDbEntity
  8
KIJUN
 62
     7
100
AcDbCircle
 10
310.7555550777417
 20
44.96837568572225
 30
0.0
 40
9.880506472017598
100
AcDbArc
 50
233.6958975838865
 51
306.1379560886738
  0
ARC
  5
371
330
2
100
AcDbEntity
  8
KIJUN
 62
     7
100
AcDbCircle
 10
296.2278427293989
 20
37.73177407888051
 30
0.0
 40
18.61382405660328
100
AcDbArc
 50
10.86350063329188
 51
73.28174553280819
  0
ARC
  5
372
330
2
100
AcDbEntity
  8
KIJUN
 62
     7
100
AcDbCircle
 10
320.8996756127206
 20
41.72712266065848
 30
0.0
 40
6.410129501798893
100
AcDbArc
 50
184.3589856293979
 51
227.6615901332811
  0
ARC
  5
373
330
2
100
AcDbEntity
  8
KIJUN
 62
     7
100
AcDbCircle
 10
312.3453828187973
 20
27.3017915752968
 30
0.0
 40
28.57291239220441
100
AcDbArc
 50
81.47227736687254
 51
104.9647676008237
  0
ARC
  5
374
330
2
100
AcDbEntity
  8
KIJUN
 62
     7
100
AcDbCircle
 10
300.4784690378903
 20
41.11610192749703
 30
0.0
 40
14.50171572791927
100
AcDbArc
 50
14.65982390608365
 51
85.63417985261594
  0
ARC
  5
375
330
2
100
AcDbEntity
  8
KIJUN
 62
     7
100
AcDbCircle
 10
337.38407069099
 20
54.89362160453421
 30
0.0
 40
25.00941311334464
100
AcDbArc
 50
203.8375634804316
 51
225.663114231422
  0
ARC
  5
376
330
2
100
AcDbEntity
  8
KIJUN
 62
     7
100
AcDbCircle
 10
290.8996756127205
 20
41.76098309163234
 30
0.0
 40
6.410129501798893
100
AcDbArc
 50
184.3589856293979
 51
227.6615901332811
  0
ARC
  5
377
330
2
100
AcDbEntity
  8
KIJUN
 62
     7
100
AcDbCircle
 10
266.2278427293988
 20
37.76563450985435
 30
0.0
 40
18.61382405660328
100
AcDbArc
 50
10.86350063329188
 51
73.28174553280819
  0
ARC
  5
378
330
2
100
AcDbEntity
  8
KIJUN
 62
     7
100
AcDbCircle
 10
280.7555550777419
 20
45.00223611669611
 30
0.0
 40
9.880506472017598
100
AcDbArc
 50
233.6958975838865
 51
306.1379560886738
  0
ARC
  5
379
330
2
100
AcDbEntity
  8
KIJUN
 62
     7
100
AcDbCircle
 10
292.38407069099
 20
54.92748203550802
 30
0.0
 40
25.00941311334464
100
AcDbArc
 50
203.8375634804316
 51
225.663114231422
  0
ARC
  5
37A
330
2
100
AcDbEntity
  8
KIJUN
 62
     7
100
AcDbCircle
 10
267.3453828187974
 20
27.33565200627066
 30
0.0
 40
28.57291239220441
100
AcDbArc
 50
81.47227736687254
 51
104.9647676008237
  0
ARC
  5
37B
330
2
100
AcDbEntity
  8
KIJUN
 62
     7
100
AcDbCircle
 10
282.3453828187973
 20
27.31872179078385
 30
0.0
 40
28.57291239220441
100
AcDbArc
 50
81.47227736687254
 51
104.9647676008237
  0
ARC
  5
37C
330
2
100
AcDbEntity
  8
KIJUN
 62
     7
100
AcDbCircle
 10
270.4784690378904
 20
41.13303214298407
 30
0.0
 40
14.50171572791927
100
AcDbArc
 50
14.65982390608365
 51
85.63417985261594
  0
ARC
  5
37D
330
2
100
AcDbEntity
  8
KIJUN
 62
     7
100
AcDbCircle
 10
307.38407069099
 20
54.91055182002122
 30
0.0
 40
25.00941311334464
100
AcDbArc
 50
203.8375634804316
 51
225.663114231422
  0
ARC
  5
37E
330
2
100
AcDbEntity
  8
KIJUN
 62
     7
100
AcDbCircle
 10
285.4784690378904
 20
41.11610192749703
 30
0.0
 40
14.50171572791927
100
AcDbArc
 50
14.65982390608365
 51
85.63417985261594
  0
ARC
  5
37F
330
2
100
AcDbEntity
  8
KIJUN
 62
     7
100
AcDbCircle
 10
255.4784690378903
 20
41.14996235847086
 30
0.0
 40
14.50171572791927
100
AcDbArc
 50
14.65982390608365
 51
71.96927186358121
  0
ARC
  5
380
330
2
100
AcDbEntity
  8
KIJUN
 62
     7
100
AcDbCircle
 10
262.38407069099
 20
54.96134246648164
 30
0.0
 40
25.00941311334464
100
AcDbArc
 50
203.8375634804316
 51
225.663114231422
  0
ARC
  5
381
330
2
100
AcDbEntity
  8
KIJUN
 62
     7
100
AcDbCircle
 10
245.8996756127206
 20
41.811773738093
 30
0.0
 40
6.410129501798893
100
AcDbArc
 50
184.3589856293979
 51
227.6615901332811
  0
ARC
  5
382
330
2
100
AcDbEntity
  8
KIJUN
 62
     7
100
AcDbCircle
 10
260.8996756127206
 20
41.79484352260597
 30
0.0
 40
6.410129501798893
100
AcDbArc
 50
184.3589856293979
 51
227.6615901332811
  0
ARC
  5
383
330
2
100
AcDbEntity
  8
KIJUN
 62
     7
100
AcDbCircle
 10
236.2278427293989
 20
37.79949494082797
 30
0.0
 40
18.61382405660328
100
AcDbArc
 50
10.86350063329188
 51
73.28174553280819
  0
ARC
  5
384
330
2
100
AcDbEntity
  8
KIJUN
 62
     7
100
AcDbCircle
 10
250.7555550777418
 20
45.03609654766973
 30
0.0
 40
9.880506472017598
100
AcDbArc
 50
233.6958975838865
 51
306.1379560886738
  0
ARC
  5
385
330
2
100
AcDbEntity
  8
KIJUN
 62
     7
100
AcDbCircle
 10
240.4784690378904
 20
41.16689257395768
 30
0.0
 40
14.50171572791927
100
AcDbArc
 50
14.65982390608365
 51
71.96927186358121
  0
ARC
  5
386
330
2
100
AcDbEntity
  8
KIJUN
 62
     7
100
AcDbCircle
 10
252.3453828187974
 20
27.35258222175747
 30
0.0
 40
28.57291239220441
100
AcDbArc
 50
81.47227736687254
 51
104.9647676008237
  0
ARC
  5
387
330
2
100
AcDbEntity
  8
KIJUN
 62
     7
100
AcDbCircle
 10
251.2278427293989
 20
37.78256472534116
 30
0.0
 40
18.61382405660328
100
AcDbArc
 50
10.86350063329188
 51
73.28174553280819
  0
ARC
  5
388
330
2
100
AcDbEntity
  8
KIJUN
 62
     7
100
AcDbCircle
 10
277.38407069099
 20
54.94441225099482
 30
0.0
 40
25.00941311334464
100
AcDbArc
 50
203.8375634804316
 51
225.663114231422
  0
ARC
  5
389
330
2
100
AcDbEntity
  8
KIJUN
 62
     7
100
AcDbCircle
 10
265.7555550777419
 20
45.01916633218288
 30
0.0
 40
9.880506472017598
100
AcDbArc
 50
233.6958975838865
 51
306.1379560886738
  0
ARC
  5
38A
330
2
100
AcDbEntity
  8
KIJUN
 62
     7
100
AcDbCircle
 10
275.8996756127205
 20
41.77791330711914
 30
0.0
 40
6.410129501798893
100
AcDbArc
 50
184.3589856293979
 51
227.6615901332811
  0
ARC
  5
38B
330
2
100
AcDbEntity
  8
KIJUN
 62
     7
100
AcDbCircle
 10
281.2278427293989
 20
37.74870429436754
 30
0.0
 40
18.61382405660328
100
AcDbArc
 50
10.86350063329188
 51
73.28174553280819
  0
ARC
  5
38C
330
2
100
AcDbEntity
  8
KIJUN
 62
     7
100
AcDbCircle
 10
295.7555550777417
 20
44.98530590120929
 30
0.0
 40
9.880506472017598
100
AcDbArc
 50
233.6958975838865
 51
306.1379560886738
  0
ARC
  5
38D
330
2
100
AcDbEntity
  8
KIJUN
 62
     7
100
AcDbCircle
 10
305.8996756127206
 20
41.74405287614553
 30
0.0
 40
6.410129501798893
100
AcDbArc
 50
184.3589856293979
 51
227.6615901332811
  0
ARC
  5
38E
330
2
100
AcDbEntity
  8
KIJUN
 62
     7
100
AcDbCircle
 10
322.38407069099
 20
54.89362160453421
 30
0.0
 40
25.00941311334464
100
AcDbArc
 50
203.8375634804316
 51
225.663114231422
  0
ARC
  5
38F
330
2
100
AcDbEntity
  8
KIJUN
 62
     7
100
AcDbCircle
 10
297.3453828187973
 20
27.3017915752968
 30
0.0
 40
28.57291239220441
100
AcDbArc
 50
81.47227736687254
 51
104.9647676008237
  0
ARC
  5
390
330
2
100
AcDbEntity
  8
KIJUN
 62
     7
100
AcDbCircle
 10
325.6294287594176
 20
65.74642650489654
 30
0.0
 40
6.133697208539356
100
AcDbArc
 50
335.5425421826853
 51
20.11191035701802
  0
ARC
  5
391
330
2
100
AcDbEntity
  8
KIJUN
 62
     7
100
AcDbCircle
 10
332.6231352773695
 20
67.70482888887084
 30
0.0
 40
1.243192705900487
100
AcDbArc
 50
94.56336777018673
 51
173.0374990346018
  0
ARC
  5
392
330
2
100
AcDbEntity
  8
KIJUN
 62
     7
100
AcDbCircle
 10
331.9499733435298
 20
68.02152409283046
 30
0.0
 40
1.468037716610484
100
AcDbArc
 50
73.80615848752947
 51
140.6195186193183
  0
ARC
  5
393
330
2
100
AcDbEntity
  8
KIJUN
 62
     7
100
AcDbCircle
 10
332.7431887404506
 20
63.60446507693215
 30
0.0
 40
1.581223681833198
100
AcDbArc
 50
194.559504141417
 51
224.730225033182
  0
ARC
  5
394
330
2
100
AcDbEntity
  8
KIJUN
 62
     7
100
AcDbCircle
 10
324.6828066975971
 20
69.10427568660221
 30
0.0
 40
0.26
100
AcDbArc
 50
89.38305508701628
 51
254.5333960972705
  0
ARC
  5
395
330
2
100
AcDbEntity
  8
KIJUN
 62
     7
100
AcDbCircle
 10
336.8346233532026
 20
65.35794975443327
 30
0.0
 40
10.79459167972319
100
AcDbArc
 50
163.5149617427422
 51
192.398061717394
  0
ARC
  5
396
330
2
100
AcDbEntity
  8
KIJUN
 62
     7
100
AcDbCircle
 10
325.0568778240447
 20
66.51150812469035
 30
0.0
 40
2.383785204801164
100
AcDbArc
 50
53.23198635365302
 51
100.7200030206912
  0
ARC
  5
397
330
2
100
AcDbEntity
  8
KIJUN
 62
     7
100
AcDbCircle
 10
325.5912555056373
 20
67.11932979213035
 30
0.0
 40
2.420726124157759
100
AcDbArc
 50
55.81957354241068
 51
111.9701176008545
  0
ARC
  5
398
330
2
100
AcDbEntity
  8
KIJUN
 62
     7
100
AcDbCircle
 10
328.8128117678418
 20
67.42706239370949
 30
0.0
 40
2.517557390391985
100
AcDbArc
 50
37.30780957415443
 51
137.6839964278039
  0
ARC
  5
399
330
2
100
AcDbEntity
  8
KIJUN
 62
     7
100
AcDbCircle
 10
336.3237053203992
 20
79.5107344521824
 30
0.0
 40
10.4
100
AcDbArc
 50
274.5716325401359
 51
286.4941917808768
  0
ARC
  5
39A
330
2
100
AcDbEntity
  8
KIJUN
 62
     7
100
AcDbCircle
 10
331.1805236971034
 20
63.89586123993279
 30
0.0
 40
13.73297992259408
100
AcDbArc
 50
350.7291521919634
 51
21.07879111137682
  0
ARC
  5
39B
330
2
100
AcDbEntity
  8
KIJUN
 62
     7
100
AcDbCircle
 10
337.999967766032
 20
62.93456567153858
 30
0.0
 40
2.6
100
AcDbArc
 50
1.33225399229193
 51
62.19795810599649
  0
ARC
  5
39C
330
2
100
AcDbEntity
  8
KIJUN
 62
     7
100
AcDbCircle
 10
338.7275801027147
 20
64.31448606326734
 30
0.0
 40
1.04
100
AcDbArc
 50
62.19795810599969
 51
116.9906302781861
  0
ARC
  5
39D
330
2
100
AcDbEntity
  8
KIJUN
 62
     7
100
AcDbCircle
 10
340.6954305495796
 20
67.89121729735207
 30
0.0
 40
1.916920883265328
100
AcDbArc
 50
350.0503785042168
 51
99.9465951632095
  0
ARC
  5
39E
330
2
100
AcDbEntity
  8
KIJUN
 62
     7
100
AcDbCircle
 10
341.5313225129064
 20
61.9235667133552
 30
0.0
 40
7.941966794685592
100
AcDbArc
 50
98.44970531066048
 51
106.4941917808769
  0
ARC
  5
39F
330
2
100
AcDbEntity
  8
KIJUN
 62
     7
100
AcDbCircle
 10
337.3174062975238
 20
67.0832272262955
 30
0.0
 40
2.067171992132617
100
AcDbArc
 50
94.57163254013591
 51
296.9906302781796
  0
ARC
  5
3A0
330
2
100
AcDbEntity
  8
KIJUN
 62
     7
100
AcDbCircle
 10
343.1719102873323
 20
69.35659549900805
 30
0.0
 40
0.26
100
AcDbArc
 50
104.2271242288215
 51
262.7186609289136
  0
ARC
  5
3A1
330
2
100
AcDbEntity
  8
KIJUN
 62
     7
100
AcDbCircle
 10
342.8072978827434
 20
66.50297649271118
 30
0.0
 40
2.616818318677879
100
AcDbArc
 50
63.01777818607469
 51
82.71866092891029
  0
ARC
  5
3A2
330
2
100
AcDbEntity
  8
KIJUN
 62
     7
100
AcDbCircle
 10
343.654266162289
 20
66.60080325029861
 30
0.0
 40
1.04
100
AcDbArc
 50
176.725906772897
 51
252.5662289679919
  0
ARC
  5
3A3
330
2
100
AcDbEntity
  8
KIJUN
 62
     7
100
AcDbCircle
 10
337.7855643335968
 20
66.9365281323516
 30
0.0
 40
4.838296721884834
100
AcDbArc
 50
356.7259067728941
 51
7.403917443343901
  0
ARC
  5
3A4
330
2
100
AcDbEntity
  8
KIJUN
 62
     7
100
AcDbCircle
 10
343.0572092190407
 20
64.69952012883225
 30
0.0
 40
0.9528257579263044
100
AcDbArc
 50
339.674944777418
 51
72.56622896798511
  0
ARC
  5
3A5
330
2
100
AcDbEntity
  8
KIJUN
 62
     7
100
AcDbCircle
 10
343.6412615716371
 20
67.50542281219619
 30
0.0
 40
2.169746303695041
100
AcDbArc
 50
73.23997757048359
 51
104.2271242288081
  0
ARC
  5
3A6
330
2
100
AcDbEntity
  8
KIJUN
 62
     7
100
AcDbCircle
 10
346.7153432074854
 20
63.65176058173499
 30
0.0
 40
6.416719871981105
100
AcDbArc
 50
92.35537294120048
 51
112.4307498179295
  0
ARC
  5
3A7
330
2
100
AcDbEntity
  8
KIJUN
 62
     7
100
AcDbCircle
 10
332.4056377679611
 20
69.17546147092245
 30
0.0
 40
0.26
100
AcDbArc
 50
297.1360026157295
 51
100.2457824432781
  0
ARC
  5
3A8
330
2
100
AcDbEntity
  8
KIJUN
 62
     7
100
AcDbCircle
 10
334.8454683718621
 20
62.27285773634406
 30
0.0
 40
2.342550189021227
100
AcDbArc
 50
348.3786696002813
 51
101.6490579718231
  0
ARC
  5
3A9
330
2
100
AcDbEntity
  8
KIJUN
 62
     7
100
AcDbCircle
 10
381.7153432074854
 20
63.65176058173499
 30
0.0
 40
6.416719871981105
100
AcDbArc
 50
92.35537294120048
 51
112.4307498179295
  0
ARC
  5
3AA
330
2
100
AcDbEntity
  8
KIJUN
 62
     7
100
AcDbCircle
 10
396.5117445380368
 20
63.89586123993279
 30
0.0
 40
13.73297992259408
100
AcDbArc
 50
158.9212088886231
 51
189.2708478080365
  0
ARC
  5
3AB
330
2
100
AcDbEntity
  8
KIJUN
 62
     7
100
AcDbCircle
 10
384.5203579478078
 20
69.35659549900805
 30
0.0
 40
0.26
100
AcDbArc
 50
277.2813390710865
 51
75.77287577117847
  0
ARC
  5
3AC
330
2
100
AcDbEntity
  8
KIJUN
 62
     7
100
AcDbCircle
 10
384.8849703523967
 20
66.50297649271118
 30
0.0
 40
2.616818318677879
100
AcDbArc
 50
97.28133907108972
 51
116.9822218139252
  0
ARC
  5
3AD
330
2
100
AcDbEntity
  8
KIJUN
 62
     7
100
AcDbCircle
 10
384.0510066635033
 20
67.50542281219619
 30
0.0
 40
2.169746303695041
100
AcDbArc
 50
75.77287577119192
 51
116.2781128380851
  0
ARC
  5
3AE
330
2
100
AcDbEntity
  8
KIJUN
 62
     7
100
AcDbCircle
 10
384.0380020728511
 20
66.60080325029861
 30
0.0
 40
1.04
100
AcDbArc
 50
287.4337710320079
 51
3.274093227102877
  0
ARC
  5
3AF
330
2
100
AcDbEntity
  8
KIJUN
 62
     7
100
AcDbCircle
 10
389.9067039015432
 20
66.9365281323516
 30
0.0
 40
4.838296721884834
100
AcDbArc
 50
172.596082556656
 51
183.2740932271059
  0
ARC
  5
3B0
330
2
100
AcDbEntity
  8
KIJUN
 62
     7
100
AcDbCircle
 10
384.6350590160993
 20
64.69952012883225
 30
0.0
 40
0.9528257579263044
100
AcDbArc
 50
107.4337710320148
 51
200.325055222582
  0
ARC
  5
3B1
330
2
100
AcDbEntity
  8
KIJUN
 62
     7
100
AcDbCircle
 10
386.9968376855607
 20
67.89121729735207
 30
0.0
 40
1.916920883265328
100
AcDbArc
 50
80.05340483679052
 51
189.949621495783
  0
ARC
  5
3B2
330
2
100
AcDbEntity
  8
KIJUN
 62
     7
100
AcDbCircle
 10
381.2533439256393
 20
67.03249885743247
 30
0.0
 40
3.037040437815087
100
AcDbArc
 50
52.77958515971177
 51
86.25649226184085
  0
ARC
  5
3B3
330
2
100
AcDbEntity
  8
KIJUN
 62
     7
100
AcDbCircle
 10
386.1609457222337
 20
61.9235667133552
 30
0.0
 40
7.941966794685592
100
AcDbArc
 50
73.50580821912308
 51
81.55029468933955
  0
ARC
  5
3B4
330
2
100
AcDbEntity
  8
KIJUN
 62
     7
100
AcDbCircle
 10
389.6923004691082
 20
62.93456567153858
 30
0.0
 40
2.6
100
AcDbArc
 50
117.8020418940034
 51
178.667746007708
  0
ARC
  5
3B5
330
2
100
AcDbEntity
  8
KIJUN
 62
     7
100
AcDbCircle
 10
351.9968376855607
 20
67.89121729735207
 30
0.0
 40
1.916920883265328
100
AcDbArc
 50
80.05340483679052
 51
189.949621495783
  0
ARC
  5
3B6
330
2
100
AcDbEntity
  8
KIJUN
 62
     7
100
AcDbCircle
 10
349.6350590160993
 20
64.69952012883225
 30
0.0
 40
0.9528257579263044
100
AcDbArc
 50
107.4337710320148
 51
200.325055222582
  0
ARC
  5
3B7
330
2
100
AcDbEntity
  8
KIJUN
 62
     7
100
AcDbCircle
 10
354.9067039015433
 20
66.9365281323516
 30
0.0
 40
4.838296721884834
100
AcDbArc
 50
172.596082556656
 51
183.2740932271059
  0
ARC
  5
3B8
330
2
100
AcDbEntity
  8
KIJUN
 62
     7
100
AcDbCircle
 10
349.038002072851
 20
66.60080325029861
 30
0.0
 40
1.04
100
AcDbArc
 50
287.4337710320079
 51
3.274093227102877
  0
ARC
  5
3B9
330
2
100
AcDbEntity
  8
KIJUN
 62
     7
100
AcDbCircle
 10
349.0510066635033
 20
67.50542281219619
 30
0.0
 40
2.169746303695041
100
AcDbArc
 50
75.77287577119192
 51
116.2781128380851
  0
ARC
  5
3BA
330
2
100
AcDbEntity
  8
KIJUN
 62
     7
100
AcDbCircle
 10
349.8849703523967
 20
66.50297649271118
 30
0.0
 40
2.616818318677879
100
AcDbArc
 50
97.28133907108972
 51
116.9822218139252
  0
ARC
  5
3BB
330
2
100
AcDbEntity
  8
KIJUN
 62
     7
100
AcDbCircle
 10
349.5203579478077
 20
69.35659549900805
 30
0.0
 40
0.26
100
AcDbArc
 50
277.2813390710865
 51
75.77287577117847
  0
ARC
  5
3BC
330
2
100
AcDbEntity
  8
KIJUN
 62
     7
100
AcDbCircle
 10
354.6923004691083
 20
62.93456567153858
 30
0.0
 40
2.6
100
AcDbArc
 50
117.8020418940034
 51
178.667746007708
  0
ARC
  5
3BD
330
2
100
AcDbEntity
  8
KIJUN
 62
     7
100
AcDbCircle
 10
353.9646881324253
 20
64.31448606326734
 30
0.0
 40
1.04
100
AcDbArc
 50
63.00936972181374
 51
117.8020418940002
  0
ARC
  5
3BE
330
2
100
AcDbEntity
  8
KIJUN
 62
     7
100
AcDbCircle
 10
356.368562914741
 20
79.5107344521824
 30
0.0
 40
10.4
100
AcDbArc
 50
253.5058082191231
 51
265.4283674598641
  0
ARC
  5
3BF
330
2
100
AcDbEntity
  8
KIJUN
 62
     7
100
AcDbCircle
 10
355.3748619376162
 20
67.0832272262955
 30
0.0
 40
2.067171992132617
100
AcDbArc
 50
243.0093697218203
 51
85.42836745986408
  0
ARC
  5
3C0
330
2
100
AcDbEntity
  8
KIJUN
 62
     7
100
AcDbCircle
 10
351.1609457222338
 20
61.9235667133552
 30
0.0
 40
7.941966794685592
100
AcDbArc
 50
73.50580821912308
 51
81.55029468933955
  0
ARC
  5
3C1
330
2
100
AcDbEntity
  8
KIJUN
 62
     7
100
AcDbCircle
 10
357.8467998632781
 20
62.27285773634406
 30
0.0
 40
2.342550189021227
100
AcDbArc
 50
78.35094202817687
 51
191.6213303997185
  0
ARC
  5
3C2
330
2
100
AcDbEntity
  8
KIJUN
 62
     7
100
AcDbCircle
 10
370.8908318182618
 20
62.27285773634406
 30
0.0
 40
2.342550189021227
100
AcDbArc
 50
348.3786696002813
 51
101.6490579718231
  0
ARC
  5
3C3
330
2
100
AcDbEntity
  8
KIJUN
 62
     7
100
AcDbCircle
 10
363.8794564672982
 20
67.42706239370949
 30
0.0
 40
2.517557390391985
100
AcDbArc
 50
42.31600357219599
 51
142.6921904258454
  0
ARC
  5
3C4
330
2
100
AcDbEntity
  8
KIJUN
 62
     7
100
AcDbCircle
 10
367.1010127295027
 20
67.11932979213035
 30
0.0
 40
2.420726124157759
100
AcDbArc
 50
68.02988239914544
 51
124.1804264575892
  0
ARC
  5
3C5
330
2
100
AcDbEntity
  8
KIJUN
 62
     7
100
AcDbCircle
 10
367.6353904110954
 20
66.51150812469035
 30
0.0
 40
2.383785204801164
100
AcDbArc
 50
79.2799969793088
 51
126.768013646347
  0
ARC
  5
3C6
330
2
100
AcDbEntity
  8
KIJUN
 62
     7
100
AcDbCircle
 10
355.8576448819374
 20
65.35794975443327
 30
0.0
 40
10.79459167972319
100
AcDbArc
 50
347.601938282605
 51
16.48503825725765
  0
ARC
  5
3C7
330
2
100
AcDbEntity
  8
KIJUN
 62
     7
100
AcDbCircle
 10
368.0094615375431
 20
69.10427568660221
 30
0.0
 40
0.26
100
AcDbArc
 50
285.4666039027295
 51
90.61694491298373
  0
ARC
  5
3C8
330
2
100
AcDbEntity
  8
KIJUN
 62
     7
100
AcDbCircle
 10
359.9490794946893
 20
63.60446507693215
 30
0.0
 40
1.581223681833198
100
AcDbArc
 50
315.2697749668179
 51
345.440495858583
  0
ARC
  5
3C9
330
2
100
AcDbEntity
  8
KIJUN
 62
     7
100
AcDbCircle
 10
360.7422948916103
 20
68.02152409283046
 30
0.0
 40
1.468037716610484
100
AcDbArc
 50
39.38048138068159
 51
106.1938415124705
  0
ARC
  5
3CA
330
2
100
AcDbEntity
  8
KIJUN
 62
     7
100
AcDbCircle
 10
360.0691329577705
 20
67.70482888887084
 30
0.0
 40
1.243192705900487
100
AcDbArc
 50
6.96250096539817
 51
85.43663222981328
  0
ARC
  5
3CB
330
2
100
AcDbEntity
  8
KIJUN
 62
     7
100
AcDbCircle
 10
367.0628394757226
 20
65.74642650489654
 30
0.0
 40
6.133697208539356
100
AcDbArc
 50
159.8880896429819
 51
204.4574578173146
  0
ARC
  5
3CC
330
2
100
AcDbEntity
  8
KIJUN
 62
     7
100
AcDbCircle
 10
360.2866304671791
 20
69.17546147092245
 30
0.0
 40
0.26
100
AcDbArc
 50
79.75421755672186
 51
242.8639973842705
  0
ARC
  5
3CD
330
2
100
AcDbEntity
  8
KIJUN
 62
     7
100
AcDbCircle
 10
378.6412615716371
 20
67.50542281219619
 30
0.0
 40
2.169746303695041
100
AcDbArc
 50
73.23997757048359
 51
104.2271242288081
  0
ARC
  5
3CE
330
2
100
AcDbEntity
  8
KIJUN
 62
     7
100
AcDbCircle
 10
373.7275801027148
 20
64.31448606326734
 30
0.0
 40
1.04
100
AcDbArc
 50
62.19795810599969
 51
116.9906302781861
  0
ARC
  5
3CF
330
2
100
AcDbEntity
  8
KIJUN
 62
     7
100
AcDbCircle
 10
372.999967766032
 20
62.93456567153858
 30
0.0
 40
2.6
100
AcDbArc
 50
1.33225399229193
 51
62.19795810599649
  0
ARC
  5
3D0
330
2
100
AcDbEntity
  8
KIJUN
 62
     7
100
AcDbCircle
 10
378.0572092190406
 20
64.69952012883225
 30
0.0
 40
0.9528257579263044
100
AcDbArc
 50
339.674944777418
 51
72.56622896798511
  0
ARC
  5
3D1
330
2
100
AcDbEntity
  8
KIJUN
 62
     7
100
AcDbCircle
 10
372.7855643335967
 20
66.9365281323516
 30
0.0
 40
4.838296721884834
100
AcDbArc
 50
356.7259067728941
 51
7.403917443343901
  0
ARC
  5
3D2
330
2
100
AcDbEntity
  8
KIJUN
 62
     7
100
AcDbCircle
 10
378.654266162289
 20
66.60080325029861
 30
0.0
 40
1.04
100
AcDbArc
 50
176.725906772897
 51
252.5662289679919
  0
ARC
  5
3D3
330
2
100
AcDbEntity
  8
KIJUN
 62
     7
100
AcDbCircle
 10
371.323705320399
 20
79.5107344521824
 30
0.0
 40
10.4
100
AcDbArc
 50
274.5716325401359
 51
286.4941917808768
  0
ARC
  5
3D4
330
2
100
AcDbEntity
  8
KIJUN
 62
     7
100
AcDbCircle
 10
376.5313225129065
 20
61.9235667133552
 30
0.0
 40
7.941966794685592
100
AcDbArc
 50
98.44970531066048
 51
106.4941917808769
  0
ARC
  5
3D5
330
2
100
AcDbEntity
  8
KIJUN
 62
     7
100
AcDbCircle
 10
375.6954305495796
 20
67.89121729735207
 30
0.0
 40
1.916920883265328
100
AcDbArc
 50
350.0503785042168
 51
99.9465951632095
  0
ARC
  5
3D6
330
2
100
AcDbEntity
  8
KIJUN
 62
     7
100
AcDbCircle
 10
372.3174062975238
 20
67.0832272262955
 30
0.0
 40
2.067171992132617
100
AcDbArc
 50
94.57163254013591
 51
296.9906302781796
  0
ARC
  5
3D7
330
2
100
AcDbEntity
  8
KIJUN
 62
     7
100
AcDbCircle
 10
366.1805236971034
 20
63.89586123993279
 30
0.0
 40
13.73297992259408
100
AcDbArc
 50
350.7291521919634
 51
21.07879111137682
  0
ARC
  5
3D8
330
2
100
AcDbEntity
  8
KIJUN
 62
     7
100
AcDbCircle
 10
377.8072978827434
 20
66.50297649271118
 30
0.0
 40
2.616818318677879
100
AcDbArc
 50
63.01777818607469
 51
82.71866092891029
  0
ARC
  5
3D9
330
2
100
AcDbEntity
  8
KIJUN
 62
     7
100
AcDbCircle
 10
378.1719102873323
 20
69.35659549900805
 30
0.0
 40
0.26
100
AcDbArc
 50
104.2271242288215
 51
262.7186609289136
  0
ARC
  5
3DA
330
2
100
AcDbEntity
  8
KIJUN
 62
     7
100
AcDbCircle
 10
361.5117445380369
 20
63.89586123993279
 30
0.0
 40
13.73297992259408
100
AcDbArc
 50
158.9212088886231
 51
189.2708478080365
  0
ARC
  5
3DB
330
2
100
AcDbEntity
  8
KIJUN
 62
     7
100
AcDbCircle
 10
346.2533439256394
 20
67.03249885743247
 30
0.0
 40
3.037040437815087
100
AcDbArc
 50
52.77958515971177
 51
86.25649226184085
  0
ARC
  5
3DC
330
2
100
AcDbEntity
  8
KIJUN
 62
     7
100
AcDbCircle
 10
391.3685629147411
 20
79.5107344521824
 30
0.0
 40
10.4
100
AcDbArc
 50
253.5058082191231
 51
254.1959737116702
  0
ARC
  5
3DD
330
2
100
AcDbEntity
  8
KIJUN
 62
     7
100
AcDbCircle
 10
388.9646881324253
 20
64.31448606326734
 30
0.0
 40
1.04
100
AcDbArc
 50
114.3343426943648
 51
117.8020418940002
  0
ARC
  5
3DE
330
2
100
AcDbEntity
  8
KIJUN
 62
     7
100
AcDbCircle
 10
328.4445895520323
 20
87.10885866951953
 30
0.0
 40
29.95708423381952
100
AcDbArc
 50
261.7217844892822
 51
278.0197889126592
  0
ARC
  5
3DF
330
2
100
AcDbEntity
  8
KIJUN
 62
     7
100
AcDbCircle
 10
330.1308894905344
 20
56.31674866637826
 30
0.0
 40
1.56
100
AcDbArc
 50
82.16061694877096
 51
109.44802973871
  0
ARC
  5
3E0
330
2
100
AcDbEntity
  8
KIJUN
 62
     7
100
AcDbCircle
 10
340.8272120137123
 20
58.40102921013606
 30
0.0
 40
0.5200000000000001
100
AcDbArc
 50
113.172893530061
 51
241.0365443717751
  0
ARC
  5
3E1
330
2
100
AcDbEntity
  8
KIJUN
 62
     7
100
AcDbCircle
 10
340.8272120137137
 20
58.40102921013606
 30
0.0
 40
0.5200000000000001
100
AcDbArc
 50
113.172893530061
 51
241.0365443717751
  0
ARC
  5
3E2
330
2
100
AcDbEntity
  8
KIJUN
 62
     7
100
AcDbCircle
 10
335.1132536584738
 20
76.75574920224329
 30
0.0
 40
19.07181890402107
100
AcDbArc
 50
279.6298557558726
 51
282.8963807528547
  0
ARC
  5
3E3
330
2
100
AcDbEntity
  8
KIJUN
 62
     7
100
AcDbCircle
 10
338.2601419064755
 20
58.20900757919067
 30
0.0
 40
0.26
100
AcDbArc
 50
121.7198393826598
 51
279.6298557558658
  0
ARC
  5
3E4
330
2
100
AcDbEntity
  8
KIJUN
 62
     7
100
AcDbCircle
 10
339.021690988582
 20
59.68566077353667
 30
0.0
 40
1.56
100
AcDbArc
 50
282.8963807528546
 51
311.6620978266835
  0
ARC
  5
3E5
330
2
100
AcDbEntity
  8
KIJUN
 62
     7
100
AcDbCircle
 10
342.9057710598651
 20
62.8991329976281
 30
0.0
 40
5.473892038690804
100
AcDbArc
 50
244.8034698932783
 51
310.3742068875849
  0
ARC
  5
3E6
330
2
100
AcDbEntity
  8
KIJUN
 62
     7
100
AcDbCircle
 10
377.9057710598649
 20
62.8991329976281
 30
0.0
 40
5.473892038690804
100
AcDbArc
 50
244.8034698932783
 51
310.3742068875849
  0
ARC
  5
3E7
330
2
100
AcDbEntity
  8
KIJUN
 62
     7
100
AcDbCircle
 10
386.2319246599903
 20
58.40102921013606
 30
0.0
 40
0.5200000000000001
100
AcDbArc
 50
298.9634556282248
 51
66.82710646993891
  0
ARC
  5
3E8
330
2
100
AcDbEntity
  8
KIJUN
 62
     7
100
AcDbCircle
 10
384.4722127833728
 20
61.58041423221305
 30
0.0
 40
4.153878782694281
100
AcDbArc
 50
223.3502473171153
 51
298.9634556282215
  0
ARC
  5
3E9
330
2
100
AcDbEntity
  8
KIJUN
 62
     7
100
AcDbCircle
 10
388.6705772465583
 20
59.68566077353667
 30
0.0
 40
1.56
100
AcDbArc
 50
228.3379021733165
 51
257.1036192471455
  0
ARC
  5
3EA
330
2
100
AcDbEntity
  8
KIJUN
 62
     7
100
AcDbCircle
 10
354.4321263286646
 20
58.20900757919067
 30
0.0
 40
0.26
100
AcDbArc
 50
260.3701442441341
 51
58.28016061734019
  0
ARC
  5
3EB
330
2
100
AcDbEntity
  8
KIJUN
 62
     7
100
AcDbCircle
 10
357.5790145766661
 20
76.75574920224329
 30
0.0
 40
19.07181890402107
100
AcDbArc
 50
257.1036192471453
 51
260.3701442441275
  0
ARC
  5
3EC
330
2
100
AcDbEntity
  8
KIJUN
 62
     7
100
AcDbCircle
 10
353.6705772465583
 20
59.68566077353667
 30
0.0
 40
1.56
100
AcDbArc
 50
228.3379021733165
 51
257.1036192471455
  0
ARC
  5
3ED
330
2
100
AcDbEntity
  8
KIJUN
 62
     7
100
AcDbCircle
 10
351.2319246599903
 20
58.40102921013606
 30
0.0
 40
0.5200000000000001
100
AcDbArc
 50
298.9634556282248
 51
66.82710646993891
  0
ARC
  5
3EE
330
2
100
AcDbEntity
  8
KIJUN
 62
     7
100
AcDbCircle
 10
364.2476786831078
 20
87.10885866951953
 30
0.0
 40
29.95708423381952
100
AcDbArc
 50
261.9802110873408
 51
278.2782155107177
  0
ARC
  5
3EF
330
2
100
AcDbEntity
  8
KIJUN
 62
     7
100
AcDbCircle
 10
362.5613787446058
 20
56.31674866637826
 30
0.0
 40
1.56
100
AcDbArc
 50
70.55197026129
 51
97.83938305122902
  0
ARC
  5
3F0
330
2
100
AcDbEntity
  8
KIJUN
 62
     7
100
AcDbCircle
 10
374.021690988582
 20
59.68566077353667
 30
0.0
 40
1.56
100
AcDbArc
 50
282.8963807528546
 51
311.6620978266835
  0
ARC
  5
3F1
330
2
100
AcDbEntity
  8
KIJUN
 62
     7
100
AcDbCircle
 10
373.2601419064756
 20
58.20900757919067
 30
0.0
 40
0.26
100
AcDbArc
 50
121.7198393826598
 51
279.6298557558658
  0
ARC
  5
3F2
330
2
100
AcDbEntity
  8
KIJUN
 62
     7
100
AcDbCircle
 10
370.1132536584739
 20
76.75574920224329
 30
0.0
 40
19.07181890402107
100
AcDbArc
 50
279.6298557558726
 51
282.8963807528547
  0
ARC
  5
3F3
330
2
100
AcDbEntity
  8
KIJUN
 62
     7
100
AcDbCircle
 10
375.8272120137138
 20
58.40102921013606
 30
0.0
 40
0.5200000000000001
100
AcDbArc
 50
113.172893530061
 51
241.0365443717751
  0
ARC
  5
3F4
330
2
100
AcDbEntity
  8
KIJUN
 62
     7
100
AcDbCircle
 10
375.8272120137124
 20
58.40102921013606
 30
0.0
 40
0.5200000000000001
100
AcDbArc
 50
113.172893530061
 51
241.0365443717751
  0
ARC
  5
3F5
330
2
100
AcDbEntity
  8
KIJUN
 62
     7
100
AcDbCircle
 10
349.4722127833727
 20
61.58041423221305
 30
0.0
 40
4.153878782694281
100
AcDbArc
 50
223.3502473171153
 51
298.9634556282215
  0
ARC
  5
3F6
330
2
100
AcDbEntity
  8
KIJUN
 62
     7
100
AcDbCircle
 10
392.5790145766661
 20
76.75574920224329
 30
0.0
 40
19.07181890402107
100
AcDbArc
 50
257.1036192471453
 51
257.7615117297731
  0
ARC
  5
3F7
330
2
100
AcDbEntity
  8
KIJUN
 62
     7
100
AcDbCircle
 10
357.3152476510516
 20
62.87356533619544
 30
0.0
 40
5.223656410465215
100
AcDbArc
 50
178.6677460077074
 51
238.2801606173404
  0
ARC
  5
3F8
330
2
100
AcDbEntity
  8
KIJUN
 62
     7
100
AcDbCircle
 10
354.5057254857683
 20
63.98534252447614
 30
0.0
 40
5.776891197506127
100
AcDbArc
 50
176.1964165245507
 51
251.0905524209
  0
ARC
  5
3F9
330
2
100
AcDbEntity
  8
KIJUN
 62
     7
100
AcDbCircle
 10
337.2543998308386
 20
68.02026582480306
 30
0.0
 40
9.741972963138847
100
AcDbArc
 50
290.2269671186342
 51
334.0982741442287
  0
ARC
  5
3FA
330
2
100
AcDbEntity
  8
KIJUN
 62
     7
100
AcDbCircle
 10
354.6845312883101
 20
66.4671009142116
 30
0.0
 40
8.253938982304662
100
AcDbArc
 50
199.1115608600486
 51
246.8271064699492
  0
ARC
  5
3FB
330
2
100
AcDbEntity
  8
KIJUN
 62
     7
100
AcDbCircle
 10
338.1865427493718
 20
63.98534252447614
 30
0.0
 40
5.776891197506127
100
AcDbArc
 50
288.9094475791
 51
3.803583475449172
  0
ARC
  5
3FC
330
2
100
AcDbEntity
  8
KIJUN
 62
     7
100
AcDbCircle
 10
335.3770205840886
 20
62.87356533619544
 30
0.0
 40
5.223656410465215
100
AcDbArc
 50
301.7198393826596
 51
1.332253992292437
  0
ARC
  5
3FD
330
2
100
AcDbEntity
  8
KIJUN
 62
     7
100
AcDbCircle
 10
329.5073265239982
 20
60.58335372711457
 30
0.0
 40
2.846807218628122
100
AcDbArc
 50
287.0845331927653
 51
42.09237553691919
  0
ARC
  5
3FE
330
2
100
AcDbEntity
  8
KIJUN
 62
     7
100
AcDbCircle
 10
328.3234523943701
 20
60.64903415685781
 30
0.0
 40
3.137837695821676
100
AcDbArc
 50
130.351843058486
 51
294.2352481580754
  0
ARC
  5
3FF
330
2
100
AcDbEntity
  8
KIJUN
 62
     7
100
AcDbCircle
 10
328.9699180282216
 20
63.25048844068618
 30
0.0
 40
5.5606808285325
100
AcDbArc
 50
284.3028433052102
 51
13.69669102359089
  0
ARC
  5
400
330
2
100
AcDbEntity
  8
KIJUN
 62
     7
100
AcDbCircle
 10
333.2509423275558
 20
61.3137534719139
 30
0.0
 40
3.919454668628717
100
AcDbArc
 50
260.7964501219245
 51
7.140726449066629
  0
ARC
  5
401
330
2
100
AcDbEntity
  8
KIJUN
 62
     7
100
AcDbCircle
 10
359.4413259075843
 20
61.3137534719139
 30
0.0
 40
3.919454668628717
100
AcDbArc
 50
172.8592735509333
 51
279.2035498780755
  0
ARC
  5
402
330
2
100
AcDbEntity
  8
KIJUN
 62
     7
100
AcDbCircle
 10
363.7223502069184
 20
63.25048844068618
 30
0.0
 40
5.5606808285325
100
AcDbArc
 50
166.303308976409
 51
255.6971566947898
  0
ARC
  5
403
330
2
100
AcDbEntity
  8
KIJUN
 62
     7
100
AcDbCircle
 10
365.0152814746209
 20
63.25048844068618
 30
0.0
 40
5.5606808285325
100
AcDbArc
 50
284.3028433052102
 51
13.69669102359089
  0
ARC
  5
404
330
2
100
AcDbEntity
  8
KIJUN
 62
     7
100
AcDbCircle
 10
369.2963057739556
 20
61.3137534719139
 30
0.0
 40
3.919454668628717
100
AcDbArc
 50
259.1854946264121
 51
7.140726449066629
  0
ARC
  5
405
330
2
100
AcDbEntity
  8
KIJUN
 62
     7
100
AcDbCircle
 10
364.3688158407703
 20
60.64903415685781
 30
0.0
 40
3.137837695821676
100
AcDbArc
 50
245.7647518419246
 51
49.64815694151395
  0
ARC
  5
406
330
2
100
AcDbEntity
  8
KIJUN
 62
     7
100
AcDbCircle
 10
363.1849417111419
 20
60.58335372711457
 30
0.0
 40
2.846807218628122
100
AcDbArc
 50
137.9076244630808
 51
252.9154668072315
  0
ARC
  5
407
330
2
100
AcDbEntity
  8
KIJUN
 62
     7
100
AcDbCircle
 10
370.3770205840886
 20
62.87356533619544
 30
0.0
 40
5.223656410465215
100
AcDbArc
 50
301.7198393826596
 51
1.332253992292437
  0
ARC
  5
408
330
2
100
AcDbEntity
  8
KIJUN
 62
     7
100
AcDbCircle
 10
373.1865427493718
 20
63.98534252447614
 30
0.0
 40
5.776891197506127
100
AcDbArc
 50
288.9094475791
 51
3.803583475449172
  0
ARC
  5
409
330
2
100
AcDbEntity
  8
KIJUN
 62
     7
100
AcDbCircle
 10
372.2543998308386
 20
68.02026582480306
 30
0.0
 40
9.741972963138847
100
AcDbArc
 50
290.2269671186342
 51
334.0982741442287
  0
ARC
  5
40A
330
2
100
AcDbEntity
  8
KIJUN
 62
     7
100
AcDbCircle
 10
389.6845312883101
 20
66.4671009142116
 30
0.0
 40
8.253938982304662
100
AcDbArc
 50
199.1115608600486
 51
246.8271064699492
  0
ARC
  5
40B
330
2
100
AcDbEntity
  8
KIJUN
 62
     7
100
AcDbCircle
 10
389.5057254857683
 20
63.98534252447614
 30
0.0
 40
5.776891197506127
100
AcDbArc
 50
176.1964165245507
 51
251.0905524209
  0
ARC
  5
40C
330
2
100
AcDbEntity
  8
KIJUN
 62
     7
100
AcDbCircle
 10
392.3152476510516
 20
62.87356533619544
 30
0.0
 40
5.223656410465215
100
AcDbArc
 50
178.6677460077074
 51
223.6591744807665
  0
ARC
  5
40D
330
2
100
AcDbEntity
  8
KIJUN
 62
     7
100
AcDbCircle
 10
385.7555550777417
 20
44.96837568572225
 30
0.0
 40
9.880506472017598
100
AcDbArc
 50
233.6958975838865
 51
286.3450813701522
  0
ARC
  5
40E
330
2
100
AcDbEntity
  8
KIJUN
 62
     7
100
AcDbCircle
 10
371.2278427293989
 20
37.73177407888051
 30
0.0
 40
18.61382405660328
100
AcDbArc
 50
21.58656313605815
 51
73.28174553280819
  0
ARC
  5
40F
330
2
100
AcDbEntity
  8
KIJUN
 62
     7
100
AcDbCircle
 10
374.1718919072881
 20
27.84514780259126
 30
0.0
 40
0.5
100
AcDbArc
 50
244.754701549881
 51
295.245298450119
  0
ARC
  5
410
330
2
100
AcDbEntity
  8
KIJUN
 62
     7
100
AcDbCircle
 10
374.1718919072881
 20
27.56716940871792
 30
0.0
 40
0.5
100
AcDbArc
 50
252.5645074762663
 51
287.4354925237337
  0
ARC
  5
411
330
2
100
AcDbEntity
  8
KIJUN
 62
     7
100
AcDbCircle
 10
384.1718919072881
 20
27.84514780259126
 30
0.0
 40
0.5
100
AcDbArc
 50
244.754701549881
 51
295.245298450119
  0
ARC
  5
412
330
2
100
AcDbEntity
  8
KIJUN
 62
     7
100
AcDbCircle
 10
384.1718919072881
 20
27.56716940871792
 30
0.0
 40
0.5
100
AcDbArc
 50
252.5645074762663
 51
287.4354925237337
  0
ARC
  5
413
330
2
100
AcDbEntity
  8
KIJUN
 62
     7
100
AcDbCircle
 10
381.7799450396199
 20
32.91787972166292
 30
0.0
 40
6.108388265849264
100
AcDbArc
 50
295.2452984501335
 51
8.28066246144143
  0
ARC
  5
414
330
2
100
AcDbEntity
  8
KIJUN
 62
     7
100
AcDbCircle
 10
382.4914401562821
 20
32.91787972166292
 30
0.0
 40
6.108388265849264
100
AcDbArc
 50
287.4354925237405
 51
8.28066246144143
  0
ARC
  5
415
330
2
100
AcDbEntity
  8
KIJUN
  6
Continuous
 62
     7
100
AcDbCircle
 10
381.6032532892869
 20
25.32267482449122
 30
0.0
 40
2.678857797858098
100
AcDbArc
 50
72.79546611880244
 51
130.0570451209698
  0
ARC
  5
416
330
2
100
AcDbEntity
  8
KIJUN
 62
     7
100
AcDbCircle
 10
385.852343658294
 20
32.91787972166292
 30
0.0
 40
6.108388265849264
100
AcDbArc
 50
171.7193375385585
 51
252.5645074762595
  0
ARC
  5
417
330
2
100
AcDbEntity
  8
KIJUN
 62
     7
100
AcDbCircle
 10
386.5638387749561
 20
32.91787972166292
 30
0.0
 40
6.108388265849264
100
AcDbArc
 50
171.7193375385585
 51
244.7547015498664
  0
ARC
  5
418
330
2
100
AcDbEntity
  8
KIJUN
 62
     7
100
AcDbCircle
 10
371.7799450396199
 20
32.91787972166292
 30
0.0
 40
6.108388265849264
100
AcDbArc
 50
295.2452984501335
 51
8.28066246144143
  0
ARC
  5
419
330
2
100
AcDbEntity
  8
KIJUN
 62
     7
100
AcDbCircle
 10
372.4914401562823
 20
32.91787972166292
 30
0.0
 40
6.108388265849264
100
AcDbArc
 50
287.4354925237405
 51
8.28066246144143
  0
ARC
  5
41A
330
2
100
AcDbEntity
  8
KIJUN
  6
Continuous
 62
     7
100
AcDbCircle
 10
379.1884010111096
 20
28.21762363362831
 30
0.0
 40
1.112325491518459
100
AcDbArc
 50
229.3981480000003
 51
310.6011049999988
  0
ARC
  5
41B
330
2
100
AcDbEntity
  8
KIJUN
  6
Continuous
 62
     7
100
AcDbCircle
 10
376.7405305252893
 20
25.32267482449122
 30
0.0
 40
2.678857797857965
100
AcDbArc
 50
49.94295487903014
 51
107.2045338811974
  0
ARC
  5
41C
330
2
100
AcDbEntity
  8
KIJUN
 62
     7
100
AcDbCircle
 10
322.4914401562823
 20
32.91787972166292
 30
0.0
 40
6.108388265849264
100
AcDbArc
 50
287.4354925237405
 51
8.28066246144143
  0
ARC
  5
41D
330
2
100
AcDbEntity
  8
KIJUN
 62
     7
100
AcDbCircle
 10
321.7799450396199
 20
32.91787972166292
 30
0.0
 40
6.108388265849264
100
AcDbArc
 50
295.2452984501335
 51
8.28066246144143
  0
ARC
  5
41E
330
2
100
AcDbEntity
  8
KIJUN
  6
Continuous
 62
     7
100
AcDbCircle
 10
326.7405305252891
 20
25.32267482449122
 30
0.0
 40
2.678857797858098
100
AcDbArc
 50
49.94295487903014
 51
107.2045338811974
  0
ARC
  5
41F
330
2
100
AcDbEntity
  8
KIJUN
 62
     7
100
AcDbCircle
 10
324.1718919072881
 20
27.56716940871792
 30
0.0
 40
0.5
100
AcDbArc
 50
252.5645074762663
 51
287.4354925237337
  0
ARC
  5
420
330
2
100
AcDbEntity
  8
KIJUN
 62
     7
100
AcDbCircle
 10
324.1718919072881
 20
27.84514780259126
 30
0.0
 40
0.5
100
AcDbArc
 50
244.754701549881
 51
295.245298450119
  0
ARC
  5
421
330
2
100
AcDbEntity
  8
KIJUN
 62
     7
100
AcDbCircle
 10
334.1718919072881
 20
27.84514780259126
 30
0.0
 40
0.5
100
AcDbArc
 50
244.754701549881
 51
295.245298450119
  0
ARC
  5
422
330
2
100
AcDbEntity
  8
KIJUN
 62
     7
100
AcDbCircle
 10
336.5638387749561
 20
32.91787972166292
 30
0.0
 40
6.108388265849264
100
AcDbArc
 50
171.7193375385585
 51
244.7547015498664
  0
ARC
  5
423
330
2
100
AcDbEntity
  8
KIJUN
 62
     7
100
AcDbCircle
 10
331.7799450396199
 20
32.91787972166292
 30
0.0
 40
6.108388265849264
100
AcDbArc
 50
295.2452984501335
 51
8.28066246144143
  0
ARC
  5
424
330
2
100
AcDbEntity
  8
KIJUN
 62
     7
100
AcDbCircle
 10
334.1718919072881
 20
27.56716940871792
 30
0.0
 40
0.5
100
AcDbArc
 50
252.5645074762663
 51
287.4354925237337
  0
ARC
  5
425
330
2
100
AcDbEntity
  8
KIJUN
 62
     7
100
AcDbCircle
 10
332.4914401562821
 20
32.91787972166292
 30
0.0
 40
6.108388265849264
100
AcDbArc
 50
287.4354925237405
 51
8.28066246144143
  0
ARC
  5
426
330
2
100
AcDbEntity
  8
KIJUN
 62
     7
100
AcDbCircle
 10
335.8523436582938
 20
32.91787972166292
 30
0.0
 40
6.108388265849264
100
AcDbArc
 50
171.7193375385585
 51
252.5645074762595
  0
ARC
  5
427
330
2
100
AcDbEntity
  8
KIJUN
  6
Continuous
 62
     7
100
AcDbCircle
 10
331.603253289287
 20
25.32267482449122
 30
0.0
 40
2.678857797857965
100
AcDbArc
 50
72.79546611880244
 51
130.0570451209698
  0
ARC
  5
428
330
2
100
AcDbEntity
  8
KIJUN
  6
Continuous
 62
     7
100
AcDbCircle
 10
329.1553828034663
 20
28.21762363362831
 30
0.0
 40
1.112325491518459
100
AcDbArc
 50
229.3988950000011
 51
310.6018519999996
  0
ARC
  5
429
330
2
100
AcDbEntity
  8
KIJUN
  6
Continuous
 62
     7
100
AcDbCircle
 10
339.1884010111096
 20
28.21762363362831
 30
0.0
 40
1.112325491518459
100
AcDbArc
 50
229.3981480000003
 51
310.6011049999988
  0
ARC
  5
42A
330
2
100
AcDbEntity
  8
KIJUN
  6
Continuous
 62
     7
100
AcDbCircle
 10
336.7405305252892
 20
25.32267482449122
 30
0.0
 40
2.678857797857965
100
AcDbArc
 50
49.94295487903014
 51
107.2045338811974
  0
ARC
  5
42B
330
2
100
AcDbEntity
  8
KIJUN
  6
Continuous
 62
     7
100
AcDbCircle
 10
341.603253289287
 20
25.32267482449122
 30
0.0
 40
2.678857797858098
100
AcDbArc
 50
72.79546611880244
 51
130.0570451209698
  0
ARC
  5
42C
330
2
100
AcDbEntity
  8
KIJUN
 62
     7
100
AcDbCircle
 10
345.852343658294
 20
32.91787972166292
 30
0.0
 40
6.108388265849264
100
AcDbArc
 50
171.7193375385585
 51
252.5645074762595
  0
ARC
  5
42D
330
2
100
AcDbEntity
  8
KIJUN
 62
     7
100
AcDbCircle
 10
346.5638387749562
 20
32.91787972166292
 30
0.0
 40
6.108388265849264
100
AcDbArc
 50
171.7193375385585
 51
244.7547015498664
  0
ARC
  5
42E
330
2
100
AcDbEntity
  8
KIJUN
  6
Continuous
 62
     7
100
AcDbCircle
 10
366.7405305252893
 20
25.32267482449122
 30
0.0
 40
2.678857797858098
100
AcDbArc
 50
49.94295487903014
 51
107.2045338811974
  0
ARC
  5
42F
330
2
100
AcDbEntity
  8
KIJUN
  6
Continuous
 62
     7
100
AcDbCircle
 10
371.6032532892869
 20
25.32267482449122
 30
0.0
 40
2.678857797857965
100
AcDbArc
 50
72.79546611880244
 51
130.0570451209698
  0
ARC
  5
430
330
2
100
AcDbEntity
  8
KIJUN
  6
Continuous
 62
     7
100
AcDbCircle
 10
369.1553828034665
 20
28.21762363362831
 30
0.0
 40
1.112325491518459
100
AcDbArc
 50
229.3988950000011
 51
310.6018519999996
  0
ARC
  5
431
330
2
100
AcDbEntity
  8
KIJUN
 62
     7
100
AcDbCircle
 10
345.852343658294
 20
32.91787972166292
 30
0.0
 40
6.108388265849264
100
AcDbArc
 50
171.7193375385585
 51
252.5645074762595
  0
ARC
  5
432
330
2
100
AcDbEntity
  8
KIJUN
 62
     7
100
AcDbCircle
 10
346.5638387749562
 20
32.91787972166292
 30
0.0
 40
6.108388265849264
100
AcDbArc
 50
171.7193375385585
 51
244.7547015498664
  0
ARC
  5
433
330
2
100
AcDbEntity
  8
KIJUN
 62
     7
100
AcDbCircle
 10
344.1718919072881
 20
27.56716940871792
 30
0.0
 40
0.5
100
AcDbArc
 50
252.5645074762663
 51
287.4354925237337
  0
ARC
  5
434
330
2
100
AcDbEntity
  8
KIJUN
 62
     7
100
AcDbCircle
 10
344.1718919072881
 20
27.84514780259126
 30
0.0
 40
0.5
100
AcDbArc
 50
244.754701549881
 51
295.245298450119
  0
ARC
  5
435
330
2
100
AcDbEntity
  8
KIJUN
 62
     7
100
AcDbCircle
 10
341.7799450396199
 20
32.91787972166292
 30
0.0
 40
6.108388265849264
100
AcDbArc
 50
295.2452984501335
 51
8.28066246144143
  0
ARC
  5
436
330
2
100
AcDbEntity
  8
KIJUN
 62
     7
100
AcDbCircle
 10
342.4914401562821
 20
32.91787972166292
 30
0.0
 40
6.108388265849264
100
AcDbArc
 50
287.4354925237405
 51
8.28066246144143
  0
ARC
  5
437
330
2
100
AcDbEntity
  8
KIJUN
  6
Continuous
 62
     7
100
AcDbCircle
 10
346.7405305252893
 20
25.32267482449122
 30
0.0
 40
2.678857797858098
100
AcDbArc
 50
49.94295487903014
 51
107.2045338811974
  0
ARC
  5
438
330
2
100
AcDbEntity
  8
KIJUN
  6
Continuous
 62
     7
100
AcDbCircle
 10
351.6032532892868
 20
25.32267482449122
 30
0.0
 40
2.678857797857965
100
AcDbArc
 50
72.79546611880244
 51
130.0570451209698
  0
ARC
  5
439
330
2
100
AcDbEntity
  8
KIJUN
  6
Continuous
 62
     7
100
AcDbCircle
 10
349.1553828034664
 20
28.21762363362831
 30
0.0
 40
1.112325491518459
100
AcDbArc
 50
229.3988950000011
 51
310.6018519999996
  0
ARC
  5
43A
330
2
100
AcDbEntity
  8
KIJUN
  6
Continuous
 62
     7
100
AcDbCircle
 10
359.1884010111097
 20
28.21762363362831
 30
0.0
 40
1.112325491518459
100
AcDbArc
 50
229.3981480000003
 51
310.6011049999988
  0
ARC
  5
43B
330
2
100
AcDbEntity
  8
KIJUN
  6
Continuous
 62
     7
100
AcDbCircle
 10
356.7405305252893
 20
25.32267482449122
 30
0.0
 40
2.678857797857965
100
AcDbArc
 50
49.94295487903014
 51
107.2045338811974
  0
ARC
  5
43C
330
2
100
AcDbEntity
  8
KIJUN
  6
Continuous
 62
     7
100
AcDbCircle
 10
361.6032532892869
 20
25.32267482449122
 30
0.0
 40
2.678857797858098
100
AcDbArc
 50
72.79546611880244
 51
130.0570451209698
  0
ARC
  5
43D
330
2
100
AcDbEntity
  8
KIJUN
 62
     7
100
AcDbCircle
 10
364.171891907288
 20
27.84514780259126
 30
0.0
 40
0.5
100
AcDbArc
 50
244.754701549881
 51
295.245298450119
  0
ARC
  5
43E
330
2
100
AcDbEntity
  8
KIJUN
 62
     7
100
AcDbCircle
 10
364.171891907288
 20
27.56716940871792
 30
0.0
 40
0.5
100
AcDbArc
 50
252.5645074762663
 51
287.4354925237337
  0
ARC
  5
43F
330
2
100
AcDbEntity
  8
KIJUN
 62
     7
100
AcDbCircle
 10
361.7799450396199
 20
32.91787972166292
 30
0.0
 40
6.108388265849264
100
AcDbArc
 50
295.2452984501335
 51
8.28066246144143
  0
ARC
  5
440
330
2
100
AcDbEntity
  8
KIJUN
 62
     7
100
AcDbCircle
 10
362.4914401562821
 20
32.91787972166292
 30
0.0
 40
6.108388265849264
100
AcDbArc
 50
287.4354925237405
 51
8.28066246144143
  0
ARC
  5
441
330
2
100
AcDbEntity
  8
KIJUN
 62
     7
100
AcDbCircle
 10
366.5638387749563
 20
32.91787972166292
 30
0.0
 40
6.108388265849264
100
AcDbArc
 50
171.7193375385585
 51
244.7547015498664
  0
ARC
  5
442
330
2
100
AcDbEntity
  8
KIJUN
 62
     7
100
AcDbCircle
 10
365.8523436582939
 20
32.91787972166292
 30
0.0
 40
6.108388265849264
100
AcDbArc
 50
171.7193375385585
 51
252.5645074762595
  0
ARC
  5
443
330
2
100
AcDbEntity
  8
KIJUN
 62
     7
100
AcDbCircle
 10
352.4914401562821
 20
32.91787972166292
 30
0.0
 40
6.108388265849264
100
AcDbArc
 50
287.4354925237405
 51
8.280662461441421
  0
ARC
  5
444
330
2
100
AcDbEntity
  8
KIJUN
 62
     7
100
AcDbCircle
 10
355.8523436582939
 20
32.91787972166292
 30
0.0
 40
6.108388265849264
100
AcDbArc
 50
171.7193375385585
 51
252.5645074762595
  0
ARC
  5
445
330
2
100
AcDbEntity
  8
KIJUN
 62
     7
100
AcDbCircle
 10
354.1718919072881
 20
27.56716940871792
 30
0.0
 40
0.5
100
AcDbArc
 50
252.5645074762663
 51
287.4354925237337
  0
ARC
  5
446
330
2
100
AcDbEntity
  8
KIJUN
 62
     7
100
AcDbCircle
 10
356.5638387749562
 20
32.91787972166292
 30
0.0
 40
6.108388265849264
100
AcDbArc
 50
171.7193375385585
 51
244.7547015498664
  0
ARC
  5
447
330
2
100
AcDbEntity
  8
KIJUN
 62
     7
100
AcDbCircle
 10
351.7799450396199
 20
32.91787972166292
 30
0.0
 40
6.108388265849264
100
AcDbArc
 50
295.2452984501335
 51
8.280662461441421
  0
ARC
  5
448
330
2
100
AcDbEntity
  8
KIJUN
 62
     7
100
AcDbCircle
 10
354.1718919072881
 20
27.84514780259126
 30
0.0
 40
0.5
100
AcDbArc
 50
244.754701549881
 51
295.245298450119
  0
ARC
  5
449
330
2
100
AcDbEntity
  8
KIJUN
 62
     7
100
AcDbCircle
 10
375.8523436582939
 20
32.91787972166292
 30
0.0
 40
6.108388265849264
100
AcDbArc
 50
171.7193375385585
 51
252.5645074762595
  0
ARC
  5
44A
330
2
100
AcDbEntity
  8
KIJUN
 62
     7
100
AcDbCircle
 10
376.5638387749563
 20
32.91787972166292
 30
0.0
 40
6.108388265849264
100
AcDbArc
 50
171.7193375385585
 51
244.7547015498664
  0
ARC
  5
44B
330
2
100
AcDbEntity
  8
KIJUN
 62
     7
100
AcDbCircle
 10
372.3453828187973
 20
27.3017915752968
 30
0.0
 40
28.57291239220441
100
AcDbArc
 50
81.47227736687254
 51
104.9647676008237
  0
ARC
  5
44C
330
2
100
AcDbEntity
  8
KIJUN
 62
     7
100
AcDbCircle
 10
397.3840706909901
 20
54.89362160453421
 30
0.0
 40
25.00941311334464
100
AcDbArc
 50
203.8375634804316
 51
225.663114231422
  0
ARC
  5
44D
330
2
100
AcDbEntity
  8
KIJUN
 62
     7
100
AcDbCircle
 10
380.8996756127206
 20
41.74405287614553
 30
0.0
 40
6.410129501798893
100
AcDbArc
 50
184.3589856293979
 51
227.6615901332811
  0
ARC
  5
44E
330
2
100
AcDbEntity
  8
KIJUN
 62
     7
100
AcDbCircle
 10
370.7555550777418
 20
44.98530590120929
 30
0.0
 40
9.880506472017598
100
AcDbArc
 50
233.6958975838865
 51
306.1379560886738
  0
ARC
  5
44F
330
2
100
AcDbEntity
  8
KIJUN
 62
     7
100
AcDbCircle
 10
356.2278427293989
 20
37.74870429436754
 30
0.0
 40
18.61382405660328
100
AcDbArc
 50
10.86350063329188
 51
73.28174553280819
  0
ARC
  5
450
330
2
100
AcDbEntity
  8
KIJUN
 62
     7
100
AcDbCircle
 10
350.8996756127205
 20
41.77791330711914
 30
0.0
 40
6.410129501798893
100
AcDbArc
 50
184.3589856293979
 51
227.6615901332811
  0
ARC
  5
451
330
2
100
AcDbEntity
  8
KIJUN
 62
     7
100
AcDbCircle
 10
340.7555550777417
 20
45.01916633218288
 30
0.0
 40
9.880506472017598
100
AcDbArc
 50
233.6958975838865
 51
306.1379560886738
  0
ARC
  5
452
330
2
100
AcDbEntity
  8
KIJUN
 62
     7
100
AcDbCircle
 10
352.38407069099
 20
54.94441225099482
 30
0.0
 40
25.00941311334464
100
AcDbArc
 50
203.8375634804316
 51
225.663114231422
  0
ARC
  5
453
330
2
100
AcDbEntity
  8
KIJUN
 62
     7
100
AcDbCircle
 10
326.2278427293988
 20
37.78256472534116
 30
0.0
 40
18.61382405660328
100
AcDbArc
 50
10.86350063329188
 51
73.28174553280819
  0
ARC
  5
454
330
2
100
AcDbEntity
  8
KIJUN
 62
     7
100
AcDbCircle
 10
335.8996756127206
 20
41.79484352260597
 30
0.0
 40
6.410129501798893
100
AcDbArc
 50
184.3589856293979
 51
227.6615901332811
  0
ARC
  5
455
330
2
100
AcDbEntity
  8
KIJUN
 62
     7
100
AcDbCircle
 10
330.4784690378903
 20
41.14996235847086
 30
0.0
 40
14.50171572791927
100
AcDbArc
 50
14.65982390608365
 51
71.96927186358121
  0
ARC
  5
456
330
2
100
AcDbEntity
  8
KIJUN
 62
     7
100
AcDbCircle
 10
360.4784690378904
 20
41.11610192749703
 30
0.0
 40
14.50171572791927
100
AcDbArc
 50
14.65982390608365
 51
85.63417985261594
  0
ARC
  5
457
330
2
100
AcDbEntity
  8
KIJUN
 62
     7
100
AcDbCircle
 10
382.3840706909901
 20
54.91055182002122
 30
0.0
 40
25.00941311334464
100
AcDbArc
 50
203.8375634804316
 51
225.663114231422
  0
ARC
  5
458
330
2
100
AcDbEntity
  8
KIJUN
 62
     7
100
AcDbCircle
 10
345.4784690378903
 20
41.13303214298407
 30
0.0
 40
14.50171572791927
100
AcDbArc
 50
14.65982390608365
 51
85.63417985261594
  0
ARC
  5
459
330
2
100
AcDbEntity
  8
KIJUN
 62
     7
100
AcDbCircle
 10
357.3453828187973
 20
27.31872179078385
 30
0.0
 40
28.57291239220441
100
AcDbArc
 50
81.47227736687254
 51
104.9647676008237
  0
ARC
  5
45A
330
2
100
AcDbEntity
  8
KIJUN
 62
     7
100
AcDbCircle
 10
342.3453828187973
 20
27.33565200627066
 30
0.0
 40
28.57291239220441
100
AcDbArc
 50
81.47227736687254
 51
104.9647676008237
  0
ARC
  5
45B
330
2
100
AcDbEntity
  8
KIJUN
 62
     7
100
AcDbCircle
 10
367.3840706909899
 20
54.92748203550802
 30
0.0
 40
25.00941311334464
100
AcDbArc
 50
203.8375634804316
 51
225.663114231422
  0
ARC
  5
45C
330
2
100
AcDbEntity
  8
KIJUN
 62
     7
100
AcDbCircle
 10
355.7555550777418
 20
45.00223611669611
 30
0.0
 40
9.880506472017598
100
AcDbArc
 50
233.6958975838865
 51
306.1379560886738
  0
ARC
  5
45D
330
2
100
AcDbEntity
  8
KIJUN
 62
     7
100
AcDbCircle
 10
341.2278427293988
 20
37.76563450985435
 30
0.0
 40
18.61382405660328
100
AcDbArc
 50
10.86350063329188
 51
73.28174553280819
  0
ARC
  5
45E
330
2
100
AcDbEntity
  8
KIJUN
 62
     7
100
AcDbCircle
 10
365.8996756127206
 20
41.76098309163234
 30
0.0
 40
6.410129501798893
100
AcDbArc
 50
184.3589856293979
 51
227.6615901332811
  0
DIMENSION
  5
45F
330
2
100
AcDbEntity
  8
SUNPOU
100
AcDbDimension
  2
*D2
 10
10.54090621367978
 20
72.79762338570453
 30
0.0
 11
5.540906213679771
 21
48.29762338570453
 31
0.0
 71
     5
 42
49.0
  3
STANDARD$0
100
AcDbAlignedDimension
 13
24.78376162200697
 23
23.79762338570452
 33
0.0
 14
24.78376162200697
 24
72.79762338570453
 34
0.0
 50
90.0
100
AcDbRotatedDimension
1001
ACAD
1000
DSTYLE
1002
{
1070
    41
1040
2.0
1070
    44
1040
0.0
1070
    77
1070
     1
1070
    78
1070
     0
1070
   140
1040
3.0
1070
   141
1040
1.0
1070
   146
1040
0.0642857142857143
1070
   172
1070
     0
1070
   173
1070
     0
1070
   176
1070
    60
1070
   177
1070
    70
1070
   178
1070
    60
1070
   271
1070
     0
1070
   272
1070
     0
1070
   341
1005
0
1070
   342
1005
37
1070
   343
1005
0
1070
   344
1005
0
1002
}
  0
TEXT
  5
46C
330
2
100
AcDbEntity
  8
HOJO
100
AcDbText
 10
0.2303155766909413
 20
1.183313000000011
 30
0.0
 40
4.5
  1
PM833
  7
SUNPOU
100
AcDbText
  0
LINE
  5
46E
330
2
100
AcDbEntity
  8
WAKU
100
AcDbLine
 10
0.0
 20
0.0
 30
0.0
 11
44.67747103027135
 21
0.0
 31
0.0
  0
LINE
  5
470
330
2
100
AcDbEntity
  8
WAKU
100
AcDbLine
 10
0.0
 20
7.0
 30
0.0
 11
44.67747103027135
 21
7.0
 31
0.0
  0
TEXT
  5
471
330
2
100
AcDbEntity
  8
HOJO
100
AcDbText
 10
30.30776529806213
 20
2.522193000000015
 30
0.0
 40
3.0
  1
49\U+00D730
  7
SUNPOU
100
AcDbText
  0
LWPOLYLINE
  5
472
330
2
100
AcDbEntity
  8
KIJUN
100
AcDbPolyline
 90
       26
 70
     1
 43
0.0
 10
54.48466994123175
 20
49.77909928800078
 42
0.1804750693752329
 10
48.6146725836728
 20
56.77291703307724
 42
-0.4735679172358383
 10
48.35167550533353
 20
58.29767236891973
 42
0.5173824633608765
 10
46.86282499851924
 20
64.35125152889856
 42
-0.2953972580991763
 10
44.96420700069354
 20
67.00165805792678
 42
0.3747767484266371
 10
42.28376162200698
 20
69.79762338570451
 10
42.28376162200698
 20
71.79762338570451
 42
0.4142135623730951
 10
41.28376162200697
 20
72.79762338570453
 10
38.28376162200698
 20
72.79762338570451
 42
0.4142135623730951
 10
37.28376162200698
 20
71.79762338570451
 10
37.28376162200698
 20
64.79762338570452
 10
25.78376162200697
 20
64.79762338570452
 42
0.4142135623730951
 10
24.78376162200697
 20
63.79762338570452
 10
24.78376162200697
 20
24.79762338570452
 42
0.4142135623730951
 10
25.78376162200697
 20
23.79762338570452
 10
40.78376162200686
 20
23.79762338570452
 42
0.4142135623730951
 10
41.78376162200686
 20
24.79762338570452
 10
41.78376162200698
 20
25.83917621262043
 42
-0.3825071546687534
 10
42.67452764849919
 20
26.83319227840192
 42
0.2878686788813258
 10
48.02092884369219
 20
31.0691883090814
 42
-0.2488178332265272
 10
48.71123128940183
 20
31.70315427241795
 42
0.3128649641567476
 10
49.90089952697932
 20
33.08945944630895
 42
-0.2142582224162102
 10
50.31153805969532
 20
33.79855679119924
 42
0.1675885645071431
 10
54.48466994123094
 20
39.70685045699148
 42
0.3170409060927426
 10
53.5432381917651
 20
44.00528260658222
 42
-0.4403772445646527
 10
53.54323819176499
 20
45.480667138412
 42
0.3170409060927424
  0
ENDSEC
  0
SECTION
  2
OBJECTS
  0
DICTIONARY
  5
9
330
0
100
AcDbDictionary
281
     1
  3
ACAD_COLOR
350
48
  3
ACAD_GROUP
350
3D
  3
ACAD_LAYOUT
350
1F
  3
ACAD_MATERIAL
350
C
  3
ACAD_MLEADERSTYLE
350
4B
  3
ACAD_MLINESTYLE
350
3E
  3
ACAD_PLOTSETTINGS
350
3F
  3
ACAD_PLOTSTYLENAME
350
8
  3
ACAD_SCALELIST
350
49
  3
ACAD_TABLESTYLE
350
4A
  3
ACAD_VISUALSTYLE
350
32
  3
ACDB_RECOMPOSE_DATA
350
484
  3
AcDbVariableDictionary
350
477
  0
DICTIONARY
  5
3
330
2
100
AcDbDictionary
280
     1
281
     1
  3
ACAD_LAYOUTSELFREF
360
4
  0
DICTIONARY
  5
21
330
20
100
AcDbDictionary
280
     1
281
     1
  3
ACAD_LAYOUTSELFREF
360
22
  0
DICTIONARY
  5
48
102
{ACAD_REACTORS
330
9
102
}
330
9
100
AcDbDictionary
281
     1
  0
DICTIONARY
  5
3D
102
{ACAD_REACTORS
330
9
102
}
330
9
100
AcDbDictionary
281
     1
  0
DICTIONARY
  5
1F
102
{ACAD_REACTORS
330
9
102
}
330
9
100
AcDbDictionary
281
     1
  3
Model
350
1E
  3
ﾚｲｱｳﾄ1
350
25
  0
DICTIONARY
  5
C
102
{ACAD_REACTORS
330
9
102
}
330
9
100
AcDbDictionary
281
     1
  3
ByBlock
350
40
  3
ByLayer
350
15
  3
Global
350
B
  0
DICTIONARY
  5
4B
102
{ACAD_REACTORS
330
9
102
}
330
9
100
AcDbDictionary
281
     1
  0
DICTIONARY
  5
3E
102
{ACAD_REACTORS
330
9
102
}
330
9
100
AcDbDictionary
281
     1
  3
STANDARD
350
4D
  0
DICTIONARY
  5
3F
102
{ACAD_REACTORS
330
9
102
}
330
9
100
AcDbDictionary
281
     1
  0
ACDBDICTIONARYWDFLT
  5
8
102
{ACAD_REACTORS
330
9
102
}
330
9
100
AcDbDictionary
281
     1
  3
Normal
350
7
100
AcDbDictionaryWithDefault
340
7
  0
DICTIONARY
  5
49
102
{ACAD_REACTORS
330
9
102
}
330
9
100
AcDbDictionary
281
     1
  3
A0
350
51
  3
A1
350
52
  3
A2
350
53
  3
A3
350
54
  3
A4
350
55
  3
A5
350
56
  3
A6
350
57
  3
A7
350
58
  3
A8
350
59
  3
A9
350
5A
  3
B0
350
5B
  3
B1
350
5C
  3
B2
350
5D
  3
B3
350
5E
  3
B4
350
5F
  3
B5
350
60
  3
B6
350
61
  0
DICTIONARY
  5
4A
102
{ACAD_REACTORS
330
9
102
}
330
9
100
AcDbDictionary
281
     1
  3
Standard
350
4E
  0
DICTIONARY
  5
32
102
{ACAD_REACTORS
330
9
102
}
330
9
100
AcDbDictionary
281
     1
  3
2dWireframe
350
31
  3
Realistic
350
4F
  3
Wireframe
350
50
  0
XRECORD
  5
484
102
{ACAD_REACTORS
330
9
102
}
330
9
100
AcDbXrecord
280
     1
 90
        1
330
4E
  0
DICTIONARY
  5
477
102
{ACAD_REACTORS
330
9
102
}
330
9
100
AcDbDictionary
281
     1
  3
CANNOSCALE
350
47C
  3
CMLEADERSTYLE
350
479
  3
CTABLESTYLE
350
478
  3
CVIEWDETAILSTYLE
350
47A
  3
CVIEWSECTIONSTYLE
350
47B
  3
DIMASSOC
350
480
  3
HIDETEXT
350
47F
  3
INDEXCTL
350
47E
  3
SORTENTS
350
47D
  3
XCLIPFRAME
350
481
  0
XRECORD
  5
4
102
{ACAD_REACTORS
330
3
102
}
330
3
100
AcDbXrecord
280
     1
340
2
  0
XRECORD
  5
22
102
{ACAD_REACTORS
330
21
102
}
330
21
100
AcDbXrecord
280
     1
340
20
  0
LAYOUT
  5
1E
102
{ACAD_XDICTIONARY
360
487
102
}
102
{ACAD_REACTORS
330
1F
102
}
330
1F
100
AcDbPlotSettings
  1

  2
なし
  4

  6

 40
0.0
 41
0.0
 42
0.0
 43
0.0
 44
0.0
 45
0.0
 46
0.0
 47
0.0
 48
0.0
 49
0.0
140
0.0
141
0.0
142
1.0
143
1.0
 70
  1712
 72
     0
 73
     0
 74
     0
  7
monochrome.ctb
 75
     0
147
1.0
148
0.0
149
0.0
100
AcDbLayout
  1
Model
 70
     1
 71
     0
 10
0.0
 20
0.0
 11
12.0
 21
9.0
 12
0.0
 22
0.0
 32
0.0
 14
0.0
 24
0.0
 34
0.0
 15
0.0
 25
0.0
 35
0.0
146
0.0
 13
0.0
 23
0.0
 33
0.0
 16
1.0
 26
0.0
 36
0.0
 17
0.0
 27
1.0
 37
0.0
 76
     0
330
2
  0
LAYOUT
  5
25
102
{ACAD_XDICTIONARY
360
489
102
}
102
{ACAD_REACTORS
330
1F
102
}
330
1F
100
AcDbPlotSettings
  1

  2
なし
  4

  6

 40
0.0
 41
0.0
 42
0.0
 43
0.0
 44
0.0
 45
0.0
 46
0.0
 47
0.0
 48
0.0
 49
0.0
140
0.0
141
0.0
142
1.0
143
1.0
 70
   688
 72
     0
 73
     0
 74
     5
  7
monochrome.ctb
 75
    16
147
1.0
148
0.0
149
0.0
100
AcDbLayout
  1
ﾚｲｱｳﾄ1
 70
     1
 71
     1
 10
0.0
 20
0.0
 11
12.0
 21
9.0
 12
0.0
 22
0.0
 32
0.0
 14
1.000000000000000E+20
 24
1.000000000000000E+20
 34
1.000000000000000E+20
 15
-1.000000000000000E+20
 25
-1.000000000000000E+20
 35
-1.000000000000000E+20
146
0.0
 13
0.0
 23
0.0
 33
0.0
 16
1.0
 26
0.0
 36
0.0
 17
0.0
 27
1.0
 37
0.0
 76
     0
330
20
  0
MATERIAL
  5
40
102
{ACAD_XDICTIONARY
360
41
102
}
102
{ACAD_REACTORS
330
C
102
}
330
C
100
AcDbMaterial
  1
ByBlock
 72
     0
 43
0.0208333333333333
 43
0.0
 43
0.0
 43
0.0
 43
0.0
 43
0.0208333333333333
 43
0.0
 43
0.0
 43
0.0
 43
0.0
 43
1.0
 43
0.0
 43
0.0
 43
0.0
 43
0.0
 43
1.0
 77
     0
 47
0.0208333333333333
 47
0.0
 47
0.0
 47
0.0
 47
0.0
 47
0.0208333333333333
 47
0.0
 47
0.0
 47
0.0
 47
0.0
 47
1.0
 47
0.0
 47
0.0
 47
0.0
 47
0.0
 47
1.0
171
     0
 49
0.0208333333333333
 49
0.0
 49
0.0
 49
0.0
 49
0.0
 49
0.0208333333333333
 49
0.0
 49
0.0
 49
0.0
 49
0.0
 49
1.0
 49
0.0
 49
0.0
 49
0.0
 49
0.0
 49
1.0
175
     0
142
0.0208333333333333
142
0.0
142
0.0
142
0.0
142
0.0
142
0.0208333333333333
142
0.0
142
0.0
142
0.0
142
0.0
142
1.0
142
0.0
142
0.0
142
0.0
142
0.0
142
1.0
179
     0
144
0.0208333333333333
144
0.0
144
0.0
144
0.0
144
0.0
144
0.0208333333333333
144
0.0
144
0.0
144
0.0
144
0.0
144
1.0
144
0.0
144
0.0
144
0.0
144
0.0
144
1.0
147
0.0208333333333333
147
0.0
147
0.0
147
0.0
147
0.0
147
0.0208333333333333
147
0.0
147
0.0
147
0.0
147
0.0
147
1.0
147
0.0
147
0.0
147
0.0
147
0.0
147
1.0
  0
MATERIAL
  5
15
102
{ACAD_XDICTIONARY
360
16
102
}
102
{ACAD_REACTORS
330
C
102
}
330
C
100
AcDbMaterial
  1
ByLayer
 72
     0
 43
0.0208333333333333
 43
0.0
 43
0.0
 43
0.0
 43
0.0
 43
0.0208333333333333
 43
0.0
 43
0.0
 43
0.0
 43
0.0
 43
1.0
 43
0.0
 43
0.0
 43
0.0
 43
0.0
 43
1.0
 77
     0
 47
0.0208333333333333
 47
0.0
 47
0.0
 47
0.0
 47
0.0
 47
0.0208333333333333
 47
0.0
 47
0.0
 47
0.0
 47
0.0
 47
1.0
 47
0.0
 47
0.0
 47
0.0
 47
0.0
 47
1.0
171
     0
 49
0.0208333333333333
 49
0.0
 49
0.0
 49
0.0
 49
0.0
 49
0.0208333333333333
 49
0.0
 49
0.0
 49
0.0
 49
0.0
 49
1.0
 49
0.0
 49
0.0
 49
0.0
 49
0.0
 49
1.0
175
     0
142
0.0208333333333333
142
0.0
142
0.0
142
0.0
142
0.0
142
0.0208333333333333
142
0.0
142
0.0
142
0.0
142
0.0
142
1.0
142
0.0
142
0.0
142
0.0
142
0.0
142
1.0
179
     0
144
0.0208333333333333
144
0.0
144
0.0
144
0.0
144
0.0
144
0.0208333333333333
144
0.0
144
0.0
144
0.0
144
0.0
144
1.0
144
0.0
144
0.0
144
0.0
144
0.0
144
1.0
147
0.0208333333333333
147
0.0
147
0.0
147
0.0
147
0.0
147
0.0208333333333333
147
0.0
147
0.0
147
0.0
147
0.0
147
1.0
147
0.0
147
0.0
147
0.0
147
0.0
147
1.0
  0
MATERIAL
  5
B
102
{ACAD_XDICTIONARY
360
D
102
}
102
{ACAD_REACTORS
330
C
102
}
330
C
100
AcDbMaterial
  1
Global
 72
     0
 43
0.0208333333333333
 43
0.0
 43
0.0
 43
0.0
 43
0.0
 43
0.0208333333333333
 43
0.0
 43
0.0
 43
0.0
 43
0.0
 43
1.0
 43
0.0
 43
0.0
 43
0.0
 43
0.0
 43
1.0
 77
     0
 47
0.0208333333333333
 47
0.0
 47
0.0
 47
0.0
 47
0.0
 47
0.0208333333333333
 47
0.0
 47
0.0
 47
0.0
 47
0.0
 47
1.0
 47
0.0
 47
0.0
 47
0.0
 47
0.0
 47
1.0
171
     0
 49
0.0208333333333333
 49
0.0
 49
0.0
 49
0.0
 49
0.0
 49
0.0208333333333333
 49
0.0
 49
0.0
 49
0.0
 49
0.0
 49
1.0
 49
0.0
 49
0.0
 49
0.0
 49
0.0
 49
1.0
175
     0
142
0.0208333333333333
142
0.0
142
0.0
142
0.0
142
0.0
142
0.0208333333333333
142
0.0
142
0.0
142
0.0
142
0.0
142
1.0
142
0.0
142
0.0
142
0.0
142
0.0
142
1.0
179
     0
144
0.0208333333333333
144
0.0
144
0.0
144
0.0
144
0.0
144
0.0208333333333333
144
0.0
144
0.0
144
0.0
144
0.0
144
1.0
144
0.0
144
0.0
144
0.0
144
0.0
144
1.0
147
0.0208333333333333
147
0.0
147
0.0
147
0.0
147
0.0
147
0.0208333333333333
147
0.0
147
0.0
147
0.0
147
0.0
147
1.0
147
0.0
147
0.0
147
0.0
147
0.0
147
1.0
  0
MLINESTYLE
  5
4D
102
{ACAD_REACTORS
330
3E
102
}
330
3E
100
AcDbMlineStyle
  2
STANDARD
 70
     0
  3

 62
   256
 51
90.0
 52
90.0
 71
     2
 49
0.5
 62
   256
  6
BYLAYER
 49
-0.5
 62
   256
  6
BYLAYER
  0
ACDBPLACEHOLDER
  5
7
102
{ACAD_REACTORS
330
8
102
}
330
8
  0
SCALE
  5
51
102
{ACAD_REACTORS
330
49
102
}
330
49
100
AcDbScale
 70
     0
300
1:1
140
1.0
141
1.0
290
     1
  0
SCALE
  5
52
102
{ACAD_REACTORS
330
49
102
}
330
49
100
AcDbScale
 70
     0
300
1/128" = 1'-0"
140
0.0078125
141
12.0
290
     0
  0
SCALE
  5
53
102
{ACAD_REACTORS
330
49
102
}
330
49
100
AcDbScale
 70
     0
300
1/64" = 1'-0"
140
0.015625
141
12.0
290
     0
  0
SCALE
  5
54
102
{ACAD_REACTORS
330
49
102
}
330
49
100
AcDbScale
 70
     0
300
1/32" = 1'-0"
140
0.03125
141
12.0
290
     0
  0
SCALE
  5
55
102
{ACAD_REACTORS
330
49
102
}
330
49
100
AcDbScale
 70
     0
300
1/16" = 1'-0"
140
0.0625
141
12.0
290
     0
  0
SCALE
  5
56
102
{ACAD_REACTORS
330
49
102
}
330
49
100
AcDbScale
 70
     0
300
3/32" = 1'-0"
140
0.09375
141
12.0
290
     0
  0
SCALE
  5
57
102
{ACAD_REACTORS
330
49
102
}
330
49
100
AcDbScale
 70
     0
300
1/8" = 1'-0"
140
0.125
141
12.0
290
     0
  0
SCALE
  5
58
102
{ACAD_REACTORS
330
49
102
}
330
49
100
AcDbScale
 70
     0
300
3/16" = 1'-0"
140
0.1875
141
12.0
290
     0
  0
SCALE
  5
59
102
{ACAD_REACTORS
330
49
102
}
330
49
100
AcDbScale
 70
     0
300
1/4" = 1'-0"
140
0.25
141
12.0
290
     0
  0
SCALE
  5
5A
102
{ACAD_REACTORS
330
49
102
}
330
49
100
AcDbScale
 70
     0
300
3/8" = 1'-0"
140
0.375
141
12.0
290
     0
  0
SCALE
  5
5B
102
{ACAD_REACTORS
330
49
102
}
330
49
100
AcDbScale
 70
     0
300
1/2" = 1'-0"
140
0.5
141
12.0
290
     0
  0
SCALE
  5
5C
102
{ACAD_REACTORS
330
49
102
}
330
49
100
AcDbScale
 70
     0
300
3/4" = 1'-0"
140
0.75
141
12.0
290
     0
  0
SCALE
  5
5D
102
{ACAD_REACTORS
330
49
102
}
330
49
100
AcDbScale
 70
     0
300
1" = 1'-0"
140
1.0
141
12.0
290
     0
  0
SCALE
  5
5E
102
{ACAD_REACTORS
330
49
102
}
330
49
100
AcDbScale
 70
     0
300
1-1/2" = 1'-0"
140
1.5
141
12.0
290
     0
  0
SCALE
  5
5F
102
{ACAD_REACTORS
330
49
102
}
330
49
100
AcDbScale
 70
     0
300
3" = 1'-0"
140
3.0
141
12.0
290
     0
  0
SCALE
  5
60
102
{ACAD_REACTORS
330
49
102
}
330
49
100
AcDbScale
 70
     0
300
6" = 1'-0"
140
6.0
141
12.0
290
     0
  0
SCALE
  5
61
102
{ACAD_REACTORS
330
49
102
}
330
49
100
AcDbScale
 70
     0
300
1'-0" = 1'-0"
140
12.0
141
12.0
290
     0
  0
TABLESTYLE
  5
4E
102
{ACAD_XDICTIONARY
360
482
102
}
102
{ACAD_REACTORS
330
4A
102
}
330
4A
100
AcDbTableStyle
  3
Standard
 70
     0
 71
     0
 40
0.06
 41
0.06
280
     0
281
     0
  7
STANDARD
140
0.18
170
     2
 62
     0
 63
     7
283
     0
274
    -2
284
     1
 64
     0
275
    -2
285
     1
 65
     0
276
    -2
286
     1
 66
     0
277
    -2
287
     1
 67
     0
278
    -2
288
     1
 68
     0
279
    -2
289
     1
 69
     0
  7
STANDARD
140
0.25
170
     5
 62
     0
 63
     7
283
     0
274
    -2
284
     1
 64
     0
275
    -2
285
     1
 65
     0
276
    -2
286
     1
 66
     0
277
    -2
287
     1
 67
     0
278
    -2
288
     1
 68
     0
279
    -2
289
     1
 69
     0
  7
STANDARD
140
0.18
170
     5
 62
     0
 63
     7
283
     0
274
    -2
284
     1
 64
     0
275
    -2
285
     1
 65
     0
276
    -2
286
     1
 66
     0
277
    -2
287
     1
 67
     0
278
    -2
288
     1
 68
     0
279
    -2
289
     1
 69
     0
  0
VISUALSTYLE
  5
31
102
{ACAD_XDICTIONARY
360
48B
102
}
102
{ACAD_REACTORS
330
32
102
}
330
32
100
AcDbVisualStyle
  2
2dWireframe
 70
     4
 71
     0
 72
     2
 73
     0
 90
        0
 40
-0.6
 41
-30.0
 62
     5
 63
     7
 74
     1
 91
        4
 64
     7
 65
   257
 75
     1
175
     1
 42
1.0
 92
        0
 66
   257
 43
1.0
 76
     1
 77
     6
 78
     2
 67
     7
 79
     5
170
     0
171
     0
290
     0
174
     0
 93
        1
 44
0.0
173
     0
291
     0
 45
0.0
1001
ACAD
1000
AcDbSavedByObjectVersion
1070
     0
  0
VISUALSTYLE
  5
4F
102
{ACAD_XDICTIONARY
360
48F
102
}
102
{ACAD_REACTORS
330
32
102
}
330
32
100
AcDbVisualStyle
  2
Realistic
 70
     8
 71
     2
 72
     3
 73
     0
 90
        2
 40
-0.6
 41
30.0
 62
     5
 63
     7
 74
     0
 91
        0
 64
     7
 65
   257
 75
     1
175
     1
 42
1.0
 92
        8
 66
   257
 43
1.0
 76
     1
 77
     6
 78
     2
 67
     7
 79
     3
170
     0
171
     0
290
     0
174
     0
 93
       13
 44
0.0
173
     0
291
     0
 45
0.0
1001
ACAD
1000
AcDbSavedByObjectVersion
1070
     0
  0
VISUALSTYLE
  5
50
102
{ACAD_XDICTIONARY
360
491
102
}
102
{ACAD_REACTORS
330
32
102
}
330
32
100
AcDbVisualStyle
  2
Wireframe
 70
     5
 71
     0
 72
     2
 73
     0
 90
        0
 40
-0.6
 41
-30.0
 62
     5
 63
     7
 74
     1
 91
        4
 64
     7
 65
   257
 75
     1
175
     1
 42
1.0
 92
        0
 66
   257
 43
1.0
 76
     1
 77
     6
 78
     2
 67
     7
 79
     3
170
     0
171
     0
290
     0
174
     0
 93
        1
 44
0.0
173
     0
291
     0
 45
0.0
1001
ACAD
1000
AcDbSavedByObjectVersion
1070
     0
  0
DICTIONARYVAR
  5
47C
102
{ACAD_REACTORS
330
477
102
}
330
477
100
DictionaryVariables
280
     0
  1
1:1
  0
DICTIONARYVAR
  5
479
102
{ACAD_REACTORS
330
477
102
}
330
477
100
DictionaryVariables
280
     0
  1
STANDARD
  0
DICTIONARYVAR
  5
478
102
{ACAD_REACTORS
330
477
102
}
330
477
100
DictionaryVariables
280
     0
  1
STANDARD
  0
DICTIONARYVAR
  5
47A
102
{ACAD_REACTORS
330
477
102
}
330
477
100
DictionaryVariables
280
     0
  1

  0
DICTIONARYVAR
  5
47B
102
{ACAD_REACTORS
330
477
102
}
330
477
100
DictionaryVariables
280
     0
  1

  0
DICTIONARYVAR
  5
480
102
{ACAD_REACTORS
330
477
102
}
330
477
100
DictionaryVariables
280
     0
  1
1
  0
DICTIONARYVAR
  5
47F
102
{ACAD_REACTORS
330
477
102
}
330
477
100
DictionaryVariables
280
     0
  1
1
  0
DICTIONARYVAR
  5
47E
102
{ACAD_REACTORS
330
477
102
}
330
477
100
DictionaryVariables
280
     0
  1
0
  0
DICTIONARYVAR
  5
47D
102
{ACAD_REACTORS
330
477
102
}
330
477
100
DictionaryVariables
280
     0
  1
127
  0
DICTIONARYVAR
  5
481
102
{ACAD_REACTORS
330
477
102
}
330
477
100
DictionaryVariables
280
     0
  1
2
  0
DICTIONARY
  5
487
330
1E
100
AcDbDictionary
280
     1
281
     1
  3
ACAD_XREC_ROUNDTRIP
360
488
  0
DICTIONARY
  5
489
330
25
100
AcDbDictionary
280
     1
281
     1
  3
ACAD_XREC_ROUNDTRIP
360
48A
  0
DICTIONARY
  5
41
330
40
100
AcDbDictionary
280
     1
281
     1
  3
ACAD_XREC_ROUNDTRIP
360
48D
  3
BUMPTILE
360
42
  3
DIFFUSETILE
360
43
  3
OPACITYTILE
360
44
  3
REFLECTIONTILE
360
45
  3
REFRACTIONTILE
360
46
  3
SPECULARTILE
360
47
  0
DICTIONARY
  5
16
330
15
100
AcDbDictionary
280
     1
281
     1
  3
ACAD_XREC_ROUNDTRIP
360
486
  3
BUMPTILE
360
17
  3
DIFFUSETILE
360
18
  3
OPACITYTILE
360
19
  3
REFLECTIONTILE
360
1A
  3
REFRACTIONTILE
360
1B
  3
SPECULARTILE
360
1C
  0
DICTIONARY
  5
D
330
B
100
AcDbDictionary
280
     1
281
     1
  3
ACAD_XREC_ROUNDTRIP
360
485
  3
BUMPTILE
360
E
  3
DIFFUSETILE
360
F
  3
OPACITYTILE
360
10
  3
REFLECTIONTILE
360
11
  3
REFRACTIONTILE
360
12
  3
SPECULARTILE
360
13
  0
DICTIONARY
  5
482
330
4E
100
AcDbDictionary
280
     1
281
     1
  3
ACAD_ROUNDTRIP_2008_TABLESTYLE_CELLSTYLEMAP
360
483
  3
ACAD_XREC_ROUNDTRIP
360
48E
  0
DICTIONARY
  5
48B
330
31
100
AcDbDictionary
280
     1
281
     1
  3
ACAD_XREC_ROUNDTRIP
360
48C
  0
DICTIONARY
  5
48F
330
4F
100
AcDbDictionary
280
     1
281
     1
  3
ACAD_XREC_ROUNDTRIP
360
490
  0
DICTIONARY
  5
491
330
50
100
AcDbDictionary
280
     1
281
     1
  3
ACAD_XREC_ROUNDTRIP
360
492
  0
XRECORD
  5
488
102
{ACAD_REACTORS
330
487
102
}
330
487
100
AcDbXrecord
280
     1
102
SHADEPLOT
 70
     0
102
SHADEPLOTRESLEVEL
 70
     2
102
SHADEPLOTCUSTOMDPI
 70
   300
  0
XRECORD
  5
48A
102
{ACAD_REACTORS
330
489
102
}
330
489
100
AcDbXrecord
280
     1
102
SHADEPLOT
 70
     0
102
SHADEPLOTRESLEVEL
 70
     2
102
SHADEPLOTCUSTOMDPI
 70
   300
  0
XRECORD
  5
48D
102
{ACAD_REACTORS
330
41
102
}
330
41
100
AcDbXrecord
280
     1
102
MATERIAL
148
0.0
149
0.0
149
0.0
 93
        0
 94
      127
282
     0
 72
     0
 77
     0
171
     0
175
     0
179
     0
273
     0
  0
XRECORD
  5
42
102
{ACAD_REACTORS
330
41
102
}
330
41
100
AcDbXrecord
280
     1
270
     1
271
     1
  0
XRECORD
  5
43
102
{ACAD_REACTORS
330
41
102
}
330
41
100
AcDbXrecord
280
     1
270
     1
271
     1
  0
XRECORD
  5
44
102
{ACAD_REACTORS
330
41
102
}
330
41
100
AcDbXrecord
280
     1
270
     1
271
     1
  0
XRECORD
  5
45
102
{ACAD_REACTORS
330
41
102
}
330
41
100
AcDbXrecord
280
     1
270
     1
271
     1
  0
XRECORD
  5
46
102
{ACAD_REACTORS
330
41
102
}
330
41
100
AcDbXrecord
280
     1
270
     1
271
     1
  0
XRECORD
  5
47
102
{ACAD_REACTORS
330
41
102
}
330
41
100
AcDbXrecord
280
     1
270
     1
271
     1
  0
XRECORD
  5
486
102
{ACAD_REACTORS
330
16
102
}
330
16
100
AcDbXrecord
280
     1
102
MATERIAL
148
0.0
149
0.0
149
0.0
 93
        0
 94
      127
282
     0
 72
     0
 77
     0
171
     0
175
     0
179
     0
273
     0
  0
XRECORD
  5
17
102
{ACAD_REACTORS
330
16
102
}
330
16
100
AcDbXrecord
280
     1
270
     1
271
     1
  0
XRECORD
  5
18
102
{ACAD_REACTORS
330
16
102
}
330
16
100
AcDbXrecord
280
     1
270
     1
271
     1
  0
XRECORD
  5
19
102
{ACAD_REACTORS
330
16
102
}
330
16
100
AcDbXrecord
280
     1
270
     1
271
     1
  0
XRECORD
  5
1A
102
{ACAD_REACTORS
330
16
102
}
330
16
100
AcDbXrecord
280
     1
270
     1
271
     1
  0
XRECORD
  5
1B
102
{ACAD_REACTORS
330
16
102
}
330
16
100
AcDbXrecord
280
     1
270
     1
271
     1
  0
XRECORD
  5
1C
102
{ACAD_REACTORS
330
16
102
}
330
16
100
AcDbXrecord
280
     1
270
     1
271
     1
  0
XRECORD
  5
485
102
{ACAD_REACTORS
330
D
102
}
330
D
100
AcDbXrecord
280
     1
102
MATERIAL
148
0.0
149
0.0
149
0.0
 93
        0
 94
      127
282
     0
 72
     0
 77
     0
171
     0
175
     0
179
     0
273
     0
  0
XRECORD
  5
E
102
{ACAD_REACTORS
330
D
102
}
330
D
100
AcDbXrecord
280
     1
270
     1
271
     1
  0
XRECORD
  5
F
102
{ACAD_REACTORS
330
D
102
}
330
D
100
AcDbXrecord
280
     1
270
     1
271
     1
  0
XRECORD
  5
10
102
{ACAD_REACTORS
330
D
102
}
330
D
100
AcDbXrecord
280
     1
270
     1
271
     1
  0
XRECORD
  5
11
102
{ACAD_REACTORS
330
D
102
}
330
D
100
AcDbXrecord
280
     1
270
     1
271
     1
  0
XRECORD
  5
12
102
{ACAD_REACTORS
330
D
102
}
330
D
100
AcDbXrecord
280
     1
270
     1
271
     1
  0
XRECORD
  5
13
102
{ACAD_REACTORS
330
D
102
}
330
D
100
AcDbXrecord
280
     1
270
     1
271
     1
  0
CELLSTYLEMAP
  5
483
102
{ACAD_REACTORS
330
482
102
}
330
482
100
AcDbCellStyleMap
 90
        3
300
CELLSTYLE
  1
TABLEFORMAT_BEGIN
 90
        5
170
     1
 91
        0
 92
    32768
 62
   257
 93
        1
300
CONTENTFORMAT
  1
CONTENTFORMAT_BEGIN
 90
        0
 91
        0
 92
        4
 93
        0
300

 40
0.0
140
1.0
 94
        5
 62
     0
340
28
144
0.25
309
CONTENTFORMAT_END
171
     0
 94
        6
 95
        1
302
GRIDFORMAT
  1
GRIDFORMAT_BEGIN
 90
        0
 91
        1
 62
     0
 92
       -2
340
0
 93
        0
 40
0.045
309
GRIDFORMAT_END
 95
        2
302
GRIDFORMAT
  1
GRIDFORMAT_BEGIN
 90
        0
 91
        1
 62
     0
 92
       -2
340
0
 93
        0
 40
0.045
309
GRIDFORMAT_END
 95
        4
302
GRIDFORMAT
  1
GRIDFORMAT_BEGIN
 90
        0
 91
        1
 62
     0
 92
       -2
340
0
 93
        0
 40
0.045
309
GRIDFORMAT_END
 95
        8
302
GRIDFORMAT
  1
GRIDFORMAT_BEGIN
 90
        0
 91
        1
 62
     0
 92
       -2
340
0
 93
        0
 40
0.045
309
GRIDFORMAT_END
 95
       16
302
GRIDFORMAT
  1
GRIDFORMAT_BEGIN
 90
        0
 91
        1
 62
     0
 92
       -2
340
0
 93
        0
 40
0.045
309
GRIDFORMAT_END
 95
       32
302
GRIDFORMAT
  1
GRIDFORMAT_BEGIN
 90
        0
 91
        1
 62
     0
 92
       -2
340
0
 93
        0
 40
0.045
309
GRIDFORMAT_END
309
TABLEFORMAT_END
  1
CELLSTYLE_BEGIN
 90
        1
 91
        1
300
_TITLE
309
CELLSTYLE_END
300
CELLSTYLE
  1
TABLEFORMAT_BEGIN
 90
        5
170
     1
 91
        0
 92
        0
 62
   257
 93
        1
300
CONTENTFORMAT
  1
CONTENTFORMAT_BEGIN
 90
        0
 91
        0
 92
        4
 93
        0
300

 40
0.0
140
1.0
 94
        5
 62
     0
340
28
144
0.18
309
CONTENTFORMAT_END
171
     0
 94
        6
 95
        1
302
GRIDFORMAT
  1
GRIDFORMAT_BEGIN
 90
        0
 91
        1
 62
     0
 92
       -2
340
0
 93
        0
 40
0.045
309
GRIDFORMAT_END
 95
        2
302
GRIDFORMAT
  1
GRIDFORMAT_BEGIN
 90
        0
 91
        1
 62
     0
 92
       -2
340
0
 93
        0
 40
0.045
309
GRIDFORMAT_END
 95
        4
302
GRIDFORMAT
  1
GRIDFORMAT_BEGIN
 90
        0
 91
        1
 62
     0
 92
       -2
340
0
 93
        0
 40
0.045
309
GRIDFORMAT_END
 95
        8
302
GRIDFORMAT
  1
GRIDFORMAT_BEGIN
 90
        0
 91
        1
 62
     0
 92
       -2
340
0
 93
        0
 40
0.045
309
GRIDFORMAT_END
 95
       16
302
GRIDFORMAT
  1
GRIDFORMAT_BEGIN
 90
        0
 91
        1
 62
     0
 92
       -2
340
0
 93
        0
 40
0.045
309
GRIDFORMAT_END
 95
       32
302
GRIDFORMAT
  1
GRIDFORMAT_BEGIN
 90
        0
 91
        1
 62
     0
 92
       -2
340
0
 93
        0
 40
0.045
309
GRIDFORMAT_END
309
TABLEFORMAT_END
  1
CELLSTYLE_BEGIN
 90
        2
 91
        1
300
_HEADER
309
CELLSTYLE_END
300
CELLSTYLE
  1
TABLEFORMAT_BEGIN
 90
        5
170
     1
 91
        0
 92
        0
 62
   257
 93
        1
300
CONTENTFORMAT
  1
CONTENTFORMAT_BEGIN
 90
        0
 91
        0
 92
        4
 93
        0
300

 40
0.0
140
1.0
 94
        2
 62
     0
340
28
144
0.18
309
CONTENTFORMAT_END
171
     0
 94
        6
 95
        1
302
GRIDFORMAT
  1
GRIDFORMAT_BEGIN
 90
        0
 91
        1
 62
     0
 92
       -2
340
0
 93
        0
 40
0.045
309
GRIDFORMAT_END
 95
        2
302
GRIDFORMAT
  1
GRIDFORMAT_BEGIN
 90
        0
 91
        1
 62
     0
 92
       -2
340
0
 93
        0
 40
0.045
309
GRIDFORMAT_END
 95
        4
302
GRIDFORMAT
  1
GRIDFORMAT_BEGIN
 90
        0
 91
        1
 62
     0
 92
       -2
340
0
 93
        0
 40
0.045
309
GRIDFORMAT_END
 95
        8
302
GRIDFORMAT
  1
GRIDFORMAT_BEGIN
 90
        0
 91
        1
 62
     0
 92
       -2
340
0
 93
        0
 40
0.045
309
GRIDFORMAT_END
 95
       16
302
GRIDFORMAT
  1
GRIDFORMAT_BEGIN
 90
        0
 91
        1
 62
     0
 92
       -2
340
0
 93
        0
 40
0.045
309
GRIDFORMAT_END
 95
       32
302
GRIDFORMAT
  1
GRIDFORMAT_BEGIN
 90
        0
 91
        1
 62
     0
 92
       -2
340
0
 93
        0
 40
0.045
309
GRIDFORMAT_END
309
TABLEFORMAT_END
  1
CELLSTYLE_BEGIN
 90
        3
 91
        2
300
_DATA
309
CELLSTYLE_END
  0
XRECORD
  5
48E
102
{ACAD_REACTORS
330
482
102
}
330
482
100
AcDbXrecord
280
     1
102
ACAD_ROUNDTRIP_PRE2007_TABLESTYLE
 90
        4
 91
        0
  1

 92
        4
 93
        0
  2

 94
        4
 95
        0
  3

  0
XRECORD
  5
48C
102
{ACAD_REACTORS
330
48B
102
}
330
48B
100
AcDbXrecord
280
     1
102
RTVSPost2010Prop28
280
     1
102
RTVSPost2010PropOp28
 70
     1
102
RTVSPost2010Prop29
280
     1
102
RTVSPost2010PropOp29
 70
     1
102
RTVSPost2010Prop30
280
     0
102
RTVSPost2010PropOp30
 70
     1
102
RTVSPost2010Prop31
280
     0
102
RTVSPost2010PropOp31
 70
     1
102
RTVSPost2010Prop32
280
     0
102
RTVSPost2010PropOp32
 70
     1
102
RTVSPost2010Prop33
280
     0
102
RTVSPost2010PropOp33
 70
     1
102
RTVSPost2010Prop34
280
     0
102
RTVSPost2010PropOp34
 70
     1
102
RTVSPost2010Prop35
280
     0
102
RTVSPost2010PropOp35
 70
     1
102
RTVSPost2010Prop36
280
     0
102
RTVSPost2010PropOp36
 70
     1
102
RTVSPost2010Prop37
 90
       50
102
RTVSPost2010PropOp37
 70
     1
102
RTVSPost2010Prop38
140
0.0
102
RTVSPost2010PropOp38
 70
     1
102
RTVSPost2010Prop39
140
1.0
102
RTVSPost2010PropOp39
 70
     1
102
RTVSPost2010Prop40
 90
        0
102
RTVSPost2010PropOp40
 70
     1
102
RTVSPost2010Prop41ColorIndex
 90
       18
102
RTVSPost2010Prop41ColorRGB
 90
        0
102
RTVSPost2010PropOp41
 70
     1
102
RTVSPost2010Prop42
 90
       50
102
RTVSPost2010PropOp42
 70
     1
102
RTVSPost2010Prop43
 90
        3
102
RTVSPost2010PropOp43
 70
     1
102
RTVSPost2010Prop44ColorIndex
 90
        5
102
RTVSPost2010Prop44ColorRGB
 90
      255
102
RTVSPost2010PropOp44
 70
     1
102
RTVSPost2010Prop45
280
     0
102
RTVSPost2010PropOp45
 70
     1
102
RTVSPost2010Prop46
 90
       50
102
RTVSPost2010PropOp46
 70
     1
102
RTVSPost2010Prop47
 90
       50
102
RTVSPost2010PropOp47
 70
     1
102
RTVSPost2010Prop48
 90
       50
102
RTVSPost2010PropOp48
 70
     1
102
RTVSPost2010Prop49
280
     0
102
RTVSPost2010PropOp49
 70
     1
102
RTVSPost2010Prop50
 90
       50
102
RTVSPost2010PropOp50
 70
     1
102
RTVSPost2010Prop51ColorIndex
 90
      256
102
RTVSPost2010Prop51ColorRGB
 90
-16777216
102
RTVSPost2010PropOp51
 70
     0
102
RTVSPost2010Prop52
140
1.0
102
RTVSPost2010PropOp52
 70
     0
102
RTVSPost2010Prop53
 90
        2
102
RTVSPost2010PropOp53
 70
     1
102
RTVSPost2010Prop54
  1
strokes_ogs.tif
102
RTVSPost2010PropOp54
 70
     1
102
RTVSPost2010Prop55
280
     0
102
RTVSPost2010PropOp55
 70
     1
102
RTVSPost2010Prop56
140
1.0
102
RTVSPost2010PropOp56
 70
     1
102
RTVSPost2010Prop57
140
1.0
102
RTVSPost2010PropOp57
 70
     1
102
RTVSPropertyOp0
 70
     1
102
RTVSPropertyOp1
 70
     1
102
RTVSPropertyOp2
 70
     1
102
RTVSPropertyOp3
 70
     1
102
RTVSPropertyOp4
 70
     1
102
RTVSPropertyOp5
 70
     1
102
RTVSPropertyOp6
 70
     1
102
RTVSPropertyOp7
 70
     1
102
RTVSPropertyOp8
 70
     1
102
RTVSPropertyOp9
 70
     1
102
RTVSPropertyOp10
 70
     1
102
RTVSPropertyOp11
 70
     1
102
RTVSPropertyOp12
 70
     1
102
RTVSPropertyOp13
 70
     1
102
RTVSPropertyOp14
 70
     1
102
RTVSPropertyOp15
 70
     1
102
RTVSPropertyOp16
 70
     1
102
RTVSPropertyOp17
 70
     1
102
RTVSPropertyOp18
 70
     1
102
RTVSPropertyOp19
 70
     1
102
RTVSPropertyOp20
 70
     1
102
RTVSPropertyOp21
 70
     1
102
RTVSPropertyOp22
 70
     1
102
RTVSPropertyOp23
 70
     1
102
RTVSPropertyOp24
 70
     1
102
RTVSPropertyOp25
 70
     1
102
RTVSPropertyOp26
 70
     1
102
RTVSPropertyOp27
 70
     1
102
RTVSPropertyOp28
 70
     1
102
RTVSPropertyOp29
 70
     1
102
RTVSPropertyOp30
 70
     1
102
RTVSPropertyOp31
 70
     1
102
RTVSPropertyOp32
 70
     1
102
RTVSPropertyOp33
 70
     1
102
RTVSPropertyOp34
 70
     1
102
RTVSPropertyOp35
 70
     1
102
RTVSPropertyOp36
 70
     1
102
RTVSPropertyOp37
 70
     1
102
RTVSPropertyOp38
 70
     1
102
RTVSPropertyOp39
 70
     1
102
RTVSPropertyOp40
 70
     1
102
RTVSPropertyOp41
 70
     1
102
RTVSPropertyOp42
 70
     1
102
RTVSPropertyOp43
 70
     1
102
RTVSPropertyOp44
 70
     1
102
RTVSPropertyOp45
 70
     1
102
RTVSPropertyOp46
 70
     1
102
RTVSPropertyOp47
 70
     1
102
RTVSPropertyOp48
 70
     1
102
RTVSPropertyOp49
 70
     1
102
RTVSPropertyOp50
 70
     1
102
RTVSPropertyOp51
 70
     0
102
RTVSPropertyOp52
 70
     0
102
RTVSPropertyOp53
 70
     1
102
RTVSPropertyOp54
 70
     1
102
RTVSPropertyOp55
 70
     1
102
RTVSPropertyOp56
 70
     1
102
RTVSPropertyOp57
 70
     1
102
RTVSPropertyOp58
 70
     1
102
RTVSPropertyOp59
 70
     1
102
RTVSPropertyOp60
 70
     1
102
RTVSPropertyOp61
 70
     1
102
RTVSPropertyOp62
 70
     1
  0
XRECORD
  5
490
102
{ACAD_REACTORS
330
48F
102
}
330
48F
100
AcDbXrecord
280
     1
102
RTVSPost2010Prop28
280
     0
102
RTVSPost2010PropOp28
 70
     1
102
RTVSPost2010Prop29
280
     1
102
RTVSPost2010PropOp29
 70
     1
102
RTVSPost2010Prop30
280
     1
102
RTVSPost2010PropOp30
 70
     1
102
RTVSPost2010Prop31
280
     0
102
RTVSPost2010PropOp31
 70
     1
102
RTVSPost2010Prop32
280
     0
102
RTVSPost2010PropOp32
 70
     1
102
RTVSPost2010Prop33
280
     0
102
RTVSPost2010PropOp33
 70
     1
102
RTVSPost2010Prop34
280
     0
102
RTVSPost2010PropOp34
 70
     1
102
RTVSPost2010Prop35
280
     0
102
RTVSPost2010PropOp35
 70
     1
102
RTVSPost2010Prop36
280
     0
102
RTVSPost2010PropOp36
 70
     1
102
RTVSPost2010Prop37
 90
       50
102
RTVSPost2010PropOp37
 70
     1
102
RTVSPost2010Prop38
140
0.0
102
RTVSPost2010PropOp38
 70
     1
102
RTVSPost2010Prop39
140
1.0
102
RTVSPost2010PropOp39
 70
     1
102
RTVSPost2010Prop40
 90
        0
102
RTVSPost2010PropOp40
 70
     1
102
RTVSPost2010Prop41ColorIndex
 90
       18
102
RTVSPost2010Prop41ColorRGB
 90
        0
102
RTVSPost2010PropOp41
 70
     1
102
RTVSPost2010Prop42
 90
       50
102
RTVSPost2010PropOp42
 70
     1
102
RTVSPost2010Prop43
 90
        3
102
RTVSPost2010PropOp43
 70
     1
102
RTVSPost2010Prop44ColorIndex
 90
        5
102
RTVSPost2010Prop44ColorRGB
 90
      255
102
RTVSPost2010PropOp44
 70
     1
102
RTVSPost2010Prop45
280
     0
102
RTVSPost2010PropOp45
 70
     1
102
RTVSPost2010Prop46
 90
       50
102
RTVSPost2010PropOp46
 70
     1
102
RTVSPost2010Prop47
 90
       50
102
RTVSPost2010PropOp47
 70
     1
102
RTVSPost2010Prop48
 90
       50
102
RTVSPost2010PropOp48
 70
     1
102
RTVSPost2010Prop49
280
     0
102
RTVSPost2010PropOp49
 70
     1
102
RTVSPost2010Prop50
 90
       50
102
RTVSPost2010PropOp50
 70
     1
102
RTVSPost2010Prop51ColorIndex
 90
      256
102
RTVSPost2010Prop51ColorRGB
 90
-16777216
102
RTVSPost2010PropOp51
 70
     0
102
RTVSPost2010Prop52
140
1.0
102
RTVSPost2010PropOp52
 70
     0
102
RTVSPost2010Prop53
 90
        2
102
RTVSPost2010PropOp53
 70
     1
102
RTVSPost2010Prop54
  1
strokes_ogs.tif
102
RTVSPost2010PropOp54
 70
     1
102
RTVSPost2010Prop55
280
     0
102
RTVSPost2010PropOp55
 70
     1
102
RTVSPost2010Prop56
140
1.0
102
RTVSPost2010PropOp56
 70
     1
102
RTVSPost2010Prop57
140
1.0
102
RTVSPost2010PropOp57
 70
     1
102
RTVSPropertyOp0
 70
     1
102
RTVSPropertyOp1
 70
     1
102
RTVSPropertyOp2
 70
     1
102
RTVSPropertyOp3
 70
     1
102
RTVSPropertyOp4
 70
     1
102
RTVSPropertyOp5
 70
     1
102
RTVSPropertyOp6
 70
     1
102
RTVSPropertyOp7
 70
     1
102
RTVSPropertyOp8
 70
     1
102
RTVSPropertyOp9
 70
     1
102
RTVSPropertyOp10
 70
     1
102
RTVSPropertyOp11
 70
     1
102
RTVSPropertyOp12
 70
     1
102
RTVSPropertyOp13
 70
     1
102
RTVSPropertyOp14
 70
     1
102
RTVSPropertyOp15
 70
     1
102
RTVSPropertyOp16
 70
     1
102
RTVSPropertyOp17
 70
     1
102
RTVSPropertyOp18
 70
     1
102
RTVSPropertyOp19
 70
     1
102
RTVSPropertyOp20
 70
     1
102
RTVSPropertyOp21
 70
     1
102
RTVSPropertyOp22
 70
     1
102
RTVSPropertyOp23
 70
     1
102
RTVSPropertyOp24
 70
     1
102
RTVSPropertyOp25
 70
     1
102
RTVSPropertyOp26
 70
     1
102
RTVSPropertyOp27
 70
     1
102
RTVSPropertyOp28
 70
     1
102
RTVSPropertyOp29
 70
     1
102
RTVSPropertyOp30
 70
     1
102
RTVSPropertyOp31
 70
     1
102
RTVSPropertyOp32
 70
     1
102
RTVSPropertyOp33
 70
     1
102
RTVSPropertyOp34
 70
     1
102
RTVSPropertyOp35
 70
     1
102
RTVSPropertyOp36
 70
     1
102
RTVSPropertyOp37
 70
     1
102
RTVSPropertyOp38
 70
     1
102
RTVSPropertyOp39
 70
     1
102
RTVSPropertyOp40
 70
     1
102
RTVSPropertyOp41
 70
     1
102
RTVSPropertyOp42
 70
     1
102
RTVSPropertyOp43
 70
     1
102
RTVSPropertyOp44
 70
     1
102
RTVSPropertyOp45
 70
     1
102
RTVSPropertyOp46
 70
     1
102
RTVSPropertyOp47
 70
     1
102
RTVSPropertyOp48
 70
     1
102
RTVSPropertyOp49
 70
     1
102
RTVSPropertyOp50
 70
     1
102
RTVSPropertyOp51
 70
     0
102
RTVSPropertyOp52
 70
     0
102
RTVSPropertyOp53
 70
     1
102
RTVSPropertyOp54
 70
     1
102
RTVSPropertyOp55
 70
     1
102
RTVSPropertyOp56
 70
     1
102
RTVSPropertyOp57
 70
     1
102
RTVSPropertyOp58
 70
     1
102
RTVSPropertyOp59
 70
     1
102
RTVSPropertyOp60
 70
     1
102
RTVSPropertyOp61
 70
     1
102
RTVSPropertyOp62
 70
     1
  0
XRECORD
  5
492
102
{ACAD_REACTORS
330
491
102
}
330
491
100
AcDbXrecord
280
     1
102
RTVSPost2010Prop28
280
     0
102
RTVSPost2010PropOp28
 70
     1
102
RTVSPost2010Prop29
280
     1
102
RTVSPost2010PropOp29
 70
     1
102
RTVSPost2010Prop30
280
     1
102
RTVSPost2010PropOp30
 70
     1
102
RTVSPost2010Prop31
280
     0
102
RTVSPost2010PropOp31
 70
     1
102
RTVSPost2010Prop32
280
     0
102
RTVSPost2010PropOp32
 70
     1
102
RTVSPost2010Prop33
280
     0
102
RTVSPost2010PropOp33
 70
     1
102
RTVSPost2010Prop34
280
     0
102
RTVSPost2010PropOp34
 70
     1
102
RTVSPost2010Prop35
280
     0
102
RTVSPost2010PropOp35
 70
     1
102
RTVSPost2010Prop36
280
     0
102
RTVSPost2010PropOp36
 70
     1
102
RTVSPost2010Prop37
 90
       50
102
RTVSPost2010PropOp37
 70
     1
102
RTVSPost2010Prop38
140
0.0
102
RTVSPost2010PropOp38
 70
     1
102
RTVSPost2010Prop39
140
1.0
102
RTVSPost2010PropOp39
 70
     1
102
RTVSPost2010Prop40
 90
        0
102
RTVSPost2010PropOp40
 70
     1
102
RTVSPost2010Prop41ColorIndex
 90
       18
102
RTVSPost2010Prop41ColorRGB
 90
        0
102
RTVSPost2010PropOp41
 70
     1
102
RTVSPost2010Prop42
 90
       50
102
RTVSPost2010PropOp42
 70
     1
102
RTVSPost2010Prop43
 90
        3
102
RTVSPost2010PropOp43
 70
     1
102
RTVSPost2010Prop44ColorIndex
 90
        5
102
RTVSPost2010Prop44ColorRGB
 90
      255
102
RTVSPost2010PropOp44
 70
     1
102
RTVSPost2010Prop45
280
     0
102
RTVSPost2010PropOp45
 70
     1
102
RTVSPost2010Prop46
 90
       50
102
RTVSPost2010PropOp46
 70
     1
102
RTVSPost2010Prop47
 90
       50
102
RTVSPost2010PropOp47
 70
     1
102
RTVSPost2010Prop48
 90
       50
102
RTVSPost2010PropOp48
 70
     1
102
RTVSPost2010Prop49
280
     0
102
RTVSPost2010PropOp49
 70
     1
102
RTVSPost2010Prop50
 90
       50
102
RTVSPost2010PropOp50
 70
     1
102
RTVSPost2010Prop51ColorIndex
 90
      256
102
RTVSPost2010Prop51ColorRGB
 90
-16777216
102
RTVSPost2010PropOp51
 70
     0
102
RTVSPost2010Prop52
140
1.0
102
RTVSPost2010PropOp52
 70
     0
102
RTVSPost2010Prop53
 90
        2
102
RTVSPost2010PropOp53
 70
     1
102
RTVSPost2010Prop54
  1
strokes_ogs.tif
102
RTVSPost2010PropOp54
 70
     1
102
RTVSPost2010Prop55
280
     0
102
RTVSPost2010PropOp55
 70
     1
102
RTVSPost2010Prop56
140
1.0
102
RTVSPost2010PropOp56
 70
     1
102
RTVSPost2010Prop57
140
1.0
102
RTVSPost2010PropOp57
 70
     1
102
RTVSPropertyOp0
 70
     1
102
RTVSPropertyOp1
 70
     1
102
RTVSPropertyOp2
 70
     1
102
RTVSPropertyOp3
 70
     1
102
RTVSPropertyOp4
 70
     1
102
RTVSPropertyOp5
 70
     1
102
RTVSPropertyOp6
 70
     1
102
RTVSPropertyOp7
 70
     1
102
RTVSPropertyOp8
 70
     1
102
RTVSPropertyOp9
 70
     1
102
RTVSPropertyOp10
 70
     1
102
RTVSPropertyOp11
 70
     1
102
RTVSPropertyOp12
 70
     1
102
RTVSPropertyOp13
 70
     1
102
RTVSPropertyOp14
 70
     1
102
RTVSPropertyOp15
 70
     1
102
RTVSPropertyOp16
 70
     1
102
RTVSPropertyOp17
 70
     1
102
RTVSPropertyOp18
 70
     1
102
RTVSPropertyOp19
 70
     1
102
RTVSPropertyOp20
 70
     1
102
RTVSPropertyOp21
 70
     1
102
RTVSPropertyOp22
 70
     1
102
RTVSPropertyOp23
 70
     1
102
RTVSPropertyOp24
 70
     1
102
RTVSPropertyOp25
 70
     1
102
RTVSPropertyOp26
 70
     1
102
RTVSPropertyOp27
 70
     1
102
RTVSPropertyOp28
 70
     1
102
RTVSPropertyOp29
 70
     1
102
RTVSPropertyOp30
 70
     1
102
RTVSPropertyOp31
 70
     1
102
RTVSPropertyOp32
 70
     1
102
RTVSPropertyOp33
 70
     1
102
RTVSPropertyOp34
 70
     1
102
RTVSPropertyOp35
 70
     1
102
RTVSPropertyOp36
 70
     1
102
RTVSPropertyOp37
 70
     1
102
RTVSPropertyOp38
 70
     1
102
RTVSPropertyOp39
 70
     1
102
RTVSPropertyOp40
 70
     1
102
RTVSPropertyOp41
 70
     1
102
RTVSPropertyOp42
 70
     1
102
RTVSPropertyOp43
 70
     1
102
RTVSPropertyOp44
 70
     1
102
RTVSPropertyOp45
 70
     1
102
RTVSPropertyOp46
 70
     1
102
RTVSPropertyOp47
 70
     1
102
RTVSPropertyOp48
 70
     1
102
RTVSPropertyOp49
 70
     1
102
RTVSPropertyOp50
 70
     1
102
RTVSPropertyOp51
 70
     0
102
RTVSPropertyOp52
 70
     0
102
RTVSPropertyOp53
 70
     1
102
RTVSPropertyOp54
 70
     1
102
RTVSPropertyOp55
 70
     1
102
RTVSPropertyOp56
 70
     1
102
RTVSPropertyOp57
 70
     1
102
RTVSPropertyOp58
 70
     1
102
RTVSPropertyOp59
 70
     1
102
RTVSPropertyOp60
 70
     1
102
RTVSPropertyOp61
 70
     1
102
RTVSPropertyOp62
 70
     1
  0
ENDSEC
  0
EOF
