  0
SECTION
  2
HEADER
  9
$ACADVER
  1
AC1015
  9
$ACADMAINTVER
 70
    20
  9
$DWGCODEPAGE
  3
ANSI_932
  9
$INSBASE
 10
0.0
 20
0.0
 30
0.0
  9
$EXTMIN
 10
0.0
 20
0.0
 30
0.0
  9
$EXTMAX
 10
386.2555305512511
 20
93.81346656251251
 30
0.0
  9
$LIMMIN
 10
0.0
 20
0.0
  9
$LIMMAX
 10
420.0
 20
297.0
  9
$ORTHOMODE
 70
     1
  9
$REGENMODE
 70
     1
  9
$FILLMODE
 70
     1
  9
$QTEXTMODE
 70
     0
  9
$MIRRTEXT
 70
     1
  9
$LTSCALE
 40
1.0
  9
$ATTMODE
 70
     1
  9
$TEXTSIZE
 40
30.0
  9
$TRACEWID
 40
0.05
  9
$TEXTSTYLE
  7
SUNPOU
  9
$CLAYER
  8
0
  9
$CELTYPE
  6
BYLAYER
  9
$CECOLOR
 62
     7
  9
$CELTSCALE
 40
1.0
  9
$DISPSILH
 70
     0
  9
$DIMSCALE
 40
1.0
  9
$DIMASZ
 40
3.0
  9
$DIMEXO
 40
2.0
  9
$DIMDLI
 40
0.38
  9
$DIMRND
 40
0.0
  9
$DIMDLE
 40
0.0
  9
$DIMEXE
 40
0.0
  9
$DIMTP
 40
0.0
  9
$DIMTM
 40
0.0
  9
$DIMTXT
 40
7.0
  9
$DIMCEN
 40
1.0
  9
$DIMTSZ
 40
0.0
  9
$DIMTOL
 70
     0
  9
$DIMLIM
 70
     0
  9
$DIMTIH
 70
     0
  9
$DIMTOH
 70
     0
  9
$DIMSE1
 70
     0
  9
$DIMSE2
 70
     0
  9
$DIMTAD
 70
     1
  9
$DIMZIN
 70
     0
  9
$DIMBLK
  1

  9
$DIMASO
 70
     1
  9
$DIMSHO
 70
     1
  9
$DIMPOST
  1

  9
$DIMAPOST
  1

  9
$DIMALT
 70
     0
  9
$DIMALTD
 70
     2
  9
$DIMALTF
 40
25.4
  9
$DIMLFAC
 40
1.0
  9
$DIMTOFL
 70
     0
  9
$DIMTVP
 40
0.0
  9
$DIMTIX
 70
     1
  9
$DIMSOXD
 70
     0
  9
$DIMSAH
 70
     1
  9
$DIMBLK1
  1
DOTSMALL
  9
$DIMBLK2
  1
DOTSMALL
  9
$DIMSTYLE
  2
1
  9
$DIMCLRD
 70
    60
  9
$DIMCLRE
 70
    70
  9
$DIMCLRT
 70
    60
  9
$DIMTFAC
 40
0.0642857142857143
  9
$DIMGAP
 40
1.0
  9
$DIMJUST
 70
     0
  9
$DIMSD1
 70
     0
  9
$DIMSD2
 70
     0
  9
$DIMTOLJ
 70
     1
  9
$DIMTZIN
 70
     0
  9
$DIMALTZ
 70
     0
  9
$DIMALTTZ
 70
     0
  9
$DIMUPT
 70
     0
  9
$DIMDEC
 70
     0
  9
$DIMTDEC
 70
     4
  9
$DIMALTU
 70
     2
  9
$DIMALTTD
 70
     2
  9
$DIMTXSTY
  7
STANDARD
  9
$DIMAUNIT
 70
     0
  9
$DIMADEC
 70
     0
  9
$DIMALTRND
 40
0.0
  9
$DIMAZIN
 70
     0
  9
$DIMDSEP
 70
    46
  9
$DIMATFIT
 70
     3
  9
$DIMFRAC
 70
     0
  9
$DIMLDRBLK
  1
DOTSMALL
  9
$DIMLUNIT
 70
     2
  9
$DIMLWD
 70
    -2
  9
$DIMLWE
 70
    -2
  9
$DIMTMOVE
 70
     0
  9
$LUNITS
 70
     4
  9
$LUPREC
 70
     4
  9
$SKETCHINC
 40
0.1
  9
$FILLETRAD
 40
0.0
  9
$AUNITS
 70
     0
  9
$AUPREC
 70
     2
  9
$MENU
  1
acad
  9
$ELEVATION
 40
0.0
  9
$PELEVATION
 40
0.0
  9
$THICKNESS
 40
0.0
  9
$LIMCHECK
 70
     0
  9
$CHAMFERA
 40
0.0
  9
$CHAMFERB
 40
0.0
  9
$CHAMFERC
 40
0.0
  9
$CHAMFERD
 40
0.0
  9
$SKPOLY
 70
     0
  9
$TDCREATE
 40
2450623.676023380
  9
$TDUCREATE
 40
2450623.301023380
  9
$TDUPDATE
 40
2457527.575791991
  9
$TDUUPDATE
 40
2457527.200791991
  9
$TDINDWG
 40
5.3857540162
  9
$TDUSRTIMER
 40
5.3857538194
  9
$USRTIMER
 70
     1
  9
$ANGBASE
 50
0.0
  9
$ANGDIR
 70
     0
  9
$PDMODE
 70
     0
  9
$PDSIZE
 40
0.0
  9
$PLINEWID
 40
0.0
  9
$SPLFRAME
 70
     0
  9
$SPLINETYPE
 70
     6
  9
$SPLINESEGS
 70
     8
  9
$HANDSEED
  5
3DA
  9
$SURFTAB1
 70
     6
  9
$SURFTAB2
 70
     6
  9
$SURFTYPE
 70
     6
  9
$SURFU
 70
     6
  9
$SURFV
 70
     6
  9
$UCSBASE
  2

  9
$UCSNAME
  2

  9
$UCSORG
 10
0.0
 20
0.0
 30
0.0
  9
$UCSXDIR
 10
1.0
 20
0.0
 30
0.0
  9
$UCSYDIR
 10
0.0
 20
1.0
 30
0.0
  9
$UCSORTHOREF
  2

  9
$UCSORTHOVIEW
 70
     0
  9
$UCSORGTOP
 10
0.0
 20
0.0
 30
0.0
  9
$UCSORGBOTTOM
 10
0.0
 20
0.0
 30
0.0
  9
$UCSORGLEFT
 10
0.0
 20
0.0
 30
0.0
  9
$UCSORGRIGHT
 10
0.0
 20
0.0
 30
0.0
  9
$UCSORGFRONT
 10
0.0
 20
0.0
 30
0.0
  9
$UCSORGBACK
 10
0.0
 20
0.0
 30
0.0
  9
$PUCSBASE
  2

  9
$PUCSNAME
  2

  9
$PUCSORG
 10
0.0
 20
0.0
 30
0.0
  9
$PUCSXDIR
 10
1.0
 20
0.0
 30
0.0
  9
$PUCSYDIR
 10
0.0
 20
1.0
 30
0.0
  9
$PUCSORTHOREF
  2

  9
$PUCSORTHOVIEW
 70
     0
  9
$PUCSORGTOP
 10
0.0
 20
0.0
 30
0.0
  9
$PUCSORGBOTTOM
 10
0.0
 20
0.0
 30
0.0
  9
$PUCSORGLEFT
 10
0.0
 20
0.0
 30
0.0
  9
$PUCSORGRIGHT
 10
0.0
 20
0.0
 30
0.0
  9
$PUCSORGFRONT
 10
0.0
 20
0.0
 30
0.0
  9
$PUCSORGBACK
 10
0.0
 20
0.0
 30
0.0
  9
$USERI1
 70
     0
  9
$USERI2
 70
     0
  9
$USERI3
 70
     0
  9
$USERI4
 70
     0
  9
$USERI5
 70
     0
  9
$USERR1
 40
0.0
  9
$USERR2
 40
0.0
  9
$USERR3
 40
0.0
  9
$USERR4
 40
0.0
  9
$USERR5
 40
0.0
  9
$WORLDVIEW
 70
     1
  9
$SHADEDGE
 70
     3
  9
$SHADEDIF
 70
    70
  9
$TILEMODE
 70
     1
  9
$MAXACTVP
 70
    16
  9
$PINSBASE
 10
0.0
 20
0.0
 30
0.0
  9
$PLIMCHECK
 70
     0
  9
$PEXTMIN
 10
1.000000000000000E+20
 20
1.000000000000000E+20
 30
1.000000000000000E+20
  9
$PEXTMAX
 10
-1.000000000000000E+20
 20
-1.000000000000000E+20
 30
-1.000000000000000E+20
  9
$PLIMMIN
 10
0.0
 20
0.0
  9
$PLIMMAX
 10
12.0
 20
9.0
  9
$UNITMODE
 70
     0
  9
$VISRETAIN
 70
     0
  9
$PLINEGEN
 70
     0
  9
$PSLTSCALE
 70
     1
  9
$TREEDEPTH
 70
  3020
  9
$CMLSTYLE
  2
STANDARD
  9
$CMLJUST
 70
     0
  9
$CMLSCALE
 40
1.0
  9
$PROXYGRAPHICS
 70
     1
  9
$MEASUREMENT
 70
     0
  9
$CELWEIGHT
370
    -1
  9
$ENDCAPS
280
     0
  9
$JOINSTYLE
280
     0
  9
$LWDISPLAY
290
     0
  9
$INSUNITS
 70
     0
  9
$HYPERLINKBASE
  1

  9
$STYLESHEET
  1

  9
$XEDIT
290
     1
  9
$CEPSNTYPE
380
     0
  9
$PSTYLEMODE
290
     1
  9
$FINGERPRINTGUID
  2
{EC500B06-A140-4587-A241-23F7AFDB150D}
  9
$VERSIONGUID
  2
{DBB4C5ED-7227-47D7-98D1-0CDCD353A7D5}
  9
$EXTNAMES
290
     1
  9
$PSVPSCALE
 40
0.0
  9
$OLESTARTUP
290
     0
  0
ENDSEC
  0
SECTION
  2
CLASSES
  0
CLASS
  1
DICTIONARYVAR
  2
AcDbDictionaryVar
  3
ObjectDBX Classes
 90
        0
280
     0
281
     0
  0
CLASS
  1
RASTERVARIABLES
  2
AcDbRasterVariables
  3
ISM
 90
    32768
280
     0
281
     0
  0
CLASS
  1
ACDBDICTIONARYWDFLT
  2
AcDbDictionaryWithDefault
  3
ObjectDBX Classes
 90
        0
280
     0
281
     0
  0
CLASS
  1
ACDBPLACEHOLDER
  2
AcDbPlaceHolder
  3
ObjectDBX Classes
 90
        0
280
     0
281
     0
  0
CLASS
  1
LAYOUT
  2
AcDbLayout
  3
ObjectDBX Classes
 90
        0
280
     0
281
     0
  0
CLASS
  1
AEC_VARS_DWG_SETUP
  2
AecDbVarsDwgSetup
  3
AecBase60|Product Desc: Autodesk Architectural Desktop 2007 |Company: Autodesk,Inc. |WEB Address: www.autodesk.com
 90
    32897
280
     1
281
     0
  0
CLASS
  1
AEC_DISP_REP_MASS_ELEM_MODEL
  2
AecDbDispRepMassElemModel
  3
AecBaseEx60|Product Desc: Autodesk Architectural Desktop 2007 |Company: Autodesk,Inc. |WEB Address: www.autodesk.com
 90
    32897
280
     1
281
     0
  0
CLASS
  1
AEC_DISP_PROPS_MASS_ELEM_MODEL
  2
AecDbDispPropsMassElem
  3
AecBaseEx60|Product Desc: Autodesk Architectural Desktop 2007 |Company: Autodesk,Inc. |WEB Address: www.autodesk.com
 90
    32897
280
     1
281
     0
  0
CLASS
  1
AEC_DISP_REP_MASS_ELEM_SCHEM
  2
AecDbDispRepMassElemSchem
  3
AecBaseEx60|Product Desc: Autodesk Architectural Desktop 2007 |Company: Autodesk,Inc. |WEB Address: www.autodesk.com
 90
    32897
280
     1
281
     0
  0
CLASS
  1
AEC_DISP_REP_DOOR_ELEV
  2
AecDbDispRepDoorElev
  3
AecArchBase60|Product Desc: Autodesk Architectural Desktop 2007 |Company: Autodesk,Inc. |WEB Address: www.autodesk.com
 90
    32897
280
     1
281
     0
  0
CLASS
  1
AEC_DISP_PROPS_DOOR
  2
AecDbDispPropsDoor
  3
AecArchBase60|Product Desc: Autodesk Architectural Desktop 2007 |Company: Autodesk,Inc. |WEB Address: www.autodesk.com
 90
    32897
280
     1
281
     0
  0
CLASS
  1
AEC_DISP_REP_MASKBLOCK_REF
  2
AecDbDispRepMaskBlockRef
  3
AecBase60|Product Desc: Autodesk Architectural Desktop 2007 |Company: Autodesk,Inc. |WEB Address: www.autodesk.com
 90
    32897
280
     1
281
     0
  0
CLASS
  1
AEC_DISP_PROPS_MASKBLOCK
  2
AecDbDispPropsMaskBlock
  3
AecBase60|Product Desc: Autodesk Architectural Desktop 2007 |Company: Autodesk,Inc. |WEB Address: www.autodesk.com
 90
    32897
280
     1
281
     0
  0
CLASS
  1
AEC_DISP_REP_LAYOUT_GRID3D
  2
AecDbDispRepLayoutGrid3d
  3
AecBase60|Product Desc: Autodesk Architectural Desktop 2007 |Company: Autodesk,Inc. |WEB Address: www.autodesk.com
 90
    32897
280
     1
281
     0
  0
CLASS
  1
AEC_DISP_PROPS_LAYOUT_GRID3D
  2
AecDbDispPropsLayoutGrid3d
  3
AecBase60|Product Desc: Autodesk Architectural Desktop 2007 |Company: Autodesk,Inc. |WEB Address: www.autodesk.com
 90
    32897
280
     1
281
     0
  0
CLASS
  1
AEC_DISP_REP_ENT_REF
  2
AecDbDispRepEntRef
  3
AecBase60|Product Desc: Autodesk Architectural Desktop 2007 |Company: Autodesk,Inc. |WEB Address: www.autodesk.com
 90
    32897
280
     1
281
     0
  0
CLASS
  1
AEC_DISP_PROPS_ENT_REF
  2
AecDbDispPropsEntRef
  3
AecBase60|Product Desc: Autodesk Architectural Desktop 2007 |Company: Autodesk,Inc. |WEB Address: www.autodesk.com
 90
    32897
280
     1
281
     0
  0
CLASS
  1
AEC_DISP_REP_CLIP_VOLUME_RESULT_SUBDIV
  2
AecDbDispRepClipVolResSubDiv
  3
AecBase60|Product Desc: Autodesk Architectural Desktop 2007 |Company: Autodesk,Inc. |WEB Address: www.autodesk.com
 90
    32897
280
     1
281
     0
  0
CLASS
  1
AEC_DISP_PROPS_CLIP_VOLUME_RESULT
  2
AecDbDispPropsClipVolResSubDiv
  3
AecBase60|Product Desc: Autodesk Architectural Desktop 2007 |Company: Autodesk,Inc. |WEB Address: www.autodesk.com
 90
    32897
280
     1
281
     0
  0
CLASS
  1
AEC_DISP_REP_CLIP_VOLUME_RESULT
  2
AecDbDispRepClipVolResult
  3
AecBase60|Product Desc: Autodesk Architectural Desktop 2007 |Company: Autodesk,Inc. |WEB Address: www.autodesk.com
 90
    32897
280
     1
281
     0
  0
CLASS
  1
AEC_DISP_REP_CLIP_VOLUME_PLAN
  2
AecDbDispRepClipVolPlan
  3
AecBase60|Product Desc: Autodesk Architectural Desktop 2007 |Company: Autodesk,Inc. |WEB Address: www.autodesk.com
 90
    32897
280
     1
281
     0
  0
CLASS
  1
AEC_DISP_PROPS_CLIP_VOLUME
  2
AecDbDispPropsClipVol
  3
AecBase60|Product Desc: Autodesk Architectural Desktop 2007 |Company: Autodesk,Inc. |WEB Address: www.autodesk.com
 90
    32897
280
     1
281
     0
  0
CLASS
  1
AEC_DISP_REP_CLIP_VOLUME_MODEL
  2
AecDbDispRepClipVolModel
  3
AecBase60|Product Desc: Autodesk Architectural Desktop 2007 |Company: Autodesk,Inc. |WEB Address: www.autodesk.com
 90
    32897
280
     1
281
     0
  0
CLASS
  1
AEC_DISP_REP_ANCHOR_ENT_TO_NODE
  2
AecDbDispRepAnchorEntToNode
  3
AecBaseEx60|Product Desc: Autodesk Architectural Desktop 2007 |Company: Autodesk,Inc. |WEB Address: www.autodesk.com
 90
    32897
280
     1
281
     0
  0
CLASS
  1
AEC_DISP_PROPS_ENT
  2
AecDbDispPropsEnt
  3
AecBase60|Product Desc: Autodesk Architectural Desktop 2007 |Company: Autodesk,Inc. |WEB Address: www.autodesk.com
 90
    32897
280
     1
281
     0
  0
CLASS
  1
AEC_DISP_REP_LAYOUT_GRID2D
  2
AecDbDispRepLayoutGrid2d
  3
AecBase60|Product Desc: Autodesk Architectural Desktop 2007 |Company: Autodesk,Inc. |WEB Address: www.autodesk.com
 90
    32897
280
     1
281
     0
  0
CLASS
  1
AEC_DISP_PROPS_LAYOUT_GRID2D
  2
AecDbDispPropsLayoutGrid2d
  3
AecBase60|Product Desc: Autodesk Architectural Desktop 2007 |Company: Autodesk,Inc. |WEB Address: www.autodesk.com
 90
    32897
280
     1
281
     0
  0
CLASS
  1
AEC_DISP_REP_LAYOUT_CURVE
  2
AecDbDispRepLayoutCurve
  3
AecBase60|Product Desc: Autodesk Architectural Desktop 2007 |Company: Autodesk,Inc. |WEB Address: www.autodesk.com
 90
    32897
280
     1
281
     0
  0
CLASS
  1
AEC_DISP_PROPS_LAYOUT_CURVE
  2
AecDbDispPropsLayoutCurve
  3
AecBase60|Product Desc: Autodesk Architectural Desktop 2007 |Company: Autodesk,Inc. |WEB Address: www.autodesk.com
 90
    32897
280
     1
281
     0
  0
CLASS
  1
AEC_DISP_REP_ANCHOR
  2
AecDbDispRepAnchor
  3
AecBase60|Product Desc: Autodesk Architectural Desktop 2007 |Company: Autodesk,Inc. |WEB Address: www.autodesk.com
 90
    32897
280
     1
281
     0
  0
CLASS
  1
AEC_DISP_REP_CAMERA
  2
AecDbDispRepCamera
  3
AecBase60|Product Desc: Autodesk Architectural Desktop 2007 |Company: Autodesk,Inc. |WEB Address: www.autodesk.com
 90
    32897
280
     1
281
     0
  0
CLASS
  1
AEC_DISP_PROPS_CAMERA
  2
AecDbDispPropsCamera
  3
AecBase60|Product Desc: Autodesk Architectural Desktop 2007 |Company: Autodesk,Inc. |WEB Address: www.autodesk.com
 90
    32897
280
     1
281
     0
  0
CLASS
  1
AEC_DISP_REP_SLICE
  2
AecDbDispRepSlice
  3
AecBase60|Product Desc: Autodesk Architectural Desktop 2007 |Company: Autodesk,Inc. |WEB Address: www.autodesk.com
 90
    32897
280
     1
281
     0
  0
CLASS
  1
AEC_DISP_PROPS_SLICE
  2
AecDbDispPropsSlice
  3
AecBase60|Product Desc: Autodesk Architectural Desktop 2007 |Company: Autodesk,Inc. |WEB Address: www.autodesk.com
 90
    32897
280
     1
281
     0
  0
CLASS
  1
AEC_DISP_REP_MVBLOCK_REF
  2
AecDbDispRepMvBlockRef
  3
AecBase60|Product Desc: Autodesk Architectural Desktop 2007 |Company: Autodesk,Inc. |WEB Address: www.autodesk.com
 90
    32897
280
     1
281
     0
  0
CLASS
  1
AEC_DISP_REP_MVBLOCK_REF_MODEL
  2
AecDbDispRepMvBlockRefModel
  3
AecBase60|Product Desc: Autodesk Architectural Desktop 2007 |Company: Autodesk,Inc. |WEB Address: www.autodesk.com
 90
    32897
280
     1
281
     0
  0
CLASS
  1
AEC_DISP_REP_MASS_GROUP_MODEL
  2
AecDbDispRepMassGroupModel
  3
AecBaseEx60|Product Desc: Autodesk Architectural Desktop 2007 |Company: Autodesk,Inc. |WEB Address: www.autodesk.com
 90
    32897
280
     1
281
     0
  0
CLASS
  1
AEC_DISP_PROPS_MASS_GROUP
  2
AecDbDispPropsMassGroup
  3
AecBaseEx60|Product Desc: Autodesk Architectural Desktop 2007 |Company: Autodesk,Inc. |WEB Address: www.autodesk.com
 90
    32897
280
     1
281
     0
  0
CLASS
  1
AEC_DISP_REP_MASS_GROUP_PLAN
  2
AecDbDispRepMassGroupPlan
  3
AecBaseEx60|Product Desc: Autodesk Architectural Desktop 2007 |Company: Autodesk,Inc. |WEB Address: www.autodesk.com
 90
    32897
280
     1
281
     0
  0
CLASS
  1
AEC_DISP_REP_DOOR_RCP
  2
AecDbDispRepDoorRcp
  3
AecArchBase60|Product Desc: Autodesk Architectural Desktop 2007 |Company: Autodesk,Inc. |WEB Address: www.autodesk.com
 90
    32897
280
     1
281
     0
  0
CLASS
  1
AEC_DISP_REP_DOOR_NOMINAL
  2
AecDbDispRepDoorNominal
  3
AecArchBase60|Product Desc: Autodesk Architectural Desktop 2007 |Company: Autodesk,Inc. |WEB Address: www.autodesk.com
 90
    32897
280
     1
281
     0
  0
CLASS
  1
AEC_DISP_PROPS_DOOR_NOMINAL
  2
AecDbDispPropsDoorNominal
  3
AecArchBase60|Product Desc: Autodesk Architectural Desktop 2007 |Company: Autodesk,Inc. |WEB Address: www.autodesk.com
 90
    32897
280
     1
281
     0
  0
CLASS
  1
AEC_DISP_REP_DOOR_PLAN
  2
AecDbDispRepDoorPlan
  3
AecArchBase60|Product Desc: Autodesk Architectural Desktop 2007 |Company: Autodesk,Inc. |WEB Address: www.autodesk.com
 90
    32897
280
     1
281
     0
  0
CLASS
  1
AEC_DISP_REP_DOOR_MODEL
  2
AecDbDispRepDoorModel
  3
AecArchBase60|Product Desc: Autodesk Architectural Desktop 2007 |Company: Autodesk,Inc. |WEB Address: www.autodesk.com
 90
    32897
280
     1
281
     0
  0
CLASS
  1
AEC_DISP_REP_MVBLOCK_REF_RCP
  2
AecDbDispRepMvBlockRefRcp
  3
AecArchBase60|Product Desc: Autodesk Architectural Desktop 2007 |Company: Autodesk,Inc. |WEB Address: www.autodesk.com
 90
    32897
280
     1
281
     0
  0
CLASS
  1
AEC_DISP_REP_MASS_GROUP_RCP
  2
AecDbDispRepMassGroupRcp
  3
AecArchBase60|Product Desc: Autodesk Architectural Desktop 2007 |Company: Autodesk,Inc. |WEB Address: www.autodesk.com
 90
    32897
280
     1
281
     0
  0
CLASS
  1
AEC_DISP_REP_MASS_ELEM_RCP
  2
AecDbDispRepMassElemRcp
  3
AecArchBase60|Product Desc: Autodesk Architectural Desktop 2007 |Company: Autodesk,Inc. |WEB Address: www.autodesk.com
 90
    32897
280
     1
281
     0
  0
CLASS
  1
AEC_DISP_REP_MASKBLOCK_REF_RCP
  2
AecDbDispRepMaskBlockRefRcp
  3
AecArchBase60|Product Desc: Autodesk Architectural Desktop 2007 |Company: Autodesk,Inc. |WEB Address: www.autodesk.com
 90
    32897
280
     1
281
     0
  0
CLASS
  1
AEC_DISP_REP_COLUMN_GRID_RCP
  2
AecDbDispRepColumnGridRcp
  3
AecArchBase
 90
    32897
280
     1
281
     0
  0
CLASS
  1
AEC_DISP_REP_COLUMN_GRID_MODEL
  2
AecDbDispRepColumnGridModel
  3
AecArchBase
 90
    32897
280
     1
281
     0
  0
CLASS
  1
AEC_DISP_REP_COLUMN_GRID
  2
AecDbDispRepColumnGrid
  3
AecArchBase
 90
    32897
280
     1
281
     0
  0
CLASS
  1
AEC_DISP_REP_CEILING_GRID_RCP
  2
AecDbDispRepCeilingGridRcp
  3
AecArchBase60|Product Desc: Autodesk Architectural Desktop 2007 |Company: Autodesk,Inc. |WEB Address: www.autodesk.com
 90
    32897
280
     1
281
     0
  0
CLASS
  1
AEC_DISP_REP_CEILING_GRID_MODEL
  2
AecDbDispRepCeilingGridModel
  3
AecArchBase60|Product Desc: Autodesk Architectural Desktop 2007 |Company: Autodesk,Inc. |WEB Address: www.autodesk.com
 90
    32897
280
     1
281
     0
  0
CLASS
  1
AEC_DISP_REP_CEILING_GRID
  2
AecDbDispRepCeilingGrid
  3
AecArchBase60|Product Desc: Autodesk Architectural Desktop 2007 |Company: Autodesk,Inc. |WEB Address: www.autodesk.com
 90
    33661
280
     1
281
     0
  0
CLASS
  1
AEC_DISP_REP_BDG_SECTION_SUBDIV
  2
AecDbDispRepBdgSectionSubDiv
  3
AecArchBase60|Product Desc: Autodesk Architectural Desktop 2007 |Company: Autodesk,Inc. |WEB Address: www.autodesk.com
 90
    32897
280
     1
281
     0
  0
CLASS
  1
AEC_DISP_REP_BDG_SECTION_MODEL
  2
AecDbDispRepBdgSectionModel
  3
AecArchBase60|Product Desc: Autodesk Architectural Desktop 2007 |Company: Autodesk,Inc. |WEB Address: www.autodesk.com
 90
    32897
280
     1
281
     0
  0
CLASS
  1
AEC_DISP_REP_BDG_SECTIONLINE_RCP
  2
AecDbDispRepBdgSectionLineRcp
  3
AecArchBase60|Product Desc: Autodesk Architectural Desktop 2007 |Company: Autodesk,Inc. |WEB Address: www.autodesk.com
 90
    32897
280
     1
281
     0
  0
CLASS
  1
AEC_DISP_REP_BDG_SECTIONLINE_PLAN
  2
AecDbDispRepBdgSectionLinePlan
  3
AecArchBase60|Product Desc: Autodesk Architectural Desktop 2007 |Company: Autodesk,Inc. |WEB Address: www.autodesk.com
 90
    32897
280
     1
281
     0
  0
CLASS
  1
AEC_DISP_REP_BDG_ELEVLINE_RCP
  2
AecDbDispRepBdgElevLineRcp
  3
AecArchBase60|Product Desc: Autodesk Architectural Desktop 2007 |Company: Autodesk,Inc. |WEB Address: www.autodesk.com
 90
    32897
280
     1
281
     0
  0
CLASS
  1
AEC_DISP_REP_BDG_SECTIONLINE_PLAN
  2
AecDbDispRepBdgElevLinePlan
  3
AecArchBase60|Product Desc: Autodesk Architectural Desktop 2007 |Company: Autodesk,Inc. |WEB Address: www.autodesk.com
 90
    32897
280
     1
281
     0
  0
CLASS
  1
AEC_DISP_REP_BDG_SECTIONLINE_MODEL
  2
AecDbDispRepBdgSectionLineModel
  3
AecArchBase60|Product Desc: Autodesk Architectural Desktop 2007 |Company: Autodesk,Inc. |WEB Address: www.autodesk.com
 90
    32897
280
     1
281
     0
  0
CLASS
  1
AEC_DISP_REP_BDG_ELEVLINE_MODEL
  2
AecDbDispRepBdgElevLineModel
  3
AecArchBase60|Product Desc: Autodesk Architectural Desktop 2007 |Company: Autodesk,Inc. |WEB Address: www.autodesk.com
 90
    32897
280
     1
281
     0
  0
CLASS
  1
AEC_DISP_REP_ANCHOR_BUB_TO_GRID_RCP
  2
AecDbDispRepAnchorBubToGridRcp
  3
AecArchBase
 90
    32897
280
     1
281
     0
  0
CLASS
  1
AEC_DISP_REP_ANCHOR_BUB_TO_GRID_MODEL
  2
AecDbDispRepAnchorBubToGridMdl
  3
AecArchBase
 90
    32897
280
     1
281
     0
  0
CLASS
  1
AEC_DISP_REP_ANCHOR_BUB_TO_GRID
  2
AecDbDispRepAnchorBubToGrid
  3
AecArchBase
 90
    32897
280
     1
281
     0
  0
CLASS
  1
AEC_DISP_REP_WINDOW_RCP
  2
AecDbDispRepWindowRcp
  3
AecArchBase60|Product Desc: Autodesk Architectural Desktop 2007 |Company: Autodesk,Inc. |WEB Address: www.autodesk.com
 90
    32897
280
     1
281
     0
  0
CLASS
  1
AEC_DISP_PROPS_WINDOW
  2
AecDbDispPropsWindow
  3
AecArchBase60|Product Desc: Autodesk Architectural Desktop 2007 |Company: Autodesk,Inc. |WEB Address: www.autodesk.com
 90
    32897
280
     1
281
     0
  0
CLASS
  1
AEC_DISP_REP_ROOF_RCP
  2
AecDbDispRepRoofRcp
  3
AecArchBase60|Product Desc: Autodesk Architectural Desktop 2007 |Company: Autodesk,Inc. |WEB Address: www.autodesk.com
 90
    32897
280
     1
281
     0
  0
CLASS
  1
AEC_DISP_PROPS_ROOF
  2
AecDbDispPropsRoof
  3
AecArchBase60|Product Desc: Autodesk Architectural Desktop 2007 |Company: Autodesk,Inc. |WEB Address: www.autodesk.com
 90
    32897
280
     1
281
     0
  0
CLASS
  1
AEC_DISP_REP_ROOF_PLAN
  2
AecDbDispRepRoofPlan
  3
AecArchBase60|Product Desc: Autodesk Architectural Desktop 2007 |Company: Autodesk,Inc. |WEB Address: www.autodesk.com
 90
    32897
280
     1
281
     0
  0
CLASS
  1
AEC_DISP_REP_WINDOW_SILL_PLAN
  2
AecDbDispRepWindowSillPlan
  3
AecArchBase60|Product Desc: Autodesk Architectural Desktop 2007 |Company: Autodesk,Inc. |WEB Address: www.autodesk.com
 90
    32897
280
     1
281
     0
  0
CLASS
  1
AEC_DISP_PROPS_WINDOW_SILL_PLAN
  2
AecDbDispPropsWindowSillPlan
  3
AecArchBase60|Product Desc: Autodesk Architectural Desktop 2007 |Company: Autodesk,Inc. |WEB Address: www.autodesk.com
 90
    32897
280
     1
281
     0
  0
CLASS
  1
AEC_DISP_REP_SPACE_PLAN
  2
AecDbDispRepSpacePlan
  3
AecArchBase60|Product Desc: Autodesk Architectural Desktop 2007 |Company: Autodesk,Inc. |WEB Address: www.autodesk.com
 90
    32897
280
     1
281
     0
  0
CLASS
  1
AEC_DISP_PROPS_SPACE_PLAN
  2
AecDbDispPropsSpacePlan
  3
AecArchBase60|Product Desc: Autodesk Architectural Desktop 2007 |Company: Autodesk,Inc. |WEB Address: www.autodesk.com
 90
    32897
280
     1
281
     0
  0
CLASS
  1
AEC_DISP_REP_SPACE_MODEL
  2
AecDbDispRepSpaceModel
  3
AecArchBase60|Product Desc: Autodesk Architectural Desktop 2007 |Company: Autodesk,Inc. |WEB Address: www.autodesk.com
 90
    32897
280
     1
281
     0
  0
CLASS
  1
AEC_DISP_PROPS_SPACE_MODEL
  2
AecDbDispPropsSpaceModel
  3
AecArchBase60|Product Desc: Autodesk Architectural Desktop 2007 |Company: Autodesk,Inc. |WEB Address: www.autodesk.com
 90
    32897
280
     1
281
     0
  0
CLASS
  1
AEC_DISP_REP_WINDOW_MODEL
  2
AecDbDispRepWindowModel
  3
AecArchBase60|Product Desc: Autodesk Architectural Desktop 2007 |Company: Autodesk,Inc. |WEB Address: www.autodesk.com
 90
    32897
280
     1
281
     0
  0
CLASS
  1
AEC_DISP_REP_WINDOW_NOMINAL
  2
AecDbDispRepWindowNominal
  3
AecArchBase60|Product Desc: Autodesk Architectural Desktop 2007 |Company: Autodesk,Inc. |WEB Address: www.autodesk.com
 90
    32897
280
     1
281
     0
  0
CLASS
  1
AEC_DISP_PROPS_WINDOW_NOMINAL
  2
AecDbDispPropsWindowNominal
  3
AecArchBase60|Product Desc: Autodesk Architectural Desktop 2007 |Company: Autodesk,Inc. |WEB Address: www.autodesk.com
 90
    32897
280
     1
281
     0
  0
CLASS
  1
AEC_DISP_REP_OPENING
  2
AecDbDispRepOpening
  3
AecArchBase60|Product Desc: Autodesk Architectural Desktop 2007 |Company: Autodesk,Inc. |WEB Address: www.autodesk.com
 90
    32897
280
     1
281
     0
  0
CLASS
  1
AEC_DISP_PROPS_OPENING
  2
AecDbDispPropsOpening
  3
AecArchBase60|Product Desc: Autodesk Architectural Desktop 2007 |Company: Autodesk,Inc. |WEB Address: www.autodesk.com
 90
    32897
280
     1
281
     0
  0
CLASS
  1
AEC_DISP_REP_OPENING_MODEL
  2
AecDbDispRepOpeningModel
  3
AecArchBase60|Product Desc: Autodesk Architectural Desktop 2007 |Company: Autodesk,Inc. |WEB Address: www.autodesk.com
 90
    32897
280
     1
281
     0
  0
CLASS
  1
AEC_DISP_REP_RAILING_PLAN
  2
AecDbDispRepRailingPlan
  3
AecArchBase60|Product Desc: Autodesk Architectural Desktop 2007 |Company: Autodesk,Inc. |WEB Address: www.autodesk.com
 90
    32897
280
     1
281
     0
  0
CLASS
  1
AEC_DISP_PROPS_RAILING_PLAN
  2
AecDbDispPropsRailingPlan
  3
AecArchBase60|Product Desc: Autodesk Architectural Desktop 2007 |Company: Autodesk,Inc. |WEB Address: www.autodesk.com
 90
    32897
280
     1
281
     0
  0
CLASS
  1
AEC_DISP_REP_RAILING_MODEL
  2
AecDbDispRepRailingModel
  3
AecArchBase60|Product Desc: Autodesk Architectural Desktop 2007 |Company: Autodesk,Inc. |WEB Address: www.autodesk.com
 90
    32897
280
     1
281
     0
  0
CLASS
  1
AEC_DISP_PROPS_RAILING_MODEL
  2
AecDbDispPropsRailingModel
  3
AecArchBase60|Product Desc: Autodesk Architectural Desktop 2007 |Company: Autodesk,Inc. |WEB Address: www.autodesk.com
 90
    32897
280
     1
281
     0
  0
CLASS
  1
AEC_DISP_REP_WINDOW_ELEV
  2
AecDbDispRepWindowElev
  3
AecArchBase60|Product Desc: Autodesk Architectural Desktop 2007 |Company: Autodesk,Inc. |WEB Address: www.autodesk.com
 90
    32897
280
     1
281
     0
  0
CLASS
  1
AEC_DISP_REP_DOOR_THRESHOLD_PLAN
  2
AecDbDispRepDoorThresholdPlan
  3
AecArchBase60|Product Desc: Autodesk Architectural Desktop 2007 |Company: Autodesk,Inc. |WEB Address: www.autodesk.com
 90
    32897
280
     1
281
     0
  0
CLASS
  1
AEC_DISP_PROPS_DOOR_THRESHOLD_PLAN
  2
AecDbDispPropsDoorThresholdPlan
  3
AecArchBase60|Product Desc: Autodesk Architectural Desktop 2007 |Company: Autodesk,Inc. |WEB Address: www.autodesk.com
 90
    32897
280
     1
281
     0
  0
CLASS
  1
AEC_DISP_REP_ROOF_MODEL
  2
AecDbDispRepRoofModel
  3
AecArchBase60|Product Desc: Autodesk Architectural Desktop 2007 |Company: Autodesk,Inc. |WEB Address: www.autodesk.com
 90
    32897
280
     1
281
     0
  0
CLASS
  1
AEC_DISP_REP_WINDOW_PLAN
  2
AecDbDispRepWindowPlan
  3
AecArchBase60|Product Desc: Autodesk Architectural Desktop 2007 |Company: Autodesk,Inc. |WEB Address: www.autodesk.com
 90
    32897
280
     1
281
     0
  0
CLASS
  1
AEC_DISP_REP_WALL_SCHEM
  2
AecDbDispRepWallSchem
  3
AecArchBase60|Product Desc: Autodesk Architectural Desktop 2007 |Company: Autodesk,Inc. |WEB Address: www.autodesk.com
 90
    32897
280
     1
281
     0
  0
CLASS
  1
AEC_DISP_PROPS_WALL_SCHEM
  2
AecDbDispPropsWallSchem
  3
AecArchBase60|Product Desc: Autodesk Architectural Desktop 2007 |Company: Autodesk,Inc. |WEB Address: www.autodesk.com
 90
    32897
280
     1
281
     0
  0
CLASS
  1
AEC_DISP_REP_WALL_RCP
  2
AecDbDispRepWallRcp
  3
AecArchBase60|Product Desc: Autodesk Architectural Desktop 2007 |Company: Autodesk,Inc. |WEB Address: www.autodesk.com
 90
    32897
280
     1
281
     0
  0
CLASS
  1
AEC_DISP_PROPS_WALL_PLAN
  2
AecDbDispPropsWallPlan
  3
AecArchBase60|Product Desc: Autodesk Architectural Desktop 2007 |Company: Autodesk,Inc. |WEB Address: www.autodesk.com
 90
    32897
280
     1
281
     0
  0
CLASS
  1
AEC_DISP_REP_WALL_PLAN
  2
AecDbDispRepWallPlan
  3
AecArchBase60|Product Desc: Autodesk Architectural Desktop 2007 |Company: Autodesk,Inc. |WEB Address: www.autodesk.com
 90
    32897
280
     1
281
     0
  0
CLASS
  1
AEC_DISP_REP_WALL_MODEL
  2
AecDbDispRepWallModel
  3
AecArchBase60|Product Desc: Autodesk Architectural Desktop 2007 |Company: Autodesk,Inc. |WEB Address: www.autodesk.com
 90
    32897
280
     1
281
     0
  0
CLASS
  1
AEC_DISP_PROPS_WALL
  2
AecDbDispPropsWall
  3
AecArchBase60|Product Desc: Autodesk Architectural Desktop 2007 |Company: Autodesk,Inc. |WEB Address: www.autodesk.com
 90
    32897
280
     1
281
     0
  0
CLASS
  1
AEC_DISP_REP_WALL_GRAPH
  2
AecDbDispRepWallGraph
  3
AecArchBase60|Product Desc: Autodesk Architectural Desktop 2007 |Company: Autodesk,Inc. |WEB Address: www.autodesk.com
 90
    32897
280
     1
281
     0
  0
CLASS
  1
AEC_DISP_REP_STAIR_RCP
  2
AecDbDispRepStairRcp
  3
AecArchBase60|Product Desc: Autodesk Architectural Desktop 2007 |Company: Autodesk,Inc. |WEB Address: www.autodesk.com
 90
    32897
280
     1
281
     0
  0
CLASS
  1
AEC_DISP_PROPS_STAIR_PLAN
  2
AecDbDispPropsStairPlan
  3
AecArchBase60|Product Desc: Autodesk Architectural Desktop 2007 |Company: Autodesk,Inc. |WEB Address: www.autodesk.com
 90
    32897
280
     1
281
     0
  0
CLASS
  1
AEC_DISP_REP_STAIR_PLAN
  2
AecDbDispRepStairPlan
  3
AecArchBase60|Product Desc: Autodesk Architectural Desktop 2007 |Company: Autodesk,Inc. |WEB Address: www.autodesk.com
 90
    32897
280
     1
281
     0
  0
CLASS
  1
AEC_DISP_REP_STAIR_MODEL
  2
AecDbDispRepStairModel
  3
AecArchBase60|Product Desc: Autodesk Architectural Desktop 2007 |Company: Autodesk,Inc. |WEB Address: www.autodesk.com
 90
    32897
280
     1
281
     0
  0
CLASS
  1
AEC_DISP_PROPS_STAIR_MODEL
  2
AecDbDispPropsStairModel
  3
AecArchBase60|Product Desc: Autodesk Architectural Desktop 2007 |Company: Autodesk,Inc. |WEB Address: www.autodesk.com
 90
    32897
280
     1
281
     0
  0
CLASS
  1
AEC_DISP_REP_SPACE_BOUNDARY_SCHEM
  2
AecDbDispRepSpaceBoundarySketch
  3
AecArchBase60|Product Desc: Autodesk Architectural Desktop 2007 |Company: Autodesk,Inc. |WEB Address: www.autodesk.com
 90
    32897
280
     1
281
     0
  0
CLASS
  1
AEC_DISP_REP_SPACE_BOUNDARY_PLAN
  2
AecDbDispRepSpaceBoundaryPlan
  3
AecArchBase60|Product Desc: Autodesk Architectural Desktop 2007 |Company: Autodesk,Inc. |WEB Address: www.autodesk.com
 90
    32897
280
     1
281
     0
  0
CLASS
  1
AEC_DISP_REP_SPACE_BOUNDARY_MODEL
  2
AecDbDispRepSpaceBoundaryModel
  3
AecArchBase60|Product Desc: Autodesk Architectural Desktop 2007 |Company: Autodesk,Inc. |WEB Address: www.autodesk.com
 90
    32897
280
     1
281
     0
  0
CLASS
  1
AEC_DISP_REP_SPACE_BOUNDARY_DIAGRAM
  2
AecDbDispRepSpaceBoundaryDgrm
  3
AecArchBase60|Product Desc: Autodesk Architectural Desktop 2007 |Company: Autodesk,Inc. |WEB Address: www.autodesk.com
 90
    32897
280
     1
281
     0
  0
CLASS
  1
AEC_DISP_REP_SPACE_VOLUME
  2
AecDbDispRepSpaceVolume
  3
AecArchBase60|Product Desc: Autodesk Architectural Desktop 2007 |Company: Autodesk,Inc. |WEB Address: www.autodesk.com
 90
    32897
280
     1
281
     0
  0
CLASS
  1
AEC_DISP_REP_SPACE_RCP
  2
AecDbDispRepSpaceRcp
  3
AecArchBase60|Product Desc: Autodesk Architectural Desktop 2007 |Company: Autodesk,Inc. |WEB Address: www.autodesk.com
 90
    32897
280
     1
281
     0
  0
CLASS
  1
AEC_DISP_REP_ANCHOR_TAG_TO_ENT
  2
AecDbDispRepAnchorTagToEnt
  3
AecScheduleData60|Product Desc: Autodesk Architectural Desktop 2007 |Company: Autodesk,Inc. |WEB Address: www.autodesk.com
 90
    32897
280
     1
281
     0
  0
CLASS
  1
AEC_DISP_REP_SCHEDULE_TABLE
  2
AecDbDispRepScheduleTable
  3
AecSchedule
 90
    32897
280
     1
281
     0
  0
CLASS
  1
AEC_DISP_PROPS_SCHEDULE_TABLE
  2
AecDbDispPropsScheduleTable
  3
AecSchedule
 90
    32897
280
     1
281
     0
  0
CLASS
  1
AEC_DISP_REP_SET
  2
AecDbDispRepSet
  3
AecBase60|Product Desc: Autodesk Architectural Desktop 2007 |Company: Autodesk,Inc. |WEB Address: www.autodesk.com
 90
    32897
280
     1
281
     0
  0
CLASS
  1
AEC_DISP_REP_CONFIG
  2
AecDbDispRepConfig
  3
AecBase60|Product Desc: Autodesk Architectural Desktop 2007 |Company: Autodesk,Inc. |WEB Address: www.autodesk.com
 90
    32897
280
     1
281
     0
  0
CLASS
  1
TABLESTYLE
  2
AcDbTableStyle
  3
ObjectDBX Classes
 90
     4095
280
     0
281
     0
  0
CLASS
  1
MATERIAL
  2
AcDbMaterial
  3
ObjectDBX Classes
 90
     1153
280
     0
281
     0
  0
CLASS
  1
VISUALSTYLE
  2
AcDbVisualStyle
  3
ObjectDBX Classes
 90
     4095
280
     0
281
     0
  0
CLASS
  1
SCALE
  2
AcDbScale
  3
ObjectDBX Classes
 90
     1153
280
     0
281
     0
  0
CLASS
  1
MLEADERSTYLE
  2
AcDbMLeaderStyle
  3
ACDB_MLEADERSTYLE_CLASS
 90
     4095
280
     0
281
     0
  0
CLASS
  1
ACDBSECTIONVIEWSTYLE
  2
AcDbSectionViewStyle
  3
ObjectDBX Classes
 90
    33793
280
     0
281
     0
  0
CLASS
  1
ACDBDETAILVIEWSTYLE
  2
AcDbDetailViewStyle
  3
ObjectDBX Classes
 90
    33793
280
     0
281
     0
  0
CLASS
  1
CELLSTYLEMAP
  2
AcDbCellStyleMap
  3
ObjectDBX Classes
 90
     1152
280
     0
281
     0
  0
CLASS
  1
EXACXREFPANELOBJECT
  2
ExAcXREFPanelObject
  3
EXAC_ESW
 90
     1025
280
     0
281
     0
  0
CLASS
  1
NPOCOLLECTION
  2
AcDbImpNonPersistentObjectsCollection
  3
ObjectDBX Classes
 90
     1153
280
     0
281
     0
  0
CLASS
  1
AEC_REFEDIT_STATUS_TRACKER
  2
AecDbRefEditStatusTracker
  3
AecArchBase60|Product Desc: Autodesk Architectural Desktop 2007 |Company: Autodesk,Inc. |WEB Address: www.autodesk.com
 90
    32897
280
     0
281
     0
  0
ENDSEC
  0
SECTION
  2
TABLES
  0
TABLE
  2
VPORT
  5
2F
330
0
100
AcDbSymbolTable
 70
     1
  0
VPORT
  5
30
330
2F
100
AcDbSymbolTableRecord
100
AcDbViewportTableRecord
  2
*Active
 70
     0
 10
0.0
 20
0.0
 11
1.0
 21
1.0
 12
193.1322496778864
 22
46.90702114208488
 13
0.0
 23
0.0
 14
1.0
 24
1.0
 15
0.0
 25
0.0
 16
0.0
 26
0.0
 36
1.0
 17
0.0
 27
0.0
 37
0.0
 40
204.0358673516956
 41
1.900355871886121
 42
50.0
 43
0.0
 44
0.0
 50
0.0
 51
0.0
 71
     0
 72
 20000
 73
     1
 74
     1
 75
     0
 76
     0
 77
     0
 78
     0
281
     0
 65
     1
110
0.0
120
0.0
130
0.0
111
1.0
121
0.0
131
0.0
112
0.0
122
1.0
132
0.0
 79
     0
146
0.0
1001
ACAD_NAV_VCDISPLAY
1070
     3
  0
ENDTAB
  0
TABLE
  2
LTYPE
  5
2A
330
0
100
AcDbSymbolTable
 70
     1
  0
LTYPE
  5
2B
330
2A
100
AcDbSymbolTableRecord
100
AcDbLinetypeTableRecord
  2
BYBLOCK
 70
     0
  3

 72
    65
 73
     0
 40
0.0
  0
LTYPE
  5
2C
330
2A
100
AcDbSymbolTableRecord
100
AcDbLinetypeTableRecord
  2
BYLAYER
 70
     0
  3

 72
    65
 73
     0
 40
0.0
  0
LTYPE
  5
14
330
2A
100
AcDbSymbolTableRecord
100
AcDbLinetypeTableRecord
  2
CONTINUOUS
 70
     0
  3
Solid line
 72
    65
 73
     0
 40
0.0
  0
ENDTAB
  0
TABLE
  2
LAYER
  5
26
102
{ACAD_XDICTIONARY
360
39F
102
}
330
0
100
AcDbSymbolTable
 70
     6
  0
LAYER
  5
6
102
{ACAD_XDICTIONARY
360
385
102
}
330
26
100
AcDbSymbolTableRecord
100
AcDbLayerTableRecord
  2
0
 70
     0
 62
     7
  6
CONTINUOUS
370
    -3
390
7
  0
LAYER
  5
1B1
330
26
100
AcDbSymbolTableRecord
100
AcDbLayerTableRecord
  2
DEFPOINTS
 70
     0
 62
     7
  6
CONTINUOUS
290
     0
370
    -3
390
7
  0
LAYER
  5
1A6
102
{ACAD_XDICTIONARY
360
387
102
}
330
26
100
AcDbSymbolTableRecord
100
AcDbLayerTableRecord
  2
SUNPOU
 70
     0
 62
    70
  6
CONTINUOUS
370
    -3
390
7
  0
LAYER
  5
63
102
{ACAD_XDICTIONARY
360
389
102
}
330
26
100
AcDbSymbolTableRecord
100
AcDbLayerTableRecord
  2
KIJUN
 70
     0
 62
     7
  6
CONTINUOUS
370
    -3
390
7
  0
LAYER
  5
21D
102
{ACAD_XDICTIONARY
360
38B
102
}
330
26
100
AcDbSymbolTableRecord
100
AcDbLayerTableRecord
  2
HOJO
 70
     0
 62
     3
  6
CONTINUOUS
370
    -3
390
7
  0
LAYER
  5
21F
102
{ACAD_XDICTIONARY
360
38D
102
}
330
26
100
AcDbSymbolTableRecord
100
AcDbLayerTableRecord
  2
WAKU
 70
     0
 62
     1
  6
CONTINUOUS
370
    -3
390
7
  0
ENDTAB
  0
TABLE
  2
STYLE
  5
27
330
0
100
AcDbSymbolTable
 70
     3
  0
STYLE
  5
28
330
27
100
AcDbSymbolTableRecord
100
AcDbTextStyleTableRecord
  2
STANDARD
 70
     0
 40
0.0
 41
1.0
 50
0.0
 71
     0
 42
0.2
  3
txt
  4

  0
STYLE
  5
4B
330
27
100
AcDbSymbolTableRecord
100
AcDbTextStyleTableRecord
  2
SUNPOU
 70
     0
 40
0.0
 41
1.0
 50
0.0
 71
     0
 42
30.0
  3
txt
  4
bigfont
  0
STYLE
  5
1AF
330
27
100
AcDbSymbolTableRecord
100
AcDbTextStyleTableRecord
  2
LIFE
 70
     0
 40
0.0
 41
0.7
 50
0.0
 71
     0
 42
10.0
  3
romans
  4
extfont
  0
ENDTAB
  0
TABLE
  2
VIEW
  5
2D
330
0
100
AcDbSymbolTable
 70
     1
  0
ENDTAB
  0
TABLE
  2
UCS
  5
2E
330
0
100
AcDbSymbolTable
 70
     0
  0
ENDTAB
  0
TABLE
  2
APPID
  5
34
330
0
100
AcDbSymbolTable
 70
     3
  0
APPID
  5
A
330
34
100
AcDbSymbolTableRecord
100
AcDbRegAppTableRecord
  2
ACAD
 70
     0
  0
APPID
  5
33
330
34
100
AcDbSymbolTableRecord
100
AcDbRegAppTableRecord
  2
ACAD_NAV_VCDISPLAY
 70
     0
  0
APPID
  5
3D9
330
34
100
AcDbSymbolTableRecord
100
AcDbRegAppTableRecord
  2
ACAD_MLEADERVER
 70
     0
  0
ENDTAB
  0
TABLE
  2
DIMSTYLE
  5
35
330
0
100
AcDbSymbolTable
 70
     3
100
AcDbDimStyleTable
 71
     1
340
36
  0
DIMSTYLE
105
36
330
35
100
AcDbSymbolTableRecord
100
AcDbDimStyleTableRecord
  2
STANDARD
 70
     0
 41
3.0
 42
2.0
 44
0.0
 73
     0
 74
     0
 77
     1
140
2.799999999999998
141
1.0
146
0.0642857142857143
147
1.0
173
     1
174
     1
176
    60
177
    70
178
    60
271
     0
340
28
341
37
343
37
344
37
  0
DIMSTYLE
105
1B5
102
{ACAD_REACTORS
330
20F
330
1A5
102
}
330
35
100
AcDbSymbolTableRecord
100
AcDbDimStyleTableRecord
  2
STANDARD$0
 70
     0
 40
2.0
 41
1.0
 42
2.0
 43
0.0
 44
1.0
 73
     0
 74
     0
 77
     3
 78
     9
140
4.5
141
0.0
147
1.0
172
     1
173
     1
178
     3
271
     2
340
1AF
341
1B6
343
1B6
344
1B6
  0
DIMSTYLE
105
50
330
35
100
AcDbSymbolTableRecord
100
AcDbDimStyleTableRecord
  2
1
 70
     0
 41
3.0
 42
2.0
 44
0.0
 73
     0
 74
     0
 77
     1
140
7.0
141
1.0
146
0.0642857142857143
147
1.0
173
     1
174
     1
176
    60
177
    70
178
    60
271
     0
340
28
341
37
343
37
344
37
  0
ENDTAB
  0
TABLE
  2
BLOCK_RECORD
  5
1
330
0
100
AcDbSymbolTable
 70
     4
  0
BLOCK_RECORD
  5
2
102
{ACAD_XDICTIONARY
360
3
102
}
330
1
100
AcDbSymbolTableRecord
100
AcDbBlockTableRecord
  2
*MODEL_SPACE
340
1E
  0
BLOCK_RECORD
  5
20
102
{ACAD_XDICTIONARY
360
21
102
}
330
1
100
AcDbSymbolTableRecord
100
AcDbBlockTableRecord
  2
*PAPER_SPACE
340
25
  0
BLOCK_RECORD
  5
37
330
1
100
AcDbSymbolTableRecord
100
AcDbBlockTableRecord
  2
_DOTSMALL
340
0
102
{BLKREFS
331
1AC
331
1AD
331
215
331
216
102
}
  0
BLOCK_RECORD
  5
1B6
330
1
100
AcDbSymbolTableRecord
100
AcDbBlockTableRecord
  2
_DOT
340
0
  0
BLOCK_RECORD
  5
210
330
1
100
AcDbSymbolTableRecord
100
AcDbBlockTableRecord
  2
*D2
340
0
  0
BLOCK_RECORD
  5
1A7
330
1
100
AcDbSymbolTableRecord
100
AcDbBlockTableRecord
  2
*D3
340
0
  0
ENDTAB
  0
ENDSEC
  0
SECTION
  2
BLOCKS
  0
BLOCK
  5
5
330
2
100
AcDbEntity
  8
0
100
AcDbBlockBegin
  2
*MODEL_SPACE
 70
     0
 10
0.0
 20
0.0
 30
0.0
  3
*MODEL_SPACE
  1

  0
ENDBLK
  5
1D
330
2
100
AcDbEntity
  8
0
100
AcDbBlockEnd
  0
BLOCK
  5
23
330
20
100
AcDbEntity
 67
     1
  8
0
100
AcDbBlockBegin
  2
*PAPER_SPACE
 70
     0
 10
0.0
 20
0.0
 30
0.0
  3
*PAPER_SPACE
  1

  0
ENDBLK
  5
24
330
20
100
AcDbEntity
 67
     1
  8
0
100
AcDbBlockEnd
  0
BLOCK
  5
38
330
37
100
AcDbEntity
  8
0
100
AcDbBlockBegin
  2
_DOTSMALL
 70
     0
 10
0.0
 20
0.0
 30
0.0
  3
_DOTSMALL
  1

  0
LWPOLYLINE
  5
39
330
37
100
AcDbEntity
  8
0
  6
ByBlock
 62
     0
100
AcDbPolyline
 90
        2
 70
     1
 43
0.5
 10
-0.0625
 20
0.0
 42
1.0
 10
0.0625
 20
0.0
 42
1.0
  0
ENDBLK
  5
3A
330
37
100
AcDbEntity
  8
0
100
AcDbBlockEnd
  0
BLOCK
  5
1B7
330
1B6
100
AcDbEntity
  8
0
100
AcDbBlockBegin
  2
_DOT
 70
     0
 10
0.0
 20
0.0
 30
0.0
  3
_DOT
  1

  0
LWPOLYLINE
  5
1B8
330
1B6
100
AcDbEntity
  8
0
  6
ByBlock
 62
     0
100
AcDbPolyline
 90
        2
 70
     1
 43
0.5
 10
-0.25
 20
0.0
 42
1.0
 10
0.25
 20
0.0
 42
1.0
  0
LINE
  5
1B9
330
1B6
100
AcDbEntity
  8
0
  6
ByBlock
 62
     0
100
AcDbLine
 10
-0.5
 20
0.0
 30
0.0
 11
-1.0
 21
0.0
 31
0.0
  0
ENDBLK
  5
1BA
330
1B6
100
AcDbEntity
  8
0
100
AcDbBlockEnd
  0
BLOCK
  5
211
330
210
100
AcDbEntity
  8
0
 62
     7
100
AcDbBlockBegin
  2
*D2
 70
     1
 10
0.0
 20
0.0
 30
0.0
  3
*D2
  1

  0
LINE
  5
212
330
210
100
AcDbEntity
  8
SUNPOU
 62
    70
370
    -2
100
AcDbLine
 10
20.99322018530521
 20
73.62419617079409
 30
0.0
 11
11.10132351258074
 21
73.62419617079409
 31
0.0
  0
LINE
  5
213
330
210
100
AcDbEntity
  8
SUNPOU
 62
    70
370
    -2
100
AcDbLine
 10
20.99322018530521
 20
20.62419617079418
 30
0.0
 11
11.10132351258073
 21
20.62419617079418
 31
0.0
  0
LINE
  5
214
330
210
100
AcDbEntity
  8
SUNPOU
 62
    60
370
    -2
100
AcDbLine
 10
11.10132351258074
 20
73.62419617079409
 30
0.0
 11
11.10132351258073
 21
20.62419617079418
 31
0.0
  0
INSERT
  5
215
330
210
100
AcDbEntity
  8
SUNPOU
 62
    60
370
    -2
100
AcDbBlockReference
  2
_DOTSMALL
 10
11.10132351258074
 20
73.62419617079409
 30
0.0
 41
4.0
 42
4.0
 43
4.0
 50
90.0
  0
INSERT
  5
216
330
210
100
AcDbEntity
  8
SUNPOU
 62
    60
370
    -2
100
AcDbBlockReference
  2
_DOTSMALL
 10
11.10132351258073
 20
20.62419617079418
 30
0.0
 41
4.0
 42
4.0
 43
4.0
 50
270.0
  0
MTEXT
  5
217
330
210
100
AcDbEntity
  8
SUNPOU
 62
    60
100
AcDbMText
 10
6.101323512580727
 20
47.12419617079413
 30
0.0
 40
6.0
 41
0.0
 71
     5
 72
     1
  1
\A1;53
  7
LIFE
 11
0.0000000000000001
 21
1.0
 31
0.0
 73
     1
 44
1.0
1001
ACAD
1000
MTEXTBEGIN
1070
    73
1070
     1
1070
    44
1040
1.0
1070
    74
1070
     0
1000
MTEXTEND
  0
POINT
  5
218
330
210
100
AcDbEntity
  8
DEFPOINTS
 62
     0
100
AcDbPoint
 10
24.99322018530521
 20
73.62419617079409
 30
0.0
  0
POINT
  5
219
330
210
100
AcDbEntity
  8
DEFPOINTS
 62
     0
100
AcDbPoint
 10
24.99322018530521
 20
20.62419617079417
 30
0.0
  0
POINT
  5
21A
330
210
100
AcDbEntity
  8
DEFPOINTS
 62
     0
100
AcDbPoint
 10
11.10132351258073
 20
20.62419617079418
 30
0.0
  0
ENDBLK
  5
21B
330
210
100
AcDbEntity
  8
0
 62
     7
100
AcDbBlockEnd
  0
BLOCK
  5
1A8
330
1A7
100
AcDbEntity
  8
0
 62
     7
100
AcDbBlockBegin
  2
*D3
 70
     1
 10
0.0
 20
0.0
 30
0.0
  3
*D3
  1

  0
LINE
  5
1A9
330
1A7
100
AcDbEntity
  8
SUNPOU
 62
    70
370
    -2
100
AcDbLine
 10
24.99322018530521
 20
77.62419617079409
 30
0.0
 11
24.99322018530521
 21
85.81346656251247
 31
0.0
  0
LINE
  5
1AA
330
1A7
100
AcDbEntity
  8
SUNPOU
 62
    70
370
    -2
100
AcDbLine
 10
42.99322018530506
 20
77.62419617079409
 30
0.0
 11
42.99322018530506
 21
85.81346656251247
 31
0.0
  0
LINE
  5
1AB
330
1A7
100
AcDbEntity
  8
SUNPOU
 62
    60
370
    -2
100
AcDbLine
 10
24.99322018530521
 20
85.81346656251247
 30
0.0
 11
42.99322018530506
 21
85.81346656251247
 31
0.0
  0
INSERT
  5
1AC
330
1A7
100
AcDbEntity
  8
SUNPOU
 62
    60
370
    -2
100
AcDbBlockReference
  2
_DOTSMALL
 10
24.99322018530521
 20
85.81346656251247
 30
0.0
 41
4.0
 42
4.0
 43
4.0
 50
180.0
  0
INSERT
  5
1AD
330
1A7
100
AcDbEntity
  8
SUNPOU
 62
    60
370
    -2
100
AcDbBlockReference
  2
_DOTSMALL
 10
42.99322018530506
 20
85.81346656251247
 30
0.0
 41
4.0
 42
4.0
 43
4.0
  0
MTEXT
  5
1AE
330
1A7
100
AcDbEntity
  8
SUNPOU
 62
    60
100
AcDbMText
 10
33.99322018530514
 20
90.81346656251248
 30
0.0
 40
6.0
 41
0.0
 71
     5
 72
     1
  1
\A1;18
  7
LIFE
 73
     1
 44
1.0
1001
ACAD
1000
MTEXTBEGIN
1070
    73
1070
     1
1070
    44
1040
1.0
1070
    74
1070
     0
1000
MTEXTEND
  0
POINT
  5
1B0
330
1A7
100
AcDbEntity
  8
DEFPOINTS
 62
     0
100
AcDbPoint
 10
24.99322018530521
 20
73.62419617079409
 30
0.0
  0
POINT
  5
1B2
330
1A7
100
AcDbEntity
  8
DEFPOINTS
 62
     0
100
AcDbPoint
 10
42.99322018530506
 20
73.62419617079409
 30
0.0
  0
POINT
  5
1B3
330
1A7
100
AcDbEntity
  8
DEFPOINTS
 62
     0
100
AcDbPoint
 10
42.99322018530506
 20
85.81346656251247
 30
0.0
  0
ENDBLK
  5
1B4
330
1A7
100
AcDbEntity
  8
0
 62
     7
100
AcDbBlockEnd
  0
ENDSEC
  0
SECTION
  2
ENTITIES
  0
LINE
  5
C5
330
2
100
AcDbEntity
  8
KIJUN
 62
     7
100
AcDbLine
 10
60.76681680779862
 20
39.17642037280707
 30
0.0
 11
386.255530551251
 21
39.17642037280707
 31
0.0
  0
LINE
  5
C6
330
2
100
AcDbEntity
  8
KIJUN
 62
     7
100
AcDbLine
 10
60.76681680779862
 20
55.07197196878125
 30
0.0
 11
386.255530551251
 21
55.07197196878125
 31
0.0
  0
ARC
  5
C7
330
2
100
AcDbEntity
  8
KIJUN
 62
     7
100
AcDbCircle
 10
309.6953818546985
 20
27.97262062205999
 30
0.0
 40
7.323770828022136
100
AcDbArc
 50
68.46805097329961
 51
111.5319490267004
  0
ARC
  5
C8
330
2
100
AcDbEntity
  8
KIJUN
 62
     7
100
AcDbCircle
 10
310.447262897457
 20
35.94796699881629
 30
0.0
 40
7.323770828022117
100
AcDbArc
 50
248.4680509732995
 51
291.5319490267004
  0
LINE
  5
C9
330
2
100
AcDbEntity
  8
KIJUN
 62
     7
100
AcDbLine
 10
307.7592926367674
 20
29.13529975176556
 30
0.0
 11
312.3833521153883
 21
34.78528786911051
 31
0.0
  0
ARC
  5
CA
330
2
100
AcDbEntity
  8
KIJUN
 62
     7
100
AcDbCircle
 10
309.6953818546985
 20
58.31152892374359
 30
0.0
 40
7.323770828022136
100
AcDbArc
 50
68.46805097329961
 51
111.5319490267004
  0
LINE
  5
CB
330
2
100
AcDbEntity
  8
KIJUN
 62
     7
100
AcDbLine
 10
307.7592926367674
 20
59.47420805344918
 30
0.0
 11
312.3833521153883
 21
65.12419617079409
 31
0.0
  0
ARC
  5
CC
330
2
100
AcDbEntity
  8
KIJUN
 62
     7
100
AcDbCircle
 10
310.447262897457
 20
66.28687530049987
 30
0.0
 40
7.323770828022117
100
AcDbArc
 50
248.4680509732995
 51
291.5319490267004
  0
LINE
  5
CD
330
2
100
AcDbEntity
  8
KIJUN
 62
     7
100
AcDbLine
 10
60.76681680779862
 20
25.62419617079417
 30
0.0
 11
386.255530551251
 21
25.62419617079417
 31
0.0
  0
LINE
  5
CE
330
2
100
AcDbEntity
  8
KIJUN
 62
     7
100
AcDbLine
 10
60.76681680779862
 20
43.52025814987192
 30
0.0
 11
386.255530551251
 21
43.52025814987192
 31
0.0
  0
LINE
  5
CF
330
2
100
AcDbEntity
  8
KIJUN
 62
     7
100
AcDbLine
 10
60.76681680779862
 20
50.72813419171639
 30
0.0
 11
386.255530551251
 21
50.72813419171639
 31
0.0
  0
LINE
  5
D0
330
2
100
AcDbEntity
  8
KIJUN
 62
     7
100
AcDbLine
 10
386.255530551251
 20
73.62419617079409
 30
0.0
 11
60.76681680779859
 21
73.62419617079409
 31
0.0
  0
LINE
  5
D1
330
2
100
AcDbEntity
  8
KIJUN
 62
     7
100
AcDbLine
 10
60.76681680779862
 20
20.62419617079417
 30
0.0
 11
386.255530551251
 21
20.62419617079417
 31
0.0
  0
LINE
  5
D2
330
2
100
AcDbEntity
  8
KIJUN
 62
     7
100
AcDbLine
 10
60.76681680779862
 20
68.62419617079409
 30
0.0
 11
386.255530551251
 21
68.62419617079409
 31
0.0
  0
ARC
  5
18D
330
2
100
AcDbEntity
  8
KIJUN
 62
     7
100
AcDbCircle
 10
304.3194413333193
 20
27.97262062205999
 30
0.0
 40
7.323770828022136
100
AcDbArc
 50
68.46805097329961
 51
111.5319490267004
  0
ARC
  5
18E
330
2
100
AcDbEntity
  8
KIJUN
 62
     7
100
AcDbCircle
 10
305.0713223760781
 20
35.94796699881629
 30
0.0
 40
7.323770828022117
100
AcDbArc
 50
248.4680509732995
 51
291.5319490267004
  0
LINE
  5
18F
330
2
100
AcDbEntity
  8
KIJUN
 62
     7
100
AcDbLine
 10
302.3833521153882
 20
29.13529975176556
 30
0.0
 11
307.0074115940091
 21
34.78528786911051
 31
0.0
  0
ARC
  5
191
330
2
100
AcDbEntity
  8
KIJUN
 62
     7
100
AcDbCircle
 10
293.5675602905611
 20
27.97262062205999
 30
0.0
 40
7.323770828022136
100
AcDbArc
 50
68.46805097329961
 51
111.5319490267004
  0
ARC
  5
192
330
2
100
AcDbEntity
  8
KIJUN
 62
     7
100
AcDbCircle
 10
288.9435008119404
 20
35.94796699881629
 30
0.0
 40
7.323770828022117
100
AcDbArc
 50
248.4680509732995
 51
291.5319490267004
  0
ARC
  5
193
330
2
100
AcDbEntity
  8
KIJUN
 62
     7
100
AcDbCircle
 10
294.3194413333193
 20
35.94796699881629
 30
0.0
 40
7.323770828022117
100
AcDbArc
 50
248.4680509732995
 51
291.5319490267004
  0
LINE
  5
195
330
2
100
AcDbEntity
  8
KIJUN
 62
     7
100
AcDbLine
 10
291.6314710726299
 20
29.13529975176556
 30
0.0
 11
296.255530551251
 21
34.78528786911051
 31
0.0
  0
ARC
  5
196
330
2
100
AcDbEntity
  8
KIJUN
 62
     7
100
AcDbCircle
 10
298.9435008119404
 20
27.97262062205999
 30
0.0
 40
7.323770828022136
100
AcDbArc
 50
68.46805097329961
 51
111.5319490267004
  0
LINE
  5
197
330
2
100
AcDbEntity
  8
KIJUN
 62
     7
100
AcDbLine
 10
297.0074115940091
 20
29.13529975176556
 30
0.0
 11
301.6314710726299
 21
34.78528786911051
 31
0.0
  0
ARC
  5
198
330
2
100
AcDbEntity
  8
KIJUN
 62
     7
100
AcDbCircle
 10
299.6953818546984
 20
35.94796699881629
 30
0.0
 40
7.323770828022117
100
AcDbArc
 50
248.4680509732995
 51
291.5319490267004
  0
ARC
  5
19A
330
2
100
AcDbEntity
  8
KIJUN
 62
     7
100
AcDbCircle
 10
305.0713223760781
 20
66.28687530049987
 30
0.0
 40
7.323770828022117
100
AcDbArc
 50
248.4680509732995
 51
291.5319490267004
  0
ARC
  5
19B
330
2
100
AcDbEntity
  8
KIJUN
 62
     7
100
AcDbCircle
 10
299.6953818546984
 20
66.28687530049987
 30
0.0
 40
7.323770828022117
100
AcDbArc
 50
248.4680509732995
 51
291.5319490267004
  0
ARC
  5
19C
330
2
100
AcDbEntity
  8
KIJUN
 62
     7
100
AcDbCircle
 10
304.3194413333193
 20
58.31152892374359
 30
0.0
 40
7.323770828022136
100
AcDbArc
 50
68.46805097329961
 51
111.5319490267004
  0
LINE
  5
19D
330
2
100
AcDbEntity
  8
KIJUN
 62
     7
100
AcDbLine
 10
302.3833521153882
 20
59.47420805344918
 30
0.0
 11
307.0074115940091
 21
65.12419617079409
 31
0.0
  0
ARC
  5
19E
330
2
100
AcDbEntity
  8
KIJUN
 62
     7
100
AcDbCircle
 10
294.3194413333193
 20
66.28687530049969
 30
0.0
 40
7.323770828022117
100
AcDbArc
 50
248.4680509732995
 51
291.5319490267004
  0
LINE
  5
19F
330
2
100
AcDbEntity
  8
KIJUN
 62
     7
100
AcDbLine
 10
297.0074115940091
 20
59.47420805344918
 30
0.0
 11
301.6314710726299
 21
65.12419617079409
 31
0.0
  0
ARC
  5
1A0
330
2
100
AcDbEntity
  8
KIJUN
 62
     7
100
AcDbCircle
 10
298.9435008119404
 20
58.31152892374338
 30
0.0
 40
7.323770828022136
100
AcDbArc
 50
68.46805097329961
 51
111.5319490267004
  0
ARC
  5
1A1
330
2
100
AcDbEntity
  8
KIJUN
 62
     7
100
AcDbCircle
 10
293.5675602905611
 20
58.31152892374338
 30
0.0
 40
7.323770828022136
100
AcDbArc
 50
68.46805097329961
 51
111.5319490267004
  0
ARC
  5
1A2
330
2
100
AcDbEntity
  8
KIJUN
 62
     7
100
AcDbCircle
 10
288.9435008119404
 20
66.28687530049969
 30
0.0
 40
7.323770828022117
100
AcDbArc
 50
248.4680509732995
 51
291.5319490267004
  0
LINE
  5
1A3
330
2
100
AcDbEntity
  8
KIJUN
 62
     7
100
AcDbLine
 10
291.6314710726299
 20
59.47420805344918
 30
0.0
 11
296.255530551251
 21
65.12419617079409
 31
0.0
  0
DIMENSION
  5
1A5
330
2
100
AcDbEntity
  8
SUNPOU
100
AcDbDimension
  2
*D3
 10
42.99322018530506
 20
85.81346656251247
 30
0.0
 11
33.99322018530514
 21
90.81346656251248
 31
0.0
 71
     5
 42
17.99999999999985
  3
STANDARD$0
100
AcDbAlignedDimension
 13
24.99322018530521
 23
73.62419617079409
 33
0.0
 14
42.99322018530506
 24
73.62419617079409
 34
0.0
 50
0.000000000000007
100
AcDbRotatedDimension
1001
ACAD
1000
DSTYLE
1002
{
1070
    41
1040
2.0
1070
    44
1040
0.0
1070
    77
1070
     1
1070
    78
1070
     0
1070
   140
1040
3.0
1070
   141
1040
1.0
1070
   146
1040
0.0642857142857143
1070
   172
1070
     0
1070
   173
1070
     0
1070
   176
1070
    60
1070
   177
1070
    70
1070
   178
1070
    60
1070
   271
1070
     0
1070
   272
1070
     0
1070
   341
1005
0
1070
   342
1005
37
1070
   343
1005
0
1070
   344
1005
0
1002
}
  0
ARC
  5
1BB
330
2
100
AcDbEntity
  8
KIJUN
 62
     7
100
AcDbCircle
 10
379.5826086326284
 20
27.97262062205999
 30
0.0
 40
7.323770828022136
100
AcDbArc
 50
68.46805097329961
 51
111.5319490267004
  0
ARC
  5
1BC
330
2
100
AcDbEntity
  8
KIJUN
 62
     7
100
AcDbCircle
 10
374.206668111249
 20
27.97262062205999
 30
0.0
 40
7.323770828022136
100
AcDbArc
 50
68.46805097329961
 51
111.5319490267004
  0
ARC
  5
1BD
330
2
100
AcDbEntity
  8
KIJUN
 62
     7
100
AcDbCircle
 10
380.3344896753865
 20
35.94796699881629
 30
0.0
 40
7.323770828022117
100
AcDbArc
 50
248.4680509732995
 51
291.5319490267004
  0
ARC
  5
1BE
330
2
100
AcDbEntity
  8
KIJUN
 62
     7
100
AcDbCircle
 10
369.5826086326284
 20
35.94796699881629
 30
0.0
 40
7.323770828022117
100
AcDbArc
 50
248.4680509732995
 51
291.5319490267004
  0
ARC
  5
1BF
330
2
100
AcDbEntity
  8
KIJUN
 62
     7
100
AcDbCircle
 10
374.9585491540072
 20
35.94796699881629
 30
0.0
 40
7.323770828022117
100
AcDbArc
 50
248.4680509732995
 51
291.5319490267004
  0
LINE
  5
1C0
330
2
100
AcDbEntity
  8
KIJUN
 62
     7
100
AcDbLine
 10
366.8946383719383
 20
29.13529975176579
 30
0.0
 11
371.5186978505593
 21
34.78528786911073
 31
0.0
  0
LINE
  5
1C1
330
2
100
AcDbEntity
  8
KIJUN
 62
     7
100
AcDbLine
 10
372.2705788933176
 20
29.13529975176579
 30
0.0
 11
376.8946383719384
 21
34.78528786911073
 31
0.0
  0
LINE
  5
1C2
330
2
100
AcDbEntity
  8
KIJUN
 62
     7
100
AcDbLine
 10
377.646519414697
 20
29.13529975176579
 30
0.0
 11
382.2705788933177
 21
34.78528786911073
 31
0.0
  0
LINE
  5
1C3
330
2
100
AcDbEntity
  8
KIJUN
 62
     7
100
AcDbLine
 10
383.0224599360763
 20
29.13529975176579
 30
0.0
 11
386.255530551251
 21
33.08568374719897
 31
0.0
  0
ARC
  5
1C4
330
2
100
AcDbEntity
  8
KIJUN
 62
     7
100
AcDbCircle
 10
384.9585491540074
 20
27.97262062205999
 30
0.0
 40
7.323770828022136
100
AcDbArc
 50
79.79957599002458
 51
111.5319490267004
  0
ARC
  5
1C5
330
2
100
AcDbEntity
  8
KIJUN
 62
     7
100
AcDbCircle
 10
385.7104301967656
 20
35.94796699881629
 30
0.0
 40
7.323770828022117
100
AcDbArc
 50
248.4680509732995
 51
274.2684101305698
  0
ARC
  5
1C6
330
2
100
AcDbEntity
  8
KIJUN
 62
     7
100
AcDbCircle
 10
363.4547870684905
 20
27.97262062205999
 30
0.0
 40
7.323770828022136
100
AcDbArc
 50
68.46805097329961
 51
111.5319490267004
  0
ARC
  5
1C7
330
2
100
AcDbEntity
  8
KIJUN
 62
     7
100
AcDbCircle
 10
358.0788465471112
 20
27.97262062205999
 30
0.0
 40
7.323770828022136
100
AcDbArc
 50
68.46805097329961
 51
111.5319490267004
  0
ARC
  5
1C8
330
2
100
AcDbEntity
  8
KIJUN
 62
     7
100
AcDbCircle
 10
353.4547870684905
 20
35.94796699881629
 30
0.0
 40
7.323770828022117
100
AcDbArc
 50
248.4680509732995
 51
291.5319490267004
  0
ARC
  5
1C9
330
2
100
AcDbEntity
  8
KIJUN
 62
     7
100
AcDbCircle
 10
358.83072758987
 20
35.94796699881629
 30
0.0
 40
7.323770828022117
100
AcDbArc
 50
248.4680509732995
 51
291.5319490267004
  0
LINE
  5
1CA
330
2
100
AcDbEntity
  8
KIJUN
 62
     7
100
AcDbLine
 10
350.7668168078012
 20
29.13529975176556
 30
0.0
 11
355.3908762864215
 21
34.78528786911051
 31
0.0
  0
LINE
  5
1CB
330
2
100
AcDbEntity
  8
KIJUN
 62
     7
100
AcDbLine
 10
356.1427573291802
 20
29.13529975176579
 30
0.0
 11
360.7668168078011
 21
34.78528786911073
 31
0.0
  0
LINE
  5
1CC
330
2
100
AcDbEntity
  8
KIJUN
 62
     7
100
AcDbLine
 10
361.5186978505594
 20
29.13529975176579
 30
0.0
 11
366.1427573291801
 21
34.78528786911073
 31
0.0
  0
ARC
  5
1CD
330
2
100
AcDbEntity
  8
KIJUN
 62
     7
100
AcDbCircle
 10
347.3269655043531
 20
27.97262062205999
 30
0.0
 40
7.323770828022136
100
AcDbArc
 50
68.46805097329961
 51
111.5319490267004
  0
ARC
  5
1CE
330
2
100
AcDbEntity
  8
KIJUN
 62
     7
100
AcDbCircle
 10
341.9510249829739
 20
27.97262062205999
 30
0.0
 40
7.323770828022136
100
AcDbArc
 50
68.46805097329961
 51
111.5319490267004
  0
ARC
  5
1CF
330
2
100
AcDbEntity
  8
KIJUN
 62
     7
100
AcDbCircle
 10
337.3269655043531
 20
35.94796699881629
 30
0.0
 40
7.323770828022117
100
AcDbArc
 50
248.4680509732995
 51
291.5319490267004
  0
ARC
  5
1D0
330
2
100
AcDbEntity
  8
KIJUN
 62
     7
100
AcDbCircle
 10
342.7029060257322
 20
35.94796699881629
 30
0.0
 40
7.323770828022117
100
AcDbArc
 50
248.4680509732995
 51
291.5319490267004
  0
LINE
  5
1D1
330
2
100
AcDbEntity
  8
KIJUN
 62
     7
100
AcDbLine
 10
340.0149357650426
 20
29.13529975176556
 30
0.0
 11
344.6389952436634
 21
34.78528786911051
 31
0.0
  0
LINE
  5
1D2
330
2
100
AcDbEntity
  8
KIJUN
 62
     7
100
AcDbLine
 10
334.6389952436634
 20
29.13529975176556
 30
0.0
 11
339.2630547222843
 21
34.78528786911051
 31
0.0
  0
LINE
  5
1D3
330
2
100
AcDbEntity
  8
KIJUN
 62
     7
100
AcDbLine
 10
345.3908762864216
 20
29.13529975176556
 30
0.0
 11
350.0149357650425
 21
34.78528786911051
 31
0.0
  0
ARC
  5
1D4
330
2
100
AcDbEntity
  8
KIJUN
 62
     7
100
AcDbCircle
 10
348.0788465471114
 20
35.94796699881629
 30
0.0
 40
7.323770828022117
100
AcDbArc
 50
248.4680509732995
 51
291.5319490267004
  0
ARC
  5
1D5
330
2
100
AcDbEntity
  8
KIJUN
 62
     7
100
AcDbCircle
 10
352.7029060257322
 20
27.97262062205999
 30
0.0
 40
7.323770828022136
100
AcDbArc
 50
68.46805097329961
 51
111.5319490267004
  0
ARC
  5
1D6
330
2
100
AcDbEntity
  8
KIJUN
 62
     7
100
AcDbCircle
 10
331.1991439402154
 20
27.97262062205999
 30
0.0
 40
7.323770828022136
100
AcDbArc
 50
68.46805097329961
 51
111.5319490267004
  0
ARC
  5
1D7
330
2
100
AcDbEntity
  8
KIJUN
 62
     7
100
AcDbCircle
 10
320.4472628974571
 20
27.97262062205999
 30
0.0
 40
7.323770828022136
100
AcDbArc
 50
68.46805097329961
 51
111.5319490267004
  0
ARC
  5
1D8
330
2
100
AcDbEntity
  8
KIJUN
 62
     7
100
AcDbCircle
 10
325.8232034188363
 20
27.97262062205999
 30
0.0
 40
7.323770828022136
100
AcDbArc
 50
68.46805097329961
 51
111.5319490267004
  0
ARC
  5
1D9
330
2
100
AcDbEntity
  8
KIJUN
 62
     7
100
AcDbCircle
 10
321.1991439402154
 20
35.94796699881629
 30
0.0
 40
7.323770828022117
100
AcDbArc
 50
248.4680509732995
 51
291.5319490267004
  0
ARC
  5
1DA
330
2
100
AcDbEntity
  8
KIJUN
 62
     7
100
AcDbCircle
 10
326.5750844615945
 20
35.94796699881629
 30
0.0
 40
7.323770828022117
100
AcDbArc
 50
248.4680509732995
 51
291.5319490267004
  0
LINE
  5
1DB
330
2
100
AcDbEntity
  8
KIJUN
 62
     7
100
AcDbLine
 10
329.2630547222843
 20
29.13529975176556
 30
0.0
 11
333.8871142009051
 21
34.78528786911051
 31
0.0
  0
LINE
  5
1DC
330
2
100
AcDbEntity
  8
KIJUN
 62
     7
100
AcDbLine
 10
323.887114200905
 20
29.13529975176556
 30
0.0
 11
328.511173679526
 21
34.78528786911051
 31
0.0
  0
LINE
  5
1DD
330
2
100
AcDbEntity
  8
KIJUN
 62
     7
100
AcDbLine
 10
318.511173679526
 20
29.13529975176556
 30
0.0
 11
323.1352331581464
 21
34.78528786911051
 31
0.0
  0
LINE
  5
1DE
330
2
100
AcDbEntity
  8
KIJUN
 62
     7
100
AcDbLine
 10
313.1352331581464
 20
29.13529975176556
 30
0.0
 11
317.7592926367674
 21
34.78528786911051
 31
0.0
  0
ARC
  5
1DF
330
2
100
AcDbEntity
  8
KIJUN
 62
     7
100
AcDbCircle
 10
315.0713223760779
 20
27.97262062205999
 30
0.0
 40
7.323770828022136
100
AcDbArc
 50
68.46805097329961
 51
111.5319490267004
  0
ARC
  5
1E0
330
2
100
AcDbEntity
  8
KIJUN
 62
     7
100
AcDbCircle
 10
315.8232034188363
 20
35.94796699881629
 30
0.0
 40
7.323770828022117
100
AcDbArc
 50
248.4680509732995
 51
291.5319490267004
  0
ARC
  5
1E1
330
2
100
AcDbEntity
  8
KIJUN
 62
     7
100
AcDbCircle
 10
336.5750844615945
 20
27.97262062205999
 30
0.0
 40
7.323770828022136
100
AcDbArc
 50
68.46805097329961
 51
111.5319490267004
  0
ARC
  5
1E2
330
2
100
AcDbEntity
  8
KIJUN
 62
     7
100
AcDbCircle
 10
331.9510249829739
 20
35.94796699881629
 30
0.0
 40
7.323770828022117
100
AcDbArc
 50
248.4680509732995
 51
291.5319490267004
  0
ARC
  5
1E3
330
2
100
AcDbEntity
  8
KIJUN
 62
     7
100
AcDbCircle
 10
364.206668111249
 20
35.94796699881629
 30
0.0
 40
7.323770828022117
100
AcDbArc
 50
248.4680509732995
 51
291.5319490267004
  0
ARC
  5
1E4
330
2
100
AcDbEntity
  8
KIJUN
 62
     7
100
AcDbCircle
 10
368.83072758987
 20
27.97262062205999
 30
0.0
 40
7.323770828022136
100
AcDbArc
 50
68.46805097329961
 51
111.5319490267004
  0
ARC
  5
1E5
330
2
100
AcDbEntity
  8
KIJUN
 62
     7
100
AcDbCircle
 10
385.7104301967656
 20
66.28687530049987
 30
0.0
 40
7.323770828022117
100
AcDbArc
 50
248.4680509732995
 51
274.2684101305698
  0
ARC
  5
1E6
330
2
100
AcDbEntity
  8
KIJUN
 62
     7
100
AcDbCircle
 10
384.9585491540074
 20
58.31152892374359
 30
0.0
 40
7.323770828022136
100
AcDbArc
 50
79.79957599002458
 51
111.5319490267004
  0
ARC
  5
1E7
330
2
100
AcDbEntity
  8
KIJUN
 62
     7
100
AcDbCircle
 10
380.3344896753865
 20
66.28687530049987
 30
0.0
 40
7.323770828022117
100
AcDbArc
 50
248.4680509732995
 51
291.5319490267004
  0
LINE
  5
1E8
330
2
100
AcDbEntity
  8
KIJUN
 62
     7
100
AcDbLine
 10
383.0224599360763
 20
59.47420805344918
 30
0.0
 11
386.255530551251
 21
63.42459204888188
 31
0.0
  0
ARC
  5
1E9
330
2
100
AcDbEntity
  8
KIJUN
 62
     7
100
AcDbCircle
 10
374.206668111249
 20
58.31152892374359
 30
0.0
 40
7.323770828022136
100
AcDbArc
 50
68.46805097329961
 51
111.5319490267004
  0
ARC
  5
1EA
330
2
100
AcDbEntity
  8
KIJUN
 62
     7
100
AcDbCircle
 10
379.5826086326284
 20
58.31152892374359
 30
0.0
 40
7.323770828022136
100
AcDbArc
 50
68.46805097329961
 51
111.5319490267004
  0
LINE
  5
1EB
330
2
100
AcDbEntity
  8
KIJUN
 62
     7
100
AcDbLine
 10
377.646519414697
 20
59.47420805344918
 30
0.0
 11
382.2705788933177
 21
65.12419617079409
 31
0.0
  0
ARC
  5
1EC
330
2
100
AcDbEntity
  8
KIJUN
 62
     7
100
AcDbCircle
 10
369.5826086326284
 20
66.28687530049987
 30
0.0
 40
7.323770828022117
100
AcDbArc
 50
248.4680509732995
 51
291.5319490267004
  0
LINE
  5
1ED
330
2
100
AcDbEntity
  8
KIJUN
 62
     7
100
AcDbLine
 10
372.2705788933176
 20
59.47420805344918
 30
0.0
 11
376.8946383719384
 21
65.12419617079409
 31
0.0
  0
ARC
  5
1EE
330
2
100
AcDbEntity
  8
KIJUN
 62
     7
100
AcDbCircle
 10
374.9585491540072
 20
66.28687530049987
 30
0.0
 40
7.323770828022117
100
AcDbArc
 50
248.4680509732995
 51
291.5319490267004
  0
ARC
  5
1EF
330
2
100
AcDbEntity
  8
KIJUN
 62
     7
100
AcDbCircle
 10
358.83072758987
 20
66.28687530049987
 30
0.0
 40
7.323770828022117
100
AcDbArc
 50
248.4680509732995
 51
291.5319490267004
  0
ARC
  5
1F0
330
2
100
AcDbEntity
  8
KIJUN
 62
     7
100
AcDbCircle
 10
368.83072758987
 20
58.31152892374359
 30
0.0
 40
7.323770828022136
100
AcDbArc
 50
68.46805097329961
 51
111.5319490267004
  0
ARC
  5
1F1
330
2
100
AcDbEntity
  8
KIJUN
 62
     7
100
AcDbCircle
 10
364.206668111249
 20
66.28687530049987
 30
0.0
 40
7.323770828022117
100
AcDbArc
 50
248.4680509732995
 51
291.5319490267004
  0
LINE
  5
1F2
330
2
100
AcDbEntity
  8
KIJUN
 62
     7
100
AcDbLine
 10
361.5186978505594
 20
59.47420805344918
 30
0.0
 11
366.1427573291801
 21
65.12419617079409
 31
0.0
  0
LINE
  5
1F3
330
2
100
AcDbEntity
  8
KIJUN
 62
     7
100
AcDbLine
 10
366.8946383719383
 20
59.47420805344918
 30
0.0
 11
371.5186978505593
 21
65.12419617079409
 31
0.0
  0
ARC
  5
1F4
330
2
100
AcDbEntity
  8
KIJUN
 62
     7
100
AcDbCircle
 10
363.4547870684905
 20
58.31152892374359
 30
0.0
 40
7.323770828022136
100
AcDbArc
 50
68.46805097329961
 51
111.5319490267004
  0
ARC
  5
1F5
330
2
100
AcDbEntity
  8
KIJUN
 62
     7
100
AcDbCircle
 10
331.9510249829739
 20
66.28687530049987
 30
0.0
 40
7.323770828022117
100
AcDbArc
 50
248.4680509732995
 51
291.5319490267004
  0
ARC
  5
1F6
330
2
100
AcDbEntity
  8
KIJUN
 62
     7
100
AcDbCircle
 10
358.0788465471112
 20
58.31152892374359
 30
0.0
 40
7.323770828022136
100
AcDbArc
 50
68.46805097329961
 51
111.5319490267004
  0
ARC
  5
1F7
330
2
100
AcDbEntity
  8
KIJUN
 62
     7
100
AcDbCircle
 10
347.3269655043531
 20
58.31152892374359
 30
0.0
 40
7.323770828022136
100
AcDbArc
 50
68.46805097329961
 51
111.5319490267004
  0
ARC
  5
1F8
330
2
100
AcDbEntity
  8
KIJUN
 62
     7
100
AcDbCircle
 10
352.7029060257322
 20
58.31152892374359
 30
0.0
 40
7.323770828022136
100
AcDbArc
 50
68.46805097329961
 51
111.5319490267004
  0
ARC
  5
1F9
330
2
100
AcDbEntity
  8
KIJUN
 62
     7
100
AcDbCircle
 10
348.0788465471114
 20
66.28687530049987
 30
0.0
 40
7.323770828022117
100
AcDbArc
 50
248.4680509732995
 51
291.5319490267004
  0
ARC
  5
1FA
330
2
100
AcDbEntity
  8
KIJUN
 62
     7
100
AcDbCircle
 10
353.4547870684905
 20
66.28687530049987
 30
0.0
 40
7.323770828022117
100
AcDbArc
 50
248.4680509732995
 51
291.5319490267004
  0
LINE
  5
1FB
330
2
100
AcDbEntity
  8
KIJUN
 62
     7
100
AcDbLine
 10
356.1427573291802
 20
59.47420805344918
 30
0.0
 11
360.7668168078011
 21
65.12419617079409
 31
0.0
  0
LINE
  5
1FC
330
2
100
AcDbEntity
  8
KIJUN
 62
     7
100
AcDbLine
 10
350.7668168078012
 20
59.47420805344918
 30
0.0
 11
355.3908762864215
 21
65.12419617079409
 31
0.0
  0
LINE
  5
1FD
330
2
100
AcDbEntity
  8
KIJUN
 62
     7
100
AcDbLine
 10
345.3908762864216
 20
59.47420805344918
 30
0.0
 11
350.0149357650425
 21
65.12419617079409
 31
0.0
  0
ARC
  5
1FE
330
2
100
AcDbEntity
  8
KIJUN
 62
     7
100
AcDbCircle
 10
336.5750844615945
 20
58.31152892374359
 30
0.0
 40
7.323770828022136
100
AcDbArc
 50
68.46805097329961
 51
111.5319490267004
  0
ARC
  5
1FF
330
2
100
AcDbEntity
  8
KIJUN
 62
     7
100
AcDbCircle
 10
337.3269655043531
 20
66.28687530049987
 30
0.0
 40
7.323770828022117
100
AcDbArc
 50
248.4680509732995
 51
291.5319490267004
  0
LINE
  5
200
330
2
100
AcDbEntity
  8
KIJUN
 62
     7
100
AcDbLine
 10
334.6389952436634
 20
59.47420805344918
 30
0.0
 11
339.2630547222843
 21
65.12419617079409
 31
0.0
  0
LINE
  5
201
330
2
100
AcDbEntity
  8
KIJUN
 62
     7
100
AcDbLine
 10
340.0149357650426
 20
59.47420805344918
 30
0.0
 11
344.6389952436634
 21
65.12419617079409
 31
0.0
  0
ARC
  5
202
330
2
100
AcDbEntity
  8
KIJUN
 62
     7
100
AcDbCircle
 10
341.9510249829739
 20
58.31152892374359
 30
0.0
 40
7.323770828022136
100
AcDbArc
 50
68.46805097329961
 51
111.5319490267004
  0
ARC
  5
203
330
2
100
AcDbEntity
  8
KIJUN
 62
     7
100
AcDbCircle
 10
342.7029060257322
 20
66.28687530049987
 30
0.0
 40
7.323770828022117
100
AcDbArc
 50
248.4680509732995
 51
291.5319490267004
  0
ARC
  5
204
330
2
100
AcDbEntity
  8
KIJUN
 62
     7
100
AcDbCircle
 10
320.4472628974571
 20
58.31152892374359
 30
0.0
 40
7.323770828022136
100
AcDbArc
 50
68.46805097329961
 51
111.5319490267004
  0
ARC
  5
205
330
2
100
AcDbEntity
  8
KIJUN
 62
     7
100
AcDbCircle
 10
325.8232034188363
 20
58.31152892374359
 30
0.0
 40
7.323770828022136
100
AcDbArc
 50
68.46805097329961
 51
111.5319490267004
  0
ARC
  5
206
330
2
100
AcDbEntity
  8
KIJUN
 62
     7
100
AcDbCircle
 10
331.1991439402154
 20
58.31152892374359
 30
0.0
 40
7.323770828022136
100
AcDbArc
 50
68.46805097329961
 51
111.5319490267004
  0
LINE
  5
207
330
2
100
AcDbEntity
  8
KIJUN
 62
     7
100
AcDbLine
 10
318.511173679526
 20
59.47420805344918
 30
0.0
 11
323.1352331581464
 21
65.12419617079409
 31
0.0
  0
ARC
  5
208
330
2
100
AcDbEntity
  8
KIJUN
 62
     7
100
AcDbCircle
 10
315.8232034188363
 20
66.28687530049987
 30
0.0
 40
7.323770828022117
100
AcDbArc
 50
248.4680509732995
 51
291.5319490267004
  0
ARC
  5
209
330
2
100
AcDbEntity
  8
KIJUN
 62
     7
100
AcDbCircle
 10
321.1991439402154
 20
66.28687530049987
 30
0.0
 40
7.323770828022117
100
AcDbArc
 50
248.4680509732995
 51
291.5319490267004
  0
LINE
  5
20A
330
2
100
AcDbEntity
  8
KIJUN
 62
     7
100
AcDbLine
 10
323.887114200905
 20
59.47420805344918
 30
0.0
 11
328.511173679526
 21
65.12419617079409
 31
0.0
  0
ARC
  5
20B
330
2
100
AcDbEntity
  8
KIJUN
 62
     7
100
AcDbCircle
 10
326.5750844615945
 20
66.28687530049987
 30
0.0
 40
7.323770828022117
100
AcDbArc
 50
248.4680509732995
 51
291.5319490267004
  0
LINE
  5
20C
330
2
100
AcDbEntity
  8
KIJUN
 62
     7
100
AcDbLine
 10
329.2630547222843
 20
59.47420805344918
 30
0.0
 11
333.8871142009051
 21
65.12419617079409
 31
0.0
  0
ARC
  5
20D
330
2
100
AcDbEntity
  8
KIJUN
 62
     7
100
AcDbCircle
 10
315.0713223760779
 20
58.31152892374359
 30
0.0
 40
7.323770828022136
100
AcDbArc
 50
68.46805097329961
 51
111.5319490267004
  0
LINE
  5
20E
330
2
100
AcDbEntity
  8
KIJUN
 62
     7
100
AcDbLine
 10
313.1352331581464
 20
59.47420805344918
 30
0.0
 11
317.7592926367674
 21
65.12419617079409
 31
0.0
  0
DIMENSION
  5
20F
330
2
100
AcDbEntity
  8
SUNPOU
100
AcDbDimension
  2
*D2
 10
11.10132351258073
 20
20.62419617079418
 30
0.0
 11
6.101323512580727
 21
47.12419617079413
 31
0.0
 71
     5
 42
52.9999999999999
  3
STANDARD$0
100
AcDbAlignedDimension
 13
24.99322018530521
 23
73.62419617079409
 33
0.0
 14
24.99322018530521
 24
20.62419617079417
 34
0.0
 50
90.0
100
AcDbRotatedDimension
1001
ACAD
1000
DSTYLE
1002
{
1070
    41
1040
2.0
1070
    44
1040
0.0
1070
    77
1070
     1
1070
    78
1070
     0
1070
   140
1040
3.0
1070
   141
1040
1.0
1070
   146
1040
0.0642857142857143
1070
   172
1070
     0
1070
   173
1070
     0
1070
   176
1070
    60
1070
   177
1070
    70
1070
   178
1070
    60
1070
   271
1070
     0
1070
   272
1070
     0
1070
   341
1005
0
1070
   342
1005
37
1070
   343
1005
0
1070
   344
1005
0
1002
}
  0
TEXT
  5
21C
330
2
100
AcDbEntity
  8
HOJO
100
AcDbText
 10
0.2879839550433871
 20
1.18331300000001
 30
0.0
 40
4.5
  1
PM832
  7
SUNPOU
100
AcDbText
  0
LINE
  5
21E
330
2
100
AcDbEntity
  8
WAKU
100
AcDbLine
 10
0.0
 20
0.0
 30
0.0
 11
44.67747103027135
 21
0.0
 31
0.0
  0
LINE
  5
220
330
2
100
AcDbEntity
  8
WAKU
100
AcDbLine
 10
0.0
 20
7.0
 30
0.0
 11
44.67747103027135
 21
7.0
 31
0.0
  0
TEXT
  5
221
330
2
100
AcDbEntity
  8
HOJO
100
AcDbText
 10
30.90226990232622
 20
2.522193000000015
 30
0.0
 40
3.0
  1
53\U+00D718
  7
SUNPOU
100
AcDbText
  0
LWPOLYLINE
  5
222
330
2
100
AcDbEntity
  8
KIJUN
100
AcDbPolyline
 90
       32
 70
     1
 43
0.0
 10
35.90523967728943
 20
43.46150655143484
 10
32.99322018530522
 20
43.52025814987192
 10
32.99322018530522
 20
50.72813419171639
 10
35.90523967728943
 20
50.78688579015346
 42
0.2639077565466621
 10
36.763617650893
 20
51.27386799861774
 10
37.50299142167094
 20
52.60026270449399
 42
-0.2467578698862364
 10
38.29701408223876
 20
53.08517196123595
 10
38.48993481898461
 20
53.13463498913916
 42
0.342472425942749
 10
39.99322018530505
 20
55.07197196878125
 10
39.99322018530522
 20
57.19415909497225
 42
-0.2814466911947027
 10
41.0813947056076
 20
58.97420805344834
 42
0.7288060857961122
 10
39.99322018530505
 20
65.6241961707941
 10
39.99322018530505
 20
67.62419617079409
 42
0.4142135623730951
 10
38.99322018530505
 20
68.62419617079409
 10
34.99322018530505
 20
68.62419617079409
 10
34.99322018530505
 20
72.62419617079409
 42
0.4142135623730951
 10
33.99322018530505
 20
73.62419617079409
 10
24.99322018530521
 20
73.62419617079409
 10
24.99322018530521
 20
20.62419617079417
 10
33.99322018530505
 20
20.62419617079417
 42
0.4142135623730951
 10
34.99322018530505
 20
21.62419617079416
 10
34.99322018530505
 20
25.62419617079417
 10
38.99322018530505
 20
25.62419617079417
 42
0.4142135623730951
 10
39.99322018530505
 20
26.62419617079417
 10
39.99322018530505
 20
28.62419617079416
 42
0.7288060857961122
 10
41.08139470560757
 20
35.27418428813991
 42
-0.2814466911947026
 10
39.99322018530522
 20
37.05423324661609
 10
39.99322018530505
 20
39.17642037280707
 42
0.3424724259427494
 10
38.48993481898461
 20
41.11375735244918
 10
38.29701408223876
 20
41.16322038035237
 42
-0.2467578698862362
 10
37.50299142167094
 20
41.64812963709432
 10
36.763617650893
 20
42.97452434297058
 42
0.2639077565466616
  0
ARC
  5
264
330
2
100
AcDbEntity
  8
KIJUN
 62
     7
100
AcDbCircle
 10
223.6803335126317
 20
27.97262062205977
 30
0.0
 40
7.323770828022136
100
AcDbArc
 50
68.46805097329952
 51
111.5319490267004
  0
ARC
  5
265
330
2
100
AcDbEntity
  8
KIJUN
 62
     7
100
AcDbCircle
 10
224.4322145553901
 20
35.94796699881607
 30
0.0
 40
7.323770828022117
100
AcDbArc
 50
248.4680509732995
 51
291.5319490267004
  0
LINE
  5
266
330
2
100
AcDbEntity
  8
KIJUN
 62
     7
100
AcDbLine
 10
221.7442442947005
 20
29.13529975176534
 30
0.0
 11
226.3683037733214
 21
34.78528786911029
 31
0.0
  0
ARC
  5
267
330
2
100
AcDbEntity
  8
KIJUN
 62
     7
100
AcDbCircle
 10
223.6803335126317
 20
58.31152892374337
 30
0.0
 40
7.323770828022136
100
AcDbArc
 50
68.46805097329952
 51
111.5319490267004
  0
LINE
  5
268
330
2
100
AcDbEntity
  8
KIJUN
 62
     7
100
AcDbLine
 10
221.7442442947005
 20
59.47420805344896
 30
0.0
 11
226.3683037733214
 21
65.12419617079387
 31
0.0
  0
ARC
  5
269
330
2
100
AcDbEntity
  8
KIJUN
 62
     7
100
AcDbCircle
 10
224.4322145553901
 20
66.28687530049965
 30
0.0
 40
7.323770828022117
100
AcDbArc
 50
248.4680509732995
 51
291.5319490267004
  0
ARC
  5
26A
330
2
100
AcDbEntity
  8
KIJUN
 62
     7
100
AcDbCircle
 10
218.3043929912525
 20
27.97262062205977
 30
0.0
 40
7.323770828022136
100
AcDbArc
 50
68.46805097329952
 51
111.5319490267004
  0
ARC
  5
26B
330
2
100
AcDbEntity
  8
KIJUN
 62
     7
100
AcDbCircle
 10
219.0562740340113
 20
35.94796699881607
 30
0.0
 40
7.323770828022117
100
AcDbArc
 50
248.4680509732995
 51
291.5319490267004
  0
LINE
  5
26C
330
2
100
AcDbEntity
  8
KIJUN
 62
     7
100
AcDbLine
 10
216.3683037733213
 20
29.13529975176534
 30
0.0
 11
220.9923632519423
 21
34.78528786911029
 31
0.0
  0
ARC
  5
26D
330
2
100
AcDbEntity
  8
KIJUN
 62
     7
100
AcDbCircle
 10
207.5525119484943
 20
27.97262062205977
 30
0.0
 40
7.323770828022136
100
AcDbArc
 50
68.46805097329952
 51
111.5319490267004
  0
ARC
  5
26E
330
2
100
AcDbEntity
  8
KIJUN
 62
     7
100
AcDbCircle
 10
202.9284524698736
 20
35.94796699881607
 30
0.0
 40
7.323770828022117
100
AcDbArc
 50
248.4680509732995
 51
291.5319490267004
  0
ARC
  5
26F
330
2
100
AcDbEntity
  8
KIJUN
 62
     7
100
AcDbCircle
 10
208.3043929912525
 20
35.94796699881607
 30
0.0
 40
7.323770828022117
100
AcDbArc
 50
248.4680509732995
 51
291.5319490267004
  0
LINE
  5
270
330
2
100
AcDbEntity
  8
KIJUN
 62
     7
100
AcDbLine
 10
205.6164227305631
 20
29.13529975176534
 30
0.0
 11
210.2404822091842
 21
34.78528786911029
 31
0.0
  0
ARC
  5
271
330
2
100
AcDbEntity
  8
KIJUN
 62
     7
100
AcDbCircle
 10
212.9284524698735
 20
27.97262062205977
 30
0.0
 40
7.323770828022136
100
AcDbArc
 50
68.46805097329952
 51
111.5319490267004
  0
LINE
  5
272
330
2
100
AcDbEntity
  8
KIJUN
 62
     7
100
AcDbLine
 10
210.9923632519423
 20
29.13529975176534
 30
0.0
 11
215.6164227305631
 21
34.78528786911029
 31
0.0
  0
ARC
  5
273
330
2
100
AcDbEntity
  8
KIJUN
 62
     7
100
AcDbCircle
 10
213.6803335126316
 20
35.94796699881607
 30
0.0
 40
7.323770828022117
100
AcDbArc
 50
248.4680509732995
 51
291.5319490267004
  0
ARC
  5
274
330
2
100
AcDbEntity
  8
KIJUN
 62
     7
100
AcDbCircle
 10
219.0562740340113
 20
66.28687530049965
 30
0.0
 40
7.323770828022117
100
AcDbArc
 50
248.4680509732995
 51
291.5319490267004
  0
ARC
  5
275
330
2
100
AcDbEntity
  8
KIJUN
 62
     7
100
AcDbCircle
 10
213.6803335126316
 20
66.28687530049965
 30
0.0
 40
7.323770828022117
100
AcDbArc
 50
248.4680509732995
 51
291.5319490267004
  0
ARC
  5
276
330
2
100
AcDbEntity
  8
KIJUN
 62
     7
100
AcDbCircle
 10
218.3043929912525
 20
58.31152892374337
 30
0.0
 40
7.323770828022136
100
AcDbArc
 50
68.46805097329952
 51
111.5319490267004
  0
LINE
  5
277
330
2
100
AcDbEntity
  8
KIJUN
 62
     7
100
AcDbLine
 10
216.3683037733213
 20
59.47420805344896
 30
0.0
 11
220.9923632519423
 21
65.12419617079387
 31
0.0
  0
ARC
  5
278
330
2
100
AcDbEntity
  8
KIJUN
 62
     7
100
AcDbCircle
 10
208.3043929912525
 20
66.28687530049946
 30
0.0
 40
7.323770828022117
100
AcDbArc
 50
248.4680509732995
 51
291.5319490267004
  0
LINE
  5
279
330
2
100
AcDbEntity
  8
KIJUN
 62
     7
100
AcDbLine
 10
210.9923632519423
 20
59.47420805344896
 30
0.0
 11
215.6164227305631
 21
65.12419617079387
 31
0.0
  0
ARC
  5
27A
330
2
100
AcDbEntity
  8
KIJUN
 62
     7
100
AcDbCircle
 10
212.9284524698735
 20
58.31152892374316
 30
0.0
 40
7.323770828022136
100
AcDbArc
 50
68.46805097329952
 51
111.5319490267004
  0
ARC
  5
27B
330
2
100
AcDbEntity
  8
KIJUN
 62
     7
100
AcDbCircle
 10
207.5525119484943
 20
58.31152892374316
 30
0.0
 40
7.323770828022136
100
AcDbArc
 50
68.46805097329952
 51
111.5319490267004
  0
ARC
  5
27C
330
2
100
AcDbEntity
  8
KIJUN
 62
     7
100
AcDbCircle
 10
202.9284524698736
 20
66.28687530049946
 30
0.0
 40
7.323770828022117
100
AcDbArc
 50
248.4680509732995
 51
291.5319490267004
  0
LINE
  5
27D
330
2
100
AcDbEntity
  8
KIJUN
 62
     7
100
AcDbLine
 10
205.6164227305631
 20
59.47420805344896
 30
0.0
 11
210.2404822091842
 21
65.12419617079387
 31
0.0
  0
ARC
  5
27E
330
2
100
AcDbEntity
  8
KIJUN
 62
     7
100
AcDbCircle
 10
288.1916197691822
 20
27.97262062205977
 30
0.0
 40
7.323770828022136
100
AcDbArc
 50
68.46805097329952
 51
111.5319490267004
  0
ARC
  5
27F
330
2
100
AcDbEntity
  8
KIJUN
 62
     7
100
AcDbCircle
 10
283.5675602905616
 20
35.94796699881607
 30
0.0
 40
7.323770828022117
100
AcDbArc
 50
248.4680509732995
 51
291.5319490267004
  0
LINE
  5
280
330
2
100
AcDbEntity
  8
KIJUN
 62
     7
100
AcDbLine
 10
280.8795900298715
 20
29.13529975176557
 30
0.0
 11
285.5036495084925
 21
34.78528786911051
 31
0.0
  0
LINE
  5
281
330
2
100
AcDbEntity
  8
KIJUN
 62
     7
100
AcDbLine
 10
286.2555305512508
 20
29.13529975176557
 30
0.0
 11
290.8795900298716
 21
34.78528786911051
 31
0.0
  0
ARC
  5
282
330
2
100
AcDbEntity
  8
KIJUN
 62
     7
100
AcDbCircle
 10
277.4397387264237
 20
27.97262062205977
 30
0.0
 40
7.323770828022136
100
AcDbArc
 50
68.46805097329952
 51
111.5319490267004
  0
ARC
  5
283
330
2
100
AcDbEntity
  8
KIJUN
 62
     7
100
AcDbCircle
 10
272.0637982050444
 20
27.97262062205977
 30
0.0
 40
7.323770828022136
100
AcDbArc
 50
68.46805097329952
 51
111.5319490267004
  0
ARC
  5
284
330
2
100
AcDbEntity
  8
KIJUN
 62
     7
100
AcDbCircle
 10
267.4397387264237
 20
35.94796699881607
 30
0.0
 40
7.323770828022117
100
AcDbArc
 50
248.4680509732995
 51
291.5319490267004
  0
ARC
  5
285
330
2
100
AcDbEntity
  8
KIJUN
 62
     7
100
AcDbCircle
 10
272.8156792478031
 20
35.94796699881607
 30
0.0
 40
7.323770828022117
100
AcDbArc
 50
248.4680509732995
 51
291.5319490267004
  0
LINE
  5
286
330
2
100
AcDbEntity
  8
KIJUN
 62
     7
100
AcDbLine
 10
264.7517684657343
 20
29.13529975176534
 30
0.0
 11
269.3758279443547
 21
34.78528786911029
 31
0.0
  0
LINE
  5
287
330
2
100
AcDbEntity
  8
KIJUN
 62
     7
100
AcDbLine
 10
270.1277089871133
 20
29.13529975176557
 30
0.0
 11
274.7517684657343
 21
34.78528786911051
 31
0.0
  0
LINE
  5
288
330
2
100
AcDbEntity
  8
KIJUN
 62
     7
100
AcDbLine
 10
275.5036495084925
 20
29.13529975176557
 30
0.0
 11
280.1277089871133
 21
34.78528786911051
 31
0.0
  0
ARC
  5
289
330
2
100
AcDbEntity
  8
KIJUN
 62
     7
100
AcDbCircle
 10
261.3119171622862
 20
27.97262062205977
 30
0.0
 40
7.323770828022136
100
AcDbArc
 50
68.46805097329952
 51
111.5319490267004
  0
ARC
  5
28A
330
2
100
AcDbEntity
  8
KIJUN
 62
     7
100
AcDbCircle
 10
255.935976640907
 20
27.97262062205977
 30
0.0
 40
7.323770828022136
100
AcDbArc
 50
68.46805097329952
 51
111.5319490267004
  0
ARC
  5
28B
330
2
100
AcDbEntity
  8
KIJUN
 62
     7
100
AcDbCircle
 10
251.3119171622863
 20
35.94796699881607
 30
0.0
 40
7.323770828022117
100
AcDbArc
 50
248.4680509732995
 51
291.5319490267004
  0
ARC
  5
28C
330
2
100
AcDbEntity
  8
KIJUN
 62
     7
100
AcDbCircle
 10
256.6878576836653
 20
35.94796699881607
 30
0.0
 40
7.323770828022117
100
AcDbArc
 50
248.4680509732995
 51
291.5319490267004
  0
LINE
  5
28D
330
2
100
AcDbEntity
  8
KIJUN
 62
     7
100
AcDbLine
 10
253.9998874229758
 20
29.13529975176534
 30
0.0
 11
258.6239469015966
 21
34.78528786911029
 31
0.0
  0
LINE
  5
28E
330
2
100
AcDbEntity
  8
KIJUN
 62
     7
100
AcDbLine
 10
248.6239469015965
 20
29.13529975176534
 30
0.0
 11
253.2480063802175
 21
34.78528786911029
 31
0.0
  0
LINE
  5
28F
330
2
100
AcDbEntity
  8
KIJUN
 62
     7
100
AcDbLine
 10
259.3758279443548
 20
29.13529975176534
 30
0.0
 11
263.9998874229756
 21
34.78528786911029
 31
0.0
  0
ARC
  5
290
330
2
100
AcDbEntity
  8
KIJUN
 62
     7
100
AcDbCircle
 10
262.0637982050445
 20
35.94796699881607
 30
0.0
 40
7.323770828022117
100
AcDbArc
 50
248.4680509732995
 51
291.5319490267004
  0
ARC
  5
291
330
2
100
AcDbEntity
  8
KIJUN
 62
     7
100
AcDbCircle
 10
266.6878576836654
 20
27.97262062205977
 30
0.0
 40
7.323770828022136
100
AcDbArc
 50
68.46805097329952
 51
111.5319490267004
  0
ARC
  5
292
330
2
100
AcDbEntity
  8
KIJUN
 62
     7
100
AcDbCircle
 10
245.1840955981485
 20
27.97262062205977
 30
0.0
 40
7.323770828022136
100
AcDbArc
 50
68.46805097329952
 51
111.5319490267004
  0
ARC
  5
293
330
2
100
AcDbEntity
  8
KIJUN
 62
     7
100
AcDbCircle
 10
234.4322145553903
 20
27.97262062205977
 30
0.0
 40
7.323770828022136
100
AcDbArc
 50
68.46805097329952
 51
111.5319490267004
  0
ARC
  5
294
330
2
100
AcDbEntity
  8
KIJUN
 62
     7
100
AcDbCircle
 10
239.8081550767695
 20
27.97262062205977
 30
0.0
 40
7.323770828022136
100
AcDbArc
 50
68.46805097329952
 51
111.5319490267004
  0
ARC
  5
295
330
2
100
AcDbEntity
  8
KIJUN
 62
     7
100
AcDbCircle
 10
235.1840955981485
 20
35.94796699881607
 30
0.0
 40
7.323770828022117
100
AcDbArc
 50
248.4680509732995
 51
291.5319490267004
  0
ARC
  5
296
330
2
100
AcDbEntity
  8
KIJUN
 62
     7
100
AcDbCircle
 10
240.5600361195276
 20
35.94796699881607
 30
0.0
 40
7.323770828022117
100
AcDbArc
 50
248.4680509732995
 51
291.5319490267004
  0
LINE
  5
297
330
2
100
AcDbEntity
  8
KIJUN
 62
     7
100
AcDbLine
 10
243.2480063802175
 20
29.13529975176534
 30
0.0
 11
247.8720658588382
 21
34.78528786911029
 31
0.0
  0
LINE
  5
298
330
2
100
AcDbEntity
  8
KIJUN
 62
     7
100
AcDbLine
 10
237.8720658588381
 20
29.13529975176534
 30
0.0
 11
242.4961253374592
 21
34.78528786911029
 31
0.0
  0
LINE
  5
299
330
2
100
AcDbEntity
  8
KIJUN
 62
     7
100
AcDbLine
 10
232.4961253374592
 20
29.13529975176534
 30
0.0
 11
237.1201848160795
 21
34.78528786911029
 31
0.0
  0
LINE
  5
29A
330
2
100
AcDbEntity
  8
KIJUN
 62
     7
100
AcDbLine
 10
227.1201848160795
 20
29.13529975176534
 30
0.0
 11
231.7442442947005
 21
34.78528786911029
 31
0.0
  0
ARC
  5
29B
330
2
100
AcDbEntity
  8
KIJUN
 62
     7
100
AcDbCircle
 10
229.056274034011
 20
27.97262062205977
 30
0.0
 40
7.323770828022136
100
AcDbArc
 50
68.46805097329952
 51
111.5319490267004
  0
ARC
  5
29C
330
2
100
AcDbEntity
  8
KIJUN
 62
     7
100
AcDbCircle
 10
229.8081550767695
 20
35.94796699881607
 30
0.0
 40
7.323770828022117
100
AcDbArc
 50
248.4680509732995
 51
291.5319490267004
  0
ARC
  5
29D
330
2
100
AcDbEntity
  8
KIJUN
 62
     7
100
AcDbCircle
 10
250.5600361195277
 20
27.97262062205977
 30
0.0
 40
7.323770828022136
100
AcDbArc
 50
68.46805097329952
 51
111.5319490267004
  0
ARC
  5
29E
330
2
100
AcDbEntity
  8
KIJUN
 62
     7
100
AcDbCircle
 10
245.935976640907
 20
35.94796699881607
 30
0.0
 40
7.323770828022117
100
AcDbArc
 50
248.4680509732995
 51
291.5319490267004
  0
ARC
  5
29F
330
2
100
AcDbEntity
  8
KIJUN
 62
     7
100
AcDbCircle
 10
278.1916197691822
 20
35.94796699881607
 30
0.0
 40
7.323770828022117
100
AcDbArc
 50
248.4680509732995
 51
291.5319490267004
  0
ARC
  5
2A0
330
2
100
AcDbEntity
  8
KIJUN
 62
     7
100
AcDbCircle
 10
282.8156792478031
 20
27.97262062205977
 30
0.0
 40
7.323770828022136
100
AcDbArc
 50
68.46805097329952
 51
111.5319490267004
  0
ARC
  5
2A1
330
2
100
AcDbEntity
  8
KIJUN
 62
     7
100
AcDbCircle
 10
288.1916197691822
 20
58.31152892374337
 30
0.0
 40
7.323770828022136
100
AcDbArc
 50
68.46805097329952
 51
111.5319490267004
  0
ARC
  5
2A2
330
2
100
AcDbEntity
  8
KIJUN
 62
     7
100
AcDbCircle
 10
283.5675602905616
 20
66.28687530049965
 30
0.0
 40
7.323770828022117
100
AcDbArc
 50
248.4680509732995
 51
291.5319490267004
  0
LINE
  5
2A3
330
2
100
AcDbEntity
  8
KIJUN
 62
     7
100
AcDbLine
 10
286.2555305512508
 20
59.47420805344896
 30
0.0
 11
290.8795900298716
 21
65.12419617079387
 31
0.0
  0
ARC
  5
2A4
330
2
100
AcDbEntity
  8
KIJUN
 62
     7
100
AcDbCircle
 10
272.8156792478031
 20
66.28687530049965
 30
0.0
 40
7.323770828022117
100
AcDbArc
 50
248.4680509732995
 51
291.5319490267004
  0
ARC
  5
2A5
330
2
100
AcDbEntity
  8
KIJUN
 62
     7
100
AcDbCircle
 10
282.8156792478031
 20
58.31152892374337
 30
0.0
 40
7.323770828022136
100
AcDbArc
 50
68.46805097329952
 51
111.5319490267004
  0
ARC
  5
2A6
330
2
100
AcDbEntity
  8
KIJUN
 62
     7
100
AcDbCircle
 10
278.1916197691822
 20
66.28687530049965
 30
0.0
 40
7.323770828022117
100
AcDbArc
 50
248.4680509732995
 51
291.5319490267004
  0
LINE
  5
2A7
330
2
100
AcDbEntity
  8
KIJUN
 62
     7
100
AcDbLine
 10
275.5036495084925
 20
59.47420805344896
 30
0.0
 11
280.1277089871133
 21
65.12419617079387
 31
0.0
  0
LINE
  5
2A8
330
2
100
AcDbEntity
  8
KIJUN
 62
     7
100
AcDbLine
 10
280.8795900298715
 20
59.47420805344896
 30
0.0
 11
285.5036495084925
 21
65.12419617079387
 31
0.0
  0
ARC
  5
2A9
330
2
100
AcDbEntity
  8
KIJUN
 62
     7
100
AcDbCircle
 10
277.4397387264237
 20
58.31152892374337
 30
0.0
 40
7.323770828022136
100
AcDbArc
 50
68.46805097329952
 51
111.5319490267004
  0
ARC
  5
2AA
330
2
100
AcDbEntity
  8
KIJUN
 62
     7
100
AcDbCircle
 10
245.935976640907
 20
66.28687530049965
 30
0.0
 40
7.323770828022117
100
AcDbArc
 50
248.4680509732995
 51
291.5319490267004
  0
ARC
  5
2AB
330
2
100
AcDbEntity
  8
KIJUN
 62
     7
100
AcDbCircle
 10
272.0637982050444
 20
58.31152892374337
 30
0.0
 40
7.323770828022136
100
AcDbArc
 50
68.46805097329952
 51
111.5319490267004
  0
ARC
  5
2AC
330
2
100
AcDbEntity
  8
KIJUN
 62
     7
100
AcDbCircle
 10
261.3119171622862
 20
58.31152892374337
 30
0.0
 40
7.323770828022136
100
AcDbArc
 50
68.46805097329952
 51
111.5319490267004
  0
ARC
  5
2AD
330
2
100
AcDbEntity
  8
KIJUN
 62
     7
100
AcDbCircle
 10
266.6878576836654
 20
58.31152892374337
 30
0.0
 40
7.323770828022136
100
AcDbArc
 50
68.46805097329952
 51
111.5319490267004
  0
ARC
  5
2AE
330
2
100
AcDbEntity
  8
KIJUN
 62
     7
100
AcDbCircle
 10
262.0637982050445
 20
66.28687530049965
 30
0.0
 40
7.323770828022117
100
AcDbArc
 50
248.4680509732995
 51
291.5319490267004
  0
ARC
  5
2AF
330
2
100
AcDbEntity
  8
KIJUN
 62
     7
100
AcDbCircle
 10
267.4397387264237
 20
66.28687530049965
 30
0.0
 40
7.323770828022117
100
AcDbArc
 50
248.4680509732995
 51
291.5319490267004
  0
LINE
  5
2B0
330
2
100
AcDbEntity
  8
KIJUN
 62
     7
100
AcDbLine
 10
270.1277089871133
 20
59.47420805344896
 30
0.0
 11
274.7517684657343
 21
65.12419617079387
 31
0.0
  0
LINE
  5
2B1
330
2
100
AcDbEntity
  8
KIJUN
 62
     7
100
AcDbLine
 10
264.7517684657343
 20
59.47420805344896
 30
0.0
 11
269.3758279443547
 21
65.12419617079387
 31
0.0
  0
LINE
  5
2B2
330
2
100
AcDbEntity
  8
KIJUN
 62
     7
100
AcDbLine
 10
259.3758279443548
 20
59.47420805344896
 30
0.0
 11
263.9998874229756
 21
65.12419617079387
 31
0.0
  0
ARC
  5
2B3
330
2
100
AcDbEntity
  8
KIJUN
 62
     7
100
AcDbCircle
 10
250.5600361195277
 20
58.31152892374337
 30
0.0
 40
7.323770828022136
100
AcDbArc
 50
68.46805097329952
 51
111.5319490267004
  0
ARC
  5
2B4
330
2
100
AcDbEntity
  8
KIJUN
 62
     7
100
AcDbCircle
 10
251.3119171622863
 20
66.28687530049965
 30
0.0
 40
7.323770828022117
100
AcDbArc
 50
248.4680509732995
 51
291.5319490267004
  0
LINE
  5
2B5
330
2
100
AcDbEntity
  8
KIJUN
 62
     7
100
AcDbLine
 10
248.6239469015965
 20
59.47420805344896
 30
0.0
 11
253.2480063802175
 21
65.12419617079387
 31
0.0
  0
LINE
  5
2B6
330
2
100
AcDbEntity
  8
KIJUN
 62
     7
100
AcDbLine
 10
253.9998874229758
 20
59.47420805344896
 30
0.0
 11
258.6239469015966
 21
65.12419617079387
 31
0.0
  0
ARC
  5
2B7
330
2
100
AcDbEntity
  8
KIJUN
 62
     7
100
AcDbCircle
 10
255.935976640907
 20
58.31152892374337
 30
0.0
 40
7.323770828022136
100
AcDbArc
 50
68.46805097329952
 51
111.5319490267004
  0
ARC
  5
2B8
330
2
100
AcDbEntity
  8
KIJUN
 62
     7
100
AcDbCircle
 10
256.6878576836653
 20
66.28687530049965
 30
0.0
 40
7.323770828022117
100
AcDbArc
 50
248.4680509732995
 51
291.5319490267004
  0
ARC
  5
2B9
330
2
100
AcDbEntity
  8
KIJUN
 62
     7
100
AcDbCircle
 10
234.4322145553903
 20
58.31152892374337
 30
0.0
 40
7.323770828022136
100
AcDbArc
 50
68.46805097329952
 51
111.5319490267004
  0
ARC
  5
2BA
330
2
100
AcDbEntity
  8
KIJUN
 62
     7
100
AcDbCircle
 10
239.8081550767695
 20
58.31152892374337
 30
0.0
 40
7.323770828022136
100
AcDbArc
 50
68.46805097329952
 51
111.5319490267004
  0
ARC
  5
2BB
330
2
100
AcDbEntity
  8
KIJUN
 62
     7
100
AcDbCircle
 10
245.1840955981485
 20
58.31152892374337
 30
0.0
 40
7.323770828022136
100
AcDbArc
 50
68.46805097329952
 51
111.5319490267004
  0
LINE
  5
2BC
330
2
100
AcDbEntity
  8
KIJUN
 62
     7
100
AcDbLine
 10
232.4961253374592
 20
59.47420805344896
 30
0.0
 11
237.1201848160795
 21
65.12419617079387
 31
0.0
  0
ARC
  5
2BD
330
2
100
AcDbEntity
  8
KIJUN
 62
     7
100
AcDbCircle
 10
229.8081550767695
 20
66.28687530049965
 30
0.0
 40
7.323770828022117
100
AcDbArc
 50
248.4680509732995
 51
291.5319490267004
  0
ARC
  5
2BE
330
2
100
AcDbEntity
  8
KIJUN
 62
     7
100
AcDbCircle
 10
235.1840955981485
 20
66.28687530049965
 30
0.0
 40
7.323770828022117
100
AcDbArc
 50
248.4680509732995
 51
291.5319490267004
  0
LINE
  5
2BF
330
2
100
AcDbEntity
  8
KIJUN
 62
     7
100
AcDbLine
 10
237.8720658588381
 20
59.47420805344896
 30
0.0
 11
242.4961253374592
 21
65.12419617079387
 31
0.0
  0
ARC
  5
2C0
330
2
100
AcDbEntity
  8
KIJUN
 62
     7
100
AcDbCircle
 10
240.5600361195276
 20
66.28687530049965
 30
0.0
 40
7.323770828022117
100
AcDbArc
 50
248.4680509732995
 51
291.5319490267004
  0
LINE
  5
2C1
330
2
100
AcDbEntity
  8
KIJUN
 62
     7
100
AcDbLine
 10
243.2480063802175
 20
59.47420805344896
 30
0.0
 11
247.8720658588382
 21
65.12419617079387
 31
0.0
  0
ARC
  5
2C2
330
2
100
AcDbEntity
  8
KIJUN
 62
     7
100
AcDbCircle
 10
229.056274034011
 20
58.31152892374337
 30
0.0
 40
7.323770828022136
100
AcDbArc
 50
68.46805097329952
 51
111.5319490267004
  0
LINE
  5
2C3
330
2
100
AcDbEntity
  8
KIJUN
 62
     7
100
AcDbLine
 10
227.1201848160795
 20
59.47420805344896
 30
0.0
 11
231.7442442947005
 21
65.12419617079387
 31
0.0
  0
ARC
  5
2C5
330
2
100
AcDbEntity
  8
KIJUN
 62
     7
100
AcDbCircle
 10
137.6652851705648
 20
27.97262062205954
 30
0.0
 40
7.323770828022136
100
AcDbArc
 50
68.46805097329952
 51
111.5319490267004
  0
ARC
  5
2C6
330
2
100
AcDbEntity
  8
KIJUN
 62
     7
100
AcDbCircle
 10
138.4171662133233
 20
35.94796699881584
 30
0.0
 40
7.323770828022117
100
AcDbArc
 50
248.4680509732995
 51
291.5319490267004
  0
LINE
  5
2C7
330
2
100
AcDbEntity
  8
KIJUN
 62
     7
100
AcDbLine
 10
135.7291959526337
 20
29.13529975176511
 30
0.0
 11
140.3532554312546
 21
34.78528786911006
 31
0.0
  0
ARC
  5
2C8
330
2
100
AcDbEntity
  8
KIJUN
 62
     7
100
AcDbCircle
 10
137.6652851705648
 20
58.31152892374315
 30
0.0
 40
7.323770828022136
100
AcDbArc
 50
68.46805097329952
 51
111.5319490267004
  0
LINE
  5
2C9
330
2
100
AcDbEntity
  8
KIJUN
 62
     7
100
AcDbLine
 10
135.7291959526337
 20
59.47420805344873
 30
0.0
 11
140.3532554312546
 21
65.12419617079365
 31
0.0
  0
ARC
  5
2CA
330
2
100
AcDbEntity
  8
KIJUN
 62
     7
100
AcDbCircle
 10
138.4171662133233
 20
66.28687530049941
 30
0.0
 40
7.323770828022117
100
AcDbArc
 50
248.4680509732995
 51
291.5319490267004
  0
ARC
  5
2CB
330
2
100
AcDbEntity
  8
KIJUN
 62
     7
100
AcDbCircle
 10
132.2893446491856
 20
27.97262062205954
 30
0.0
 40
7.323770828022136
100
AcDbArc
 50
68.46805097329952
 51
111.5319490267004
  0
ARC
  5
2CC
330
2
100
AcDbEntity
  8
KIJUN
 62
     7
100
AcDbCircle
 10
133.0412256919444
 20
35.94796699881584
 30
0.0
 40
7.323770828022117
100
AcDbArc
 50
248.4680509732995
 51
291.5319490267004
  0
LINE
  5
2CD
330
2
100
AcDbEntity
  8
KIJUN
 62
     7
100
AcDbLine
 10
130.3532554312545
 20
29.13529975176511
 30
0.0
 11
134.9773149098754
 21
34.78528786911006
 31
0.0
  0
ARC
  5
2CE
330
2
100
AcDbEntity
  8
KIJUN
 62
     7
100
AcDbCircle
 10
121.5374636064274
 20
27.97262062205954
 30
0.0
 40
7.323770828022136
100
AcDbArc
 50
68.46805097329952
 51
111.5319490267004
  0
ARC
  5
2CF
330
2
100
AcDbEntity
  8
KIJUN
 62
     7
100
AcDbCircle
 10
116.9134041278067
 20
35.94796699881584
 30
0.0
 40
7.323770828022117
100
AcDbArc
 50
248.4680509732995
 51
291.5319490267004
  0
ARC
  5
2D0
330
2
100
AcDbEntity
  8
KIJUN
 62
     7
100
AcDbCircle
 10
122.2893446491856
 20
35.94796699881584
 30
0.0
 40
7.323770828022117
100
AcDbArc
 50
248.4680509732995
 51
291.5319490267004
  0
LINE
  5
2D1
330
2
100
AcDbEntity
  8
KIJUN
 62
     7
100
AcDbLine
 10
119.6013743884963
 20
29.13529975176511
 30
0.0
 11
124.2254338671173
 21
34.78528786911006
 31
0.0
  0
ARC
  5
2D2
330
2
100
AcDbEntity
  8
KIJUN
 62
     7
100
AcDbCircle
 10
126.9134041278067
 20
27.97262062205954
 30
0.0
 40
7.323770828022136
100
AcDbArc
 50
68.46805097329952
 51
111.5319490267004
  0
LINE
  5
2D3
330
2
100
AcDbEntity
  8
KIJUN
 62
     7
100
AcDbLine
 10
124.9773149098754
 20
29.13529975176511
 30
0.0
 11
129.6013743884963
 21
34.78528786911006
 31
0.0
  0
ARC
  5
2D4
330
2
100
AcDbEntity
  8
KIJUN
 62
     7
100
AcDbCircle
 10
127.6652851705647
 20
35.94796699881584
 30
0.0
 40
7.323770828022117
100
AcDbArc
 50
248.4680509732995
 51
291.5319490267004
  0
ARC
  5
2D5
330
2
100
AcDbEntity
  8
KIJUN
 62
     7
100
AcDbCircle
 10
133.0412256919444
 20
66.28687530049941
 30
0.0
 40
7.323770828022117
100
AcDbArc
 50
248.4680509732995
 51
291.5319490267004
  0
ARC
  5
2D6
330
2
100
AcDbEntity
  8
KIJUN
 62
     7
100
AcDbCircle
 10
127.6652851705647
 20
66.28687530049941
 30
0.0
 40
7.323770828022117
100
AcDbArc
 50
248.4680509732995
 51
291.5319490267004
  0
ARC
  5
2D7
330
2
100
AcDbEntity
  8
KIJUN
 62
     7
100
AcDbCircle
 10
132.2893446491856
 20
58.31152892374315
 30
0.0
 40
7.323770828022136
100
AcDbArc
 50
68.46805097329952
 51
111.5319490267004
  0
LINE
  5
2D8
330
2
100
AcDbEntity
  8
KIJUN
 62
     7
100
AcDbLine
 10
130.3532554312545
 20
59.47420805344873
 30
0.0
 11
134.9773149098754
 21
65.12419617079365
 31
0.0
  0
ARC
  5
2D9
330
2
100
AcDbEntity
  8
KIJUN
 62
     7
100
AcDbCircle
 10
122.2893446491856
 20
66.28687530049925
 30
0.0
 40
7.323770828022117
100
AcDbArc
 50
248.4680509732995
 51
291.5319490267004
  0
LINE
  5
2DA
330
2
100
AcDbEntity
  8
KIJUN
 62
     7
100
AcDbLine
 10
124.9773149098754
 20
59.47420805344873
 30
0.0
 11
129.6013743884963
 21
65.12419617079365
 31
0.0
  0
ARC
  5
2DB
330
2
100
AcDbEntity
  8
KIJUN
 62
     7
100
AcDbCircle
 10
126.9134041278067
 20
58.31152892374293
 30
0.0
 40
7.323770828022136
100
AcDbArc
 50
68.46805097329952
 51
111.5319490267004
  0
ARC
  5
2DC
330
2
100
AcDbEntity
  8
KIJUN
 62
     7
100
AcDbCircle
 10
121.5374636064274
 20
58.31152892374293
 30
0.0
 40
7.323770828022136
100
AcDbArc
 50
68.46805097329952
 51
111.5319490267004
  0
ARC
  5
2DD
330
2
100
AcDbEntity
  8
KIJUN
 62
     7
100
AcDbCircle
 10
116.9134041278067
 20
66.28687530049925
 30
0.0
 40
7.323770828022117
100
AcDbArc
 50
248.4680509732995
 51
291.5319490267004
  0
LINE
  5
2DE
330
2
100
AcDbEntity
  8
KIJUN
 62
     7
100
AcDbLine
 10
119.6013743884963
 20
59.47420805344873
 30
0.0
 11
124.2254338671173
 21
65.12419617079365
 31
0.0
  0
ARC
  5
2DF
330
2
100
AcDbEntity
  8
KIJUN
 62
     7
100
AcDbCircle
 10
202.1765714271154
 20
27.97262062205954
 30
0.0
 40
7.323770828022136
100
AcDbArc
 50
68.46805097329952
 51
111.5319490267004
  0
ARC
  5
2E0
330
2
100
AcDbEntity
  8
KIJUN
 62
     7
100
AcDbCircle
 10
197.5525119484947
 20
35.94796699881584
 30
0.0
 40
7.323770828022117
100
AcDbArc
 50
248.4680509732995
 51
291.5319490267004
  0
LINE
  5
2E1
330
2
100
AcDbEntity
  8
KIJUN
 62
     7
100
AcDbLine
 10
194.8645416878046
 20
29.13529975176534
 30
0.0
 11
199.4886011664257
 21
34.78528786911029
 31
0.0
  0
LINE
  5
2E2
330
2
100
AcDbEntity
  8
KIJUN
 62
     7
100
AcDbLine
 10
200.240482209184
 20
29.13529975176534
 30
0.0
 11
204.8645416878048
 21
34.78528786911029
 31
0.0
  0
ARC
  5
2E3
330
2
100
AcDbEntity
  8
KIJUN
 62
     7
100
AcDbCircle
 10
191.4246903843569
 20
27.97262062205954
 30
0.0
 40
7.323770828022136
100
AcDbArc
 50
68.46805097329952
 51
111.5319490267004
  0
ARC
  5
2E4
330
2
100
AcDbEntity
  8
KIJUN
 62
     7
100
AcDbCircle
 10
186.0487498629775
 20
27.97262062205954
 30
0.0
 40
7.323770828022136
100
AcDbArc
 50
68.46805097329952
 51
111.5319490267004
  0
ARC
  5
2E5
330
2
100
AcDbEntity
  8
KIJUN
 62
     7
100
AcDbCircle
 10
181.4246903843568
 20
35.94796699881584
 30
0.0
 40
7.323770828022117
100
AcDbArc
 50
248.4680509732995
 51
291.5319490267004
  0
ARC
  5
2E6
330
2
100
AcDbEntity
  8
KIJUN
 62
     7
100
AcDbCircle
 10
186.8006309057363
 20
35.94796699881584
 30
0.0
 40
7.323770828022117
100
AcDbArc
 50
248.4680509732995
 51
291.5319490267004
  0
LINE
  5
2E7
330
2
100
AcDbEntity
  8
KIJUN
 62
     7
100
AcDbLine
 10
178.7367201236675
 20
29.13529975176511
 30
0.0
 11
183.3607796022878
 21
34.78528786911006
 31
0.0
  0
LINE
  5
2E8
330
2
100
AcDbEntity
  8
KIJUN
 62
     7
100
AcDbLine
 10
184.1126606450464
 20
29.13529975176534
 30
0.0
 11
188.7367201236675
 21
34.78528786911029
 31
0.0
  0
LINE
  5
2E9
330
2
100
AcDbEntity
  8
KIJUN
 62
     7
100
AcDbLine
 10
189.4886011664257
 20
29.13529975176534
 30
0.0
 11
194.1126606450465
 21
34.78528786911029
 31
0.0
  0
ARC
  5
2EA
330
2
100
AcDbEntity
  8
KIJUN
 62
     7
100
AcDbCircle
 10
175.2968688202193
 20
27.97262062205954
 30
0.0
 40
7.323770828022136
100
AcDbArc
 50
68.46805097329952
 51
111.5319490267004
  0
ARC
  5
2EB
330
2
100
AcDbEntity
  8
KIJUN
 62
     7
100
AcDbCircle
 10
169.9209282988402
 20
27.97262062205954
 30
0.0
 40
7.323770828022136
100
AcDbArc
 50
68.46805097329952
 51
111.5319490267004
  0
ARC
  5
2EC
330
2
100
AcDbEntity
  8
KIJUN
 62
     7
100
AcDbCircle
 10
165.2968688202195
 20
35.94796699881584
 30
0.0
 40
7.323770828022117
100
AcDbArc
 50
248.4680509732995
 51
291.5319490267004
  0
ARC
  5
2ED
330
2
100
AcDbEntity
  8
KIJUN
 62
     7
100
AcDbCircle
 10
170.6728093415985
 20
35.94796699881584
 30
0.0
 40
7.323770828022117
100
AcDbArc
 50
248.4680509732995
 51
291.5319490267004
  0
LINE
  5
2EE
330
2
100
AcDbEntity
  8
KIJUN
 62
     7
100
AcDbLine
 10
167.9848390809089
 20
29.13529975176511
 30
0.0
 11
172.6088985595297
 21
34.78528786911006
 31
0.0
  0
LINE
  5
2EF
330
2
100
AcDbEntity
  8
KIJUN
 62
     7
100
AcDbLine
 10
162.6088985595297
 20
29.13529975176511
 30
0.0
 11
167.2329580381506
 21
34.78528786911006
 31
0.0
  0
LINE
  5
2F0
330
2
100
AcDbEntity
  8
KIJUN
 62
     7
100
AcDbLine
 10
173.3607796022879
 20
29.13529975176511
 30
0.0
 11
177.9848390809088
 21
34.78528786911006
 31
0.0
  0
ARC
  5
2F1
330
2
100
AcDbEntity
  8
KIJUN
 62
     7
100
AcDbCircle
 10
176.0487498629777
 20
35.94796699881584
 30
0.0
 40
7.323770828022117
100
AcDbArc
 50
248.4680509732995
 51
291.5319490267004
  0
ARC
  5
2F2
330
2
100
AcDbEntity
  8
KIJUN
 62
     7
100
AcDbCircle
 10
180.6728093415985
 20
27.97262062205954
 30
0.0
 40
7.323770828022136
100
AcDbArc
 50
68.46805097329952
 51
111.5319490267004
  0
ARC
  5
2F3
330
2
100
AcDbEntity
  8
KIJUN
 62
     7
100
AcDbCircle
 10
159.1690472560817
 20
27.97262062205954
 30
0.0
 40
7.323770828022136
100
AcDbArc
 50
68.46805097329952
 51
111.5319490267004
  0
ARC
  5
2F4
330
2
100
AcDbEntity
  8
KIJUN
 62
     7
100
AcDbCircle
 10
148.4171662133234
 20
27.97262062205954
 30
0.0
 40
7.323770828022136
100
AcDbArc
 50
68.46805097329952
 51
111.5319490267004
  0
ARC
  5
2F5
330
2
100
AcDbEntity
  8
KIJUN
 62
     7
100
AcDbCircle
 10
153.7931067347026
 20
27.97262062205954
 30
0.0
 40
7.323770828022136
100
AcDbArc
 50
68.46805097329952
 51
111.5319490267004
  0
ARC
  5
2F6
330
2
100
AcDbEntity
  8
KIJUN
 62
     7
100
AcDbCircle
 10
149.1690472560817
 20
35.94796699881584
 30
0.0
 40
7.323770828022117
100
AcDbArc
 50
248.4680509732995
 51
291.5319490267004
  0
ARC
  5
2F7
330
2
100
AcDbEntity
  8
KIJUN
 62
     7
100
AcDbCircle
 10
154.5449877774608
 20
35.94796699881584
 30
0.0
 40
7.323770828022117
100
AcDbArc
 50
248.4680509732995
 51
291.5319490267004
  0
LINE
  5
2F8
330
2
100
AcDbEntity
  8
KIJUN
 62
     7
100
AcDbLine
 10
157.2329580381506
 20
29.13529975176511
 30
0.0
 11
161.8570175167714
 21
34.78528786911006
 31
0.0
  0
LINE
  5
2F9
330
2
100
AcDbEntity
  8
KIJUN
 62
     7
100
AcDbLine
 10
151.8570175167713
 20
29.13529975176511
 30
0.0
 11
156.4810769953923
 21
34.78528786911006
 31
0.0
  0
LINE
  5
2FA
330
2
100
AcDbEntity
  8
KIJUN
 62
     7
100
AcDbLine
 10
146.4810769953923
 20
29.13529975176511
 30
0.0
 11
151.1051364740127
 21
34.78528786911006
 31
0.0
  0
LINE
  5
2FB
330
2
100
AcDbEntity
  8
KIJUN
 62
     7
100
AcDbLine
 10
141.1051364740127
 20
29.13529975176511
 30
0.0
 11
145.7291959526337
 21
34.78528786911006
 31
0.0
  0
ARC
  5
2FC
330
2
100
AcDbEntity
  8
KIJUN
 62
     7
100
AcDbCircle
 10
143.0412256919442
 20
27.97262062205954
 30
0.0
 40
7.323770828022136
100
AcDbArc
 50
68.46805097329952
 51
111.5319490267004
  0
ARC
  5
2FD
330
2
100
AcDbEntity
  8
KIJUN
 62
     7
100
AcDbCircle
 10
143.7931067347026
 20
35.94796699881584
 30
0.0
 40
7.323770828022117
100
AcDbArc
 50
248.4680509732995
 51
291.5319490267004
  0
ARC
  5
2FE
330
2
100
AcDbEntity
  8
KIJUN
 62
     7
100
AcDbCircle
 10
164.5449877774608
 20
27.97262062205954
 30
0.0
 40
7.323770828022136
100
AcDbArc
 50
68.46805097329952
 51
111.5319490267004
  0
ARC
  5
2FF
330
2
100
AcDbEntity
  8
KIJUN
 62
     7
100
AcDbCircle
 10
159.9209282988402
 20
35.94796699881584
 30
0.0
 40
7.323770828022117
100
AcDbArc
 50
248.4680509732995
 51
291.5319490267004
  0
ARC
  5
300
330
2
100
AcDbEntity
  8
KIJUN
 62
     7
100
AcDbCircle
 10
192.1765714271153
 20
35.94796699881584
 30
0.0
 40
7.323770828022117
100
AcDbArc
 50
248.4680509732995
 51
291.5319490267004
  0
ARC
  5
301
330
2
100
AcDbEntity
  8
KIJUN
 62
     7
100
AcDbCircle
 10
196.8006309057363
 20
27.97262062205954
 30
0.0
 40
7.323770828022136
100
AcDbArc
 50
68.46805097329952
 51
111.5319490267004
  0
ARC
  5
302
330
2
100
AcDbEntity
  8
KIJUN
 62
     7
100
AcDbCircle
 10
202.1765714271154
 20
58.31152892374315
 30
0.0
 40
7.323770828022136
100
AcDbArc
 50
68.46805097329952
 51
111.5319490267004
  0
ARC
  5
303
330
2
100
AcDbEntity
  8
KIJUN
 62
     7
100
AcDbCircle
 10
197.5525119484947
 20
66.28687530049941
 30
0.0
 40
7.323770828022117
100
AcDbArc
 50
248.4680509732995
 51
291.5319490267004
  0
LINE
  5
304
330
2
100
AcDbEntity
  8
KIJUN
 62
     7
100
AcDbLine
 10
200.240482209184
 20
59.47420805344873
 30
0.0
 11
204.8645416878048
 21
65.12419617079365
 31
0.0
  0
ARC
  5
305
330
2
100
AcDbEntity
  8
KIJUN
 62
     7
100
AcDbCircle
 10
186.8006309057363
 20
66.28687530049941
 30
0.0
 40
7.323770828022117
100
AcDbArc
 50
248.4680509732995
 51
291.5319490267004
  0
ARC
  5
306
330
2
100
AcDbEntity
  8
KIJUN
 62
     7
100
AcDbCircle
 10
196.8006309057363
 20
58.31152892374315
 30
0.0
 40
7.323770828022136
100
AcDbArc
 50
68.46805097329952
 51
111.5319490267004
  0
ARC
  5
307
330
2
100
AcDbEntity
  8
KIJUN
 62
     7
100
AcDbCircle
 10
192.1765714271153
 20
66.28687530049941
 30
0.0
 40
7.323770828022117
100
AcDbArc
 50
248.4680509732995
 51
291.5319490267004
  0
LINE
  5
308
330
2
100
AcDbEntity
  8
KIJUN
 62
     7
100
AcDbLine
 10
189.4886011664257
 20
59.47420805344873
 30
0.0
 11
194.1126606450465
 21
65.12419617079365
 31
0.0
  0
LINE
  5
309
330
2
100
AcDbEntity
  8
KIJUN
 62
     7
100
AcDbLine
 10
194.8645416878046
 20
59.47420805344873
 30
0.0
 11
199.4886011664257
 21
65.12419617079365
 31
0.0
  0
ARC
  5
30A
330
2
100
AcDbEntity
  8
KIJUN
 62
     7
100
AcDbCircle
 10
191.4246903843569
 20
58.31152892374315
 30
0.0
 40
7.323770828022136
100
AcDbArc
 50
68.46805097329952
 51
111.5319490267004
  0
ARC
  5
30B
330
2
100
AcDbEntity
  8
KIJUN
 62
     7
100
AcDbCircle
 10
159.9209282988402
 20
66.28687530049941
 30
0.0
 40
7.323770828022117
100
AcDbArc
 50
248.4680509732995
 51
291.5319490267004
  0
ARC
  5
30C
330
2
100
AcDbEntity
  8
KIJUN
 62
     7
100
AcDbCircle
 10
186.0487498629775
 20
58.31152892374315
 30
0.0
 40
7.323770828022136
100
AcDbArc
 50
68.46805097329952
 51
111.5319490267004
  0
ARC
  5
30D
330
2
100
AcDbEntity
  8
KIJUN
 62
     7
100
AcDbCircle
 10
175.2968688202193
 20
58.31152892374315
 30
0.0
 40
7.323770828022136
100
AcDbArc
 50
68.46805097329952
 51
111.5319490267004
  0
ARC
  5
30E
330
2
100
AcDbEntity
  8
KIJUN
 62
     7
100
AcDbCircle
 10
180.6728093415985
 20
58.31152892374315
 30
0.0
 40
7.323770828022136
100
AcDbArc
 50
68.46805097329952
 51
111.5319490267004
  0
ARC
  5
30F
330
2
100
AcDbEntity
  8
KIJUN
 62
     7
100
AcDbCircle
 10
176.0487498629777
 20
66.28687530049941
 30
0.0
 40
7.323770828022117
100
AcDbArc
 50
248.4680509732995
 51
291.5319490267004
  0
ARC
  5
310
330
2
100
AcDbEntity
  8
KIJUN
 62
     7
100
AcDbCircle
 10
181.4246903843568
 20
66.28687530049941
 30
0.0
 40
7.323770828022117
100
AcDbArc
 50
248.4680509732995
 51
291.5319490267004
  0
LINE
  5
311
330
2
100
AcDbEntity
  8
KIJUN
 62
     7
100
AcDbLine
 10
184.1126606450464
 20
59.47420805344873
 30
0.0
 11
188.7367201236675
 21
65.12419617079365
 31
0.0
  0
LINE
  5
312
330
2
100
AcDbEntity
  8
KIJUN
 62
     7
100
AcDbLine
 10
178.7367201236675
 20
59.47420805344873
 30
0.0
 11
183.3607796022878
 21
65.12419617079365
 31
0.0
  0
LINE
  5
313
330
2
100
AcDbEntity
  8
KIJUN
 62
     7
100
AcDbLine
 10
173.3607796022879
 20
59.47420805344873
 30
0.0
 11
177.9848390809088
 21
65.12419617079365
 31
0.0
  0
ARC
  5
314
330
2
100
AcDbEntity
  8
KIJUN
 62
     7
100
AcDbCircle
 10
164.5449877774608
 20
58.31152892374315
 30
0.0
 40
7.323770828022136
100
AcDbArc
 50
68.46805097329952
 51
111.5319490267004
  0
ARC
  5
315
330
2
100
AcDbEntity
  8
KIJUN
 62
     7
100
AcDbCircle
 10
165.2968688202195
 20
66.28687530049941
 30
0.0
 40
7.323770828022117
100
AcDbArc
 50
248.4680509732995
 51
291.5319490267004
  0
LINE
  5
316
330
2
100
AcDbEntity
  8
KIJUN
 62
     7
100
AcDbLine
 10
162.6088985595297
 20
59.47420805344873
 30
0.0
 11
167.2329580381506
 21
65.12419617079365
 31
0.0
  0
LINE
  5
317
330
2
100
AcDbEntity
  8
KIJUN
 62
     7
100
AcDbLine
 10
167.9848390809089
 20
59.47420805344873
 30
0.0
 11
172.6088985595297
 21
65.12419617079365
 31
0.0
  0
ARC
  5
318
330
2
100
AcDbEntity
  8
KIJUN
 62
     7
100
AcDbCircle
 10
169.9209282988402
 20
58.31152892374315
 30
0.0
 40
7.323770828022136
100
AcDbArc
 50
68.46805097329952
 51
111.5319490267004
  0
ARC
  5
319
330
2
100
AcDbEntity
  8
KIJUN
 62
     7
100
AcDbCircle
 10
170.6728093415985
 20
66.28687530049941
 30
0.0
 40
7.323770828022117
100
AcDbArc
 50
248.4680509732995
 51
291.5319490267004
  0
ARC
  5
31A
330
2
100
AcDbEntity
  8
KIJUN
 62
     7
100
AcDbCircle
 10
148.4171662133234
 20
58.31152892374315
 30
0.0
 40
7.323770828022136
100
AcDbArc
 50
68.46805097329952
 51
111.5319490267004
  0
ARC
  5
31B
330
2
100
AcDbEntity
  8
KIJUN
 62
     7
100
AcDbCircle
 10
153.7931067347026
 20
58.31152892374315
 30
0.0
 40
7.323770828022136
100
AcDbArc
 50
68.46805097329952
 51
111.5319490267004
  0
ARC
  5
31C
330
2
100
AcDbEntity
  8
KIJUN
 62
     7
100
AcDbCircle
 10
159.1690472560817
 20
58.31152892374315
 30
0.0
 40
7.323770828022136
100
AcDbArc
 50
68.46805097329952
 51
111.5319490267004
  0
LINE
  5
31D
330
2
100
AcDbEntity
  8
KIJUN
 62
     7
100
AcDbLine
 10
146.4810769953923
 20
59.47420805344873
 30
0.0
 11
151.1051364740127
 21
65.12419617079365
 31
0.0
  0
ARC
  5
31E
330
2
100
AcDbEntity
  8
KIJUN
 62
     7
100
AcDbCircle
 10
143.7931067347026
 20
66.28687530049941
 30
0.0
 40
7.323770828022117
100
AcDbArc
 50
248.4680509732995
 51
291.5319490267004
  0
ARC
  5
31F
330
2
100
AcDbEntity
  8
KIJUN
 62
     7
100
AcDbCircle
 10
149.1690472560817
 20
66.28687530049941
 30
0.0
 40
7.323770828022117
100
AcDbArc
 50
248.4680509732995
 51
291.5319490267004
  0
LINE
  5
320
330
2
100
AcDbEntity
  8
KIJUN
 62
     7
100
AcDbLine
 10
151.8570175167713
 20
59.47420805344873
 30
0.0
 11
156.4810769953923
 21
65.12419617079365
 31
0.0
  0
ARC
  5
321
330
2
100
AcDbEntity
  8
KIJUN
 62
     7
100
AcDbCircle
 10
154.5449877774608
 20
66.28687530049941
 30
0.0
 40
7.323770828022117
100
AcDbArc
 50
248.4680509732995
 51
291.5319490267004
  0
LINE
  5
322
330
2
100
AcDbEntity
  8
KIJUN
 62
     7
100
AcDbLine
 10
157.2329580381506
 20
59.47420805344873
 30
0.0
 11
161.8570175167714
 21
65.12419617079365
 31
0.0
  0
ARC
  5
323
330
2
100
AcDbEntity
  8
KIJUN
 62
     7
100
AcDbCircle
 10
143.0412256919442
 20
58.31152892374315
 30
0.0
 40
7.323770828022136
100
AcDbArc
 50
68.46805097329952
 51
111.5319490267004
  0
LINE
  5
324
330
2
100
AcDbEntity
  8
KIJUN
 62
     7
100
AcDbLine
 10
141.1051364740127
 20
59.47420805344873
 30
0.0
 11
145.7291959526337
 21
65.12419617079365
 31
0.0
  0
ARC
  5
33F
330
2
100
AcDbEntity
  8
KIJUN
 62
     7
100
AcDbCircle
 10
116.1615230850485
 20
27.97262062205932
 30
0.0
 40
7.323770828022136
100
AcDbArc
 50
68.46805097329952
 51
111.5319490267004
  0
ARC
  5
340
330
2
100
AcDbEntity
  8
KIJUN
 62
     7
100
AcDbCircle
 10
111.5374636064279
 20
35.94796699881562
 30
0.0
 40
7.323770828022117
100
AcDbArc
 50
248.4680509732995
 51
291.5319490267004
  0
LINE
  5
341
330
2
100
AcDbEntity
  8
KIJUN
 62
     7
100
AcDbLine
 10
108.8494933457378
 20
29.13529975176512
 30
0.0
 11
113.4735528243588
 21
34.78528786911006
 31
0.0
  0
LINE
  5
342
330
2
100
AcDbEntity
  8
KIJUN
 62
     7
100
AcDbLine
 10
114.2254338671171
 20
29.13529975176512
 30
0.0
 11
118.8494933457379
 21
34.78528786911006
 31
0.0
  0
ARC
  5
343
330
2
100
AcDbEntity
  8
KIJUN
 62
     7
100
AcDbCircle
 10
105.40964204229
 20
27.97262062205932
 30
0.0
 40
7.323770828022136
100
AcDbArc
 50
68.46805097329952
 51
111.5319490267004
  0
ARC
  5
344
330
2
100
AcDbEntity
  8
KIJUN
 62
     7
100
AcDbCircle
 10
100.0337015209107
 20
27.97262062205932
 30
0.0
 40
7.323770828022136
100
AcDbArc
 50
68.46805097329952
 51
111.5319490267004
  0
ARC
  5
345
330
2
100
AcDbEntity
  8
KIJUN
 62
     7
100
AcDbCircle
 10
95.40964204229004
 20
35.94796699881562
 30
0.0
 40
7.323770828022117
100
AcDbArc
 50
248.4680509732995
 51
291.5319490267004
  0
ARC
  5
346
330
2
100
AcDbEntity
  8
KIJUN
 62
     7
100
AcDbCircle
 10
100.7855825636695
 20
35.94796699881562
 30
0.0
 40
7.323770828022117
100
AcDbArc
 50
248.4680509732995
 51
291.5319490267004
  0
LINE
  5
347
330
2
100
AcDbEntity
  8
KIJUN
 62
     7
100
AcDbLine
 10
92.72167178160065
 20
29.13529975176489
 30
0.0
 11
97.34573126022105
 21
34.78528786910984
 31
0.0
  0
LINE
  5
348
330
2
100
AcDbEntity
  8
KIJUN
 62
     7
100
AcDbLine
 10
98.09761230297965
 20
29.13529975176512
 30
0.0
 11
102.7216717816006
 21
34.78528786911006
 31
0.0
  0
LINE
  5
349
330
2
100
AcDbEntity
  8
KIJUN
 62
     7
100
AcDbLine
 10
103.4735528243589
 20
29.13529975176512
 30
0.0
 11
108.0976123029796
 21
34.78528786911006
 31
0.0
  0
ARC
  5
34A
330
2
100
AcDbEntity
  8
KIJUN
 62
     7
100
AcDbCircle
 10
89.28182047815255
 20
27.97262062205932
 30
0.0
 40
7.323770828022136
100
AcDbArc
 50
68.46805097329952
 51
111.5319490267004
  0
ARC
  5
34B
330
2
100
AcDbEntity
  8
KIJUN
 62
     7
100
AcDbCircle
 10
83.90587995677339
 20
27.97262062205932
 30
0.0
 40
7.323770828022136
100
AcDbArc
 50
68.46805097329952
 51
111.5319490267004
  0
ARC
  5
34C
330
2
100
AcDbEntity
  8
KIJUN
 62
     7
100
AcDbCircle
 10
79.28182047815266
 20
35.94796699881562
 30
0.0
 40
7.323770828022117
100
AcDbArc
 50
248.4680509732995
 51
291.5319490267004
  0
ARC
  5
34D
330
2
100
AcDbEntity
  8
KIJUN
 62
     7
100
AcDbCircle
 10
84.65776099953172
 20
35.94796699881562
 30
0.0
 40
7.323770828022117
100
AcDbArc
 50
248.4680509732995
 51
291.5319490267004
  0
LINE
  5
34E
330
2
100
AcDbEntity
  8
KIJUN
 62
     7
100
AcDbLine
 10
81.96979073884211
 20
29.13529975176489
 30
0.0
 11
86.59385021746293
 21
34.78528786910984
 31
0.0
  0
LINE
  5
34F
330
2
100
AcDbEntity
  8
KIJUN
 62
     7
100
AcDbLine
 10
76.59385021746288
 20
29.13529975176489
 30
0.0
 11
81.21790969608383
 21
34.78528786910984
 31
0.0
  0
LINE
  5
350
330
2
100
AcDbEntity
  8
KIJUN
 62
     7
100
AcDbLine
 10
87.34573126022116
 20
29.13529975176489
 30
0.0
 11
91.96979073884198
 21
34.78528786910984
 31
0.0
  0
ARC
  5
351
330
2
100
AcDbEntity
  8
KIJUN
 62
     7
100
AcDbCircle
 10
90.03370152091088
 20
35.94796699881562
 30
0.0
 40
7.323770828022117
100
AcDbArc
 50
248.4680509732995
 51
291.5319490267004
  0
ARC
  5
352
330
2
100
AcDbEntity
  8
KIJUN
 62
     7
100
AcDbCircle
 10
94.65776099953172
 20
27.97262062205932
 30
0.0
 40
7.323770828022136
100
AcDbArc
 50
68.46805097329952
 51
111.5319490267004
  0
ARC
  5
353
330
2
100
AcDbEntity
  8
KIJUN
 62
     7
100
AcDbCircle
 10
73.15399891401489
 20
27.97262062205932
 30
0.0
 40
7.323770828022136
100
AcDbArc
 50
68.46805097329952
 51
111.5319490267004
  0
ARC
  5
354
330
2
100
AcDbEntity
  8
KIJUN
 62
     7
100
AcDbCircle
 10
62.40211787125662
 20
27.97262062205932
 30
0.0
 40
7.323770828022136
100
AcDbArc
 50
68.46805097329952
 51
102.9021539516578
  0
ARC
  5
355
330
2
100
AcDbEntity
  8
KIJUN
 62
     7
100
AcDbCircle
 10
67.77805839263584
 20
27.97262062205932
 30
0.0
 40
7.323770828022136
100
AcDbArc
 50
68.46805097329952
 51
111.5319490267004
  0
ARC
  5
356
330
2
100
AcDbEntity
  8
KIJUN
 62
     7
100
AcDbCircle
 10
63.15399891401489
 20
35.94796699881562
 30
0.0
 40
7.323770828022117
100
AcDbArc
 50
248.4680509732995
 51
291.5319490267004
  0
ARC
  5
357
330
2
100
AcDbEntity
  8
KIJUN
 62
     7
100
AcDbCircle
 10
68.529939435394
 20
35.94796699881562
 30
0.0
 40
7.323770828022117
100
AcDbArc
 50
248.4680509732995
 51
291.5319490267004
  0
LINE
  5
358
330
2
100
AcDbEntity
  8
KIJUN
 62
     7
100
AcDbLine
 10
71.21790969608383
 20
29.13529975176489
 30
0.0
 11
75.84196917470461
 21
34.78528786910984
 31
0.0
  0
LINE
  5
359
330
2
100
AcDbEntity
  8
KIJUN
 62
     7
100
AcDbLine
 10
65.8419691747045
 20
29.13529975176489
 30
0.0
 11
70.46602865332551
 21
34.78528786910984
 31
0.0
  0
LINE
  5
35A
330
2
100
AcDbEntity
  8
KIJUN
 62
     7
100
AcDbLine
 10
60.46602865332551
 20
29.13529975176489
 30
0.0
 11
65.09008813194589
 21
34.78528786910984
 31
0.0
  0
ARC
  5
35E
330
2
100
AcDbEntity
  8
KIJUN
 62
     7
100
AcDbCircle
 10
78.529939435394
 20
27.97262062205932
 30
0.0
 40
7.323770828022136
100
AcDbArc
 50
68.46805097329952
 51
111.5319490267004
  0
ARC
  5
35F
330
2
100
AcDbEntity
  8
KIJUN
 62
     7
100
AcDbCircle
 10
73.90587995677339
 20
35.94796699881562
 30
0.0
 40
7.323770828022117
100
AcDbArc
 50
248.4680509732995
 51
291.5319490267004
  0
ARC
  5
360
330
2
100
AcDbEntity
  8
KIJUN
 62
     7
100
AcDbCircle
 10
106.1615230850485
 20
35.94796699881562
 30
0.0
 40
7.323770828022117
100
AcDbArc
 50
248.4680509732995
 51
291.5319490267004
  0
ARC
  5
361
330
2
100
AcDbEntity
  8
KIJUN
 62
     7
100
AcDbCircle
 10
110.7855825636695
 20
27.97262062205932
 30
0.0
 40
7.323770828022136
100
AcDbArc
 50
68.46805097329952
 51
111.5319490267004
  0
ARC
  5
362
330
2
100
AcDbEntity
  8
KIJUN
 62
     7
100
AcDbCircle
 10
116.1615230850485
 20
58.31152892374293
 30
0.0
 40
7.323770828022136
100
AcDbArc
 50
68.46805097329952
 51
111.5319490267004
  0
ARC
  5
363
330
2
100
AcDbEntity
  8
KIJUN
 62
     7
100
AcDbCircle
 10
111.5374636064279
 20
66.2868753004992
 30
0.0
 40
7.323770828022117
100
AcDbArc
 50
248.4680509732995
 51
291.5319490267004
  0
LINE
  5
364
330
2
100
AcDbEntity
  8
KIJUN
 62
     7
100
AcDbLine
 10
114.2254338671171
 20
59.47420805344851
 30
0.0
 11
118.8494933457379
 21
65.12419617079342
 31
0.0
  0
ARC
  5
365
330
2
100
AcDbEntity
  8
KIJUN
 62
     7
100
AcDbCircle
 10
100.7855825636695
 20
66.2868753004992
 30
0.0
 40
7.323770828022117
100
AcDbArc
 50
248.4680509732995
 51
291.5319490267004
  0
ARC
  5
366
330
2
100
AcDbEntity
  8
KIJUN
 62
     7
100
AcDbCircle
 10
110.7855825636695
 20
58.31152892374293
 30
0.0
 40
7.323770828022136
100
AcDbArc
 50
68.46805097329952
 51
111.5319490267004
  0
ARC
  5
367
330
2
100
AcDbEntity
  8
KIJUN
 62
     7
100
AcDbCircle
 10
106.1615230850485
 20
66.2868753004992
 30
0.0
 40
7.323770828022117
100
AcDbArc
 50
248.4680509732995
 51
291.5319490267004
  0
LINE
  5
368
330
2
100
AcDbEntity
  8
KIJUN
 62
     7
100
AcDbLine
 10
103.4735528243589
 20
59.47420805344851
 30
0.0
 11
108.0976123029796
 21
65.12419617079342
 31
0.0
  0
LINE
  5
369
330
2
100
AcDbEntity
  8
KIJUN
 62
     7
100
AcDbLine
 10
108.8494933457378
 20
59.47420805344851
 30
0.0
 11
113.4735528243588
 21
65.12419617079342
 31
0.0
  0
ARC
  5
36A
330
2
100
AcDbEntity
  8
KIJUN
 62
     7
100
AcDbCircle
 10
105.40964204229
 20
58.31152892374293
 30
0.0
 40
7.323770828022136
100
AcDbArc
 50
68.46805097329952
 51
111.5319490267004
  0
ARC
  5
36B
330
2
100
AcDbEntity
  8
KIJUN
 62
     7
100
AcDbCircle
 10
73.90587995677339
 20
66.2868753004992
 30
0.0
 40
7.323770828022117
100
AcDbArc
 50
248.4680509732995
 51
291.5319490267004
  0
ARC
  5
36C
330
2
100
AcDbEntity
  8
KIJUN
 62
     7
100
AcDbCircle
 10
100.0337015209107
 20
58.31152892374293
 30
0.0
 40
7.323770828022136
100
AcDbArc
 50
68.46805097329952
 51
111.5319490267004
  0
ARC
  5
36D
330
2
100
AcDbEntity
  8
KIJUN
 62
     7
100
AcDbCircle
 10
89.28182047815255
 20
58.31152892374293
 30
0.0
 40
7.323770828022136
100
AcDbArc
 50
68.46805097329952
 51
111.5319490267004
  0
ARC
  5
36E
330
2
100
AcDbEntity
  8
KIJUN
 62
     7
100
AcDbCircle
 10
94.65776099953172
 20
58.31152892374293
 30
0.0
 40
7.323770828022136
100
AcDbArc
 50
68.46805097329952
 51
111.5319490267004
  0
ARC
  5
36F
330
2
100
AcDbEntity
  8
KIJUN
 62
     7
100
AcDbCircle
 10
90.03370152091088
 20
66.2868753004992
 30
0.0
 40
7.323770828022117
100
AcDbArc
 50
248.4680509732995
 51
291.5319490267004
  0
ARC
  5
370
330
2
100
AcDbEntity
  8
KIJUN
 62
     7
100
AcDbCircle
 10
95.40964204229004
 20
66.2868753004992
 30
0.0
 40
7.323770828022117
100
AcDbArc
 50
248.4680509732995
 51
291.5319490267004
  0
LINE
  5
371
330
2
100
AcDbEntity
  8
KIJUN
 62
     7
100
AcDbLine
 10
98.09761230297965
 20
59.47420805344851
 30
0.0
 11
102.7216717816006
 21
65.12419617079342
 31
0.0
  0
LINE
  5
372
330
2
100
AcDbEntity
  8
KIJUN
 62
     7
100
AcDbLine
 10
92.72167178160065
 20
59.47420805344851
 30
0.0
 11
97.34573126022105
 21
65.12419617079342
 31
0.0
  0
LINE
  5
373
330
2
100
AcDbEntity
  8
KIJUN
 62
     7
100
AcDbLine
 10
87.34573126022116
 20
59.47420805344851
 30
0.0
 11
91.96979073884198
 21
65.12419617079342
 31
0.0
  0
ARC
  5
374
330
2
100
AcDbEntity
  8
KIJUN
 62
     7
100
AcDbCircle
 10
78.529939435394
 20
58.31152892374293
 30
0.0
 40
7.323770828022136
100
AcDbArc
 50
68.46805097329952
 51
111.5319490267004
  0
ARC
  5
375
330
2
100
AcDbEntity
  8
KIJUN
 62
     7
100
AcDbCircle
 10
79.28182047815266
 20
66.2868753004992
 30
0.0
 40
7.323770828022117
100
AcDbArc
 50
248.4680509732995
 51
291.5319490267004
  0
LINE
  5
376
330
2
100
AcDbEntity
  8
KIJUN
 62
     7
100
AcDbLine
 10
76.59385021746288
 20
59.47420805344851
 30
0.0
 11
81.21790969608383
 21
65.12419617079342
 31
0.0
  0
LINE
  5
377
330
2
100
AcDbEntity
  8
KIJUN
 62
     7
100
AcDbLine
 10
81.96979073884211
 20
59.47420805344851
 30
0.0
 11
86.59385021746293
 21
65.12419617079342
 31
0.0
  0
ARC
  5
378
330
2
100
AcDbEntity
  8
KIJUN
 62
     7
100
AcDbCircle
 10
83.90587995677339
 20
58.31152892374293
 30
0.0
 40
7.323770828022136
100
AcDbArc
 50
68.46805097329952
 51
111.5319490267004
  0
ARC
  5
379
330
2
100
AcDbEntity
  8
KIJUN
 62
     7
100
AcDbCircle
 10
84.65776099953172
 20
66.2868753004992
 30
0.0
 40
7.323770828022117
100
AcDbArc
 50
248.4680509732995
 51
291.5319490267004
  0
ARC
  5
37A
330
2
100
AcDbEntity
  8
KIJUN
 62
     7
100
AcDbCircle
 10
62.40211787125662
 20
58.31152892374293
 30
0.0
 40
7.323770828022136
100
AcDbArc
 50
68.46805097329952
 51
102.9021539516577
  0
ARC
  5
37B
330
2
100
AcDbEntity
  8
KIJUN
 62
     7
100
AcDbCircle
 10
67.77805839263584
 20
58.31152892374293
 30
0.0
 40
7.323770828022136
100
AcDbArc
 50
68.46805097329952
 51
111.5319490267004
  0
ARC
  5
37C
330
2
100
AcDbEntity
  8
KIJUN
 62
     7
100
AcDbCircle
 10
73.15399891401489
 20
58.31152892374293
 30
0.0
 40
7.323770828022136
100
AcDbArc
 50
68.46805097329952
 51
111.5319490267004
  0
LINE
  5
37D
330
2
100
AcDbEntity
  8
KIJUN
 62
     7
100
AcDbLine
 10
60.46602865332551
 20
59.47420805344851
 30
0.0
 11
65.09008813194589
 21
65.12419617079342
 31
0.0
  0
ARC
  5
37F
330
2
100
AcDbEntity
  8
KIJUN
 62
     7
100
AcDbCircle
 10
63.15399891401489
 20
66.2868753004992
 30
0.0
 40
7.323770828022117
100
AcDbArc
 50
248.4680509732995
 51
291.5319490267004
  0
LINE
  5
380
330
2
100
AcDbEntity
  8
KIJUN
 62
     7
100
AcDbLine
 10
65.8419691747045
 20
59.47420805344851
 30
0.0
 11
70.46602865332551
 21
65.12419617079342
 31
0.0
  0
ARC
  5
381
330
2
100
AcDbEntity
  8
KIJUN
 62
     7
100
AcDbCircle
 10
68.529939435394
 20
66.2868753004992
 30
0.0
 40
7.323770828022117
100
AcDbArc
 50
248.4680509732995
 51
291.5319490267004
  0
LINE
  5
382
330
2
100
AcDbEntity
  8
KIJUN
 62
     7
100
AcDbLine
 10
71.21790969608383
 20
59.47420805344851
 30
0.0
 11
75.84196917470461
 21
65.12419617079342
 31
0.0
  0
ENDSEC
  0
SECTION
  2
OBJECTS
  0
DICTIONARY
  5
9
330
0
100
AcDbDictionary
281
     1
  3
ACAD_COLOR
350
47
  3
ACAD_GROUP
350
3C
  3
ACAD_LAYOUT
350
1F
  3
ACAD_MATERIAL
350
C
  3
ACAD_MLEADERSTYLE
350
4A
  3
ACAD_MLINESTYLE
350
3D
  3
ACAD_PLOTSETTINGS
350
3E
  3
ACAD_PLOTSTYLENAME
350
8
  3
ACAD_SCALELIST
350
48
  3
ACAD_TABLESTYLE
350
49
  3
ACAD_VISUALSTYLE
350
32
  3
ACDB_RECOMPOSE_DATA
350
3A9
  3
AcDbVariableDictionary
350
227
  3
DWGPROPS
350
3AA
  0
DICTIONARY
  5
39F
330
26
100
AcDbDictionary
280
     1
281
     1
  3
ACAD_LAYERSTATES
360
3A0
  0
DICTIONARY
  5
385
330
6
100
AcDbDictionary
280
     1
281
     1
  3
ADSK_XREC_LAYER_RECONCILED
360
386
  0
DICTIONARY
  5
387
330
1A6
100
AcDbDictionary
280
     1
281
     1
  3
ADSK_XREC_LAYER_RECONCILED
360
388
  0
DICTIONARY
  5
389
330
63
100
AcDbDictionary
280
     1
281
     1
  3
ADSK_XREC_LAYER_RECONCILED
360
38A
  0
DICTIONARY
  5
38B
330
21D
100
AcDbDictionary
280
     1
281
     1
  3
ADSK_XREC_LAYER_RECONCILED
360
38C
  0
DICTIONARY
  5
38D
330
21F
100
AcDbDictionary
280
     1
281
     1
  3
ADSK_XREC_LAYER_RECONCILED
360
38E
  0
DICTIONARY
  5
3
330
2
100
AcDbDictionary
280
     1
281
     1
  3
ACAD_LAYOUTSELFREF
360
4
  0
DICTIONARY
  5
21
330
20
100
AcDbDictionary
280
     1
281
     1
  3
ACAD_LAYOUTSELFREF
360
22
  0
DICTIONARY
  5
47
102
{ACAD_REACTORS
330
9
102
}
330
9
100
AcDbDictionary
281
     1
  0
DICTIONARY
  5
3C
102
{ACAD_REACTORS
330
9
102
}
330
9
100
AcDbDictionary
281
     1
  0
DICTIONARY
  5
1F
102
{ACAD_REACTORS
330
9
102
}
330
9
100
AcDbDictionary
281
     1
  3
Model
350
1E
  3
ﾚｲｱｳﾄ1
350
25
  0
DICTIONARY
  5
C
102
{ACAD_REACTORS
330
9
102
}
330
9
100
AcDbDictionary
281
     1
  3
ByBlock
350
3F
  3
ByLayer
350
15
  3
Global
350
B
  0
DICTIONARY
  5
4A
102
{ACAD_REACTORS
330
9
102
}
330
9
100
AcDbDictionary
281
     1
  3
Standard
350
25C
  0
DICTIONARY
  5
3D
102
{ACAD_REACTORS
330
9
102
}
330
9
100
AcDbDictionary
281
     1
  3
STANDARD
350
4C
  0
DICTIONARY
  5
3E
102
{ACAD_REACTORS
330
9
102
}
330
9
100
AcDbDictionary
281
     1
  0
ACDBDICTIONARYWDFLT
  5
8
102
{ACAD_REACTORS
330
9
102
}
330
9
100
AcDbDictionary
281
     1
  3
Normal
350
7
100
AcDbDictionaryWithDefault
340
7
  0
DICTIONARY
  5
48
102
{ACAD_REACTORS
330
9
102
}
330
9
100
AcDbDictionary
281
     1
  3
A0
350
51
  3
A1
350
52
  3
A2
350
53
  3
A3
350
54
  3
A4
350
55
  3
A5
350
56
  3
A6
350
57
  3
A7
350
58
  3
A8
350
59
  3
A9
350
5A
  3
B0
350
5B
  3
B1
350
5C
  3
B2
350
5D
  3
B3
350
5E
  3
B4
350
5F
  3
B5
350
60
  3
B6
350
61
  0
DICTIONARY
  5
49
102
{ACAD_REACTORS
330
9
102
}
330
9
100
AcDbDictionary
281
     1
  3
Standard
350
4D
  0
DICTIONARY
  5
32
102
{ACAD_REACTORS
330
9
102
}
330
9
100
AcDbDictionary
281
     1
  3
2dWireframe
350
31
  3
Basic
350
24B
  3
Brighten
350
24F
  3
ColorChange
350
253
  3
Conceptual
350
24D
  3
Dim
350
24E
  3
EdgeColorOff
350
25B
  3
Facepattern
350
252
  3
Flat
350
247
  3
FlatWithEdges
350
248
  3
Gouraud
350
249
  3
GouraudWithEdges
350
24A
  3
Hidden
350
24C
  3
JitterOff
350
259
  3
Linepattern
350
251
  3
OverhangOff
350
25A
  3
Realistic
350
4E
  3
Shaded
350
258
  3
Shaded with edges
350
257
  3
Shades of Gray
350
254
  3
Sketchy
350
255
  3
Thicken
350
250
  3
Wireframe
350
4F
  3
X-Ray
350
256
  0
XRECORD
  5
3A9
102
{ACAD_REACTORS
330
9
102
}
330
9
100
AcDbXrecord
280
     1
 90
        1
330
4D
  0
DICTIONARY
  5
227
102
{ACAD_REACTORS
330
9
102
}
330
9
100
AcDbDictionary
281
     1
  3
CANNOSCALE
350
22C
  3
CMLEADERSTYLE
350
229
  3
CTABLESTYLE
350
228
  3
CVIEWDETAILSTYLE
350
22A
  3
CVIEWSECTIONSTYLE
350
22B
  3
DIMASSOC
350
230
  3
HIDETEXT
350
22F
  3
INDEXCTL
350
22E
  3
LAYEREVAL
350
391
  3
LAYERNOTIFY
350
392
  3
LIGHTINGUNITS
350
390
  3
MSLTSCALE
350
38F
  3
SORTENTS
350
22D
  3
XCLIPFRAME
350
3A7
  0
XRECORD
  5
3AA
102
{ACAD_REACTORS
330
9
102
}
330
9
100
AcDbXrecord
280
     1
  1
DWGPROPS COOKIE
  2

  3

  4

  6

  7

  8
t.iwahara
  9

300
=
301
=
302
=
303
=
304
=
305
=
306
=
307
=
308
=
309
=
 40
5.385753298611111
 41
2450623.67602338
 42
2457527.575791991
  1

 90
        0
  0
DICTIONARY
  5
3A0
102
{ACAD_REACTORS
330
39F
102
}
330
39F
100
AcDbDictionary
281
     1
  0
XRECORD
  5
386
102
{ACAD_REACTORS
330
385
102
}
330
385
100
AcDbXrecord
280
     1
290
     1
  0
XRECORD
  5
388
102
{ACAD_REACTORS
330
387
102
}
330
387
100
AcDbXrecord
280
     1
290
     1
  0
XRECORD
  5
38A
102
{ACAD_REACTORS
330
389
102
}
330
389
100
AcDbXrecord
280
     1
290
     1
  0
XRECORD
  5
38C
102
{ACAD_REACTORS
330
38B
102
}
330
38B
100
AcDbXrecord
280
     1
290
     1
  0
XRECORD
  5
38E
102
{ACAD_REACTORS
330
38D
102
}
330
38D
100
AcDbXrecord
280
     1
290
     1
  0
XRECORD
  5
4
102
{ACAD_REACTORS
330
3
102
}
330
3
100
AcDbXrecord
280
     1
340
2
  0
XRECORD
  5
22
102
{ACAD_REACTORS
330
21
102
}
330
21
100
AcDbXrecord
280
     1
340
20
  0
LAYOUT
  5
1E
102
{ACAD_XDICTIONARY
360
3A5
102
}
102
{ACAD_REACTORS
330
1F
102
}
330
1F
100
AcDbPlotSettings
  1

  2
なし
  4

  6

 40
0.0
 41
0.0
 42
0.0
 43
0.0
 44
0.0
 45
0.0
 46
0.0
 47
0.0
 48
0.0
 49
0.0
140
0.0
141
0.0
142
1.0
143
1.0
 70
  1712
 72
     0
 73
     0
 74
     0
  7
monochrome.ctb
 75
     0
147
1.0
148
0.0
149
0.0
100
AcDbLayout
  1
Model
 70
     1
 71
     0
 10
0.0
 20
0.0
 11
12.0
 21
9.0
 12
0.0
 22
0.0
 32
0.0
 14
0.0
 24
0.0
 34
0.0
 15
0.0
 25
0.0
 35
0.0
146
0.0
 13
0.0
 23
0.0
 33
0.0
 16
1.0
 26
0.0
 36
0.0
 17
0.0
 27
1.0
 37
0.0
 76
     0
330
2
331
30
  0
LAYOUT
  5
25
102
{ACAD_XDICTIONARY
360
3AC
102
}
102
{ACAD_REACTORS
330
1F
102
}
330
1F
100
AcDbPlotSettings
  1

  2
なし
  4

  6

 40
0.0
 41
0.0
 42
0.0
 43
0.0
 44
0.0
 45
0.0
 46
0.0
 47
0.0
 48
0.0
 49
0.0
140
0.0
141
0.0
142
1.0
143
1.0
 70
   688
 72
     0
 73
     0
 74
     5
  7
monochrome.ctb
 75
    16
147
1.0
148
0.0
149
0.0
100
AcDbLayout
  1
ﾚｲｱｳﾄ1
 70
     1
 71
     1
 10
0.0
 20
0.0
 11
12.0
 21
9.0
 12
0.0
 22
0.0
 32
0.0
 14
1.000000000000000E+20
 24
1.000000000000000E+20
 34
1.000000000000000E+20
 15
-1.000000000000000E+20
 25
-1.000000000000000E+20
 35
-1.000000000000000E+20
146
0.0
 13
0.0
 23
0.0
 33
0.0
 16
1.0
 26
0.0
 36
0.0
 17
0.0
 27
1.0
 37
0.0
 76
     0
330
20
  0
MATERIAL
  5
3F
102
{ACAD_XDICTIONARY
360
40
102
}
102
{ACAD_REACTORS
330
C
102
}
330
C
100
AcDbMaterial
  1
ByBlock
 72
     0
 43
0.0208333333333333
 43
0.0
 43
0.0
 43
0.0
 43
0.0
 43
0.0208333333333333
 43
0.0
 43
0.0
 43
0.0
 43
0.0
 43
1.0
 43
0.0
 43
0.0
 43
0.0
 43
0.0
 43
1.0
 77
     0
 47
0.0208333333333333
 47
0.0
 47
0.0
 47
0.0
 47
0.0
 47
0.0208333333333333
 47
0.0
 47
0.0
 47
0.0
 47
0.0
 47
1.0
 47
0.0
 47
0.0
 47
0.0
 47
0.0
 47
1.0
171
     0
 49
0.0208333333333333
 49
0.0
 49
0.0
 49
0.0
 49
0.0
 49
0.0208333333333333
 49
0.0
 49
0.0
 49
0.0
 49
0.0
 49
1.0
 49
0.0
 49
0.0
 49
0.0
 49
0.0
 49
1.0
175
     0
142
0.0208333333333333
142
0.0
142
0.0
142
0.0
142
0.0
142
0.0208333333333333
142
0.0
142
0.0
142
0.0
142
0.0
142
1.0
142
0.0
142
0.0
142
0.0
142
0.0
142
1.0
179
     0
144
0.0208333333333333
144
0.0
144
0.0
144
0.0
144
0.0
144
0.0208333333333333
144
0.0
144
0.0
144
0.0
144
0.0
144
1.0
144
0.0
144
0.0
144
0.0
144
0.0
144
1.0
147
0.0208333333333333
147
0.0
147
0.0
147
0.0
147
0.0
147
0.0208333333333333
147
0.0
147
0.0
147
0.0
147
0.0
147
1.0
147
0.0
147
0.0
147
0.0
147
0.0
147
1.0
  0
MATERIAL
  5
15
102
{ACAD_XDICTIONARY
360
16
102
}
102
{ACAD_REACTORS
330
C
102
}
330
C
100
AcDbMaterial
  1
ByLayer
 72
     0
 43
0.0208333333333333
 43
0.0
 43
0.0
 43
0.0
 43
0.0
 43
0.0208333333333333
 43
0.0
 43
0.0
 43
0.0
 43
0.0
 43
1.0
 43
0.0
 43
0.0
 43
0.0
 43
0.0
 43
1.0
 77
     0
 47
0.0208333333333333
 47
0.0
 47
0.0
 47
0.0
 47
0.0
 47
0.0208333333333333
 47
0.0
 47
0.0
 47
0.0
 47
0.0
 47
1.0
 47
0.0
 47
0.0
 47
0.0
 47
0.0
 47
1.0
171
     0
 49
0.0208333333333333
 49
0.0
 49
0.0
 49
0.0
 49
0.0
 49
0.0208333333333333
 49
0.0
 49
0.0
 49
0.0
 49
0.0
 49
1.0
 49
0.0
 49
0.0
 49
0.0
 49
0.0
 49
1.0
175
     0
142
0.0208333333333333
142
0.0
142
0.0
142
0.0
142
0.0
142
0.0208333333333333
142
0.0
142
0.0
142
0.0
142
0.0
142
1.0
142
0.0
142
0.0
142
0.0
142
0.0
142
1.0
179
     0
144
0.0208333333333333
144
0.0
144
0.0
144
0.0
144
0.0
144
0.0208333333333333
144
0.0
144
0.0
144
0.0
144
0.0
144
1.0
144
0.0
144
0.0
144
0.0
144
0.0
144
1.0
147
0.0208333333333333
147
0.0
147
0.0
147
0.0
147
0.0
147
0.0208333333333333
147
0.0
147
0.0
147
0.0
147
0.0
147
1.0
147
0.0
147
0.0
147
0.0
147
0.0
147
1.0
  0
MATERIAL
  5
B
102
{ACAD_XDICTIONARY
360
D
102
}
102
{ACAD_REACTORS
330
C
102
}
330
C
100
AcDbMaterial
  1
Global
 72
     0
 43
0.0208333333333333
 43
0.0
 43
0.0
 43
0.0
 43
0.0
 43
0.0208333333333333
 43
0.0
 43
0.0
 43
0.0
 43
0.0
 43
1.0
 43
0.0
 43
0.0
 43
0.0
 43
0.0
 43
1.0
 77
     0
 47
0.0208333333333333
 47
0.0
 47
0.0
 47
0.0
 47
0.0
 47
0.0208333333333333
 47
0.0
 47
0.0
 47
0.0
 47
0.0
 47
1.0
 47
0.0
 47
0.0
 47
0.0
 47
0.0
 47
1.0
171
     0
 49
0.0208333333333333
 49
0.0
 49
0.0
 49
0.0
 49
0.0
 49
0.0208333333333333
 49
0.0
 49
0.0
 49
0.0
 49
0.0
 49
1.0
 49
0.0
 49
0.0
 49
0.0
 49
0.0
 49
1.0
175
     0
142
0.0208333333333333
142
0.0
142
0.0
142
0.0
142
0.0
142
0.0208333333333333
142
0.0
142
0.0
142
0.0
142
0.0
142
1.0
142
0.0
142
0.0
142
0.0
142
0.0
142
1.0
179
     0
144
0.0208333333333333
144
0.0
144
0.0
144
0.0
144
0.0
144
0.0208333333333333
144
0.0
144
0.0
144
0.0
144
0.0
144
1.0
144
0.0
144
0.0
144
0.0
144
0.0
144
1.0
147
0.0208333333333333
147
0.0
147
0.0
147
0.0
147
0.0
147
0.0208333333333333
147
0.0
147
0.0
147
0.0
147
0.0
147
1.0
147
0.0
147
0.0
147
0.0
147
0.0
147
1.0
  0
MLEADERSTYLE
  5
25C
102
{ACAD_REACTORS
330
4A
102
}
330
4A
100
AcDbMLeaderStyle
170
     2
171
     1
172
     0
 90
        2
 40
0.0
 41
0.0
173
     1
 91
-1056964608
340
2B
 92
       -2
290
     1
 42
0.09
291
     1
 43
0.36
  3
Standard
 44
0.18
300

342
28
174
     1
178
     6
175
     1
176
     0
 93
-1056964608
 45
0.18
292
     0
297
     0
 46
0.18
 94
-1056964608
 47
1.0
 49
1.0
140
1.0
293
     1
141
0.0
294
     1
177
     0
142
1.0
295
     0
296
     0
143
0.125
1001
ACAD_MLEADERVER
1070
     2
  0
MLINESTYLE
  5
4C
102
{ACAD_REACTORS
330
3D
102
}
330
3D
100
AcDbMlineStyle
  2
STANDARD
 70
     0
  3

 62
   256
 51
90.0
 52
90.0
 71
     2
 49
0.5
 62
   256
  6
BYLAYER
 49
-0.5
 62
   256
  6
BYLAYER
  0
ACDBPLACEHOLDER
  5
7
102
{ACAD_REACTORS
330
8
102
}
330
8
  0
SCALE
  5
51
102
{ACAD_REACTORS
330
48
102
}
330
48
100
AcDbScale
 70
     0
300
1:1
140
1.0
141
1.0
290
     1
  0
SCALE
  5
52
102
{ACAD_REACTORS
330
48
102
}
330
48
100
AcDbScale
 70
     0
300
1/128" = 1'-0"
140
0.0078125
141
12.0
290
     0
  0
SCALE
  5
53
102
{ACAD_REACTORS
330
48
102
}
330
48
100
AcDbScale
 70
     0
300
1/64" = 1'-0"
140
0.015625
141
12.0
290
     0
  0
SCALE
  5
54
102
{ACAD_REACTORS
330
48
102
}
330
48
100
AcDbScale
 70
     0
300
1/32" = 1'-0"
140
0.03125
141
12.0
290
     0
  0
SCALE
  5
55
102
{ACAD_REACTORS
330
48
102
}
330
48
100
AcDbScale
 70
     0
300
1/16" = 1'-0"
140
0.0625
141
12.0
290
     0
  0
SCALE
  5
56
102
{ACAD_REACTORS
330
48
102
}
330
48
100
AcDbScale
 70
     0
300
3/32" = 1'-0"
140
0.09375
141
12.0
290
     0
  0
SCALE
  5
57
102
{ACAD_REACTORS
330
48
102
}
330
48
100
AcDbScale
 70
     0
300
1/8" = 1'-0"
140
0.125
141
12.0
290
     0
  0
SCALE
  5
58
102
{ACAD_REACTORS
330
48
102
}
330
48
100
AcDbScale
 70
     0
300
3/16" = 1'-0"
140
0.1875
141
12.0
290
     0
  0
SCALE
  5
59
102
{ACAD_REACTORS
330
48
102
}
330
48
100
AcDbScale
 70
     0
300
1/4" = 1'-0"
140
0.25
141
12.0
290
     0
  0
SCALE
  5
5A
102
{ACAD_REACTORS
330
48
102
}
330
48
100
AcDbScale
 70
     0
300
3/8" = 1'-0"
140
0.375
141
12.0
290
     0
  0
SCALE
  5
5B
102
{ACAD_REACTORS
330
48
102
}
330
48
100
AcDbScale
 70
     0
300
1/2" = 1'-0"
140
0.5
141
12.0
290
     0
  0
SCALE
  5
5C
102
{ACAD_REACTORS
330
48
102
}
330
48
100
AcDbScale
 70
     0
300
3/4" = 1'-0"
140
0.75
141
12.0
290
     0
  0
SCALE
  5
5D
102
{ACAD_REACTORS
330
48
102
}
330
48
100
AcDbScale
 70
     0
300
1" = 1'-0"
140
1.0
141
12.0
290
     0
  0
SCALE
  5
5E
102
{ACAD_REACTORS
330
48
102
}
330
48
100
AcDbScale
 70
     0
300
1-1/2" = 1'-0"
140
1.5
141
12.0
290
     0
  0
SCALE
  5
5F
102
{ACAD_REACTORS
330
48
102
}
330
48
100
AcDbScale
 70
     0
300
3" = 1'-0"
140
3.0
141
12.0
290
     0
  0
SCALE
  5
60
102
{ACAD_REACTORS
330
48
102
}
330
48
100
AcDbScale
 70
     0
300
6" = 1'-0"
140
6.0
141
12.0
290
     0
  0
SCALE
  5
61
102
{ACAD_REACTORS
330
48
102
}
330
48
100
AcDbScale
 70
     0
300
1'-0" = 1'-0"
140
12.0
141
12.0
290
     0
  0
TABLESTYLE
  5
4D
102
{ACAD_XDICTIONARY
360
232
102
}
102
{ACAD_REACTORS
330
49
102
}
330
49
100
AcDbTableStyle
  3
Standard
 70
     0
 71
     0
 40
0.06
 41
0.06
280
     0
281
     0
  7
STANDARD
140
0.18
170
     2
 62
     0
 63
     7
283
     0
274
    -2
284
     1
 64
     0
275
    -2
285
     1
 65
     0
276
    -2
286
     1
 66
     0
277
    -2
287
     1
 67
     0
278
    -2
288
     1
 68
     0
279
    -2
289
     1
 69
     0
  7
STANDARD
140
0.25
170
     5
 62
     0
 63
     7
283
     0
274
    -2
284
     1
 64
     0
275
    -2
285
     1
 65
     0
276
    -2
286
     1
 66
     0
277
    -2
287
     1
 67
     0
278
    -2
288
     1
 68
     0
279
    -2
289
     1
 69
     0
  7
STANDARD
140
0.18
170
     5
 62
     0
 63
     7
283
     0
274
    -2
284
     1
 64
     0
275
    -2
285
     1
 65
     0
276
    -2
286
     1
 66
     0
277
    -2
287
     1
 67
     0
278
    -2
288
     1
 68
     0
279
    -2
289
     1
 69
     0
  0
VISUALSTYLE
  5
31
102
{ACAD_XDICTIONARY
360
23B
102
}
102
{ACAD_REACTORS
330
32
102
}
330
32
100
AcDbVisualStyle
  2

 70
     4
 71
     0
 72
     2
 73
     0
 90
        0
 40
-0.6
 41
-30.0
 62
     5
 63
     7
 74
     1
 91
        4
 64
     7
 65
   257
 75
     1
175
     1
 42
1.0
 92
        0
 66
   257
 43
1.0
 76
     1
 77
     6
 78
     2
 67
     7
 79
     5
170
     0
171
     0
290
     0
174
     0
 93
        1
 44
0.0
173
     0
291
     0
 45
0.0
1001
ACAD
1000
AcDbSavedByObjectVersion
1070
     0
  0
VISUALSTYLE
  5
24B
102
{ACAD_XDICTIONARY
360
3B7
102
}
102
{ACAD_REACTORS
330
32
102
}
330
32
100
AcDbVisualStyle
  2
Basic
 70
     7
 71
     1
 72
     0
 73
     1
 90
        0
 40
-0.6
 41
-30.0
 62
     5
 63
     7
 74
     0
 91
        4
 64
     7
 65
   257
 75
     1
175
     1
 42
1.0
 92
        8
 66
     7
 43
1.0
 76
     1
 77
     6
 78
     2
 67
     7
 79
     5
170
     0
171
     0
290
     0
174
     0
 93
        1
 44
0.0
173
     0
291
     1
 45
0.0
1001
ACAD
1000
AcDbSavedByObjectVersion
1070
     0
  0
VISUALSTYLE
  5
24F
102
{ACAD_XDICTIONARY
360
3BF
102
}
102
{ACAD_REACTORS
330
32
102
}
330
32
100
AcDbVisualStyle
  2
Brighten
 70
    12
 71
     2
 72
     2
 73
     0
 90
        0
 40
-0.6
 41
-30.0
 62
     5
 63
     7
 74
     1
 91
        4
 64
     7
 65
   257
 75
     1
175
     1
 42
1.0
 92
        8
 66
     7
 43
1.0
 76
     1
 77
     6
 78
     2
 67
     7
 79
     5
170
     0
171
     0
290
     0
174
     0
 93
        1
 44
50.0
173
     0
291
     1
 45
0.0
1001
ACAD
1000
AcDbSavedByObjectVersion
1070
     0
  0
VISUALSTYLE
  5
253
102
{ACAD_XDICTIONARY
360
3C7
102
}
102
{ACAD_REACTORS
330
32
102
}
330
32
100
AcDbVisualStyle
  2
ColorChange
 70
    16
 71
     2
 72
     2
 73
     3
 90
        0
 40
-0.6
 41
-30.0
 62
     5
 63
     8
 74
     1
 91
        4
 64
     7
 65
   257
 75
     1
175
     1
 42
1.0
 92
        8
 66
     8
 43
1.0
 76
     1
 77
     6
 78
     2
 67
     7
 79
     5
170
     0
171
     0
290
     0
174
     0
 93
        1
 44
0.0
173
     0
291
     1
 45
0.0
1001
ACAD
1000
AcDbSavedByObjectVersion
1070
     0
  0
VISUALSTYLE
  5
24D
102
{ACAD_XDICTIONARY
360
3BB
102
}
102
{ACAD_REACTORS
330
32
102
}
330
32
100
AcDbVisualStyle
  2
Conceptual
 70
     9
 71
     3
 72
     2
 73
     0
 90
        0
 40
-0.6
 41
-30.0
 62
     5
 63
     7
 74
     2
 91
        2
 64
     7
 65
   257
 75
     1
175
     1
 42
179.0
 92
        8
 66
     7
 43
1.0
 76
     1
 77
     6
 78
     2
 67
     7
 79
     3
170
     0
171
     0
290
     0
174
     0
 93
        1
 44
0.0
173
     0
291
     0
 45
0.0
1001
ACAD
1000
AcDbSavedByObjectVersion
1070
     0
  0
VISUALSTYLE
  5
24E
102
{ACAD_XDICTIONARY
360
3BD
102
}
102
{ACAD_REACTORS
330
32
102
}
330
32
100
AcDbVisualStyle
  2
Dim
 70
    11
 71
     2
 72
     2
 73
     0
 90
        0
 40
-0.6
 41
-30.0
 62
     5
 63
     7
 74
     1
 91
        4
 64
     7
 65
   257
 75
     1
175
     1
 42
1.0
 92
        8
 66
     7
 43
1.0
 76
     1
 77
     6
 78
     2
 67
     7
 79
     5
170
     0
171
     0
290
     0
174
     0
 93
        1
 44
-50.0
173
     0
291
     1
 45
0.0
1001
ACAD
1000
AcDbSavedByObjectVersion
1070
     0
  0
VISUALSTYLE
  5
25B
102
{ACAD_XDICTIONARY
360
3D7
102
}
102
{ACAD_REACTORS
330
32
102
}
330
32
100
AcDbVisualStyle
  2
EdgeColorOff
 70
    22
 71
     2
 72
     2
 73
     0
 90
        0
 40
-0.6
 41
-30.0
 62
     5
 63
     7
 74
     1
 91
        4
 64
     7
 65
   257
 75
     1
175
     1
 42
1.0
 92
        8
 66
     7
 43
1.0
 76
     1
 77
     6
 78
     2
 67
     7
 79
     5
170
     0
171
     0
290
     0
174
     0
 93
        1
 44
0.0
173
     0
291
     1
 45
0.0
1001
ACAD
1000
AcDbSavedByObjectVersion
1070
     0
  0
VISUALSTYLE
  5
252
102
{ACAD_XDICTIONARY
360
3C5
102
}
102
{ACAD_REACTORS
330
32
102
}
330
32
100
AcDbVisualStyle
  2
Facepattern
 70
    15
 71
     2
 72
     2
 73
     0
 90
        0
 40
-0.6
 41
-30.0
 62
     5
 63
     7
 74
     1
 91
        4
 64
     7
 65
   257
 75
     1
175
     1
 42
1.0
 92
        8
 66
     7
 43
1.0
 76
     1
 77
     6
 78
     2
 67
     7
 79
     5
170
     0
171
     0
290
     0
174
     0
 93
        1
 44
0.0
173
     0
291
     1
 45
0.0
1001
ACAD
1000
AcDbSavedByObjectVersion
1070
     0
  0
VISUALSTYLE
  5
247
102
{ACAD_XDICTIONARY
360
3AF
102
}
102
{ACAD_REACTORS
330
32
102
}
330
32
100
AcDbVisualStyle
  2
Flat
 70
     0
 71
     2
 72
     1
 73
     1
 90
        2
 40
-0.6
 41
30.0
 62
     5
 63
     7
 74
     0
 91
        0
 64
     7
 65
   257
 75
     1
175
     1
 42
1.0
 92
        8
 66
     7
 43
1.0
 76
     1
 77
     6
 78
     2
 67
     7
 79
     5
170
     0
171
     0
290
     0
174
     0
 93
       13
 44
0.0
173
     0
291
     1
 45
0.0
1001
ACAD
1000
AcDbSavedByObjectVersion
1070
     0
  0
VISUALSTYLE
  5
248
102
{ACAD_XDICTIONARY
360
3B1
102
}
102
{ACAD_REACTORS
330
32
102
}
330
32
100
AcDbVisualStyle
  2
FlatWithEdges
 70
     1
 71
     2
 72
     1
 73
     1
 90
        2
 40
-0.6
 41
30.0
 62
     5
 63
     7
 74
     1
 91
        0
 64
     7
 65
   257
 75
     1
175
     1
 42
1.0
 92
        0
 66
   257
 43
1.0
 76
     1
 77
     6
 78
     2
 67
     7
 79
     5
170
     0
171
     0
290
     0
174
     0
 93
       13
 44
0.0
173
     0
291
     1
 45
0.0
1001
ACAD
1000
AcDbSavedByObjectVersion
1070
     0
  0
VISUALSTYLE
  5
249
102
{ACAD_XDICTIONARY
360
3B3
102
}
102
{ACAD_REACTORS
330
32
102
}
330
32
100
AcDbVisualStyle
  2
Gouraud
 70
     2
 71
     2
 72
     2
 73
     1
 90
        2
 40
-0.6
 41
30.0
 62
     5
 63
     7
 74
     0
 91
        0
 64
     7
 65
   257
 75
     1
175
     1
 42
1.0
 92
        0
 66
     7
 43
1.0
 76
     1
 77
     6
 78
     2
 67
     7
 79
     5
170
     0
171
     0
290
     0
174
     0
 93
       13
 44
0.0
173
     0
291
     1
 45
0.0
1001
ACAD
1000
AcDbSavedByObjectVersion
1070
     0
  0
VISUALSTYLE
  5
24A
102
{ACAD_XDICTIONARY
360
3B5
102
}
102
{ACAD_REACTORS
330
32
102
}
330
32
100
AcDbVisualStyle
  2
GouraudWithEdges
 70
     3
 71
     2
 72
     2
 73
     1
 90
        2
 40
-0.6
 41
30.0
 62
     5
 63
     7
 74
     1
 91
        0
 64
     7
 65
   257
 75
     1
175
     1
 42
1.0
 92
        0
 66
   257
 43
1.0
 76
     1
 77
     6
 78
     2
 67
     7
 79
     5
170
     0
171
     0
290
     0
174
     0
 93
       13
 44
0.0
173
     0
291
     1
 45
0.0
1001
ACAD
1000
AcDbSavedByObjectVersion
1070
     0
  0
VISUALSTYLE
  5
24C
102
{ACAD_XDICTIONARY
360
3B9
102
}
102
{ACAD_REACTORS
330
32
102
}
330
32
100
AcDbVisualStyle
  2
Hidden
 70
     6
 71
     1
 72
     2
 73
     2
 90
        0
 40
-0.6
 41
-30.0
 62
     5
 63
     7
 74
     2
 91
        2
 64
     7
 65
   257
 75
     2
175
     1
 42
40.0
 92
        0
 66
   257
 43
1.0
 76
     1
 77
     6
 78
     2
 67
     7
 79
     3
170
     0
171
     0
290
     0
174
     0
 93
        1
 44
0.0
173
     0
291
     0
 45
0.0
1001
ACAD
1000
AcDbSavedByObjectVersion
1070
     0
  0
VISUALSTYLE
  5
259
102
{ACAD_XDICTIONARY
360
3D3
102
}
102
{ACAD_REACTORS
330
32
102
}
330
32
100
AcDbVisualStyle
  2
JitterOff
 70
    20
 71
     2
 72
     2
 73
     0
 90
        0
 40
-0.6
 41
-30.0
 62
     5
 63
     7
 74
     1
 91
        4
 64
     7
 65
   257
 75
     1
175
     1
 42
1.0
 92
       10
 66
     7
 43
1.0
 76
     1
 77
     6
 78
     2
 67
     7
 79
     5
170
     0
171
     0
290
     0
174
     0
 93
        1
 44
0.0
173
     0
291
     1
 45
0.0
1001
ACAD
1000
AcDbSavedByObjectVersion
1070
     0
  0
VISUALSTYLE
  5
251
102
{ACAD_XDICTIONARY
360
3C3
102
}
102
{ACAD_REACTORS
330
32
102
}
330
32
100
AcDbVisualStyle
  2
Linepattern
 70
    14
 71
     2
 72
     2
 73
     0
 90
        0
 40
-0.6
 41
-30.0
 62
     5
 63
     7
 74
     1
 91
        4
 64
     7
 65
   257
 75
     7
175
     7
 42
1.0
 92
        8
 66
     7
 43
1.0
 76
     1
 77
     6
 78
     2
 67
     7
 79
     5
170
     0
171
     0
290
     0
174
     0
 93
        1
 44
0.0
173
     0
291
     1
 45
0.0
1001
ACAD
1000
AcDbSavedByObjectVersion
1070
     0
  0
VISUALSTYLE
  5
25A
102
{ACAD_XDICTIONARY
360
3D5
102
}
102
{ACAD_REACTORS
330
32
102
}
330
32
100
AcDbVisualStyle
  2
OverhangOff
 70
    21
 71
     2
 72
     2
 73
     0
 90
        0
 40
-0.6
 41
-30.0
 62
     5
 63
     7
 74
     1
 91
        4
 64
     7
 65
   257
 75
     1
175
     1
 42
1.0
 92
        9
 66
     7
 43
1.0
 76
     1
 77
     6
 78
     2
 67
     7
 79
     5
170
     0
171
     0
290
     0
174
     0
 93
        1
 44
0.0
173
     0
291
     1
 45
0.0
1001
ACAD
1000
AcDbSavedByObjectVersion
1070
     0
  0
VISUALSTYLE
  5
4E
102
{ACAD_XDICTIONARY
360
23F
102
}
102
{ACAD_REACTORS
330
32
102
}
330
32
100
AcDbVisualStyle
  2

 70
     8
 71
     2
 72
     3
 73
     0
 90
        2
 40
-0.6
 41
30.0
 62
     5
 63
     7
 74
     0
 91
        0
 64
     7
 65
   257
 75
     1
175
     1
 42
1.0
 92
        8
 66
   257
 43
1.0
 76
     1
 77
     6
 78
     2
 67
     7
 79
     3
170
     0
171
     0
290
     0
174
     0
 93
       13
 44
0.0
173
     0
291
     0
 45
0.0
1001
ACAD
1000
AcDbSavedByObjectVersion
1070
     0
  0
VISUALSTYLE
  5
258
102
{ACAD_XDICTIONARY
360
3D1
102
}
102
{ACAD_REACTORS
330
32
102
}
330
32
100
AcDbVisualStyle
  2
Shaded
 70
    27
 71
     2
 72
     2
 73
     1
 90
        2
 40
-0.6
 41
30.0
 62
     5
 63
     7
 74
     0
 91
        4
 64
     7
 65
   257
 75
     1
175
     1
 42
1.0
 92
        8
 66
   257
 43
1.0
 76
     1
 77
     6
 78
     2
 67
     8
 79
     3
170
     0
171
     0
290
     0
174
     0
 93
        5
 44
0.0
173
     0
291
     0
 45
0.0
1001
ACAD
1000
AcDbSavedByObjectVersion
1070
     0
  0
VISUALSTYLE
  5
257
102
{ACAD_XDICTIONARY
360
3CF
102
}
102
{ACAD_REACTORS
330
32
102
}
330
32
100
AcDbVisualStyle
  2
Shaded with edges
 70
    26
 71
     2
 72
     2
 73
     1
 90
        2
 40
-0.6
 41
30.0
 62
     5
 63
     7
 74
     1
 91
       10
 64
     7
 65
   257
 75
     2
175
     1
 42
1.0
 92
        8
 66
   257
 43
1.0
 76
     1
 77
     6
 78
     2
 67
     7
 79
     3
170
     0
171
     0
290
     0
174
     0
 93
        5
 44
0.0
173
     0
291
     0
 45
0.0
1001
ACAD
1000
AcDbSavedByObjectVersion
1070
     0
  0
VISUALSTYLE
  5
254
102
{ACAD_XDICTIONARY
360
3C9
102
}
102
{ACAD_REACTORS
330
32
102
}
330
32
100
AcDbVisualStyle
  2
Shades of Gray
 70
    23
 71
     2
 72
     2
 73
     3
 90
        0
 40
-0.6
 41
-30.0
 62
     5
 63
     7
 74
     2
 91
        2
 64
     7
 65
     7
 75
     1
175
     1
 42
40.0
 92
        8
 66
     7
 43
1.0
 76
     1
 77
     6
 78
     2
 67
     7
 79
     3
170
     0
171
     0
290
     0
174
     0
 93
        1
 44
0.0
173
     0
291
     0
 45
0.0
1001
ACAD
1000
AcDbSavedByObjectVersion
1070
     0
  0
VISUALSTYLE
  5
255
102
{ACAD_XDICTIONARY
360
3CB
102
}
102
{ACAD_REACTORS
330
32
102
}
330
32
100
AcDbVisualStyle
  2
Sketchy
 70
    24
 71
     1
 72
     2
 73
     2
 90
        0
 40
-0.6
 41
-30.0
 62
     5
 63
     7
 74
     2
 91
        2
 64
     7
 65
     7
 75
     1
175
     1
 42
40.0
 92
       11
 66
     7
 43
1.0
 76
     1
 77
     6
 78
     2
 67
     7
 79
     6
170
     0
171
     0
290
     0
174
     0
 93
        1
 44
0.0
173
     0
291
     0
 45
0.0
1001
ACAD
1000
AcDbSavedByObjectVersion
1070
     0
  0
VISUALSTYLE
  5
250
102
{ACAD_XDICTIONARY
360
3C1
102
}
102
{ACAD_REACTORS
330
32
102
}
330
32
100
AcDbVisualStyle
  2
Thicken
 70
    13
 71
     2
 72
     2
 73
     0
 90
        0
 40
-0.6
 41
-30.0
 62
     5
 63
     7
 74
     1
 91
        4
 64
     7
 65
   257
 75
     1
175
     1
 42
1.0
 92
       12
 66
     7
 43
1.0
 76
     1
 77
     6
 78
     2
 67
     7
 79
     5
170
     0
171
     0
290
     0
174
     0
 93
        1
 44
0.0
173
     0
291
     1
 45
0.0
1001
ACAD
1000
AcDbSavedByObjectVersion
1070
     0
  0
VISUALSTYLE
  5
4F
102
{ACAD_XDICTIONARY
360
241
102
}
102
{ACAD_REACTORS
330
32
102
}
330
32
100
AcDbVisualStyle
  2

 70
     5
 71
     0
 72
     2
 73
     0
 90
        0
 40
-0.6
 41
-30.0
 62
     5
 63
     7
 74
     1
 91
        4
 64
     7
 65
   257
 75
     1
175
     1
 42
1.0
 92
        0
 66
   257
 43
1.0
 76
     1
 77
     6
 78
     2
 67
     7
 79
     3
170
     0
171
     0
290
     0
174
     0
 93
        1
 44
0.0
173
     0
291
     0
 45
0.0
1001
ACAD
1000
AcDbSavedByObjectVersion
1070
     0
  0
VISUALSTYLE
  5
256
102
{ACAD_XDICTIONARY
360
3CD
102
}
102
{ACAD_REACTORS
330
32
102
}
330
32
100
AcDbVisualStyle
  2
X-Ray
 70
    25
 71
     2
 72
     2
 73
     1
 90
        1
 40
0.5
 41
-30.0
 62
     5
 63
     7
 74
     1
 91
        0
 64
     7
 65
   257
 75
     1
175
     1
 42
1.0
 92
        8
 66
     7
 43
1.0
 76
     1
 77
     6
 78
     2
 67
     7
 79
     3
170
     0
171
     0
290
     0
174
     0
 93
       13
 44
0.0
173
     0
291
     0
 45
0.0
1001
ACAD
1000
AcDbSavedByObjectVersion
1070
     0
  0
DICTIONARYVAR
  5
22C
102
{ACAD_REACTORS
330
227
102
}
330
227
100
DictionaryVariables
280
     0
  1
1:1
  0
DICTIONARYVAR
  5
229
102
{ACAD_REACTORS
330
227
102
}
330
227
100
DictionaryVariables
280
     0
  1
STANDARD
  0
DICTIONARYVAR
  5
228
102
{ACAD_REACTORS
330
227
102
}
330
227
100
DictionaryVariables
280
     0
  1
STANDARD
  0
DICTIONARYVAR
  5
22A
102
{ACAD_REACTORS
330
227
102
}
330
227
100
DictionaryVariables
280
     0
  1

  0
DICTIONARYVAR
  5
22B
102
{ACAD_REACTORS
330
227
102
}
330
227
100
DictionaryVariables
280
     0
  1

  0
DICTIONARYVAR
  5
230
102
{ACAD_REACTORS
330
227
102
}
330
227
100
DictionaryVariables
280
     0
  1
1
  0
DICTIONARYVAR
  5
22F
102
{ACAD_REACTORS
330
227
102
}
330
227
100
DictionaryVariables
280
     0
  1
1
  0
DICTIONARYVAR
  5
22E
102
{ACAD_REACTORS
330
227
102
}
330
227
100
DictionaryVariables
280
     0
  1
0
  0
DICTIONARYVAR
  5
391
102
{ACAD_REACTORS
330
227
102
}
330
227
100
DictionaryVariables
280
     0
  1
1
  0
DICTIONARYVAR
  5
392
102
{ACAD_REACTORS
330
227
102
}
330
227
100
DictionaryVariables
280
     0
  1
15
  0
DICTIONARYVAR
  5
390
102
{ACAD_REACTORS
330
227
102
}
330
227
100
DictionaryVariables
280
     0
  1
0
  0
DICTIONARYVAR
  5
38F
102
{ACAD_REACTORS
330
227
102
}
330
227
100
DictionaryVariables
280
     0
  1
0
  0
DICTIONARYVAR
  5
22D
102
{ACAD_REACTORS
330
227
102
}
330
227
100
DictionaryVariables
280
     0
  1
127
  0
DICTIONARYVAR
  5
3A7
102
{ACAD_REACTORS
330
227
102
}
330
227
100
DictionaryVariables
280
     0
  1
2
  0
DICTIONARY
  5
3A5
330
1E
100
AcDbDictionary
280
     1
281
     1
  3
ACAD_XREC_ROUNDTRIP
360
3AB
  3
ADSK_XREC_LAYOUTTHUMBNAIL
360
3A6
  0
DICTIONARY
  5
3AC
330
25
100
AcDbDictionary
280
     1
281
     1
  3
ACAD_XREC_ROUNDTRIP
360
3AD
  0
DICTIONARY
  5
40
330
3F
100
AcDbDictionary
280
     1
281
     1
  3
ACAD_XREC_ROUNDTRIP
360
23D
  3
BUMPTILE
360
41
  3
DIFFUSETILE
360
42
  3
OPACITYTILE
360
43
  3
REFLECTIONTILE
360
44
  3
REFRACTIONTILE
360
45
  3
SPECULARTILE
360
46
  0
DICTIONARY
  5
16
330
15
100
AcDbDictionary
280
     1
281
     1
  3
ACAD_XREC_ROUNDTRIP
360
236
  3
BUMPTILE
360
17
  3
DIFFUSETILE
360
18
  3
OPACITYTILE
360
19
  3
REFLECTIONTILE
360
1A
  3
REFRACTIONTILE
360
1B
  3
SPECULARTILE
360
1C
  0
DICTIONARY
  5
D
330
B
100
AcDbDictionary
280
     1
281
     1
  3
ACAD_XREC_ROUNDTRIP
360
235
  3
BUMPTILE
360
E
  3
DIFFUSETILE
360
F
  3
OPACITYTILE
360
10
  3
REFLECTIONTILE
360
11
  3
REFRACTIONTILE
360
12
  3
SPECULARTILE
360
13
  0
DICTIONARY
  5
232
330
4D
100
AcDbDictionary
280
     1
281
     1
  3
ACAD_ROUNDTRIP_2008_TABLESTYLE_CELLSTYLEMAP
360
3A8
  3
ACAD_XREC_ROUNDTRIP
360
3AE
  0
DICTIONARY
  5
23B
330
31
100
AcDbDictionary
280
     1
281
     1
  3
ACAD_XREC_ROUNDTRIP
360
23C
  0
DICTIONARY
  5
3B7
330
24B
100
AcDbDictionary
280
     1
281
     1
  3
ACAD_XREC_ROUNDTRIP
360
3B8
  0
DICTIONARY
  5
3BF
330
24F
100
AcDbDictionary
280
     1
281
     1
  3
ACAD_XREC_ROUNDTRIP
360
3C0
  0
DICTIONARY
  5
3C7
330
253
100
AcDbDictionary
280
     1
281
     1
  3
ACAD_XREC_ROUNDTRIP
360
3C8
  0
DICTIONARY
  5
3BB
330
24D
100
AcDbDictionary
280
     1
281
     1
  3
ACAD_XREC_ROUNDTRIP
360
3BC
  0
DICTIONARY
  5
3BD
330
24E
100
AcDbDictionary
280
     1
281
     1
  3
ACAD_XREC_ROUNDTRIP
360
3BE
  0
DICTIONARY
  5
3D7
330
25B
100
AcDbDictionary
280
     1
281
     1
  3
ACAD_XREC_ROUNDTRIP
360
3D8
  0
DICTIONARY
  5
3C5
330
252
100
AcDbDictionary
280
     1
281
     1
  3
ACAD_XREC_ROUNDTRIP
360
3C6
  0
DICTIONARY
  5
3AF
330
247
100
AcDbDictionary
280
     1
281
     1
  3
ACAD_XREC_ROUNDTRIP
360
3B0
  0
DICTIONARY
  5
3B1
330
248
100
AcDbDictionary
280
     1
281
     1
  3
ACAD_XREC_ROUNDTRIP
360
3B2
  0
DICTIONARY
  5
3B3
330
249
100
AcDbDictionary
280
     1
281
     1
  3
ACAD_XREC_ROUNDTRIP
360
3B4
  0
DICTIONARY
  5
3B5
330
24A
100
AcDbDictionary
280
     1
281
     1
  3
ACAD_XREC_ROUNDTRIP
360
3B6
  0
DICTIONARY
  5
3B9
330
24C
100
AcDbDictionary
280
     1
281
     1
  3
ACAD_XREC_ROUNDTRIP
360
3BA
  0
DICTIONARY
  5
3D3
330
259
100
AcDbDictionary
280
     1
281
     1
  3
ACAD_XREC_ROUNDTRIP
360
3D4
  0
DICTIONARY
  5
3C3
330
251
100
AcDbDictionary
280
     1
281
     1
  3
ACAD_XREC_ROUNDTRIP
360
3C4
  0
DICTIONARY
  5
3D5
330
25A
100
AcDbDictionary
280
     1
281
     1
  3
ACAD_XREC_ROUNDTRIP
360
3D6
  0
DICTIONARY
  5
23F
330
4E
100
AcDbDictionary
280
     1
281
     1
  3
ACAD_XREC_ROUNDTRIP
360
240
  0
DICTIONARY
  5
3D1
330
258
100
AcDbDictionary
280
     1
281
     1
  3
ACAD_XREC_ROUNDTRIP
360
3D2
  0
DICTIONARY
  5
3CF
330
257
100
AcDbDictionary
280
     1
281
     1
  3
ACAD_XREC_ROUNDTRIP
360
3D0
  0
DICTIONARY
  5
3C9
330
254
100
AcDbDictionary
280
     1
281
     1
  3
ACAD_XREC_ROUNDTRIP
360
3CA
  0
DICTIONARY
  5
3CB
330
255
100
AcDbDictionary
280
     1
281
     1
  3
ACAD_XREC_ROUNDTRIP
360
3CC
  0
DICTIONARY
  5
3C1
330
250
100
AcDbDictionary
280
     1
281
     1
  3
ACAD_XREC_ROUNDTRIP
360
3C2
  0
DICTIONARY
  5
241
330
4F
100
AcDbDictionary
280
     1
281
     1
  3
ACAD_XREC_ROUNDTRIP
360
242
  0
DICTIONARY
  5
3CD
330
256
100
AcDbDictionary
280
     1
281
     1
  3
ACAD_XREC_ROUNDTRIP
360
3CE
  0
XRECORD
  5
3AB
102
{ACAD_REACTORS
330
3A5
102
}
330
3A5
100
AcDbXrecord
280
     1
102
SHADEPLOT
 70
     0
102
SHADEPLOTRESLEVEL
 70
     2
102
SHADEPLOTCUSTOMDPI
 70
   300
  0
XRECORD
  5
3A6
102
{ACAD_REACTORS
330
3A5
102
}
330
3A5
100
AcDbXrecord
280
     1
310
280000000001000086000000010008000000000000860000000000000000000000010000000000003028210000000000FFFFFF000000000000000000000000000000000000000000000000000000000000000000330000006600000099000000CC000000FF00000000330000333300006633000099330000CC330000FF3300
310
0000660000336600006666000099660000CC660000FF66000000990000339900006699000099990000CC990000FF99000000CC000033CC000066CC000099CC0000CCCC0000FFCC000000FF000033FF000066FF000099FF0000CCFF0000FFFF000000003300330033006600330099003300CC003300FF003300003333003333
310
33006633330099333300CC333300FF33330000663300336633006666330099663300CC663300FF66330000993300339933006699330099993300CC993300FF99330000CC330033CC330066CC330099CC3300CCCC3300FFCC330000FF330033FF330066FF330099FF3300CCFF3300FFFF330000006600330066006600660099
310
006600CC006600FF00660000336600333366006633660099336600CC336600FF33660000666600336666006666660099666600CC666600FF66660000996600339966006699660099996600CC996600FF99660000CC660033CC660066CC660099CC6600CCCC6600FFCC660000FF660033FF660066FF660099FF6600CCFF6600
310
FFFF660000009900330099006600990099009900CC009900FF00990000339900333399006633990099339900CC339900FF33990000669900336699006666990099669900CC669900FF66990000999900339999006699990099999900CC999900FF99990000CC990033CC990066CC990099CC9900CCCC9900FFCC990000FF99
310
0033FF990066FF990099FF9900CCFF9900FFFF99000000CC003300CC006600CC009900CC00CC00CC00FF00CC000033CC003333CC006633CC009933CC00CC33CC00FF33CC000066CC003366CC006666CC009966CC00CC66CC00FF66CC000099CC003399CC006699CC009999CC00CC99CC00FF99CC0000CCCC0033CCCC0066CC
310
CC0099CCCC00CCCCCC00FFCCCC0000FFCC0033FFCC0066FFCC0099FFCC00CCFFCC00FFFFCC000000FF003300FF006600FF009900FF00CC00FF00FF00FF000033FF003333FF006633FF009933FF00CC33FF00FF33FF000066FF003366FF006666FF009966FF00CC66FF00FF66FF000099FF003399FF006699FF009999FF00CC
310
99FF00FF99FF0000CCFF0033CCFF0066CCFF0099CCFF00CCCCFF00FFCCFF0000FFFF0033FFFF0066FFFF0099FFFF00CCFFFF00FFFFFF00000000000D0D0D001A1A1A00282828003535350043434300505050005D5D5D006B6B6B00787878008686860093939300A1A1A100AEAEAE00BBBBBB00C9C9C900D6D6D600E4E4E400
310
F1F1F100FFFFFF000000000000000000000000000000000000000000000000000000000000000000000000000000000000000000000000000000000000000000000000000000000000000000000000000000000000000000000000000000000000000000000000000000000000000000000000000000000000000000000000
310
00000000000000000000000000000000000000000000000000000000000000000000000000000000000000000000000000000000000000000000000000000000000000000000000000000000000000000000000000000000000000000000000000000000000000000000000000000000000000000000000000000000000000
310
00000000000000000000000000000000000000000000000000000000000000000000000000000000000000000000000000000000000000000000000000000000000000000000000000000000000000000000000000000000000000000000000000000000000000000000000000000000000000000000000000000000000000
310
00000000000000000000000000000000000000000000000000000000000000000000000000000000000000000000000000000000000000000000000000000000000000000000000000000000000000000000000000000000000000000000000000000000000000000000000000000000000000000000000000000000000000
310
00000000000000000000000000000000000000000000000000000000000000000000000000000000000000000000000000000000000000000000000000000000000000000000000000000000000000000000000000000000000000000000000000000000000000000000000000000000000000000000000000000000000000
310
00000000000000000000000000000000000000000000000000000000000000000000000000000000000000000000000000000000000000000000000000000000000000000000000000000000000000000000000000000000000000000000000000000000000000000000000000000000000000000000000000000000000000
310
00000000000000000000000000000000000000000000000000000000000000000000000000000000000000000000000000000000000000000000000000000000000000000000000000000000000000000000000000000000000000000000000000000000000000000000000000000000000000000000000000000000000000
310
00000000000000000000000000000000000000000000000000000000000000000000000000000000000000000000000000000000000000000000000000000000000000000000000000000000000000000000000000000000000000000000000000000000000000000000000000000000000000000000000000000000000000
310
00000000000000000000000000000000000000000000000000000000000000000000000000000000000000000000000000000000000000000000000000000000000000000000000000000000000000000000000000000000000000000000000000000000000000000000000000000000000000000000000000000000000000
310
00000000000000000000000000000000000000000000000000000000000000000000000000000000000000000000000000000000000000000000000000000000000000000000000000000000000000000000000000000000000000000000000000000000000000000000000000000000000000000000000000000000000000
310
00000000000000000000000000000000000000000000000000000000000000000000000000000000000000000000000000000000000000000000000000000000000000000000000000000000000000000000000000000000000000000000000000000000000000000000000000000000000000000000000000000000000000
310
00000000000000000000000000000000000000000000000000000000000000000000000000000000000000000000000000000000000000000000000000000000000000000000000000000000000000000000000000000000000000000000000000000000000000000000000000000000000000000000000000000000000000
310
00000000000000000000000000000000000000000000000000000000000000000000000000000000000000000000000000000000000000000000000000000000000000000000000000000000000000000000000000000000000000000000000000000000000000000000000000000000000000000000000000000000000000
310
00000000000000000000000000000000000000000000000000000000000000000000000000000000000000000000000000000000000000000000000000000000000000000000000000000000000000000000000000000000000000000000000000000000000000000000000000000000000000000000000000000000000000
310
00000000000000000000000000000000000000000000000000000000000000000000000000000000000000000000000000000000000000000000000000000000000000000000000000000000000000000000000000000000000000000000000000000000000000000000000000000000000000000000000000000000000000
310
00000000000000000000000000000000000000000000000000000000000000000000000000000000000000000000000000000000000000000000000000000000000000000000000000000000000000000000000000000000000000000000000000000000000000000000000000000000000000000000000000000000000000
310
00000000000000000000000000000000000000000000000000000000000000000000000000000000000000000000000000000000000000000000000000000000000000000000000000000000000000000000000000000000000000000000000000000000000000000000000000000000000000000000000000000000000000
310
00000000000000000000000000000000000000000000000000000000000000000000000000000000000000000000000000000000000000000000000000000000000000000000000000000000000000000000000000000000000000000000000000000000000000000000000000000000000000000000000000000000000000
310
00000000000000000000000000000000000000000000000000000000000000000000000000000000000000000000000000000000000000000000000000000000000000000000000000000000000000000000000000000000000000000000000000000000000000000000000000000000000000000000000000000000000000
310
00000000000000000000000000000000000000000000000000000000000000000000000000000000000000000000000000000000000000000000000000000000000000000000000000000000000000000000000000000000000000000000000000000000000000000000000000000000000000000000000000000000000000
310
00000000000000000000000000000000000000000000000000000000000000000000000000000000000000000000000000000000000000000000000000000000000000000000000000000000000000000000000000000000000000000000000000000000000000000000000000000000000000000000000000000000000000
310
00000000000000000000000000000000000000000000000000000000000000000000000000000000000000000000000000000000000000000000000000000000000000000000000000000000000000000000000000000000000000000000000000000000000000000000000000000000000000000000000000000000000000
310
00000000000000000000000000000000000000000000000000000000000000000000000000000000000000000000000000000000000000000000000000000000000000000000000000000000000000000000000000000000000000000000000000000000000000000000000000000000000000000000000000000000000000
310
00000000000000000000000000000000000000000000000000000000000000000000000000000000000000000000000000000000000000000000000000000000000000000000000000000000000000000000000000000000000000000000000000000000000000000000000000000000000000000000000000000000000000
310
00000000000000000000000000000000000000000000000000000000000000000000000000000000000000000000000000000000000000000000000000000000000000000000000000000000000000000000000000000000000000000000000000000000000000000000000000000000000000000000000000000000000000
310
00000000000000000000000000000000000000000000000000000000000000000000000000000000000000000000000000000000000000000000000000000000000000000000000000000000000000000000000000000000000000000000000000000000000000000000000000000000000000000000000000000000000000
310
00000000000000000000000000000000000000000000000000000000000000000000000000000000000000000000000000000000000000000000000000000000000000000000000000000000000000000000000000000000000000000000000000000000000000000000000000000000000000000000000000000000000000
310
00000000000000000000000000000000000000000000000000000000000000000000000000000000000000000000000000000000000000000000000000000000000000000000000000000000000000000000000000000000000000000000000000000000000000000000000000000000000000000000000000000000000000
310
00000000000000000000000000000000000000000000000000000000000000000000000000000000000000000000000000000000000000000000000000000000000000000000000000000000000000000000000000000000000000000000000000000000000000000000000000000000000000000000000000000000000000
310
00000000000000000000000000000000000000000000000000000000000000000000000000000000000000000000000000000000000000000000000000000000000000000000000000000000000000000000000000000000000000000000000000000000000000000000000000000000000000000000000000000000000000
310
00000000000000000000000000000000000000000000000000000000000000000000000000000000000000000000000000000000000000000000000000000000000000000000000000000000000000000000000000000000000000000000000000000000000000000000000000000000000000000000000000000000000000
310
00000000000000000000000000000000000000000000000000000000000000000000000000000000000000000000000000000000000000000000000000000000000000000000000000000000000000000000000000000000000000000000000000000000000000000000000000000000000000000000000000000000000000
310
00000000000000000000000000000000000000000000000000000000000000000000000000000000000000000000000000000000000000000000000000000000000000000000000000000000000000000000000000000000000000000000000000000000000000000000000000000000000000000000000000000000000000
310
00000000000000000000000000000000000000000000000000000000000000000000000000000000000000000000000000000000000000000000000000000000000000000000000000000000000000000000000000000000000000000000000000000000000000000000000000000000000000000000000000000000000000
310
00000000000000000000000000000000000000000000000000000000000000000000000000000000000000000000000000000000000000000000000000000000000000000000000000000000000000000000000000000000000000000000000000000000000000000000000000000000000000000000000000000000000000
310
00000000000000000000000000000000000000000000000000000000000000000000000000000000000000000000000000000000000000000000000000000000000000000000000000000000000000000000000000000000000000000000000000000000000000000000000000000000000000000000000000000000000000
310
00000000000000000000000000000000000000000000000000000000000000000000000000000000000000000000000000000000000000000000000000000000000000000000000000000000000000000000000000000000000000000000000000000000000000000000000000000000000000000000000000000000000000
310
00000000000000000000000000000000000000000000000000000000000000000000000000000000000000000000000000000000000000000000000000000000000000000000000000000000000000000000000000000000000000000000000000000000000000000000000000000000000000000000000000000000000000
310
00000000000000000000000000000000000000000000000000000000000000000000000000000000000000000000000000000000000000000000000000000000000000000000000000000000000000000000000000000000000000000000000000000000000000000000000000000000000000000000000000000000000000
310
00000000000000000000000000000000000000000000000000000000000000000000000000000000000000000000000000000000000000000000000000000000000000000000000000000000000000000000000000000000000000000000000000000000000000000000000000000000000000000000000000000000000000
310
00000000000000000000000000000000000000000000000000000000000000000000000000000000000000000000000000000000000000000000000000000000000000000000000000000000000000000000000000000000000000000000000000000000000000000000000000000000000000000000000000000000000000
310
00000000000000000000000000000000000000000000000000000000000000000000000000000000000000000000000000000000000000000000000000000000000000000000000000000000000000000000000000000000000000000000000000000000000000000000000000000000000000000000000000000000000000
310
00000000000000000000000000000000000000000000000000000000000000000000000000000000000000000000000000000000000000000000000000000000000000000000000000000000000000000000000000000000000000000000000000000000000000000000000000000000000000000000000000000000000000
310
00000000000000000000000000000000000000000000000000000000000000000000000000000000000000000000000000000000000000000000000000000000000000000000000000000000000000000000000000000000000000000000000000000000000000000000000000000000000000000000000000000000000000
310
00000000000000000000000000000000000000000000000000000000000000000000000000000000000000000000000000000000000000000000000000000000000000000000000000000000000000000000000000000000000000000000000000000000000000000000000000000000000000000000000000000000000000
310
00000000000000000000000000000000000000000000000000000000000000000000000000000000000000000000000000000000000000000000000000000000000000000000000000000000000000000000000000000000000000000000000000000000000000000000000000000000000000000000000000000000000000
310
00000000000000000000000000000000000000000000000000000000000000000000000000000000000000000000000000000000000000000000000000000000000000000000000000000000000000000000000000000000000000000000000000000000000000000000000000000000000000000000000000000000000000
310
00000000000000000000000000000000000000000000000000000000000000000000000000000000000000000000000000000000000000000000000000000000000000000000000000000000000000000000000000000000000000000000000000000000000000000000000000000000000000000000000000000000000000
310
00000000000000000000000000000000000000000000000000000000000000000000000000000000000000000000000000000000000000000000000000000000000000000000000000000000000000000000000000000000000000000000000000000000000000000000000000000000000000000000000000000000000000
310
00000000000000000000000000000000000000000000000000000000000000000000000000000000000000000000000000000000000000000000000000000000000000000000000000000000000000000000000000000000000000000000000000000000000000000000000000000000000000000000000000000000000000
310
00000000000000000000000000000000000000000000000000000000000000000000000000000000000000000000000000000000000000000000000000000000000000000000000000000000000000000000000000000000000000000000000000000000000000000000000000000000000000000000000000000000000000
310
00000000000000000000000000000000000000000000000000000000000000000000000000000000000000000000000000000000000000000000000000000000000000000000000000000000000000000000000000000000000000000000000000000000000000000000000000000000000000000000000000000000000000
310
00000000000000000000000000000000000000000000000000000000000000000000000000000000000000000000000000000000000000000000000000000000000000000000000000000000000000000000000000000000000000000000000000000000000000000000000000000000000000000000000000000000000000
310
00000000000000000000000000000000000000000000000000000000000000000000000000000000000000000000000000000000000000000000000000000000000000000000000000000000000000000000000000000000000000000000000000000000000000000000000000000000000000000000000000000000000000
310
00000000000000000000000000000000000000000000000000000000000000000000000000000000000000000000000000000000000000000000000000000000000000000000000000000000000000000000000000000000000000000000000000000000000000000000000000000000000000000000000000000000000000
310
00000000000000000000000000000000000000000000000000000000000000000000000000000000000000000000000000000000000000000000000000000000000000000000000000000000000000000000000000000000000000000000000000000000000000000000000000000000000000000000000000000000000000
310
00000000000000000000000000000000000000000000000000000000000000000000000000000000000000000000000000000000000000000000000000000000000000000000000000000000000000000000000000000000000000000000000000000000000000000000000000000000000000000000000000000000000000
310
00000000000000000000000000000000000000000000000000000000000000000000000000000000000000000000000000000000000000000000000000000000000000000000000000000000000000000000000000000000000000000000000000000000000000000000000000000000000000000000000000000000000000
310
00000000000000000000000000000000000000000000000000000000000000000000000000000000000000000000000000000000000000000000000000000000000000000000000000000000000000000000000000000000000000000000000000000000000000000000000000000000000000000000000000000000000000
310
00000000000000000000000000000000000000000000000000000000000000000000000000000000000000000000000000000000000000000000000000000000000000000000000000000000000000000000000000000000000000000000000000000000000000000000000000000000000000000000000000000000000000
310
00000000000000000000000000000000000000000000000000000000000000000000000000000000000000000000000000000000000000000000000000000000000000000000000000000000000000000000000000000000000000000000000000000000000000000000000000000000000000000000000000000000000000
310
00000000000000000000000000000000000000000000000000000000000000000000000000000000000000000000000000000000000000000000000000000000000000000000000000000000000000000000000000000000000000000000000000000000000000000000000000000000000000000000000000000000000000
310
00000000000000000000000000000000000000000000000000000000000000000000000000000000000000000000000000000000000000000000000000000000000000000000000000000000000000000000000000000000000000000000000000000000000000000000000000000000000000000000000000000000000000
310
00000000000000000000000000000000000000000000000000000000000000000000000000000000000000000000000000000000000000000000000000000000000000000000000000000000000000000000000000000000000000000000000000000000000000000000000000000000000000000000000000000000000000
310
00000000000000000000000000000000000000000000000000000000000000000000000000000000000000000000000000000000000000000000000000000000000000000000000000000000000000000000000000000000000000000000000000000000000000000000000000000000000000000000000000000000000000
310
00000000000000000000000000000000000000000000000000000000000000000000000000000000000000000000000000000000000000000000000000000000000000000000000000000000000000000000000000000000000000000000000000000000000000000000000000000000000000000000000000000000000000
310
00000000000000000000000000000000000000000000000000000000000000000000000000000000000000000000000000000000000000000000000000000000000000000000000000000000000000000000000000000000000000000000000000000000000000000000000000000000000000000000000000000000000000
310
00000000000000000000000000000000000000000000000000000000000000000000000000000000000000000000000000000000000000000000000000000000000000000000000000000000000000000000000000000000000000000000000000000000000000000000000000000000000000000000000000000000000000
310
00000000000000000000000000000000000000000000000000000000000000000000000000000000000000000000000000000000000000000000000000000000000000000000000000000000000000000000000000000000000000000000000000000000000000000000000000000000000000000000000000000000000000
310
00000000000000000000000000000000000000000000000000000000000000000000000000000000000000000000000000000000000000000000000000000000000000000000000000000000000000000000000000000000000000000000000000000000000000000000000000000000000000000000000000000000000000
310
00000000000000000000000000000000000000000000000000000000000000000000000000000000000000000000000000000000000000000000000000000000000000000000000000000000000000000000000000000000000000000000000000000000000000000000000000000000000000000000000000000000000000
310
00000000000000000000000000000000000000000000000000000000000000000000000000000000000000000000000000000000000000000000000000000000000000000000000000000000000000000000000000000000000000000000000000000000000000000000000000000000000000000000000000000000000000
310
000000000000000000000000000000000000000000000000000000000000000000000000000000000000000000000000000000000000000000000000000000000000000000000000000000000000000000000000000000000000000000000000000000000000000000000000000000000000000000000000BEBEBEBEBEBEBE
310
BEBEBEBEBEBEBEBEBEBEBEBEBEBEBEBEBEBEBEBEBEBEBEBE00000000000000000000000000000000000000000000000000000000000000000000000000000000000000000000000000000000000000000000000000000000000000000000000000000000000000000000000000000000000000000000000000000000000000
310
00000000000000000000000000000000000000000000000000000000000000000000000000000000000000000000000000000000000000000000000000000000000000000000000000000000000000000000000000000000000000000000000000000000000000000000000000000000000000000000000000000028000028
310
00282828282828282828000000000000000000000000000000000000000000000000000000000000000000000000000000000000000000000000000000000000000000000000000000000000000000000000000000000000000000000000000000000000000000000000000000000000000000000000000000000000000000
310
00000000000000000000000000000000000000000000000000000000000000000000000000000000000000000000000000000000000000000000000000000000000000000000000000000000000000000000000000000000000000000000000000000000000000000000000000000000000000000000000000000000002828
310
00282828282828002828282800000000000028282828282828282828000000000000000000000000000000000000000000000000000000000000000000000000000000000000000000000000000000000000000000000000000000000000000000000000000000000000000000000000000000000000000000000000000000
310
00000000000000000000000000000000000000000000000000000000000000000000000000000000000000000000000000000000000000000000000000000000000000000000000000000000000000000000000000000000000000000000000000000000000000000000000000000000000000000000000000000000000000
310
28002828282828002828002828280000000000002828282828282828282800000000000000000000000000000000000000000000000000000000000000000000000000000000000000000000000000000000000000000000000000000000000000000000000000000000000000000000000000000000000000000000000000
310
00000000000000000000000000000000000000000000000000000000000000000000000000000000000000000000000000000000000000000000000000000000000000000000000000000000000000000000000000000000000000000000000000000000000000000000000000000000000000000000000000000000000000
310
00BEBEBEBEBEBEBEBEBEBEBEBEBEBEBEBEBEBEBEBEBE28282828BEBE28BE28BE0000000000000000000000000000000000000000000000000000000000000000000000000000000000000000000000000000000000000000000000000000000000000000000000000000000000000000000000000000000000000000000000
310
00000000000000000000000000000000000000000000000000000000000000000000000000000000000000000000000000000000000000000000000000000000000000000000000000000000000000000000000000000000000000000000000000000000000000000000000000000000000000000000000000000000000000
310
00000000000000000000000000000000000000000000000000000000000000000000000000000000000000000000000000000000000000000000000000000000000000000000000000000000000000000000000000000000000000000000000000000000000000000000000000000000000000000000000000000000000000
310
00000000000000000000000000000000000000000000000000000000000000000000000000000000000000000000000000000000000000000000000000000000000000000000000000000000000000000000000000000000000000000000000000000000000000000000000000000000000000000000000000000000000000
310
00000000000000000000000000000000000000000000000000000000000000000000000000000000000000000000000000000000000000000000000000000000000000000000000000000000000000000000000000000000000000000000000000000000000000000000000000000000000000000000000000000000000000
310
00000000000000000000000000000000000000000000000000000000000000000000000000000000000000000000000000000000000000000000000000000000000000000000000000000000000000000000000000000000000000000000000000000000000000000000000000000000000000000000000000000000000000
310
00000000000000000000000000000000000000000000000000000000000000000000000000000000000000000000000000000000000000000000000000000000000000000000000000000000000000000000000000000000000000000000000000000000000000000000000000000000000000000000000000000000000000
310
00000000000000000000000000000000000000000000000000000000000000000000000000000000000000000000000000000000000000000000000000000000000000000000000000000000000000000000000000000000000000000000000000000000000000000000000000000000000000000000000000000000000000
310
00000000000000000000000000000000000000000000000000000000000000000000000000000000000000000000000000000000000000000000000000000000000000000000000000000000000000000000000000000000000000000000000000000000000000000000000000000000000000000000000000000000000000
310
00000000000000000000000000000000000000000000000000000000000000000000000000000000000000000000000000000000000000000000000000000000000000000000000000000000000000000000000000000000000000000000000000000000000000000000000000000000000000000000000000000000000000
310
00000000000000000000000000000000000000000000000000000000000000000000000000000000000000000000000000000000000000000000000000000000000000000000000000000000000000000000000000000000000000000000000000000000000000000000000000000000000000000000000000000000000000
310
00000000000000000000000000000000000000000000000000000000000000000000000000000000000000000000000000000000000000000000000000000000000000000000000000000000000000000000000000000000000000000000000000000000000000000000000000000000000000000000000000000000000000
310
00000000000000000000000000000000000000000000000000000000000000000000000000000000000000000000000000000000000000000000000000000000000000000000000000000000000000000000000000000000000000000000000000000000000000000000000000000000000000000000000000000000000000
310
00000000000000000000000000000000000000000000000000000000000000000000000000000000000000000000000000000000000000000000000000000000000000000000000000000000000000000000000000000000000000000000000000000000000000000000000000000000000000000000000000000000000000
310
00000000000000000000000000000000000000000000000000000000000000000000000000000000000000000000000000000000000000000000000000000000000000000000000000000000000000000000000000000000000000000000000000000000000000000000000000000000000000000000000000000000000000
310
00000000000000000000000000000000000000000000000000000000000000000000000000000000000000000000000000000000000000000000000000000000000000000000000000000000000000000000000000000000000000000000000000000000000000000000000000000000000000000000000000000000000000
310
00000000000000000000000000000000000000000000000000000000000000000000000000000000000000000000000000000000000000000000000000000000000000000000000000000000000000000000000000000000000000000000000000000000000000000000000000000000000000000000000000000000000000
310
00000000000000000000000000000000000000000000000000000000000000000000000000000000000000000000000000000000000000000000000000000000000000000000000000000000000000000000000000000000000000000000000000000000000000000000000000000000000000000000000000000000000000
310
0000000000000000000000000000000000000000000000000000B8707070707070700000F5F5F5F5F5F5F500000000000000000000000000000000F5F5F5F5F5F5F5F5F5F5F5F5F5F5F5F5F5F5F5F5F5F5F5F5F5F5F5F5F5F5F5F5F5F5F5F5F5F5F5F5F5F5F5F5F5F5F5F5F5F5F5F5F5F5F5F5F5F5F5F5F5F5F5F5F5F5F5F5
310
F5F5F5F5F5F5F5F5F5F5F5F5F5F5F5F5F5F5F5F5F5F5F5F5F5F5F5F5F5F5F5F5F5F5F5F5F5F5F5F5F5F5F5F5F5F5F5F5F5F5F5F5F5F5F5F5F5F5F5F5F5F5F5F5F5F5F5F5F5F5F5F5F5F5F5F5F5F5F5F5F5F5F5F5F5F5F5F5F5F5F5F5F5F5F5F5F5F5F5F5F5F5F5F5F5F5F5F5F5F5F5F5F5F5F5F5F5F5F5F5F5F5F5F5F5F5F5
310
F5F5F5F5F5F5F5F5F5F5F5F5F5F5F5F5F5F5F5F5F500000000000000B8B80000000000000000F50000000000F500000000000000000000000000000000000000000000000000000000000000000000000000000000000000000000000000000000000000000000000000000000000000000000000000000000000000000000
310
00000000000000000000000000000000000000000000000000000000000000000000000000000000000000000000000000000000000000000000000000000000000000000000000000000000000000000000000000000000000000000000000000000000000000000000000000000000000000000000000000000000000000
310
00000000000000000000000000000000000000000000000000000000000000B80000000000000000F50000000000F50000000000000000000000000000000000000000000000000000000000000000000000000000000000000000000000000000000000000000000000000000000000000000000000000000000000000000
310
00000000000000000000000000000000000000000000000000000000000000000000000000000000000000000000000000000000000000000000000000000000000000000000000000000000000000000000000000000000000000000000000000000000000000000000000000000000000000000000000000000000000000
310
000000000000000000000000000000000000000000000000000000000000000000B80000000000000000F50000000000F5000000000000000000000000000000000000000000000000000000000000000000000000000000000000000000000000000000000000000000000000000000000000000000000000000000000000
310
00000000000000000000000000000000000000000000000000000000000000000000000000000000000000000000000000000000000000000000000000000000000000000000000000000000000000000000000000000000000000000000000000000000000000000000000000000000000000000000000000000000000000
310
0000000000000000000000000000000000000000000000000000000000000000000000B80000000000000000F50000000000F5F5F5F5F5000000000000000000000000F5F5F5F5F5F5F5F5F5F5F5F5F5F5F5F5F5F5F5F5F5F5F5F5F5F5F5F5F5F5F5F5F5F5F5F5F5F5F5F5F5F5F5F5F5F5F5F5F5F5F5F5F5F5F5F5F5F5F5F5
310
F5F5F5F5F5F5F5F5F5F5F5F5F5F5F5F5F5F5F5F5F5F5F5F5F5F5F5F5F5F5F5F5F5F5F5F5F5F5F5F5F5F5F5F5F5F5F5F5F5F5F5F5F5F5F5F5F5F5F5F5F5F5F5F5F5F5F5F5F5F5F5F5F5F5F5F5F5F5F5F5F5F5F5F5F5F5F5F5F5F5F5F5F5F5F5F5F5F5F5F5F5F5F5F5F5F5F5F5F5F5F5F5F5F5F5F5F5F5F5F5F5F5F5F5F5F5F5
310
F5F5F5F5F5F5F5F5F5F5F5F5F5F5F5F5F5F5F5F5F5F5F5F5F5F5F5F5F50000000000000000B80000000000000000F5000000000000000000F500000000000000000000000000000000000000000000000000000000000000000000000000000000000000000000000000000000000000000000000000000000000000000000
310
00000000000000000000000000000000000000000000000000000000000000000000000000000000000000000000000000000000000000000000000000000000000000000000000000000000000000000000000000000000000000000000000000000000000000000000000000000000000000000000000000000000000000
310
000000000000000000000000000000000000000000000000000000000000000000000000000000B80000000000000000F5000000000000000000F5F50000000000000000000000F5F5F5F5F5F5F5F5F5F5F5F5F5F5F5F5F5F5F5F5F5F5F5F5F5F5F5F5F5F5F5F5F5F5F5F5F5F5F5F5F5F5F5F5F5F5F5F5F5F5F5F5F5F5F5F5
310
F5F5F5F5F5F5F5F5F5F5F5F5F5F5F5F5F5F5F5F5F5F5F5F5F5F5F5F5F5F5F5F5F5F5F5F5F5F5F5F5F5F5F5F5F5F5F5F5F5F5F5F5F5F5F5F5F5F5F5F5F5F5F5F5F5F5F5F5F5F5F5F5F5F5F5F5F5F5F5F5F5F5F5F5F5F5F5F5F5F5F5F5F5F5F5F5F5F5F5F5F5F5F5F5F5F5F5F5F5F5F5F5F5F5F5F5F5F5F5F5F5F5F5F5F5F5F5
310
F5F5F5F5F5F5F5F5F5F5F5F5F5F5F5F5F5F5F5F5F5F5F5F5F5F5F5F5F5F5F5F5F50000000000000000B80000000000000000F500000000000000000000F5F50000000000000000000000F5000000F50000F5000000F50000F5000000F50000F5000000F5000000F50000F5000000F50000F5000000F50000F5000000F50000
310
F5000000F50000F5000000F50000F5000000F50000F5000000F5000000F50000F5000000F50000F5000000F50000F5000000F50000F5000000F50000F5000000F50000F5000000F5000000F50000F5000000F50000F5000000F50000F5000000F50000F5000000F50000F5000000F50000F5000000F50000F5000000F50000
310
00F50000F5000000F50000F5000000F50000F5000000F50000F5000000F50000F5F5000000000000000000B80000000000000000F50000000000000000000000F5000000000000000000000000F5000000F50000F5000000F50000F5000000F50000F5000000F5000000F50000F5000000F50000F5000000F50000F5000000
310
F50000F5000000F50000F5000000F50000F5000000F50000F5000000F5000000F50000F5000000F50000F5000000F50000F5000000F50000F5000000F50000F5000000F50000F5000000F5000000F50000F5000000F50000F5000000F50000F5000000F50000F5000000F50000F5000000F50000F5000000F50000F5000000
310
F5000000F50000F5000000F50000F5000000F50000F5000000F50000F5000000F5000000F50000000000000000B80000000000000000F500000000000000000000F5F5000000000000000000000000F5000000F50000F5000000F50000F5000000F5000000F50000F5000000F50000F5000000F50000F5000000F50000F500
310
0000F50000F5000000F50000F5000000F50000F5000000F5000000F50000F5000000F50000F5000000F50000F5000000F50000F5000000F50000F5000000F50000F5000000F50000F5000000F5000000F50000F5000000F50000F5000000F50000F5000000F50000F5000000F50000F5000000F50000F5000000F5000000F5
310
0000F5000000F50000F5000000F50000F5000000F50000F5000000F50000F5000000F5000000000000000000000000B80000000000000000F5000000000000000000F5F50000000000000000000000F5F5F5F5F5F5F5F5F5F5F5F5F5F5F5F5F5F5F5F5F5F5F5F5F5F5F5F5F5F5F5F5F5F5F5F5F5F5F5F5F5F5F5F5F5F5F5F5
310
F5F5F5F5F5F5F5F5F5F5F5F5F5F5F5F5F5F5F5F5F5F5F5F5F5F5F5F5F5F5F5F5F5F5F5F5F5F5F5F5F5F5F5F5F5F5F5F5F5F5F5F5F5F5F5F5F5F5F5F5F5F5F5F5F5F5F5F5F5F5F5F5F5F5F5F5F5F5F5F5F5F5F5F5F5F5F5F5F5F5F5F5F5F5F5F5F5F5F5F5F5F5F5F5F5F5F5F5F5F5F5F5F5F5F5F5F5F5F5F5F5F5F5F5F5F5F5
310
F5F5F5F5F5F5F5F5F5F5F5F5F5F5F5F5F5F5F5F5F5F5F5F5F5F5F5F5F5F5F5F5F5F5F5F5F5F5F5F5F50000000000000000B80000000000000000F5000000000000000000F500000000000000000000000000000000000000000000000000000000000000000000000000000000000000000000000000000000000000000000
310
00000000000000000000000000000000000000000000000000000000000000000000000000000000000000000000000000000000000000000000000000000000000000000000000000000000000000000000000000000000000000000000000000000000000000000000000000000000000000000000000000000000000000
310
000000000000000000000000000000000000000000000000000000000000000000000000000000000000000000000000000000B80000000000000000F5000000000000000000F5000000000000000000000000F5F5F5F5F5F5F5F5F5F5F5F5F5F5F5F5F5F5F5F5F5F5F5F5F5F5F5F5F5F5F5F5F5F5F5F5F5F5F5F5F5F5F5F5
310
F5F5F5F5F5F5F5F5F5F5F5F5F5F5F5F5F5F5F5F5F5F5F5F5F5F5F5F5F5F5F5F5F5F5F5F5F5F5F5F5F5F5F5F5F5F5F5F5F5F5F5F5F5F5F5F5F5F5F5F5F5F5F5F5F5F5F5F5F5F5F5F5F5F5F5F5F5F5F5F5F5F5F5F5F5F5F5F5F5F5F5F5F5F5F5F5F5F5F5F5F5F5F5F5F5F5F5F5F5F5F5F5F5F5F5F5F5F5F5F5F5F5F5F5F5F5F5
310
F5F5F5F5F5F5F5F5F5F5F5F5F5F5F5F5F5F5F5F5F5F5F5F5F5F5F5F5F5F5F5F5F5F5F5F5F5F5F5F5F5F5F5F5F50000000000000000B80000000000000000F50000000000000000F5F5000000000000000000000000000000000000000000000000000000000000000000000000000000000000000000000000000000000000
310
00000000000000000000000000000000000000000000000000000000000000000000000000000000000000000000000000000000000000000000000000000000000000000000000000000000000000000000000000000000000000000000000000000000000000000000000000000000000000000000000000000000000000
310
00000000000000000000000000000000000000000000000000000000000000000000000000000000000000000000000000000000000000B80000000000000000F500000000000000F5F50000000000000000000000000000000000000000000000000000000000000000000000000000000000000000000000000000000000
310
00000000000000000000000000000000000000000000000000000000000000000000000000000000000000000000000000000000000000000000000000000000000000000000000000000000000000000000000000000000000000000000000000000000000000000000000000000000000000000000000000000000000000
310
00000000000000000000000000000000000000000000000000000000000000000000000000000000000000000000000000000000000000B800B80000000000000000F500000000F5F5F5F50000000000000000000000000000F5F5F5F5F5F5F5F5F5F5F5F5F5F5F5F5F5F5F5F5F5F5F5F5F5F5F5F5F5F5F5F5F5F5F5F5F5F5
310
F5F5F5F5F5F5F5F5F5F5F5F5F5F5F5F5F5F5F5F5F5F5F5F5F5F5F5F5F5F5F5F5F5F5F5F5F5F5F5F5F5F5F5F5F5F5F5F5F5F5F5F5F5F5F5F5F5F5F5F5F5F5F5F5F5F5F5F5F5F5F5F5F5F5F5F5F5F5F5F5F5F5F5F5F5F5F5F5F5F5F5F5F5F5F5F5F5F5F5F5F5F5F5F5F5F5F5F5F5F5F5F5F5F5F5F5F5F5F5F5F5F5F5F5F5F5F5
310
F5F5F5F5F5F5F5F5F5F5F5F5F5F5F5F5F5F5F5F5F5F5F5F5F5F5F5F5F5F5F5F5F5F5F5F5F5F5F5F5F5F5F5F5F5F5F5F5F5F5F5000000B8B800B800B80000000000000000F500000000F50000000000000000000000000000000000000000000000000000000000000000000000000000000000000000000000000000000000
310
00000000000000000000000000000000000000000000000000000000000000000000000000000000000000000000000000000000000000000000000000000000000000000000000000000000000000000000000000000000000000000000000000000000000000000000000000000000000000000000000000000000000000
310
0000000000000000000000000000000000000000000000000000000000000000000000000000000000000000000000000000000000000000B8B8B8B800B80000000000000000F500000000F5000000000000000000000000000000000000000000000000000000000000000000000000000000000000000000000000000000
310
00000000000000000000000000000000000000000000000000000000000000000000000000000000000000000000000000000000000000000000000000000000000000000000000000000000000000000000000000000000000000000000000000000000000000000000000000000000000000000000000000000000000000
310
00000000000000000000000000000000000000000000000000000000000000000000000000000000000000000000000000000000000000000000B80000B800B80000000000000000F500000000F500000000000000000000000000000000000000000000000000000000000000000000000000000000000000000000000000
310
00000000000000000000000000000000000000000000000000000000000000000000000000000000000000000000000000000000000000000000000000000000000000000000000000000000000000000000000000000000000000000000000000000000000000000000000000000000000000000000000000000000000000
310
000000000000000000000000000000000000000000000000000000000000000000000000000000000000000000000000000000000000000000000000B8B800B800B80000000000000000F500000000F50000000000000000000000000000000000000000000000000000000000000000000000000000000000000000000000
310
00000000000000000000000000000000000000000000000000000000000000000000000000000000000000000000000000000000000000000000000000000000000000000000000000000000000000000000000000000000000000000000000000000000000000000000000000000000000000000000000000000000000000
310
0000000000000000000000000000000000000000000000000000000000000000000000000000000000000000000000000000000000000000000000000000B8B8B8B800B80000000000000000F500000000F5F5F5F50000000000000000000000000000F5F5F5F5F5F5F5F5F5F5F5F5F5F5F5F5F5F5F5F5F5F5F5F5F5F5F5F5
310
F5F5F5F5F5F5F5F5F5F5F5F5F5F5F5F5F5F5F5F5F5F5F5F5F5F5F5F5F5F5F5F5F5F5F5F5F5F5F5F5F5F5F5F5F5F5F5F5F5F5F5F5F5F5F5F5F5F5F5F5F5F5F5F5F5F5F5F5F5F5F5F5F5F5F5F5F5F5F5F5F5F5F5F5F5F5F5F5F5F5F5F5F5F5F5F5F5F5F5F5F5F5F5F5F5F5F5F5F5F5F5F5F5F5F5F5F5F5F5F5F5F5F5F5F5F5F5
310
F5F5F5F5F5F5F5F5F5F5F5F5F5F5F5F5F5F5F5F5F5F5F5F5F5F5F5F5F5F5F5F5F5F5F5F5F5F5F5F5F5F5F5F5F5F5F5F5F5F5F5F5F5F5F5F5F5F5F5F5F50000000000000000B80000000000000000F500000000000000F500000000000000000000000000000000000000000000000000000000000000000000000000000000
310
00000000000000000000000000000000000000000000000000000000000000000000000000000000000000000000000000000000000000000000000000000000000000000000000000000000000000000000000000000000000000000000000000000000000000000000000000000000000000000000000000000000000000
310
0000000000000000000000000000000000000000000000000000000000000000000000000000000000000000000000000000000000000000000000000000000000000000000000B80000000000000000F50000000000000000F5F5000000000000000000000000000000000000000000000000000000000000000000000000
310
00000000000000000000000000000000000000000000000000000000000000000000000000000000000000000000000000000000000000000000000000000000000000000000000000000000000000000000000000000000000000000000000000000000000000000000000000000000000000000000000000000000000000
310
00000000000000000000000000000000000000000000000000000000000000000000000000000000000000000000000000000000000000000000000000000000000000000000000000B80000000000000000F5000000000000000000F5000000000000000000000000F5F5F5F5F5F5F5F5F5F5F5F5F5F5F5F5F5F5F5F5F5F5
310
F5F5F5F5F5F5F5F5F5F5F5F5F5F5F5F5F5F5F5F5F5F5F5F5F5F5F5F5F5F5F5F5F5F5F5F5F5F5F5F5F5F5F5F5F5F5F5F5F5F5F5F5F5F5F5F5F5F5F5F5F5F5F5F5F5F5F5F5F5F5F5F5F5F5F5F5F5F5F5F5F5F5F5F5F5F5F5F5F5F5F5F5F5F5F5F5F5F5F5F5F5F5F5F5F5F5F5F5F5F5F5F5F5F5F5F5F5F5F5F5F5F5F5F5F5F5F5
310
F5F5F5F5F5F5F5F5F5F5F5F5F5F5F5F5F5F5F5F5F5F5F5F5F5F5F5F5F5F5F5F5F5F5F5F5F5F5F5F5F5F5F5F5F5F5F5F5F5F5F5F5F5F5F5F5F5F5F5F5F5F5F5F5F5F5F50000000000000000B80000000000000000F5000000000000000000F50000000000000000000000000000000000000000000000000000000000000000
310
00000000000000000000000000000000000000000000000000000000000000000000000000000000000000000000000000000000000000000000000000000000000000000000000000000000000000000000000000000000000000000000000000000000000000000000000000000000000000000000000000000000000000
310
0000000000000000000000000000000000000000000000000000000000000000000000000000000000000000000000000000000000000000000000000000000000000000000000000000000000B80000000000000000F5000000000000000000F5F5000000000000000000000000F5F5F500F5F5F5F5F5F500F5F5F5F5F5F5
310
00F5F5F5F5F5F500F5F5F5F5F5F500F5F5F5F5F5F500F5F5F5F5F5F500F5F5F5F5F5F5F5F5F5F500F5F5F5F5F5F500F5F5F5F5F5F500F5F5F5F5F5F500F5F5F5F5F5F500F5F5F5F5F5F500F5F5F5F5F5F5F5F5F5F5F5F5F5F5F5F5F500F5F5F5F5F5F500F5F5F5F5F5F500F5F5F5F5F5F500F5F5F5F5F5F500F5F5F5F5F5F5
310
00F5F5F5F5F5F5F5F5F5F500F5F5F5F5F5F500F5F5F5F5F5F500F5F5F5F5F5F500F5F5F5F5F5F500F5F5F5F5F5F500F5F5F5F5F5F5F5F5F5F5F5F5F5F5F5F5F500F5F5F5F5F5F50000000000000000B80000000000000000F500000000000000000000F5F500000000000000000000F5F500F5F50000F5F500F5F50000F5F5
310
00F5F5F500F5F500F5F5F500F5F500F5F5F500F5F50000F5F500F5F50000F5F500F5F50000F5F500F5F50000F5F500F5F50000F5F500F5F5F500F5F500F5F5F500F5F50000F5F500F5F50000F5F500F5F50000F5F500F5F50000F5F500F5F50000F5F500F5F5F500F5F500F5F5F500F5F500F5F5F500F5F50000F5F500F5F5
310
0000F5F500F5F50000F5F500F5F50000F5F500F5F50000F5F500F5F5F500F5F500F5F5F500F5F50000F5F500F5F50000F5F500F5F50000F5F500F5F50000F5F500F5F50000F5F500000000000000000000B80000000000000000F50000000000000000000000F50000000000000000000000F5000000F50000F5000000F500
310
00F5000000F50000F5000000F5000000F50000F5000000F50000F5000000F50000F5000000F50000F5000000F50000F5000000F50000F5000000F50000F5000000F5000000F50000F5000000F50000F5000000F50000F5000000F50000F5000000F50000F5000000F50000F5000000F5000000F50000F5000000F50000F500
310
0000F50000F5000000F50000F5000000F50000F5000000F50000F5000000F50000F5000000F5000000F50000F5000000F50000F5000000F50000F5000000F50000F5000000F50000F5F5000000000000000000B80000000000000000F50000000000000000000000F5000000000000000000000000F5000000F50000F50000
310
00F50000F5000000F50000F5F50000F5000000F50000F5000000F50000F5000000F50000F5000000F50000F5000000F50000F5000000F50000F5000000F50000F5F50000F5000000F50000F5000000F50000F5000000F50000F5000000F50000F5000000F50000F5000000F50000F5000000F5000000F50000F5000000F500
310
00F5000000F50000F5000000F50000F5000000F50000F5000000F50000F5000000F50000F5F50000F5000000F50000F5000000F50000F5000000F50000F5000000F50000F5000000F5000000F50000000000000000B80000000000000000F500000000000000000000F50000000000000000000000000000F5F500F5F50000
310
F5F50000F50000F5F50000F50000F5F50000F50000F5F50000F50000F5F50000F5F500F5F50000F5F500F5F50000F5F50000F50000F5F50000F50000F5F50000F50000F5F50000F50000F5F50000F50000F5F50000F5F500F5F50000F5F500F5F50000F5F50000F50000F5F50000F50000F5F50000F50000F5F50000F50000
310
F5F50000F5F500F5F50000F5F500F5F50000F5F50000F50000F5F50000F50000F5F50000F50000F5F50000F50000F5F50000F50000F5F50000F5F500F5F50000F5F500F5F50000F5F50000F50000000000000000000000B80000000000000000F5000000000000000000F5000000000000000000000000F5F5F5F5F5F5F5F5
310
F5F5F5F5F5F5F5F5F5F5F5F5F5F5F5F5F5F5F5F5F5F5F5F5F5F5F5F5F5F5F5F5F5F5F5F5F5F5F5F5F5F5F5F5F5F5F5F5F5F5F5F5F5F5F5F5F5F5F5F5F5F5F5F5F5F5F5F5F5F5F5F5F5F5F5F5F5F5F5F5F5F5F5F5F5F5F5F5F5F5F5F5F5F5F5F5F5F5F5F5F5F5F5F5F5F5F5F5F5F5F5F5F5F5F5F5F5F5F5F5F5F5F5F5F5F5F5
310
F5F5F5F5F5F5F5F5F5F5F5F5F5F5F5F5F5F5F5F5F5F5F5F5F5F5F5F5F5F5F5F5F5F5F5F5F5F5F5F5F5F5F5F5F5F5F5F5F5F5F5F5F5F5F5F5F5F5F5F5F5F5F5F5F5F5F5F5F5F5F5F5F5F5F5F5F5F5F5F5F50000000000000000B80000000000000000F5000000000000000000F5000000000000000000000000000000000000
310
00000000000000000000000000000000000000000000000000000000000000000000000000000000000000000000000000000000000000000000000000000000000000000000000000000000000000000000000000000000000000000000000000000000000000000000000000000000000000000000000000000000000000
310
00000000000000000000000000000000000000000000000000000000000000000000000000000000000000000000000000000000000000000000000000000000000000000000000000000000000000000000000000000000000000B80000000000000000F50000000000F5F5F5F5F5000000000000000000000000F5F5F5F5
310
F5F5F5F5F5F5F5F5F5F5F5F5F5F5F5F5F5F5F5F5F5F5F5F5F5F5F5F5F5F5F5F5F5F5F5F5F5F5F5F5F5F5F5F5F5F5F5F5F5F5F5F5F5F5F5F5F5F5F5F5F5F5F5F5F5F5F5F5F5F5F5F5F5F5F5F5F5F5F5F5F5F5F5F5F5F5F5F5F5F5F5F5F5F5F5F5F5F5F5F5F5F5F5F5F5F5F5F5F5F5F5F5F5F5F5F5F5F5F5F5F5F5F5F5F5F5F5
310
F5F5F5F5F5F5F5F5F5F5F5F5F5F5F5F5F5F5F5F5F5F5F5F5F5F5F5F5F5F5F5F5F5F5F5F5F5F5F5F5F5F5F5F5F5F5F5F5F5F5F5F5F5F5F5F5F5F5F5F5F5F5F5F5F5F5F5F5F5F5F5F5F5F5F5F5F5F5F5F5F5F5F5F5F50000000000000000B80000000000000000F50000000000F5000000000000000000000000000000000000
310
00000000000000000000000000000000000000000000000000000000000000000000000000000000000000000000000000000000000000000000000000000000000000000000000000000000000000000000000000000000000000000000000000000000000000000000000000000000000000000000000000000000000000
310
0000000000000000000000000000000000000000000000000000000000000000000000000000000000000000000000000000000000000000000000000000000000000000000000000000000000000000000000000000000000000000000000B80000000000000000F50000000000F500000000000000000000000000000000
310
00000000000000000000000000000000000000000000000000000000000000000000000000000000000000000000000000000000000000000000000000000000000000000000000000000000000000000000000000000000000000000000000000000000000000000000000000000000000000000000000000000000000000
310
000000000000000000000000000000000000000000000000000000000000000000000000000000000000000000000000000000000000000000000000000000000000000000000000000000000000000000000000000000000000000000000000B8B87070707070700000F5F5F5F5F5F5F50000000000700000000000000000
310
0000F5F5F5F5F5F5F5F5F5F5F5F5F5F5F5F5F5F5F5F5F5F5F5F5F5F5F5F5F5F5F5F5F5F5F5F5F5F5F5F5F5F5F5F5F5F5F5F5F5F5F5F5F5F5F5F5F5F5F5F5F5F5F5F5F5F5F5F5F5F5F5F5F5F5F5F5F5F5F5F5F5F5F5F5F5F5F5F5F5F5F5F5F5F5F5F5F5F5F5F5F5F5F5F5F5F5F5F5F5F5F5F5F5F5F5F5F5F5F5F5F5F5F5F5F5
310
F5F5F5F5F5F5F5F5F5F5F5F5F5F5F5F5F5F5F5F5F5F5F5F5F5F5F5F5F5F5F5F5F5F5F5F5F5F5F5F5F5F5F5F5F5F5F5F5F5F5F5F5F5F5F5F5F5F5F5F5F5F5F5F5F5F5F5F5F5F5F5F5F5F5F5F5F5F5F5F5F5F5F5F5F5F5F5F5F5F5F5000000000000000000000000000000000000000000000000000000000000000000000000
310
00000000000000000000000000000000000000000000000000000000000000000000000000000000000000000000000000000000000000000000000000000000000000000000000000000000000000000000000000000000000000000000000000000000000000000000000000000000000000000000000000000000000000
310
00000000000000000000000000000000000000000000000000000000000000000000000000000000000000000000000000000000000000000000000000000000000000000000000000000000000000000000000000000000000000000000000000000000000000000000000000000000000000000000000000000000000000
310
00000000000000000000000000000000000000000000000000000000000000000000000000000000000000000000000000000000000000000000000000000000000000000000000000000000000000000000000000000000000000000000000000000000000000000000000000000000000000000000000000000000000000
310
00000000000000000000000000000000000000000000000000000000000000000000000000000000000000000000000000000000000000000000000000000000000000000000000000000000000000000000000000000000000000000000000000000000000000000000000000000000700000000000000000000000700000
310
00000000000000000000000000000000000000000000000000000000000000000000000000000000000000000000000000000000000000000000000000000000000000000000000000000000000000000000000000000000000000000000000000000000000000000000000000000000000000000000000000000000000000
310
00000000000000000000000000000000000000000000000000000000000000000000000000000000000000000000000000000000000000000000000000000000000000000000000000000000000000000000000000000000000000000000000000000000000000000000000000000000000070000000000000000000000070
310
00000000000000000000000000000000000000000000000000000000000000000000000000000000000000000000000000000000000000000000000000000000000000000000000000000000000000000000000000000000000000000000000000000000000000000000000000000000000000000000000000000000000000
310
00000000000000000000000000000000000000000000000000000000000000000000000000000000000000000000000000000000000000000000000000000000000000000000000000000000000000000000000000000000000000000000000000000000000000000000000000000000000000007000000000000000000000
310
00700000000000000000000000000000000000000000000000000000000000000000000000000000000000000000000000000000000000000000000000000000000000000000000000000000000000000000000000000000000000000000000000000000000000000000000000000000000000000000000000000000000000
310
00000000000000000000000000000000000000000000000000000000000000000000000000000000000000000000000000000000000000000000000000000000000000000000000000000000000000000000000000000000000000000000000000000000000000000000000000000000000000000000700000000000000000
310
00000070000000000000000000000000000000000000000000000000000000000000000000000000000000000000000000000000000000000000000000000000000000000000000000000000000000000000000000000000000000000000000000000000000000000000000000000000000000000000000000000000000000
310
00000000000000000000000000000000000000000000000000000000000000000000000000000000000000000000000000000000000000000000000000000000000000000000000000000000000000000000000000000000000000000000000000000000000000000000000000000000000000000000000070000000000000
310
00000000007000000000000000000000000000000000000000000000000000000000000000000000000000000000000000000000000000000000000000000000000000000000000000000000000000000000000000000000000000000000000000000000000000000000000000000000000000000000000000000000000000
310
0000000000000000000000000000000000000000000000000000000000000000000000000000000000000000000000000000000000000000000000000000000000000000000000000000000000000000000000000000000000000000000000000000000000000000000000000000000000000000000000000000B8B8B8B8B8
310
B8B8B8B8B8B8B8700000000000000000000000000000000000000000000000000000000000000000000000000000000000000000000000000000000000000000000000000000000000000000000000000000000000000000000000000000000000000000000000000000000000000000000000000000000000000000000000
310
00000000000000000000000000000000000000000000000000000000000000000000000000000000000000000000000000000000000000000000000000000000000000000000000000000000000000000000000000000000000000000000000000000000000000000000000000000000000000000000000000000000000000
310
00B800B8B8B800000000000000000000000000000000000000000000000000000000000000000000000000000000000000000000000000000000000000000000000000000000000000000000000000000000000000000000000000000000000000000000000000000000000000000000000000000000000000000000000000
310
00000000000000000000000000000000000000000000000000000000000000000000000000000000000000000000000000000000000000000000000000000000000000000000000000000000000000000000000000000000000000000000000000000000000000000000000000000000000000000000000000000000000000
310
000000B800B800B80000000000000000000000000000000000000000000000000000000000000000000000000000000000000000000000000000000000000000000000000000000000000000000000000000000000000000000000000000000000000000000000000000000000000000000000000000000000000000000000
310
00000000000000000000000000000000000000000000000000000000000000000000000000000000000000000000000000000000000000000000000000000000000000000000000000000000000000000000000000000000000000000000000000000000000000000000000000000000000000000000000000000000000000
310
0000000000B800B8B8B8000000000000000000000000000000000000000000000000000000000000000000000000000000000000000000000000000000000000000000000000000000000000000000000000000000000000000000000000000000000000000000000000000000000000000000000000000000000000000000
310
00000000000000000000000000000000000000000000000000000000000000000000000000000000000000000000000000000000000000000000000000000000000000000000000000000000000000000000000000000000000000000000000000000000000000000000000000000000000000000000000000000000000000
310
00000000000000B800B8B8B800000000000000000000000000000000000000000000000000000000000000000000000000000000000000000000000000000000000000000000000000000000000000000000000000000000000000000000000000000000000000000000000000000000000000000000000000000000000000
310
00000000000000000000000000000000000000000000000000000000000000000000000000000000000000000000000000000000000000000000000000000000000000000000000000000000000000000000000000000000000000000000000000000000000000000000000000000000000000000000000000000000000000
310
000000000000000000B800B8B8B80000000000000000000000000000000000000000000000000000000000000000000000000000000000000000000000000000000000000000000000000000000000000000000000000000000000000000000000000000000000000000000000000000000000000000000000000000000000
310
00000000000000000000000000000000000000000000000000000000000000000000000000000000000000000000000000000000000000000000000000000000000000000000000000000000000000000000000000000000000000000000000000000000000000000000000000000000000000000000000000000000000000
310
00000000000000000000000000000000000000000000000000000000000000000000000000000000000000000000000000000000000000000000000000000000000000000000000000000000000000000000000000000000000000000000000000000000000000000000000000000000000000000000000000000000000000
310
00000000000000000000000000000000000000000000000000000000000000000000000000000000000000000000000000000000000000000000000000000000000000000000000000000000000000000000000000000000000000000000000000000000000000000000000000000000000000000000000000000000000000
310
00000000000000000000000000000000000000000000000000000000000000000000000000000000000000000000000000000000000000000000000000000000000000000000000000000000000000000000000000000000000000000000000000000000000000000000000000000000000000000000000000000000000000
310
00000000000000000000000000000000000000000000000000000000000000000000000000000000000000000000000000000000000000000000000000000000000000000000000000000000000000000000000000000000000000000000000000000000000000000000000000000000000000000000000000000000000000
310
00000000000000000000000000000000000000000000000000000000000000000000000000000000000000000000000000000000000000000000000000000000000000000000000000000000000000000000000000000000000000000000000000000000000000000000000000000000000000000000000000000000000000
310
00000000000000000000000000000000000000000000000000000000000000000000000000000000000000000000000000000000000000000000000000000000000000000000000000000000000000000000000000000000000000000000000000000000000000000000000000000000000000000000000000000000000000
310
00000000000000000000000000000000000000000000000000000000000000000000000000000000000000000000000000000000000000000000000000000000000000000000000000000000000000000000000000000000000000000000000000000000000000000000000000000000000000000000000000000000000000
310
00000000000000000000000000000000000000000000000000000000000000000000000000000000000000000000000000000000000000000000000000000000000000000000000000000000000000000000000000000000000000000000000000000000000000000000000000000000000000000000000000000000000000
310
00000000000000000000000000000000000000000000000000000000000000000000000000000000000000000000000000000000000000000000000000000000000000000000000000000000000000000000000000000000000000000000000000000000000000000000000000000000000000000000000000000000000000
310
00000000000000000000000000000000000000000000000000000000000000000000000000000000000000000000000000000000000000000000000000000000000000000000000000000000000000000000000000000000000000000000000000000000000000000000000000000000000000000000000000000000000000
310
00000000000000000000000000000000000000000000000000000000000000000000000000000000000000000000000000000000000000000000000000000000000000000000000000000000000000000000000000000000000000000000000000000000000000000000000000000000000000000000000000000000000000
310
00000000000000000000000000000000000000000000000000000000000000000000000000000000000000000000000000000000000000000000000000000000000000000000000000000000000000000000000000000000000000000000000000000000000000000000000000000000000000000000000000000000000000
310
00000000000000000000000000000000000000000000000000000000000000000000000000000000000000000000000000000000000000000000000000000000000000000000000000000000000000000000000000000000000000000000000000000000000000000000000000000000000000000000000000000000000000
310
00000000000000000000000000000000000000000000000000000000000000000000000000000000000000000000000000000000000000000000000000000000000000000000000000000000000000000000000000000000000000000000000000000000000000000000000000000000000000000000000000000000000000
310
00000000000000000000000000000000000000000000000000000000000000000000000000000000000000000000000000000000000000000000000000000000000000000000000000000000000000000000000000000000000000000000000000000000000000000000000000000000000000000000000000000000000000
310
00000000000000000000000000000000000000000000000000000000000000000000000000000000000000000000000000000000000000000000000000000000000000000000000000000000000000000000000000000000000000000000000000000000000000000000000000000000000000000000000000000000000000
310
00000000000000000000000000000000000000000000000000000000000000000000000000000000000000000000000000000000000000000000000000000000000000000000000000000000000000000000000000000000000000000000000000000000000000000000000000000000000000000000000000000000000000
310
00000000000000000000000000000000000000000000000000000000000000000000000000000000000000000000000000000000000000000000000000000000000000000000000000000000000000000000000000000000000000000000000000000000000000000000000000000000000000000000000000000000000000
310
00000000000000000000000000000000000000000000000000000000000000000000000000000000000000000000000000000000000000000000000000000000000000000000000000000000000000000000000000000000000000000000000000000000000000000000000000000000000000000000000000000000000000
310
00000000000000000000000000000000000000000000000000000000000000000000000000000000000000000000000000000000000000000000000000000000000000000000000000000000000000000000000000000000000000000000000000000000000000000000000000000000000000000000000000000000000000
310
00000000000000000000000000000000000000000000000000000000000000000000000000000000000000000000000000000000000000000000000000000000000000000000000000000000000000000000000000000000000000000000000000000000000000000000000000000000000000000000000000000000000000
310
00000000000000000000000000000000000000000000000000000000000000000000000000000000000000000000000000000000000000000000000000000000000000000000000000000000000000000000000000000000000000000000000000000000000000000000000000000000000000000000000000000000000000
310
00000000000000000000000000000000000000000000000000000000000000000000000000000000000000000000000000000000000000000000000000000000000000000000000000000000000000000000000000000000000000000000000000000000000000000000000000000000000000000000000000000000000000
310
00000000000000000000000000000000000000000000000000000000000000000000000000000000000000000000000000000000000000000000000000000000000000000000000000000000000000000000000000000000000000000000000000000000000000000000000000000000000000000000000000000000000000
310
00000000000000000000000000000000000000000000000000000000000000000000000000000000000000000000000000000000000000000000000000000000000000000000000000000000000000000000000000000000000000000000000000000000000000000000000000000000000000000000000000000000000000
310
00000000000000000000000000000000000000000000000000000000000000000000000000000000000000000000000000000000000000000000000000000000000000000000000000000000000000000000000000000000000000000000000000000000000000000000000000000000000000000000000000000000000000
310
00000000000000000000000000000000000000000000000000000000000000000000000000000000000000000000000000000000000000000000000000000000000000000000000000000000000000000000000000000000000000000000000000000000000000000000000000000000000000000000000000000000000000
310
00000000000000000000000000000000000000000000000000000000000000000000000000000000000000000000000000000000000000000000000000000000000000000000000000000000000000000000000000000000000000000000000000000000000000000000000000000000000000000000000000000000000000
310
00000000000000000000000000000000000000000000000000000000000000000000000000000000000000000000000000000000000000000000000000000000000000000000000000000000000000000000000000000000000000000000000000000000000000000000000000000000000000000000000000000000000000
310
00000000000000000000000000000000000000000000000000000000000000000000000000000000000000000000000000000000000000000000000000000000000000000000000000000000000000000000000000000000000000000000000000000000000000000000000000000000000000000000000000000000000000
310
00000000000000000000000000000000000000000000000000000000000000000000000000000000000000000000000000000000000000000000000000000000000000000000000000000000000000000000000000000000000000000000000000000000000000000000000000000000000000000000000000000000000000
310
00000000000000000000000000000000000000000000000000000000000000000000000000000000000000000000000000000000000000000000000000000000000000000000000000000000000000000000000000000000000000000000000000000000000000000000000000000000000000000000000000000000000000
310
00000000000000000000000000000000000000000000000000000000000000000000000000000000000000000000000000000000000000000000000000000000000000000000000000000000000000000000000000000000000000000000000000000000000000000000000000000000000000000000000000000000000000
310
00000000000000000000000000000000000000000000000000000000000000000000000000000000000000000000000000000000000000000000000000000000000000000000000000000000000000000000000000000000000000000000000000000000000000000000000000000000000000000000000000000000000000
310
00000000000000000000000000000000000000000000000000000000000000000000000000000000000000000000000000000000000000000000000000000000000000000000000000000000000000000000000000000000000000000000000000000000000000000000000000000000000000000000000000000000000000
310
00000000000000000000000000000000000000000000000000000000000000000000000000000000000000000000000000000000000000000000000000000000000000000000000000000000000000000000000000000000000000000000000000000000000000000000000000000000000000000000000000000000000000
310
00000000000000000000000000000000000000000000000000000000000000000000000000000000000000000000000000000000000000000000000000000000000000000000000000000000000000000000000000000000000000000000000000000000000000000000000000000000000000000000000000000000000000
310
00000000000000000000000000000000000000000000000000000000000000000000000000000000000000000000000000000000000000000000000000000000000000000000000000000000000000000000000000000000000000000000000000000000000000000000000000000000000000000000000000000000000000
310
00000000000000000000000000000000000000000000000000000000000000000000000000000000000000000000000000000000000000000000000000000000000000000000000000000000000000000000000000000000000000000000000000000000000000000000000000000000000000000000000000000000000000
310
00000000000000000000000000000000000000000000000000000000000000000000000000000000000000000000000000000000000000000000000000000000000000000000000000000000000000000000000000000000000000000000000000000000000000000000000000000000000000000000000000000000000000
310
00000000000000000000000000000000000000000000000000000000000000000000000000000000000000000000000000000000000000000000000000000000000000000000000000000000000000000000000000000000000000000000000000000000000000000000000000000000000000000000000000000000000000
310
00000000000000000000000000000000000000000000000000000000000000000000000000000000000000000000000000000000000000000000000000000000000000000000000000000000000000000000000000000000000000000000000000000000000000000000000000000000000000000000000000000000000000
310
00000000000000000000000000000000000000000000000000000000000000000000000000000000000000000000000000000000000000000000000000000000000000000000000000000000000000000000000000000000000000000000000000000000000000000000000000000000000000000000000000000000000000
310
00000000000000000000000000000000000000000000000000000000000000000000000000000000000000000000000000000000000000000000000000000000000000000000000000000000000000000000000000000000000000000000000000000000000000000000000000000000000000000000000000000000000000
310
00000000000000000000000000000000000000000000000000000000000000000000000000000000000000000000000000000000000000000000000000000000000000000000000000000000000000000000000000000000000000000000000000000000000000000000000000000000000000000000000000000000000000
310
00000000000000000000000000000000000000000000000000000000000000000000000000000000000000000000000000000000000000000000000000000000000000000000000000000000000000000000000000000000000000000000000000000000000000000000000000000000000000000000000000000000000000
310
00000000000000000000000000000000000000000000000000000000000000000000000000000000000000000000000000000000000000000000000000000000000000000000000000000000000000000000000000000000000000000000000000000000000000000000000000000000000000000000000000000000000000
310
00000000000000000000000000000000000000000000000000000000000000000000000000000000000000000000000000000000000000000000000000000000000000000000000000000000000000000000000000000000000000000000000000000000000000000000000000000000000000000000000000000000000000
310
00000000000000000000000000000000000000000000000000000000000000000000000000000000000000000000000000000000000000000000000000000000000000000000000000000000000000000000000000000000000000000000000000000000000000000000000000000000000000000000000000000000000000
310
00000000000000000000000000000000000000000000000000000000000000000000000000000000000000000000000000000000000000000000000000000000000000000000000000000000000000000000000000000000000000000000000000000000000000000000000000000000000000000000000000000000000000
310
00000000000000000000000000000000000000000000000000000000000000000000000000000000000000000000000000000000000000000000000000000000000000000000000000000000000000000000000000000000000000000000000000000000000000000000000000000000000000000000000000000000000000
310
00000000000000000000000000000000000000000000000000000000000000000000000000000000000000000000000000000000000000000000000000000000000000000000000000000000000000000000000000000000000000000000000000000000000000000000000000000000000000000000000000000000000000
310
00000000000000000000000000000000000000000000000000000000000000000000000000000000000000000000000000000000000000000000000000000000000000000000000000000000000000000000000000000000000000000000000000000000000000000000000000000000000000000000000000000000000000
310
00000000000000000000000000000000000000000000000000000000000000000000000000000000000000000000000000000000000000000000000000000000000000000000000000000000000000000000000000000000000000000000000000000000000000000000000000000000000000000000000000000000000000
310
00000000000000000000000000000000000000000000000000000000000000000000000000000000000000000000000000000000000000000000000000000000000000000000000000000000000000000000000000000000000000000000000000000000000000000000000000000000000000000000000000000000000000
310
00000000000000000000000000000000000000000000000000000000000000000000000000000000000000000000000000000000000000000000000000000000000000000000000000000000000000000000000000000000000000000000000000000000000000000000000000000000000000000000000000000000000000
310
00000000000000000000000000000000000000000000000000000000000000000000000000000000000000000000000000000000000000000000000000000000000000000000000000000000000000000000000000000000000000000000000000000000000000000000000000000000000000000000000000000000000000
310
00000000000000000000000000000000000000000000000000000000000000000000000000000000000000000000000000000000000000000000000000000000000000000000000000000000000000000000000000000000000000000000000000000000000000000000000000000000000000000000000000000000000000
310
00000000000000000000000000000000000000000000000000000000000000000000000000000000000000000000000000000000000000000000000000000000000000000000000000000000000000000000000000000000000000000000000000000000000000000000000000000000000000000000000000000000000000
310
00000000000000000000000000000000000000000000000000000000000000000000000000000000000000000000000000000000000000000000000000000000000000000000000000000000000000000000000000000000000000000000000000000000000000000000000000000000000000000000000000000000000000
310
00000000000000000000000000000000000000000000000000000000000000000000000000000000000000000000000000000000000000000000000000000000000000000000000000000000000000000000000000000000000000000000000000000000000000000000000000000000000000000000000000000000000000
310
00000000000000000000000000000000000000000000000000000000000000000000000000000000000000000000000000000000000000000000000000000000000000000000000000000000000000000000000000000000000000000000000000000000000000000000000000000000000000000000000000000000000000
310
00000000000000000000000000000000000000000000000000000000000000000000000000000000000000000000000000000000000000000000000000000000000000000000000000000000000000000000000000000000000000000000000000000000000000000000000000000000000000000000000000000000000000
310
00000000000000000000000000000000000000000000000000000000000000000000000000000000000000000000000000000000000000000000000000000000000000000000000000000000000000000000000000000000000000000000000000000000000000000000000000000000000000000000000000000000000000
310
00000000000000000000000000000000000000000000000000000000000000000000000000000000000000000000000000000000000000000000000000000000000000000000000000000000000000000000000000000000000000000000000000000000000000000000000000000000000000000000000000000000000000
310
00000000000000000000000000000000000000000000000000000000000000000000000000000000000000000000000000000000000000000000000000000000000000000000000000000000000000000000000000000000000000000000000000000000000000000000000000000000000000000000000000000000000000
310
00000000000000000000000000000000000000000000000000000000000000000000000000000000000000000000000000000000000000000000000000000000000000000000000000000000000000000000000000000000000000000000000000000000000000000000000000000000000000000000000000000000000000
310
00000000000000000000000000000000000000000000000000000000000000000000000000000000000000000000000000000000000000000000000000000000000000000000000000000000000000000000000000000000000000000000000000000000000000000000000000000000000000000000000000000000000000
310
00000000000000000000000000000000000000000000000000000000000000000000000000000000000000000000000000000000000000000000000000000000000000000000000000000000000000000000000000000000000000000000000000000000000000000000000000000000000000000000000000000000000000
310
00000000000000000000000000000000000000000000000000000000000000000000000000000000000000000000000000000000000000000000000000000000000000000000000000000000000000000000000000000000000000000000000000000000000000000000000000000000000000000000000000000000000000
310
00000000000000000000000000000000000000000000000000000000000000000000000000000000000000000000000000000000000000000000000000000000000000000000000000000000000000000000000000000000000000000000000000000000000000000000000000000000000000000000000000000000000000
310
00000000000000000000000000000000000000000000000000000000000000000000000000000000000000000000000000000000000000000000000000000000000000000000000000000000000000000000000000000000000000000000000000000000000000000000000000000000000000000000000000000000000000
310
0000000000000000000000000000000000000000000000000000000000000000000000000000000000000000000000000000000000000000000000000000
  0
XRECORD
  5
3AD
102
{ACAD_REACTORS
330
3AC
102
}
330
3AC
100
AcDbXrecord
280
     1
102
SHADEPLOT
 70
     0
102
SHADEPLOTRESLEVEL
 70
     2
102
SHADEPLOTCUSTOMDPI
 70
   300
  0
XRECORD
  5
23D
102
{ACAD_REACTORS
330
40
102
}
330
40
100
AcDbXrecord
280
     1
102
MATERIAL
148
0.0
149
0.0
149
0.0
 93
        0
 94
      127
282
     0
 72
     0
 77
     0
171
     0
175
     0
179
     0
273
     0
  0
XRECORD
  5
41
102
{ACAD_REACTORS
330
40
102
}
330
40
100
AcDbXrecord
280
     1
270
     1
271
     1
  0
XRECORD
  5
42
102
{ACAD_REACTORS
330
40
102
}
330
40
100
AcDbXrecord
280
     1
270
     1
271
     1
  0
XRECORD
  5
43
102
{ACAD_REACTORS
330
40
102
}
330
40
100
AcDbXrecord
280
     1
270
     1
271
     1
  0
XRECORD
  5
44
102
{ACAD_REACTORS
330
40
102
}
330
40
100
AcDbXrecord
280
     1
270
     1
271
     1
  0
XRECORD
  5
45
102
{ACAD_REACTORS
330
40
102
}
330
40
100
AcDbXrecord
280
     1
270
     1
271
     1
  0
XRECORD
  5
46
102
{ACAD_REACTORS
330
40
102
}
330
40
100
AcDbXrecord
280
     1
270
     1
271
     1
  0
XRECORD
  5
236
102
{ACAD_REACTORS
330
16
102
}
330
16
100
AcDbXrecord
280
     1
102
MATERIAL
148
0.0
149
0.0
149
0.0
 93
        0
 94
      127
282
     0
 72
     0
 77
     0
171
     0
175
     0
179
     0
273
     0
  0
XRECORD
  5
17
102
{ACAD_REACTORS
330
16
102
}
330
16
100
AcDbXrecord
280
     1
270
     1
271
     1
  0
XRECORD
  5
18
102
{ACAD_REACTORS
330
16
102
}
330
16
100
AcDbXrecord
280
     1
270
     1
271
     1
  0
XRECORD
  5
19
102
{ACAD_REACTORS
330
16
102
}
330
16
100
AcDbXrecord
280
     1
270
     1
271
     1
  0
XRECORD
  5
1A
102
{ACAD_REACTORS
330
16
102
}
330
16
100
AcDbXrecord
280
     1
270
     1
271
     1
  0
XRECORD
  5
1B
102
{ACAD_REACTORS
330
16
102
}
330
16
100
AcDbXrecord
280
     1
270
     1
271
     1
  0
XRECORD
  5
1C
102
{ACAD_REACTORS
330
16
102
}
330
16
100
AcDbXrecord
280
     1
270
     1
271
     1
  0
XRECORD
  5
235
102
{ACAD_REACTORS
330
D
102
}
330
D
100
AcDbXrecord
280
     1
102
MATERIAL
148
0.0
149
0.0
149
0.0
 93
        0
 94
      127
282
     0
 72
     0
 77
     0
171
     0
175
     0
179
     0
273
     0
  0
XRECORD
  5
E
102
{ACAD_REACTORS
330
D
102
}
330
D
100
AcDbXrecord
280
     1
270
     1
271
     1
  0
XRECORD
  5
F
102
{ACAD_REACTORS
330
D
102
}
330
D
100
AcDbXrecord
280
     1
270
     1
271
     1
  0
XRECORD
  5
10
102
{ACAD_REACTORS
330
D
102
}
330
D
100
AcDbXrecord
280
     1
270
     1
271
     1
  0
XRECORD
  5
11
102
{ACAD_REACTORS
330
D
102
}
330
D
100
AcDbXrecord
280
     1
270
     1
271
     1
  0
XRECORD
  5
12
102
{ACAD_REACTORS
330
D
102
}
330
D
100
AcDbXrecord
280
     1
270
     1
271
     1
  0
XRECORD
  5
13
102
{ACAD_REACTORS
330
D
102
}
330
D
100
AcDbXrecord
280
     1
270
     1
271
     1
  0
CELLSTYLEMAP
  5
3A8
102
{ACAD_REACTORS
330
232
102
}
330
232
100
AcDbCellStyleMap
 90
        3
300
CELLSTYLE
  1
TABLEFORMAT_BEGIN
 90
        5
170
     1
 91
        0
 92
    32768
 62
   257
 93
        1
300
CONTENTFORMAT
  1
CONTENTFORMAT_BEGIN
 90
        0
 91
        0
 92
        4
 93
        0
300

 40
0.0
140
1.0
 94
        5
 62
     0
340
28
144
0.25
309
CONTENTFORMAT_END
171
     1
301
MARGIN
  1
CELLMARGIN_BEGIN
 40
0.06
 40
0.06
 40
0.06
 40
0.06
 40
0.18
 40
0.18
309
CELLMARGIN_END
 94
        6
 95
        1
302
GRIDFORMAT
  1
GRIDFORMAT_BEGIN
 90
        0
 91
        1
 62
     0
 92
       -2
340
0
 93
        0
 40
0.045
309
GRIDFORMAT_END
 95
        2
302
GRIDFORMAT
  1
GRIDFORMAT_BEGIN
 90
        0
 91
        1
 62
     0
 92
       -2
340
0
 93
        0
 40
0.045
309
GRIDFORMAT_END
 95
        4
302
GRIDFORMAT
  1
GRIDFORMAT_BEGIN
 90
        0
 91
        1
 62
     0
 92
       -2
340
0
 93
        0
 40
0.045
309
GRIDFORMAT_END
 95
        8
302
GRIDFORMAT
  1
GRIDFORMAT_BEGIN
 90
        0
 91
        1
 62
     0
 92
       -2
340
0
 93
        0
 40
0.045
309
GRIDFORMAT_END
 95
       16
302
GRIDFORMAT
  1
GRIDFORMAT_BEGIN
 90
        0
 91
        1
 62
     0
 92
       -2
340
0
 93
        0
 40
0.045
309
GRIDFORMAT_END
 95
       32
302
GRIDFORMAT
  1
GRIDFORMAT_BEGIN
 90
        0
 91
        1
 62
     0
 92
       -2
340
0
 93
        0
 40
0.045
309
GRIDFORMAT_END
309
TABLEFORMAT_END
  1
CELLSTYLE_BEGIN
 90
        1
 91
        1
300
_TITLE
309
CELLSTYLE_END
300
CELLSTYLE
  1
TABLEFORMAT_BEGIN
 90
        5
170
     1
 91
        0
 92
        0
 62
   257
 93
        1
300
CONTENTFORMAT
  1
CONTENTFORMAT_BEGIN
 90
        0
 91
        0
 92
        4
 93
        0
300

 40
0.0
140
1.0
 94
        5
 62
     0
340
28
144
0.18
309
CONTENTFORMAT_END
171
     1
301
MARGIN
  1
CELLMARGIN_BEGIN
 40
0.06
 40
0.06
 40
0.06
 40
0.06
 40
0.18
 40
0.18
309
CELLMARGIN_END
 94
        6
 95
        1
302
GRIDFORMAT
  1
GRIDFORMAT_BEGIN
 90
        0
 91
        1
 62
     0
 92
       -2
340
0
 93
        0
 40
0.045
309
GRIDFORMAT_END
 95
        2
302
GRIDFORMAT
  1
GRIDFORMAT_BEGIN
 90
        0
 91
        1
 62
     0
 92
       -2
340
0
 93
        0
 40
0.045
309
GRIDFORMAT_END
 95
        4
302
GRIDFORMAT
  1
GRIDFORMAT_BEGIN
 90
        0
 91
        1
 62
     0
 92
       -2
340
0
 93
        0
 40
0.045
309
GRIDFORMAT_END
 95
        8
302
GRIDFORMAT
  1
GRIDFORMAT_BEGIN
 90
        0
 91
        1
 62
     0
 92
       -2
340
0
 93
        0
 40
0.045
309
GRIDFORMAT_END
 95
       16
302
GRIDFORMAT
  1
GRIDFORMAT_BEGIN
 90
        0
 91
        1
 62
     0
 92
       -2
340
0
 93
        0
 40
0.045
309
GRIDFORMAT_END
 95
       32
302
GRIDFORMAT
  1
GRIDFORMAT_BEGIN
 90
        0
 91
        1
 62
     0
 92
       -2
340
0
 93
        0
 40
0.045
309
GRIDFORMAT_END
309
TABLEFORMAT_END
  1
CELLSTYLE_BEGIN
 90
        2
 91
        1
300
_HEADER
309
CELLSTYLE_END
300
CELLSTYLE
  1
TABLEFORMAT_BEGIN
 90
        5
170
     1
 91
        0
 92
        0
 62
   257
 93
        1
300
CONTENTFORMAT
  1
CONTENTFORMAT_BEGIN
 90
        0
 91
        0
 92
        4
 93
        0
300

 40
0.0
140
1.0
 94
        2
 62
     0
340
28
144
0.18
309
CONTENTFORMAT_END
171
     1
301
MARGIN
  1
CELLMARGIN_BEGIN
 40
0.06
 40
0.06
 40
0.06
 40
0.06
 40
0.18
 40
0.18
309
CELLMARGIN_END
 94
        6
 95
        1
302
GRIDFORMAT
  1
GRIDFORMAT_BEGIN
 90
        0
 91
        1
 62
     0
 92
       -2
340
0
 93
        0
 40
0.045
309
GRIDFORMAT_END
 95
        2
302
GRIDFORMAT
  1
GRIDFORMAT_BEGIN
 90
        0
 91
        1
 62
     0
 92
       -2
340
0
 93
        0
 40
0.045
309
GRIDFORMAT_END
 95
        4
302
GRIDFORMAT
  1
GRIDFORMAT_BEGIN
 90
        0
 91
        1
 62
     0
 92
       -2
340
0
 93
        0
 40
0.045
309
GRIDFORMAT_END
 95
        8
302
GRIDFORMAT
  1
GRIDFORMAT_BEGIN
 90
        0
 91
        1
 62
     0
 92
       -2
340
0
 93
        0
 40
0.045
309
GRIDFORMAT_END
 95
       16
302
GRIDFORMAT
  1
GRIDFORMAT_BEGIN
 90
        0
 91
        1
 62
     0
 92
       -2
340
0
 93
        0
 40
0.045
309
GRIDFORMAT_END
 95
       32
302
GRIDFORMAT
  1
GRIDFORMAT_BEGIN
 90
        0
 91
        1
 62
     0
 92
       -2
340
0
 93
        0
 40
0.045
309
GRIDFORMAT_END
309
TABLEFORMAT_END
  1
CELLSTYLE_BEGIN
 90
        3
 91
        2
300
_DATA
309
CELLSTYLE_END
  0
XRECORD
  5
3AE
102
{ACAD_REACTORS
330
232
102
}
330
232
100
AcDbXrecord
280
     1
102
ACAD_ROUNDTRIP_PRE2007_TABLESTYLE
 90
        4
 91
        0
  1

 92
        4
 93
        0
  2

 94
        4
 95
        0
  3

  0
XRECORD
  5
23C
102
{ACAD_REACTORS
330
23B
102
}
330
23B
100
AcDbXrecord
280
     1
102
RTVSPost2010Prop28
280
     1
102
RTVSPost2010PropOp28
 70
     1
102
RTVSPost2010Prop29
280
     1
102
RTVSPost2010PropOp29
 70
     1
102
RTVSPost2010Prop30
280
     0
102
RTVSPost2010PropOp30
 70
     1
102
RTVSPost2010Prop31
280
     0
102
RTVSPost2010PropOp31
 70
     1
102
RTVSPost2010Prop32
280
     0
102
RTVSPost2010PropOp32
 70
     1
102
RTVSPost2010Prop33
280
     0
102
RTVSPost2010PropOp33
 70
     1
102
RTVSPost2010Prop34
280
     0
102
RTVSPost2010PropOp34
 70
     1
102
RTVSPost2010Prop35
280
     0
102
RTVSPost2010PropOp35
 70
     1
102
RTVSPost2010Prop36
280
     0
102
RTVSPost2010PropOp36
 70
     1
102
RTVSPost2010Prop37
 90
       50
102
RTVSPost2010PropOp37
 70
     1
102
RTVSPost2010Prop38
140
0.0
102
RTVSPost2010PropOp38
 70
     1
102
RTVSPost2010Prop39
140
1.0
102
RTVSPost2010PropOp39
 70
     1
102
RTVSPost2010Prop40
 90
        0
102
RTVSPost2010PropOp40
 70
     1
102
RTVSPost2010Prop41ColorIndex
 90
       18
102
RTVSPost2010Prop41ColorRGB
 90
        0
102
RTVSPost2010PropOp41
 70
     1
102
RTVSPost2010Prop42
 90
       50
102
RTVSPost2010PropOp42
 70
     1
102
RTVSPost2010Prop43
 90
        3
102
RTVSPost2010PropOp43
 70
     1
102
RTVSPost2010Prop44ColorIndex
 90
        5
102
RTVSPost2010Prop44ColorRGB
 90
      255
102
RTVSPost2010PropOp44
 70
     1
102
RTVSPost2010Prop45
280
     0
102
RTVSPost2010PropOp45
 70
     1
102
RTVSPost2010Prop46
 90
       50
102
RTVSPost2010PropOp46
 70
     1
102
RTVSPost2010Prop47
 90
       50
102
RTVSPost2010PropOp47
 70
     1
102
RTVSPost2010Prop48
 90
       50
102
RTVSPost2010PropOp48
 70
     1
102
RTVSPost2010Prop49
280
     0
102
RTVSPost2010PropOp49
 70
     1
102
RTVSPost2010Prop50
 90
       50
102
RTVSPost2010PropOp50
 70
     1
102
RTVSPost2010Prop51ColorIndex
 90
      256
102
RTVSPost2010Prop51ColorRGB
 90
-16777216
102
RTVSPost2010PropOp51
 70
     0
102
RTVSPost2010Prop52
140
1.0
102
RTVSPost2010PropOp52
 70
     0
102
RTVSPost2010Prop53
 90
        2
102
RTVSPost2010PropOp53
 70
     1
102
RTVSPost2010Prop54
  1
strokes_ogs.tif
102
RTVSPost2010PropOp54
 70
     1
102
RTVSPost2010Prop55
280
     0
102
RTVSPost2010PropOp55
 70
     1
102
RTVSPost2010Prop56
140
1.0
102
RTVSPost2010PropOp56
 70
     1
102
RTVSPost2010Prop57
140
1.0
102
RTVSPost2010PropOp57
 70
     1
102
RTVSPropertyOp33
 70
     1
102
RTVSPropertyOp34
 70
     1
102
RTVSPropertyOp35
 70
     1
102
RTVSPropertyOp36
 70
     1
102
RTVSPropertyOp37
 70
     1
102
RTVSPropertyOp38
 70
     1
102
RTVSPropertyOp39
 70
     1
102
RTVSPropertyOp40
 70
     1
102
RTVSPropertyOp41
 70
     1
102
RTVSPropertyOp42
 70
     1
102
RTVSPropertyOp43
 70
     1
102
RTVSPropertyOp44
 70
     1
102
RTVSPropertyOp45
 70
     1
102
RTVSPropertyOp46
 70
     1
102
RTVSPropertyOp47
 70
     1
102
RTVSPropertyOp48
 70
     1
102
RTVSPropertyOp49
 70
     1
102
RTVSPropertyOp50
 70
     1
102
RTVSPropertyOp51
 70
     0
102
RTVSPropertyOp52
 70
     0
102
RTVSPropertyOp53
 70
     1
102
RTVSPropertyOp54
 70
     1
102
RTVSPropertyOp55
 70
     1
102
RTVSPropertyOp56
 70
     1
102
RTVSPropertyOp57
 70
     1
102
RTVSPropertyOp58
 70
     1
102
RTVSPropertyOp59
 70
     1
102
RTVSPropertyOp60
 70
     1
102
RTVSPropertyOp61
 70
     1
102
RTVSPropertyOp62
 70
     1
102
RTVSPropertyOp0
 70
     1
102
RTVSPropertyOp1
 70
     1
102
RTVSPropertyOp2
 70
     1
102
RTVSPropertyOp3
 70
     1
102
RTVSPropertyOp4
 70
     1
102
RTVSPropertyOp5
 70
     1
102
RTVSPropertyOp6
 70
     1
102
RTVSPropertyOp7
 70
     1
102
RTVSPropertyOp8
 70
     1
102
RTVSPropertyOp9
 70
     1
102
RTVSPropertyOp10
 70
     1
102
RTVSPropertyOp11
 70
     1
102
RTVSPropertyOp12
 70
     1
102
RTVSPropertyOp13
 70
     1
102
RTVSPropertyOp14
 70
     1
102
RTVSPropertyOp15
 70
     1
102
RTVSPropertyOp16
 70
     1
102
RTVSPropertyOp17
 70
     1
102
RTVSPropertyOp18
 70
     1
102
RTVSPropertyOp19
 70
     1
102
RTVSPropertyOp20
 70
     1
102
RTVSPropertyOp21
 70
     1
102
RTVSPropertyOp22
 70
     1
102
RTVSPropertyOp23
 70
     1
102
RTVSPropertyOp24
 70
     1
102
RTVSPropertyOp25
 70
     1
102
RTVSPropertyOp26
 70
     1
102
RTVSPropertyOp27
 70
     1
102
RTVSPropertyOp28
 70
     1
102
RTVSPropertyOp29
 70
     1
102
RTVSPropertyOp30
 70
     1
102
RTVSPropertyOp31
 70
     1
102
RTVSPropertyOp32
 70
     1
  0
XRECORD
  5
3B8
102
{ACAD_REACTORS
330
3B7
102
}
330
3B7
100
AcDbXrecord
280
     1
102
RTVSPropertyOp0
 70
     1
102
RTVSPropertyOp1
 70
     1
102
RTVSPropertyOp2
 70
     1
102
RTVSPropertyOp3
 70
     1
102
RTVSPropertyOp4
 70
     1
102
RTVSPropertyOp5
 70
     1
102
RTVSPropertyOp6
 70
     1
102
RTVSPropertyOp7
 70
     1
102
RTVSPropertyOp8
 70
     1
102
RTVSPropertyOp9
 70
     1
102
RTVSPropertyOp10
 70
     1
102
RTVSPropertyOp11
 70
     1
102
RTVSPropertyOp12
 70
     1
102
RTVSPropertyOp13
 70
     1
102
RTVSPropertyOp14
 70
     1
102
RTVSPropertyOp15
 70
     1
102
RTVSPropertyOp16
 70
     1
102
RTVSPropertyOp17
 70
     1
102
RTVSPropertyOp18
 70
     1
102
RTVSPropertyOp19
 70
     1
102
RTVSPropertyOp20
 70
     1
102
RTVSPropertyOp21
 70
     1
102
RTVSPropertyOp22
 70
     1
102
RTVSPropertyOp23
 70
     1
102
RTVSPropertyOp24
 70
     1
102
RTVSPropertyOp25
 70
     1
102
RTVSPropertyOp26
 70
     1
102
RTVSPropertyOp27
 70
     1
102
RTVSPropertyOp28
 70
     1
102
RTVSPropertyOp29
 70
     1
102
RTVSPropertyOp30
 70
     1
102
RTVSPropertyOp31
 70
     1
102
RTVSPropertyOp32
 70
     1
  0
XRECORD
  5
3C0
102
{ACAD_REACTORS
330
3BF
102
}
330
3BF
100
AcDbXrecord
280
     1
102
RTVSPropertyOp0
 70
     1
102
RTVSPropertyOp1
 70
     1
102
RTVSPropertyOp2
 70
     1
102
RTVSPropertyOp3
 70
     1
102
RTVSPropertyOp4
 70
     1
102
RTVSPropertyOp5
 70
     1
102
RTVSPropertyOp6
 70
     1
102
RTVSPropertyOp7
 70
     1
102
RTVSPropertyOp8
 70
     1
102
RTVSPropertyOp9
 70
     1
102
RTVSPropertyOp10
 70
     1
102
RTVSPropertyOp11
 70
     1
102
RTVSPropertyOp12
 70
     1
102
RTVSPropertyOp13
 70
     1
102
RTVSPropertyOp14
 70
     1
102
RTVSPropertyOp15
 70
     1
102
RTVSPropertyOp16
 70
     1
102
RTVSPropertyOp17
 70
     1
102
RTVSPropertyOp18
 70
     1
102
RTVSPropertyOp19
 70
     1
102
RTVSPropertyOp20
 70
     1
102
RTVSPropertyOp21
 70
     1
102
RTVSPropertyOp22
 70
     1
102
RTVSPropertyOp23
 70
     1
102
RTVSPropertyOp24
 70
     1
102
RTVSPropertyOp25
 70
     1
102
RTVSPropertyOp26
 70
     1
102
RTVSPropertyOp27
 70
     1
102
RTVSPropertyOp28
 70
     1
102
RTVSPropertyOp29
 70
     1
102
RTVSPropertyOp30
 70
     1
102
RTVSPropertyOp31
 70
     1
102
RTVSPropertyOp32
 70
     1
  0
XRECORD
  5
3C8
102
{ACAD_REACTORS
330
3C7
102
}
330
3C7
100
AcDbXrecord
280
     1
102
RTVSPropertyOp0
 70
     1
102
RTVSPropertyOp1
 70
     1
102
RTVSPropertyOp2
 70
     1
102
RTVSPropertyOp3
 70
     1
102
RTVSPropertyOp4
 70
     1
102
RTVSPropertyOp5
 70
     1
102
RTVSPropertyOp6
 70
     1
102
RTVSPropertyOp7
 70
     1
102
RTVSPropertyOp8
 70
     1
102
RTVSPropertyOp9
 70
     1
102
RTVSPropertyOp10
 70
     1
102
RTVSPropertyOp11
 70
     1
102
RTVSPropertyOp12
 70
     1
102
RTVSPropertyOp13
 70
     1
102
RTVSPropertyOp14
 70
     1
102
RTVSPropertyOp15
 70
     1
102
RTVSPropertyOp16
 70
     1
102
RTVSPropertyOp17
 70
     1
102
RTVSPropertyOp18
 70
     1
102
RTVSPropertyOp19
 70
     1
102
RTVSPropertyOp20
 70
     1
102
RTVSPropertyOp21
 70
     1
102
RTVSPropertyOp22
 70
     1
102
RTVSPropertyOp23
 70
     1
102
RTVSPropertyOp24
 70
     1
102
RTVSPropertyOp25
 70
     1
102
RTVSPropertyOp26
 70
     1
102
RTVSPropertyOp27
 70
     1
102
RTVSPropertyOp28
 70
     1
102
RTVSPropertyOp29
 70
     1
102
RTVSPropertyOp30
 70
     1
102
RTVSPropertyOp31
 70
     1
102
RTVSPropertyOp32
 70
     1
  0
XRECORD
  5
3BC
102
{ACAD_REACTORS
330
3BB
102
}
330
3BB
100
AcDbXrecord
280
     1
102
RTVSPropertyOp0
 70
     1
102
RTVSPropertyOp1
 70
     1
102
RTVSPropertyOp2
 70
     1
102
RTVSPropertyOp3
 70
     1
102
RTVSPropertyOp4
 70
     1
102
RTVSPropertyOp5
 70
     1
102
RTVSPropertyOp6
 70
     1
102
RTVSPropertyOp7
 70
     1
102
RTVSPropertyOp8
 70
     1
102
RTVSPropertyOp9
 70
     1
102
RTVSPropertyOp10
 70
     1
102
RTVSPropertyOp11
 70
     1
102
RTVSPropertyOp12
 70
     1
102
RTVSPropertyOp13
 70
     1
102
RTVSPropertyOp14
 70
     1
102
RTVSPropertyOp15
 70
     1
102
RTVSPropertyOp16
 70
     1
102
RTVSPropertyOp17
 70
     1
102
RTVSPropertyOp18
 70
     1
102
RTVSPropertyOp19
 70
     1
102
RTVSPropertyOp20
 70
     1
102
RTVSPropertyOp21
 70
     1
102
RTVSPropertyOp22
 70
     1
102
RTVSPropertyOp23
 70
     1
102
RTVSPropertyOp24
 70
     1
102
RTVSPropertyOp25
 70
     1
102
RTVSPropertyOp26
 70
     1
102
RTVSPropertyOp27
 70
     1
102
RTVSPropertyOp28
 70
     1
102
RTVSPropertyOp29
 70
     1
102
RTVSPropertyOp30
 70
     1
102
RTVSPropertyOp31
 70
     1
102
RTVSPropertyOp32
 70
     1
  0
XRECORD
  5
3BE
102
{ACAD_REACTORS
330
3BD
102
}
330
3BD
100
AcDbXrecord
280
     1
102
RTVSPropertyOp0
 70
     1
102
RTVSPropertyOp1
 70
     1
102
RTVSPropertyOp2
 70
     1
102
RTVSPropertyOp3
 70
     1
102
RTVSPropertyOp4
 70
     1
102
RTVSPropertyOp5
 70
     1
102
RTVSPropertyOp6
 70
     1
102
RTVSPropertyOp7
 70
     1
102
RTVSPropertyOp8
 70
     1
102
RTVSPropertyOp9
 70
     1
102
RTVSPropertyOp10
 70
     1
102
RTVSPropertyOp11
 70
     1
102
RTVSPropertyOp12
 70
     1
102
RTVSPropertyOp13
 70
     1
102
RTVSPropertyOp14
 70
     1
102
RTVSPropertyOp15
 70
     1
102
RTVSPropertyOp16
 70
     1
102
RTVSPropertyOp17
 70
     1
102
RTVSPropertyOp18
 70
     1
102
RTVSPropertyOp19
 70
     1
102
RTVSPropertyOp20
 70
     1
102
RTVSPropertyOp21
 70
     1
102
RTVSPropertyOp22
 70
     1
102
RTVSPropertyOp23
 70
     1
102
RTVSPropertyOp24
 70
     1
102
RTVSPropertyOp25
 70
     1
102
RTVSPropertyOp26
 70
     1
102
RTVSPropertyOp27
 70
     1
102
RTVSPropertyOp28
 70
     1
102
RTVSPropertyOp29
 70
     1
102
RTVSPropertyOp30
 70
     1
102
RTVSPropertyOp31
 70
     1
102
RTVSPropertyOp32
 70
     1
  0
XRECORD
  5
3D8
102
{ACAD_REACTORS
330
3D7
102
}
330
3D7
100
AcDbXrecord
280
     1
102
RTVSPropertyOp0
 70
     0
102
RTVSPropertyOp1
 70
     0
102
RTVSPropertyOp2
 70
     0
102
RTVSPropertyOp3
 70
     0
102
RTVSPropertyOp4
 70
     0
102
RTVSPropertyOp5
 70
     0
102
RTVSPropertyOp6
 70
     0
102
RTVSPropertyOp7
 70
     0
102
RTVSPropertyOp8
 70
     0
102
RTVSPropertyOp9
 70
     0
102
RTVSPropertyOp10
 70
     0
102
RTVSPropertyOp11
 70
     0
102
RTVSPropertyOp12
 70
     0
102
RTVSPropertyOp13
 70
     0
102
RTVSPropertyOp14
 70
     2
102
RTVSPropertyOp15
 70
     0
102
RTVSPropertyOp16
 70
     0
102
RTVSPropertyOp17
 70
     0
102
RTVSPropertyOp18
 70
     0
102
RTVSPropertyOp19
 70
     0
102
RTVSPropertyOp20
 70
     0
102
RTVSPropertyOp21
 70
     0
102
RTVSPropertyOp22
 70
     0
102
RTVSPropertyOp23
 70
     0
102
RTVSPropertyOp24
 70
     0
102
RTVSPropertyOp25
 70
     0
102
RTVSPropertyOp26
 70
     0
102
RTVSPropertyOp27
 70
     0
102
RTVSPropertyOp28
 70
     1
102
RTVSPropertyOp29
 70
     1
102
RTVSPropertyOp30
 70
     1
102
RTVSPropertyOp31
 70
     1
102
RTVSPropertyOp32
 70
     1
  0
XRECORD
  5
3C6
102
{ACAD_REACTORS
330
3C5
102
}
330
3C5
100
AcDbXrecord
280
     1
102
RTVSPropertyOp0
 70
     1
102
RTVSPropertyOp1
 70
     1
102
RTVSPropertyOp2
 70
     1
102
RTVSPropertyOp3
 70
     1
102
RTVSPropertyOp4
 70
     1
102
RTVSPropertyOp5
 70
     1
102
RTVSPropertyOp6
 70
     1
102
RTVSPropertyOp7
 70
     1
102
RTVSPropertyOp8
 70
     1
102
RTVSPropertyOp9
 70
     1
102
RTVSPropertyOp10
 70
     1
102
RTVSPropertyOp11
 70
     1
102
RTVSPropertyOp12
 70
     1
102
RTVSPropertyOp13
 70
     1
102
RTVSPropertyOp14
 70
     1
102
RTVSPropertyOp15
 70
     1
102
RTVSPropertyOp16
 70
     1
102
RTVSPropertyOp17
 70
     1
102
RTVSPropertyOp18
 70
     1
102
RTVSPropertyOp19
 70
     1
102
RTVSPropertyOp20
 70
     1
102
RTVSPropertyOp21
 70
     1
102
RTVSPropertyOp22
 70
     1
102
RTVSPropertyOp23
 70
     1
102
RTVSPropertyOp24
 70
     1
102
RTVSPropertyOp25
 70
     1
102
RTVSPropertyOp26
 70
     1
102
RTVSPropertyOp27
 70
     1
102
RTVSPropertyOp28
 70
     1
102
RTVSPropertyOp29
 70
     1
102
RTVSPropertyOp30
 70
     1
102
RTVSPropertyOp31
 70
     1
102
RTVSPropertyOp32
 70
     1
  0
XRECORD
  5
3B0
102
{ACAD_REACTORS
330
3AF
102
}
330
3AF
100
AcDbXrecord
280
     1
102
RTVSPropertyOp0
 70
     1
102
RTVSPropertyOp1
 70
     1
102
RTVSPropertyOp2
 70
     1
102
RTVSPropertyOp3
 70
     1
102
RTVSPropertyOp4
 70
     1
102
RTVSPropertyOp5
 70
     1
102
RTVSPropertyOp6
 70
     1
102
RTVSPropertyOp7
 70
     1
102
RTVSPropertyOp8
 70
     1
102
RTVSPropertyOp9
 70
     1
102
RTVSPropertyOp10
 70
     1
102
RTVSPropertyOp11
 70
     1
102
RTVSPropertyOp12
 70
     1
102
RTVSPropertyOp13
 70
     1
102
RTVSPropertyOp14
 70
     1
102
RTVSPropertyOp15
 70
     1
102
RTVSPropertyOp16
 70
     1
102
RTVSPropertyOp17
 70
     1
102
RTVSPropertyOp18
 70
     1
102
RTVSPropertyOp19
 70
     1
102
RTVSPropertyOp20
 70
     1
102
RTVSPropertyOp21
 70
     1
102
RTVSPropertyOp22
 70
     1
102
RTVSPropertyOp23
 70
     1
102
RTVSPropertyOp24
 70
     1
102
RTVSPropertyOp25
 70
     1
102
RTVSPropertyOp26
 70
     1
102
RTVSPropertyOp27
 70
     1
102
RTVSPropertyOp28
 70
     1
102
RTVSPropertyOp29
 70
     1
102
RTVSPropertyOp30
 70
     1
102
RTVSPropertyOp31
 70
     1
102
RTVSPropertyOp32
 70
     1
  0
XRECORD
  5
3B2
102
{ACAD_REACTORS
330
3B1
102
}
330
3B1
100
AcDbXrecord
280
     1
102
RTVSPropertyOp0
 70
     1
102
RTVSPropertyOp1
 70
     1
102
RTVSPropertyOp2
 70
     1
102
RTVSPropertyOp3
 70
     1
102
RTVSPropertyOp4
 70
     1
102
RTVSPropertyOp5
 70
     1
102
RTVSPropertyOp6
 70
     1
102
RTVSPropertyOp7
 70
     1
102
RTVSPropertyOp8
 70
     1
102
RTVSPropertyOp9
 70
     1
102
RTVSPropertyOp10
 70
     1
102
RTVSPropertyOp11
 70
     1
102
RTVSPropertyOp12
 70
     1
102
RTVSPropertyOp13
 70
     1
102
RTVSPropertyOp14
 70
     1
102
RTVSPropertyOp15
 70
     1
102
RTVSPropertyOp16
 70
     1
102
RTVSPropertyOp17
 70
     1
102
RTVSPropertyOp18
 70
     1
102
RTVSPropertyOp19
 70
     1
102
RTVSPropertyOp20
 70
     1
102
RTVSPropertyOp21
 70
     1
102
RTVSPropertyOp22
 70
     1
102
RTVSPropertyOp23
 70
     1
102
RTVSPropertyOp24
 70
     1
102
RTVSPropertyOp25
 70
     1
102
RTVSPropertyOp26
 70
     1
102
RTVSPropertyOp27
 70
     1
102
RTVSPropertyOp28
 70
     1
102
RTVSPropertyOp29
 70
     1
102
RTVSPropertyOp30
 70
     1
102
RTVSPropertyOp31
 70
     1
102
RTVSPropertyOp32
 70
     1
  0
XRECORD
  5
3B4
102
{ACAD_REACTORS
330
3B3
102
}
330
3B3
100
AcDbXrecord
280
     1
102
RTVSPropertyOp0
 70
     1
102
RTVSPropertyOp1
 70
     1
102
RTVSPropertyOp2
 70
     1
102
RTVSPropertyOp3
 70
     1
102
RTVSPropertyOp4
 70
     1
102
RTVSPropertyOp5
 70
     1
102
RTVSPropertyOp6
 70
     1
102
RTVSPropertyOp7
 70
     1
102
RTVSPropertyOp8
 70
     1
102
RTVSPropertyOp9
 70
     1
102
RTVSPropertyOp10
 70
     1
102
RTVSPropertyOp11
 70
     1
102
RTVSPropertyOp12
 70
     1
102
RTVSPropertyOp13
 70
     1
102
RTVSPropertyOp14
 70
     1
102
RTVSPropertyOp15
 70
     1
102
RTVSPropertyOp16
 70
     1
102
RTVSPropertyOp17
 70
     1
102
RTVSPropertyOp18
 70
     1
102
RTVSPropertyOp19
 70
     1
102
RTVSPropertyOp20
 70
     1
102
RTVSPropertyOp21
 70
     1
102
RTVSPropertyOp22
 70
     1
102
RTVSPropertyOp23
 70
     1
102
RTVSPropertyOp24
 70
     1
102
RTVSPropertyOp25
 70
     1
102
RTVSPropertyOp26
 70
     1
102
RTVSPropertyOp27
 70
     1
102
RTVSPropertyOp28
 70
     1
102
RTVSPropertyOp29
 70
     1
102
RTVSPropertyOp30
 70
     1
102
RTVSPropertyOp31
 70
     1
102
RTVSPropertyOp32
 70
     1
  0
XRECORD
  5
3B6
102
{ACAD_REACTORS
330
3B5
102
}
330
3B5
100
AcDbXrecord
280
     1
102
RTVSPropertyOp0
 70
     1
102
RTVSPropertyOp1
 70
     1
102
RTVSPropertyOp2
 70
     1
102
RTVSPropertyOp3
 70
     1
102
RTVSPropertyOp4
 70
     1
102
RTVSPropertyOp5
 70
     1
102
RTVSPropertyOp6
 70
     1
102
RTVSPropertyOp7
 70
     1
102
RTVSPropertyOp8
 70
     1
102
RTVSPropertyOp9
 70
     1
102
RTVSPropertyOp10
 70
     1
102
RTVSPropertyOp11
 70
     1
102
RTVSPropertyOp12
 70
     1
102
RTVSPropertyOp13
 70
     1
102
RTVSPropertyOp14
 70
     1
102
RTVSPropertyOp15
 70
     1
102
RTVSPropertyOp16
 70
     1
102
RTVSPropertyOp17
 70
     1
102
RTVSPropertyOp18
 70
     1
102
RTVSPropertyOp19
 70
     1
102
RTVSPropertyOp20
 70
     1
102
RTVSPropertyOp21
 70
     1
102
RTVSPropertyOp22
 70
     1
102
RTVSPropertyOp23
 70
     1
102
RTVSPropertyOp24
 70
     1
102
RTVSPropertyOp25
 70
     1
102
RTVSPropertyOp26
 70
     1
102
RTVSPropertyOp27
 70
     1
102
RTVSPropertyOp28
 70
     1
102
RTVSPropertyOp29
 70
     1
102
RTVSPropertyOp30
 70
     1
102
RTVSPropertyOp31
 70
     1
102
RTVSPropertyOp32
 70
     1
  0
XRECORD
  5
3BA
102
{ACAD_REACTORS
330
3B9
102
}
330
3B9
100
AcDbXrecord
280
     1
102
RTVSPropertyOp0
 70
     1
102
RTVSPropertyOp1
 70
     1
102
RTVSPropertyOp2
 70
     1
102
RTVSPropertyOp3
 70
     1
102
RTVSPropertyOp4
 70
     1
102
RTVSPropertyOp5
 70
     1
102
RTVSPropertyOp6
 70
     1
102
RTVSPropertyOp7
 70
     1
102
RTVSPropertyOp8
 70
     1
102
RTVSPropertyOp9
 70
     1
102
RTVSPropertyOp10
 70
     1
102
RTVSPropertyOp11
 70
     1
102
RTVSPropertyOp12
 70
     1
102
RTVSPropertyOp13
 70
     1
102
RTVSPropertyOp14
 70
     1
102
RTVSPropertyOp15
 70
     1
102
RTVSPropertyOp16
 70
     1
102
RTVSPropertyOp17
 70
     1
102
RTVSPropertyOp18
 70
     1
102
RTVSPropertyOp19
 70
     1
102
RTVSPropertyOp20
 70
     1
102
RTVSPropertyOp21
 70
     1
102
RTVSPropertyOp22
 70
     1
102
RTVSPropertyOp23
 70
     1
102
RTVSPropertyOp24
 70
     1
102
RTVSPropertyOp25
 70
     1
102
RTVSPropertyOp26
 70
     1
102
RTVSPropertyOp27
 70
     1
102
RTVSPropertyOp28
 70
     1
102
RTVSPropertyOp29
 70
     1
102
RTVSPropertyOp30
 70
     1
102
RTVSPropertyOp31
 70
     1
102
RTVSPropertyOp32
 70
     1
  0
XRECORD
  5
3D4
102
{ACAD_REACTORS
330
3D3
102
}
330
3D3
100
AcDbXrecord
280
     1
102
RTVSPropertyOp0
 70
     0
102
RTVSPropertyOp1
 70
     0
102
RTVSPropertyOp2
 70
     0
102
RTVSPropertyOp3
 70
     0
102
RTVSPropertyOp4
 70
     0
102
RTVSPropertyOp5
 70
     0
102
RTVSPropertyOp6
 70
     0
102
RTVSPropertyOp7
 70
     0
102
RTVSPropertyOp8
 70
     0
102
RTVSPropertyOp9
 70
     0
102
RTVSPropertyOp10
 70
     0
102
RTVSPropertyOp11
 70
     0
102
RTVSPropertyOp12
 70
     0
102
RTVSPropertyOp13
 70
     0
102
RTVSPropertyOp14
 70
     2
102
RTVSPropertyOp15
 70
     0
102
RTVSPropertyOp16
 70
     0
102
RTVSPropertyOp17
 70
     0
102
RTVSPropertyOp18
 70
     0
102
RTVSPropertyOp19
 70
     0
102
RTVSPropertyOp20
 70
     0
102
RTVSPropertyOp21
 70
     0
102
RTVSPropertyOp22
 70
     0
102
RTVSPropertyOp23
 70
     0
102
RTVSPropertyOp24
 70
     0
102
RTVSPropertyOp25
 70
     0
102
RTVSPropertyOp26
 70
     0
102
RTVSPropertyOp27
 70
     0
102
RTVSPropertyOp28
 70
     1
102
RTVSPropertyOp29
 70
     1
102
RTVSPropertyOp30
 70
     1
102
RTVSPropertyOp31
 70
     1
102
RTVSPropertyOp32
 70
     1
  0
XRECORD
  5
3C4
102
{ACAD_REACTORS
330
3C3
102
}
330
3C3
100
AcDbXrecord
280
     1
102
RTVSPropertyOp0
 70
     1
102
RTVSPropertyOp1
 70
     1
102
RTVSPropertyOp2
 70
     1
102
RTVSPropertyOp3
 70
     1
102
RTVSPropertyOp4
 70
     1
102
RTVSPropertyOp5
 70
     1
102
RTVSPropertyOp6
 70
     1
102
RTVSPropertyOp7
 70
     1
102
RTVSPropertyOp8
 70
     1
102
RTVSPropertyOp9
 70
     1
102
RTVSPropertyOp10
 70
     1
102
RTVSPropertyOp11
 70
     1
102
RTVSPropertyOp12
 70
     1
102
RTVSPropertyOp13
 70
     1
102
RTVSPropertyOp14
 70
     1
102
RTVSPropertyOp15
 70
     1
102
RTVSPropertyOp16
 70
     1
102
RTVSPropertyOp17
 70
     1
102
RTVSPropertyOp18
 70
     1
102
RTVSPropertyOp19
 70
     1
102
RTVSPropertyOp20
 70
     1
102
RTVSPropertyOp21
 70
     1
102
RTVSPropertyOp22
 70
     1
102
RTVSPropertyOp23
 70
     1
102
RTVSPropertyOp24
 70
     1
102
RTVSPropertyOp25
 70
     1
102
RTVSPropertyOp26
 70
     1
102
RTVSPropertyOp27
 70
     1
102
RTVSPropertyOp28
 70
     1
102
RTVSPropertyOp29
 70
     1
102
RTVSPropertyOp30
 70
     1
102
RTVSPropertyOp31
 70
     1
102
RTVSPropertyOp32
 70
     1
  0
XRECORD
  5
3D6
102
{ACAD_REACTORS
330
3D5
102
}
330
3D5
100
AcDbXrecord
280
     1
102
RTVSPropertyOp0
 70
     0
102
RTVSPropertyOp1
 70
     0
102
RTVSPropertyOp2
 70
     0
102
RTVSPropertyOp3
 70
     0
102
RTVSPropertyOp4
 70
     0
102
RTVSPropertyOp5
 70
     0
102
RTVSPropertyOp6
 70
     0
102
RTVSPropertyOp7
 70
     0
102
RTVSPropertyOp8
 70
     0
102
RTVSPropertyOp9
 70
     0
102
RTVSPropertyOp10
 70
     0
102
RTVSPropertyOp11
 70
     0
102
RTVSPropertyOp12
 70
     0
102
RTVSPropertyOp13
 70
     0
102
RTVSPropertyOp14
 70
     2
102
RTVSPropertyOp15
 70
     0
102
RTVSPropertyOp16
 70
     0
102
RTVSPropertyOp17
 70
     0
102
RTVSPropertyOp18
 70
     0
102
RTVSPropertyOp19
 70
     0
102
RTVSPropertyOp20
 70
     0
102
RTVSPropertyOp21
 70
     0
102
RTVSPropertyOp22
 70
     0
102
RTVSPropertyOp23
 70
     0
102
RTVSPropertyOp24
 70
     0
102
RTVSPropertyOp25
 70
     0
102
RTVSPropertyOp26
 70
     0
102
RTVSPropertyOp27
 70
     0
102
RTVSPropertyOp28
 70
     1
102
RTVSPropertyOp29
 70
     1
102
RTVSPropertyOp30
 70
     1
102
RTVSPropertyOp31
 70
     1
102
RTVSPropertyOp32
 70
     1
  0
XRECORD
  5
240
102
{ACAD_REACTORS
330
23F
102
}
330
23F
100
AcDbXrecord
280
     1
102
RTVSPost2010Prop28
280
     0
102
RTVSPost2010PropOp28
 70
     1
102
RTVSPost2010Prop29
280
     1
102
RTVSPost2010PropOp29
 70
     1
102
RTVSPost2010Prop30
280
     1
102
RTVSPost2010PropOp30
 70
     1
102
RTVSPost2010Prop31
280
     0
102
RTVSPost2010PropOp31
 70
     1
102
RTVSPost2010Prop32
280
     0
102
RTVSPost2010PropOp32
 70
     1
102
RTVSPost2010Prop33
280
     0
102
RTVSPost2010PropOp33
 70
     1
102
RTVSPost2010Prop34
280
     0
102
RTVSPost2010PropOp34
 70
     1
102
RTVSPost2010Prop35
280
     0
102
RTVSPost2010PropOp35
 70
     1
102
RTVSPost2010Prop36
280
     0
102
RTVSPost2010PropOp36
 70
     1
102
RTVSPost2010Prop37
 90
       50
102
RTVSPost2010PropOp37
 70
     1
102
RTVSPost2010Prop38
140
0.0
102
RTVSPost2010PropOp38
 70
     1
102
RTVSPost2010Prop39
140
1.0
102
RTVSPost2010PropOp39
 70
     1
102
RTVSPost2010Prop40
 90
        0
102
RTVSPost2010PropOp40
 70
     1
102
RTVSPost2010Prop41ColorIndex
 90
       18
102
RTVSPost2010Prop41ColorRGB
 90
        0
102
RTVSPost2010PropOp41
 70
     1
102
RTVSPost2010Prop42
 90
       50
102
RTVSPost2010PropOp42
 70
     1
102
RTVSPost2010Prop43
 90
        3
102
RTVSPost2010PropOp43
 70
     1
102
RTVSPost2010Prop44ColorIndex
 90
        5
102
RTVSPost2010Prop44ColorRGB
 90
      255
102
RTVSPost2010PropOp44
 70
     1
102
RTVSPost2010Prop45
280
     0
102
RTVSPost2010PropOp45
 70
     1
102
RTVSPost2010Prop46
 90
       50
102
RTVSPost2010PropOp46
 70
     1
102
RTVSPost2010Prop47
 90
       50
102
RTVSPost2010PropOp47
 70
     1
102
RTVSPost2010Prop48
 90
       50
102
RTVSPost2010PropOp48
 70
     1
102
RTVSPost2010Prop49
280
     0
102
RTVSPost2010PropOp49
 70
     1
102
RTVSPost2010Prop50
 90
       50
102
RTVSPost2010PropOp50
 70
     1
102
RTVSPost2010Prop51ColorIndex
 90
      256
102
RTVSPost2010Prop51ColorRGB
 90
-16777216
102
RTVSPost2010PropOp51
 70
     0
102
RTVSPost2010Prop52
140
1.0
102
RTVSPost2010PropOp52
 70
     0
102
RTVSPost2010Prop53
 90
        2
102
RTVSPost2010PropOp53
 70
     1
102
RTVSPost2010Prop54
  1
strokes_ogs.tif
102
RTVSPost2010PropOp54
 70
     1
102
RTVSPost2010Prop55
280
     0
102
RTVSPost2010PropOp55
 70
     1
102
RTVSPost2010Prop56
140
1.0
102
RTVSPost2010PropOp56
 70
     1
102
RTVSPost2010Prop57
140
1.0
102
RTVSPost2010PropOp57
 70
     1
102
RTVSPropertyOp33
 70
     1
102
RTVSPropertyOp34
 70
     1
102
RTVSPropertyOp35
 70
     1
102
RTVSPropertyOp36
 70
     1
102
RTVSPropertyOp37
 70
     1
102
RTVSPropertyOp38
 70
     1
102
RTVSPropertyOp39
 70
     1
102
RTVSPropertyOp40
 70
     1
102
RTVSPropertyOp41
 70
     1
102
RTVSPropertyOp42
 70
     1
102
RTVSPropertyOp43
 70
     1
102
RTVSPropertyOp44
 70
     1
102
RTVSPropertyOp45
 70
     1
102
RTVSPropertyOp46
 70
     1
102
RTVSPropertyOp47
 70
     1
102
RTVSPropertyOp48
 70
     1
102
RTVSPropertyOp49
 70
     1
102
RTVSPropertyOp50
 70
     1
102
RTVSPropertyOp51
 70
     0
102
RTVSPropertyOp52
 70
     0
102
RTVSPropertyOp53
 70
     1
102
RTVSPropertyOp54
 70
     1
102
RTVSPropertyOp55
 70
     1
102
RTVSPropertyOp56
 70
     1
102
RTVSPropertyOp57
 70
     1
102
RTVSPropertyOp58
 70
     1
102
RTVSPropertyOp59
 70
     1
102
RTVSPropertyOp60
 70
     1
102
RTVSPropertyOp61
 70
     1
102
RTVSPropertyOp62
 70
     1
102
RTVSPropertyOp0
 70
     1
102
RTVSPropertyOp1
 70
     1
102
RTVSPropertyOp2
 70
     1
102
RTVSPropertyOp3
 70
     1
102
RTVSPropertyOp4
 70
     1
102
RTVSPropertyOp5
 70
     1
102
RTVSPropertyOp6
 70
     1
102
RTVSPropertyOp7
 70
     1
102
RTVSPropertyOp8
 70
     1
102
RTVSPropertyOp9
 70
     1
102
RTVSPropertyOp10
 70
     1
102
RTVSPropertyOp11
 70
     1
102
RTVSPropertyOp12
 70
     1
102
RTVSPropertyOp13
 70
     1
102
RTVSPropertyOp14
 70
     1
102
RTVSPropertyOp15
 70
     1
102
RTVSPropertyOp16
 70
     1
102
RTVSPropertyOp17
 70
     1
102
RTVSPropertyOp18
 70
     1
102
RTVSPropertyOp19
 70
     1
102
RTVSPropertyOp20
 70
     1
102
RTVSPropertyOp21
 70
     1
102
RTVSPropertyOp22
 70
     1
102
RTVSPropertyOp23
 70
     1
102
RTVSPropertyOp24
 70
     1
102
RTVSPropertyOp25
 70
     1
102
RTVSPropertyOp26
 70
     1
102
RTVSPropertyOp27
 70
     1
102
RTVSPropertyOp28
 70
     1
102
RTVSPropertyOp29
 70
     1
102
RTVSPropertyOp30
 70
     1
102
RTVSPropertyOp31
 70
     1
102
RTVSPropertyOp32
 70
     1
  0
XRECORD
  5
3D2
102
{ACAD_REACTORS
330
3D1
102
}
330
3D1
100
AcDbXrecord
280
     1
102
RTVSPropertyOp0
 70
     1
102
RTVSPropertyOp1
 70
     1
102
RTVSPropertyOp2
 70
     1
102
RTVSPropertyOp3
 70
     1
102
RTVSPropertyOp4
 70
     1
102
RTVSPropertyOp5
 70
     1
102
RTVSPropertyOp6
 70
     1
102
RTVSPropertyOp7
 70
     1
102
RTVSPropertyOp8
 70
     1
102
RTVSPropertyOp9
 70
     1
102
RTVSPropertyOp10
 70
     1
102
RTVSPropertyOp11
 70
     1
102
RTVSPropertyOp12
 70
     1
102
RTVSPropertyOp13
 70
     1
102
RTVSPropertyOp14
 70
     1
102
RTVSPropertyOp15
 70
     1
102
RTVSPropertyOp16
 70
     1
102
RTVSPropertyOp17
 70
     1
102
RTVSPropertyOp18
 70
     1
102
RTVSPropertyOp19
 70
     1
102
RTVSPropertyOp20
 70
     1
102
RTVSPropertyOp21
 70
     1
102
RTVSPropertyOp22
 70
     1
102
RTVSPropertyOp23
 70
     1
102
RTVSPropertyOp24
 70
     1
102
RTVSPropertyOp25
 70
     1
102
RTVSPropertyOp26
 70
     1
102
RTVSPropertyOp27
 70
     1
102
RTVSPropertyOp28
 70
     1
102
RTVSPropertyOp29
 70
     1
102
RTVSPropertyOp30
 70
     1
102
RTVSPropertyOp31
 70
     1
102
RTVSPropertyOp32
 70
     1
  0
XRECORD
  5
3D0
102
{ACAD_REACTORS
330
3CF
102
}
330
3CF
100
AcDbXrecord
280
     1
102
RTVSPropertyOp0
 70
     1
102
RTVSPropertyOp1
 70
     1
102
RTVSPropertyOp2
 70
     1
102
RTVSPropertyOp3
 70
     1
102
RTVSPropertyOp4
 70
     1
102
RTVSPropertyOp5
 70
     1
102
RTVSPropertyOp6
 70
     1
102
RTVSPropertyOp7
 70
     1
102
RTVSPropertyOp8
 70
     1
102
RTVSPropertyOp9
 70
     1
102
RTVSPropertyOp10
 70
     1
102
RTVSPropertyOp11
 70
     1
102
RTVSPropertyOp12
 70
     1
102
RTVSPropertyOp13
 70
     1
102
RTVSPropertyOp14
 70
     1
102
RTVSPropertyOp15
 70
     1
102
RTVSPropertyOp16
 70
     1
102
RTVSPropertyOp17
 70
     1
102
RTVSPropertyOp18
 70
     1
102
RTVSPropertyOp19
 70
     1
102
RTVSPropertyOp20
 70
     1
102
RTVSPropertyOp21
 70
     1
102
RTVSPropertyOp22
 70
     1
102
RTVSPropertyOp23
 70
     1
102
RTVSPropertyOp24
 70
     1
102
RTVSPropertyOp25
 70
     1
102
RTVSPropertyOp26
 70
     1
102
RTVSPropertyOp27
 70
     1
102
RTVSPropertyOp28
 70
     1
102
RTVSPropertyOp29
 70
     1
102
RTVSPropertyOp30
 70
     1
102
RTVSPropertyOp31
 70
     1
102
RTVSPropertyOp32
 70
     1
  0
XRECORD
  5
3CA
102
{ACAD_REACTORS
330
3C9
102
}
330
3C9
100
AcDbXrecord
280
     1
102
RTVSPropertyOp0
 70
     1
102
RTVSPropertyOp1
 70
     1
102
RTVSPropertyOp2
 70
     1
102
RTVSPropertyOp3
 70
     1
102
RTVSPropertyOp4
 70
     1
102
RTVSPropertyOp5
 70
     1
102
RTVSPropertyOp6
 70
     1
102
RTVSPropertyOp7
 70
     1
102
RTVSPropertyOp8
 70
     1
102
RTVSPropertyOp9
 70
     1
102
RTVSPropertyOp10
 70
     1
102
RTVSPropertyOp11
 70
     1
102
RTVSPropertyOp12
 70
     1
102
RTVSPropertyOp13
 70
     1
102
RTVSPropertyOp14
 70
     1
102
RTVSPropertyOp15
 70
     1
102
RTVSPropertyOp16
 70
     1
102
RTVSPropertyOp17
 70
     1
102
RTVSPropertyOp18
 70
     1
102
RTVSPropertyOp19
 70
     1
102
RTVSPropertyOp20
 70
     1
102
RTVSPropertyOp21
 70
     1
102
RTVSPropertyOp22
 70
     1
102
RTVSPropertyOp23
 70
     1
102
RTVSPropertyOp24
 70
     1
102
RTVSPropertyOp25
 70
     1
102
RTVSPropertyOp26
 70
     1
102
RTVSPropertyOp27
 70
     1
102
RTVSPropertyOp28
 70
     1
102
RTVSPropertyOp29
 70
     1
102
RTVSPropertyOp30
 70
     1
102
RTVSPropertyOp31
 70
     1
102
RTVSPropertyOp32
 70
     1
  0
XRECORD
  5
3CC
102
{ACAD_REACTORS
330
3CB
102
}
330
3CB
100
AcDbXrecord
280
     1
102
RTVSPropertyOp0
 70
     1
102
RTVSPropertyOp1
 70
     1
102
RTVSPropertyOp2
 70
     1
102
RTVSPropertyOp3
 70
     1
102
RTVSPropertyOp4
 70
     1
102
RTVSPropertyOp5
 70
     1
102
RTVSPropertyOp6
 70
     1
102
RTVSPropertyOp7
 70
     1
102
RTVSPropertyOp8
 70
     1
102
RTVSPropertyOp9
 70
     1
102
RTVSPropertyOp10
 70
     1
102
RTVSPropertyOp11
 70
     1
102
RTVSPropertyOp12
 70
     1
102
RTVSPropertyOp13
 70
     1
102
RTVSPropertyOp14
 70
     1
102
RTVSPropertyOp15
 70
     1
102
RTVSPropertyOp16
 70
     1
102
RTVSPropertyOp17
 70
     1
102
RTVSPropertyOp18
 70
     1
102
RTVSPropertyOp19
 70
     1
102
RTVSPropertyOp20
 70
     1
102
RTVSPropertyOp21
 70
     1
102
RTVSPropertyOp22
 70
     1
102
RTVSPropertyOp23
 70
     1
102
RTVSPropertyOp24
 70
     1
102
RTVSPropertyOp25
 70
     1
102
RTVSPropertyOp26
 70
     1
102
RTVSPropertyOp27
 70
     1
102
RTVSPropertyOp28
 70
     1
102
RTVSPropertyOp29
 70
     1
102
RTVSPropertyOp30
 70
     1
102
RTVSPropertyOp31
 70
     1
102
RTVSPropertyOp32
 70
     1
  0
XRECORD
  5
3C2
102
{ACAD_REACTORS
330
3C1
102
}
330
3C1
100
AcDbXrecord
280
     1
102
RTVSPropertyOp0
 70
     1
102
RTVSPropertyOp1
 70
     1
102
RTVSPropertyOp2
 70
     1
102
RTVSPropertyOp3
 70
     1
102
RTVSPropertyOp4
 70
     1
102
RTVSPropertyOp5
 70
     1
102
RTVSPropertyOp6
 70
     1
102
RTVSPropertyOp7
 70
     1
102
RTVSPropertyOp8
 70
     1
102
RTVSPropertyOp9
 70
     1
102
RTVSPropertyOp10
 70
     1
102
RTVSPropertyOp11
 70
     1
102
RTVSPropertyOp12
 70
     1
102
RTVSPropertyOp13
 70
     1
102
RTVSPropertyOp14
 70
     1
102
RTVSPropertyOp15
 70
     1
102
RTVSPropertyOp16
 70
     1
102
RTVSPropertyOp17
 70
     1
102
RTVSPropertyOp18
 70
     1
102
RTVSPropertyOp19
 70
     1
102
RTVSPropertyOp20
 70
     1
102
RTVSPropertyOp21
 70
     1
102
RTVSPropertyOp22
 70
     1
102
RTVSPropertyOp23
 70
     1
102
RTVSPropertyOp24
 70
     1
102
RTVSPropertyOp25
 70
     1
102
RTVSPropertyOp26
 70
     1
102
RTVSPropertyOp27
 70
     1
102
RTVSPropertyOp28
 70
     1
102
RTVSPropertyOp29
 70
     1
102
RTVSPropertyOp30
 70
     1
102
RTVSPropertyOp31
 70
     1
102
RTVSPropertyOp32
 70
     1
  0
XRECORD
  5
242
102
{ACAD_REACTORS
330
241
102
}
330
241
100
AcDbXrecord
280
     1
102
RTVSPost2010Prop28
280
     0
102
RTVSPost2010PropOp28
 70
     1
102
RTVSPost2010Prop29
280
     1
102
RTVSPost2010PropOp29
 70
     1
102
RTVSPost2010Prop30
280
     1
102
RTVSPost2010PropOp30
 70
     1
102
RTVSPost2010Prop31
280
     0
102
RTVSPost2010PropOp31
 70
     1
102
RTVSPost2010Prop32
280
     0
102
RTVSPost2010PropOp32
 70
     1
102
RTVSPost2010Prop33
280
     0
102
RTVSPost2010PropOp33
 70
     1
102
RTVSPost2010Prop34
280
     0
102
RTVSPost2010PropOp34
 70
     1
102
RTVSPost2010Prop35
280
     0
102
RTVSPost2010PropOp35
 70
     1
102
RTVSPost2010Prop36
280
     0
102
RTVSPost2010PropOp36
 70
     1
102
RTVSPost2010Prop37
 90
       50
102
RTVSPost2010PropOp37
 70
     1
102
RTVSPost2010Prop38
140
0.0
102
RTVSPost2010PropOp38
 70
     1
102
RTVSPost2010Prop39
140
1.0
102
RTVSPost2010PropOp39
 70
     1
102
RTVSPost2010Prop40
 90
        0
102
RTVSPost2010PropOp40
 70
     1
102
RTVSPost2010Prop41ColorIndex
 90
       18
102
RTVSPost2010Prop41ColorRGB
 90
        0
102
RTVSPost2010PropOp41
 70
     1
102
RTVSPost2010Prop42
 90
       50
102
RTVSPost2010PropOp42
 70
     1
102
RTVSPost2010Prop43
 90
        3
102
RTVSPost2010PropOp43
 70
     1
102
RTVSPost2010Prop44ColorIndex
 90
        5
102
RTVSPost2010Prop44ColorRGB
 90
      255
102
RTVSPost2010PropOp44
 70
     1
102
RTVSPost2010Prop45
280
     0
102
RTVSPost2010PropOp45
 70
     1
102
RTVSPost2010Prop46
 90
       50
102
RTVSPost2010PropOp46
 70
     1
102
RTVSPost2010Prop47
 90
       50
102
RTVSPost2010PropOp47
 70
     1
102
RTVSPost2010Prop48
 90
       50
102
RTVSPost2010PropOp48
 70
     1
102
RTVSPost2010Prop49
280
     0
102
RTVSPost2010PropOp49
 70
     1
102
RTVSPost2010Prop50
 90
       50
102
RTVSPost2010PropOp50
 70
     1
102
RTVSPost2010Prop51ColorIndex
 90
      256
102
RTVSPost2010Prop51ColorRGB
 90
-16777216
102
RTVSPost2010PropOp51
 70
     0
102
RTVSPost2010Prop52
140
1.0
102
RTVSPost2010PropOp52
 70
     0
102
RTVSPost2010Prop53
 90
        2
102
RTVSPost2010PropOp53
 70
     1
102
RTVSPost2010Prop54
  1
strokes_ogs.tif
102
RTVSPost2010PropOp54
 70
     1
102
RTVSPost2010Prop55
280
     0
102
RTVSPost2010PropOp55
 70
     1
102
RTVSPost2010Prop56
140
1.0
102
RTVSPost2010PropOp56
 70
     1
102
RTVSPost2010Prop57
140
1.0
102
RTVSPost2010PropOp57
 70
     1
102
RTVSPropertyOp33
 70
     1
102
RTVSPropertyOp34
 70
     1
102
RTVSPropertyOp35
 70
     1
102
RTVSPropertyOp36
 70
     1
102
RTVSPropertyOp37
 70
     1
102
RTVSPropertyOp38
 70
     1
102
RTVSPropertyOp39
 70
     1
102
RTVSPropertyOp40
 70
     1
102
RTVSPropertyOp41
 70
     1
102
RTVSPropertyOp42
 70
     1
102
RTVSPropertyOp43
 70
     1
102
RTVSPropertyOp44
 70
     1
102
RTVSPropertyOp45
 70
     1
102
RTVSPropertyOp46
 70
     1
102
RTVSPropertyOp47
 70
     1
102
RTVSPropertyOp48
 70
     1
102
RTVSPropertyOp49
 70
     1
102
RTVSPropertyOp50
 70
     1
102
RTVSPropertyOp51
 70
     0
102
RTVSPropertyOp52
 70
     0
102
RTVSPropertyOp53
 70
     1
102
RTVSPropertyOp54
 70
     1
102
RTVSPropertyOp55
 70
     1
102
RTVSPropertyOp56
 70
     1
102
RTVSPropertyOp57
 70
     1
102
RTVSPropertyOp58
 70
     1
102
RTVSPropertyOp59
 70
     1
102
RTVSPropertyOp60
 70
     1
102
RTVSPropertyOp61
 70
     1
102
RTVSPropertyOp62
 70
     1
102
RTVSPropertyOp0
 70
     1
102
RTVSPropertyOp1
 70
     1
102
RTVSPropertyOp2
 70
     1
102
RTVSPropertyOp3
 70
     1
102
RTVSPropertyOp4
 70
     1
102
RTVSPropertyOp5
 70
     1
102
RTVSPropertyOp6
 70
     1
102
RTVSPropertyOp7
 70
     1
102
RTVSPropertyOp8
 70
     1
102
RTVSPropertyOp9
 70
     1
102
RTVSPropertyOp10
 70
     1
102
RTVSPropertyOp11
 70
     1
102
RTVSPropertyOp12
 70
     1
102
RTVSPropertyOp13
 70
     1
102
RTVSPropertyOp14
 70
     1
102
RTVSPropertyOp15
 70
     1
102
RTVSPropertyOp16
 70
     1
102
RTVSPropertyOp17
 70
     1
102
RTVSPropertyOp18
 70
     1
102
RTVSPropertyOp19
 70
     1
102
RTVSPropertyOp20
 70
     1
102
RTVSPropertyOp21
 70
     1
102
RTVSPropertyOp22
 70
     1
102
RTVSPropertyOp23
 70
     1
102
RTVSPropertyOp24
 70
     1
102
RTVSPropertyOp25
 70
     1
102
RTVSPropertyOp26
 70
     1
102
RTVSPropertyOp27
 70
     1
102
RTVSPropertyOp28
 70
     1
102
RTVSPropertyOp29
 70
     1
102
RTVSPropertyOp30
 70
     1
102
RTVSPropertyOp31
 70
     1
102
RTVSPropertyOp32
 70
     1
  0
XRECORD
  5
3CE
102
{ACAD_REACTORS
330
3CD
102
}
330
3CD
100
AcDbXrecord
280
     1
102
RTVSPropertyOp0
 70
     1
102
RTVSPropertyOp1
 70
     1
102
RTVSPropertyOp2
 70
     1
102
RTVSPropertyOp3
 70
     1
102
RTVSPropertyOp4
 70
     1
102
RTVSPropertyOp5
 70
     1
102
RTVSPropertyOp6
 70
     1
102
RTVSPropertyOp7
 70
     1
102
RTVSPropertyOp8
 70
     1
102
RTVSPropertyOp9
 70
     1
102
RTVSPropertyOp10
 70
     1
102
RTVSPropertyOp11
 70
     1
102
RTVSPropertyOp12
 70
     1
102
RTVSPropertyOp13
 70
     1
102
RTVSPropertyOp14
 70
     1
102
RTVSPropertyOp15
 70
     1
102
RTVSPropertyOp16
 70
     1
102
RTVSPropertyOp17
 70
     1
102
RTVSPropertyOp18
 70
     1
102
RTVSPropertyOp19
 70
     1
102
RTVSPropertyOp20
 70
     1
102
RTVSPropertyOp21
 70
     1
102
RTVSPropertyOp22
 70
     1
102
RTVSPropertyOp23
 70
     1
102
RTVSPropertyOp24
 70
     1
102
RTVSPropertyOp25
 70
     1
102
RTVSPropertyOp26
 70
     1
102
RTVSPropertyOp27
 70
     1
102
RTVSPropertyOp28
 70
     1
102
RTVSPropertyOp29
 70
     1
102
RTVSPropertyOp30
 70
     1
102
RTVSPropertyOp31
 70
     1
102
RTVSPropertyOp32
 70
     1
  0
ENDSEC
  0
EOF
