  0
SECTION
  2
HEADER
  9
$ACADVER
  1
AC1015
  9
$ACADMAINTVER
 70
    18
  9
$DWGCODEPAGE
  3
ANSI_932
  9
$INSBASE
 10
0.0
 20
0.0
 30
0.0
  9
$EXTMIN
 10
-61.99161286226535
 20
-29.49557721907718
 30
0.0
  9
$EXTMAX
 10
464.0746868089889
 20
160.9809422464271
 30
0.0
  9
$LIMMIN
 10
0.0
 20
0.0
  9
$LIMMAX
 10
420.0
 20
297.0
  9
$ORTHOMODE
 70
     1
  9
$REGENMODE
 70
     1
  9
$FILLMODE
 70
     1
  9
$QTEXTMODE
 70
     0
  9
$MIRRTEXT
 70
     1
  9
$LTSCALE
 40
1.0
  9
$ATTMODE
 70
     1
  9
$TEXTSIZE
 40
30.0
  9
$TRACEWID
 40
0.05
  9
$TEXTSTYLE
  7
SUNPOU
  9
$CLAYER
  8
0
  9
$CELTYPE
  6
BYLAYER
  9
$CECOLOR
 62
     7
  9
$CELTSCALE
 40
1.0
  9
$DISPSILH
 70
     0
  9
$DIMSCALE
 40
1.0
  9
$DIMASZ
 40
3.0
  9
$DIMEXO
 40
2.0
  9
$DIMDLI
 40
0.38
  9
$DIMRND
 40
0.0
  9
$DIMDLE
 40
0.0
  9
$DIMEXE
 40
0.0
  9
$DIMTP
 40
0.0
  9
$DIMTM
 40
0.0
  9
$DIMTXT
 40
7.0
  9
$DIMCEN
 40
1.0
  9
$DIMTSZ
 40
0.0
  9
$DIMTOL
 70
     0
  9
$DIMLIM
 70
     0
  9
$DIMTIH
 70
     0
  9
$DIMTOH
 70
     0
  9
$DIMSE1
 70
     0
  9
$DIMSE2
 70
     0
  9
$DIMTAD
 70
     1
  9
$DIMZIN
 70
     0
  9
$DIMBLK
  1

  9
$DIMASO
 70
     1
  9
$DIMSHO
 70
     1
  9
$DIMPOST
  1

  9
$DIMAPOST
  1

  9
$DIMALT
 70
     0
  9
$DIMALTD
 70
     2
  9
$DIMALTF
 40
25.4
  9
$DIMLFAC
 40
1.0
  9
$DIMTOFL
 70
     0
  9
$DIMTVP
 40
0.0
  9
$DIMTIX
 70
     1
  9
$DIMSOXD
 70
     0
  9
$DIMSAH
 70
     1
  9
$DIMBLK1
  1
DOTSMALL
  9
$DIMBLK2
  1
DOTSMALL
  9
$DIMSTYLE
  2
1
  9
$DIMCLRD
 70
    60
  9
$DIMCLRE
 70
    70
  9
$DIMCLRT
 70
    60
  9
$DIMTFAC
 40
0.0642857142857143
  9
$DIMGAP
 40
1.0
  9
$DIMJUST
 70
     0
  9
$DIMSD1
 70
     0
  9
$DIMSD2
 70
     0
  9
$DIMTOLJ
 70
     1
  9
$DIMTZIN
 70
     0
  9
$DIMALTZ
 70
     0
  9
$DIMALTTZ
 70
     0
  9
$DIMUPT
 70
     0
  9
$DIMDEC
 70
     0
  9
$DIMTDEC
 70
     4
  9
$DIMALTU
 70
     2
  9
$DIMALTTD
 70
     2
  9
$DIMTXSTY
  7
STANDARD
  9
$DIMAUNIT
 70
     0
  9
$DIMADEC
 70
     0
  9
$DIMALTRND
 40
0.0
  9
$DIMAZIN
 70
     0
  9
$DIMDSEP
 70
    46
  9
$DIMATFIT
 70
     3
  9
$DIMFRAC
 70
     0
  9
$DIMLDRBLK
  1
DOTSMALL
  9
$DIMLUNIT
 70
     2
  9
$DIMLWD
 70
    -2
  9
$DIMLWE
 70
    -2
  9
$DIMTMOVE
 70
     0
  9
$LUNITS
 70
     4
  9
$LUPREC
 70
     4
  9
$SKETCHINC
 40
0.1
  9
$FILLETRAD
 40
3.0
  9
$AUNITS
 70
     0
  9
$AUPREC
 70
     2
  9
$MENU
  1
acad
  9
$ELEVATION
 40
0.0
  9
$PELEVATION
 40
0.0
  9
$THICKNESS
 40
0.0
  9
$LIMCHECK
 70
     0
  9
$CHAMFERA
 40
0.0
  9
$CHAMFERB
 40
0.0
  9
$CHAMFERC
 40
0.0
  9
$CHAMFERD
 40
0.0
  9
$SKPOLY
 70
     0
  9
$TDCREATE
 40
2450623.676023380
  9
$TDUCREATE
 40
2450623.301023380
  9
$TDUPDATE
 40
2453882.374024942
  9
$TDUUPDATE
 40
2453881.999024942
  9
$TDINDWG
 40
5.3857313889
  9
$TDUSRTIMER
 40
5.3857311921
  9
$USRTIMER
 70
     1
  9
$ANGBASE
 50
0.0
  9
$ANGDIR
 70
     0
  9
$PDMODE
 70
     0
  9
$PDSIZE
 40
0.0
  9
$PLINEWID
 40
0.0
  9
$SPLFRAME
 70
     0
  9
$SPLINETYPE
 70
     6
  9
$SPLINESEGS
 70
     8
  9
$HANDSEED
  5
4F4
  9
$SURFTAB1
 70
     6
  9
$SURFTAB2
 70
     6
  9
$SURFTYPE
 70
     6
  9
$SURFU
 70
     6
  9
$SURFV
 70
     6
  9
$UCSBASE
  2

  9
$UCSNAME
  2

  9
$UCSORG
 10
0.0
 20
0.0
 30
0.0
  9
$UCSXDIR
 10
1.0
 20
0.0
 30
0.0
  9
$UCSYDIR
 10
0.0
 20
1.0
 30
0.0
  9
$UCSORTHOREF
  2

  9
$UCSORTHOVIEW
 70
     0
  9
$UCSORGTOP
 10
0.0
 20
0.0
 30
0.0
  9
$UCSORGBOTTOM
 10
0.0
 20
0.0
 30
0.0
  9
$UCSORGLEFT
 10
0.0
 20
0.0
 30
0.0
  9
$UCSORGRIGHT
 10
0.0
 20
0.0
 30
0.0
  9
$UCSORGFRONT
 10
0.0
 20
0.0
 30
0.0
  9
$UCSORGBACK
 10
0.0
 20
0.0
 30
0.0
  9
$PUCSBASE
  2

  9
$PUCSNAME
  2

  9
$PUCSORG
 10
0.0
 20
0.0
 30
0.0
  9
$PUCSXDIR
 10
1.0
 20
0.0
 30
0.0
  9
$PUCSYDIR
 10
0.0
 20
1.0
 30
0.0
  9
$PUCSORTHOREF
  2

  9
$PUCSORTHOVIEW
 70
     0
  9
$PUCSORGTOP
 10
0.0
 20
0.0
 30
0.0
  9
$PUCSORGBOTTOM
 10
0.0
 20
0.0
 30
0.0
  9
$PUCSORGLEFT
 10
0.0
 20
0.0
 30
0.0
  9
$PUCSORGRIGHT
 10
0.0
 20
0.0
 30
0.0
  9
$PUCSORGFRONT
 10
0.0
 20
0.0
 30
0.0
  9
$PUCSORGBACK
 10
0.0
 20
0.0
 30
0.0
  9
$USERI1
 70
     0
  9
$USERI2
 70
     0
  9
$USERI3
 70
     0
  9
$USERI4
 70
     0
  9
$USERI5
 70
     0
  9
$USERR1
 40
0.0
  9
$USERR2
 40
0.0
  9
$USERR3
 40
0.0
  9
$USERR4
 40
0.0
  9
$USERR5
 40
0.0
  9
$WORLDVIEW
 70
     1
  9
$SHADEDGE
 70
     3
  9
$SHADEDIF
 70
    70
  9
$TILEMODE
 70
     1
  9
$MAXACTVP
 70
    16
  9
$PINSBASE
 10
0.0
 20
0.0
 30
0.0
  9
$PLIMCHECK
 70
     0
  9
$PEXTMIN
 10
1.000000000000000E+20
 20
1.000000000000000E+20
 30
1.000000000000000E+20
  9
$PEXTMAX
 10
-1.000000000000000E+20
 20
-1.000000000000000E+20
 30
-1.000000000000000E+20
  9
$PLIMMIN
 10
0.0
 20
0.0
  9
$PLIMMAX
 10
12.0
 20
9.0
  9
$UNITMODE
 70
     0
  9
$VISRETAIN
 70
     0
  9
$PLINEGEN
 70
     0
  9
$PSLTSCALE
 70
     1
  9
$TREEDEPTH
 70
  3020
  9
$CMLSTYLE
  2
STANDARD
  9
$CMLJUST
 70
     0
  9
$CMLSCALE
 40
1.0
  9
$PROXYGRAPHICS
 70
     1
  9
$MEASUREMENT
 70
     0
  9
$CELWEIGHT
370
    -1
  9
$ENDCAPS
280
     0
  9
$JOINSTYLE
280
     0
  9
$LWDISPLAY
290
     0
  9
$INSUNITS
 70
     0
  9
$HYPERLINKBASE
  1

  9
$STYLESHEET
  1

  9
$XEDIT
290
     1
  9
$CEPSNTYPE
380
     0
  9
$PSTYLEMODE
290
     1
  9
$FINGERPRINTGUID
  2
{734C7813-D1F7-4A47-98B8-690327150B0C}
  9
$VERSIONGUID
  2
{1924BD38-6730-403E-9C16-18EB3354BCE4}
  9
$EXTNAMES
290
     1
  9
$PSVPSCALE
 40
0.0
  9
$OLESTARTUP
290
     0
  0
ENDSEC
  0
SECTION
  2
CLASSES
  0
CLASS
  1
DICTIONARYVAR
  2
AcDbDictionaryVar
  3
ObjectDBX Classes
 90
        0
280
     0
281
     0
  0
CLASS
  1
RASTERVARIABLES
  2
AcDbRasterVariables
  3
ISM
 90
    32768
280
     0
281
     0
  0
CLASS
  1
ACDBDICTIONARYWDFLT
  2
AcDbDictionaryWithDefault
  3
ObjectDBX Classes
 90
        0
280
     0
281
     0
  0
CLASS
  1
ACDBPLACEHOLDER
  2
AcDbPlaceHolder
  3
ObjectDBX Classes
 90
        0
280
     0
281
     0
  0
CLASS
  1
LAYOUT
  2
AcDbLayout
  3
ObjectDBX Classes
 90
        0
280
     0
281
     0
  0
CLASS
  1
AEC_VARS_DWG_SETUP
  2
AecDbVarsDwgSetup
  3
AecBase
 90
    32897
280
     1
281
     0
  0
CLASS
  1
AEC_DISP_REP_MASS_ELEM_MODEL
  2
AecDbDispRepMassElemModel
  3
AecBase
 90
    32897
280
     1
281
     0
  0
CLASS
  1
AEC_DISP_PROPS_MASS_ELEM_MODEL
  2
AecDbDispPropsMassElem
  3
AecBase
 90
    32897
280
     1
281
     0
  0
CLASS
  1
AEC_DISP_REP_MASS_ELEM_SCHEM
  2
AecDbDispRepMassElemSchem
  3
AecBase
 90
    32897
280
     1
281
     0
  0
CLASS
  1
AEC_DISP_REP_DOOR_ELEV
  2
AecDbDispRepDoorElev
  3
AecArchBase
 90
    32897
280
     1
281
     0
  0
CLASS
  1
AEC_DISP_PROPS_DOOR
  2
AecDbDispPropsDoor
  3
AecArchBase
 90
    32897
280
     1
281
     0
  0
CLASS
  1
AEC_DISP_REP_MASKBLOCK_REF
  2
AecDbDispRepMaskBlockRef
  3
AecBase
 90
    32897
280
     1
281
     0
  0
CLASS
  1
AEC_DISP_PROPS_MASKBLOCK
  2
AecDbDispPropsMaskBlock
  3
AecBase
 90
    32897
280
     1
281
     0
  0
CLASS
  1
AEC_DISP_REP_LAYOUT_GRID3D
  2
AecDbDispRepLayoutGrid3d
  3
AecBase
 90
    32897
280
     1
281
     0
  0
CLASS
  1
AEC_DISP_PROPS_LAYOUT_GRID3D
  2
AecDbDispPropsLayoutGrid3d
  3
AecBase
 90
    32897
280
     1
281
     0
  0
CLASS
  1
AEC_DISP_REP_ENT_REF
  2
AecDbDispRepEntRef
  3
AecBase
 90
    32897
280
     1
281
     0
  0
CLASS
  1
AEC_DISP_PROPS_ENT_REF
  2
AecDbDispPropsEntRef
  3
AecBase
 90
    32897
280
     1
281
     0
  0
CLASS
  1
AEC_DISP_REP_CLIP_VOLUME_RESULT_SUBDIV
  2
AecDbDispRepClipVolResSubDiv
  3
AecBase
 90
    32897
280
     1
281
     0
  0
CLASS
  1
AEC_DISP_PROPS_CLIP_VOLUME_RESULT
  2
AecDbDispPropsClipVolResSubDiv
  3
AecBase
 90
    32897
280
     1
281
     0
  0
CLASS
  1
AEC_DISP_REP_CLIP_VOLUME_RESULT
  2
AecDbDispRepClipVolResult
  3
AecBase
 90
    32897
280
     1
281
     0
  0
CLASS
  1
AEC_DISP_REP_CLIP_VOLUME_PLAN
  2
AecDbDispRepClipVolPlan
  3
AecBase
 90
    32897
280
     1
281
     0
  0
CLASS
  1
AEC_DISP_PROPS_CLIP_VOLUME
  2
AecDbDispPropsClipVol
  3
AecBase
 90
    32897
280
     1
281
     0
  0
CLASS
  1
AEC_DISP_REP_CLIP_VOLUME_MODEL
  2
AecDbDispRepClipVolModel
  3
AecBase
 90
    32897
280
     1
281
     0
  0
CLASS
  1
AEC_DISP_REP_ANCHOR_ENT_TO_NODE
  2
AecDbDispRepAnchorEntToNode
  3
AecBase
 90
    32897
280
     1
281
     0
  0
CLASS
  1
AEC_DISP_PROPS_ENT
  2
AecDbDispPropsEnt
  3
AecBase
 90
    32897
280
     1
281
     0
  0
CLASS
  1
AEC_DISP_REP_LAYOUT_GRID2D
  2
AecDbDispRepLayoutGrid2d
  3
AecBase
 90
    32897
280
     1
281
     0
  0
CLASS
  1
AEC_DISP_PROPS_LAYOUT_GRID2D
  2
AecDbDispPropsLayoutGrid2d
  3
AecBase
 90
    32897
280
     1
281
     0
  0
CLASS
  1
AEC_DISP_REP_LAYOUT_CURVE
  2
AecDbDispRepLayoutCurve
  3
AecBase
 90
    32897
280
     1
281
     0
  0
CLASS
  1
AEC_DISP_PROPS_LAYOUT_CURVE
  2
AecDbDispPropsLayoutCurve
  3
AecBase
 90
    32897
280
     1
281
     0
  0
CLASS
  1
AEC_DISP_REP_ANCHOR
  2
AecDbDispRepAnchor
  3
AecBase
 90
    32897
280
     1
281
     0
  0
CLASS
  1
AEC_DISP_REP_CAMERA
  2
AecDbDispRepCamera
  3
AecBase
 90
    32897
280
     1
281
     0
  0
CLASS
  1
AEC_DISP_PROPS_CAMERA
  2
AecDbDispPropsCamera
  3
AecBase
 90
    32897
280
     1
281
     0
  0
CLASS
  1
AEC_DISP_REP_SLICE
  2
AecDbDispRepSlice
  3
AecBase
 90
    32897
280
     1
281
     0
  0
CLASS
  1
AEC_DISP_PROPS_SLICE
  2
AecDbDispPropsSlice
  3
AecBase
 90
    32897
280
     1
281
     0
  0
CLASS
  1
AEC_DISP_REP_MVBLOCK_REF
  2
AecDbDispRepMvBlockRef
  3
AecBase
 90
    32897
280
     1
281
     0
  0
CLASS
  1
AEC_DISP_REP_MVBLOCK_REF_MODEL
  2
AecDbDispRepMvBlockRefModel
  3
AecBase
 90
    32897
280
     1
281
     0
  0
CLASS
  1
AEC_DISP_REP_MASS_GROUP_MODEL
  2
AecDbDispRepMassGroupModel
  3
AecBase
 90
    32897
280
     1
281
     0
  0
CLASS
  1
AEC_DISP_PROPS_MASS_GROUP
  2
AecDbDispPropsMassGroup
  3
AecBase
 90
    32897
280
     1
281
     0
  0
CLASS
  1
AEC_DISP_REP_MASS_GROUP_PLAN
  2
AecDbDispRepMassGroupPlan
  3
AecBase
 90
    32897
280
     1
281
     0
  0
CLASS
  1
AEC_DISP_REP_DOOR_RCP
  2
AecDbDispRepDoorRcp
  3
AecArchBase
 90
    32897
280
     1
281
     0
  0
CLASS
  1
AEC_DISP_REP_DOOR_NOMINAL
  2
AecDbDispRepDoorNominal
  3
AecArchBase
 90
    32897
280
     1
281
     0
  0
CLASS
  1
AEC_DISP_PROPS_DOOR_NOMINAL
  2
AecDbDispPropsDoorNominal
  3
AecArchBase
 90
    32897
280
     1
281
     0
  0
CLASS
  1
AEC_DISP_REP_DOOR_PLAN
  2
AecDbDispRepDoorPlan
  3
AecArchBase
 90
    32897
280
     1
281
     0
  0
CLASS
  1
AEC_DISP_REP_DOOR_MODEL
  2
AecDbDispRepDoorModel
  3
AecArchBase
 90
    32897
280
     1
281
     0
  0
CLASS
  1
AEC_DISP_REP_MVBLOCK_REF_RCP
  2
AecDbDispRepMvBlockRefRcp
  3
AecArchBase
 90
    32897
280
     1
281
     0
  0
CLASS
  1
AEC_DISP_REP_MASS_GROUP_RCP
  2
AecDbDispRepMassGroupRcp
  3
AecArchBase
 90
    32897
280
     1
281
     0
  0
CLASS
  1
AEC_DISP_REP_MASS_ELEM_RCP
  2
AecDbDispRepMassElemRcp
  3
AecArchBase
 90
    32897
280
     1
281
     0
  0
CLASS
  1
AEC_DISP_REP_MASKBLOCK_REF_RCP
  2
AecDbDispRepMaskBlockRefRcp
  3
AecArchBase
 90
    32897
280
     1
281
     0
  0
CLASS
  1
AEC_DISP_REP_COLUMN_GRID_RCP
  2
AecDbDispRepColumnGridRcp
  3
AecArchBase
 90
    32897
280
     1
281
     0
  0
CLASS
  1
AEC_DISP_REP_COLUMN_GRID_MODEL
  2
AecDbDispRepColumnGridModel
  3
AecArchBase
 90
    32897
280
     1
281
     0
  0
CLASS
  1
AEC_DISP_REP_COLUMN_GRID
  2
AecDbDispRepColumnGrid
  3
AecArchBase
 90
    32897
280
     1
281
     0
  0
CLASS
  1
AEC_DISP_REP_CEILING_GRID_RCP
  2
AecDbDispRepCeilingGridRcp
  3
AecArchBase
 90
    32897
280
     1
281
     0
  0
CLASS
  1
AEC_DISP_REP_CEILING_GRID_MODEL
  2
AecDbDispRepCeilingGridModel
  3
AecArchBase
 90
    32897
280
     1
281
     0
  0
CLASS
  1
AEC_DISP_REP_CEILING_GRID
  2
AecDbDispRepCeilingGrid
  3
AecArchBase
 90
    33661
280
     1
281
     0
  0
CLASS
  1
AEC_DISP_REP_BDG_SECTION_SUBDIV
  2
AecDbDispRepBdgSectionSubDiv
  3
AecArchBase
 90
    32897
280
     1
281
     0
  0
CLASS
  1
AEC_DISP_REP_BDG_SECTION_MODEL
  2
AecDbDispRepBdgSectionModel
  3
AecArchBase
 90
    32897
280
     1
281
     0
  0
CLASS
  1
AEC_DISP_REP_BDG_SECTIONLINE_RCP
  2
AecDbDispRepBdgSectionLineRcp
  3
AecArchBase
 90
    32897
280
     1
281
     0
  0
CLASS
  1
AEC_DISP_REP_BDG_SECTIONLINE_PLAN
  2
AecDbDispRepBdgSectionLinePlan
  3
AecArchBase
 90
    32897
280
     1
281
     0
  0
CLASS
  1
AEC_DISP_REP_BDG_ELEVLINE_RCP
  2
AecDbDispRepBdgElevLineRcp
  3
AecArchBase
 90
    32897
280
     1
281
     0
  0
CLASS
  1
AEC_DISP_REP_BDG_ELEVLINE_PLAN
  2
AecDbDispRepBdgElevLinePlan
  3
AecArchBase
 90
    32897
280
     1
281
     0
  0
CLASS
  1
AEC_DISP_REP_BDG_SECTIONLINE_MODEL
  2
AecDbDispRepBdgSectionLineModel
  3
AecArchBase
 90
    32897
280
     1
281
     0
  0
CLASS
  1
AEC_DISP_REP_BDG_ELEVLINE_MODEL
  2
AecDbDispRepBdgElevLineModel
  3
AecArchBase
 90
    32897
280
     1
281
     0
  0
CLASS
  1
AEC_DISP_REP_ANCHOR_BUB_TO_GRID_RCP
  2
AecDbDispRepAnchorBubToGridRcp
  3
AecArchBase
 90
    32897
280
     1
281
     0
  0
CLASS
  1
AEC_DISP_REP_ANCHOR_BUB_TO_GRID_MODEL
  2
AecDbDispRepAnchorBubToGridMdl
  3
AecArchBase
 90
    32897
280
     1
281
     0
  0
CLASS
  1
AEC_DISP_REP_ANCHOR_BUB_TO_GRID
  2
AecDbDispRepAnchorBubToGrid
  3
AecArchBase
 90
    32897
280
     1
281
     0
  0
CLASS
  1
AEC_DISP_REP_WINDOW_RCP
  2
AecDbDispRepWindowRcp
  3
AecArchBase
 90
    32897
280
     1
281
     0
  0
CLASS
  1
AEC_DISP_PROPS_WINDOW
  2
AecDbDispPropsWindow
  3
AecArchBase
 90
    32897
280
     1
281
     0
  0
CLASS
  1
AEC_DISP_REP_ROOF_RCP
  2
AecDbDispRepRoofRcp
  3
AecArchBase
 90
    32897
280
     1
281
     0
  0
CLASS
  1
AEC_DISP_PROPS_ROOF
  2
AecDbDispPropsRoof
  3
AecArchBase
 90
    32897
280
     1
281
     0
  0
CLASS
  1
AEC_DISP_REP_ROOF_PLAN
  2
AecDbDispRepRoofPlan
  3
AecArchBase
 90
    32897
280
     1
281
     0
  0
CLASS
  1
AEC_DISP_REP_WINDOW_SILL_PLAN
  2
AecDbDispRepWindowSillPlan
  3
AecArchBase
 90
    32897
280
     1
281
     0
  0
CLASS
  1
AEC_DISP_PROPS_WINDOW_SILL_PLAN
  2
AecDbDispPropsWindowSillPlan
  3
AecArchBase
 90
    32897
280
     1
281
     0
  0
CLASS
  1
AEC_DISP_REP_SPACE_PLAN
  2
AecDbDispRepSpacePlan
  3
AecArchBase
 90
    32897
280
     1
281
     0
  0
CLASS
  1
AEC_DISP_PROPS_SPACE_PLAN
  2
AecDbDispPropsSpacePlan
  3
AecArchBase
 90
    32897
280
     1
281
     0
  0
CLASS
  1
AEC_DISP_REP_SPACE_MODEL
  2
AecDbDispRepSpaceModel
  3
AecArchBase
 90
    32897
280
     1
281
     0
  0
CLASS
  1
AEC_DISP_PROPS_SPACE_MODEL
  2
AecDbDispPropsSpaceModel
  3
AecArchBase
 90
    32897
280
     1
281
     0
  0
CLASS
  1
AEC_DISP_REP_WINDOW_MODEL
  2
AecDbDispRepWindowModel
  3
AecArchBase
 90
    32897
280
     1
281
     0
  0
CLASS
  1
AEC_DISP_REP_WINDOW_NOMINAL
  2
AecDbDispRepWindowNominal
  3
AecArchBase
 90
    32897
280
     1
281
     0
  0
CLASS
  1
AEC_DISP_PROPS_WINDOW_NOMINAL
  2
AecDbDispPropsWindowNominal
  3
AecArchBase
 90
    32897
280
     1
281
     0
  0
CLASS
  1
AEC_DISP_REP_OPENING
  2
AecDbDispRepOpening
  3
AecArchBase
 90
    32897
280
     1
281
     0
  0
CLASS
  1
AEC_DISP_PROPS_OPENING
  2
AecDbDispPropsOpening
  3
AecArchBase
 90
    32897
280
     1
281
     0
  0
CLASS
  1
AEC_DISP_REP_OPENING_MODEL
  2
AecDbDispRepOpeningModel
  3
AecArchBase
 90
    32897
280
     1
281
     0
  0
CLASS
  1
AEC_DISP_REP_RAILING_PLAN
  2
AecDbDispRepRailingPlan
  3
AecArchBase
 90
    32897
280
     1
281
     0
  0
CLASS
  1
AEC_DISP_PROPS_RAILING_PLAN
  2
AecDbDispPropsRailingPlan
  3
AecArchBase
 90
    32897
280
     1
281
     0
  0
CLASS
  1
AEC_DISP_REP_RAILING_MODEL
  2
AecDbDispRepRailingModel
  3
AecArchBase
 90
    32897
280
     1
281
     0
  0
CLASS
  1
AEC_DISP_PROPS_RAILING_MODEL
  2
AecDbDispPropsRailingModel
  3
AecArchBase
 90
    32897
280
     1
281
     0
  0
CLASS
  1
AEC_DISP_REP_WINDOW_ELEV
  2
AecDbDispRepWindowElev
  3
AecArchBase
 90
    32897
280
     1
281
     0
  0
CLASS
  1
AEC_DISP_REP_DOOR_THRESHOLD_PLAN
  2
AecDbDispRepDoorThresholdPlan
  3
AecArchBase
 90
    32897
280
     1
281
     0
  0
CLASS
  1
AEC_DISP_PROPS_DOOR_THRESHOLD_PLAN
  2
AecDbDispPropsDoorThresholdPlan
  3
AecArchBase
 90
    32897
280
     1
281
     0
  0
CLASS
  1
AEC_DISP_REP_ROOF_MODEL
  2
AecDbDispRepRoofModel
  3
AecArchBase
 90
    32897
280
     1
281
     0
  0
CLASS
  1
AEC_DISP_REP_WINDOW_PLAN
  2
AecDbDispRepWindowPlan
  3
AecArchBase
 90
    32897
280
     1
281
     0
  0
CLASS
  1
AEC_DISP_REP_WALL_SCHEM
  2
AecDbDispRepWallSchem
  3
AecArchBase
 90
    32897
280
     1
281
     0
  0
CLASS
  1
AEC_DISP_PROPS_WALL_SCHEM
  2
AecDbDispPropsWallSchem
  3
AecArchBase
 90
    32897
280
     1
281
     0
  0
CLASS
  1
AEC_DISP_REP_WALL_RCP
  2
AecDbDispRepWallRcp
  3
AecArchBase
 90
    32897
280
     1
281
     0
  0
CLASS
  1
AEC_DISP_PROPS_WALL_PLAN
  2
AecDbDispPropsWallPlan
  3
AecArchBase
 90
    32897
280
     1
281
     0
  0
CLASS
  1
AEC_DISP_REP_WALL_PLAN
  2
AecDbDispRepWallPlan
  3
AecArchBase
 90
    32897
280
     1
281
     0
  0
CLASS
  1
AEC_DISP_REP_WALL_MODEL
  2
AecDbDispRepWallModel
  3
AecArchBase
 90
    32897
280
     1
281
     0
  0
CLASS
  1
AEC_DISP_PROPS_WALL
  2
AecDbDispPropsWall
  3
AecArchBase
 90
    32897
280
     1
281
     0
  0
CLASS
  1
AEC_DISP_REP_WALL_GRAPH
  2
AecDbDispRepWallGraph
  3
AecArchBase
 90
    32897
280
     1
281
     0
  0
CLASS
  1
AEC_DISP_REP_STAIR_RCP
  2
AecDbDispRepStairRcp
  3
AecArchBase
 90
    32897
280
     1
281
     0
  0
CLASS
  1
AEC_DISP_PROPS_STAIR_PLAN
  2
AecDbDispPropsStairPlan
  3
AecArchBase
 90
    32897
280
     1
281
     0
  0
CLASS
  1
AEC_DISP_REP_STAIR_PLAN
  2
AecDbDispRepStairPlan
  3
AecArchBase
 90
    32897
280
     1
281
     0
  0
CLASS
  1
AEC_DISP_REP_STAIR_MODEL
  2
AecDbDispRepStairModel
  3
AecArchBase
 90
    32897
280
     1
281
     0
  0
CLASS
  1
AEC_DISP_PROPS_STAIR_MODEL
  2
AecDbDispPropsStairModel
  3
AecArchBase
 90
    32897
280
     1
281
     0
  0
CLASS
  1
AEC_DISP_REP_SPACE_BOUNDARY_SCHEM
  2
AecDbDispRepSpaceBoundarySketch
  3
AecArchBase
 90
    32897
280
     1
281
     0
  0
CLASS
  1
AEC_DISP_REP_SPACE_BOUNDARY_PLAN
  2
AecDbDispRepSpaceBoundaryPlan
  3
AecArchBase
 90
    32897
280
     1
281
     0
  0
CLASS
  1
AEC_DISP_REP_SPACE_BOUNDARY_MODEL
  2
AecDbDispRepSpaceBoundaryModel
  3
AecArchBase
 90
    32897
280
     1
281
     0
  0
CLASS
  1
AEC_DISP_REP_SPACE_BOUNDARY_DIAGRAM
  2
AecDbDispRepSpaceBoundaryDgrm
  3
AecArchBase
 90
    32897
280
     1
281
     0
  0
CLASS
  1
AEC_DISP_REP_SPACE_VOLUME
  2
AecDbDispRepSpaceVolume
  3
AecArchBase
 90
    32897
280
     1
281
     0
  0
CLASS
  1
AEC_DISP_REP_SPACE_RCP
  2
AecDbDispRepSpaceRcp
  3
AecArchBase
 90
    32897
280
     1
281
     0
  0
CLASS
  1
AEC_DISP_REP_ANCHOR_TAG_TO_ENT
  2
AecDbDispRepAnchorTagToEnt
  3
AecScheduleData
 90
    32897
280
     1
281
     0
  0
CLASS
  1
AEC_DISP_REP_SCHEDULE_TABLE
  2
AecDbDispRepScheduleTable
  3
AecSchedule
 90
    32897
280
     1
281
     0
  0
CLASS
  1
AEC_DISP_PROPS_SCHEDULE_TABLE
  2
AecDbDispPropsScheduleTable
  3
AecSchedule
 90
    32897
280
     1
281
     0
  0
CLASS
  1
AEC_DISP_REP_SET
  2
AecDbDispRepSet
  3
AecBase
 90
    32897
280
     1
281
     0
  0
CLASS
  1
AEC_DISP_REP_CONFIG
  2
AecDbDispRepConfig
  3
AecBase
 90
    32897
280
     1
281
     0
  0
CLASS
  1
TABLESTYLE
  2
AcDbTableStyle
  3
ObjectDBX Classes
 90
     4095
280
     0
281
     0
  0
CLASS
  1
MATERIAL
  2
AcDbMaterial
  3
ObjectDBX Classes
 90
     1153
280
     0
281
     0
  0
CLASS
  1
VISUALSTYLE
  2
AcDbVisualStyle
  3
ObjectDBX Classes
 90
     4095
280
     0
281
     0
  0
CLASS
  1
SCALE
  2
AcDbScale
  3
ObjectDBX Classes
 90
     1153
280
     0
281
     0
  0
CLASS
  1
MLEADERSTYLE
  2
AcDbMLeaderStyle
  3
ACDB_MLEADERSTYLE_CLASS
 90
    36863
280
     0
281
     0
  0
CLASS
  1
ACDBSECTIONVIEWSTYLE
  2
AcDbSectionViewStyle
  3
ObjectDBX Classes
 90
    33793
280
     0
281
     0
  0
CLASS
  1
ACDBDETAILVIEWSTYLE
  2
AcDbDetailViewStyle
  3
ObjectDBX Classes
 90
    33793
280
     0
281
     0
  0
CLASS
  1
CELLSTYLEMAP
  2
AcDbCellStyleMap
  3
ObjectDBX Classes
 90
     1152
280
     0
281
     0
  0
ENDSEC
  0
SECTION
  2
TABLES
  0
TABLE
  2
VPORT
  5
2F
330
0
100
AcDbSymbolTable
 70
     1
  0
VPORT
  5
30
330
2F
100
AcDbSymbolTableRecord
100
AcDbViewportTableRecord
  2
*Active
 70
     0
 10
0.0
 20
0.0
 11
1.0
 21
1.0
 12
161.3757152653141
 22
56.69458034732781
 13
0.0
 23
0.0
 14
1.0
 24
1.0
 15
0.0
 25
0.0
 16
0.0
 26
0.0
 36
1.0
 17
0.0
 27
0.0
 37
0.0
 40
400.393526621453
 41
2.043307086614173
 42
50.0
 43
0.0
 44
0.0
 50
0.0
 51
0.0
 71
     0
 72
 20000
 73
     1
 74
     1
 75
     0
 76
     0
 77
     0
 78
     0
281
     0
 65
     1
110
0.0
120
0.0
130
0.0
111
1.0
121
0.0
131
0.0
112
0.0
122
1.0
132
0.0
 79
     0
146
0.0
1001
ACAD_NAV_VCDISPLAY
1070
     3
  0
ENDTAB
  0
TABLE
  2
LTYPE
  5
2A
330
0
100
AcDbSymbolTable
 70
     1
  0
LTYPE
  5
2B
330
2A
100
AcDbSymbolTableRecord
100
AcDbLinetypeTableRecord
  2
BYBLOCK
 70
     0
  3

 72
    65
 73
     0
 40
0.0
  0
LTYPE
  5
2C
330
2A
100
AcDbSymbolTableRecord
100
AcDbLinetypeTableRecord
  2
BYLAYER
 70
     0
  3

 72
    65
 73
     0
 40
0.0
  0
LTYPE
  5
14
330
2A
100
AcDbSymbolTableRecord
100
AcDbLinetypeTableRecord
  2
CONTINUOUS
 70
     0
  3
Solid line
 72
    65
 73
     0
 40
0.0
  0
ENDTAB
  0
TABLE
  2
LAYER
  5
26
330
0
100
AcDbSymbolTable
 70
     6
  0
LAYER
  5
6
330
26
100
AcDbSymbolTableRecord
100
AcDbLayerTableRecord
  2
0
 70
     0
 62
     7
  6
CONTINUOUS
370
    -3
390
7
  0
LAYER
  5
6C
330
26
100
AcDbSymbolTableRecord
100
AcDbLayerTableRecord
  2
DEFPOINTS
 70
     0
 62
     7
  6
CONTINUOUS
290
     0
370
    -3
390
7
  0
LAYER
  5
62
330
26
100
AcDbSymbolTableRecord
100
AcDbLayerTableRecord
  2
SUNPOU
 70
     0
 62
    70
  6
CONTINUOUS
370
    -3
390
7
  0
LAYER
  5
71
330
26
100
AcDbSymbolTableRecord
100
AcDbLayerTableRecord
  2
KIJUN
 70
     0
 62
     7
  6
CONTINUOUS
370
    -3
390
7
  0
LAYER
  5
4D0
330
26
100
AcDbSymbolTableRecord
100
AcDbLayerTableRecord
  2
HOJO
 70
     0
 62
     3
  6
CONTINUOUS
370
    -3
390
7
  0
LAYER
  5
4D2
330
26
100
AcDbSymbolTableRecord
100
AcDbLayerTableRecord
  2
WAKU
 70
     0
 62
     1
  6
CONTINUOUS
370
    -3
390
7
  0
ENDTAB
  0
TABLE
  2
STYLE
  5
27
330
0
100
AcDbSymbolTable
 70
     2
  0
STYLE
  5
28
330
27
100
AcDbSymbolTableRecord
100
AcDbTextStyleTableRecord
  2
STANDARD
 70
     0
 40
0.0
 41
1.0
 50
0.0
 71
     0
 42
0.2
  3
txt
  4

  0
STYLE
  5
4B
330
27
100
AcDbSymbolTableRecord
100
AcDbTextStyleTableRecord
  2
SUNPOU
 70
     0
 40
0.0
 41
1.0
 50
0.0
 71
     0
 42
30.0
  3
txt
  4
bigfont
  0
ENDTAB
  0
TABLE
  2
VIEW
  5
2D
330
0
100
AcDbSymbolTable
 70
     0
  0
ENDTAB
  0
TABLE
  2
UCS
  5
2E
330
0
100
AcDbSymbolTable
 70
     0
  0
ENDTAB
  0
TABLE
  2
APPID
  5
34
330
0
100
AcDbSymbolTable
 70
     2
  0
APPID
  5
A
330
34
100
AcDbSymbolTableRecord
100
AcDbRegAppTableRecord
  2
ACAD
 70
     0
  0
APPID
  5
33
330
34
100
AcDbSymbolTableRecord
100
AcDbRegAppTableRecord
  2
ACAD_NAV_VCDISPLAY
 70
     0
  0
ENDTAB
  0
TABLE
  2
DIMSTYLE
  5
35
330
0
100
AcDbSymbolTable
 70
     1
100
AcDbDimStyleTable
 71
     1
340
36
  0
DIMSTYLE
105
36
102
{ACAD_REACTORS
330
61
330
4C2
102
}
330
35
100
AcDbSymbolTableRecord
100
AcDbDimStyleTableRecord
  2
1
 70
     0
 41
3.0
 42
2.0
 44
0.0
 73
     0
 74
     0
 77
     1
140
7.0
141
1.0
146
0.0642857142857143
147
1.0
173
     1
174
     1
176
    60
177
    70
178
    60
271
     0
340
28
341
37
343
37
344
37
  0
ENDTAB
  0
TABLE
  2
BLOCK_RECORD
  5
1
330
0
100
AcDbSymbolTable
 70
     3
  0
BLOCK_RECORD
  5
2
102
{ACAD_XDICTIONARY
360
3
102
}
330
1
100
AcDbSymbolTableRecord
100
AcDbBlockTableRecord
  2
*MODEL_SPACE
340
1E
  0
BLOCK_RECORD
  5
20
102
{ACAD_XDICTIONARY
360
21
102
}
330
1
100
AcDbSymbolTableRecord
100
AcDbBlockTableRecord
  2
*PAPER_SPACE
340
25
  0
BLOCK_RECORD
  5
37
330
1
100
AcDbSymbolTableRecord
100
AcDbBlockTableRecord
  2
_DOTSMALL
340
0
102
{BLKREFS
331
4C8
331
4C9
331
68
331
69
102
}
  0
BLOCK_RECORD
  5
4C3
330
1
100
AcDbSymbolTableRecord
100
AcDbBlockTableRecord
  2
*D1
340
0
  0
BLOCK_RECORD
  5
63
330
1
100
AcDbSymbolTableRecord
100
AcDbBlockTableRecord
  2
*D2
340
0
  0
ENDTAB
  0
ENDSEC
  0
SECTION
  2
BLOCKS
  0
BLOCK
  5
5
330
2
100
AcDbEntity
  8
0
100
AcDbBlockBegin
  2
*MODEL_SPACE
 70
     0
 10
0.0
 20
0.0
 30
0.0
  3
*MODEL_SPACE
  1

  0
ENDBLK
  5
1D
330
2
100
AcDbEntity
  8
0
100
AcDbBlockEnd
  0
BLOCK
  5
23
330
20
100
AcDbEntity
 67
     1
  8
0
100
AcDbBlockBegin
  2
*PAPER_SPACE
 70
     0
 10
0.0
 20
0.0
 30
0.0
  3
*PAPER_SPACE
  1

  0
ENDBLK
  5
24
330
20
100
AcDbEntity
 67
     1
  8
0
100
AcDbBlockEnd
  0
BLOCK
  5
38
330
37
100
AcDbEntity
  8
0
100
AcDbBlockBegin
  2
_DOTSMALL
 70
     0
 10
0.0
 20
0.0
 30
0.0
  3
_DOTSMALL
  1

  0
LWPOLYLINE
  5
39
330
37
100
AcDbEntity
  8
0
  6
ByBlock
 62
     0
100
AcDbPolyline
 90
        2
 70
     1
 43
0.5
 10
-0.0625
 20
0.0
 42
1.0
 10
0.0625
 20
0.0
 42
1.0
  0
ENDBLK
  5
3A
330
37
100
AcDbEntity
  8
0
100
AcDbBlockEnd
  0
BLOCK
  5
4C4
330
4C3
100
AcDbEntity
  8
0
 62
     7
100
AcDbBlockBegin
  2
*D1
 70
     1
 10
0.0
 20
0.0
 30
0.0
  3
*D1
  1

  0
LINE
  5
4C5
330
4C3
100
AcDbEntity
  8
SUNPOU
 62
    70
370
    -2
100
AcDbLine
 10
62.04417852983112
 20
90.96239833862654
 30
0.0
 11
62.04417852983112
 21
102.7579365664064
 31
0.0
  0
LINE
  5
4C6
330
4C3
100
AcDbEntity
  8
SUNPOU
 62
    70
370
    -2
100
AcDbLine
 10
25.04417852983113
 20
90.96239833862654
 30
0.0
 11
25.04417852983113
 21
102.7579365664064
 31
0.0
  0
LINE
  5
4C7
330
4C3
100
AcDbEntity
  8
SUNPOU
 62
    60
370
    -2
100
AcDbLine
 10
62.04417852983112
 20
102.7579365664064
 30
0.0
 11
25.04417852983113
 21
102.7579365664064
 31
0.0
  0
INSERT
  5
4C8
330
4C3
100
AcDbEntity
  8
SUNPOU
 62
    60
370
    -2
100
AcDbBlockReference
  2
_DOTSMALL
 10
62.04417852983112
 20
102.7579365664064
 30
0.0
 41
3.0
 42
3.0
 43
3.0
  0
INSERT
  5
4C9
330
4C3
100
AcDbEntity
  8
SUNPOU
 62
    60
370
    -2
100
AcDbBlockReference
  2
_DOTSMALL
 10
25.04417852983113
 20
102.7579365664064
 30
0.0
 41
3.0
 42
3.0
 43
3.0
 50
180.0
  0
MTEXT
  5
4CA
330
4C3
100
AcDbEntity
  8
SUNPOU
 62
    60
100
AcDbMText
 10
43.54417852983113
 20
107.2579365664064
 30
0.0
 40
7.0
 41
0.0
 71
     5
 72
     1
  1
\A1;37
 73
     1
 44
1.0
1001
ACAD
1000
MTEXTBEGIN
1070
    73
1070
     1
1070
    44
1040
1.0
1070
    74
1070
     0
1000
MTEXTEND
  0
POINT
  5
4CB
330
4C3
100
AcDbEntity
  8
DEFPOINTS
 62
     0
100
AcDbPoint
 10
62.04417852983112
 20
88.96239833862654
 30
0.0
  0
POINT
  5
4CC
330
4C3
100
AcDbEntity
  8
DEFPOINTS
 62
     0
100
AcDbPoint
 10
25.04417852983113
 20
88.96239833862654
 30
0.0
  0
POINT
  5
4CD
330
4C3
100
AcDbEntity
  8
DEFPOINTS
 62
     0
100
AcDbPoint
 10
25.04417852983113
 20
102.7579365664064
 30
0.0
  0
ENDBLK
  5
4CE
330
4C3
100
AcDbEntity
  8
0
 62
     7
100
AcDbBlockEnd
  0
BLOCK
  5
64
330
63
100
AcDbEntity
  8
0
 62
     7
100
AcDbBlockBegin
  2
*D2
 70
     1
 10
0.0
 20
0.0
 30
0.0
  3
*D2
  1

  0
LINE
  5
65
330
63
100
AcDbEntity
  8
SUNPOU
 62
    70
370
    -2
100
AcDbLine
 10
23.04417852983113
 20
22.96239833862653
 30
0.0
 11
10.22647764833373
 21
22.96239833862653
 31
0.0
  0
LINE
  5
66
330
63
100
AcDbEntity
  8
SUNPOU
 62
    70
370
    -2
100
AcDbLine
 10
23.04417852983113
 20
88.96239833862654
 30
0.0
 11
10.22647764833374
 21
88.96239833862654
 31
0.0
  0
LINE
  5
67
330
63
100
AcDbEntity
  8
SUNPOU
 62
    60
370
    -2
100
AcDbLine
 10
10.22647764833373
 20
22.96239833862653
 30
0.0
 11
10.22647764833374
 21
88.96239833862654
 31
0.0
  0
INSERT
  5
68
330
63
100
AcDbEntity
  8
SUNPOU
 62
    60
370
    -2
100
AcDbBlockReference
  2
_DOTSMALL
 10
10.22647764833373
 20
22.96239833862653
 30
0.0
 41
3.0
 42
3.0
 43
3.0
 50
270.0
  0
INSERT
  5
69
330
63
100
AcDbEntity
  8
SUNPOU
 62
    60
370
    -2
100
AcDbBlockReference
  2
_DOTSMALL
 10
10.22647764833374
 20
88.96239833862654
 30
0.0
 41
3.0
 42
3.0
 43
3.0
 50
90.0
  0
MTEXT
  5
6A
330
63
100
AcDbEntity
  8
SUNPOU
 62
    60
100
AcDbMText
 10
5.726477648333727
 20
55.96239833862654
 30
0.0
 40
7.0
 41
0.0
 71
     5
 72
     1
  1
\A1;66
 11
0.0000000000000001
 21
1.0
 31
0.0
 73
     1
 44
1.0
1001
ACAD
1000
MTEXTBEGIN
1070
    73
1070
     1
1070
    44
1040
1.0
1070
    74
1070
     0
1000
MTEXTEND
  0
POINT
  5
6B
330
63
100
AcDbEntity
  8
DEFPOINTS
 62
     0
100
AcDbPoint
 10
25.04417852983113
 20
22.96239833862653
 30
0.0
  0
POINT
  5
6D
330
63
100
AcDbEntity
  8
DEFPOINTS
 62
     0
100
AcDbPoint
 10
25.04417852983113
 20
88.96239833862654
 30
0.0
  0
POINT
  5
6E
330
63
100
AcDbEntity
  8
DEFPOINTS
 62
     0
100
AcDbPoint
 10
10.22647764833374
 20
88.96239833862654
 30
0.0
  0
ENDBLK
  5
6F
330
63
100
AcDbEntity
  8
0
 62
     7
100
AcDbBlockEnd
  0
ENDSEC
  0
SECTION
  2
ENTITIES
  0
DIMENSION
  5
61
330
2
100
AcDbEntity
  8
SUNPOU
 62
     7
100
AcDbDimension
  2
*D2
 10
10.22647764833374
 20
88.96239833862654
 30
0.0
 11
5.726477648333727
 21
55.96239833862654
 31
0.0
 71
     5
 42
66.0
  3
1
100
AcDbAlignedDimension
 13
25.04417852983113
 23
22.96239833862653
 33
0.0
 14
25.04417852983113
 24
88.96239833862654
 34
0.0
 50
90.0
100
AcDbRotatedDimension
  0
LINE
  5
70
330
2
100
AcDbEntity
  8
KIJUN
 62
     7
100
AcDbLine
 10
111.6755981348047
 20
45.52284225756233
 30
0.0
 11
111.6755981348047
 21
64.10772820285497
 31
0.0
  0
LINE
  5
72
330
2
100
AcDbEntity
  8
KIJUN
 62
     7
100
AcDbLine
 10
109.6755981348042
 20
45.52284225756233
 30
0.0
 11
109.6755981348047
 21
64.10772820285497
 31
0.0
  0
LINE
  5
73
330
2
100
AcDbEntity
  8
KIJUN
 62
     7
100
AcDbLine
 10
109.6755981348042
 20
45.52284225756233
 30
0.0
 11
109.6755981348038
 21
64.10772820285497
 31
0.0
  0
LINE
  5
74
330
2
100
AcDbEntity
  8
KIJUN
 62
     7
100
AcDbLine
 10
107.6755981348038
 20
45.52284225756233
 30
0.0
 11
107.6755981348038
 21
64.10772820285497
 31
0.0
  0
LINE
  5
75
330
2
100
AcDbEntity
  8
KIJUN
 62
     7
100
AcDbLine
 10
87.67559813480289
 20
45.52284225756233
 30
0.0
 11
87.67559813480245
 21
64.10772820285497
 31
0.0
  0
LINE
  5
76
330
2
100
AcDbEntity
  8
KIJUN
 62
     7
100
AcDbLine
 10
89.6755981348029
 20
45.52284225756233
 30
0.0
 11
89.67559813480244
 21
64.10772820285497
 31
0.0
  0
LINE
  5
77
330
2
100
AcDbEntity
  8
KIJUN
 62
     7
100
AcDbLine
 10
96.67559813480334
 20
45.52284225756233
 30
0.0
 11
96.67559813480334
 21
64.10772820285497
 31
0.0
  0
LINE
  5
78
330
2
100
AcDbEntity
  8
KIJUN
 62
     7
100
AcDbLine
 10
98.67559813480381
 20
45.52284225756233
 30
0.0
 11
98.67559813480333
 21
64.10772820285497
 31
0.0
  0
LINE
  5
79
330
2
100
AcDbEntity
  8
KIJUN
 62
     7
100
AcDbLine
 10
87.67559813480289
 20
45.52284225756233
 30
0.0
 11
87.67559813480334
 21
64.10772820285497
 31
0.0
  0
LINE
  5
7A
330
2
100
AcDbEntity
  8
KIJUN
 62
     7
100
AcDbLine
 10
98.67559813480381
 20
45.52284225756233
 30
0.0
 11
98.67559813480426
 21
64.10772820285497
 31
0.0
  0
LINE
  5
7B
330
2
100
AcDbEntity
  8
KIJUN
 62
     7
100
AcDbLine
 10
100.6755981348042
 20
45.52284225756233
 30
0.0
 11
100.6755981348042
 21
64.10772820285497
 31
0.0
  0
LINE
  5
7C
330
2
100
AcDbEntity
  8
KIJUN
 62
     7
100
AcDbLine
 10
206.6755981348129
 20
45.52284225756277
 30
0.0
 11
206.6755981348129
 21
64.1077282028552
 31
0.0
  0
LINE
  5
7D
330
2
100
AcDbEntity
  8
KIJUN
 62
     7
100
AcDbLine
 10
111.6755981348051
 20
45.52284225756233
 30
0.0
 11
111.6755981348047
 21
64.10772820285497
 31
0.0
  0
LINE
  5
7E
330
2
100
AcDbEntity
  8
KIJUN
 62
     7
100
AcDbLine
 10
197.6755981348123
 20
45.52284225756277
 30
0.0
 11
197.6755981348128
 21
64.1077282028552
 31
0.0
  0
LINE
  5
7F
330
2
100
AcDbEntity
  8
KIJUN
 62
     7
100
AcDbLine
 10
195.6755981348124
 20
45.52284225756277
 30
0.0
 11
195.6755981348128
 21
64.1077282028552
 31
0.0
  0
LINE
  5
80
330
2
100
AcDbEntity
  8
KIJUN
 62
     7
100
AcDbLine
 10
188.6755981348119
 20
45.52284225756277
 30
0.0
 11
188.6755981348119
 21
64.1077282028552
 31
0.0
  0
LINE
  5
81
330
2
100
AcDbEntity
  8
KIJUN
 62
     7
100
AcDbLine
 10
186.6755981348113
 20
45.52284225756277
 30
0.0
 11
186.6755981348119
 21
64.1077282028552
 31
0.0
  0
LINE
  5
82
330
2
100
AcDbEntity
  8
KIJUN
 62
     7
100
AcDbLine
 10
199.6755981348123
 20
45.52284225756277
 30
0.0
 11
199.6755981348119
 21
64.1077282028552
 31
0.0
  0
LINE
  5
83
330
2
100
AcDbEntity
  8
KIJUN
 62
     7
100
AcDbLine
 10
197.6755981348123
 20
45.52284225756277
 30
0.0
 11
197.6755981348119
 21
64.1077282028552
 31
0.0
  0
LINE
  5
84
330
2
100
AcDbEntity
  8
KIJUN
 62
     7
100
AcDbLine
 10
186.6755981348113
 20
45.52284225756277
 30
0.0
 11
186.675598134811
 21
64.1077282028552
 31
0.0
  0
LINE
  5
85
330
2
100
AcDbEntity
  8
KIJUN
 62
     7
100
AcDbLine
 10
184.675598134811
 20
45.52284225756277
 30
0.0
 11
184.675598134811
 21
64.1077282028552
 31
0.0
  0
LINE
  5
86
330
2
100
AcDbEntity
  8
KIJUN
 62
     7
100
AcDbLine
 10
175.6755981348106
 20
45.52284225756277
 30
0.0
 11
175.6755981348109
 21
64.1077282028552
 31
0.0
  0
LINE
  5
87
330
2
100
AcDbEntity
  8
KIJUN
 62
     7
100
AcDbLine
 10
177.6755981348106
 20
45.52284225756277
 30
0.0
 11
177.6755981348102
 21
64.1077282028552
 31
0.0
  0
LINE
  5
88
330
2
100
AcDbEntity
  8
KIJUN
 62
     7
100
AcDbLine
 10
175.6755981348106
 20
45.52284225756277
 30
0.0
 11
175.6755981348102
 21
64.1077282028552
 31
0.0
  0
LINE
  5
89
330
2
100
AcDbEntity
  8
KIJUN
 62
     7
100
AcDbLine
 10
142.6755981348079
 20
45.52284225756255
 30
0.0
 11
142.6755981348074
 21
64.10772820285497
 31
0.0
  0
LINE
  5
8A
330
2
100
AcDbEntity
  8
KIJUN
 62
     7
100
AcDbLine
 10
144.6755981348079
 20
45.52284225756255
 30
0.0
 11
144.6755981348074
 21
64.10772820285497
 31
0.0
  0
LINE
  5
8B
330
2
100
AcDbEntity
  8
KIJUN
 62
     7
100
AcDbLine
 10
142.6755981348079
 20
45.52284225756255
 30
0.0
 11
142.6755981348083
 21
64.10772820285497
 31
0.0
  0
LINE
  5
8C
330
2
100
AcDbEntity
  8
KIJUN
 62
     7
100
AcDbLine
 10
151.6755981348083
 20
45.52284225756255
 30
0.0
 11
151.6755981348083
 21
64.10772820285497
 31
0.0
  0
LINE
  5
8D
330
2
100
AcDbEntity
  8
KIJUN
 62
     7
100
AcDbLine
 10
153.6755981348087
 20
45.52284225756255
 30
0.0
 11
153.6755981348083
 21
64.10772820285497
 31
0.0
  0
LINE
  5
8E
330
2
100
AcDbEntity
  8
KIJUN
 62
     7
100
AcDbLine
 10
173.6755981348102
 20
45.52284225756255
 30
0.0
 11
173.6755981348102
 21
64.10772820285497
 31
0.0
  0
LINE
  5
8F
330
2
100
AcDbEntity
  8
KIJUN
 62
     7
100
AcDbLine
 10
175.6755981348106
 20
45.52284225756255
 30
0.0
 11
175.6755981348102
 21
64.10772820285497
 31
0.0
  0
LINE
  5
90
330
2
100
AcDbEntity
  8
KIJUN
 62
     7
100
AcDbLine
 10
164.6755981348096
 20
45.52284225756255
 30
0.0
 11
164.6755981348093
 21
64.10772820285497
 31
0.0
  0
LINE
  5
91
330
2
100
AcDbEntity
  8
KIJUN
 62
     7
100
AcDbLine
 10
166.6755981348096
 20
45.52284225756255
 30
0.0
 11
166.6755981348092
 21
64.10772820285497
 31
0.0
  0
LINE
  5
92
330
2
100
AcDbEntity
  8
KIJUN
 62
     7
100
AcDbLine
 10
153.6755981348087
 20
45.52284225756255
 30
0.0
 11
153.6755981348093
 21
64.10772820285497
 31
0.0
  0
LINE
  5
93
330
2
100
AcDbEntity
  8
KIJUN
 62
     7
100
AcDbLine
 10
155.6755981348093
 20
45.52284225756255
 30
0.0
 11
155.6755981348093
 21
64.10772820285497
 31
0.0
  0
LINE
  5
94
330
2
100
AcDbEntity
  8
KIJUN
 62
     7
100
AcDbLine
 10
162.6755981348096
 20
45.52284225756255
 30
0.0
 11
162.6755981348102
 21
64.10772820285497
 31
0.0
  0
LINE
  5
95
330
2
100
AcDbEntity
  8
KIJUN
 62
     7
100
AcDbLine
 10
164.6755981348096
 20
45.52284225756255
 30
0.0
 11
164.6755981348102
 21
64.10772820285497
 31
0.0
  0
LINE
  5
96
330
2
100
AcDbEntity
  8
KIJUN
 62
     7
100
AcDbLine
 10
118.6755981348056
 20
45.52284225756233
 30
0.0
 11
118.6755981348056
 21
64.10772820285497
 31
0.0
  0
LINE
  5
97
330
2
100
AcDbEntity
  8
KIJUN
 62
     7
100
AcDbLine
 10
120.6755981348061
 20
45.52284225756233
 30
0.0
 11
120.6755981348056
 21
64.10772820285497
 31
0.0
  0
LINE
  5
98
330
2
100
AcDbEntity
  8
KIJUN
 62
     7
100
AcDbLine
 10
140.6755981348074
 20
45.52284225756233
 30
0.0
 11
140.6755981348074
 21
64.10772820285497
 31
0.0
  0
LINE
  5
99
330
2
100
AcDbEntity
  8
KIJUN
 62
     7
100
AcDbLine
 10
142.6755981348079
 20
45.52284225756233
 30
0.0
 11
142.6755981348074
 21
64.10772820285497
 31
0.0
  0
LINE
  5
9A
330
2
100
AcDbEntity
  8
KIJUN
 62
     7
100
AcDbLine
 10
131.675598134807
 20
45.52284225756233
 30
0.0
 11
131.6755981348064
 21
64.10772820285497
 31
0.0
  0
LINE
  5
9B
330
2
100
AcDbEntity
  8
KIJUN
 62
     7
100
AcDbLine
 10
133.675598134807
 20
45.52284225756233
 30
0.0
 11
133.6755981348064
 21
64.10772820285497
 31
0.0
  0
LINE
  5
9C
330
2
100
AcDbEntity
  8
KIJUN
 62
     7
100
AcDbLine
 10
120.6755981348061
 20
45.52284225756233
 30
0.0
 11
120.6755981348065
 21
64.10772820285497
 31
0.0
  0
LINE
  5
9D
330
2
100
AcDbEntity
  8
KIJUN
 62
     7
100
AcDbLine
 10
122.6755981348065
 20
45.52284225756233
 30
0.0
 11
122.6755981348065
 21
64.10772820285497
 31
0.0
  0
LINE
  5
9E
330
2
100
AcDbEntity
  8
KIJUN
 62
     7
100
AcDbLine
 10
129.675598134807
 20
45.52284225756233
 30
0.0
 11
129.6755981348074
 21
64.10772820285497
 31
0.0
  0
LINE
  5
9F
330
2
100
AcDbEntity
  8
KIJUN
 62
     7
100
AcDbLine
 10
131.675598134807
 20
45.52284225756233
 30
0.0
 11
131.6755981348074
 21
64.10772820285497
 31
0.0
  0
LINE
  5
A0
330
2
100
AcDbEntity
  8
KIJUN
 62
     7
100
AcDbLine
 10
340.6755981348243
 20
45.52284225756209
 30
0.0
 11
340.6755981348238
 21
64.10772820285449
 31
0.0
  0
LINE
  5
A1
330
2
100
AcDbEntity
  8
KIJUN
 62
     7
100
AcDbLine
 10
351.6755981348252
 20
45.52284225756209
 30
0.0
 11
351.6755981348247
 21
64.10772820285449
 31
0.0
  0
LINE
  5
A2
330
2
100
AcDbEntity
  8
KIJUN
 62
     7
100
AcDbLine
 10
353.6755981348252
 20
45.52284225756209
 30
0.0
 11
353.6755981348246
 21
64.10772820285449
 31
0.0
  0
LINE
  5
A3
330
2
100
AcDbEntity
  8
KIJUN
 62
     7
100
AcDbLine
 10
349.6755981348252
 20
45.52284225756209
 30
0.0
 11
349.6755981348254
 21
64.10772820285449
 31
0.0
  0
LINE
  5
A4
330
2
100
AcDbEntity
  8
KIJUN
 62
     7
100
AcDbLine
 10
351.6755981348252
 20
45.52284225756209
 30
0.0
 11
351.6755981348254
 21
64.10772820285449
 31
0.0
  0
LINE
  5
A5
330
2
100
AcDbEntity
  8
KIJUN
 62
     7
100
AcDbLine
 10
340.6755981348243
 20
45.52284225756209
 30
0.0
 11
340.6755981348247
 21
64.10772820285449
 31
0.0
  0
LINE
  5
A6
330
2
100
AcDbEntity
  8
KIJUN
 62
     7
100
AcDbLine
 10
342.6755981348247
 20
45.52284225756209
 30
0.0
 11
342.6755981348247
 21
64.10772820285449
 31
0.0
  0
LINE
  5
A7
330
2
100
AcDbEntity
  8
KIJUN
 62
     7
100
AcDbLine
 10
364.6755981348265
 20
45.52284225756209
 30
0.0
 11
364.6755981348265
 21
64.10772820285449
 31
0.0
  0
LINE
  5
A8
330
2
100
AcDbEntity
  8
KIJUN
 62
     7
100
AcDbLine
 10
360.6755981348255
 20
45.52284225756209
 30
0.0
 11
360.6755981348255
 21
64.10772820285449
 31
0.0
  0
LINE
  5
A9
330
2
100
AcDbEntity
  8
KIJUN
 62
     7
100
AcDbLine
 10
362.6755981348261
 20
45.52284225756209
 30
0.0
 11
362.6755981348255
 21
64.10772820285449
 31
0.0
  0
LINE
  5
AA
330
2
100
AcDbEntity
  8
KIJUN
 62
     7
100
AcDbLine
 10
362.6755981348261
 20
45.52284225756209
 30
0.0
 11
362.6755981348265
 21
64.10772820285449
 31
0.0
  0
LINE
  5
AB
330
2
100
AcDbEntity
  8
KIJUN
 62
     7
100
AcDbLine
 10
373.6755981348269
 20
45.52284225756209
 30
0.0
 11
373.6755981348266
 21
64.10772820285449
 31
0.0
  0
LINE
  5
AC
330
2
100
AcDbEntity
  8
KIJUN
 62
     7
100
AcDbLine
 10
371.6755981348269
 20
45.52284225756209
 30
0.0
 11
371.6755981348274
 21
64.10772820285449
 31
0.0
  0
LINE
  5
AD
330
2
100
AcDbEntity
  8
KIJUN
 62
     7
100
AcDbLine
 10
373.6755981348269
 20
45.52284225756209
 30
0.0
 11
373.6755981348274
 21
64.10772820285449
 31
0.0
  0
LINE
  5
AE
330
2
100
AcDbEntity
  8
KIJUN
 62
     7
100
AcDbLine
 10
375.6755981348274
 20
45.52284225756188
 30
0.0
 11
375.6755981348274
 21
64.10772820285449
 31
0.0
  0
LINE
  5
AF
330
2
100
AcDbEntity
  8
KIJUN
 62
     7
100
AcDbLine
 10
373.6755981348269
 20
45.52284225756188
 30
0.0
 11
373.6755981348274
 21
64.10772820285449
 31
0.0
  0
LINE
  5
B0
330
2
100
AcDbEntity
  8
KIJUN
 62
     7
100
AcDbLine
 10
285.6755981348196
 20
45.52284225756233
 30
0.0
 11
285.6755981348193
 21
64.10772820285497
 31
0.0
  0
LINE
  5
B1
330
2
100
AcDbEntity
  8
KIJUN
 62
     7
100
AcDbLine
 10
287.6755981348196
 20
45.52284225756233
 30
0.0
 11
287.6755981348193
 21
64.10772820285497
 31
0.0
  0
LINE
  5
B2
330
2
100
AcDbEntity
  8
KIJUN
 62
     7
100
AcDbLine
 10
294.67559813482
 20
45.52284225756233
 30
0.0
 11
294.67559813482
 21
64.10772820285497
 31
0.0
  0
LINE
  5
B3
330
2
100
AcDbEntity
  8
KIJUN
 62
     7
100
AcDbLine
 10
296.6755981348205
 20
45.52284225756233
 30
0.0
 11
296.67559813482
 21
64.10772820285497
 31
0.0
  0
LINE
  5
B4
330
2
100
AcDbEntity
  8
KIJUN
 62
     7
100
AcDbLine
 10
283.6755981348196
 20
45.52284225756233
 30
0.0
 11
283.6755981348201
 21
64.10772820285497
 31
0.0
  0
LINE
  5
B5
330
2
100
AcDbEntity
  8
KIJUN
 62
     7
100
AcDbLine
 10
285.6755981348196
 20
45.52284225756233
 30
0.0
 11
285.67559813482
 21
64.10772820285497
 31
0.0
  0
LINE
  5
B6
330
2
100
AcDbEntity
  8
KIJUN
 62
     7
100
AcDbLine
 10
274.6755981348188
 20
45.52284225756233
 30
0.0
 11
274.6755981348193
 21
64.10772820285497
 31
0.0
  0
LINE
  5
B7
330
2
100
AcDbEntity
  8
KIJUN
 62
     7
100
AcDbLine
 10
276.6755981348193
 20
45.52284225756233
 30
0.0
 11
276.6755981348193
 21
64.10772820285497
 31
0.0
  0
LINE
  5
B8
330
2
100
AcDbEntity
  8
KIJUN
 62
     7
100
AcDbLine
 10
296.6755981348205
 20
45.52284225756233
 30
0.0
 11
296.6755981348211
 21
64.10772820285497
 31
0.0
  0
LINE
  5
B9
330
2
100
AcDbEntity
  8
KIJUN
 62
     7
100
AcDbLine
 10
298.6755981348211
 20
45.52284225756233
 30
0.0
 11
298.6755981348211
 21
64.10772820285497
 31
0.0
  0
LINE
  5
BA
330
2
100
AcDbEntity
  8
KIJUN
 62
     7
100
AcDbLine
 10
307.6755981348215
 20
45.52284225756233
 30
0.0
 11
307.6755981348211
 21
64.10772820285497
 31
0.0
  0
LINE
  5
BB
330
2
100
AcDbEntity
  8
KIJUN
 62
     7
100
AcDbLine
 10
305.6755981348215
 20
45.52284225756233
 30
0.0
 11
305.6755981348219
 21
64.10772820285497
 31
0.0
  0
LINE
  5
BC
330
2
100
AcDbEntity
  8
KIJUN
 62
     7
100
AcDbLine
 10
307.6755981348215
 20
45.52284225756233
 30
0.0
 11
307.6755981348219
 21
64.10772820285497
 31
0.0
  0
LINE
  5
BD
330
2
100
AcDbEntity
  8
KIJUN
 62
     7
100
AcDbLine
 10
340.6755981348243
 20
45.52284225756233
 30
0.0
 11
340.6755981348247
 21
64.10772820285473
 31
0.0
  0
LINE
  5
BE
330
2
100
AcDbEntity
  8
KIJUN
 62
     7
100
AcDbLine
 10
338.6755981348243
 20
45.52284225756233
 30
0.0
 11
338.6755981348247
 21
64.10772820285473
 31
0.0
  0
LINE
  5
BF
330
2
100
AcDbEntity
  8
KIJUN
 62
     7
100
AcDbLine
 10
340.6755981348243
 20
45.52284225756233
 30
0.0
 11
340.6755981348238
 21
64.10772820285473
 31
0.0
  0
LINE
  5
C0
330
2
100
AcDbEntity
  8
KIJUN
 62
     7
100
AcDbLine
 10
331.6755981348238
 20
45.52284225756233
 30
0.0
 11
331.6755981348238
 21
64.10772820285473
 31
0.0
  0
LINE
  5
C1
330
2
100
AcDbEntity
  8
KIJUN
 62
     7
100
AcDbLine
 10
329.6755981348234
 20
45.52284225756233
 30
0.0
 11
329.6755981348238
 21
64.10772820285473
 31
0.0
  0
LINE
  5
C2
330
2
100
AcDbEntity
  8
KIJUN
 62
     7
100
AcDbLine
 10
309.6755981348219
 20
45.52284225756233
 30
0.0
 11
309.6755981348219
 21
64.10772820285473
 31
0.0
  0
LINE
  5
C3
330
2
100
AcDbEntity
  8
KIJUN
 62
     7
100
AcDbLine
 10
307.6755981348215
 20
45.52284225756233
 30
0.0
 11
307.6755981348219
 21
64.10772820285473
 31
0.0
  0
LINE
  5
C4
330
2
100
AcDbEntity
  8
KIJUN
 62
     7
100
AcDbLine
 10
318.6755981348225
 20
45.52284225756233
 30
0.0
 11
318.6755981348229
 21
64.10772820285473
 31
0.0
  0
LINE
  5
C5
330
2
100
AcDbEntity
  8
KIJUN
 62
     7
100
AcDbLine
 10
316.6755981348225
 20
45.52284225756233
 30
0.0
 11
316.6755981348229
 21
64.10772820285473
 31
0.0
  0
LINE
  5
C6
330
2
100
AcDbEntity
  8
KIJUN
 62
     7
100
AcDbLine
 10
329.6755981348234
 20
45.52284225756233
 30
0.0
 11
329.6755981348228
 21
64.10772820285473
 31
0.0
  0
LINE
  5
C7
330
2
100
AcDbEntity
  8
KIJUN
 62
     7
100
AcDbLine
 10
327.6755981348228
 20
45.52284225756233
 30
0.0
 11
327.6755981348228
 21
64.10772820285473
 31
0.0
  0
LINE
  5
C8
330
2
100
AcDbEntity
  8
KIJUN
 62
     7
100
AcDbLine
 10
320.6755981348225
 20
45.52284225756233
 30
0.0
 11
320.6755981348219
 21
64.10772820285473
 31
0.0
  0
LINE
  5
C9
330
2
100
AcDbEntity
  8
KIJUN
 62
     7
100
AcDbLine
 10
318.6755981348225
 20
45.52284225756233
 30
0.0
 11
318.6755981348219
 21
64.10772820285473
 31
0.0
  0
LINE
  5
CA
330
2
100
AcDbEntity
  8
KIJUN
 62
     7
100
AcDbLine
 10
252.675598134817
 20
45.52284225756255
 30
0.0
 11
252.6755981348165
 21
64.10772820285497
 31
0.0
  0
LINE
  5
CB
330
2
100
AcDbEntity
  8
KIJUN
 62
     7
100
AcDbLine
 10
254.6755981348169
 20
45.52284225756255
 30
0.0
 11
254.6755981348165
 21
64.10772820285497
 31
0.0
  0
LINE
  5
CC
330
2
100
AcDbEntity
  8
KIJUN
 62
     7
100
AcDbLine
 10
261.6755981348175
 20
45.52284225756255
 30
0.0
 11
261.6755981348175
 21
64.10772820285497
 31
0.0
  0
LINE
  5
CD
330
2
100
AcDbEntity
  8
KIJUN
 62
     7
100
AcDbLine
 10
263.6755981348179
 20
45.52284225756255
 30
0.0
 11
263.6755981348175
 21
64.10772820285497
 31
0.0
  0
LINE
  5
CE
330
2
100
AcDbEntity
  8
KIJUN
 62
     7
100
AcDbLine
 10
250.675598134817
 20
45.52284225756255
 30
0.0
 11
250.6755981348174
 21
64.10772820285497
 31
0.0
  0
LINE
  5
CF
330
2
100
AcDbEntity
  8
KIJUN
 62
     7
100
AcDbLine
 10
252.675598134817
 20
45.52284225756255
 30
0.0
 11
252.6755981348174
 21
64.10772820285497
 31
0.0
  0
LINE
  5
D0
330
2
100
AcDbEntity
  8
KIJUN
 62
     7
100
AcDbLine
 10
241.6755981348161
 20
45.52284225756255
 30
0.0
 11
241.6755981348166
 21
64.10772820285497
 31
0.0
  0
LINE
  5
D1
330
2
100
AcDbEntity
  8
KIJUN
 62
     7
100
AcDbLine
 10
243.6755981348165
 20
45.52284225756255
 30
0.0
 11
243.6755981348165
 21
64.10772820285497
 31
0.0
  0
LINE
  5
D2
330
2
100
AcDbEntity
  8
KIJUN
 62
     7
100
AcDbLine
 10
263.6755981348179
 20
45.52284225756255
 30
0.0
 11
263.6755981348183
 21
64.10772820285497
 31
0.0
  0
LINE
  5
D3
330
2
100
AcDbEntity
  8
KIJUN
 62
     7
100
AcDbLine
 10
265.6755981348183
 20
45.52284225756255
 30
0.0
 11
265.6755981348183
 21
64.10772820285497
 31
0.0
  0
LINE
  5
D4
330
2
100
AcDbEntity
  8
KIJUN
 62
     7
100
AcDbLine
 10
274.6755981348188
 20
45.52284225756255
 30
0.0
 11
274.6755981348183
 21
64.10772820285497
 31
0.0
  0
LINE
  5
D5
330
2
100
AcDbEntity
  8
KIJUN
 62
     7
100
AcDbLine
 10
272.6755981348187
 20
45.52284225756255
 30
0.0
 11
272.6755981348193
 21
64.10772820285497
 31
0.0
  0
LINE
  5
D6
330
2
100
AcDbEntity
  8
KIJUN
 62
     7
100
AcDbLine
 10
274.6755981348188
 20
45.52284225756255
 30
0.0
 11
274.6755981348193
 21
64.10772820285497
 31
0.0
  0
LINE
  5
D7
330
2
100
AcDbEntity
  8
KIJUN
 62
     7
100
AcDbLine
 10
241.6755981348161
 20
45.52284225756277
 30
0.0
 11
241.6755981348166
 21
64.1077282028552
 31
0.0
  0
LINE
  5
D8
330
2
100
AcDbEntity
  8
KIJUN
 62
     7
100
AcDbLine
 10
239.6755981348161
 20
45.52284225756277
 30
0.0
 11
239.6755981348165
 21
64.1077282028552
 31
0.0
  0
LINE
  5
D9
330
2
100
AcDbEntity
  8
KIJUN
 62
     7
100
AcDbLine
 10
241.6755981348161
 20
45.52284225756277
 30
0.0
 11
241.6755981348156
 21
64.1077282028552
 31
0.0
  0
LINE
  5
DA
330
2
100
AcDbEntity
  8
KIJUN
 62
     7
100
AcDbLine
 10
232.6755981348155
 20
45.52284225756277
 30
0.0
 11
232.6755981348155
 21
64.1077282028552
 31
0.0
  0
LINE
  5
DB
330
2
100
AcDbEntity
  8
KIJUN
 62
     7
100
AcDbLine
 10
230.6755981348151
 20
45.52284225756277
 30
0.0
 11
230.6755981348155
 21
64.1077282028552
 31
0.0
  0
LINE
  5
DC
330
2
100
AcDbEntity
  8
KIJUN
 62
     7
100
AcDbLine
 10
210.6755981348138
 20
45.52284225756277
 30
0.0
 11
210.6755981348138
 21
64.1077282028552
 31
0.0
  0
LINE
  5
DD
330
2
100
AcDbEntity
  8
KIJUN
 62
     7
100
AcDbLine
 10
208.6755981348133
 20
45.52284225756277
 30
0.0
 11
208.6755981348137
 21
64.1077282028552
 31
0.0
  0
LINE
  5
DE
330
2
100
AcDbEntity
  8
KIJUN
 62
     7
100
AcDbLine
 10
219.6755981348143
 20
45.52284225756277
 30
0.0
 11
219.6755981348147
 21
64.1077282028552
 31
0.0
  0
LINE
  5
DF
330
2
100
AcDbEntity
  8
KIJUN
 62
     7
100
AcDbLine
 10
217.6755981348142
 20
45.52284225756277
 30
0.0
 11
217.6755981348146
 21
64.1077282028552
 31
0.0
  0
LINE
  5
E0
330
2
100
AcDbEntity
  8
KIJUN
 62
     7
100
AcDbLine
 10
230.6755981348151
 20
45.52284225756277
 30
0.0
 11
230.6755981348147
 21
64.1077282028552
 31
0.0
  0
LINE
  5
E1
330
2
100
AcDbEntity
  8
KIJUN
 62
     7
100
AcDbLine
 10
228.6755981348147
 20
45.52284225756277
 30
0.0
 11
228.6755981348147
 21
64.1077282028552
 31
0.0
  0
LINE
  5
E2
330
2
100
AcDbEntity
  8
KIJUN
 62
     7
100
AcDbLine
 10
221.6755981348142
 20
45.52284225756277
 30
0.0
 11
221.6755981348138
 21
64.1077282028552
 31
0.0
  0
LINE
  5
E3
330
2
100
AcDbEntity
  8
KIJUN
 62
     7
100
AcDbLine
 10
219.6755981348143
 20
45.52284225756277
 30
0.0
 11
219.6755981348138
 21
64.1077282028552
 31
0.0
  0
LINE
  5
E4
330
2
100
AcDbEntity
  8
KIJUN
 62
     7
100
AcDbLine
 10
87.67559813480314
 20
45.52284225756255
 30
0.0
 11
379.1755981348142
 21
45.52284225756255
 31
0.0
  0
ARC
  5
E5
330
2
100
AcDbEntity
  8
KIJUN
 62
     7
100
AcDbCircle
 10
126.1755981348143
 20
30.37132669387843
 30
0.0
 40
4.084548175618691
100
AcDbArc
 50
270.0
 51
359.9999999999312
  0
ARC
  5
E6
330
2
100
AcDbEntity
  8
KIJUN
 62
     7
100
AcDbCircle
 10
131.6755981348143
 20
37.10963079615061
 30
0.0
 40
2.847392276267783
100
AcDbArc
 50
359.9999999999267
 51
179.9999999999427
  0
LINE
  5
E7
330
2
100
AcDbEntity
  8
KIJUN
 62
     7
100
AcDbLine
 10
87.71495660800296
 20
40.54541307777543
 30
0.0
 11
379.1755981348142
 21
40.54541307777565
 31
0.0
  0
LINE
  5
E8
330
2
100
AcDbEntity
  8
KIJUN
 62
     7
100
AcDbLine
 10
87.71495660800296
 20
25.48755278403354
 30
0.0
 11
379.1755981348142
 21
25.48755278403445
 31
0.0
  0
LINE
  5
E9
330
2
100
AcDbEntity
  8
KIJUN
 62
     7
100
AcDbLine
 10
87.71495660800296
 20
42.01186397807004
 30
0.0
 11
379.1755981348142
 21
42.0118639780698
 31
0.0
  0
LINE
  5
EA
330
2
100
AcDbEntity
  8
KIJUN
 62
     7
100
AcDbLine
 10
87.71495660800296
 20
22.96239833862609
 30
0.0
 11
379.1755981348142
 21
22.96239833862653
 31
0.0
  0
ARC
  5
EB
330
2
100
AcDbEntity
  8
KIJUN
 62
     7
100
AcDbCircle
 10
104.1755981348142
 20
30.37132669387843
 30
0.0
 40
4.084548175618691
100
AcDbArc
 50
180.0000000000686
 51
270.0
  0
ARC
  5
EC
330
2
100
AcDbEntity
  8
KIJUN
 62
     7
100
AcDbCircle
 10
93.17559813481429
 20
30.37132669387843
 30
0.0
 40
4.084548175618691
100
AcDbArc
 50
180.0000000000686
 51
270.0
  0
ARC
  5
ED
330
2
100
AcDbEntity
  8
KIJUN
 62
     7
100
AcDbCircle
 10
93.17559813481429
 20
30.37132669387843
 30
0.0
 40
4.084548175618691
100
AcDbArc
 50
270.0
 51
359.9999999999312
  0
LINE
  5
EE
330
2
100
AcDbEntity
  8
KIJUN
 62
     7
100
AcDbLine
 10
90.52299041108204
 20
37.10963079615061
 30
0.0
 11
91.09104995919556
 21
30.37132669387843
 31
0.0
  0
ARC
  5
EF
330
2
100
AcDbEntity
  8
KIJUN
 62
     7
100
AcDbCircle
 10
87.67559813481426
 20
29.4518962006395
 30
0.0
 40
0.1
100
AcDbArc
 50
22.9635027398381
 51
157.0364972601617
  0
ARC
  5
F0
330
2
100
AcDbEntity
  8
KIJUN
 62
     7
100
AcDbCircle
 10
88.9598954809017
 20
27.66006534692082
 30
0.0
 40
0.1
100
AcDbArc
 50
311.7274843729922
 51
48.29872961434758
  0
ARC
  5
F1
330
2
100
AcDbEntity
  8
KIJUN
 62
     7
100
AcDbCircle
 10
92.30374125934764
 20
31.41294803989506
 30
0.0
 40
4.926473226568868
100
AcDbArc
 50
202.9635027397869
 51
228.2987296143392
  0
ARC
  5
F2
330
2
100
AcDbEntity
  8
KIJUN
 62
     7
100
AcDbCircle
 10
87.67559813559371
 20
26.51469256131002
 30
0.0
 40
0.1
100
AcDbArc
 50
228.2725156270553
 51
311.7274843729447
  0
LINE
  5
F3
330
2
100
AcDbEntity
  8
KIJUN
 62
     7
100
AcDbLine
 10
87.74215697909999
 20
26.44006066229162
 30
0.0
 11
89.02645432440801
 21
27.58543344790262
 31
0.0
  0
LINE
  5
F4
330
2
100
AcDbEntity
  8
KIJUN
 62
     7
100
AcDbLine
 10
88.4238306937819
 20
37.51570927530446
 30
0.0
 11
89.09811930329494
 21
30.2033165728405
 31
0.0
  0
ARC
  5
F5
330
2
100
AcDbEntity
  8
KIJUN
 62
     7
100
AcDbCircle
 10
87.67559813481426
 20
37.10963079615061
 30
0.0
 40
2.847392276267783
100
AcDbArc
 50
359.9999999999267
 51
89.20799594848485
  0
ARC
  5
F6
330
2
100
AcDbEntity
  8
KIJUN
 62
     7
100
AcDbCircle
 10
87.67559813481426
 20
37.51570927530446
 30
0.0
 40
0.7482325589676293
100
AcDbArc
 50
359.9999999996605
 51
86.98474007467885
  0
ARC
  5
F7
330
2
100
AcDbEntity
  8
KIJUN
 62
     7
100
AcDbCircle
 10
98.67559813481426
 20
37.51570927530446
 30
0.0
 40
0.7482325589676293
100
AcDbArc
 50
0.0000000000783504
 51
180.0000000003393
  0
ARC
  5
F8
330
2
100
AcDbEntity
  8
KIJUN
 62
     7
100
AcDbCircle
 10
98.67559813481426
 20
37.10963079615061
 30
0.0
 40
2.847392276267783
100
AcDbArc
 50
0.0000000000572061
 51
180.0000000000732
  0
LINE
  5
F9
330
2
100
AcDbEntity
  8
KIJUN
 62
     7
100
AcDbLine
 10
101.522990411082
 20
37.10963079615061
 30
0.0
 11
102.0910499591956
 21
30.37132669387843
 31
0.0
  0
LINE
  5
FA
330
2
100
AcDbEntity
  8
KIJUN
 62
     7
100
AcDbLine
 10
99.42383069378189
 20
37.51570927530446
 30
0.0
 11
100.0981193032949
 21
30.2033165728405
 31
0.0
  0
ARC
  5
FB
330
2
100
AcDbEntity
  8
KIJUN
 62
     7
100
AcDbCircle
 10
104.1755981348142
 20
30.37132669387843
 30
0.0
 40
2.08454817561869
100
AcDbArc
 50
180.0000000000686
 51
270.0
  0
LINE
  5
FC
330
2
100
AcDbEntity
  8
KIJUN
 62
     7
100
AcDbLine
 10
88.4238306937819
 20
37.51570927530446
 30
0.0
 11
89.09811930329494
 21
30.2033165728405
 31
0.0
  0
ARC
  5
FD
330
2
100
AcDbEntity
  8
KIJUN
 62
     7
100
AcDbCircle
 10
93.17559813481429
 20
30.37132669387843
 30
0.0
 40
2.08454817561869
100
AcDbArc
 50
180.0000000000686
 51
270.0
  0
LINE
  5
FE
330
2
100
AcDbEntity
  8
KIJUN
 62
     7
100
AcDbLine
 10
90.52299041108204
 20
37.10963079615061
 30
0.0
 11
91.09104995919556
 21
30.37132669387843
 31
0.0
  0
ARC
  5
FF
330
2
100
AcDbEntity
  8
KIJUN
 62
     7
100
AcDbCircle
 10
93.17559813481429
 20
30.37132669387843
 30
0.0
 40
2.08454817561869
100
AcDbArc
 50
270.0
 51
359.9999999999312
  0
LINE
  5
100
330
2
100
AcDbEntity
  8
KIJUN
 62
     7
100
AcDbLine
 10
94.36241217895128
 20
39.57573873892073
 30
0.0
 11
93.27476515319409
 21
32.14249381047733
 31
0.0
  0
LINE
  5
101
330
2
100
AcDbEntity
  8
KIJUN
 62
     7
100
AcDbLine
 10
91.99411803668324
 20
39.57537399401004
 30
0.0
 11
93.076863178274
 21
32.14255688995802
 31
0.0
  0
ARC
  5
102
330
2
100
AcDbEntity
  8
KIJUN
 62
     7
100
AcDbCircle
 10
93.17581877042318
 20
32.15697183992001
 30
0.0
 40
0.1
100
AcDbArc
 50
188.2880317052498
 51
351.6754432636096
  0
LINE
  5
103
330
2
100
AcDbEntity
  8
KIJUN
 62
     7
100
AcDbLine
 10
97.92736557584662
 20
37.51570927530446
 30
0.0
 11
97.25307696633359
 21
30.2033165728405
 31
0.0
  0
LINE
  5
104
330
2
100
AcDbEntity
  8
KIJUN
 62
     7
100
AcDbLine
 10
98.60903929052852
 20
26.44006066229162
 30
0.0
 11
97.32474194522053
 21
27.58543344790262
 31
0.0
  0
LINE
  5
105
330
2
100
AcDbEntity
  8
KIJUN
 62
     7
100
AcDbLine
 10
100.026454324408
 20
27.58543344790262
 30
0.0
 11
98.74215697754113
 21
26.44006066229162
 31
0.0
  0
ARC
  5
106
330
2
100
AcDbEntity
  8
KIJUN
 62
     7
100
AcDbCircle
 10
98.67559813403483
 20
26.51469256131002
 30
0.0
 40
0.1
100
AcDbArc
 50
228.2725156270553
 51
311.7274843729447
  0
ARC
  5
107
330
2
100
AcDbEntity
  8
KIJUN
 62
     7
100
AcDbCircle
 10
103.3037412593476
 20
31.41294803989506
 30
0.0
 40
4.926473226568868
100
AcDbArc
 50
202.9635027397869
 51
228.2987296143392
  0
ARC
  5
108
330
2
100
AcDbEntity
  8
KIJUN
 62
     7
100
AcDbCircle
 10
99.95989548090172
 20
27.66006534692082
 30
0.0
 40
0.1
100
AcDbArc
 50
311.7274843729922
 51
48.29872961434758
  0
ARC
  5
109
330
2
100
AcDbEntity
  8
KIJUN
 62
     7
100
AcDbCircle
 10
94.04745501028086
 20
31.41294803989506
 30
0.0
 40
4.926473226568868
100
AcDbArc
 50
311.7012703856606
 51
337.036497260213
  0
ARC
  5
10A
330
2
100
AcDbEntity
  8
KIJUN
 62
     7
100
AcDbCircle
 10
97.39130078872683
 20
27.66006534692082
 30
0.0
 40
0.1
100
AcDbArc
 50
131.7012703856524
 51
228.2725156270079
  0
ARC
  5
10B
330
2
100
AcDbEntity
  8
KIJUN
 62
     7
100
AcDbCircle
 10
98.67559813481426
 20
29.4518962006395
 30
0.0
 40
0.1
100
AcDbArc
 50
22.9635027398381
 51
157.0364972601617
  0
LINE
  5
10C
330
2
100
AcDbEntity
  8
KIJUN
 62
     7
100
AcDbLine
 10
93.68184109790496
 20
39.36567964290038
 30
0.0
 11
94.21295431491541
 21
39.67652198408354
 31
0.0
  0
ARC
  5
10D
330
2
100
AcDbEntity
  8
KIJUN
 62
     7
100
AcDbCircle
 10
94.26346579618034
 20
39.59021676836385
 30
0.0
 40
0.1
100
AcDbArc
 50
351.6754432636081
 51
120.3389741786548
  0
ARC
  5
10E
330
2
100
AcDbEntity
  8
KIJUN
 62
     7
100
AcDbCircle
 10
93.17672628525548
 20
40.22873180009734
 30
0.0
 40
1.0
100
AcDbArc
 50
239.5495170217217
 51
300.3389741786398
  0
LINE
  5
10F
330
2
100
AcDbEntity
  8
KIJUN
 62
     7
100
AcDbLine
 10
92.66993276187628
 20
39.36666432903683
 30
0.0
 11
92.14375298117017
 21
39.67599569107818
 31
0.0
  0
ARC
  5
110
330
2
100
AcDbEntity
  8
KIJUN
 62
     7
100
AcDbCircle
 10
92.09307362883242
 20
39.58978894397223
 30
0.0
 40
0.1
100
AcDbArc
 50
59.54951702172166
 51
188.2880317052496
  0
LINE
  5
111
330
2
100
AcDbEntity
  8
KIJUN
 62
     7
100
AcDbLine
 10
95.82820585854648
 20
37.10963079615061
 30
0.0
 11
95.26014631043295
 21
30.37132669387843
 31
0.0
  0
LINE
  5
112
330
2
100
AcDbEntity
  8
KIJUN
 62
     7
100
AcDbLine
 10
102.9887840906772
 20
39.57573873892073
 30
0.0
 11
104.0764311164344
 21
32.14249381047733
 31
0.0
  0
ARC
  5
113
330
2
100
AcDbEntity
  8
KIJUN
 62
     7
100
AcDbCircle
 10
104.1753774992053
 20
32.15697183992001
 30
0.0
 40
0.1
100
AcDbArc
 50
188.3245567363902
 51
351.7119682947499
  0
LINE
  5
114
330
2
100
AcDbEntity
  8
KIJUN
 62
     7
100
AcDbLine
 10
103.6693551717235
 20
39.36567964290038
 30
0.0
 11
103.1382419547131
 21
39.67652198408354
 31
0.0
  0
ARC
  5
115
330
2
100
AcDbEntity
  8
KIJUN
 62
     7
100
AcDbCircle
 10
103.0877304734481
 20
39.59021676836385
 30
0.0
 40
0.1
100
AcDbArc
 50
59.66102582134514
 51
188.3245567363916
  0
ARC
  5
116
330
2
100
AcDbEntity
  8
KIJUN
 62
     7
100
AcDbCircle
 10
126.1755981348143
 20
30.37132669387843
 30
0.0
 40
2.08454817561869
100
AcDbArc
 50
270.0
 51
359.9999999999312
  0
LINE
  5
117
330
2
100
AcDbEntity
  8
KIJUN
 62
     7
100
AcDbLine
 10
128.8282058585465
 20
37.10963079615061
 30
0.0
 11
128.2601463104329
 21
30.37132669387843
 31
0.0
  0
LINE
  5
118
330
2
100
AcDbEntity
  8
KIJUN
 62
     7
100
AcDbLine
 10
115.6812635077522
 20
39.36666432903683
 30
0.0
 11
116.2074432884583
 21
39.67599569107818
 31
0.0
  0
LINE
  5
119
330
2
100
AcDbEntity
  8
KIJUN
 62
     7
100
AcDbLine
 10
116.3570782329452
 20
39.57537399401004
 30
0.0
 11
115.2743330913545
 21
32.14255688995802
 31
0.0
  0
ARC
  5
11A
330
2
100
AcDbEntity
  8
KIJUN
 62
     7
100
AcDbCircle
 10
115.1755981348143
 20
30.37132669387843
 30
0.0
 40
2.08454817561869
100
AcDbArc
 50
270.0
 51
359.9999999999312
  0
ARC
  5
11B
330
2
100
AcDbEntity
  8
KIJUN
 62
     7
100
AcDbCircle
 10
115.1755981348143
 20
30.37132669387843
 30
0.0
 40
4.084548175618691
100
AcDbArc
 50
270.0
 51
359.9999999999312
  0
ARC
  5
11C
330
2
100
AcDbEntity
  8
KIJUN
 62
     7
100
AcDbCircle
 10
115.1755981348143
 20
30.37132669387843
 30
0.0
 40
4.084548175618691
100
AcDbArc
 50
180.0000000000686
 51
270.0
  0
LINE
  5
11D
330
2
100
AcDbEntity
  8
KIJUN
 62
     7
100
AcDbLine
 10
112.522990411082
 20
37.10963079615061
 30
0.0
 11
113.0910499591955
 21
30.37132669387843
 31
0.0
  0
ARC
  5
11E
330
2
100
AcDbEntity
  8
KIJUN
 62
     7
100
AcDbCircle
 10
115.174469984373
 20
40.22873180009734
 30
0.0
 40
1.0
100
AcDbArc
 50
239.66102582136
 51
300.4504829782783
  0
ARC
  5
11F
330
2
100
AcDbEntity
  8
KIJUN
 62
     7
100
AcDbCircle
 10
114.0877304734481
 20
39.59021676836385
 30
0.0
 40
0.1
100
AcDbArc
 50
59.66102582134514
 51
188.3245567363916
  0
LINE
  5
120
330
2
100
AcDbEntity
  8
KIJUN
 62
     7
100
AcDbLine
 10
114.6693551717235
 20
39.36567964290038
 30
0.0
 11
114.1382419547131
 21
39.67652198408354
 31
0.0
  0
ARC
  5
121
330
2
100
AcDbEntity
  8
KIJUN
 62
     7
100
AcDbCircle
 10
109.6755981348142
 20
29.4518962006395
 30
0.0
 40
0.1
100
AcDbArc
 50
22.9635027398381
 51
157.0364972601617
  0
ARC
  5
122
330
2
100
AcDbEntity
  8
KIJUN
 62
     7
100
AcDbCircle
 10
110.9598954809017
 20
27.66006534692082
 30
0.0
 40
0.1
100
AcDbArc
 50
311.7274843729922
 51
48.29872961434758
  0
ARC
  5
123
330
2
100
AcDbEntity
  8
KIJUN
 62
     7
100
AcDbCircle
 10
114.3037412593476
 20
31.41294803989506
 30
0.0
 40
4.926473226568868
100
AcDbArc
 50
202.9635027397869
 51
228.2987296143392
  0
ARC
  5
124
330
2
100
AcDbEntity
  8
KIJUN
 62
     7
100
AcDbCircle
 10
108.3913007887268
 20
27.66006534692082
 30
0.0
 40
0.1
100
AcDbArc
 50
131.7012703856524
 51
228.2725156270079
  0
ARC
  5
125
330
2
100
AcDbEntity
  8
KIJUN
 62
     7
100
AcDbCircle
 10
105.0474550102808
 20
31.41294803989506
 30
0.0
 40
4.926473226568868
100
AcDbArc
 50
311.7012703856608
 51
337.036497260213
  0
ARC
  5
126
330
2
100
AcDbEntity
  8
KIJUN
 62
     7
100
AcDbCircle
 10
109.6755981355937
 20
26.51469256131002
 30
0.0
 40
0.1
100
AcDbArc
 50
228.2725156270553
 51
311.7274843729447
  0
LINE
  5
127
330
2
100
AcDbEntity
  8
KIJUN
 62
     7
100
AcDbLine
 10
108.3247419452205
 20
27.58543344790262
 30
0.0
 11
109.6090392920874
 21
26.44006066229162
 31
0.0
  0
LINE
  5
128
330
2
100
AcDbEntity
  8
KIJUN
 62
     7
100
AcDbLine
 10
109.7421569791
 20
26.44006066229162
 30
0.0
 11
111.026454324408
 21
27.58543344790262
 31
0.0
  0
LINE
  5
129
330
2
100
AcDbEntity
  8
KIJUN
 62
     7
100
AcDbLine
 10
110.4238306937818
 20
37.51570927530446
 30
0.0
 11
111.0981193032949
 21
30.2033165728405
 31
0.0
  0
ARC
  5
12A
330
2
100
AcDbEntity
  8
KIJUN
 62
     7
100
AcDbCircle
 10
115.1753774992053
 20
32.15697183992001
 30
0.0
 40
0.1
100
AcDbArc
 50
188.3245567363902
 51
351.7119682947499
  0
LINE
  5
12B
330
2
100
AcDbEntity
  8
KIJUN
 62
     7
100
AcDbLine
 10
113.9887840906772
 20
39.57573873892073
 30
0.0
 11
115.0764311164344
 21
32.14249381047733
 31
0.0
  0
ARC
  5
12C
330
2
100
AcDbEntity
  8
KIJUN
 62
     7
100
AcDbCircle
 10
115.1755981348143
 20
30.37132669387843
 30
0.0
 40
2.08454817561869
100
AcDbArc
 50
180.0000000000686
 51
270.0
  0
LINE
  5
12D
330
2
100
AcDbEntity
  8
KIJUN
 62
     7
100
AcDbLine
 10
108.9273655758466
 20
37.51570927530446
 30
0.0
 11
108.2530769663336
 21
30.2033165728405
 31
0.0
  0
LINE
  5
12E
330
2
100
AcDbEntity
  8
KIJUN
 62
     7
100
AcDbLine
 10
106.8282058585465
 20
37.10963079615061
 30
0.0
 11
106.2601463104329
 21
30.37132669387843
 31
0.0
  0
ARC
  5
12F
330
2
100
AcDbEntity
  8
KIJUN
 62
     7
100
AcDbCircle
 10
109.6755981348142
 20
37.10963079615061
 30
0.0
 40
2.847392276267783
100
AcDbArc
 50
359.9999999999267
 51
179.9999999999427
  0
ARC
  5
130
330
2
100
AcDbEntity
  8
KIJUN
 62
     7
100
AcDbCircle
 10
109.6755981348142
 20
37.51570927530446
 30
0.0
 40
0.7482325589676293
100
AcDbArc
 50
359.9999999996605
 51
179.9999999999216
  0
LINE
  5
131
330
2
100
AcDbEntity
  8
KIJUN
 62
     7
100
AcDbLine
 10
104.6812635077522
 20
39.36666432903683
 30
0.0
 11
105.2074432884583
 21
39.67599569107818
 31
0.0
  0
ARC
  5
132
330
2
100
AcDbEntity
  8
KIJUN
 62
     7
100
AcDbCircle
 10
105.2581226407961
 20
39.58978894397223
 30
0.0
 40
0.1
100
AcDbArc
 50
351.7119682947503
 51
120.4504829782783
  0
ARC
  5
133
330
2
100
AcDbEntity
  8
KIJUN
 62
     7
100
AcDbCircle
 10
126.1755981348143
 20
30.37132669387843
 30
0.0
 40
4.084548175618691
100
AcDbArc
 50
180.0000000000686
 51
270.0
  0
ARC
  5
134
330
2
100
AcDbEntity
  8
KIJUN
 62
     7
100
AcDbCircle
 10
116.2581226407961
 20
39.58978894397223
 30
0.0
 40
0.1
100
AcDbArc
 50
351.7119682947503
 51
120.4504829782783
  0
LINE
  5
135
330
2
100
AcDbEntity
  8
KIJUN
 62
     7
100
AcDbLine
 10
117.8282058585465
 20
37.10963079615061
 30
0.0
 11
117.2601463104329
 21
30.37132669387843
 31
0.0
  0
LINE
  5
136
330
2
100
AcDbEntity
  8
KIJUN
 62
     7
100
AcDbLine
 10
119.9273655758466
 20
37.51570927530446
 30
0.0
 11
119.2530769663336
 21
30.2033165728405
 31
0.0
  0
ARC
  5
137
330
2
100
AcDbEntity
  8
KIJUN
 62
     7
100
AcDbCircle
 10
120.6755981348142
 20
37.51570927530446
 30
0.0
 40
0.7482325589676293
100
AcDbArc
 50
0.0000000000783504
 51
180.0000000003393
  0
ARC
  5
138
330
2
100
AcDbEntity
  8
KIJUN
 62
     7
100
AcDbCircle
 10
120.6755981348142
 20
37.10963079615061
 30
0.0
 40
2.847392276267783
100
AcDbArc
 50
0.0000000000572061
 51
180.0000000000732
  0
LINE
  5
139
330
2
100
AcDbEntity
  8
KIJUN
 62
     7
100
AcDbLine
 10
123.522990411082
 20
37.10963079615061
 30
0.0
 11
124.0910499591956
 21
30.37132669387843
 31
0.0
  0
LINE
  5
13A
330
2
100
AcDbEntity
  8
KIJUN
 62
     7
100
AcDbLine
 10
121.4238306937819
 20
37.51570927530446
 30
0.0
 11
122.0981193032949
 21
30.2033165728405
 31
0.0
  0
ARC
  5
13B
330
2
100
AcDbEntity
  8
KIJUN
 62
     7
100
AcDbCircle
 10
126.1755981348143
 20
30.37132669387843
 30
0.0
 40
2.08454817561869
100
AcDbArc
 50
180.0000000000686
 51
270.0
  0
LINE
  5
13C
330
2
100
AcDbEntity
  8
KIJUN
 62
     7
100
AcDbLine
 10
119.9273655758466
 20
37.51570927530446
 30
0.0
 11
119.2530769663336
 21
30.2033165728405
 31
0.0
  0
LINE
  5
13D
330
2
100
AcDbEntity
  8
KIJUN
 62
     7
100
AcDbLine
 10
120.6090392905285
 20
26.44006066229162
 30
0.0
 11
119.3247419452205
 21
27.58543344790262
 31
0.0
  0
LINE
  5
13E
330
2
100
AcDbEntity
  8
KIJUN
 62
     7
100
AcDbLine
 10
122.026454324408
 20
27.58543344790262
 30
0.0
 11
120.742156977541
 21
26.44006066229162
 31
0.0
  0
ARC
  5
13F
330
2
100
AcDbEntity
  8
KIJUN
 62
     7
100
AcDbCircle
 10
120.6755981340347
 20
26.51469256131002
 30
0.0
 40
0.1
100
AcDbArc
 50
228.2725156270553
 51
311.7274843729447
  0
ARC
  5
140
330
2
100
AcDbEntity
  8
KIJUN
 62
     7
100
AcDbCircle
 10
125.3037412593476
 20
31.41294803989506
 30
0.0
 40
4.926473226568868
100
AcDbArc
 50
202.9635027397869
 51
228.2987296143392
  0
ARC
  5
141
330
2
100
AcDbEntity
  8
KIJUN
 62
     7
100
AcDbCircle
 10
121.9598954809017
 20
27.66006534692082
 30
0.0
 40
0.1
100
AcDbArc
 50
311.7274843729922
 51
48.29872961434758
  0
ARC
  5
142
330
2
100
AcDbEntity
  8
KIJUN
 62
     7
100
AcDbCircle
 10
116.0474550102809
 20
31.41294803989506
 30
0.0
 40
4.926473226568868
100
AcDbArc
 50
311.7012703856606
 51
337.036497260213
  0
ARC
  5
143
330
2
100
AcDbEntity
  8
KIJUN
 62
     7
100
AcDbCircle
 10
119.3913007887267
 20
27.66006534692082
 30
0.0
 40
0.1
100
AcDbArc
 50
131.7012703856524
 51
228.2725156270079
  0
ARC
  5
144
330
2
100
AcDbEntity
  8
KIJUN
 62
     7
100
AcDbCircle
 10
120.6755981348142
 20
29.4518962006395
 30
0.0
 40
0.1
100
AcDbArc
 50
22.9635027398381
 51
157.0364972601617
  0
LINE
  5
145
330
2
100
AcDbEntity
  8
KIJUN
 62
     7
100
AcDbLine
 10
117.8282058585465
 20
37.10963079615061
 30
0.0
 11
117.2601463104329
 21
30.37132669387843
 31
0.0
  0
LINE
  5
146
330
2
100
AcDbEntity
  8
KIJUN
 62
     7
100
AcDbLine
 10
125.6699327618763
 20
39.36666432903683
 30
0.0
 11
125.14375298117
 21
39.67599569107818
 31
0.0
  0
LINE
  5
147
330
2
100
AcDbEntity
  8
KIJUN
 62
     7
100
AcDbLine
 10
124.9941180366832
 20
39.57537399401004
 30
0.0
 11
126.076863178274
 21
32.14255688995802
 31
0.0
  0
ARC
  5
148
330
2
100
AcDbEntity
  8
KIJUN
 62
     7
100
AcDbCircle
 10
126.1767262852555
 20
40.22873180009734
 30
0.0
 40
1.0
100
AcDbArc
 50
239.5495170217217
 51
300.3389741786398
  0
ARC
  5
149
330
2
100
AcDbEntity
  8
KIJUN
 62
     7
100
AcDbCircle
 10
127.2634657961803
 20
39.59021676836385
 30
0.0
 40
0.1
100
AcDbArc
 50
351.6754432636081
 51
120.3389741786548
  0
LINE
  5
14A
330
2
100
AcDbEntity
  8
KIJUN
 62
     7
100
AcDbLine
 10
126.681841097905
 20
39.36567964290038
 30
0.0
 11
127.2129543149153
 21
39.67652198408354
 31
0.0
  0
ARC
  5
14B
330
2
100
AcDbEntity
  8
KIJUN
 62
     7
100
AcDbCircle
 10
126.1758187704232
 20
32.15697183992001
 30
0.0
 40
0.1
100
AcDbArc
 50
188.2880317052498
 51
351.6754432636096
  0
LINE
  5
14C
330
2
100
AcDbEntity
  8
KIJUN
 62
     7
100
AcDbLine
 10
127.3624121789513
 20
39.57573873892073
 30
0.0
 11
126.2747651531941
 21
32.14249381047733
 31
0.0
  0
ARC
  5
14D
330
2
100
AcDbEntity
  8
KIJUN
 62
     7
100
AcDbCircle
 10
125.0930736288324
 20
39.58978894397223
 30
0.0
 40
0.1
100
AcDbArc
 50
59.54951702172166
 51
188.2880317052496
  0
ARC
  5
14E
330
2
100
AcDbEntity
  8
KIJUN
 62
     7
100
AcDbCircle
 10
104.1755981348142
 20
30.37132669387843
 30
0.0
 40
4.084548175618691
100
AcDbArc
 50
270.0
 51
359.9999999999312
  0
ARC
  5
14F
330
2
100
AcDbEntity
  8
KIJUN
 62
     7
100
AcDbCircle
 10
104.1755981348142
 20
30.37132669387843
 30
0.0
 40
2.08454817561869
100
AcDbArc
 50
270.0
 51
359.9999999999312
  0
LINE
  5
150
330
2
100
AcDbEntity
  8
KIJUN
 62
     7
100
AcDbLine
 10
105.3570782329453
 20
39.57537399401004
 30
0.0
 11
104.2743330913545
 21
32.14255688995802
 31
0.0
  0
ARC
  5
151
330
2
100
AcDbEntity
  8
KIJUN
 62
     7
100
AcDbCircle
 10
104.174469984373
 20
40.22873180009734
 30
0.0
 40
1.0
100
AcDbArc
 50
239.66102582136
 51
300.4504829782783
  0
ARC
  5
152
330
2
100
AcDbEntity
  8
KIJUN
 62
     7
100
AcDbCircle
 10
313.1767262852555
 20
40.22873180009734
 30
0.0
 40
1.0
100
AcDbArc
 50
239.5495170217217
 51
300.3389741786398
  0
LINE
  5
153
330
2
100
AcDbEntity
  8
KIJUN
 62
     7
100
AcDbLine
 10
311.9941180366831
 20
39.57537399401004
 30
0.0
 11
313.076863178274
 21
32.14255688995802
 31
0.0
  0
ARC
  5
154
330
2
100
AcDbEntity
  8
KIJUN
 62
     7
100
AcDbCircle
 10
313.1755981348143
 20
30.37132669387843
 30
0.0
 40
2.08454817561869
100
AcDbArc
 50
180.0000000000686
 51
270.0
  0
ARC
  5
155
330
2
100
AcDbEntity
  8
KIJUN
 62
     7
100
AcDbCircle
 10
313.1755981348143
 20
30.37132669387843
 30
0.0
 40
4.084548175618691
100
AcDbArc
 50
180.0000000000686
 51
270.0
  0
ARC
  5
156
330
2
100
AcDbEntity
  8
KIJUN
 62
     7
100
AcDbCircle
 10
219.6755981348143
 20
37.10963079615061
 30
0.0
 40
2.847392276267783
100
AcDbArc
 50
0.0000000000571907
 51
180.0000000000732
  0
ARC
  5
157
330
2
100
AcDbEntity
  8
KIJUN
 62
     7
100
AcDbCircle
 10
225.1755981348142
 20
30.37132669387843
 30
0.0
 40
4.084548175618691
100
AcDbArc
 50
180.0000000000686
 51
270.0
  0
ARC
  5
158
330
2
100
AcDbEntity
  8
KIJUN
 62
     7
100
AcDbCircle
 10
208.6755981348142
 20
37.10963079615425
 30
0.0
 40
2.847392276267783
100
AcDbArc
 50
359.9999999999267
 51
179.9999999999427
  0
ARC
  5
159
330
2
100
AcDbEntity
  8
KIJUN
 62
     7
100
AcDbCircle
 10
192.1755981348143
 20
30.37132669387843
 30
0.0
 40
2.08454817561869
100
AcDbArc
 50
270.0
 51
359.9999999999312
  0
LINE
  5
15A
330
2
100
AcDbEntity
  8
KIJUN
 62
     7
100
AcDbLine
 10
194.8282058585465
 20
37.10963079615061
 30
0.0
 11
194.2601463104328
 21
30.37132669387843
 31
0.0
  0
ARC
  5
15B
330
2
100
AcDbEntity
  8
KIJUN
 62
     7
100
AcDbCircle
 10
170.1755981348143
 20
30.37132669387843
 30
0.0
 40
4.084548175618691
100
AcDbArc
 50
270.0
 51
359.9999999999312
  0
ARC
  5
15C
330
2
100
AcDbEntity
  8
KIJUN
 62
     7
100
AcDbCircle
 10
192.1755981348143
 20
30.37132669387843
 30
0.0
 40
4.084548175618691
100
AcDbArc
 50
180.0000000000686
 51
270.0
  0
ARC
  5
15D
330
2
100
AcDbEntity
  8
KIJUN
 62
     7
100
AcDbCircle
 10
181.1755981348142
 20
30.37132669387843
 30
0.0
 40
4.084548175618691
100
AcDbArc
 50
180.0000000000686
 51
270.0
  0
ARC
  5
15E
330
2
100
AcDbEntity
  8
KIJUN
 62
     7
100
AcDbCircle
 10
181.1755981348142
 20
30.37132669387843
 30
0.0
 40
4.084548175618691
100
AcDbArc
 50
270.0
 51
359.9999999999312
  0
LINE
  5
15F
330
2
100
AcDbEntity
  8
KIJUN
 62
     7
100
AcDbLine
 10
178.5229904110819
 20
37.10963079615061
 30
0.0
 11
179.0910499591954
 21
30.37132669387843
 31
0.0
  0
ARC
  5
160
330
2
100
AcDbEntity
  8
KIJUN
 62
     7
100
AcDbCircle
 10
175.6755981348143
 20
29.4518962006395
 30
0.0
 40
0.1
100
AcDbArc
 50
22.9635027398381
 51
157.0364972601617
  0
ARC
  5
161
330
2
100
AcDbEntity
  8
KIJUN
 62
     7
100
AcDbCircle
 10
176.9598954809016
 20
27.66006534692082
 30
0.0
 40
0.1
100
AcDbArc
 50
311.7274843729922
 51
48.29872961434758
  0
ARC
  5
162
330
2
100
AcDbEntity
  8
KIJUN
 62
     7
100
AcDbCircle
 10
180.3037412593474
 20
31.41294803989506
 30
0.0
 40
4.926473226568868
100
AcDbArc
 50
202.9635027397869
 51
228.2987296143392
  0
ARC
  5
163
330
2
100
AcDbEntity
  8
KIJUN
 62
     7
100
AcDbCircle
 10
174.3913007887267
 20
27.66006534692082
 30
0.0
 40
0.1
100
AcDbArc
 50
131.7012703856524
 51
228.2725156270079
  0
ARC
  5
164
330
2
100
AcDbEntity
  8
KIJUN
 62
     7
100
AcDbCircle
 10
171.0474550102808
 20
31.41294803989506
 30
0.0
 40
4.926473226568868
100
AcDbArc
 50
311.7012703856608
 51
337.036497260213
  0
ARC
  5
165
330
2
100
AcDbEntity
  8
KIJUN
 62
     7
100
AcDbCircle
 10
175.6755981355936
 20
26.51469256131002
 30
0.0
 40
0.1
100
AcDbArc
 50
228.2725156270553
 51
311.7274843729447
  0
LINE
  5
166
330
2
100
AcDbEntity
  8
KIJUN
 62
     7
100
AcDbLine
 10
174.3247419452204
 20
27.58543344790262
 30
0.0
 11
175.6090392920873
 21
26.44006066229162
 31
0.0
  0
LINE
  5
167
330
2
100
AcDbEntity
  8
KIJUN
 62
     7
100
AcDbLine
 10
175.7421569790999
 20
26.44006066229162
 30
0.0
 11
177.0264543244078
 21
27.58543344790262
 31
0.0
  0
LINE
  5
168
330
2
100
AcDbEntity
  8
KIJUN
 62
     7
100
AcDbLine
 10
176.4238306937818
 20
37.51570927530446
 30
0.0
 11
177.0981193032948
 21
30.2033165728405
 31
0.0
  0
ARC
  5
169
330
2
100
AcDbEntity
  8
KIJUN
 62
     7
100
AcDbCircle
 10
170.1755981348143
 20
30.37132669387843
 30
0.0
 40
2.08454817561869
100
AcDbArc
 50
270.0
 51
359.9999999999312
  0
LINE
  5
16A
330
2
100
AcDbEntity
  8
KIJUN
 62
     7
100
AcDbLine
 10
174.9273655758464
 20
37.51570927530446
 30
0.0
 11
174.2530769663335
 21
30.2033165728405
 31
0.0
  0
LINE
  5
16B
330
2
100
AcDbEntity
  8
KIJUN
 62
     7
100
AcDbLine
 10
172.8282058585465
 20
37.10963079615061
 30
0.0
 11
172.2601463104328
 21
30.37132669387843
 31
0.0
  0
ARC
  5
16C
330
2
100
AcDbEntity
  8
KIJUN
 62
     7
100
AcDbCircle
 10
175.6755981348143
 20
37.10963079615061
 30
0.0
 40
2.847392276267783
100
AcDbArc
 50
359.9999999999267
 51
179.9999999999427
  0
ARC
  5
16D
330
2
100
AcDbEntity
  8
KIJUN
 62
     7
100
AcDbCircle
 10
175.6755981348143
 20
37.51570927530446
 30
0.0
 40
0.7482325589676293
100
AcDbArc
 50
359.9999999996605
 51
179.9999999999216
  0
ARC
  5
16E
330
2
100
AcDbEntity
  8
KIJUN
 62
     7
100
AcDbCircle
 10
186.6755981348143
 20
37.51570927530446
 30
0.0
 40
0.7482325589676293
100
AcDbArc
 50
0.0000000000783504
 51
180.0000000003393
  0
ARC
  5
16F
330
2
100
AcDbEntity
  8
KIJUN
 62
     7
100
AcDbCircle
 10
186.6755981348143
 20
37.10963079615061
 30
0.0
 40
2.847392276267783
100
AcDbArc
 50
0.0000000000572061
 51
180.0000000000732
  0
LINE
  5
170
330
2
100
AcDbEntity
  8
KIJUN
 62
     7
100
AcDbLine
 10
189.5229904110819
 20
37.10963079615061
 30
0.0
 11
190.0910499591954
 21
30.37132669387843
 31
0.0
  0
LINE
  5
171
330
2
100
AcDbEntity
  8
KIJUN
 62
     7
100
AcDbLine
 10
187.4238306937818
 20
37.51570927530446
 30
0.0
 11
188.0981193032948
 21
30.2033165728405
 31
0.0
  0
ARC
  5
172
330
2
100
AcDbEntity
  8
KIJUN
 62
     7
100
AcDbCircle
 10
192.1755981348143
 20
30.37132669387843
 30
0.0
 40
2.08454817561869
100
AcDbArc
 50
180.0000000000686
 51
270.0
  0
LINE
  5
173
330
2
100
AcDbEntity
  8
KIJUN
 62
     7
100
AcDbLine
 10
176.4238306937818
 20
37.51570927530446
 30
0.0
 11
177.0981193032948
 21
30.2033165728405
 31
0.0
  0
ARC
  5
174
330
2
100
AcDbEntity
  8
KIJUN
 62
     7
100
AcDbCircle
 10
181.1755981348142
 20
30.37132669387843
 30
0.0
 40
2.08454817561869
100
AcDbArc
 50
180.0000000000686
 51
270.0
  0
LINE
  5
175
330
2
100
AcDbEntity
  8
KIJUN
 62
     7
100
AcDbLine
 10
178.5229904110819
 20
37.10963079615061
 30
0.0
 11
179.0910499591954
 21
30.37132669387843
 31
0.0
  0
ARC
  5
176
330
2
100
AcDbEntity
  8
KIJUN
 62
     7
100
AcDbCircle
 10
181.1755981348142
 20
30.37132669387843
 30
0.0
 40
2.08454817561869
100
AcDbArc
 50
270.0
 51
359.9999999999312
  0
LINE
  5
177
330
2
100
AcDbEntity
  8
KIJUN
 62
     7
100
AcDbLine
 10
182.3624121789513
 20
39.57573873892073
 30
0.0
 11
181.274765153194
 21
32.14249381047733
 31
0.0
  0
LINE
  5
178
330
2
100
AcDbEntity
  8
KIJUN
 62
     7
100
AcDbLine
 10
179.9941180366831
 20
39.57537399401004
 30
0.0
 11
181.0768631782739
 21
32.14255688995802
 31
0.0
  0
ARC
  5
179
330
2
100
AcDbEntity
  8
KIJUN
 62
     7
100
AcDbCircle
 10
181.1758187704232
 20
32.15697183992001
 30
0.0
 40
0.1
100
AcDbArc
 50
188.2880317052498
 51
351.6754432636096
  0
LINE
  5
17A
330
2
100
AcDbEntity
  8
KIJUN
 62
     7
100
AcDbLine
 10
185.9273655758464
 20
37.51570927530446
 30
0.0
 11
185.2530769663335
 21
30.2033165728405
 31
0.0
  0
LINE
  5
17B
330
2
100
AcDbEntity
  8
KIJUN
 62
     7
100
AcDbLine
 10
186.6090392905285
 20
26.44006066229162
 30
0.0
 11
185.3247419452205
 21
27.58543344790262
 31
0.0
  0
LINE
  5
17C
330
2
100
AcDbEntity
  8
KIJUN
 62
     7
100
AcDbLine
 10
188.0264543244079
 20
27.58543344790262
 30
0.0
 11
186.7421569775411
 21
26.44006066229162
 31
0.0
  0
ARC
  5
17D
330
2
100
AcDbEntity
  8
KIJUN
 62
     7
100
AcDbCircle
 10
186.6755981340348
 20
26.51469256131002
 30
0.0
 40
0.1
100
AcDbArc
 50
228.2725156270553
 51
311.7274843729447
  0
ARC
  5
17E
330
2
100
AcDbEntity
  8
KIJUN
 62
     7
100
AcDbCircle
 10
191.3037412593475
 20
31.41294803989506
 30
0.0
 40
4.926473226568868
100
AcDbArc
 50
202.9635027397869
 51
228.2987296143392
  0
ARC
  5
17F
330
2
100
AcDbEntity
  8
KIJUN
 62
     7
100
AcDbCircle
 10
187.9598954809016
 20
27.66006534692082
 30
0.0
 40
0.1
100
AcDbArc
 50
311.7274843729922
 51
48.29872961434758
  0
ARC
  5
180
330
2
100
AcDbEntity
  8
KIJUN
 62
     7
100
AcDbCircle
 10
182.0474550102808
 20
31.41294803989506
 30
0.0
 40
4.926473226568868
100
AcDbArc
 50
311.7012703856606
 51
337.036497260213
  0
ARC
  5
181
330
2
100
AcDbEntity
  8
KIJUN
 62
     7
100
AcDbCircle
 10
185.3913007887267
 20
27.66006534692082
 30
0.0
 40
0.1
100
AcDbArc
 50
131.7012703856524
 51
228.2725156270079
  0
ARC
  5
182
330
2
100
AcDbEntity
  8
KIJUN
 62
     7
100
AcDbCircle
 10
186.6755981348143
 20
29.4518962006395
 30
0.0
 40
0.1
100
AcDbArc
 50
22.9635027398381
 51
157.0364972601617
  0
LINE
  5
183
330
2
100
AcDbEntity
  8
KIJUN
 62
     7
100
AcDbLine
 10
181.6818410979049
 20
39.36567964290038
 30
0.0
 11
182.2129543149153
 21
39.67652198408354
 31
0.0
  0
ARC
  5
184
330
2
100
AcDbEntity
  8
KIJUN
 62
     7
100
AcDbCircle
 10
182.2634657961802
 20
39.59021676836385
 30
0.0
 40
0.1
100
AcDbArc
 50
351.6754432636081
 51
120.3389741786548
  0
ARC
  5
185
330
2
100
AcDbEntity
  8
KIJUN
 62
     7
100
AcDbCircle
 10
181.1767262852555
 20
40.22873180009734
 30
0.0
 40
1.0
100
AcDbArc
 50
239.5495170217217
 51
300.3389741786398
  0
LINE
  5
186
330
2
100
AcDbEntity
  8
KIJUN
 62
     7
100
AcDbLine
 10
180.6699327618762
 20
39.36666432903683
 30
0.0
 11
180.1437529811702
 21
39.67599569107818
 31
0.0
  0
ARC
  5
187
330
2
100
AcDbEntity
  8
KIJUN
 62
     7
100
AcDbCircle
 10
180.0930736288323
 20
39.58978894397223
 30
0.0
 40
0.1
100
AcDbArc
 50
59.54951702172166
 51
188.2880317052496
  0
LINE
  5
188
330
2
100
AcDbEntity
  8
KIJUN
 62
     7
100
AcDbLine
 10
183.8282058585464
 20
37.10963079615061
 30
0.0
 11
183.2601463104328
 21
30.37132669387843
 31
0.0
  0
LINE
  5
189
330
2
100
AcDbEntity
  8
KIJUN
 62
     7
100
AcDbLine
 10
190.9887840906771
 20
39.57573873892073
 30
0.0
 11
192.0764311164344
 21
32.14249381047733
 31
0.0
  0
LINE
  5
18A
330
2
100
AcDbEntity
  8
KIJUN
 62
     7
100
AcDbLine
 10
193.3570782329453
 20
39.57537399401004
 30
0.0
 11
192.2743330913544
 21
32.14255688995802
 31
0.0
  0
ARC
  5
18B
330
2
100
AcDbEntity
  8
KIJUN
 62
     7
100
AcDbCircle
 10
192.1753774992053
 20
32.15697183992001
 30
0.0
 40
0.1
100
AcDbArc
 50
188.3245567363902
 51
351.7119682947499
  0
LINE
  5
18C
330
2
100
AcDbEntity
  8
KIJUN
 62
     7
100
AcDbLine
 10
191.6693551717234
 20
39.36567964290038
 30
0.0
 11
191.138241954713
 21
39.67652198408354
 31
0.0
  0
ARC
  5
18D
330
2
100
AcDbEntity
  8
KIJUN
 62
     7
100
AcDbCircle
 10
191.0877304734481
 20
39.59021676836385
 30
0.0
 40
0.1
100
AcDbArc
 50
59.66102582134514
 51
188.3245567363916
  0
ARC
  5
18E
330
2
100
AcDbEntity
  8
KIJUN
 62
     7
100
AcDbCircle
 10
192.1744699843729
 20
40.22873180009734
 30
0.0
 40
1.0
100
AcDbArc
 50
239.66102582136
 51
300.4504829782783
  0
LINE
  5
18F
330
2
100
AcDbEntity
  8
KIJUN
 62
     7
100
AcDbLine
 10
192.6812635077521
 20
39.36666432903683
 30
0.0
 11
193.2074432884584
 21
39.67599569107818
 31
0.0
  0
ARC
  5
190
330
2
100
AcDbEntity
  8
KIJUN
 62
     7
100
AcDbCircle
 10
193.258122640796
 20
39.58978894397223
 30
0.0
 40
0.1
100
AcDbArc
 50
351.7119682947503
 51
120.4504829782783
  0
ARC
  5
191
330
2
100
AcDbEntity
  8
KIJUN
 62
     7
100
AcDbCircle
 10
169.0930736288324
 20
39.58978894397223
 30
0.0
 40
0.1
100
AcDbArc
 50
59.54951702172166
 51
188.2880317052496
  0
LINE
  5
192
330
2
100
AcDbEntity
  8
KIJUN
 62
     7
100
AcDbLine
 10
169.6699327618762
 20
39.36666432903683
 30
0.0
 11
169.1437529811702
 21
39.67599569107818
 31
0.0
  0
ARC
  5
193
330
2
100
AcDbEntity
  8
KIJUN
 62
     7
100
AcDbCircle
 10
170.1767262852555
 20
40.22873180009734
 30
0.0
 40
1.0
100
AcDbArc
 50
239.5495170217217
 51
300.3389741786398
  0
ARC
  5
194
330
2
100
AcDbEntity
  8
KIJUN
 62
     7
100
AcDbCircle
 10
171.2634657961802
 20
39.59021676836385
 30
0.0
 40
0.1
100
AcDbArc
 50
351.6754432636081
 51
120.3389741786548
  0
LINE
  5
195
330
2
100
AcDbEntity
  8
KIJUN
 62
     7
100
AcDbLine
 10
170.681841097905
 20
39.36567964290038
 30
0.0
 11
171.2129543149153
 21
39.67652198408354
 31
0.0
  0
ARC
  5
196
330
2
100
AcDbEntity
  8
KIJUN
 62
     7
100
AcDbCircle
 10
170.1758187704232
 20
32.15697183992001
 30
0.0
 40
0.1
100
AcDbArc
 50
188.2880317052498
 51
351.6754432636096
  0
LINE
  5
197
330
2
100
AcDbEntity
  8
KIJUN
 62
     7
100
AcDbLine
 10
168.9941180366831
 20
39.57537399401004
 30
0.0
 11
170.0768631782738
 21
32.14255688995802
 31
0.0
  0
LINE
  5
198
330
2
100
AcDbEntity
  8
KIJUN
 62
     7
100
AcDbLine
 10
171.3624121789513
 20
39.57573873892073
 30
0.0
 11
170.274765153194
 21
32.14249381047733
 31
0.0
  0
ARC
  5
199
330
2
100
AcDbEntity
  8
KIJUN
 62
     7
100
AcDbCircle
 10
159.1755981348143
 20
30.37132669387843
 30
0.0
 40
4.084548175618691
100
AcDbArc
 50
180.0000000000686
 51
270.0
  0
ARC
  5
19A
330
2
100
AcDbEntity
  8
KIJUN
 62
     7
100
AcDbCircle
 10
159.1755981348143
 20
30.37132669387843
 30
0.0
 40
4.084548175618691
100
AcDbArc
 50
270.0
 51
359.9999999999312
  0
ARC
  5
19B
330
2
100
AcDbEntity
  8
KIJUN
 62
     7
100
AcDbCircle
 10
148.1755981348143
 20
30.37132669387843
 30
0.0
 40
4.084548175618691
100
AcDbArc
 50
270.0
 51
359.9999999999312
  0
ARC
  5
19C
330
2
100
AcDbEntity
  8
KIJUN
 62
     7
100
AcDbCircle
 10
170.1755981348143
 20
30.37132669387843
 30
0.0
 40
4.084548175618691
100
AcDbArc
 50
180.0000000000686
 51
270.0
  0
ARC
  5
19D
330
2
100
AcDbEntity
  8
KIJUN
 62
     7
100
AcDbCircle
 10
148.1755981348143
 20
30.37132669387843
 30
0.0
 40
4.084548175618691
100
AcDbArc
 50
180.0000000000686
 51
270.0
  0
ARC
  5
19E
330
2
100
AcDbEntity
  8
KIJUN
 62
     7
100
AcDbCircle
 10
137.1755981348143
 20
30.37132669387843
 30
0.0
 40
4.084548175618691
100
AcDbArc
 50
180.0000000000686
 51
270.0
  0
ARC
  5
19F
330
2
100
AcDbEntity
  8
KIJUN
 62
     7
100
AcDbCircle
 10
137.1755981348143
 20
30.37132669387843
 30
0.0
 40
4.084548175618691
100
AcDbArc
 50
270.0
 51
359.9999999999312
  0
LINE
  5
1A0
330
2
100
AcDbEntity
  8
KIJUN
 62
     7
100
AcDbLine
 10
168.9887840906771
 20
39.57573873892073
 30
0.0
 11
170.0764311164344
 21
32.14249381047733
 31
0.0
  0
LINE
  5
1A1
330
2
100
AcDbEntity
  8
KIJUN
 62
     7
100
AcDbLine
 10
171.3570782329453
 20
39.57537399401004
 30
0.0
 11
170.2743330913544
 21
32.14255688995802
 31
0.0
  0
ARC
  5
1A2
330
2
100
AcDbEntity
  8
KIJUN
 62
     7
100
AcDbCircle
 10
170.1753774992053
 20
32.15697183992001
 30
0.0
 40
0.1
100
AcDbArc
 50
188.3245567363902
 51
351.7119682947499
  0
LINE
  5
1A3
330
2
100
AcDbEntity
  8
KIJUN
 62
     7
100
AcDbLine
 10
169.6693551717236
 20
39.36567964290038
 30
0.0
 11
169.1382419547131
 21
39.67652198408354
 31
0.0
  0
ARC
  5
1A4
330
2
100
AcDbEntity
  8
KIJUN
 62
     7
100
AcDbCircle
 10
169.0877304734482
 20
39.59021676836385
 30
0.0
 40
0.1
100
AcDbArc
 50
59.66102582134514
 51
188.3245567363916
  0
ARC
  5
1A5
330
2
100
AcDbEntity
  8
KIJUN
 62
     7
100
AcDbCircle
 10
170.1744699843729
 20
40.22873180009734
 30
0.0
 40
1.0
100
AcDbArc
 50
239.66102582136
 51
300.4504829782783
  0
LINE
  5
1A6
330
2
100
AcDbEntity
  8
KIJUN
 62
     7
100
AcDbLine
 10
170.6812635077521
 20
39.36666432903683
 30
0.0
 11
171.2074432884583
 21
39.67599569107818
 31
0.0
  0
ARC
  5
1A7
330
2
100
AcDbEntity
  8
KIJUN
 62
     7
100
AcDbCircle
 10
171.2581226407959
 20
39.58978894397223
 30
0.0
 40
0.1
100
AcDbArc
 50
351.7119682947503
 51
120.4504829782783
  0
ARC
  5
1A8
330
2
100
AcDbEntity
  8
KIJUN
 62
     7
100
AcDbCircle
 10
147.0930736288324
 20
39.58978894397223
 30
0.0
 40
0.1
100
AcDbArc
 50
59.54951702172166
 51
188.2880317052496
  0
LINE
  5
1A9
330
2
100
AcDbEntity
  8
KIJUN
 62
     7
100
AcDbLine
 10
147.6699327618763
 20
39.36666432903683
 30
0.0
 11
147.1437529811701
 21
39.67599569107818
 31
0.0
  0
ARC
  5
1AA
330
2
100
AcDbEntity
  8
KIJUN
 62
     7
100
AcDbCircle
 10
148.1767262852555
 20
40.22873180009734
 30
0.0
 40
1.0
100
AcDbArc
 50
239.5495170217217
 51
300.3389741786398
  0
ARC
  5
1AB
330
2
100
AcDbEntity
  8
KIJUN
 62
     7
100
AcDbCircle
 10
149.2634657961803
 20
39.59021676836385
 30
0.0
 40
0.1
100
AcDbArc
 50
351.6754432636081
 51
120.3389741786548
  0
LINE
  5
1AC
330
2
100
AcDbEntity
  8
KIJUN
 62
     7
100
AcDbLine
 10
148.681841097905
 20
39.36567964290038
 30
0.0
 11
149.2129543149154
 21
39.67652198408354
 31
0.0
  0
ARC
  5
1AD
330
2
100
AcDbEntity
  8
KIJUN
 62
     7
100
AcDbCircle
 10
148.1758187704232
 20
32.15697183992001
 30
0.0
 40
0.1
100
AcDbArc
 50
188.2880317052498
 51
351.6754432636096
  0
LINE
  5
1AE
330
2
100
AcDbEntity
  8
KIJUN
 62
     7
100
AcDbLine
 10
146.9941180366832
 20
39.57537399401004
 30
0.0
 11
148.076863178274
 21
32.14255688995802
 31
0.0
  0
LINE
  5
1AF
330
2
100
AcDbEntity
  8
KIJUN
 62
     7
100
AcDbLine
 10
149.3624121789513
 20
39.57573873892073
 30
0.0
 11
148.274765153194
 21
32.14249381047733
 31
0.0
  0
LINE
  5
1B0
330
2
100
AcDbEntity
  8
KIJUN
 62
     7
100
AcDbLine
 10
156.522990411082
 20
37.10963079615061
 30
0.0
 11
157.0910499591955
 21
30.37132669387843
 31
0.0
  0
ARC
  5
1B1
330
2
100
AcDbEntity
  8
KIJUN
 62
     7
100
AcDbCircle
 10
160.2581226407959
 20
39.58978894397223
 30
0.0
 40
0.1
100
AcDbArc
 50
351.7119682947503
 51
120.4504829782783
  0
LINE
  5
1B2
330
2
100
AcDbEntity
  8
KIJUN
 62
     7
100
AcDbLine
 10
159.6812635077522
 20
39.36666432903683
 30
0.0
 11
160.2074432884583
 21
39.67599569107818
 31
0.0
  0
ARC
  5
1B3
330
2
100
AcDbEntity
  8
KIJUN
 62
     7
100
AcDbCircle
 10
159.1744699843729
 20
40.22873180009734
 30
0.0
 40
1.0
100
AcDbArc
 50
239.66102582136
 51
300.4504829782783
  0
ARC
  5
1B4
330
2
100
AcDbEntity
  8
KIJUN
 62
     7
100
AcDbCircle
 10
158.0877304734482
 20
39.59021676836385
 30
0.0
 40
0.1
100
AcDbArc
 50
59.66102582134514
 51
188.3245567363916
  0
LINE
  5
1B5
330
2
100
AcDbEntity
  8
KIJUN
 62
     7
100
AcDbLine
 10
158.6693551717235
 20
39.36567964290038
 30
0.0
 11
158.1382419547131
 21
39.67652198408354
 31
0.0
  0
ARC
  5
1B6
330
2
100
AcDbEntity
  8
KIJUN
 62
     7
100
AcDbCircle
 10
153.6755981348143
 20
29.4518962006395
 30
0.0
 40
0.1
100
AcDbArc
 50
22.9635027398381
 51
157.0364972601617
  0
ARC
  5
1B7
330
2
100
AcDbEntity
  8
KIJUN
 62
     7
100
AcDbCircle
 10
154.9598954809017
 20
27.66006534692082
 30
0.0
 40
0.1
100
AcDbArc
 50
311.7274843729922
 51
48.29872961434758
  0
ARC
  5
1B8
330
2
100
AcDbEntity
  8
KIJUN
 62
     7
100
AcDbCircle
 10
158.3037412593474
 20
31.41294803989506
 30
0.0
 40
4.926473226568868
100
AcDbArc
 50
202.9635027397869
 51
228.2987296143392
  0
ARC
  5
1B9
330
2
100
AcDbEntity
  8
KIJUN
 62
     7
100
AcDbCircle
 10
152.3913007887268
 20
27.66006534692082
 30
0.0
 40
0.1
100
AcDbArc
 50
131.7012703856524
 51
228.2725156270079
  0
ARC
  5
1BA
330
2
100
AcDbEntity
  8
KIJUN
 62
     7
100
AcDbCircle
 10
149.0474550102809
 20
31.41294803989506
 30
0.0
 40
4.926473226568868
100
AcDbArc
 50
311.7012703856608
 51
337.036497260213
  0
ARC
  5
1BB
330
2
100
AcDbEntity
  8
KIJUN
 62
     7
100
AcDbCircle
 10
153.6755981355937
 20
26.51469256131002
 30
0.0
 40
0.1
100
AcDbArc
 50
228.2725156270553
 51
311.7274843729447
  0
LINE
  5
1BC
330
2
100
AcDbEntity
  8
KIJUN
 62
     7
100
AcDbLine
 10
152.3247419452205
 20
27.58543344790262
 30
0.0
 11
153.6090392920874
 21
26.44006066229162
 31
0.0
  0
LINE
  5
1BD
330
2
100
AcDbEntity
  8
KIJUN
 62
     7
100
AcDbLine
 10
153.7421569791
 20
26.44006066229162
 30
0.0
 11
155.026454324408
 21
27.58543344790262
 31
0.0
  0
LINE
  5
1BE
330
2
100
AcDbEntity
  8
KIJUN
 62
     7
100
AcDbLine
 10
154.4238306937819
 20
37.51570927530446
 30
0.0
 11
155.0981193032949
 21
30.2033165728405
 31
0.0
  0
ARC
  5
1BF
330
2
100
AcDbEntity
  8
KIJUN
 62
     7
100
AcDbCircle
 10
159.1753774992052
 20
32.15697183992001
 30
0.0
 40
0.1
100
AcDbArc
 50
188.3245567363902
 51
351.7119682947499
  0
LINE
  5
1C0
330
2
100
AcDbEntity
  8
KIJUN
 62
     7
100
AcDbLine
 10
160.3570782329452
 20
39.57537399401004
 30
0.0
 11
159.2743330913545
 21
32.14255688995802
 31
0.0
  0
LINE
  5
1C1
330
2
100
AcDbEntity
  8
KIJUN
 62
     7
100
AcDbLine
 10
157.9887840906772
 20
39.57573873892073
 30
0.0
 11
159.0764311164344
 21
32.14249381047733
 31
0.0
  0
ARC
  5
1C2
330
2
100
AcDbEntity
  8
KIJUN
 62
     7
100
AcDbCircle
 10
159.1755981348143
 20
30.37132669387843
 30
0.0
 40
2.08454817561869
100
AcDbArc
 50
180.0000000000686
 51
270.0
  0
LINE
  5
1C3
330
2
100
AcDbEntity
  8
KIJUN
 62
     7
100
AcDbLine
 10
161.8282058585464
 20
37.10963079615061
 30
0.0
 11
161.2601463104329
 21
30.37132669387843
 31
0.0
  0
ARC
  5
1C4
330
2
100
AcDbEntity
  8
KIJUN
 62
     7
100
AcDbCircle
 10
159.1755981348143
 20
30.37132669387843
 30
0.0
 40
2.08454817561869
100
AcDbArc
 50
270.0
 51
359.9999999999312
  0
LINE
  5
1C5
330
2
100
AcDbEntity
  8
KIJUN
 62
     7
100
AcDbLine
 10
163.9273655758464
 20
37.51570927530446
 30
0.0
 11
163.2530769663335
 21
30.2033165728405
 31
0.0
  0
ARC
  5
1C6
330
2
100
AcDbEntity
  8
KIJUN
 62
     7
100
AcDbCircle
 10
148.1755981348143
 20
30.37132669387843
 30
0.0
 40
2.08454817561869
100
AcDbArc
 50
270.0
 51
359.9999999999312
  0
LINE
  5
1C7
330
2
100
AcDbEntity
  8
KIJUN
 62
     7
100
AcDbLine
 10
152.9273655758466
 20
37.51570927530446
 30
0.0
 11
152.2530769663336
 21
30.2033165728405
 31
0.0
  0
LINE
  5
1C8
330
2
100
AcDbEntity
  8
KIJUN
 62
     7
100
AcDbLine
 10
150.8282058585465
 20
37.10963079615061
 30
0.0
 11
150.260146310433
 21
30.37132669387843
 31
0.0
  0
ARC
  5
1C9
330
2
100
AcDbEntity
  8
KIJUN
 62
     7
100
AcDbCircle
 10
153.6755981348143
 20
37.10963079615061
 30
0.0
 40
2.847392276267783
100
AcDbArc
 50
359.9999999999267
 51
179.9999999999427
  0
ARC
  5
1CA
330
2
100
AcDbEntity
  8
KIJUN
 62
     7
100
AcDbCircle
 10
153.6755981348143
 20
37.51570927530446
 30
0.0
 40
0.7482325589676293
100
AcDbArc
 50
359.9999999996605
 51
179.9999999999216
  0
ARC
  5
1CB
330
2
100
AcDbEntity
  8
KIJUN
 62
     7
100
AcDbCircle
 10
164.6755981348142
 20
37.51570927530446
 30
0.0
 40
0.7482325589676293
100
AcDbArc
 50
0.0000000000783504
 51
180.0000000003393
  0
ARC
  5
1CC
330
2
100
AcDbEntity
  8
KIJUN
 62
     7
100
AcDbCircle
 10
164.6755981348142
 20
37.10963079615061
 30
0.0
 40
2.847392276267783
100
AcDbArc
 50
0.0000000000572061
 51
180.0000000000732
  0
LINE
  5
1CD
330
2
100
AcDbEntity
  8
KIJUN
 62
     7
100
AcDbLine
 10
167.5229904110818
 20
37.10963079615061
 30
0.0
 11
168.0910499591954
 21
30.37132669387843
 31
0.0
  0
LINE
  5
1CE
330
2
100
AcDbEntity
  8
KIJUN
 62
     7
100
AcDbLine
 10
165.4238306937818
 20
37.51570927530446
 30
0.0
 11
166.0981193032948
 21
30.2033165728405
 31
0.0
  0
ARC
  5
1CF
330
2
100
AcDbEntity
  8
KIJUN
 62
     7
100
AcDbCircle
 10
170.1755981348143
 20
30.37132669387843
 30
0.0
 40
2.08454817561869
100
AcDbArc
 50
180.0000000000686
 51
270.0
  0
LINE
  5
1D0
330
2
100
AcDbEntity
  8
KIJUN
 62
     7
100
AcDbLine
 10
163.9273655758464
 20
37.51570927530446
 30
0.0
 11
163.2530769663335
 21
30.2033165728405
 31
0.0
  0
LINE
  5
1D1
330
2
100
AcDbEntity
  8
KIJUN
 62
     7
100
AcDbLine
 10
164.6090392905285
 20
26.44006066229162
 30
0.0
 11
163.3247419452205
 21
27.58543344790262
 31
0.0
  0
LINE
  5
1D2
330
2
100
AcDbEntity
  8
KIJUN
 62
     7
100
AcDbLine
 10
166.0264543244078
 20
27.58543344790262
 30
0.0
 11
164.7421569775411
 21
26.44006066229162
 31
0.0
  0
ARC
  5
1D3
330
2
100
AcDbEntity
  8
KIJUN
 62
     7
100
AcDbCircle
 10
164.6755981340348
 20
26.51469256131002
 30
0.0
 40
0.1
100
AcDbArc
 50
228.2725156270553
 51
311.7274843729447
  0
ARC
  5
1D4
330
2
100
AcDbEntity
  8
KIJUN
 62
     7
100
AcDbCircle
 10
169.3037412593475
 20
31.41294803989506
 30
0.0
 40
4.926473226568868
100
AcDbArc
 50
202.9635027397869
 51
228.2987296143392
  0
ARC
  5
1D5
330
2
100
AcDbEntity
  8
KIJUN
 62
     7
100
AcDbCircle
 10
165.9598954809016
 20
27.66006534692082
 30
0.0
 40
0.1
100
AcDbArc
 50
311.7274843729922
 51
48.29872961434758
  0
ARC
  5
1D6
330
2
100
AcDbEntity
  8
KIJUN
 62
     7
100
AcDbCircle
 10
160.0474550102808
 20
31.41294803989506
 30
0.0
 40
4.926473226568868
100
AcDbArc
 50
311.7012703856606
 51
337.036497260213
  0
ARC
  5
1D7
330
2
100
AcDbEntity
  8
KIJUN
 62
     7
100
AcDbCircle
 10
163.3913007887267
 20
27.66006534692082
 30
0.0
 40
0.1
100
AcDbArc
 50
131.7012703856524
 51
228.2725156270079
  0
ARC
  5
1D8
330
2
100
AcDbEntity
  8
KIJUN
 62
     7
100
AcDbCircle
 10
164.6755981348142
 20
29.4518962006395
 30
0.0
 40
0.1
100
AcDbArc
 50
22.9635027398381
 51
157.0364972601617
  0
LINE
  5
1D9
330
2
100
AcDbEntity
  8
KIJUN
 62
     7
100
AcDbLine
 10
161.8282058585464
 20
37.10963079615061
 30
0.0
 11
161.2601463104329
 21
30.37132669387843
 31
0.0
  0
LINE
  5
1DA
330
2
100
AcDbEntity
  8
KIJUN
 62
     7
100
AcDbLine
 10
134.522990411082
 20
37.10963079615061
 30
0.0
 11
135.0910499591956
 21
30.37132669387843
 31
0.0
  0
ARC
  5
1DB
330
2
100
AcDbEntity
  8
KIJUN
 62
     7
100
AcDbCircle
 10
131.6755981348143
 20
29.4518962006395
 30
0.0
 40
0.1
100
AcDbArc
 50
22.9635027398381
 51
157.0364972601617
  0
ARC
  5
1DC
330
2
100
AcDbEntity
  8
KIJUN
 62
     7
100
AcDbCircle
 10
132.9598954809017
 20
27.66006534692082
 30
0.0
 40
0.1
100
AcDbArc
 50
311.7274843729922
 51
48.29872961434758
  0
ARC
  5
1DD
330
2
100
AcDbEntity
  8
KIJUN
 62
     7
100
AcDbCircle
 10
136.3037412593476
 20
31.41294803989506
 30
0.0
 40
4.926473226568868
100
AcDbArc
 50
202.9635027397869
 51
228.2987296143392
  0
ARC
  5
1DE
330
2
100
AcDbEntity
  8
KIJUN
 62
     7
100
AcDbCircle
 10
130.3913007887267
 20
27.66006534692082
 30
0.0
 40
0.1
100
AcDbArc
 50
131.7012703856524
 51
228.2725156270079
  0
ARC
  5
1DF
330
2
100
AcDbEntity
  8
KIJUN
 62
     7
100
AcDbCircle
 10
127.0474550102809
 20
31.41294803989506
 30
0.0
 40
4.926473226568868
100
AcDbArc
 50
311.7012703856608
 51
337.036497260213
  0
ARC
  5
1E0
330
2
100
AcDbEntity
  8
KIJUN
 62
     7
100
AcDbCircle
 10
131.6755981355937
 20
26.51469256131002
 30
0.0
 40
0.1
100
AcDbArc
 50
228.2725156270553
 51
311.7274843729447
  0
LINE
  5
1E1
330
2
100
AcDbEntity
  8
KIJUN
 62
     7
100
AcDbLine
 10
130.3247419452205
 20
27.58543344790262
 30
0.0
 11
131.6090392920874
 21
26.44006066229162
 31
0.0
  0
LINE
  5
1E2
330
2
100
AcDbEntity
  8
KIJUN
 62
     7
100
AcDbLine
 10
131.7421569791
 20
26.44006066229162
 30
0.0
 11
133.026454324408
 21
27.58543344790262
 31
0.0
  0
LINE
  5
1E3
330
2
100
AcDbEntity
  8
KIJUN
 62
     7
100
AcDbLine
 10
132.4238306937819
 20
37.51570927530446
 30
0.0
 11
133.0981193032949
 21
30.2033165728405
 31
0.0
  0
LINE
  5
1E4
330
2
100
AcDbEntity
  8
KIJUN
 62
     7
100
AcDbLine
 10
130.9273655758466
 20
37.51570927530446
 30
0.0
 11
130.2530769663336
 21
30.2033165728405
 31
0.0
  0
ARC
  5
1E5
330
2
100
AcDbEntity
  8
KIJUN
 62
     7
100
AcDbCircle
 10
131.6755981348143
 20
37.51570927530446
 30
0.0
 40
0.7482325589676293
100
AcDbArc
 50
359.9999999996605
 51
179.9999999999216
  0
ARC
  5
1E6
330
2
100
AcDbEntity
  8
KIJUN
 62
     7
100
AcDbCircle
 10
142.6755981348142
 20
37.51570927530446
 30
0.0
 40
0.7482325589676293
100
AcDbArc
 50
0.0000000000783504
 51
180.0000000003393
  0
ARC
  5
1E7
330
2
100
AcDbEntity
  8
KIJUN
 62
     7
100
AcDbCircle
 10
142.6755981348142
 20
37.10963079615061
 30
0.0
 40
2.847392276267783
100
AcDbArc
 50
0.0000000000572061
 51
180.0000000000732
  0
LINE
  5
1E8
330
2
100
AcDbEntity
  8
KIJUN
 62
     7
100
AcDbLine
 10
145.522990411082
 20
37.10963079615061
 30
0.0
 11
146.0910499591955
 21
30.37132669387843
 31
0.0
  0
LINE
  5
1E9
330
2
100
AcDbEntity
  8
KIJUN
 62
     7
100
AcDbLine
 10
143.4238306937819
 20
37.51570927530446
 30
0.0
 11
144.0981193032949
 21
30.2033165728405
 31
0.0
  0
ARC
  5
1EA
330
2
100
AcDbEntity
  8
KIJUN
 62
     7
100
AcDbCircle
 10
148.1755981348143
 20
30.37132669387843
 30
0.0
 40
2.08454817561869
100
AcDbArc
 50
180.0000000000686
 51
270.0
  0
LINE
  5
1EB
330
2
100
AcDbEntity
  8
KIJUN
 62
     7
100
AcDbLine
 10
132.4238306937819
 20
37.51570927530446
 30
0.0
 11
133.0981193032949
 21
30.2033165728405
 31
0.0
  0
ARC
  5
1EC
330
2
100
AcDbEntity
  8
KIJUN
 62
     7
100
AcDbCircle
 10
137.1755981348143
 20
30.37132669387843
 30
0.0
 40
2.08454817561869
100
AcDbArc
 50
180.0000000000686
 51
270.0
  0
LINE
  5
1ED
330
2
100
AcDbEntity
  8
KIJUN
 62
     7
100
AcDbLine
 10
134.522990411082
 20
37.10963079615061
 30
0.0
 11
135.0910499591956
 21
30.37132669387843
 31
0.0
  0
ARC
  5
1EE
330
2
100
AcDbEntity
  8
KIJUN
 62
     7
100
AcDbCircle
 10
137.1755981348143
 20
30.37132669387843
 30
0.0
 40
2.08454817561869
100
AcDbArc
 50
270.0
 51
359.9999999999312
  0
LINE
  5
1EF
330
2
100
AcDbEntity
  8
KIJUN
 62
     7
100
AcDbLine
 10
138.3624121789512
 20
39.57573873892073
 30
0.0
 11
137.2747651531941
 21
32.14249381047733
 31
0.0
  0
LINE
  5
1F0
330
2
100
AcDbEntity
  8
KIJUN
 62
     7
100
AcDbLine
 10
135.9941180366831
 20
39.57537399401004
 30
0.0
 11
137.076863178274
 21
32.14255688995802
 31
0.0
  0
ARC
  5
1F1
330
2
100
AcDbEntity
  8
KIJUN
 62
     7
100
AcDbCircle
 10
137.1758187704231
 20
32.15697183992001
 30
0.0
 40
0.1
100
AcDbArc
 50
188.2880317052498
 51
351.6754432636096
  0
LINE
  5
1F2
330
2
100
AcDbEntity
  8
KIJUN
 62
     7
100
AcDbLine
 10
141.9273655758465
 20
37.51570927530446
 30
0.0
 11
141.2530769663336
 21
30.2033165728405
 31
0.0
  0
LINE
  5
1F3
330
2
100
AcDbEntity
  8
KIJUN
 62
     7
100
AcDbLine
 10
142.6090392905285
 20
26.44006066229162
 30
0.0
 11
141.3247419452204
 21
27.58543344790262
 31
0.0
  0
LINE
  5
1F4
330
2
100
AcDbEntity
  8
KIJUN
 62
     7
100
AcDbLine
 10
144.026454324408
 20
27.58543344790262
 30
0.0
 11
142.742156977541
 21
26.44006066229162
 31
0.0
  0
ARC
  5
1F5
330
2
100
AcDbEntity
  8
KIJUN
 62
     7
100
AcDbCircle
 10
142.6755981340347
 20
26.51469256131002
 30
0.0
 40
0.1
100
AcDbArc
 50
228.2725156270553
 51
311.7274843729447
  0
ARC
  5
1F6
330
2
100
AcDbEntity
  8
KIJUN
 62
     7
100
AcDbCircle
 10
147.3037412593476
 20
31.41294803989506
 30
0.0
 40
4.926473226568868
100
AcDbArc
 50
202.9635027397869
 51
228.2987296143392
  0
ARC
  5
1F7
330
2
100
AcDbEntity
  8
KIJUN
 62
     7
100
AcDbCircle
 10
143.9598954809017
 20
27.66006534692082
 30
0.0
 40
0.1
100
AcDbArc
 50
311.7274843729922
 51
48.29872961434758
  0
ARC
  5
1F8
330
2
100
AcDbEntity
  8
KIJUN
 62
     7
100
AcDbCircle
 10
138.0474550102809
 20
31.41294803989506
 30
0.0
 40
4.926473226568868
100
AcDbArc
 50
311.7012703856606
 51
337.036497260213
  0
ARC
  5
1F9
330
2
100
AcDbEntity
  8
KIJUN
 62
     7
100
AcDbCircle
 10
141.3913007887267
 20
27.66006534692082
 30
0.0
 40
0.1
100
AcDbArc
 50
131.7012703856524
 51
228.2725156270079
  0
ARC
  5
1FA
330
2
100
AcDbEntity
  8
KIJUN
 62
     7
100
AcDbCircle
 10
142.6755981348142
 20
29.4518962006395
 30
0.0
 40
0.1
100
AcDbArc
 50
22.9635027398381
 51
157.0364972601617
  0
LINE
  5
1FB
330
2
100
AcDbEntity
  8
KIJUN
 62
     7
100
AcDbLine
 10
137.6818410979049
 20
39.36567964290038
 30
0.0
 11
138.2129543149154
 21
39.67652198408354
 31
0.0
  0
ARC
  5
1FC
330
2
100
AcDbEntity
  8
KIJUN
 62
     7
100
AcDbCircle
 10
138.2634657961803
 20
39.59021676836385
 30
0.0
 40
0.1
100
AcDbArc
 50
351.6754432636081
 51
120.3389741786548
  0
ARC
  5
1FD
330
2
100
AcDbEntity
  8
KIJUN
 62
     7
100
AcDbCircle
 10
137.1767262852555
 20
40.22873180009734
 30
0.0
 40
1.0
100
AcDbArc
 50
239.5495170217217
 51
300.3389741786398
  0
LINE
  5
1FE
330
2
100
AcDbEntity
  8
KIJUN
 62
     7
100
AcDbLine
 10
136.6699327618763
 20
39.36666432903683
 30
0.0
 11
136.1437529811702
 21
39.67599569107818
 31
0.0
  0
ARC
  5
1FF
330
2
100
AcDbEntity
  8
KIJUN
 62
     7
100
AcDbCircle
 10
136.0930736288324
 20
39.58978894397223
 30
0.0
 40
0.1
100
AcDbArc
 50
59.54951702172166
 51
188.2880317052496
  0
LINE
  5
200
330
2
100
AcDbEntity
  8
KIJUN
 62
     7
100
AcDbLine
 10
139.8282058585465
 20
37.10963079615061
 30
0.0
 11
139.2601463104329
 21
30.37132669387843
 31
0.0
  0
LINE
  5
201
330
2
100
AcDbEntity
  8
KIJUN
 62
     7
100
AcDbLine
 10
198.4238306937819
 20
37.51570927530446
 30
0.0
 11
199.0981193032948
 21
30.2033165728405
 31
0.0
  0
LINE
  5
202
330
2
100
AcDbEntity
  8
KIJUN
 62
     7
100
AcDbLine
 10
200.522990411082
 20
37.10963079615061
 30
0.0
 11
201.0910499591954
 21
30.37132669387843
 31
0.0
  0
LINE
  5
203
330
2
100
AcDbEntity
  8
KIJUN
 62
     7
100
AcDbLine
 10
203.6812635077522
 20
39.36666432903683
 30
0.0
 11
204.2074432884584
 21
39.67599569107818
 31
0.0
  0
LINE
  5
204
330
2
100
AcDbEntity
  8
KIJUN
 62
     7
100
AcDbLine
 10
202.6693551717235
 20
39.36567964290038
 30
0.0
 11
202.138241954713
 21
39.67652198408354
 31
0.0
  0
LINE
  5
205
330
2
100
AcDbEntity
  8
KIJUN
 62
     7
100
AcDbLine
 10
204.3570782329452
 20
39.57537399401004
 30
0.0
 11
203.2743330913544
 21
32.14255688995802
 31
0.0
  0
LINE
  5
206
330
2
100
AcDbEntity
  8
KIJUN
 62
     7
100
AcDbLine
 10
201.9887840906771
 20
39.57573873892073
 30
0.0
 11
203.0764311164343
 21
32.14249381047733
 31
0.0
  0
ARC
  5
207
330
2
100
AcDbEntity
  8
KIJUN
 62
     7
100
AcDbCircle
 10
193.0474550102808
 20
31.41294803989506
 30
0.0
 40
4.926473226568868
100
AcDbArc
 50
311.7012703856608
 51
337.036497260213
  0
ARC
  5
208
330
2
100
AcDbEntity
  8
KIJUN
 62
     7
100
AcDbCircle
 10
202.3037412593475
 20
31.41294803989506
 30
0.0
 40
4.926473226568868
100
AcDbArc
 50
202.9635027397869
 51
228.2987296143392
  0
LINE
  5
209
330
2
100
AcDbEntity
  8
KIJUN
 62
     7
100
AcDbLine
 10
196.3247419452205
 20
27.58543344790262
 30
0.0
 11
197.6090392920874
 21
26.44006066229162
 31
0.0
  0
LINE
  5
20A
330
2
100
AcDbEntity
  8
KIJUN
 62
     7
100
AcDbLine
 10
197.7421569790999
 20
26.44006066229162
 30
0.0
 11
199.0264543244078
 21
27.58543344790262
 31
0.0
  0
ARC
  5
20B
330
2
100
AcDbEntity
  8
KIJUN
 62
     7
100
AcDbCircle
 10
203.174469984373
 20
40.22873180009734
 30
0.0
 40
1.0
100
AcDbArc
 50
239.66102582136
 51
300.4504829782783
  0
ARC
  5
20C
330
2
100
AcDbEntity
  8
KIJUN
 62
     7
100
AcDbCircle
 10
204.2581226407961
 20
39.58978894397223
 30
0.0
 40
0.1
100
AcDbArc
 50
351.7119682947503
 51
120.4504829782783
  0
ARC
  5
20D
330
2
100
AcDbEntity
  8
KIJUN
 62
     7
100
AcDbCircle
 10
202.0877304734481
 20
39.59021676836385
 30
0.0
 40
0.1
100
AcDbArc
 50
59.66102582134514
 51
188.3245567363916
  0
ARC
  5
20E
330
2
100
AcDbEntity
  8
KIJUN
 62
     7
100
AcDbCircle
 10
197.6755981348142
 20
29.4518962006395
 30
0.0
 40
0.1
100
AcDbArc
 50
22.9635027398381
 51
157.0364972601617
  0
ARC
  5
20F
330
2
100
AcDbEntity
  8
KIJUN
 62
     7
100
AcDbCircle
 10
198.9598954809016
 20
27.66006534692082
 30
0.0
 40
0.1
100
AcDbArc
 50
311.7274843729922
 51
48.29872961434758
  0
ARC
  5
210
330
2
100
AcDbEntity
  8
KIJUN
 62
     7
100
AcDbCircle
 10
196.3913007887267
 20
27.66006534692082
 30
0.0
 40
0.1
100
AcDbArc
 50
131.7012703856524
 51
228.2725156270079
  0
ARC
  5
211
330
2
100
AcDbEntity
  8
KIJUN
 62
     7
100
AcDbCircle
 10
197.6755981355936
 20
26.51469256131002
 30
0.0
 40
0.1
100
AcDbArc
 50
228.2725156270553
 51
311.7274843729447
  0
ARC
  5
212
330
2
100
AcDbEntity
  8
KIJUN
 62
     7
100
AcDbCircle
 10
203.1755981348142
 20
30.37132669387843
 30
0.0
 40
2.08454817561869
100
AcDbArc
 50
180.0000000000686
 51
270.0
  0
ARC
  5
213
330
2
100
AcDbEntity
  8
KIJUN
 62
     7
100
AcDbCircle
 10
203.1755981348142
 20
30.37132669387843
 30
0.0
 40
4.084548175618691
100
AcDbArc
 50
180.0000000000686
 51
270.0
  0
ARC
  5
214
330
2
100
AcDbEntity
  8
KIJUN
 62
     7
100
AcDbCircle
 10
203.1753774992052
 20
32.15697183992001
 30
0.0
 40
0.1
100
AcDbArc
 50
188.3245567363902
 51
351.7119682947499
  0
LINE
  5
215
330
2
100
AcDbEntity
  8
KIJUN
 62
     7
100
AcDbLine
 10
205.8282058585464
 20
37.10963079615061
 30
0.0
 11
205.2601463104329
 21
30.37132669387843
 31
0.0
  0
ARC
  5
216
330
2
100
AcDbEntity
  8
KIJUN
 62
     7
100
AcDbCircle
 10
203.1755981348142
 20
30.37132669387843
 30
0.0
 40
4.084548175618691
100
AcDbArc
 50
270.0
 51
359.9999999999312
  0
ARC
  5
217
330
2
100
AcDbEntity
  8
KIJUN
 62
     7
100
AcDbCircle
 10
203.1755981348142
 20
30.37132669387843
 30
0.0
 40
2.08454817561869
100
AcDbArc
 50
270.0
 51
359.9999999999312
  0
LINE
  5
218
330
2
100
AcDbEntity
  8
KIJUN
 62
     7
100
AcDbLine
 10
207.9273655758465
 20
37.51570927530446
 30
0.0
 11
207.2530769663336
 21
30.2033165728405
 31
0.0
  0
LINE
  5
219
330
2
100
AcDbEntity
  8
KIJUN
 62
     7
100
AcDbLine
 10
196.9273655758464
 20
37.51570927530446
 30
0.0
 11
196.2530769663336
 21
30.2033165728405
 31
0.0
  0
ARC
  5
21A
330
2
100
AcDbEntity
  8
KIJUN
 62
     7
100
AcDbCircle
 10
197.6755981348142
 20
37.51570927530446
 30
0.0
 40
0.7482325589676293
100
AcDbArc
 50
359.9999999996605
 51
179.9999999999216
  0
LINE
  5
21B
330
2
100
AcDbEntity
  8
KIJUN
 62
     7
100
AcDbLine
 10
207.9273655758465
 20
37.51570927530446
 30
0.0
 11
207.2530769663336
 21
30.2033165728405
 31
0.0
  0
LINE
  5
21C
330
2
100
AcDbEntity
  8
KIJUN
 62
     7
100
AcDbLine
 10
208.6090392905285
 20
26.44006066229162
 30
0.0
 11
207.3247419452203
 21
27.58543344790262
 31
0.0
  0
ARC
  5
21D
330
2
100
AcDbEntity
  8
KIJUN
 62
     7
100
AcDbCircle
 10
208.6755981340347
 20
26.51469256131002
 30
0.0
 40
0.1
100
AcDbArc
 50
228.2725156270553
 51
311.7274843729447
  0
ARC
  5
21E
330
2
100
AcDbEntity
  8
KIJUN
 62
     7
100
AcDbCircle
 10
204.0474550102809
 20
31.41294803989506
 30
0.0
 40
4.926473226568868
100
AcDbArc
 50
311.7012703856606
 51
337.036497260213
  0
ARC
  5
21F
330
2
100
AcDbEntity
  8
KIJUN
 62
     7
100
AcDbCircle
 10
207.3913007887267
 20
27.66006534692082
 30
0.0
 40
0.1
100
AcDbArc
 50
131.7012703856524
 51
228.2725156270079
  0
ARC
  5
220
330
2
100
AcDbEntity
  8
KIJUN
 62
     7
100
AcDbCircle
 10
208.6755981348142
 20
29.4518962006395
 30
0.0
 40
0.1
100
AcDbArc
 50
22.9635027398381
 51
157.0364972601617
  0
LINE
  5
221
330
2
100
AcDbEntity
  8
KIJUN
 62
     7
100
AcDbLine
 10
205.8282058585464
 20
37.10963079615061
 30
0.0
 11
205.2601463104329
 21
30.37132669387843
 31
0.0
  0
ARC
  5
222
330
2
100
AcDbEntity
  8
KIJUN
 62
     7
100
AcDbCircle
 10
192.1755981348143
 20
30.37132669387843
 30
0.0
 40
4.084548175618691
100
AcDbArc
 50
270.0
 51
359.9999999999312
  0
ARC
  5
223
330
2
100
AcDbEntity
  8
KIJUN
 62
     7
100
AcDbCircle
 10
197.6755981348142
 20
37.10963079615061
 30
0.0
 40
2.847392276267783
100
AcDbArc
 50
359.9999999999267
 51
179.9999999999427
  0
LINE
  5
224
330
2
100
AcDbEntity
  8
KIJUN
 62
     7
100
AcDbLine
 10
211.522990411082
 20
37.10963079615061
 30
0.0
 11
212.0910499591955
 21
30.37132669387843
 31
0.0
  0
ARC
  5
225
330
2
100
AcDbEntity
  8
KIJUN
 62
     7
100
AcDbCircle
 10
208.6755981348142
 20
29.4518962006395
 30
0.0
 40
0.1
100
AcDbArc
 50
22.9635027398381
 51
157.0364972601617
  0
ARC
  5
226
330
2
100
AcDbEntity
  8
KIJUN
 62
     7
100
AcDbCircle
 10
209.9598954809016
 20
27.66006534692082
 30
0.0
 40
0.1
100
AcDbArc
 50
311.7274843729922
 51
48.29872961434758
  0
ARC
  5
227
330
2
100
AcDbEntity
  8
KIJUN
 62
     7
100
AcDbCircle
 10
213.3037412593475
 20
31.41294803989506
 30
0.0
 40
4.926473226568868
100
AcDbArc
 50
202.9635027397869
 51
228.2987296143392
  0
ARC
  5
228
330
2
100
AcDbEntity
  8
KIJUN
 62
     7
100
AcDbCircle
 10
207.3913007887267
 20
27.66006534692082
 30
0.0
 40
0.1
100
AcDbArc
 50
131.7012703856524
 51
228.2725156270079
  0
ARC
  5
229
330
2
100
AcDbEntity
  8
KIJUN
 62
     7
100
AcDbCircle
 10
204.0474550102809
 20
31.41294803989506
 30
0.0
 40
4.926473226568868
100
AcDbArc
 50
311.7012703856608
 51
337.036497260213
  0
ARC
  5
22A
330
2
100
AcDbEntity
  8
KIJUN
 62
     7
100
AcDbCircle
 10
208.6755981355936
 20
26.51469256131002
 30
0.0
 40
0.1
100
AcDbArc
 50
228.2725156270553
 51
311.7274843729447
  0
LINE
  5
22B
330
2
100
AcDbEntity
  8
KIJUN
 62
     7
100
AcDbLine
 10
207.3247419452203
 20
27.58543344790262
 30
0.0
 11
208.6090392920874
 21
26.44006066229162
 31
0.0
  0
LINE
  5
22C
330
2
100
AcDbEntity
  8
KIJUN
 62
     7
100
AcDbLine
 10
208.7421569790999
 20
26.44006066229162
 30
0.0
 11
210.0264543244079
 21
27.58543344790262
 31
0.0
  0
LINE
  5
22D
330
2
100
AcDbEntity
  8
KIJUN
 62
     7
100
AcDbLine
 10
209.4238306937818
 20
37.51570927530446
 30
0.0
 11
210.0981193032948
 21
30.2033165728405
 31
0.0
  0
LINE
  5
22E
330
2
100
AcDbEntity
  8
KIJUN
 62
     7
100
AcDbLine
 10
207.9273655758465
 20
37.51570927530446
 30
0.0
 11
207.2530769663336
 21
30.2033165728405
 31
0.0
  0
ARC
  5
22F
330
2
100
AcDbEntity
  8
KIJUN
 62
     7
100
AcDbCircle
 10
208.6755981348142
 20
37.51570927530446
 30
0.0
 40
0.7482325589676293
100
AcDbArc
 50
359.9999999996605
 51
179.9999999999216
  0
ARC
  5
230
330
2
100
AcDbEntity
  8
KIJUN
 62
     7
100
AcDbCircle
 10
203.1755981348142
 20
30.37132669387843
 30
0.0
 40
4.084548175618691
100
AcDbArc
 50
320.3634815699337
 51
359.9999999999312
  0
ARC
  5
231
330
2
100
AcDbEntity
  8
KIJUN
 62
     7
100
AcDbCircle
 10
219.6755981348143
 20
37.51570927530446
 30
0.0
 40
0.7482325589676293
100
AcDbArc
 50
0.00000000007835
 51
180.0000000003393
  0
LINE
  5
232
330
2
100
AcDbEntity
  8
KIJUN
 62
     7
100
AcDbLine
 10
220.4238306937819
 20
37.51570927530446
 30
0.0
 11
221.0981193032949
 21
30.2033165728405
 31
0.0
  0
LINE
  5
233
330
2
100
AcDbEntity
  8
KIJUN
 62
     7
100
AcDbLine
 10
219.6755981348143
 20
45.52284225756233
 30
0.0
 11
219.6755981348143
 21
45.83864437347592
 31
0.0
  0
LINE
  5
234
330
2
100
AcDbEntity
  8
KIJUN
 62
     7
100
AcDbLine
 10
209.4238306937818
 20
37.51570927530446
 30
0.0
 11
210.0981193032948
 21
30.2033165728405
 31
0.0
  0
ARC
  5
235
330
2
100
AcDbEntity
  8
KIJUN
 62
     7
100
AcDbCircle
 10
214.1755981348142
 20
30.37132669387843
 30
0.0
 40
2.08454817561869
100
AcDbArc
 50
180.0000000000686
 51
270.0
  0
ARC
  5
236
330
2
100
AcDbEntity
  8
KIJUN
 62
     7
100
AcDbCircle
 10
214.1755981348142
 20
30.37132669387843
 30
0.0
 40
4.084548175618691
100
AcDbArc
 50
180.0000000000686
 51
270.0
  0
LINE
  5
237
330
2
100
AcDbEntity
  8
KIJUN
 62
     7
100
AcDbLine
 10
211.522990411082
 20
37.10963079615061
 30
0.0
 11
212.0910499591955
 21
30.37132669387843
 31
0.0
  0
ARC
  5
238
330
2
100
AcDbEntity
  8
KIJUN
 62
     7
100
AcDbCircle
 10
214.1758187704231
 20
32.15697183992001
 30
0.0
 40
0.1
100
AcDbArc
 50
188.2880317052498
 51
351.6754432636096
  0
ARC
  5
239
330
2
100
AcDbEntity
  8
KIJUN
 62
     7
100
AcDbCircle
 10
214.1755981348142
 20
30.37132669387843
 30
0.0
 40
4.084548175618691
100
AcDbArc
 50
270.0
 51
359.9999999999312
  0
ARC
  5
23A
330
2
100
AcDbEntity
  8
KIJUN
 62
     7
100
AcDbCircle
 10
214.1755981348142
 20
30.37132669387843
 30
0.0
 40
2.08454817561869
100
AcDbArc
 50
270.0
 51
359.9999999999312
  0
ARC
  5
23B
330
2
100
AcDbEntity
  8
KIJUN
 62
     7
100
AcDbCircle
 10
219.6755981340348
 20
26.51469256131002
 30
0.0
 40
0.1
100
AcDbArc
 50
228.2725156270553
 51
311.7274843729447
  0
ARC
  5
23C
330
2
100
AcDbEntity
  8
KIJUN
 62
     7
100
AcDbCircle
 10
220.9598954809016
 20
27.66006534692082
 30
0.0
 40
0.1
100
AcDbArc
 50
311.7274843729922
 51
48.29872961434758
  0
ARC
  5
23D
330
2
100
AcDbEntity
  8
KIJUN
 62
     7
100
AcDbCircle
 10
218.3913007887267
 20
27.66006534692082
 30
0.0
 40
0.1
100
AcDbArc
 50
131.7012703856524
 51
228.2725156270079
  0
ARC
  5
23E
330
2
100
AcDbEntity
  8
KIJUN
 62
     7
100
AcDbCircle
 10
219.6755981348143
 20
29.4518962006395
 30
0.0
 40
0.1
100
AcDbArc
 50
22.9635027398381
 51
157.0364972601617
  0
ARC
  5
23F
330
2
100
AcDbEntity
  8
KIJUN
 62
     7
100
AcDbCircle
 10
215.2634657961804
 20
39.59021676836385
 30
0.0
 40
0.1
100
AcDbArc
 50
351.6754432636081
 51
120.3389741786548
  0
ARC
  5
240
330
2
100
AcDbEntity
  8
KIJUN
 62
     7
100
AcDbCircle
 10
213.0930736288324
 20
39.58978894397223
 30
0.0
 40
0.1
100
AcDbArc
 50
59.54951702172166
 51
188.2880317052496
  0
ARC
  5
241
330
2
100
AcDbEntity
  8
KIJUN
 62
     7
100
AcDbCircle
 10
214.1767262852555
 20
40.22873180009734
 30
0.0
 40
1.0
100
AcDbArc
 50
239.5495170217217
 51
300.3389741786398
  0
LINE
  5
242
330
2
100
AcDbEntity
  8
KIJUN
 62
     7
100
AcDbLine
 10
219.6090392905285
 20
26.44006066229162
 30
0.0
 11
218.3247419452205
 21
27.58543344790262
 31
0.0
  0
LINE
  5
243
330
2
100
AcDbEntity
  8
KIJUN
 62
     7
100
AcDbLine
 10
221.0264543244079
 20
27.58543344790262
 30
0.0
 11
219.7421569775411
 21
26.44006066229162
 31
0.0
  0
ARC
  5
244
330
2
100
AcDbEntity
  8
KIJUN
 62
     7
100
AcDbCircle
 10
215.0474550102808
 20
31.41294803989506
 30
0.0
 40
4.926473226568868
100
AcDbArc
 50
311.7012703856606
 51
337.036497260213
  0
ARC
  5
245
330
2
100
AcDbEntity
  8
KIJUN
 62
     7
100
AcDbCircle
 10
224.3037412593475
 20
31.41294803989506
 30
0.0
 40
4.926473226568868
100
AcDbArc
 50
202.9635027397869
 51
228.2987296143392
  0
LINE
  5
246
330
2
100
AcDbEntity
  8
KIJUN
 62
     7
100
AcDbLine
 10
215.3624121789512
 20
39.57573873892073
 30
0.0
 11
214.2747651531941
 21
32.14249381047733
 31
0.0
  0
LINE
  5
247
330
2
100
AcDbEntity
  8
KIJUN
 62
     7
100
AcDbLine
 10
212.9941180366831
 20
39.57537399401004
 30
0.0
 11
214.0768631782739
 21
32.14255688995802
 31
0.0
  0
LINE
  5
248
330
2
100
AcDbEntity
  8
KIJUN
 62
     7
100
AcDbLine
 10
214.6818410979049
 20
39.36567964290038
 30
0.0
 11
215.2129543149153
 21
39.67652198408354
 31
0.0
  0
LINE
  5
249
330
2
100
AcDbEntity
  8
KIJUN
 62
     7
100
AcDbLine
 10
213.6699327618762
 20
39.36666432903683
 30
0.0
 11
213.1437529811701
 21
39.67599569107818
 31
0.0
  0
LINE
  5
24A
330
2
100
AcDbEntity
  8
KIJUN
 62
     7
100
AcDbLine
 10
216.8282058585464
 20
37.10963079615061
 30
0.0
 11
216.2601463104329
 21
30.37132669387843
 31
0.0
  0
LINE
  5
24B
330
2
100
AcDbEntity
  8
KIJUN
 62
     7
100
AcDbLine
 10
218.9273655758466
 20
37.51570927530446
 30
0.0
 11
218.2530769663335
 21
30.2033165728405
 31
0.0
  0
LINE
  5
24C
330
2
100
AcDbEntity
  8
KIJUN
 62
     7
100
AcDbLine
 10
285.6755981348196
 20
45.52284225756209
 30
0.0
 11
285.6755981348196
 21
45.83864437347567
 31
0.0
  0
LINE
  5
24D
330
2
100
AcDbEntity
  8
KIJUN
 62
     7
100
AcDbLine
 10
307.6755981348215
 20
45.52284225756209
 30
0.0
 11
307.6755981348215
 21
45.83864437347567
 31
0.0
  0
LINE
  5
24E
330
2
100
AcDbEntity
  8
KIJUN
 62
     7
100
AcDbLine
 10
252.675598134817
 20
45.52284225756233
 30
0.0
 11
252.675598134817
 21
45.83864437347567
 31
0.0
  0
LINE
  5
24F
330
2
100
AcDbEntity
  8
KIJUN
 62
     7
100
AcDbLine
 10
274.6755981348188
 20
45.52284225756233
 30
0.0
 11
274.6755981348188
 21
45.83864437347567
 31
0.0
  0
LINE
  5
250
330
2
100
AcDbEntity
  8
KIJUN
 62
     7
100
AcDbLine
 10
241.6755981348161
 20
45.52284225756233
 30
0.0
 11
241.6755981348161
 21
45.83864437347592
 31
0.0
  0
ARC
  5
251
330
2
100
AcDbEntity
  8
KIJUN
 62
     7
100
AcDbCircle
 10
292.258122640796
 20
39.58978894397223
 30
0.0
 40
0.1
100
AcDbArc
 50
351.7119682947503
 51
120.4504829782783
  0
LINE
  5
252
330
2
100
AcDbEntity
  8
KIJUN
 62
     7
100
AcDbLine
 10
289.9887840906773
 20
39.57573873892073
 30
0.0
 11
291.0764311164343
 21
32.14249381047733
 31
0.0
  0
ARC
  5
253
330
2
100
AcDbEntity
  8
KIJUN
 62
     7
100
AcDbCircle
 10
291.1753774992054
 20
32.15697183992001
 30
0.0
 40
0.1
100
AcDbArc
 50
188.3245567363902
 51
351.7119682947499
  0
LINE
  5
254
330
2
100
AcDbEntity
  8
KIJUN
 62
     7
100
AcDbLine
 10
290.6693551717236
 20
39.36567964290038
 30
0.0
 11
290.1382419547129
 21
39.67652198408354
 31
0.0
  0
ARC
  5
255
330
2
100
AcDbEntity
  8
KIJUN
 62
     7
100
AcDbCircle
 10
290.0877304734482
 20
39.59021676836385
 30
0.0
 40
0.1
100
AcDbArc
 50
59.66102582134514
 51
188.3245567363916
  0
ARC
  5
256
330
2
100
AcDbEntity
  8
KIJUN
 62
     7
100
AcDbCircle
 10
291.1744699843731
 20
40.22873180009734
 30
0.0
 40
1.0
100
AcDbArc
 50
239.66102582136
 51
300.4504829782783
  0
LINE
  5
257
330
2
100
AcDbEntity
  8
KIJUN
 62
     7
100
AcDbLine
 10
292.3570782329452
 20
39.57537399401004
 30
0.0
 11
291.2743330913546
 21
32.14255688995802
 31
0.0
  0
LINE
  5
258
330
2
100
AcDbEntity
  8
KIJUN
 62
     7
100
AcDbLine
 10
291.6812635077523
 20
39.36666432903683
 30
0.0
 11
292.2074432884583
 21
39.67599569107818
 31
0.0
  0
LINE
  5
259
330
2
100
AcDbEntity
  8
KIJUN
 62
     7
100
AcDbLine
 10
299.522990411082
 20
37.10963079615061
 30
0.0
 11
300.0910499591956
 21
30.37132669387843
 31
0.0
  0
ARC
  5
25A
330
2
100
AcDbEntity
  8
KIJUN
 62
     7
100
AcDbCircle
 10
296.6755981348143
 20
29.4518962006395
 30
0.0
 40
0.1
100
AcDbArc
 50
22.9635027398381
 51
157.0364972601617
  0
ARC
  5
25B
330
2
100
AcDbEntity
  8
KIJUN
 62
     7
100
AcDbCircle
 10
297.9598954809016
 20
27.66006534692082
 30
0.0
 40
0.1
100
AcDbArc
 50
311.7274843729922
 51
48.29872961434758
  0
ARC
  5
25C
330
2
100
AcDbEntity
  8
KIJUN
 62
     7
100
AcDbCircle
 10
301.3037412593476
 20
31.41294803989506
 30
0.0
 40
4.926473226568868
100
AcDbArc
 50
202.9635027397869
 51
228.2987296143392
  0
ARC
  5
25D
330
2
100
AcDbEntity
  8
KIJUN
 62
     7
100
AcDbCircle
 10
295.3913007887267
 20
27.66006534692082
 30
0.0
 40
0.1
100
AcDbArc
 50
131.7012703856524
 51
228.2725156270079
  0
ARC
  5
25E
330
2
100
AcDbEntity
  8
KIJUN
 62
     7
100
AcDbCircle
 10
292.0474550102809
 20
31.41294803989506
 30
0.0
 40
4.926473226568868
100
AcDbArc
 50
311.7012703856608
 51
337.036497260213
  0
ARC
  5
25F
330
2
100
AcDbEntity
  8
KIJUN
 62
     7
100
AcDbCircle
 10
296.6755981355936
 20
26.51469256131002
 30
0.0
 40
0.1
100
AcDbArc
 50
228.2725156270553
 51
311.7274843729447
  0
LINE
  5
260
330
2
100
AcDbEntity
  8
KIJUN
 62
     7
100
AcDbLine
 10
295.3247419452203
 20
27.58543344790262
 30
0.0
 11
296.6090392920873
 21
26.44006066229162
 31
0.0
  0
LINE
  5
261
330
2
100
AcDbEntity
  8
KIJUN
 62
     7
100
AcDbLine
 10
296.7421569791
 20
26.44006066229162
 30
0.0
 11
298.0264543244079
 21
27.58543344790262
 31
0.0
  0
LINE
  5
262
330
2
100
AcDbEntity
  8
KIJUN
 62
     7
100
AcDbLine
 10
297.4238306937819
 20
37.51570927530446
 30
0.0
 11
298.0981193032949
 21
30.2033165728405
 31
0.0
  0
ARC
  5
263
330
2
100
AcDbEntity
  8
KIJUN
 62
     7
100
AcDbCircle
 10
291.1755981348142
 20
30.37132669387843
 30
0.0
 40
2.08454817561869
100
AcDbArc
 50
270.0
 51
359.9999999999312
  0
LINE
  5
264
330
2
100
AcDbEntity
  8
KIJUN
 62
     7
100
AcDbLine
 10
295.9273655758467
 20
37.51570927530446
 30
0.0
 11
295.2530769663336
 21
30.2033165728405
 31
0.0
  0
LINE
  5
265
330
2
100
AcDbEntity
  8
KIJUN
 62
     7
100
AcDbLine
 10
293.8282058585465
 20
37.10963079615061
 30
0.0
 11
293.2601463104329
 21
30.37132669387843
 31
0.0
  0
ARC
  5
266
330
2
100
AcDbEntity
  8
KIJUN
 62
     7
100
AcDbCircle
 10
296.6755981348143
 20
37.10963079615061
 30
0.0
 40
2.847392276267783
100
AcDbArc
 50
359.9999999999267
 51
179.9999999999427
  0
ARC
  5
267
330
2
100
AcDbEntity
  8
KIJUN
 62
     7
100
AcDbCircle
 10
296.6755981348143
 20
37.51570927530446
 30
0.0
 40
0.7482325589676293
100
AcDbArc
 50
359.9999999996605
 51
179.9999999999216
  0
LINE
  5
268
330
2
100
AcDbEntity
  8
KIJUN
 62
     7
100
AcDbLine
 10
297.4238306937819
 20
37.51570927530446
 30
0.0
 11
298.0981193032949
 21
30.2033165728405
 31
0.0
  0
LINE
  5
269
330
2
100
AcDbEntity
  8
KIJUN
 62
     7
100
AcDbLine
 10
299.522990411082
 20
37.10963079615061
 30
0.0
 11
300.0910499591956
 21
30.37132669387843
 31
0.0
  0
ARC
  5
26A
330
2
100
AcDbEntity
  8
KIJUN
 62
     7
100
AcDbCircle
 10
301.0930736288324
 20
39.58978894397223
 30
0.0
 40
0.1
100
AcDbArc
 50
59.54951702172166
 51
188.2880317052496
  0
ARC
  5
26B
330
2
100
AcDbEntity
  8
KIJUN
 62
     7
100
AcDbCircle
 10
291.1755981348142
 20
30.37132669387843
 30
0.0
 40
4.084548175618691
100
AcDbArc
 50
270.0
 51
359.9999999999312
  0
ARC
  5
26C
330
2
100
AcDbEntity
  8
KIJUN
 62
     7
100
AcDbCircle
 10
312.0930736288323
 20
39.58978894397223
 30
0.0
 40
0.1
100
AcDbArc
 50
59.54951702172166
 51
188.2880317052496
  0
LINE
  5
26D
330
2
100
AcDbEntity
  8
KIJUN
 62
     7
100
AcDbLine
 10
312.6699327618763
 20
39.36666432903683
 30
0.0
 11
312.1437529811702
 21
39.67599569107818
 31
0.0
  0
ARC
  5
26E
330
2
100
AcDbEntity
  8
KIJUN
 62
     7
100
AcDbCircle
 10
307.6755981348143
 20
37.51570927530446
 30
0.0
 40
0.7482325589676293
100
AcDbArc
 50
0.0000000000783504
 51
180.0000000003393
  0
ARC
  5
26F
330
2
100
AcDbEntity
  8
KIJUN
 62
     7
100
AcDbCircle
 10
307.6755981348143
 20
37.10963079615061
 30
0.0
 40
2.847392276267783
100
AcDbArc
 50
0.0000000000572061
 51
180.0000000000732
  0
LINE
  5
270
330
2
100
AcDbEntity
  8
KIJUN
 62
     7
100
AcDbLine
 10
310.522990411082
 20
37.10963079615061
 30
0.0
 11
311.0910499591956
 21
30.37132669387843
 31
0.0
  0
LINE
  5
271
330
2
100
AcDbEntity
  8
KIJUN
 62
     7
100
AcDbLine
 10
308.4238306937819
 20
37.51570927530446
 30
0.0
 11
309.0981193032948
 21
30.2033165728405
 31
0.0
  0
ARC
  5
272
330
2
100
AcDbEntity
  8
KIJUN
 62
     7
100
AcDbCircle
 10
302.1755981348143
 20
30.37132669387843
 30
0.0
 40
2.08454817561869
100
AcDbArc
 50
270.0
 51
359.9999999999312
  0
LINE
  5
273
330
2
100
AcDbEntity
  8
KIJUN
 62
     7
100
AcDbLine
 10
303.3624121789513
 20
39.57573873892073
 30
0.0
 11
302.2747651531941
 21
32.14249381047733
 31
0.0
  0
ARC
  5
274
330
2
100
AcDbEntity
  8
KIJUN
 62
     7
100
AcDbCircle
 10
302.1758187704232
 20
32.15697183992001
 30
0.0
 40
0.1
100
AcDbArc
 50
188.2880317052498
 51
351.6754432636096
  0
LINE
  5
275
330
2
100
AcDbEntity
  8
KIJUN
 62
     7
100
AcDbLine
 10
306.9273655758465
 20
37.51570927530446
 30
0.0
 11
306.2530769663336
 21
30.2033165728405
 31
0.0
  0
LINE
  5
276
330
2
100
AcDbEntity
  8
KIJUN
 62
     7
100
AcDbLine
 10
307.6090392905284
 20
26.44006066229162
 30
0.0
 11
306.3247419452204
 21
27.58543344790262
 31
0.0
  0
LINE
  5
277
330
2
100
AcDbEntity
  8
KIJUN
 62
     7
100
AcDbLine
 10
309.026454324408
 20
27.58543344790262
 30
0.0
 11
307.742156977541
 21
26.44006066229162
 31
0.0
  0
ARC
  5
278
330
2
100
AcDbEntity
  8
KIJUN
 62
     7
100
AcDbCircle
 10
307.6755981340348
 20
26.51469256131002
 30
0.0
 40
0.1
100
AcDbArc
 50
228.2725156270553
 51
311.7274843729447
  0
ARC
  5
279
330
2
100
AcDbEntity
  8
KIJUN
 62
     7
100
AcDbCircle
 10
312.3037412593477
 20
31.41294803989506
 30
0.0
 40
4.926473226568868
100
AcDbArc
 50
202.9635027397869
 51
228.2987296143392
  0
ARC
  5
27A
330
2
100
AcDbEntity
  8
KIJUN
 62
     7
100
AcDbCircle
 10
308.9598954809016
 20
27.66006534692082
 30
0.0
 40
0.1
100
AcDbArc
 50
311.7274843729922
 51
48.29872961434758
  0
ARC
  5
27B
330
2
100
AcDbEntity
  8
KIJUN
 62
     7
100
AcDbCircle
 10
303.0474550102809
 20
31.41294803989506
 30
0.0
 40
4.926473226568868
100
AcDbArc
 50
311.7012703856606
 51
337.036497260213
  0
ARC
  5
27C
330
2
100
AcDbEntity
  8
KIJUN
 62
     7
100
AcDbCircle
 10
306.3913007887267
 20
27.66006534692082
 30
0.0
 40
0.1
100
AcDbArc
 50
131.7012703856524
 51
228.2725156270079
  0
ARC
  5
27D
330
2
100
AcDbEntity
  8
KIJUN
 62
     7
100
AcDbCircle
 10
307.6755981348143
 20
29.4518962006395
 30
0.0
 40
0.1
100
AcDbArc
 50
22.9635027398381
 51
157.0364972601617
  0
LINE
  5
27E
330
2
100
AcDbEntity
  8
KIJUN
 62
     7
100
AcDbLine
 10
302.681841097905
 20
39.36567964290038
 30
0.0
 11
303.2129543149154
 21
39.67652198408354
 31
0.0
  0
ARC
  5
27F
330
2
100
AcDbEntity
  8
KIJUN
 62
     7
100
AcDbCircle
 10
303.2634657961803
 20
39.59021676836385
 30
0.0
 40
0.1
100
AcDbArc
 50
351.6754432636081
 51
120.3389741786548
  0
ARC
  5
280
330
2
100
AcDbEntity
  8
KIJUN
 62
     7
100
AcDbCircle
 10
302.1767262852555
 20
40.22873180009734
 30
0.0
 40
1.0
100
AcDbArc
 50
239.5495170217217
 51
300.3389741786398
  0
LINE
  5
281
330
2
100
AcDbEntity
  8
KIJUN
 62
     7
100
AcDbLine
 10
304.8282058585465
 20
37.10963079615061
 30
0.0
 11
304.2601463104329
 21
30.37132669387843
 31
0.0
  0
ARC
  5
282
330
2
100
AcDbEntity
  8
KIJUN
 62
     7
100
AcDbCircle
 10
302.1755981348143
 20
30.37132669387843
 30
0.0
 40
4.084548175618691
100
AcDbArc
 50
270.0
 51
359.9999999999312
  0
ARC
  5
283
330
2
100
AcDbEntity
  8
KIJUN
 62
     7
100
AcDbCircle
 10
302.1755981348143
 20
30.37132669387843
 30
0.0
 40
4.084548175618691
100
AcDbArc
 50
180.0000000000686
 51
270.0
  0
ARC
  5
284
330
2
100
AcDbEntity
  8
KIJUN
 62
     7
100
AcDbCircle
 10
302.1755981348143
 20
30.37132669387843
 30
0.0
 40
2.08454817561869
100
AcDbArc
 50
180.0000000000686
 51
270.0
  0
LINE
  5
285
330
2
100
AcDbEntity
  8
KIJUN
 62
     7
100
AcDbLine
 10
300.9941180366831
 20
39.57537399401004
 30
0.0
 11
302.076863178274
 21
32.14255688995802
 31
0.0
  0
LINE
  5
286
330
2
100
AcDbEntity
  8
KIJUN
 62
     7
100
AcDbLine
 10
301.6699327618763
 20
39.36666432903683
 30
0.0
 11
301.1437529811701
 21
39.67599569107818
 31
0.0
  0
LINE
  5
287
330
2
100
AcDbEntity
  8
KIJUN
 62
     7
100
AcDbLine
 10
277.5229904110821
 20
37.10963079615061
 30
0.0
 11
278.0910499591956
 21
30.37132669387843
 31
0.0
  0
ARC
  5
288
330
2
100
AcDbEntity
  8
KIJUN
 62
     7
100
AcDbCircle
 10
281.2581226407961
 20
39.58978894397223
 30
0.0
 40
0.1
100
AcDbArc
 50
351.7119682947503
 51
120.4504829782783
  0
LINE
  5
289
330
2
100
AcDbEntity
  8
KIJUN
 62
     7
100
AcDbLine
 10
280.6812635077521
 20
39.36666432903683
 30
0.0
 11
281.2074432884584
 21
39.67599569107818
 31
0.0
  0
ARC
  5
28A
330
2
100
AcDbEntity
  8
KIJUN
 62
     7
100
AcDbCircle
 10
280.1744699843731
 20
40.22873180009734
 30
0.0
 40
1.0
100
AcDbArc
 50
239.66102582136
 51
300.4504829782783
  0
ARC
  5
28B
330
2
100
AcDbEntity
  8
KIJUN
 62
     7
100
AcDbCircle
 10
279.0877304734483
 20
39.59021676836385
 30
0.0
 40
0.1
100
AcDbArc
 50
59.66102582134514
 51
188.3245567363916
  0
LINE
  5
28C
330
2
100
AcDbEntity
  8
KIJUN
 62
     7
100
AcDbLine
 10
279.6693551717236
 20
39.36567964290038
 30
0.0
 11
279.1382419547129
 21
39.67652198408354
 31
0.0
  0
ARC
  5
28D
330
2
100
AcDbEntity
  8
KIJUN
 62
     7
100
AcDbCircle
 10
274.6755981348142
 20
29.4518962006395
 30
0.0
 40
0.1
100
AcDbArc
 50
22.9635027398381
 51
157.0364972601617
  0
ARC
  5
28E
330
2
100
AcDbEntity
  8
KIJUN
 62
     7
100
AcDbCircle
 10
275.9598954809016
 20
27.66006534692082
 30
0.0
 40
0.1
100
AcDbArc
 50
311.7274843729922
 51
48.29872961434758
  0
ARC
  5
28F
330
2
100
AcDbEntity
  8
KIJUN
 62
     7
100
AcDbCircle
 10
279.3037412593477
 20
31.41294803989506
 30
0.0
 40
4.926473226568868
100
AcDbArc
 50
202.9635027397869
 51
228.2987296143392
  0
ARC
  5
290
330
2
100
AcDbEntity
  8
KIJUN
 62
     7
100
AcDbCircle
 10
273.3913007887267
 20
27.66006534692082
 30
0.0
 40
0.1
100
AcDbArc
 50
131.7012703856524
 51
228.2725156270079
  0
ARC
  5
291
330
2
100
AcDbEntity
  8
KIJUN
 62
     7
100
AcDbCircle
 10
270.0474550102808
 20
31.41294803989506
 30
0.0
 40
4.926473226568868
100
AcDbArc
 50
311.7012703856608
 51
337.036497260213
  0
ARC
  5
292
330
2
100
AcDbEntity
  8
KIJUN
 62
     7
100
AcDbCircle
 10
274.6755981355937
 20
26.51469256131002
 30
0.0
 40
0.1
100
AcDbArc
 50
228.2725156270553
 51
311.7274843729447
  0
LINE
  5
293
330
2
100
AcDbEntity
  8
KIJUN
 62
     7
100
AcDbLine
 10
273.3247419452204
 20
27.58543344790262
 30
0.0
 11
274.6090392920874
 21
26.44006066229162
 31
0.0
  0
LINE
  5
294
330
2
100
AcDbEntity
  8
KIJUN
 62
     7
100
AcDbLine
 10
274.7421569791
 20
26.44006066229162
 30
0.0
 11
276.026454324408
 21
27.58543344790262
 31
0.0
  0
LINE
  5
295
330
2
100
AcDbEntity
  8
KIJUN
 62
     7
100
AcDbLine
 10
275.4238306937819
 20
37.51570927530446
 30
0.0
 11
276.0981193032947
 21
30.2033165728405
 31
0.0
  0
ARC
  5
296
330
2
100
AcDbEntity
  8
KIJUN
 62
     7
100
AcDbCircle
 10
280.1753774992054
 20
32.15697183992001
 30
0.0
 40
0.1
100
AcDbArc
 50
188.3245567363902
 51
351.7119682947499
  0
LINE
  5
297
330
2
100
AcDbEntity
  8
KIJUN
 62
     7
100
AcDbLine
 10
281.3570782329453
 20
39.57537399401004
 30
0.0
 11
280.2743330913544
 21
32.14255688995802
 31
0.0
  0
LINE
  5
298
330
2
100
AcDbEntity
  8
KIJUN
 62
     7
100
AcDbLine
 10
278.9887840906773
 20
39.57573873892073
 30
0.0
 11
280.0764311164343
 21
32.14249381047733
 31
0.0
  0
ARC
  5
299
330
2
100
AcDbEntity
  8
KIJUN
 62
     7
100
AcDbCircle
 10
280.1755981348143
 20
30.37132669387843
 30
0.0
 40
2.08454817561869
100
AcDbArc
 50
180.0000000000686
 51
270.0
  0
LINE
  5
29A
330
2
100
AcDbEntity
  8
KIJUN
 62
     7
100
AcDbLine
 10
282.8282058585465
 20
37.10963079615061
 30
0.0
 11
282.260146310433
 21
30.37132669387843
 31
0.0
  0
ARC
  5
29B
330
2
100
AcDbEntity
  8
KIJUN
 62
     7
100
AcDbCircle
 10
280.1755981348143
 20
30.37132669387843
 30
0.0
 40
2.08454817561869
100
AcDbArc
 50
270.0
 51
359.9999999999312
  0
LINE
  5
29C
330
2
100
AcDbEntity
  8
KIJUN
 62
     7
100
AcDbLine
 10
284.9273655758464
 20
37.51570927530446
 30
0.0
 11
284.2530769663336
 21
30.2033165728405
 31
0.0
  0
ARC
  5
29D
330
2
100
AcDbEntity
  8
KIJUN
 62
     7
100
AcDbCircle
 10
269.1755981348143
 20
30.37132669387843
 30
0.0
 40
2.08454817561869
100
AcDbArc
 50
270.0
 51
359.9999999999312
  0
LINE
  5
29E
330
2
100
AcDbEntity
  8
KIJUN
 62
     7
100
AcDbLine
 10
273.9273655758466
 20
37.51570927530446
 30
0.0
 11
273.2530769663337
 21
30.2033165728405
 31
0.0
  0
LINE
  5
29F
330
2
100
AcDbEntity
  8
KIJUN
 62
     7
100
AcDbLine
 10
271.8282058585465
 20
37.10963079615061
 30
0.0
 11
271.260146310433
 21
30.37132669387843
 31
0.0
  0
ARC
  5
2A0
330
2
100
AcDbEntity
  8
KIJUN
 62
     7
100
AcDbCircle
 10
274.6755981348142
 20
37.10963079615061
 30
0.0
 40
2.847392276267783
100
AcDbArc
 50
359.9999999999267
 51
179.9999999999427
  0
ARC
  5
2A1
330
2
100
AcDbEntity
  8
KIJUN
 62
     7
100
AcDbCircle
 10
274.6755981348142
 20
37.51570927530446
 30
0.0
 40
0.7482325589676293
100
AcDbArc
 50
359.9999999996605
 51
179.9999999999216
  0
ARC
  5
2A2
330
2
100
AcDbEntity
  8
KIJUN
 62
     7
100
AcDbCircle
 10
285.6755981348143
 20
37.51570927530446
 30
0.0
 40
0.7482325589676293
100
AcDbArc
 50
0.0000000000783504
 51
180.0000000003393
  0
ARC
  5
2A3
330
2
100
AcDbEntity
  8
KIJUN
 62
     7
100
AcDbCircle
 10
285.6755981348143
 20
37.10963079615061
 30
0.0
 40
2.847392276267783
100
AcDbArc
 50
0.0000000000572061
 51
180.0000000000732
  0
LINE
  5
2A4
330
2
100
AcDbEntity
  8
KIJUN
 62
     7
100
AcDbLine
 10
288.5229904110821
 20
37.10963079615061
 30
0.0
 11
289.0910499591956
 21
30.37132669387843
 31
0.0
  0
LINE
  5
2A5
330
2
100
AcDbEntity
  8
KIJUN
 62
     7
100
AcDbLine
 10
286.4238306937819
 20
37.51570927530446
 30
0.0
 11
287.098119303295
 21
30.2033165728405
 31
0.0
  0
ARC
  5
2A6
330
2
100
AcDbEntity
  8
KIJUN
 62
     7
100
AcDbCircle
 10
291.1755981348142
 20
30.37132669387843
 30
0.0
 40
2.08454817561869
100
AcDbArc
 50
180.0000000000686
 51
270.0
  0
LINE
  5
2A7
330
2
100
AcDbEntity
  8
KIJUN
 62
     7
100
AcDbLine
 10
284.9273655758464
 20
37.51570927530446
 30
0.0
 11
284.2530769663336
 21
30.2033165728405
 31
0.0
  0
LINE
  5
2A8
330
2
100
AcDbEntity
  8
KIJUN
 62
     7
100
AcDbLine
 10
285.6090392905283
 20
26.44006066229162
 30
0.0
 11
284.3247419452204
 21
27.58543344790262
 31
0.0
  0
LINE
  5
2A9
330
2
100
AcDbEntity
  8
KIJUN
 62
     7
100
AcDbLine
 10
287.026454324408
 20
27.58543344790262
 30
0.0
 11
285.7421569775409
 21
26.44006066229162
 31
0.0
  0
ARC
  5
2AA
330
2
100
AcDbEntity
  8
KIJUN
 62
     7
100
AcDbCircle
 10
285.6755981340348
 20
26.51469256131002
 30
0.0
 40
0.1
100
AcDbArc
 50
228.2725156270553
 51
311.7274843729447
  0
ARC
  5
2AB
330
2
100
AcDbEntity
  8
KIJUN
 62
     7
100
AcDbCircle
 10
290.3037412593476
 20
31.41294803989506
 30
0.0
 40
4.926473226568868
100
AcDbArc
 50
202.9635027397869
 51
228.2987296143392
  0
ARC
  5
2AC
330
2
100
AcDbEntity
  8
KIJUN
 62
     7
100
AcDbCircle
 10
286.9598954809016
 20
27.66006534692082
 30
0.0
 40
0.1
100
AcDbArc
 50
311.7274843729922
 51
48.29872961434758
  0
ARC
  5
2AD
330
2
100
AcDbEntity
  8
KIJUN
 62
     7
100
AcDbCircle
 10
281.0474550102809
 20
31.41294803989506
 30
0.0
 40
4.926473226568868
100
AcDbArc
 50
311.7012703856606
 51
337.036497260213
  0
ARC
  5
2AE
330
2
100
AcDbEntity
  8
KIJUN
 62
     7
100
AcDbCircle
 10
284.3913007887267
 20
27.66006534692082
 30
0.0
 40
0.1
100
AcDbArc
 50
131.7012703856524
 51
228.2725156270079
  0
ARC
  5
2AF
330
2
100
AcDbEntity
  8
KIJUN
 62
     7
100
AcDbCircle
 10
285.6755981348143
 20
29.4518962006395
 30
0.0
 40
0.1
100
AcDbArc
 50
22.9635027398381
 51
157.0364972601617
  0
LINE
  5
2B0
330
2
100
AcDbEntity
  8
KIJUN
 62
     7
100
AcDbLine
 10
282.8282058585465
 20
37.10963079615061
 30
0.0
 11
282.260146310433
 21
30.37132669387843
 31
0.0
  0
LINE
  5
2B1
330
2
100
AcDbEntity
  8
KIJUN
 62
     7
100
AcDbLine
 10
255.5229904110821
 20
37.10963079615061
 30
0.0
 11
256.0910499591956
 21
30.37132669387843
 31
0.0
  0
ARC
  5
2B2
330
2
100
AcDbEntity
  8
KIJUN
 62
     7
100
AcDbCircle
 10
252.6755981348143
 20
29.4518962006395
 30
0.0
 40
0.1
100
AcDbArc
 50
22.9635027398381
 51
157.0364972601617
  0
ARC
  5
2B3
330
2
100
AcDbEntity
  8
KIJUN
 62
     7
100
AcDbCircle
 10
253.9598954809016
 20
27.66006534692082
 30
0.0
 40
0.1
100
AcDbArc
 50
311.7274843729922
 51
48.29872961434758
  0
ARC
  5
2B4
330
2
100
AcDbEntity
  8
KIJUN
 62
     7
100
AcDbCircle
 10
257.3037412593476
 20
31.41294803989506
 30
0.0
 40
4.926473226568868
100
AcDbArc
 50
202.9635027397869
 51
228.2987296143392
  0
ARC
  5
2B5
330
2
100
AcDbEntity
  8
KIJUN
 62
     7
100
AcDbCircle
 10
251.3913007887267
 20
27.66006534692082
 30
0.0
 40
0.1
100
AcDbArc
 50
131.7012703856524
 51
228.2725156270079
  0
ARC
  5
2B6
330
2
100
AcDbEntity
  8
KIJUN
 62
     7
100
AcDbCircle
 10
248.0474550102809
 20
31.41294803989506
 30
0.0
 40
4.926473226568868
100
AcDbArc
 50
311.7012703856608
 51
337.036497260213
  0
ARC
  5
2B7
330
2
100
AcDbEntity
  8
KIJUN
 62
     7
100
AcDbCircle
 10
252.6755981355937
 20
26.51469256131002
 30
0.0
 40
0.1
100
AcDbArc
 50
228.2725156270553
 51
311.7274843729447
  0
LINE
  5
2B8
330
2
100
AcDbEntity
  8
KIJUN
 62
     7
100
AcDbLine
 10
251.3247419452205
 20
27.58543344790262
 30
0.0
 11
252.6090392920874
 21
26.44006066229162
 31
0.0
  0
LINE
  5
2B9
330
2
100
AcDbEntity
  8
KIJUN
 62
     7
100
AcDbLine
 10
252.7421569791
 20
26.44006066229162
 30
0.0
 11
254.026454324408
 21
27.58543344790262
 31
0.0
  0
LINE
  5
2BA
330
2
100
AcDbEntity
  8
KIJUN
 62
     7
100
AcDbLine
 10
253.4238306937819
 20
37.51570927530446
 30
0.0
 11
254.0981193032949
 21
30.2033165728405
 31
0.0
  0
ARC
  5
2BB
330
2
100
AcDbEntity
  8
KIJUN
 62
     7
100
AcDbCircle
 10
247.1755981348143
 20
30.37132669387843
 30
0.0
 40
2.08454817561869
100
AcDbArc
 50
270.0
 51
359.9999999999312
  0
LINE
  5
2BC
330
2
100
AcDbEntity
  8
KIJUN
 62
     7
100
AcDbLine
 10
251.9273655758466
 20
37.51570927530446
 30
0.0
 11
251.2530769663336
 21
30.2033165728405
 31
0.0
  0
LINE
  5
2BD
330
2
100
AcDbEntity
  8
KIJUN
 62
     7
100
AcDbLine
 10
249.8282058585465
 20
37.10963079615061
 30
0.0
 11
249.2601463104329
 21
30.37132669387843
 31
0.0
  0
ARC
  5
2BE
330
2
100
AcDbEntity
  8
KIJUN
 62
     7
100
AcDbCircle
 10
252.6755981348143
 20
37.10963079615061
 30
0.0
 40
2.847392276267783
100
AcDbArc
 50
359.9999999999267
 51
179.9999999999427
  0
ARC
  5
2BF
330
2
100
AcDbEntity
  8
KIJUN
 62
     7
100
AcDbCircle
 10
252.6755981348143
 20
37.51570927530446
 30
0.0
 40
0.7482325589676293
100
AcDbArc
 50
359.9999999996605
 51
179.9999999999216
  0
ARC
  5
2C0
330
2
100
AcDbEntity
  8
KIJUN
 62
     7
100
AcDbCircle
 10
263.6755981348143
 20
37.51570927530446
 30
0.0
 40
0.7482325589676293
100
AcDbArc
 50
0.0000000000783504
 51
180.0000000003393
  0
ARC
  5
2C1
330
2
100
AcDbEntity
  8
KIJUN
 62
     7
100
AcDbCircle
 10
263.6755981348143
 20
37.10963079615061
 30
0.0
 40
2.847392276267783
100
AcDbArc
 50
0.0000000000572061
 51
180.0000000000732
  0
LINE
  5
2C2
330
2
100
AcDbEntity
  8
KIJUN
 62
     7
100
AcDbLine
 10
266.522990411082
 20
37.10963079615061
 30
0.0
 11
267.0910499591955
 21
30.37132669387843
 31
0.0
  0
LINE
  5
2C3
330
2
100
AcDbEntity
  8
KIJUN
 62
     7
100
AcDbLine
 10
264.4238306937819
 20
37.51570927530446
 30
0.0
 11
265.0981193032948
 21
30.2033165728405
 31
0.0
  0
ARC
  5
2C4
330
2
100
AcDbEntity
  8
KIJUN
 62
     7
100
AcDbCircle
 10
269.1755981348143
 20
30.37132669387843
 30
0.0
 40
2.08454817561869
100
AcDbArc
 50
180.0000000000686
 51
270.0
  0
LINE
  5
2C5
330
2
100
AcDbEntity
  8
KIJUN
 62
     7
100
AcDbLine
 10
253.4238306937819
 20
37.51570927530446
 30
0.0
 11
254.0981193032949
 21
30.2033165728405
 31
0.0
  0
ARC
  5
2C6
330
2
100
AcDbEntity
  8
KIJUN
 62
     7
100
AcDbCircle
 10
258.1755981348143
 20
30.37132669387843
 30
0.0
 40
2.08454817561869
100
AcDbArc
 50
180.0000000000686
 51
270.0
  0
LINE
  5
2C7
330
2
100
AcDbEntity
  8
KIJUN
 62
     7
100
AcDbLine
 10
255.5229904110821
 20
37.10963079615061
 30
0.0
 11
256.0910499591956
 21
30.37132669387843
 31
0.0
  0
ARC
  5
2C8
330
2
100
AcDbEntity
  8
KIJUN
 62
     7
100
AcDbCircle
 10
258.1755981348143
 20
30.37132669387843
 30
0.0
 40
2.08454817561869
100
AcDbArc
 50
270.0
 51
359.9999999999312
  0
LINE
  5
2C9
330
2
100
AcDbEntity
  8
KIJUN
 62
     7
100
AcDbLine
 10
259.3624121789513
 20
39.57573873892073
 30
0.0
 11
258.2747651531942
 21
32.14249381047733
 31
0.0
  0
LINE
  5
2CA
330
2
100
AcDbEntity
  8
KIJUN
 62
     7
100
AcDbLine
 10
256.9941180366832
 20
39.57537399401004
 30
0.0
 11
258.0768631782739
 21
32.14255688995802
 31
0.0
  0
ARC
  5
2CB
330
2
100
AcDbEntity
  8
KIJUN
 62
     7
100
AcDbCircle
 10
258.1758187704231
 20
32.15697183992001
 30
0.0
 40
0.1
100
AcDbArc
 50
188.2880317052498
 51
351.6754432636096
  0
LINE
  5
2CC
330
2
100
AcDbEntity
  8
KIJUN
 62
     7
100
AcDbLine
 10
262.9273655758466
 20
37.51570927530446
 30
0.0
 11
262.2530769663336
 21
30.2033165728405
 31
0.0
  0
LINE
  5
2CD
330
2
100
AcDbEntity
  8
KIJUN
 62
     7
100
AcDbLine
 10
263.6090392905285
 20
26.44006066229162
 30
0.0
 11
262.3247419452205
 21
27.58543344790262
 31
0.0
  0
LINE
  5
2CE
330
2
100
AcDbEntity
  8
KIJUN
 62
     7
100
AcDbLine
 10
265.0264543244079
 20
27.58543344790262
 30
0.0
 11
263.7421569775411
 21
26.44006066229162
 31
0.0
  0
ARC
  5
2CF
330
2
100
AcDbEntity
  8
KIJUN
 62
     7
100
AcDbCircle
 10
263.6755981340348
 20
26.51469256131002
 30
0.0
 40
0.1
100
AcDbArc
 50
228.2725156270553
 51
311.7274843729447
  0
ARC
  5
2D0
330
2
100
AcDbEntity
  8
KIJUN
 62
     7
100
AcDbCircle
 10
268.3037412593476
 20
31.41294803989506
 30
0.0
 40
4.926473226568868
100
AcDbArc
 50
202.9635027397869
 51
228.2987296143392
  0
ARC
  5
2D1
330
2
100
AcDbEntity
  8
KIJUN
 62
     7
100
AcDbCircle
 10
264.9598954809016
 20
27.66006534692082
 30
0.0
 40
0.1
100
AcDbArc
 50
311.7274843729922
 51
48.29872961434758
  0
ARC
  5
2D2
330
2
100
AcDbEntity
  8
KIJUN
 62
     7
100
AcDbCircle
 10
259.0474550102808
 20
31.41294803989506
 30
0.0
 40
4.926473226568868
100
AcDbArc
 50
311.7012703856606
 51
337.036497260213
  0
ARC
  5
2D3
330
2
100
AcDbEntity
  8
KIJUN
 62
     7
100
AcDbCircle
 10
262.3913007887267
 20
27.66006534692082
 30
0.0
 40
0.1
100
AcDbArc
 50
131.7012703856524
 51
228.2725156270079
  0
ARC
  5
2D4
330
2
100
AcDbEntity
  8
KIJUN
 62
     7
100
AcDbCircle
 10
263.6755981348143
 20
29.4518962006395
 30
0.0
 40
0.1
100
AcDbArc
 50
22.9635027398381
 51
157.0364972601617
  0
LINE
  5
2D5
330
2
100
AcDbEntity
  8
KIJUN
 62
     7
100
AcDbLine
 10
258.6818410979049
 20
39.36567964290038
 30
0.0
 11
259.2129543149154
 21
39.67652198408354
 31
0.0
  0
ARC
  5
2D6
330
2
100
AcDbEntity
  8
KIJUN
 62
     7
100
AcDbCircle
 10
259.2634657961803
 20
39.59021676836385
 30
0.0
 40
0.1
100
AcDbArc
 50
351.6754432636081
 51
120.3389741786548
  0
ARC
  5
2D7
330
2
100
AcDbEntity
  8
KIJUN
 62
     7
100
AcDbCircle
 10
258.1767262852554
 20
40.22873180009734
 30
0.0
 40
1.0
100
AcDbArc
 50
239.5495170217217
 51
300.3389741786398
  0
LINE
  5
2D8
330
2
100
AcDbEntity
  8
KIJUN
 62
     7
100
AcDbLine
 10
257.6699327618763
 20
39.36666432903683
 30
0.0
 11
257.14375298117
 21
39.67599569107818
 31
0.0
  0
ARC
  5
2D9
330
2
100
AcDbEntity
  8
KIJUN
 62
     7
100
AcDbCircle
 10
257.0930736288324
 20
39.58978894397223
 30
0.0
 40
0.1
100
AcDbArc
 50
59.54951702172166
 51
188.2880317052496
  0
LINE
  5
2DA
330
2
100
AcDbEntity
  8
KIJUN
 62
     7
100
AcDbLine
 10
260.8282058585465
 20
37.10963079615061
 30
0.0
 11
260.2601463104329
 21
30.37132669387843
 31
0.0
  0
LINE
  5
2DB
330
2
100
AcDbEntity
  8
KIJUN
 62
     7
100
AcDbLine
 10
267.9887840906772
 20
39.57573873892073
 30
0.0
 11
269.0764311164345
 21
32.14249381047733
 31
0.0
  0
LINE
  5
2DC
330
2
100
AcDbEntity
  8
KIJUN
 62
     7
100
AcDbLine
 10
270.3570782329452
 20
39.57537399401004
 30
0.0
 11
269.2743330913545
 21
32.14255688995802
 31
0.0
  0
ARC
  5
2DD
330
2
100
AcDbEntity
  8
KIJUN
 62
     7
100
AcDbCircle
 10
269.1753774992053
 20
32.15697183992001
 30
0.0
 40
0.1
100
AcDbArc
 50
188.3245567363902
 51
351.7119682947499
  0
LINE
  5
2DE
330
2
100
AcDbEntity
  8
KIJUN
 62
     7
100
AcDbLine
 10
268.6693551717235
 20
39.36567964290038
 30
0.0
 11
268.138241954713
 21
39.67652198408354
 31
0.0
  0
ARC
  5
2DF
330
2
100
AcDbEntity
  8
KIJUN
 62
     7
100
AcDbCircle
 10
268.0877304734482
 20
39.59021676836385
 30
0.0
 40
0.1
100
AcDbArc
 50
59.66102582134514
 51
188.3245567363916
  0
ARC
  5
2E0
330
2
100
AcDbEntity
  8
KIJUN
 62
     7
100
AcDbCircle
 10
269.174469984373
 20
40.22873180009734
 30
0.0
 40
1.0
100
AcDbArc
 50
239.66102582136
 51
300.4504829782783
  0
LINE
  5
2E1
330
2
100
AcDbEntity
  8
KIJUN
 62
     7
100
AcDbLine
 10
269.6812635077522
 20
39.36666432903683
 30
0.0
 11
270.2074432884584
 21
39.67599569107818
 31
0.0
  0
ARC
  5
2E2
330
2
100
AcDbEntity
  8
KIJUN
 62
     7
100
AcDbCircle
 10
270.2581226407961
 20
39.58978894397223
 30
0.0
 40
0.1
100
AcDbArc
 50
351.7119682947503
 51
120.4504829782783
  0
ARC
  5
2E3
330
2
100
AcDbEntity
  8
KIJUN
 62
     7
100
AcDbCircle
 10
246.0930736288323
 20
39.58978894397223
 30
0.0
 40
0.1
100
AcDbArc
 50
59.54951702172166
 51
188.2880317052496
  0
LINE
  5
2E4
330
2
100
AcDbEntity
  8
KIJUN
 62
     7
100
AcDbLine
 10
246.6699327618762
 20
39.36666432903683
 30
0.0
 11
246.1437529811702
 21
39.67599569107818
 31
0.0
  0
ARC
  5
2E5
330
2
100
AcDbEntity
  8
KIJUN
 62
     7
100
AcDbCircle
 10
247.1767262852555
 20
40.22873180009734
 30
0.0
 40
1.0
100
AcDbArc
 50
239.5495170217217
 51
300.3389741786398
  0
ARC
  5
2E6
330
2
100
AcDbEntity
  8
KIJUN
 62
     7
100
AcDbCircle
 10
248.2634657961804
 20
39.59021676836385
 30
0.0
 40
0.1
100
AcDbArc
 50
351.6754432636081
 51
120.3389741786548
  0
LINE
  5
2E7
330
2
100
AcDbEntity
  8
KIJUN
 62
     7
100
AcDbLine
 10
247.681841097905
 20
39.36567964290038
 30
0.0
 11
248.2129543149154
 21
39.67652198408354
 31
0.0
  0
ARC
  5
2E8
330
2
100
AcDbEntity
  8
KIJUN
 62
     7
100
AcDbCircle
 10
247.1758187704232
 20
32.15697183992001
 30
0.0
 40
0.1
100
AcDbArc
 50
188.2880317052498
 51
351.6754432636096
  0
LINE
  5
2E9
330
2
100
AcDbEntity
  8
KIJUN
 62
     7
100
AcDbLine
 10
245.9941180366832
 20
39.57537399401004
 30
0.0
 11
247.0768631782739
 21
32.14255688995802
 31
0.0
  0
LINE
  5
2EA
330
2
100
AcDbEntity
  8
KIJUN
 62
     7
100
AcDbLine
 10
248.3624121789512
 20
39.57573873892073
 30
0.0
 11
247.2747651531939
 21
32.14249381047733
 31
0.0
  0
ARC
  5
2EB
330
2
100
AcDbEntity
  8
KIJUN
 62
     7
100
AcDbCircle
 10
280.1755981348143
 20
30.37132669387843
 30
0.0
 40
4.084548175618691
100
AcDbArc
 50
180.0000000000686
 51
270.0
  0
ARC
  5
2EC
330
2
100
AcDbEntity
  8
KIJUN
 62
     7
100
AcDbCircle
 10
280.1755981348143
 20
30.37132669387843
 30
0.0
 40
4.084548175618691
100
AcDbArc
 50
270.0
 51
359.9999999999312
  0
ARC
  5
2ED
330
2
100
AcDbEntity
  8
KIJUN
 62
     7
100
AcDbCircle
 10
269.1755981348143
 20
30.37132669387843
 30
0.0
 40
4.084548175618691
100
AcDbArc
 50
270.0
 51
359.9999999999312
  0
ARC
  5
2EE
330
2
100
AcDbEntity
  8
KIJUN
 62
     7
100
AcDbCircle
 10
291.1755981348142
 20
30.37132669387843
 30
0.0
 40
4.084548175618691
100
AcDbArc
 50
180.0000000000686
 51
270.0
  0
ARC
  5
2EF
330
2
100
AcDbEntity
  8
KIJUN
 62
     7
100
AcDbCircle
 10
247.1755981348143
 20
30.37132669387843
 30
0.0
 40
4.084548175618691
100
AcDbArc
 50
270.0
 51
359.9999999999312
  0
ARC
  5
2F0
330
2
100
AcDbEntity
  8
KIJUN
 62
     7
100
AcDbCircle
 10
269.1755981348143
 20
30.37132669387843
 30
0.0
 40
4.084548175618691
100
AcDbArc
 50
180.0000000000686
 51
270.0
  0
ARC
  5
2F1
330
2
100
AcDbEntity
  8
KIJUN
 62
     7
100
AcDbCircle
 10
258.1755981348143
 20
30.37132669387843
 30
0.0
 40
4.084548175618691
100
AcDbArc
 50
180.0000000000686
 51
270.0
  0
ARC
  5
2F2
330
2
100
AcDbEntity
  8
KIJUN
 62
     7
100
AcDbCircle
 10
258.1755981348143
 20
30.37132669387843
 30
0.0
 40
4.084548175618691
100
AcDbArc
 50
270.0
 51
359.9999999999312
  0
LINE
  5
2F3
330
2
100
AcDbEntity
  8
KIJUN
 62
     7
100
AcDbLine
 10
245.9887840906771
 20
39.57573873892073
 30
0.0
 11
247.0764311164344
 21
32.14249381047733
 31
0.0
  0
LINE
  5
2F4
330
2
100
AcDbEntity
  8
KIJUN
 62
     7
100
AcDbLine
 10
248.3570782329453
 20
39.57537399401004
 30
0.0
 11
247.2743330913544
 21
32.14255688995802
 31
0.0
  0
ARC
  5
2F5
330
2
100
AcDbEntity
  8
KIJUN
 62
     7
100
AcDbCircle
 10
247.1753774992054
 20
32.15697183992001
 30
0.0
 40
0.1
100
AcDbArc
 50
188.3245567363902
 51
351.7119682947499
  0
LINE
  5
2F6
330
2
100
AcDbEntity
  8
KIJUN
 62
     7
100
AcDbLine
 10
246.6693551717235
 20
39.36567964290038
 30
0.0
 11
246.1382419547131
 21
39.67652198408354
 31
0.0
  0
ARC
  5
2F7
330
2
100
AcDbEntity
  8
KIJUN
 62
     7
100
AcDbCircle
 10
246.0877304734482
 20
39.59021676836385
 30
0.0
 40
0.1
100
AcDbArc
 50
59.66102582134514
 51
188.3245567363916
  0
ARC
  5
2F8
330
2
100
AcDbEntity
  8
KIJUN
 62
     7
100
AcDbCircle
 10
247.1744699843731
 20
40.22873180009734
 30
0.0
 40
1.0
100
AcDbArc
 50
239.66102582136
 51
300.4504829782783
  0
LINE
  5
2F9
330
2
100
AcDbEntity
  8
KIJUN
 62
     7
100
AcDbLine
 10
247.6812635077521
 20
39.36666432903683
 30
0.0
 11
248.2074432884584
 21
39.67599569107818
 31
0.0
  0
ARC
  5
2FA
330
2
100
AcDbEntity
  8
KIJUN
 62
     7
100
AcDbCircle
 10
248.258122640796
 20
39.58978894397223
 30
0.0
 40
0.1
100
AcDbArc
 50
351.7119682947503
 51
120.4504829782783
  0
ARC
  5
2FB
330
2
100
AcDbEntity
  8
KIJUN
 62
     7
100
AcDbCircle
 10
224.0930736288324
 20
39.58978894397223
 30
0.0
 40
0.1
100
AcDbArc
 50
59.54951702172166
 51
188.2880317052496
  0
LINE
  5
2FC
330
2
100
AcDbEntity
  8
KIJUN
 62
     7
100
AcDbLine
 10
224.6699327618762
 20
39.36666432903683
 30
0.0
 11
224.1437529811701
 21
39.67599569107818
 31
0.0
  0
ARC
  5
2FD
330
2
100
AcDbEntity
  8
KIJUN
 62
     7
100
AcDbCircle
 10
225.1767262852554
 20
40.22873180009734
 30
0.0
 40
1.0
100
AcDbArc
 50
239.5495170217217
 51
300.3389741786398
  0
ARC
  5
2FE
330
2
100
AcDbEntity
  8
KIJUN
 62
     7
100
AcDbCircle
 10
226.2634657961804
 20
39.59021676836385
 30
0.0
 40
0.1
100
AcDbArc
 50
351.6754432636081
 51
120.3389741786548
  0
LINE
  5
2FF
330
2
100
AcDbEntity
  8
KIJUN
 62
     7
100
AcDbLine
 10
225.6818410979049
 20
39.36567964290038
 30
0.0
 11
226.2129543149153
 21
39.67652198408354
 31
0.0
  0
ARC
  5
300
330
2
100
AcDbEntity
  8
KIJUN
 62
     7
100
AcDbCircle
 10
225.1758187704232
 20
32.15697183992001
 30
0.0
 40
0.1
100
AcDbArc
 50
188.2880317052498
 51
351.6754432636096
  0
LINE
  5
301
330
2
100
AcDbEntity
  8
KIJUN
 62
     7
100
AcDbLine
 10
223.9941180366832
 20
39.57537399401004
 30
0.0
 11
225.076863178274
 21
32.14255688995802
 31
0.0
  0
LINE
  5
302
330
2
100
AcDbEntity
  8
KIJUN
 62
     7
100
AcDbLine
 10
226.3624121789513
 20
39.57573873892073
 30
0.0
 11
225.2747651531941
 21
32.14249381047733
 31
0.0
  0
LINE
  5
303
330
2
100
AcDbEntity
  8
KIJUN
 62
     7
100
AcDbLine
 10
233.522990411082
 20
37.10963079615061
 30
0.0
 11
234.0910499591956
 21
30.37132669387843
 31
0.0
  0
ARC
  5
304
330
2
100
AcDbEntity
  8
KIJUN
 62
     7
100
AcDbCircle
 10
237.2581226407961
 20
39.58978894397223
 30
0.0
 40
0.1
100
AcDbArc
 50
351.7119682947503
 51
120.4504829782783
  0
LINE
  5
305
330
2
100
AcDbEntity
  8
KIJUN
 62
     7
100
AcDbLine
 10
236.6812635077522
 20
39.36666432903683
 30
0.0
 11
237.2074432884584
 21
39.67599569107818
 31
0.0
  0
ARC
  5
306
330
2
100
AcDbEntity
  8
KIJUN
 62
     7
100
AcDbCircle
 10
236.1744699843731
 20
40.22873180009734
 30
0.0
 40
1.0
100
AcDbArc
 50
239.66102582136
 51
300.4504829782783
  0
ARC
  5
307
330
2
100
AcDbEntity
  8
KIJUN
 62
     7
100
AcDbCircle
 10
235.0877304734482
 20
39.59021676836385
 30
0.0
 40
0.1
100
AcDbArc
 50
59.66102582134514
 51
188.3245567363916
  0
LINE
  5
308
330
2
100
AcDbEntity
  8
KIJUN
 62
     7
100
AcDbLine
 10
235.6693551717235
 20
39.36567964290038
 30
0.0
 11
235.138241954713
 21
39.67652198408354
 31
0.0
  0
ARC
  5
309
330
2
100
AcDbEntity
  8
KIJUN
 62
     7
100
AcDbCircle
 10
230.6755981348143
 20
29.4518962006395
 30
0.0
 40
0.1
100
AcDbArc
 50
22.9635027398381
 51
157.0364972601617
  0
ARC
  5
30A
330
2
100
AcDbEntity
  8
KIJUN
 62
     7
100
AcDbCircle
 10
231.9598954809016
 20
27.66006534692082
 30
0.0
 40
0.1
100
AcDbArc
 50
311.7274843729922
 51
48.29872961434758
  0
ARC
  5
30B
330
2
100
AcDbEntity
  8
KIJUN
 62
     7
100
AcDbCircle
 10
235.3037412593476
 20
31.41294803989506
 30
0.0
 40
4.926473226568868
100
AcDbArc
 50
202.9635027397869
 51
228.2987296143392
  0
ARC
  5
30C
330
2
100
AcDbEntity
  8
KIJUN
 62
     7
100
AcDbCircle
 10
229.3913007887267
 20
27.66006534692082
 30
0.0
 40
0.1
100
AcDbArc
 50
131.7012703856524
 51
228.2725156270079
  0
ARC
  5
30D
330
2
100
AcDbEntity
  8
KIJUN
 62
     7
100
AcDbCircle
 10
226.0474550102808
 20
31.41294803989506
 30
0.0
 40
4.926473226568868
100
AcDbArc
 50
311.7012703856608
 51
337.036497260213
  0
ARC
  5
30E
330
2
100
AcDbEntity
  8
KIJUN
 62
     7
100
AcDbCircle
 10
230.6755981355937
 20
26.51469256131002
 30
0.0
 40
0.1
100
AcDbArc
 50
228.2725156270553
 51
311.7274843729447
  0
LINE
  5
30F
330
2
100
AcDbEntity
  8
KIJUN
 62
     7
100
AcDbLine
 10
229.3247419452205
 20
27.58543344790262
 30
0.0
 11
230.6090392920874
 21
26.44006066229162
 31
0.0
  0
LINE
  5
310
330
2
100
AcDbEntity
  8
KIJUN
 62
     7
100
AcDbLine
 10
230.7421569790999
 20
26.44006066229162
 30
0.0
 11
232.026454324408
 21
27.58543344790262
 31
0.0
  0
LINE
  5
311
330
2
100
AcDbEntity
  8
KIJUN
 62
     7
100
AcDbLine
 10
231.4238306937819
 20
37.51570927530446
 30
0.0
 11
232.098119303295
 21
30.2033165728405
 31
0.0
  0
ARC
  5
312
330
2
100
AcDbEntity
  8
KIJUN
 62
     7
100
AcDbCircle
 10
236.1753774992052
 20
32.15697183992001
 30
0.0
 40
0.1
100
AcDbArc
 50
188.3245567363902
 51
351.7119682947499
  0
LINE
  5
313
330
2
100
AcDbEntity
  8
KIJUN
 62
     7
100
AcDbLine
 10
237.3570782329453
 20
39.57537399401004
 30
0.0
 11
236.2743330913545
 21
32.14255688995802
 31
0.0
  0
LINE
  5
314
330
2
100
AcDbEntity
  8
KIJUN
 62
     7
100
AcDbLine
 10
234.9887840906773
 20
39.57573873892073
 30
0.0
 11
236.0764311164344
 21
32.14249381047733
 31
0.0
  0
ARC
  5
315
330
2
100
AcDbEntity
  8
KIJUN
 62
     7
100
AcDbCircle
 10
236.1755981348143
 20
30.37132669387843
 30
0.0
 40
2.08454817561869
100
AcDbArc
 50
180.0000000000686
 51
270.0
  0
LINE
  5
316
330
2
100
AcDbEntity
  8
KIJUN
 62
     7
100
AcDbLine
 10
238.8282058585465
 20
37.10963079615061
 30
0.0
 11
238.260146310433
 21
30.37132669387843
 31
0.0
  0
ARC
  5
317
330
2
100
AcDbEntity
  8
KIJUN
 62
     7
100
AcDbCircle
 10
236.1755981348143
 20
30.37132669387843
 30
0.0
 40
2.08454817561869
100
AcDbArc
 50
270.0
 51
359.9999999999312
  0
LINE
  5
318
330
2
100
AcDbEntity
  8
KIJUN
 62
     7
100
AcDbLine
 10
240.9273655758465
 20
37.51570927530446
 30
0.0
 11
240.2530769663336
 21
30.2033165728405
 31
0.0
  0
ARC
  5
319
330
2
100
AcDbEntity
  8
KIJUN
 62
     7
100
AcDbCircle
 10
225.1755981348142
 20
30.37132669387843
 30
0.0
 40
2.08454817561869
100
AcDbArc
 50
270.0
 51
359.9999999999312
  0
LINE
  5
31A
330
2
100
AcDbEntity
  8
KIJUN
 62
     7
100
AcDbLine
 10
229.9273655758466
 20
37.51570927530446
 30
0.0
 11
229.2530769663336
 21
30.2033165728405
 31
0.0
  0
LINE
  5
31B
330
2
100
AcDbEntity
  8
KIJUN
 62
     7
100
AcDbLine
 10
227.8282058585465
 20
37.10963079615061
 30
0.0
 11
227.2601463104329
 21
30.37132669387843
 31
0.0
  0
ARC
  5
31C
330
2
100
AcDbEntity
  8
KIJUN
 62
     7
100
AcDbCircle
 10
230.6755981348143
 20
37.10963079615061
 30
0.0
 40
2.847392276267783
100
AcDbArc
 50
359.9999999999267
 51
179.9999999999427
  0
ARC
  5
31D
330
2
100
AcDbEntity
  8
KIJUN
 62
     7
100
AcDbCircle
 10
230.6755981348143
 20
37.51570927530446
 30
0.0
 40
0.7482325589676293
100
AcDbArc
 50
359.9999999996605
 51
179.9999999999216
  0
ARC
  5
31E
330
2
100
AcDbEntity
  8
KIJUN
 62
     7
100
AcDbCircle
 10
241.6755981348143
 20
37.51570927530446
 30
0.0
 40
0.7482325589676293
100
AcDbArc
 50
0.0000000000783504
 51
180.0000000003393
  0
ARC
  5
31F
330
2
100
AcDbEntity
  8
KIJUN
 62
     7
100
AcDbCircle
 10
241.6755981348143
 20
37.10963079615061
 30
0.0
 40
2.847392276267783
100
AcDbArc
 50
0.0000000000572061
 51
180.0000000000732
  0
LINE
  5
320
330
2
100
AcDbEntity
  8
KIJUN
 62
     7
100
AcDbLine
 10
244.522990411082
 20
37.10963079615061
 30
0.0
 11
245.0910499591956
 21
30.37132669387843
 31
0.0
  0
LINE
  5
321
330
2
100
AcDbEntity
  8
KIJUN
 62
     7
100
AcDbLine
 10
242.4238306937819
 20
37.51570927530446
 30
0.0
 11
243.0981193032949
 21
30.2033165728405
 31
0.0
  0
ARC
  5
322
330
2
100
AcDbEntity
  8
KIJUN
 62
     7
100
AcDbCircle
 10
247.1755981348143
 20
30.37132669387843
 30
0.0
 40
2.08454817561869
100
AcDbArc
 50
180.0000000000686
 51
270.0
  0
LINE
  5
323
330
2
100
AcDbEntity
  8
KIJUN
 62
     7
100
AcDbLine
 10
240.9273655758465
 20
37.51570927530446
 30
0.0
 11
240.2530769663336
 21
30.2033165728405
 31
0.0
  0
LINE
  5
324
330
2
100
AcDbEntity
  8
KIJUN
 62
     7
100
AcDbLine
 10
241.6090392905285
 20
26.44006066229162
 30
0.0
 11
240.3247419452203
 21
27.58543344790262
 31
0.0
  0
LINE
  5
325
330
2
100
AcDbEntity
  8
KIJUN
 62
     7
100
AcDbLine
 10
243.026454324408
 20
27.58543344790262
 30
0.0
 11
241.742156977541
 21
26.44006066229162
 31
0.0
  0
ARC
  5
326
330
2
100
AcDbEntity
  8
KIJUN
 62
     7
100
AcDbCircle
 10
241.6755981340348
 20
26.51469256131002
 30
0.0
 40
0.1
100
AcDbArc
 50
228.2725156270553
 51
311.7274843729447
  0
ARC
  5
327
330
2
100
AcDbEntity
  8
KIJUN
 62
     7
100
AcDbCircle
 10
246.3037412593476
 20
31.41294803989506
 30
0.0
 40
4.926473226568868
100
AcDbArc
 50
202.9635027397869
 51
228.2987296143392
  0
ARC
  5
328
330
2
100
AcDbEntity
  8
KIJUN
 62
     7
100
AcDbCircle
 10
242.9598954809016
 20
27.66006534692082
 30
0.0
 40
0.1
100
AcDbArc
 50
311.7274843729922
 51
48.29872961434758
  0
ARC
  5
329
330
2
100
AcDbEntity
  8
KIJUN
 62
     7
100
AcDbCircle
 10
237.0474550102809
 20
31.41294803989506
 30
0.0
 40
4.926473226568868
100
AcDbArc
 50
311.7012703856606
 51
337.036497260213
  0
ARC
  5
32A
330
2
100
AcDbEntity
  8
KIJUN
 62
     7
100
AcDbCircle
 10
240.3913007887267
 20
27.66006534692082
 30
0.0
 40
0.1
100
AcDbArc
 50
131.7012703856524
 51
228.2725156270079
  0
ARC
  5
32B
330
2
100
AcDbEntity
  8
KIJUN
 62
     7
100
AcDbCircle
 10
241.6755981348143
 20
29.4518962006395
 30
0.0
 40
0.1
100
AcDbArc
 50
22.9635027398381
 51
157.0364972601617
  0
LINE
  5
32C
330
2
100
AcDbEntity
  8
KIJUN
 62
     7
100
AcDbLine
 10
238.8282058585465
 20
37.10963079615061
 30
0.0
 11
238.260146310433
 21
30.37132669387843
 31
0.0
  0
ARC
  5
32D
330
2
100
AcDbEntity
  8
KIJUN
 62
     7
100
AcDbCircle
 10
236.1755981348143
 20
30.37132669387843
 30
0.0
 40
4.084548175618691
100
AcDbArc
 50
180.0000000000686
 51
270.0
  0
ARC
  5
32E
330
2
100
AcDbEntity
  8
KIJUN
 62
     7
100
AcDbCircle
 10
236.1755981348143
 20
30.37132669387843
 30
0.0
 40
4.084548175618691
100
AcDbArc
 50
270.0
 51
359.9999999999312
  0
ARC
  5
32F
330
2
100
AcDbEntity
  8
KIJUN
 62
     7
100
AcDbCircle
 10
225.1755981348142
 20
30.37132669387843
 30
0.0
 40
4.084548175618691
100
AcDbArc
 50
270.0
 51
359.9999999999312
  0
ARC
  5
330
330
2
100
AcDbEntity
  8
KIJUN
 62
     7
100
AcDbCircle
 10
247.1755981348143
 20
30.37132669387843
 30
0.0
 40
4.084548175618691
100
AcDbArc
 50
180.0000000000686
 51
270.0
  0
LINE
  5
331
330
2
100
AcDbEntity
  8
KIJUN
 62
     7
100
AcDbLine
 10
222.522990411082
 20
37.10963079615061
 30
0.0
 11
223.0910499591955
 21
30.37132669387843
 31
0.0
  0
ARC
  5
332
330
2
100
AcDbEntity
  8
KIJUN
 62
     7
100
AcDbCircle
 10
225.1755981348142
 20
30.37132669387843
 30
0.0
 40
2.08454817561869
100
AcDbArc
 50
180.0000000000686
 51
270.0
  0
LINE
  5
333
330
2
100
AcDbEntity
  8
KIJUN
 62
     7
100
AcDbLine
 10
351.6755981348252
 20
45.52284225756188
 30
0.0
 11
351.6755981348252
 21
45.83864437347522
 31
0.0
  0
LINE
  5
334
330
2
100
AcDbEntity
  8
KIJUN
 62
     7
100
AcDbLine
 10
340.6755981348243
 20
45.52284225756188
 30
0.0
 11
340.6755981348243
 21
45.83864437347545
 31
0.0
  0
LINE
  5
335
330
2
100
AcDbEntity
  8
KIJUN
 62
     7
100
AcDbLine
 10
318.6755981348225
 20
45.52284225756188
 30
0.0
 11
318.6755981348225
 21
45.83864437347545
 31
0.0
  0
LINE
  5
336
330
2
100
AcDbEntity
  8
KIJUN
 62
     7
100
AcDbLine
 10
365.5229904110821
 20
37.10963079615061
 30
0.0
 11
366.0910499591957
 21
30.37132669387843
 31
0.0
  0
ARC
  5
337
330
2
100
AcDbEntity
  8
KIJUN
 62
     7
100
AcDbCircle
 10
369.258122640796
 20
39.58978894397223
 30
0.0
 40
0.1
100
AcDbArc
 50
351.7119682947503
 51
120.4504829782783
  0
LINE
  5
338
330
2
100
AcDbEntity
  8
KIJUN
 62
     7
100
AcDbLine
 10
368.6812635077523
 20
39.36666432903683
 30
0.0
 11
369.2074432884583
 21
39.67599569107818
 31
0.0
  0
ARC
  5
339
330
2
100
AcDbEntity
  8
KIJUN
 62
     7
100
AcDbCircle
 10
368.1744699843731
 20
40.22873180009734
 30
0.0
 40
1.0
100
AcDbArc
 50
239.66102582136
 51
300.4504829782783
  0
ARC
  5
33A
330
2
100
AcDbEntity
  8
KIJUN
 62
     7
100
AcDbCircle
 10
367.0877304734482
 20
39.59021676836385
 30
0.0
 40
0.1
100
AcDbArc
 50
59.66102582134514
 51
188.3245567363916
  0
LINE
  5
33B
330
2
100
AcDbEntity
  8
KIJUN
 62
     7
100
AcDbLine
 10
367.6693551717236
 20
39.36567964290038
 30
0.0
 11
367.1382419547131
 21
39.67652198408354
 31
0.0
  0
ARC
  5
33C
330
2
100
AcDbEntity
  8
KIJUN
 62
     7
100
AcDbCircle
 10
362.6755981348143
 20
29.4518962006395
 30
0.0
 40
0.1
100
AcDbArc
 50
22.9635027398381
 51
157.0364972601617
  0
ARC
  5
33D
330
2
100
AcDbEntity
  8
KIJUN
 62
     7
100
AcDbCircle
 10
363.9598954809017
 20
27.66006534692082
 30
0.0
 40
0.1
100
AcDbArc
 50
311.7274843729922
 51
48.29872961434758
  0
ARC
  5
33E
330
2
100
AcDbEntity
  8
KIJUN
 62
     7
100
AcDbCircle
 10
367.3037412593476
 20
31.41294803989506
 30
0.0
 40
4.926473226568868
100
AcDbArc
 50
202.9635027397869
 51
228.2987296143392
  0
ARC
  5
33F
330
2
100
AcDbEntity
  8
KIJUN
 62
     7
100
AcDbCircle
 10
361.3913007887266
 20
27.66006534692082
 30
0.0
 40
0.1
100
AcDbArc
 50
131.7012703856524
 51
228.2725156270079
  0
ARC
  5
340
330
2
100
AcDbEntity
  8
KIJUN
 62
     7
100
AcDbCircle
 10
358.0474550102809
 20
31.41294803989506
 30
0.0
 40
4.926473226568868
100
AcDbArc
 50
311.7012703856608
 51
337.036497260213
  0
ARC
  5
341
330
2
100
AcDbEntity
  8
KIJUN
 62
     7
100
AcDbCircle
 10
362.6755981355937
 20
26.51469256131002
 30
0.0
 40
0.1
100
AcDbArc
 50
228.2725156270553
 51
311.7274843729447
  0
LINE
  5
342
330
2
100
AcDbEntity
  8
KIJUN
 62
     7
100
AcDbLine
 10
361.3247419452205
 20
27.58543344790262
 30
0.0
 11
362.6090392920874
 21
26.44006066229162
 31
0.0
  0
LINE
  5
343
330
2
100
AcDbEntity
  8
KIJUN
 62
     7
100
AcDbLine
 10
362.7421569790999
 20
26.44006066229162
 30
0.0
 11
364.0264543244079
 21
27.58543344790262
 31
0.0
  0
LINE
  5
344
330
2
100
AcDbEntity
  8
KIJUN
 62
     7
100
AcDbLine
 10
363.4238306937819
 20
37.51570927530446
 30
0.0
 11
364.098119303295
 21
30.2033165728405
 31
0.0
  0
ARC
  5
345
330
2
100
AcDbEntity
  8
KIJUN
 62
     7
100
AcDbCircle
 10
368.1753774992054
 20
32.15697183992001
 30
0.0
 40
0.1
100
AcDbArc
 50
188.3245567363902
 51
351.7119682947499
  0
LINE
  5
346
330
2
100
AcDbEntity
  8
KIJUN
 62
     7
100
AcDbLine
 10
369.3570782329453
 20
39.57537399401004
 30
0.0
 11
368.2743330913546
 21
32.14255688995802
 31
0.0
  0
LINE
  5
347
330
2
100
AcDbEntity
  8
KIJUN
 62
     7
100
AcDbLine
 10
366.9887840906773
 20
39.57573873892073
 30
0.0
 11
368.0764311164344
 21
32.14249381047733
 31
0.0
  0
ARC
  5
348
330
2
100
AcDbEntity
  8
KIJUN
 62
     7
100
AcDbCircle
 10
368.1755981348143
 20
30.37132669387843
 30
0.0
 40
2.08454817561869
100
AcDbArc
 50
180.0000000000686
 51
270.0
  0
LINE
  5
349
330
2
100
AcDbEntity
  8
KIJUN
 62
     7
100
AcDbLine
 10
370.8282058585464
 20
37.10963079615061
 30
0.0
 11
370.2601463104329
 21
30.37132669387843
 31
0.0
  0
ARC
  5
34A
330
2
100
AcDbEntity
  8
KIJUN
 62
     7
100
AcDbCircle
 10
368.1755981348143
 20
30.37132669387843
 30
0.0
 40
2.08454817561869
100
AcDbArc
 50
270.0
 51
359.9999999999312
  0
LINE
  5
34B
330
2
100
AcDbEntity
  8
KIJUN
 62
     7
100
AcDbLine
 10
372.9273655758466
 20
37.51570927530446
 30
0.0
 11
372.2530769663336
 21
30.2033165728405
 31
0.0
  0
ARC
  5
34C
330
2
100
AcDbEntity
  8
KIJUN
 62
     7
100
AcDbCircle
 10
357.1755981348143
 20
30.37132669387843
 30
0.0
 40
2.08454817561869
100
AcDbArc
 50
270.0
 51
359.9999999999312
  0
LINE
  5
34D
330
2
100
AcDbEntity
  8
KIJUN
 62
     7
100
AcDbLine
 10
361.9273655758465
 20
37.51570927530446
 30
0.0
 11
361.2530769663336
 21
30.2033165728405
 31
0.0
  0
LINE
  5
34E
330
2
100
AcDbEntity
  8
KIJUN
 62
     7
100
AcDbLine
 10
359.8282058585465
 20
37.10963079615061
 30
0.0
 11
359.2601463104329
 21
30.37132669387843
 31
0.0
  0
ARC
  5
34F
330
2
100
AcDbEntity
  8
KIJUN
 62
     7
100
AcDbCircle
 10
362.6755981348143
 20
37.10963079615061
 30
0.0
 40
2.847392276267783
100
AcDbArc
 50
359.9999999999267
 51
179.9999999999427
  0
ARC
  5
350
330
2
100
AcDbEntity
  8
KIJUN
 62
     7
100
AcDbCircle
 10
362.6755981348143
 20
37.51570927530446
 30
0.0
 40
0.7482325589676293
100
AcDbArc
 50
359.9999999996605
 51
179.9999999999216
  0
ARC
  5
351
330
2
100
AcDbEntity
  8
KIJUN
 62
     7
100
AcDbCircle
 10
373.6755981348143
 20
37.51570927530446
 30
0.0
 40
0.7482325589676293
100
AcDbArc
 50
0.0000000000783504
 51
180.0000000003393
  0
ARC
  5
352
330
2
100
AcDbEntity
  8
KIJUN
 62
     7
100
AcDbCircle
 10
373.6755981348143
 20
37.10963079615061
 30
0.0
 40
2.847392276267783
100
AcDbArc
 50
0.0000000000572061
 51
180.0000000000732
  0
LINE
  5
353
330
2
100
AcDbEntity
  8
KIJUN
 62
     7
100
AcDbLine
 10
376.522990411082
 20
37.10963079615061
 30
0.0
 11
377.0910499591956
 21
30.37132669387843
 31
0.0
  0
LINE
  5
354
330
2
100
AcDbEntity
  8
KIJUN
 62
     7
100
AcDbLine
 10
374.4238306937819
 20
37.51570927530446
 30
0.0
 11
375.0981193032949
 21
30.2033165728405
 31
0.0
  0
ARC
  5
355
330
2
100
AcDbEntity
  8
KIJUN
 62
     7
100
AcDbCircle
 10
379.1755981348142
 20
30.37132669387843
 30
0.0
 40
2.08454817561869
100
AcDbArc
 50
180.0000000000686
 51
270.0
  0
LINE
  5
356
330
2
100
AcDbEntity
  8
KIJUN
 62
     7
100
AcDbLine
 10
372.9273655758466
 20
37.51570927530446
 30
0.0
 11
372.2530769663336
 21
30.2033165728405
 31
0.0
  0
LINE
  5
357
330
2
100
AcDbEntity
  8
KIJUN
 62
     7
100
AcDbLine
 10
373.6090392905284
 20
26.44006066229162
 30
0.0
 11
372.3247419452205
 21
27.58543344790262
 31
0.0
  0
LINE
  5
358
330
2
100
AcDbEntity
  8
KIJUN
 62
     7
100
AcDbLine
 10
375.0264543244079
 20
27.58543344790262
 30
0.0
 11
373.742156977541
 21
26.44006066229162
 31
0.0
  0
ARC
  5
359
330
2
100
AcDbEntity
  8
KIJUN
 62
     7
100
AcDbCircle
 10
373.6755981340348
 20
26.51469256131002
 30
0.0
 40
0.1
100
AcDbArc
 50
228.2725156270553
 51
311.7274843729447
  0
ARC
  5
35A
330
2
100
AcDbEntity
  8
KIJUN
 62
     7
100
AcDbCircle
 10
378.3037412593476
 20
31.41294803989506
 30
0.0
 40
4.926473226568868
100
AcDbArc
 50
202.9635027397869
 51
228.2987296143392
  0
ARC
  5
35B
330
2
100
AcDbEntity
  8
KIJUN
 62
     7
100
AcDbCircle
 10
374.9598954809016
 20
27.66006534692082
 30
0.0
 40
0.1
100
AcDbArc
 50
311.7274843729922
 51
48.29872961434758
  0
ARC
  5
35C
330
2
100
AcDbEntity
  8
KIJUN
 62
     7
100
AcDbCircle
 10
369.0474550102809
 20
31.41294803989506
 30
0.0
 40
4.926473226568868
100
AcDbArc
 50
311.7012703856606
 51
337.036497260213
  0
ARC
  5
35D
330
2
100
AcDbEntity
  8
KIJUN
 62
     7
100
AcDbCircle
 10
372.3913007887266
 20
27.66006534692082
 30
0.0
 40
0.1
100
AcDbArc
 50
131.7012703856524
 51
228.2725156270079
  0
ARC
  5
35E
330
2
100
AcDbEntity
  8
KIJUN
 62
     7
100
AcDbCircle
 10
373.6755981348143
 20
29.4518962006395
 30
0.0
 40
0.1
100
AcDbArc
 50
22.9635027398381
 51
157.0364972601617
  0
LINE
  5
35F
330
2
100
AcDbEntity
  8
KIJUN
 62
     7
100
AcDbLine
 10
370.8282058585464
 20
37.10963079615061
 30
0.0
 11
370.2601463104329
 21
30.37132669387843
 31
0.0
  0
LINE
  5
360
330
2
100
AcDbEntity
  8
KIJUN
 62
     7
100
AcDbLine
 10
343.522990411082
 20
37.10963079615061
 30
0.0
 11
344.0910499591956
 21
30.37132669387843
 31
0.0
  0
ARC
  5
361
330
2
100
AcDbEntity
  8
KIJUN
 62
     7
100
AcDbCircle
 10
340.6755981348143
 20
29.4518962006395
 30
0.0
 40
0.1
100
AcDbArc
 50
22.9635027398381
 51
157.0364972601617
  0
ARC
  5
362
330
2
100
AcDbEntity
  8
KIJUN
 62
     7
100
AcDbCircle
 10
341.9598954809016
 20
27.66006534692082
 30
0.0
 40
0.1
100
AcDbArc
 50
311.7274843729922
 51
48.29872961434758
  0
ARC
  5
363
330
2
100
AcDbEntity
  8
KIJUN
 62
     7
100
AcDbCircle
 10
345.3037412593476
 20
31.41294803989506
 30
0.0
 40
4.926473226568868
100
AcDbArc
 50
202.9635027397869
 51
228.2987296143392
  0
ARC
  5
364
330
2
100
AcDbEntity
  8
KIJUN
 62
     7
100
AcDbCircle
 10
339.3913007887267
 20
27.66006534692082
 30
0.0
 40
0.1
100
AcDbArc
 50
131.7012703856524
 51
228.2725156270079
  0
ARC
  5
365
330
2
100
AcDbEntity
  8
KIJUN
 62
     7
100
AcDbCircle
 10
336.0474550102809
 20
31.41294803989506
 30
0.0
 40
4.926473226568868
100
AcDbArc
 50
311.7012703856608
 51
337.036497260213
  0
ARC
  5
366
330
2
100
AcDbEntity
  8
KIJUN
 62
     7
100
AcDbCircle
 10
340.6755981355936
 20
26.51469256131002
 30
0.0
 40
0.1
100
AcDbArc
 50
228.2725156270553
 51
311.7274843729447
  0
LINE
  5
367
330
2
100
AcDbEntity
  8
KIJUN
 62
     7
100
AcDbLine
 10
339.3247419452205
 20
27.58543344790262
 30
0.0
 11
340.6090392920873
 21
26.44006066229162
 31
0.0
  0
LINE
  5
368
330
2
100
AcDbEntity
  8
KIJUN
 62
     7
100
AcDbLine
 10
340.7421569790999
 20
26.44006066229162
 30
0.0
 11
342.0264543244079
 21
27.58543344790262
 31
0.0
  0
LINE
  5
369
330
2
100
AcDbEntity
  8
KIJUN
 62
     7
100
AcDbLine
 10
341.4238306937819
 20
37.51570927530446
 30
0.0
 11
342.0981193032949
 21
30.2033165728405
 31
0.0
  0
ARC
  5
36A
330
2
100
AcDbEntity
  8
KIJUN
 62
     7
100
AcDbCircle
 10
335.1755981348143
 20
30.37132669387843
 30
0.0
 40
2.08454817561869
100
AcDbArc
 50
270.0
 51
359.9999999999312
  0
LINE
  5
36B
330
2
100
AcDbEntity
  8
KIJUN
 62
     7
100
AcDbLine
 10
339.9273655758465
 20
37.51570927530446
 30
0.0
 11
339.2530769663336
 21
30.2033165728405
 31
0.0
  0
LINE
  5
36C
330
2
100
AcDbEntity
  8
KIJUN
 62
     7
100
AcDbLine
 10
337.8282058585465
 20
37.10963079615061
 30
0.0
 11
337.2601463104329
 21
30.37132669387843
 31
0.0
  0
ARC
  5
36D
330
2
100
AcDbEntity
  8
KIJUN
 62
     7
100
AcDbCircle
 10
340.6755981348143
 20
37.10963079615061
 30
0.0
 40
2.847392276267783
100
AcDbArc
 50
359.9999999999267
 51
179.9999999999427
  0
ARC
  5
36E
330
2
100
AcDbEntity
  8
KIJUN
 62
     7
100
AcDbCircle
 10
340.6755981348143
 20
37.51570927530446
 30
0.0
 40
0.7482325589676293
100
AcDbArc
 50
359.9999999996605
 51
179.9999999999216
  0
ARC
  5
36F
330
2
100
AcDbEntity
  8
KIJUN
 62
     7
100
AcDbCircle
 10
351.6755981348142
 20
37.51570927530446
 30
0.0
 40
0.7482325589676293
100
AcDbArc
 50
0.0000000000783504
 51
180.0000000003393
  0
ARC
  5
370
330
2
100
AcDbEntity
  8
KIJUN
 62
     7
100
AcDbCircle
 10
351.6755981348142
 20
37.10963079615061
 30
0.0
 40
2.847392276267783
100
AcDbArc
 50
0.0000000000572061
 51
180.0000000000732
  0
LINE
  5
371
330
2
100
AcDbEntity
  8
KIJUN
 62
     7
100
AcDbLine
 10
354.5229904110821
 20
37.10963079615061
 30
0.0
 11
355.0910499591956
 21
30.37132669387843
 31
0.0
  0
LINE
  5
372
330
2
100
AcDbEntity
  8
KIJUN
 62
     7
100
AcDbLine
 10
352.4238306937819
 20
37.51570927530446
 30
0.0
 11
353.0981193032949
 21
30.2033165728405
 31
0.0
  0
ARC
  5
373
330
2
100
AcDbEntity
  8
KIJUN
 62
     7
100
AcDbCircle
 10
357.1755981348143
 20
30.37132669387843
 30
0.0
 40
2.08454817561869
100
AcDbArc
 50
180.0000000000686
 51
270.0
  0
LINE
  5
374
330
2
100
AcDbEntity
  8
KIJUN
 62
     7
100
AcDbLine
 10
341.4238306937819
 20
37.51570927530446
 30
0.0
 11
342.0981193032949
 21
30.2033165728405
 31
0.0
  0
ARC
  5
375
330
2
100
AcDbEntity
  8
KIJUN
 62
     7
100
AcDbCircle
 10
346.1755981348143
 20
30.37132669387843
 30
0.0
 40
2.08454817561869
100
AcDbArc
 50
180.0000000000686
 51
270.0
  0
LINE
  5
376
330
2
100
AcDbEntity
  8
KIJUN
 62
     7
100
AcDbLine
 10
343.522990411082
 20
37.10963079615061
 30
0.0
 11
344.0910499591956
 21
30.37132669387843
 31
0.0
  0
ARC
  5
377
330
2
100
AcDbEntity
  8
KIJUN
 62
     7
100
AcDbCircle
 10
346.1755981348143
 20
30.37132669387843
 30
0.0
 40
2.08454817561869
100
AcDbArc
 50
270.0
 51
359.9999999999312
  0
LINE
  5
378
330
2
100
AcDbEntity
  8
KIJUN
 62
     7
100
AcDbLine
 10
347.3624121789513
 20
39.57573873892073
 30
0.0
 11
346.2747651531941
 21
32.14249381047733
 31
0.0
  0
LINE
  5
379
330
2
100
AcDbEntity
  8
KIJUN
 62
     7
100
AcDbLine
 10
344.9941180366832
 20
39.57537399401004
 30
0.0
 11
346.0768631782739
 21
32.14255688995802
 31
0.0
  0
ARC
  5
37A
330
2
100
AcDbEntity
  8
KIJUN
 62
     7
100
AcDbCircle
 10
346.1758187704232
 20
32.15697183992001
 30
0.0
 40
0.1
100
AcDbArc
 50
188.2880317052498
 51
351.6754432636096
  0
LINE
  5
37B
330
2
100
AcDbEntity
  8
KIJUN
 62
     7
100
AcDbLine
 10
350.9273655758466
 20
37.51570927530446
 30
0.0
 11
350.2530769663336
 21
30.2033165728405
 31
0.0
  0
LINE
  5
37C
330
2
100
AcDbEntity
  8
KIJUN
 62
     7
100
AcDbLine
 10
351.6090392905284
 20
26.44006066229162
 30
0.0
 11
350.3247419452204
 21
27.58543344790262
 31
0.0
  0
LINE
  5
37D
330
2
100
AcDbEntity
  8
KIJUN
 62
     7
100
AcDbLine
 10
353.0264543244079
 20
27.58543344790262
 30
0.0
 11
351.742156977541
 21
26.44006066229162
 31
0.0
  0
ARC
  5
37E
330
2
100
AcDbEntity
  8
KIJUN
 62
     7
100
AcDbCircle
 10
351.6755981340348
 20
26.51469256131002
 30
0.0
 40
0.1
100
AcDbArc
 50
228.2725156270553
 51
311.7274843729447
  0
ARC
  5
37F
330
2
100
AcDbEntity
  8
KIJUN
 62
     7
100
AcDbCircle
 10
356.3037412593477
 20
31.41294803989506
 30
0.0
 40
4.926473226568868
100
AcDbArc
 50
202.9635027397869
 51
228.2987296143392
  0
ARC
  5
380
330
2
100
AcDbEntity
  8
KIJUN
 62
     7
100
AcDbCircle
 10
352.9598954809017
 20
27.66006534692082
 30
0.0
 40
0.1
100
AcDbArc
 50
311.7274843729922
 51
48.29872961434758
  0
ARC
  5
381
330
2
100
AcDbEntity
  8
KIJUN
 62
     7
100
AcDbCircle
 10
347.0474550102809
 20
31.41294803989506
 30
0.0
 40
4.926473226568868
100
AcDbArc
 50
311.7012703856606
 51
337.036497260213
  0
ARC
  5
382
330
2
100
AcDbEntity
  8
KIJUN
 62
     7
100
AcDbCircle
 10
350.3913007887267
 20
27.66006534692082
 30
0.0
 40
0.1
100
AcDbArc
 50
131.7012703856524
 51
228.2725156270079
  0
ARC
  5
383
330
2
100
AcDbEntity
  8
KIJUN
 62
     7
100
AcDbCircle
 10
351.6755981348142
 20
29.4518962006395
 30
0.0
 40
0.1
100
AcDbArc
 50
22.9635027398381
 51
157.0364972601617
  0
LINE
  5
384
330
2
100
AcDbEntity
  8
KIJUN
 62
     7
100
AcDbLine
 10
346.6818410979049
 20
39.36567964290038
 30
0.0
 11
347.2129543149154
 21
39.67652198408354
 31
0.0
  0
ARC
  5
385
330
2
100
AcDbEntity
  8
KIJUN
 62
     7
100
AcDbCircle
 10
347.2634657961803
 20
39.59021676836385
 30
0.0
 40
0.1
100
AcDbArc
 50
351.6754432636081
 51
120.3389741786548
  0
ARC
  5
386
330
2
100
AcDbEntity
  8
KIJUN
 62
     7
100
AcDbCircle
 10
346.1767262852554
 20
40.22873180009734
 30
0.0
 40
1.0
100
AcDbArc
 50
239.5495170217217
 51
300.3389741786398
  0
LINE
  5
387
330
2
100
AcDbEntity
  8
KIJUN
 62
     7
100
AcDbLine
 10
345.6699327618762
 20
39.36666432903683
 30
0.0
 11
345.1437529811702
 21
39.67599569107818
 31
0.0
  0
ARC
  5
388
330
2
100
AcDbEntity
  8
KIJUN
 62
     7
100
AcDbCircle
 10
345.0930736288324
 20
39.58978894397223
 30
0.0
 40
0.1
100
AcDbArc
 50
59.54951702172166
 51
188.2880317052496
  0
LINE
  5
389
330
2
100
AcDbEntity
  8
KIJUN
 62
     7
100
AcDbLine
 10
348.8282058585464
 20
37.10963079615061
 30
0.0
 11
348.2601463104329
 21
30.37132669387843
 31
0.0
  0
LINE
  5
38A
330
2
100
AcDbEntity
  8
KIJUN
 62
     7
100
AcDbLine
 10
355.9887840906773
 20
39.57573873892073
 30
0.0
 11
357.0764311164344
 21
32.14249381047733
 31
0.0
  0
LINE
  5
38B
330
2
100
AcDbEntity
  8
KIJUN
 62
     7
100
AcDbLine
 10
358.3570782329453
 20
39.57537399401004
 30
0.0
 11
357.2743330913545
 21
32.14255688995802
 31
0.0
  0
ARC
  5
38C
330
2
100
AcDbEntity
  8
KIJUN
 62
     7
100
AcDbCircle
 10
357.1753774992054
 20
32.15697183992001
 30
0.0
 40
0.1
100
AcDbArc
 50
188.3245567363902
 51
351.7119682947499
  0
LINE
  5
38D
330
2
100
AcDbEntity
  8
KIJUN
 62
     7
100
AcDbLine
 10
356.6693551717236
 20
39.36567964290038
 30
0.0
 11
356.1382419547131
 21
39.67652198408354
 31
0.0
  0
ARC
  5
38E
330
2
100
AcDbEntity
  8
KIJUN
 62
     7
100
AcDbCircle
 10
356.0877304734482
 20
39.59021676836385
 30
0.0
 40
0.1
100
AcDbArc
 50
59.66102582134514
 51
188.3245567363916
  0
ARC
  5
38F
330
2
100
AcDbEntity
  8
KIJUN
 62
     7
100
AcDbCircle
 10
357.1744699843731
 20
40.22873180009734
 30
0.0
 40
1.0
100
AcDbArc
 50
239.66102582136
 51
300.4504829782783
  0
LINE
  5
390
330
2
100
AcDbEntity
  8
KIJUN
 62
     7
100
AcDbLine
 10
357.6812635077522
 20
39.36666432903683
 30
0.0
 11
358.2074432884584
 21
39.67599569107818
 31
0.0
  0
ARC
  5
391
330
2
100
AcDbEntity
  8
KIJUN
 62
     7
100
AcDbCircle
 10
358.2581226407961
 20
39.58978894397223
 30
0.0
 40
0.1
100
AcDbArc
 50
351.7119682947503
 51
120.4504829782783
  0
ARC
  5
392
330
2
100
AcDbEntity
  8
KIJUN
 62
     7
100
AcDbCircle
 10
334.0930736288324
 20
39.58978894397223
 30
0.0
 40
0.1
100
AcDbArc
 50
59.54951702172166
 51
188.2880317052496
  0
LINE
  5
393
330
2
100
AcDbEntity
  8
KIJUN
 62
     7
100
AcDbLine
 10
334.6699327618761
 20
39.36666432903683
 30
0.0
 11
334.1437529811701
 21
39.67599569107818
 31
0.0
  0
ARC
  5
394
330
2
100
AcDbEntity
  8
KIJUN
 62
     7
100
AcDbCircle
 10
335.1767262852555
 20
40.22873180009734
 30
0.0
 40
1.0
100
AcDbArc
 50
239.5495170217217
 51
300.3389741786398
  0
ARC
  5
395
330
2
100
AcDbEntity
  8
KIJUN
 62
     7
100
AcDbCircle
 10
336.2634657961803
 20
39.59021676836385
 30
0.0
 40
0.1
100
AcDbArc
 50
351.6754432636081
 51
120.3389741786548
  0
LINE
  5
396
330
2
100
AcDbEntity
  8
KIJUN
 62
     7
100
AcDbLine
 10
335.6818410979049
 20
39.36567964290038
 30
0.0
 11
336.2129543149154
 21
39.67652198408354
 31
0.0
  0
ARC
  5
397
330
2
100
AcDbEntity
  8
KIJUN
 62
     7
100
AcDbCircle
 10
335.1758187704232
 20
32.15697183992001
 30
0.0
 40
0.1
100
AcDbArc
 50
188.2880317052498
 51
351.6754432636096
  0
LINE
  5
398
330
2
100
AcDbEntity
  8
KIJUN
 62
     7
100
AcDbLine
 10
333.9941180366832
 20
39.57537399401004
 30
0.0
 11
335.076863178274
 21
32.14255688995802
 31
0.0
  0
LINE
  5
399
330
2
100
AcDbEntity
  8
KIJUN
 62
     7
100
AcDbLine
 10
336.3624121789513
 20
39.57573873892073
 30
0.0
 11
335.2747651531941
 21
32.14249381047733
 31
0.0
  0
LINE
  5
39A
330
2
100
AcDbEntity
  8
KIJUN
 62
     7
100
AcDbLine
 10
333.9887840906773
 20
39.57573873892073
 30
0.0
 11
335.0764311164344
 21
32.14249381047733
 31
0.0
  0
LINE
  5
39B
330
2
100
AcDbEntity
  8
KIJUN
 62
     7
100
AcDbLine
 10
336.3570782329452
 20
39.57537399401004
 30
0.0
 11
335.2743330913546
 21
32.14255688995802
 31
0.0
  0
ARC
  5
39C
330
2
100
AcDbEntity
  8
KIJUN
 62
     7
100
AcDbCircle
 10
335.1753774992053
 20
32.15697183992001
 30
0.0
 40
0.1
100
AcDbArc
 50
188.3245567363902
 51
351.7119682947499
  0
LINE
  5
39D
330
2
100
AcDbEntity
  8
KIJUN
 62
     7
100
AcDbLine
 10
334.6693551717235
 20
39.36567964290038
 30
0.0
 11
334.1382419547131
 21
39.67652198408354
 31
0.0
  0
ARC
  5
39E
330
2
100
AcDbEntity
  8
KIJUN
 62
     7
100
AcDbCircle
 10
334.0877304734481
 20
39.59021676836385
 30
0.0
 40
0.1
100
AcDbArc
 50
59.66102582134514
 51
188.3245567363916
  0
ARC
  5
39F
330
2
100
AcDbEntity
  8
KIJUN
 62
     7
100
AcDbCircle
 10
335.174469984373
 20
40.22873180009734
 30
0.0
 40
1.0
100
AcDbArc
 50
239.66102582136
 51
300.4504829782783
  0
LINE
  5
3A0
330
2
100
AcDbEntity
  8
KIJUN
 62
     7
100
AcDbLine
 10
335.6812635077523
 20
39.36666432903683
 30
0.0
 11
336.2074432884584
 21
39.67599569107818
 31
0.0
  0
ARC
  5
3A1
330
2
100
AcDbEntity
  8
KIJUN
 62
     7
100
AcDbCircle
 10
336.2581226407961
 20
39.58978894397223
 30
0.0
 40
0.1
100
AcDbArc
 50
351.7119682947503
 51
120.4504829782783
  0
ARC
  5
3A2
330
2
100
AcDbEntity
  8
KIJUN
 62
     7
100
AcDbCircle
 10
314.2634657961804
 20
39.59021676836385
 30
0.0
 40
0.1
100
AcDbArc
 50
351.6754432636081
 51
120.3389741786548
  0
LINE
  5
3A3
330
2
100
AcDbEntity
  8
KIJUN
 62
     7
100
AcDbLine
 10
313.681841097905
 20
39.36567964290038
 30
0.0
 11
314.2129543149154
 21
39.67652198408354
 31
0.0
  0
ARC
  5
3A4
330
2
100
AcDbEntity
  8
KIJUN
 62
     7
100
AcDbCircle
 10
313.1758187704232
 20
32.15697183992001
 30
0.0
 40
0.1
100
AcDbArc
 50
188.2880317052498
 51
351.6754432636096
  0
LINE
  5
3A5
330
2
100
AcDbEntity
  8
KIJUN
 62
     7
100
AcDbLine
 10
314.3624121789513
 20
39.57573873892073
 30
0.0
 11
313.2747651531941
 21
32.14249381047733
 31
0.0
  0
LINE
  5
3A6
330
2
100
AcDbEntity
  8
KIJUN
 62
     7
100
AcDbLine
 10
321.5229904110821
 20
37.10963079615061
 30
0.0
 11
322.0910499591956
 21
30.37132669387843
 31
0.0
  0
ARC
  5
3A7
330
2
100
AcDbEntity
  8
KIJUN
 62
     7
100
AcDbCircle
 10
325.258122640796
 20
39.58978894397223
 30
0.0
 40
0.1
100
AcDbArc
 50
351.7119682947503
 51
120.4504829782783
  0
LINE
  5
3A8
330
2
100
AcDbEntity
  8
KIJUN
 62
     7
100
AcDbLine
 10
324.6812635077523
 20
39.36666432903683
 30
0.0
 11
325.2074432884584
 21
39.67599569107818
 31
0.0
  0
ARC
  5
3A9
330
2
100
AcDbEntity
  8
KIJUN
 62
     7
100
AcDbCircle
 10
324.1744699843731
 20
40.22873180009734
 30
0.0
 40
1.0
100
AcDbArc
 50
239.66102582136
 51
300.4504829782783
  0
ARC
  5
3AA
330
2
100
AcDbEntity
  8
KIJUN
 62
     7
100
AcDbCircle
 10
323.0877304734481
 20
39.59021676836385
 30
0.0
 40
0.1
100
AcDbArc
 50
59.66102582134514
 51
188.3245567363916
  0
LINE
  5
3AB
330
2
100
AcDbEntity
  8
KIJUN
 62
     7
100
AcDbLine
 10
323.6693551717236
 20
39.36567964290038
 30
0.0
 11
323.1382419547131
 21
39.67652198408354
 31
0.0
  0
ARC
  5
3AC
330
2
100
AcDbEntity
  8
KIJUN
 62
     7
100
AcDbCircle
 10
318.6755981348142
 20
29.4518962006395
 30
0.0
 40
0.1
100
AcDbArc
 50
22.9635027398381
 51
157.0364972601617
  0
ARC
  5
3AD
330
2
100
AcDbEntity
  8
KIJUN
 62
     7
100
AcDbCircle
 10
319.9598954809017
 20
27.66006534692082
 30
0.0
 40
0.1
100
AcDbArc
 50
311.7274843729922
 51
48.29872961434758
  0
ARC
  5
3AE
330
2
100
AcDbEntity
  8
KIJUN
 62
     7
100
AcDbCircle
 10
323.3037412593477
 20
31.41294803989506
 30
0.0
 40
4.926473226568868
100
AcDbArc
 50
202.9635027397869
 51
228.2987296143392
  0
ARC
  5
3AF
330
2
100
AcDbEntity
  8
KIJUN
 62
     7
100
AcDbCircle
 10
317.3913007887268
 20
27.66006534692082
 30
0.0
 40
0.1
100
AcDbArc
 50
131.7012703856524
 51
228.2725156270079
  0
ARC
  5
3B0
330
2
100
AcDbEntity
  8
KIJUN
 62
     7
100
AcDbCircle
 10
314.0474550102809
 20
31.41294803989506
 30
0.0
 40
4.926473226568868
100
AcDbArc
 50
311.7012703856608
 51
337.036497260213
  0
ARC
  5
3B1
330
2
100
AcDbEntity
  8
KIJUN
 62
     7
100
AcDbCircle
 10
318.6755981355937
 20
26.51469256131002
 30
0.0
 40
0.1
100
AcDbArc
 50
228.2725156270553
 51
311.7274843729447
  0
LINE
  5
3B2
330
2
100
AcDbEntity
  8
KIJUN
 62
     7
100
AcDbLine
 10
317.3247419452205
 20
27.58543344790262
 30
0.0
 11
318.6090392920874
 21
26.44006066229162
 31
0.0
  0
LINE
  5
3B3
330
2
100
AcDbEntity
  8
KIJUN
 62
     7
100
AcDbLine
 10
318.7421569791
 20
26.44006066229162
 30
0.0
 11
320.026454324408
 21
27.58543344790262
 31
0.0
  0
LINE
  5
3B4
330
2
100
AcDbEntity
  8
KIJUN
 62
     7
100
AcDbLine
 10
319.4238306937819
 20
37.51570927530446
 30
0.0
 11
320.098119303295
 21
30.2033165728405
 31
0.0
  0
ARC
  5
3B5
330
2
100
AcDbEntity
  8
KIJUN
 62
     7
100
AcDbCircle
 10
324.1753774992054
 20
32.15697183992001
 30
0.0
 40
0.1
100
AcDbArc
 50
188.3245567363902
 51
351.7119682947499
  0
LINE
  5
3B6
330
2
100
AcDbEntity
  8
KIJUN
 62
     7
100
AcDbLine
 10
325.3570782329453
 20
39.57537399401004
 30
0.0
 11
324.2743330913546
 21
32.14255688995802
 31
0.0
  0
LINE
  5
3B7
330
2
100
AcDbEntity
  8
KIJUN
 62
     7
100
AcDbLine
 10
322.9887840906773
 20
39.57573873892073
 30
0.0
 11
324.0764311164344
 21
32.14249381047733
 31
0.0
  0
ARC
  5
3B8
330
2
100
AcDbEntity
  8
KIJUN
 62
     7
100
AcDbCircle
 10
324.1755981348143
 20
30.37132669387843
 30
0.0
 40
2.08454817561869
100
AcDbArc
 50
180.0000000000686
 51
270.0
  0
LINE
  5
3B9
330
2
100
AcDbEntity
  8
KIJUN
 62
     7
100
AcDbLine
 10
326.8282058585465
 20
37.10963079615061
 30
0.0
 11
326.260146310433
 21
30.37132669387843
 31
0.0
  0
ARC
  5
3BA
330
2
100
AcDbEntity
  8
KIJUN
 62
     7
100
AcDbCircle
 10
324.1755981348143
 20
30.37132669387843
 30
0.0
 40
2.08454817561869
100
AcDbArc
 50
270.0
 51
359.9999999999312
  0
LINE
  5
3BB
330
2
100
AcDbEntity
  8
KIJUN
 62
     7
100
AcDbLine
 10
328.9273655758464
 20
37.51570927530446
 30
0.0
 11
328.2530769663336
 21
30.2033165728405
 31
0.0
  0
ARC
  5
3BC
330
2
100
AcDbEntity
  8
KIJUN
 62
     7
100
AcDbCircle
 10
313.1755981348143
 20
30.37132669387843
 30
0.0
 40
2.08454817561869
100
AcDbArc
 50
270.0
 51
359.9999999999312
  0
LINE
  5
3BD
330
2
100
AcDbEntity
  8
KIJUN
 62
     7
100
AcDbLine
 10
317.9273655758466
 20
37.51570927530446
 30
0.0
 11
317.2530769663336
 21
30.2033165728405
 31
0.0
  0
LINE
  5
3BE
330
2
100
AcDbEntity
  8
KIJUN
 62
     7
100
AcDbLine
 10
315.8282058585465
 20
37.10963079615061
 30
0.0
 11
315.260146310433
 21
30.37132669387843
 31
0.0
  0
ARC
  5
3BF
330
2
100
AcDbEntity
  8
KIJUN
 62
     7
100
AcDbCircle
 10
318.6755981348142
 20
37.10963079615061
 30
0.0
 40
2.847392276267783
100
AcDbArc
 50
359.9999999999267
 51
179.9999999999427
  0
ARC
  5
3C0
330
2
100
AcDbEntity
  8
KIJUN
 62
     7
100
AcDbCircle
 10
318.6755981348142
 20
37.51570927530446
 30
0.0
 40
0.7482325589676293
100
AcDbArc
 50
359.9999999996605
 51
179.9999999999216
  0
ARC
  5
3C1
330
2
100
AcDbEntity
  8
KIJUN
 62
     7
100
AcDbCircle
 10
329.6755981348143
 20
37.51570927530446
 30
0.0
 40
0.7482325589676293
100
AcDbArc
 50
0.0000000000783504
 51
180.0000000003393
  0
ARC
  5
3C2
330
2
100
AcDbEntity
  8
KIJUN
 62
     7
100
AcDbCircle
 10
329.6755981348143
 20
37.10963079615061
 30
0.0
 40
2.847392276267783
100
AcDbArc
 50
0.0000000000572061
 51
180.0000000000732
  0
LINE
  5
3C3
330
2
100
AcDbEntity
  8
KIJUN
 62
     7
100
AcDbLine
 10
332.5229904110821
 20
37.10963079615061
 30
0.0
 11
333.0910499591956
 21
30.37132669387843
 31
0.0
  0
LINE
  5
3C4
330
2
100
AcDbEntity
  8
KIJUN
 62
     7
100
AcDbLine
 10
330.4238306937819
 20
37.51570927530446
 30
0.0
 11
331.0981193032949
 21
30.2033165728405
 31
0.0
  0
ARC
  5
3C5
330
2
100
AcDbEntity
  8
KIJUN
 62
     7
100
AcDbCircle
 10
335.1755981348143
 20
30.37132669387843
 30
0.0
 40
2.08454817561869
100
AcDbArc
 50
180.0000000000686
 51
270.0
  0
LINE
  5
3C6
330
2
100
AcDbEntity
  8
KIJUN
 62
     7
100
AcDbLine
 10
328.9273655758464
 20
37.51570927530446
 30
0.0
 11
328.2530769663336
 21
30.2033165728405
 31
0.0
  0
LINE
  5
3C7
330
2
100
AcDbEntity
  8
KIJUN
 62
     7
100
AcDbLine
 10
329.6090392905284
 20
26.44006066229162
 30
0.0
 11
328.3247419452205
 21
27.58543344790262
 31
0.0
  0
LINE
  5
3C8
330
2
100
AcDbEntity
  8
KIJUN
 62
     7
100
AcDbLine
 10
331.026454324408
 20
27.58543344790262
 30
0.0
 11
329.7421569775409
 21
26.44006066229162
 31
0.0
  0
ARC
  5
3C9
330
2
100
AcDbEntity
  8
KIJUN
 62
     7
100
AcDbCircle
 10
329.6755981340349
 20
26.51469256131002
 30
0.0
 40
0.1
100
AcDbArc
 50
228.2725156270553
 51
311.7274843729447
  0
ARC
  5
3CA
330
2
100
AcDbEntity
  8
KIJUN
 62
     7
100
AcDbCircle
 10
334.3037412593476
 20
31.41294803989506
 30
0.0
 40
4.926473226568868
100
AcDbArc
 50
202.9635027397869
 51
228.2987296143392
  0
ARC
  5
3CB
330
2
100
AcDbEntity
  8
KIJUN
 62
     7
100
AcDbCircle
 10
330.9598954809016
 20
27.66006534692082
 30
0.0
 40
0.1
100
AcDbArc
 50
311.7274843729922
 51
48.29872961434758
  0
ARC
  5
3CC
330
2
100
AcDbEntity
  8
KIJUN
 62
     7
100
AcDbCircle
 10
325.0474550102809
 20
31.41294803989506
 30
0.0
 40
4.926473226568868
100
AcDbArc
 50
311.7012703856606
 51
337.036497260213
  0
ARC
  5
3CD
330
2
100
AcDbEntity
  8
KIJUN
 62
     7
100
AcDbCircle
 10
328.3913007887266
 20
27.66006534692082
 30
0.0
 40
0.1
100
AcDbArc
 50
131.7012703856524
 51
228.2725156270079
  0
ARC
  5
3CE
330
2
100
AcDbEntity
  8
KIJUN
 62
     7
100
AcDbCircle
 10
329.6755981348143
 20
29.4518962006395
 30
0.0
 40
0.1
100
AcDbArc
 50
22.9635027398381
 51
157.0364972601617
  0
LINE
  5
3CF
330
2
100
AcDbEntity
  8
KIJUN
 62
     7
100
AcDbLine
 10
326.8282058585465
 20
37.10963079615061
 30
0.0
 11
326.260146310433
 21
30.37132669387843
 31
0.0
  0
ARC
  5
3D0
330
2
100
AcDbEntity
  8
KIJUN
 62
     7
100
AcDbCircle
 10
368.1755981348143
 20
30.37132669387843
 30
0.0
 40
4.084548175618691
100
AcDbArc
 50
180.0000000000686
 51
270.0
  0
ARC
  5
3D1
330
2
100
AcDbEntity
  8
KIJUN
 62
     7
100
AcDbCircle
 10
368.1755981348143
 20
30.37132669387843
 30
0.0
 40
4.084548175618691
100
AcDbArc
 50
270.0
 51
359.9999999999312
  0
ARC
  5
3D2
330
2
100
AcDbEntity
  8
KIJUN
 62
     7
100
AcDbCircle
 10
357.1755981348143
 20
30.37132669387843
 30
0.0
 40
4.084548175618691
100
AcDbArc
 50
270.0
 51
359.9999999999312
  0
ARC
  5
3D3
330
2
100
AcDbEntity
  8
KIJUN
 62
     7
100
AcDbCircle
 10
379.1755981348142
 20
30.37132669387843
 30
0.0
 40
4.084548175618691
100
AcDbArc
 50
180.0000000000686
 51
270.0
  0
ARC
  5
3D4
330
2
100
AcDbEntity
  8
KIJUN
 62
     7
100
AcDbCircle
 10
335.1755981348143
 20
30.37132669387843
 30
0.0
 40
4.084548175618691
100
AcDbArc
 50
270.0
 51
359.9999999999312
  0
ARC
  5
3D5
330
2
100
AcDbEntity
  8
KIJUN
 62
     7
100
AcDbCircle
 10
357.1755981348143
 20
30.37132669387843
 30
0.0
 40
4.084548175618691
100
AcDbArc
 50
180.0000000000686
 51
270.0
  0
ARC
  5
3D6
330
2
100
AcDbEntity
  8
KIJUN
 62
     7
100
AcDbCircle
 10
346.1755981348143
 20
30.37132669387843
 30
0.0
 40
4.084548175618691
100
AcDbArc
 50
180.0000000000686
 51
270.0
  0
ARC
  5
3D7
330
2
100
AcDbEntity
  8
KIJUN
 62
     7
100
AcDbCircle
 10
346.1755981348143
 20
30.37132669387843
 30
0.0
 40
4.084548175618691
100
AcDbArc
 50
270.0
 51
359.9999999999312
  0
ARC
  5
3D8
330
2
100
AcDbEntity
  8
KIJUN
 62
     7
100
AcDbCircle
 10
324.1755981348143
 20
30.37132669387843
 30
0.0
 40
4.084548175618691
100
AcDbArc
 50
180.0000000000686
 51
270.0
  0
ARC
  5
3D9
330
2
100
AcDbEntity
  8
KIJUN
 62
     7
100
AcDbCircle
 10
324.1755981348143
 20
30.37132669387843
 30
0.0
 40
4.084548175618691
100
AcDbArc
 50
270.0
 51
359.9999999999312
  0
ARC
  5
3DA
330
2
100
AcDbEntity
  8
KIJUN
 62
     7
100
AcDbCircle
 10
313.1755981348143
 20
30.37132669387843
 30
0.0
 40
4.084548175618691
100
AcDbArc
 50
270.0
 51
359.9999999999312
  0
ARC
  5
3DB
330
2
100
AcDbEntity
  8
KIJUN
 62
     7
100
AcDbCircle
 10
335.1755981348143
 20
30.37132669387843
 30
0.0
 40
4.084548175618691
100
AcDbArc
 50
180.0000000000686
 51
270.0
  0
ARC
  5
3DC
330
2
100
AcDbEntity
  8
KIJUN
 62
     7
100
AcDbCircle
 10
151.3120854924792
 20
99.31240488052672
 30
0.0
 40
32.64971997220266
100
AcDbArc
 50
203.1769258084914
 51
233.1962794637182
  0
ARC
  5
3DD
330
2
100
AcDbEntity
  8
KIJUN
 62
     7
100
AcDbCircle
 10
170.2537931061792
 20
113.96424847629
 30
0.0
 40
55.32372275117328
100
AcDbArc
 50
212.9499844338206
 51
226.5055442926658
  0
ARC
  5
3DE
330
2
100
AcDbEntity
  8
KIJUN
 62
     7
100
AcDbCircle
 10
126.175598134807
 20
64.10772820285497
 30
0.0
 40
5.500000000000226
100
AcDbArc
 50
0.000000000000007
 51
180.0
  0
LINE
  5
3DF
330
2
100
AcDbEntity
  8
KIJUN
 62
     7
100
AcDbLine
 10
87.71495660800296
 20
72.40504619079564
 30
0.0
 11
379.1755981348142
 21
72.40504619079588
 31
0.0
  0
LINE
  5
3E0
330
2
100
AcDbEntity
  8
KIJUN
 62
     7
100
AcDbLine
 10
87.71495660800296
 20
71.62533574070966
 30
0.0
 11
379.1755981348142
 21
71.62533574070987
 31
0.0
  0
LINE
  5
3E1
330
2
100
AcDbEntity
  8
KIJUN
 62
     7
100
AcDbLine
 10
87.71495660800296
 20
70.8896293952293
 30
0.0
 11
379.1755981348142
 21
70.8896293952293
 31
0.0
  0
LINE
  5
3E2
330
2
100
AcDbEntity
  8
KIJUN
 62
     7
100
AcDbLine
 10
87.71495660800296
 20
86.46239833862633
 30
0.0
 11
379.1755981348142
 21
86.46239833862633
 31
0.0
  0
LINE
  5
3E3
330
2
100
AcDbEntity
  8
KIJUN
 62
     7
100
AcDbLine
 10
87.71495660800296
 20
88.96239833862633
 30
0.0
 11
379.1755981348142
 21
88.96239833862654
 31
0.0
  0
ARC
  5
3E4
330
2
100
AcDbEntity
  8
KIJUN
 62
     7
100
AcDbCircle
 10
93.1755981348029
 20
64.10772820285497
 30
0.0
 40
3.500000000000452
100
AcDbArc
 50
0.000000000000007
 51
180.0
  0
ARC
  5
3E5
330
2
100
AcDbEntity
  8
KIJUN
 62
     7
100
AcDbCircle
 10
104.1755981348047
 20
64.10772820285497
 30
0.0
 40
5.500000000000226
100
AcDbArc
 50
0.000000000000007
 51
180.0
  0
ARC
  5
3E6
330
2
100
AcDbEntity
  8
KIJUN
 62
     7
100
AcDbCircle
 10
104.1755981348047
 20
64.10772820285497
 30
0.0
 40
3.500000000000452
100
AcDbArc
 50
0.000000000000007
 51
180.0
  0
ARC
  5
3E7
330
2
100
AcDbEntity
  8
KIJUN
 62
     7
100
AcDbCircle
 10
93.1755981348029
 20
64.10772820285497
 30
0.0
 40
5.500000000000226
100
AcDbArc
 50
0.000000000000007
 51
180.0
  0
ARC
  5
3E8
330
2
100
AcDbEntity
  8
KIJUN
 62
     7
100
AcDbCircle
 10
115.6082377446565
 20
74.1531401503409
 30
0.0
 40
0.5
100
AcDbArc
 50
290.8320000336283
 51
46.55031993510283
  0
ARC
  5
3E9
330
2
100
AcDbEntity
  8
KIJUN
 62
     7
100
AcDbCircle
 10
124.1604047029023
 20
83.59873176631657
 30
0.0
 40
10.60626654486359
100
AcDbArc
 50
247.0755903501204
 51
290.8320000336283
  0
ARC
  5
3EA
330
2
100
AcDbEntity
  8
KIJUN
 62
     7
100
AcDbCircle
 10
127.7544862963055
 20
74.1531401503409
 30
0.0
 40
0.5
100
AcDbArc
 50
290.8320000336283
 51
46.55031993510283
  0
ARC
  5
3EB
330
2
100
AcDbEntity
  8
KIJUN
 62
     7
100
AcDbCircle
 10
148.8182567392605
 20
99.35802511073431
 30
0.0
 40
32.34864023084401
100
AcDbArc
 50
203.4935041385352
 51
230.1694849394963
  0
LINE
  5
3EC
330
2
100
AcDbEntity
  8
KIJUN
 62
     7
100
AcDbLine
 10
119.6061865796551
 20
73.17001990876423
 30
0.0
 11
120.0290902984352
 21
73.83015298984465
 31
0.0
  0
ARC
  5
3ED
330
2
100
AcDbEntity
  8
KIJUN
 62
     7
100
AcDbCircle
 10
115.6082377446569
 20
74.1531401503409
 30
0.0
 40
0.5
100
AcDbArc
 50
290.8320000336283
 51
46.55031993510283
  0
ARC
  5
3EE
330
2
100
AcDbEntity
  8
KIJUN
 62
     7
100
AcDbCircle
 10
127.0195883891816
 20
99.31240488052672
 30
0.0
 40
32.64971997220266
100
AcDbArc
 50
203.1769258084914
 51
233.1962794637182
  0
LINE
  5
3EF
330
2
100
AcDbEntity
  8
KIJUN
 62
     7
100
AcDbLine
 10
107.4599380280065
 20
73.17001990876423
 30
0.0
 11
107.8828417467867
 21
73.83015298984465
 31
0.0
  0
ARC
  5
3F0
330
2
100
AcDbEntity
  8
KIJUN
 62
     7
100
AcDbCircle
 10
145.9612960028822
 20
113.96424847629
 30
0.0
 40
55.32372275117328
100
AcDbArc
 50
212.9499844338206
 51
226.5055442926658
  0
ARC
  5
3F1
330
2
100
AcDbEntity
  8
KIJUN
 62
     7
100
AcDbCircle
 10
124.5257596359621
 20
99.35802511073497
 30
0.0
 40
32.34864023084401
100
AcDbArc
 50
211.7058051694786
 51
230.1694849394963
  0
ARC
  5
3F2
330
2
100
AcDbEntity
  8
KIJUN
 62
     7
100
AcDbCircle
 10
103.461989193007
 20
74.1531401503416
 30
0.0
 40
0.5
100
AcDbArc
 50
290.8320000336283
 51
46.55031993510283
  0
ARC
  5
3F3
330
2
100
AcDbEntity
  8
KIJUN
 62
     7
100
AcDbCircle
 10
99.86790759960381
 20
83.59873176631728
 30
0.0
 40
10.60626654486359
100
AcDbArc
 50
254.3395701875181
 51
290.8320000336283
  0
ARC
  5
3F4
330
2
100
AcDbEntity
  8
KIJUN
 62
     7
100
AcDbCircle
 10
87.72165904795617
 20
83.59873176631657
 30
0.0
 40
10.60626654486359
100
AcDbArc
 50
269.9637929571441
 51
290.8320000336283
  0
ARC
  5
3F5
330
2
100
AcDbEntity
  8
KIJUN
 62
     7
100
AcDbCircle
 10
91.31574064135936
 20
74.1531401503409
 30
0.0
 40
0.5
100
AcDbArc
 50
290.8320000336283
 51
46.55031993510283
  0
ARC
  5
3F6
330
2
100
AcDbEntity
  8
KIJUN
 62
     7
100
AcDbCircle
 10
112.3795110843144
 20
99.35802511073431
 30
0.0
 40
32.34864023084401
100
AcDbArc
 50
220.3184233059691
 51
230.1694849394963
  0
ARC
  5
3F7
330
2
100
AcDbEntity
  8
KIJUN
 62
     7
100
AcDbCircle
 10
124.5257596359625
 20
99.35802511073404
 30
0.0
 40
32.34864023084309
100
AcDbArc
 50
203.4935041385354
 51
230.1694849394968
  0
ARC
  5
3F8
330
2
100
AcDbEntity
  8
KIJUN
 62
     7
100
AcDbCircle
 10
99.86790759960474
 20
83.59873176631657
 30
0.0
 40
10.60626654486359
100
AcDbArc
 50
247.0755903501204
 51
290.8320000336283
  0
LINE
  5
3F9
330
2
100
AcDbEntity
  8
KIJUN
 62
     7
100
AcDbLine
 10
95.31368947635797
 20
73.17001990876423
 30
0.0
 11
95.73659319513813
 21
73.83015298984465
 31
0.0
  0
ARC
  5
3FA
330
2
100
AcDbEntity
  8
KIJUN
 62
     7
100
AcDbCircle
 10
114.873339837533
 20
99.31240488052672
 30
0.0
 40
32.64971997220266
100
AcDbArc
 50
213.714817660211
 51
233.1962794637182
  0
ARC
  5
3FB
330
2
100
AcDbEntity
  8
KIJUN
 62
     7
100
AcDbCircle
 10
133.8150474512332
 20
113.96424847629
 30
0.0
 40
55.32372275117328
100
AcDbArc
 50
213.5629514553671
 51
226.5055442926658
  0
ARC
  5
3FC
330
2
100
AcDbEntity
  8
KIJUN
 62
     7
100
AcDbCircle
 10
103.4619891930079
 20
74.1531401503409
 30
0.0
 40
0.5
100
AcDbArc
 50
290.8320000336283
 51
46.55031993510283
  0
LINE
  5
3FD
330
2
100
AcDbEntity
  8
KIJUN
 62
     7
100
AcDbLine
 10
107.4599380280065
 20
73.17001990876423
 30
0.0
 11
107.8828417467867
 21
73.83015298984465
 31
0.0
  0
ARC
  5
3FE
330
2
100
AcDbEntity
  8
KIJUN
 62
     7
100
AcDbCircle
 10
136.672008187612
 20
99.35802511073431
 30
0.0
 40
32.34864023084401
100
AcDbArc
 50
203.4935041385352
 51
230.1694849394963
  0
ARC
  5
3FF
330
2
100
AcDbEntity
  8
KIJUN
 62
     7
100
AcDbCircle
 10
112.0141561512533
 20
83.59873176631657
 30
0.0
 40
10.60626654486359
100
AcDbArc
 50
247.0755903501204
 51
290.8320000336283
  0
ARC
  5
400
330
2
100
AcDbEntity
  8
KIJUN
 62
     7
100
AcDbCircle
 10
139.1658369408302
 20
99.31240488052672
 30
0.0
 40
32.64971997220266
100
AcDbArc
 50
203.1769258084914
 51
233.1962794637182
  0
ARC
  5
401
330
2
100
AcDbEntity
  8
KIJUN
 62
     7
100
AcDbCircle
 10
158.1075445545307
 20
113.96424847629
 30
0.0
 40
55.32372275117328
100
AcDbArc
 50
212.9499844338206
 51
226.5055442926658
  0
ARC
  5
402
330
2
100
AcDbEntity
  8
KIJUN
 62
     7
100
AcDbCircle
 10
112.0141561512538
 20
83.59873176631657
 30
0.0
 40
10.60626654486359
100
AcDbArc
 50
247.0755903501204
 51
290.8320000336283
  0
ARC
  5
403
330
2
100
AcDbEntity
  8
KIJUN
 62
     7
100
AcDbCircle
 10
115.1755981348051
 20
64.10772820285497
 30
0.0
 40
3.500000000000452
100
AcDbArc
 50
0.000000000000007
 51
180.0
  0
ARC
  5
404
330
2
100
AcDbEntity
  8
KIJUN
 62
     7
100
AcDbCircle
 10
115.1755981348051
 20
64.10772820285497
 30
0.0
 40
5.500000000000226
100
AcDbArc
 50
0.000000000000007
 51
180.0
  0
ARC
  5
405
330
2
100
AcDbEntity
  8
KIJUN
 62
     7
100
AcDbCircle
 10
126.175598134807
 20
64.10772820285497
 30
0.0
 40
3.500000000000452
100
AcDbArc
 50
0.000000000000007
 51
180.0
  0
ARC
  5
406
330
2
100
AcDbEntity
  8
KIJUN
 62
     7
100
AcDbCircle
 10
313.1755981348224
 20
64.10772820285473
 30
0.0
 40
3.500000000000452
100
AcDbArc
 50
0.000000000000007
 51
180.0
  0
ARC
  5
407
330
2
100
AcDbEntity
  8
KIJUN
 62
     7
100
AcDbCircle
 10
313.1755981348224
 20
64.10772820285473
 30
0.0
 40
5.500000000000226
100
AcDbArc
 50
0.000000000000007
 51
180.0
  0
ARC
  5
408
330
2
100
AcDbEntity
  8
KIJUN
 62
     7
100
AcDbCircle
 10
343.1582335656394
 20
99.35802511073404
 30
0.0
 40
32.34864023084309
100
AcDbArc
 50
203.4935041385354
 51
230.1694849394968
  0
ARC
  5
409
330
2
100
AcDbEntity
  8
KIJUN
 62
     7
100
AcDbCircle
 10
333.50581376721
 20
99.31240488052672
 30
0.0
 40
32.64971997220266
100
AcDbArc
 50
203.1769258084914
 51
233.1962794637182
  0
ARC
  5
40A
330
2
100
AcDbEntity
  8
KIJUN
 62
     7
100
AcDbCircle
 10
352.4475213809101
 20
113.96424847629
 30
0.0
 40
55.32372275117328
100
AcDbArc
 50
212.9499844338206
 51
226.5055442926658
  0
ARC
  5
40B
330
2
100
AcDbEntity
  8
KIJUN
 62
     7
100
AcDbCircle
 10
221.3303931160922
 20
83.59873176631657
 30
0.0
 40
10.60626654486359
100
AcDbArc
 50
247.0755903501204
 51
290.8320000336283
  0
ARC
  5
40C
330
2
100
AcDbEntity
  8
KIJUN
 62
     7
100
AcDbCircle
 10
225.1755981348142
 20
64.1077282028552
 30
0.0
 40
5.500000000000226
100
AcDbArc
 50
0.0
 51
180.0
  0
ARC
  5
40D
330
2
100
AcDbEntity
  8
KIJUN
 62
     7
100
AcDbCircle
 10
267.4237815193693
 20
113.96424847629
 30
0.0
 40
55.32372275117328
100
AcDbArc
 50
212.9499844338206
 51
226.5055442926658
  0
ARC
  5
40E
330
2
100
AcDbEntity
  8
KIJUN
 62
     7
100
AcDbCircle
 10
248.4820739056686
 20
99.31240488052672
 30
0.0
 40
32.64971997220266
100
AcDbArc
 50
203.1769258084914
 51
233.1962794637182
  0
ARC
  5
40F
330
2
100
AcDbEntity
  8
KIJUN
 62
     7
100
AcDbCircle
 10
221.3303931160917
 20
83.59873176631657
 30
0.0
 40
10.60626654486359
100
AcDbArc
 50
247.0755903501204
 51
290.8320000336283
  0
ARC
  5
410
330
2
100
AcDbEntity
  8
KIJUN
 62
     7
100
AcDbCircle
 10
245.9882451524505
 20
99.35802511073431
 30
0.0
 40
32.34864023084401
100
AcDbArc
 50
203.4935041385352
 51
230.1694849394963
  0
ARC
  5
411
330
2
100
AcDbEntity
  8
KIJUN
 62
     7
100
AcDbCircle
 10
160.9645052909086
 20
99.35802511073404
 30
0.0
 40
32.34864023084309
100
AcDbArc
 50
203.4935041385354
 51
230.1694849394968
  0
ARC
  5
412
330
2
100
AcDbEntity
  8
KIJUN
 62
     7
100
AcDbCircle
 10
136.3066532545509
 20
83.59873176631657
 30
0.0
 40
10.60626654486359
100
AcDbArc
 50
247.0755903501204
 51
290.8320000336283
  0
LINE
  5
413
330
2
100
AcDbEntity
  8
KIJUN
 62
     7
100
AcDbLine
 10
131.7524351313041
 20
73.17001990876423
 30
0.0
 11
132.1753388500843
 21
73.83015298984465
 31
0.0
  0
ARC
  5
414
330
2
100
AcDbEntity
  8
KIJUN
 62
     7
100
AcDbCircle
 10
139.9007348479541
 20
74.1531401503409
 30
0.0
 40
0.5
100
AcDbArc
 50
290.8320000336283
 51
46.55031993510283
  0
ARC
  5
415
330
2
100
AcDbEntity
  8
KIJUN
 62
     7
100
AcDbCircle
 10
192.1755981348125
 20
64.1077282028552
 30
0.0
 40
3.500000000000452
100
AcDbArc
 50
0.000000000000007
 51
180.0
  0
ARC
  5
416
330
2
100
AcDbEntity
  8
KIJUN
 62
     7
100
AcDbCircle
 10
181.1755981348106
 20
64.1077282028552
 30
0.0
 40
5.500000000000226
100
AcDbArc
 50
0.000000000000007
 51
180.0
  0
ARC
  5
417
330
2
100
AcDbEntity
  8
KIJUN
 62
     7
100
AcDbCircle
 10
181.1755981348106
 20
64.1077282028552
 30
0.0
 40
3.500000000000452
100
AcDbArc
 50
0.000000000000007
 51
180.0
  0
ARC
  5
418
330
2
100
AcDbEntity
  8
KIJUN
 62
     7
100
AcDbCircle
 10
148.1755981348078
 20
64.10772820285497
 30
0.0
 40
3.500000000000452
100
AcDbArc
 50
0.000000000000007
 51
180.0
  0
ARC
  5
419
330
2
100
AcDbEntity
  8
KIJUN
 62
     7
100
AcDbCircle
 10
148.1755981348078
 20
64.10772820285497
 30
0.0
 40
5.500000000000226
100
AcDbArc
 50
0.000000000000007
 51
180.0
  0
ARC
  5
41A
330
2
100
AcDbEntity
  8
KIJUN
 62
     7
100
AcDbCircle
 10
170.1755981348096
 20
64.10772820285497
 30
0.0
 40
3.500000000000452
100
AcDbArc
 50
0.000000000000007
 51
180.0
  0
ARC
  5
41B
330
2
100
AcDbEntity
  8
KIJUN
 62
     7
100
AcDbCircle
 10
170.1755981348096
 20
64.10772820285497
 30
0.0
 40
5.500000000000226
100
AcDbArc
 50
0.000000000000007
 51
180.0
  0
ARC
  5
41C
330
2
100
AcDbEntity
  8
KIJUN
 62
     7
100
AcDbCircle
 10
159.1755981348095
 20
64.10772820285497
 30
0.0
 40
5.500000000000226
100
AcDbArc
 50
0.000000000000007
 51
180.0
  0
ARC
  5
41D
330
2
100
AcDbEntity
  8
KIJUN
 62
     7
100
AcDbCircle
 10
159.1755981348095
 20
64.10772820285497
 30
0.0
 40
3.500000000000452
100
AcDbArc
 50
0.000000000000007
 51
180.0
  0
ARC
  5
41E
330
2
100
AcDbEntity
  8
KIJUN
 62
     7
100
AcDbCircle
 10
137.175598134807
 20
64.10772820285497
 30
0.0
 40
3.500000000000452
100
AcDbArc
 50
0.000000000000007
 51
180.0
  0
ARC
  5
41F
330
2
100
AcDbEntity
  8
KIJUN
 62
     7
100
AcDbCircle
 10
137.175598134807
 20
64.10772820285497
 30
0.0
 40
5.500000000000226
100
AcDbArc
 50
0.000000000000007
 51
180.0
  0
ARC
  5
420
330
2
100
AcDbEntity
  8
KIJUN
 62
     7
100
AcDbCircle
 10
203.1755981348124
 20
64.1077282028552
 30
0.0
 40
5.500000000000226
100
AcDbArc
 50
0.000000000000007
 51
180.0
  0
ARC
  5
421
330
2
100
AcDbEntity
  8
KIJUN
 62
     7
100
AcDbCircle
 10
203.1755981348124
 20
64.1077282028552
 30
0.0
 40
3.500000000000452
100
AcDbArc
 50
0.000000000000007
 51
180.0
  0
ARC
  5
422
330
2
100
AcDbEntity
  8
KIJUN
 62
     7
100
AcDbCircle
 10
192.1755981348125
 20
64.1077282028552
 30
0.0
 40
5.500000000000226
100
AcDbArc
 50
0.000000000000007
 51
180.0
  0
ARC
  5
423
330
2
100
AcDbEntity
  8
KIJUN
 62
     7
100
AcDbCircle
 10
152.0469833996025
 20
74.1531401503409
 30
0.0
 40
0.5
100
AcDbArc
 50
290.8320000336283
 51
46.55031993510283
  0
ARC
  5
424
330
2
100
AcDbEntity
  8
KIJUN
 62
     7
100
AcDbCircle
 10
160.5991503578484
 20
83.59873176631657
 30
0.0
 40
10.60626654486359
100
AcDbArc
 50
247.0755903501204
 51
290.8320000336283
  0
ARC
  5
425
330
2
100
AcDbEntity
  8
KIJUN
 62
     7
100
AcDbCircle
 10
164.1932319512516
 20
74.1531401503409
 30
0.0
 40
0.5
100
AcDbArc
 50
290.8320000336283
 51
46.55031993510283
  0
ARC
  5
426
330
2
100
AcDbEntity
  8
KIJUN
 62
     7
100
AcDbCircle
 10
185.2570023942066
 20
99.35802511073431
 30
0.0
 40
32.34864023084401
100
AcDbArc
 50
203.4935041385352
 51
230.1694849394963
  0
LINE
  5
427
330
2
100
AcDbEntity
  8
KIJUN
 62
     7
100
AcDbLine
 10
156.0449322346013
 20
73.17001990876423
 30
0.0
 11
156.4678359533814
 21
73.83015298984465
 31
0.0
  0
ARC
  5
428
330
2
100
AcDbEntity
  8
KIJUN
 62
     7
100
AcDbCircle
 10
197.4032509458546
 20
99.35802511073404
 30
0.0
 40
32.34864023084309
100
AcDbArc
 50
203.4935041385354
 51
230.1694849394968
  0
ARC
  5
429
330
2
100
AcDbEntity
  8
KIJUN
 62
     7
100
AcDbCircle
 10
172.745398909497
 20
83.59873176631657
 30
0.0
 40
10.60626654486359
100
AcDbArc
 50
247.0755903501204
 51
290.8320000336283
  0
LINE
  5
42A
330
2
100
AcDbEntity
  8
KIJUN
 62
     7
100
AcDbLine
 10
168.1911807862502
 20
73.17001990876423
 30
0.0
 11
168.6140845050304
 21
73.83015298984465
 31
0.0
  0
ARC
  5
42B
330
2
100
AcDbEntity
  8
KIJUN
 62
     7
100
AcDbCircle
 10
187.7508311474253
 20
99.31240488052672
 30
0.0
 40
32.64971997220266
100
AcDbArc
 50
203.1769258084914
 51
233.1962794637182
  0
ARC
  5
42C
330
2
100
AcDbEntity
  8
KIJUN
 62
     7
100
AcDbCircle
 10
206.6925387611254
 20
113.96424847629
 30
0.0
 40
55.32372275117328
100
AcDbArc
 50
212.9499844338206
 51
226.5055442926658
  0
ARC
  5
42D
330
2
100
AcDbEntity
  8
KIJUN
 62
     7
100
AcDbCircle
 10
176.3394805029002
 20
74.1531401503409
 30
0.0
 40
0.5
100
AcDbArc
 50
290.8320000336283
 51
46.55031993510283
  0
ARC
  5
42E
330
2
100
AcDbEntity
  8
KIJUN
 62
     7
100
AcDbCircle
 10
218.8387873127744
 20
113.96424847629
 30
0.0
 40
55.32372275117328
100
AcDbArc
 50
212.9499844338206
 51
226.5055442926658
  0
ARC
  5
42F
330
2
100
AcDbEntity
  8
KIJUN
 62
     7
100
AcDbCircle
 10
199.8970796990738
 20
99.31240488052672
 30
0.0
 40
32.64971997220266
100
AcDbArc
 50
203.1769258084914
 51
233.1962794637182
  0
ARC
  5
430
330
2
100
AcDbEntity
  8
KIJUN
 62
     7
100
AcDbCircle
 10
209.5494994975034
 20
99.35802511073404
 30
0.0
 40
32.34864023084309
100
AcDbArc
 50
203.4935041385354
 51
230.1694849394968
  0
LINE
  5
431
330
2
100
AcDbEntity
  8
KIJUN
 62
     7
100
AcDbLine
 10
180.3374293378988
 20
73.17001990876423
 30
0.0
 11
180.760333056679
 21
73.83015298984465
 31
0.0
  0
ARC
  5
432
330
2
100
AcDbEntity
  8
KIJUN
 62
     7
100
AcDbCircle
 10
184.891647461146
 20
83.59873176631657
 30
0.0
 40
10.60626654486359
100
AcDbArc
 50
247.0755903501204
 51
290.8320000336283
  0
ARC
  5
433
330
2
100
AcDbEntity
  8
KIJUN
 62
     7
100
AcDbCircle
 10
188.4857290545492
 20
74.1531401503409
 30
0.0
 40
0.5
100
AcDbArc
 50
290.8320000336283
 51
46.55031993510283
  0
LINE
  5
434
330
2
100
AcDbEntity
  8
KIJUN
 62
     7
100
AcDbLine
 10
216.7761749928449
 20
73.17001990876423
 30
0.0
 11
217.1990787116252
 21
73.83015298984465
 31
0.0
  0
ARC
  5
435
330
2
100
AcDbEntity
  8
KIJUN
 62
     7
100
AcDbCircle
 10
212.7782261578463
 20
74.1531401503409
 30
0.0
 40
0.5
100
AcDbArc
 50
290.8320000336283
 51
46.55031993510283
  0
ARC
  5
436
330
2
100
AcDbEntity
  8
KIJUN
 62
     7
100
AcDbCircle
 10
243.1312844160717
 20
113.96424847629
 30
0.0
 40
55.32372275117328
100
AcDbArc
 50
212.9499844338206
 51
226.5055442926658
  0
ARC
  5
437
330
2
100
AcDbEntity
  8
KIJUN
 62
     7
100
AcDbCircle
 10
224.1895768023715
 20
99.31240488052672
 30
0.0
 40
32.64971997220266
100
AcDbArc
 50
203.1769258084914
 51
233.1962794637182
  0
LINE
  5
438
330
2
100
AcDbEntity
  8
KIJUN
 62
     7
100
AcDbLine
 10
204.6299264411965
 20
73.17001990876423
 30
0.0
 11
205.0528301599765
 21
73.83015298984465
 31
0.0
  0
ARC
  5
439
330
2
100
AcDbEntity
  8
KIJUN
 62
     7
100
AcDbCircle
 10
209.1841445644431
 20
83.59873176631657
 30
0.0
 40
10.60626654486359
100
AcDbArc
 50
247.0755903501204
 51
290.8320000336283
  0
ARC
  5
43A
330
2
100
AcDbEntity
  8
KIJUN
 62
     7
100
AcDbCircle
 10
233.841996600801
 20
99.35802511073404
 30
0.0
 40
32.34864023084309
100
AcDbArc
 50
203.4935041385354
 51
230.1694849394968
  0
LINE
  5
43B
330
2
100
AcDbEntity
  8
KIJUN
 62
     7
100
AcDbLine
 10
192.4836778895473
 20
73.17001990876423
 30
0.0
 11
192.9065816083275
 21
73.83015298984465
 31
0.0
  0
ARC
  5
43C
330
2
100
AcDbEntity
  8
KIJUN
 62
     7
100
AcDbCircle
 10
230.9850358644231
 20
113.96424847629
 30
0.0
 40
55.32372275117328
100
AcDbArc
 50
212.9499844338206
 51
226.5055442926658
  0
ARC
  5
43D
330
2
100
AcDbEntity
  8
KIJUN
 62
     7
100
AcDbCircle
 10
212.0433282507224
 20
99.31240488052672
 30
0.0
 40
32.64971997220266
100
AcDbArc
 50
203.1769258084914
 51
233.1962794637182
  0
ARC
  5
43E
330
2
100
AcDbEntity
  8
KIJUN
 62
     7
100
AcDbCircle
 10
221.6957480491529
 20
99.35802511073431
 30
0.0
 40
32.34864023084401
100
AcDbArc
 50
203.4935041385352
 51
230.1694849394963
  0
ARC
  5
43F
330
2
100
AcDbEntity
  8
KIJUN
 62
     7
100
AcDbCircle
 10
200.6319776061977
 20
74.1531401503409
 30
0.0
 40
0.5
100
AcDbArc
 50
290.8320000336283
 51
46.55031993510283
  0
ARC
  5
440
330
2
100
AcDbEntity
  8
KIJUN
 62
     7
100
AcDbCircle
 10
197.0378960127946
 20
83.59873176631657
 30
0.0
 40
10.60626654486359
100
AcDbArc
 50
247.0755903501204
 51
290.8320000336283
  0
ARC
  5
441
330
2
100
AcDbEntity
  8
KIJUN
 62
     7
100
AcDbCircle
 10
188.4857290545487
 20
74.1531401503409
 30
0.0
 40
0.5
100
AcDbArc
 50
290.8320000336283
 51
46.55031993510283
  0
ARC
  5
442
330
2
100
AcDbEntity
  8
KIJUN
 62
     7
100
AcDbCircle
 10
184.8916474611455
 20
83.59873176631657
 30
0.0
 40
10.60626654486359
100
AcDbArc
 50
247.0755903501204
 51
290.8320000336283
  0
ARC
  5
443
330
2
100
AcDbEntity
  8
KIJUN
 62
     7
100
AcDbCircle
 10
209.5494994975043
 20
99.35802511073431
 30
0.0
 40
32.34864023084401
100
AcDbArc
 50
203.4935041385352
 51
230.1694849394963
  0
ARC
  5
444
330
2
100
AcDbEntity
  8
KIJUN
 62
     7
100
AcDbCircle
 10
163.4583340441277
 20
99.31240488052672
 30
0.0
 40
32.64971997220266
100
AcDbArc
 50
203.1769258084914
 51
233.1962794637182
  0
LINE
  5
445
330
2
100
AcDbEntity
  8
KIJUN
 62
     7
100
AcDbLine
 10
143.8986836829527
 20
73.17001990876423
 30
0.0
 11
144.3215874017328
 21
73.83015298984465
 31
0.0
  0
ARC
  5
446
330
2
100
AcDbEntity
  8
KIJUN
 62
     7
100
AcDbCircle
 10
182.4000416578283
 20
113.96424847629
 30
0.0
 40
55.32372275117328
100
AcDbArc
 50
212.9499844338206
 51
226.5055442926658
  0
ARC
  5
447
330
2
100
AcDbEntity
  8
KIJUN
 62
     7
100
AcDbCircle
 10
160.9645052909081
 20
99.35802511073497
 30
0.0
 40
32.34864023084401
100
AcDbArc
 50
211.7058051694786
 51
230.1694849394963
  0
ARC
  5
448
330
2
100
AcDbEntity
  8
KIJUN
 62
     7
100
AcDbCircle
 10
139.9007348479532
 20
74.1531401503416
 30
0.0
 40
0.5
100
AcDbArc
 50
290.8320000336283
 51
46.55031993510283
  0
ARC
  5
449
330
2
100
AcDbEntity
  8
KIJUN
 62
     7
100
AcDbCircle
 10
136.30665325455
 20
83.59873176631728
 30
0.0
 40
10.60626654486359
100
AcDbArc
 50
254.3395701875181
 51
290.8320000336283
  0
ARC
  5
44A
330
2
100
AcDbEntity
  8
KIJUN
 62
     7
100
AcDbCircle
 10
173.110753842558
 20
99.35802511073431
 30
0.0
 40
32.34864023084401
100
AcDbArc
 50
203.4935041385352
 51
230.1694849394963
  0
ARC
  5
44B
330
2
100
AcDbEntity
  8
KIJUN
 62
     7
100
AcDbCircle
 10
148.4529018061994
 20
83.59873176631657
 30
0.0
 40
10.60626654486359
100
AcDbArc
 50
247.0755903501204
 51
290.8320000336283
  0
ARC
  5
44C
330
2
100
AcDbEntity
  8
KIJUN
 62
     7
100
AcDbCircle
 10
175.6045825957763
 20
99.31240488052672
 30
0.0
 40
32.64971997220266
100
AcDbArc
 50
203.1769258084914
 51
233.1962794637182
  0
ARC
  5
44D
330
2
100
AcDbEntity
  8
KIJUN
 62
     7
100
AcDbCircle
 10
194.5462902094767
 20
113.96424847629
 30
0.0
 40
55.32372275117328
100
AcDbArc
 50
212.9499844338206
 51
226.5055442926658
  0
ARC
  5
44E
330
2
100
AcDbEntity
  8
KIJUN
 62
     7
100
AcDbCircle
 10
209.1841445644423
 20
83.59873176631728
 30
0.0
 40
10.60626654486359
100
AcDbArc
 50
254.3395701875181
 51
290.8320000336283
  0
ARC
  5
44F
330
2
100
AcDbEntity
  8
KIJUN
 62
     7
100
AcDbCircle
 10
212.7782261578454
 20
74.1531401503416
 30
0.0
 40
0.5
100
AcDbArc
 50
290.8320000336283
 51
46.55031993510283
  0
ARC
  5
450
330
2
100
AcDbEntity
  8
KIJUN
 62
     7
100
AcDbCircle
 10
233.8419966008005
 20
99.35802511073497
 30
0.0
 40
32.34864023084401
100
AcDbArc
 50
211.7058051694786
 51
230.1694849394963
  0
ARC
  5
451
330
2
100
AcDbEntity
  8
KIJUN
 62
     7
100
AcDbCircle
 10
214.1755981348142
 20
64.1077282028552
 30
0.0
 40
3.500000000000452
100
AcDbArc
 50
0.000000000000007
 51
180.0
  0
ARC
  5
452
330
2
100
AcDbEntity
  8
KIJUN
 62
     7
100
AcDbCircle
 10
214.1755981348142
 20
64.1077282028552
 30
0.0
 40
5.500000000000226
100
AcDbArc
 50
0.000000000000007
 51
180.0
  0
ARC
  5
453
330
2
100
AcDbEntity
  8
KIJUN
 62
     7
100
AcDbCircle
 10
255.2775329677206
 20
113.96424847629
 30
0.0
 40
55.32372275117328
100
AcDbArc
 50
212.9499844338206
 51
226.5055442926658
  0
LINE
  5
454
330
2
100
AcDbEntity
  8
KIJUN
 62
     7
100
AcDbLine
 10
216.7761749928449
 20
73.17001990876423
 30
0.0
 11
217.1990787116252
 21
73.83015298984465
 31
0.0
  0
ARC
  5
455
330
2
100
AcDbEntity
  8
KIJUN
 62
     7
100
AcDbCircle
 10
236.3358253540201
 20
99.31240488052672
 30
0.0
 40
32.64971997220266
100
AcDbArc
 50
203.1769258084914
 51
233.1962794637182
  0
ARC
  5
456
330
2
100
AcDbEntity
  8
KIJUN
 62
     7
100
AcDbCircle
 10
224.9244747094954
 20
74.1531401503409
 30
0.0
 40
0.5
100
AcDbArc
 50
290.8320000336283
 51
46.55031993510283
  0
ARC
  5
457
330
2
100
AcDbEntity
  8
KIJUN
 62
     7
100
AcDbCircle
 10
291.1755981348196
 20
64.10772820285497
 30
0.0
 40
3.500000000000452
100
AcDbArc
 50
0.0
 51
180.0
  0
ARC
  5
458
330
2
100
AcDbEntity
  8
KIJUN
 62
     7
100
AcDbCircle
 10
291.1755981348196
 20
64.10772820285497
 30
0.0
 40
5.500000000000226
100
AcDbArc
 50
0.0
 51
180.0
  0
ARC
  5
459
330
2
100
AcDbEntity
  8
KIJUN
 62
     7
100
AcDbCircle
 10
280.1755981348196
 20
64.10772820285497
 30
0.0
 40
5.500000000000226
100
AcDbArc
 50
0.000000000000007
 51
180.0
  0
ARC
  5
45A
330
2
100
AcDbEntity
  8
KIJUN
 62
     7
100
AcDbCircle
 10
280.1755981348196
 20
64.10772820285497
 30
0.0
 40
3.500000000000452
100
AcDbArc
 50
0.000000000000007
 51
180.0
  0
ARC
  5
45B
330
2
100
AcDbEntity
  8
KIJUN
 62
     7
100
AcDbCircle
 10
302.1755981348216
 20
64.10772820285497
 30
0.0
 40
5.500000000000226
100
AcDbArc
 50
0.000000000000007
 51
180.0
  0
ARC
  5
45C
330
2
100
AcDbEntity
  8
KIJUN
 62
     7
100
AcDbCircle
 10
302.1755981348216
 20
64.10772820285497
 30
0.0
 40
3.500000000000452
100
AcDbArc
 50
0.000000000000007
 51
180.0
  0
ARC
  5
45D
330
2
100
AcDbEntity
  8
KIJUN
 62
     7
100
AcDbCircle
 10
258.175598134817
 20
64.10772820285497
 30
0.0
 40
3.500000000000452
100
AcDbArc
 50
0.0
 51
180.0
  0
ARC
  5
45E
330
2
100
AcDbEntity
  8
KIJUN
 62
     7
100
AcDbCircle
 10
258.175598134817
 20
64.10772820285497
 30
0.0
 40
5.500000000000226
100
AcDbArc
 50
0.0
 51
180.0
  0
ARC
  5
45F
330
2
100
AcDbEntity
  8
KIJUN
 62
     7
100
AcDbCircle
 10
247.175598134817
 20
64.10772820285497
 30
0.0
 40
5.500000000000226
100
AcDbArc
 50
0.000000000000007
 51
180.0
  0
ARC
  5
460
330
2
100
AcDbEntity
  8
KIJUN
 62
     7
100
AcDbCircle
 10
247.175598134817
 20
64.10772820285497
 30
0.0
 40
3.500000000000452
100
AcDbArc
 50
0.000000000000007
 51
180.0
  0
ARC
  5
461
330
2
100
AcDbEntity
  8
KIJUN
 62
     7
100
AcDbCircle
 10
269.1755981348188
 20
64.10772820285497
 30
0.0
 40
5.500000000000226
100
AcDbArc
 50
0.000000000000007
 51
180.0
  0
ARC
  5
462
330
2
100
AcDbEntity
  8
KIJUN
 62
     7
100
AcDbCircle
 10
269.1755981348188
 20
64.10772820285497
 30
0.0
 40
3.500000000000452
100
AcDbArc
 50
0.000000000000007
 51
180.0
  0
ARC
  5
463
330
2
100
AcDbEntity
  8
KIJUN
 62
     7
100
AcDbCircle
 10
236.1755981348161
 20
64.1077282028552
 30
0.0
 40
3.500000000000452
100
AcDbArc
 50
0.000000000000007
 51
180.0
  0
ARC
  5
464
330
2
100
AcDbEntity
  8
KIJUN
 62
     7
100
AcDbCircle
 10
236.1755981348161
 20
64.1077282028552
 30
0.0
 40
5.500000000000226
100
AcDbArc
 50
0.000000000000007
 51
180.0
  0
ARC
  5
465
330
2
100
AcDbEntity
  8
KIJUN
 62
     7
100
AcDbCircle
 10
225.1755981348142
 20
64.1077282028552
 30
0.0
 40
3.500000000000452
100
AcDbArc
 50
0.0
 51
180.0
  0
ARC
  5
466
330
2
100
AcDbEntity
  8
KIJUN
 62
     7
100
AcDbCircle
 10
306.3541329776331
 20
83.59873176631657
 30
0.0
 40
10.60626654486359
100
AcDbArc
 50
247.0755903501204
 51
290.8320000336283
  0
ARC
  5
467
330
2
100
AcDbEntity
  8
KIJUN
 62
     7
100
AcDbCircle
 10
309.9482145710363
 20
74.1531401503409
 30
0.0
 40
0.5
100
AcDbArc
 50
290.8320000336283
 51
46.55031993510283
  0
LINE
  5
468
330
2
100
AcDbEntity
  8
KIJUN
 62
     7
100
AcDbLine
 10
301.7999148543859
 20
73.17001990876423
 30
0.0
 11
302.2228185731661
 21
73.83015298984465
 31
0.0
  0
ARC
  5
469
330
2
100
AcDbEntity
  8
KIJUN
 62
     7
100
AcDbCircle
 10
331.0119850139914
 20
99.35802511073431
 30
0.0
 40
32.34864023084401
100
AcDbArc
 50
203.4935041385352
 51
230.1694849394963
  0
ARC
  5
46A
330
2
100
AcDbEntity
  8
KIJUN
 62
     7
100
AcDbCircle
 10
318.8657364623427
 20
99.35802511073431
 30
0.0
 40
32.34864023084401
100
AcDbArc
 50
203.4935041385352
 51
230.1694849394963
  0
ARC
  5
46B
330
2
100
AcDbEntity
  8
KIJUN
 62
     7
100
AcDbCircle
 10
321.359565215561
 20
99.31240488052672
 30
0.0
 40
32.64971997220266
100
AcDbArc
 50
203.1769258084914
 51
233.1962794637182
  0
ARC
  5
46C
330
2
100
AcDbEntity
  8
KIJUN
 62
     7
100
AcDbCircle
 10
340.3012728292616
 20
113.96424847629
 30
0.0
 40
55.32372275117328
100
AcDbArc
 50
212.9499844338206
 51
226.5055442926658
  0
ARC
  5
46D
330
2
100
AcDbEntity
  8
KIJUN
 62
     7
100
AcDbCircle
 10
282.4269908073965
 20
99.35802511073431
 30
0.0
 40
32.34864023084401
100
AcDbArc
 50
203.4935041385352
 51
230.1694849394963
  0
ARC
  5
46E
330
2
100
AcDbEntity
  8
KIJUN
 62
     7
100
AcDbCircle
 10
257.7691387710379
 20
83.59873176631657
 30
0.0
 40
10.60626654486359
100
AcDbArc
 50
247.0755903501204
 51
290.8320000336283
  0
ARC
  5
46F
330
2
100
AcDbEntity
  8
KIJUN
 62
     7
100
AcDbCircle
 10
261.3632203644411
 20
74.1531401503409
 30
0.0
 40
0.5
100
AcDbArc
 50
290.8320000336283
 51
46.55031993510283
  0
ARC
  5
470
330
2
100
AcDbEntity
  8
KIJUN
 62
     7
100
AcDbCircle
 10
269.9153873226869
 20
83.59873176631657
 30
0.0
 40
10.60626654486359
100
AcDbArc
 50
247.0755903501204
 51
290.8320000336283
  0
ARC
  5
471
330
2
100
AcDbEntity
  8
KIJUN
 62
     7
100
AcDbCircle
 10
273.5094689160902
 20
74.1531401503409
 30
0.0
 40
0.5
100
AcDbArc
 50
290.8320000336283
 51
46.55031993510283
  0
ARC
  5
472
330
2
100
AcDbEntity
  8
KIJUN
 62
     7
100
AcDbCircle
 10
294.5732393590452
 20
99.35802511073431
 30
0.0
 40
32.34864023084401
100
AcDbArc
 50
203.4935041385352
 51
230.1694849394963
  0
ARC
  5
473
330
2
100
AcDbEntity
  8
KIJUN
 62
     7
100
AcDbCircle
 10
284.9208195606147
 20
99.31240488052672
 30
0.0
 40
32.64971997220266
100
AcDbArc
 50
203.1769258084914
 51
233.1962794637182
  0
ARC
  5
474
330
2
100
AcDbEntity
  8
KIJUN
 62
     7
100
AcDbCircle
 10
303.8625271743154
 20
113.96424847629
 30
0.0
 40
55.32372275117328
100
AcDbArc
 50
212.9499844338206
 51
226.5055442926658
  0
LINE
  5
475
330
2
100
AcDbEntity
  8
KIJUN
 62
     7
100
AcDbLine
 10
265.3611691994397
 20
73.17001990876423
 30
0.0
 11
265.7840729182199
 21
73.83015298984465
 31
0.0
  0
ARC
  5
476
330
2
100
AcDbEntity
  8
KIJUN
 62
     7
100
AcDbCircle
 10
306.7194879106931
 20
99.35802511073404
 30
0.0
 40
32.34864023084309
100
AcDbArc
 50
203.4935041385354
 51
230.1694849394968
  0
ARC
  5
477
330
2
100
AcDbEntity
  8
KIJUN
 62
     7
100
AcDbCircle
 10
282.0616358743356
 20
83.59873176631657
 30
0.0
 40
10.60626654486359
100
AcDbArc
 50
247.0755903501204
 51
290.8320000336283
  0
LINE
  5
478
330
2
100
AcDbEntity
  8
KIJUN
 62
     7
100
AcDbLine
 10
277.5074177510888
 20
73.17001990876423
 30
0.0
 11
277.9303214698689
 21
73.83015298984465
 31
0.0
  0
ARC
  5
479
330
2
100
AcDbEntity
  8
KIJUN
 62
     7
100
AcDbCircle
 10
297.0670681122637
 20
99.31240488052672
 30
0.0
 40
32.64971997220266
100
AcDbArc
 50
203.1769258084914
 51
233.1962794637182
  0
ARC
  5
47A
330
2
100
AcDbEntity
  8
KIJUN
 62
     7
100
AcDbCircle
 10
316.008775725964
 20
113.96424847629
 30
0.0
 40
55.32372275117328
100
AcDbArc
 50
212.9499844338206
 51
226.5055442926658
  0
ARC
  5
47B
330
2
100
AcDbEntity
  8
KIJUN
 62
     7
100
AcDbCircle
 10
285.6557174677386
 20
74.1531401503409
 30
0.0
 40
0.5
100
AcDbArc
 50
290.8320000336283
 51
46.55031993510283
  0
ARC
  5
47C
330
2
100
AcDbEntity
  8
KIJUN
 62
     7
100
AcDbCircle
 10
328.155024277613
 20
113.96424847629
 30
0.0
 40
55.32372275117328
100
AcDbArc
 50
212.9499844338206
 51
226.5055442926658
  0
ARC
  5
47D
330
2
100
AcDbEntity
  8
KIJUN
 62
     7
100
AcDbCircle
 10
309.2133166639124
 20
99.31240488052672
 30
0.0
 40
32.64971997220266
100
AcDbArc
 50
203.1769258084914
 51
233.1962794637182
  0
ARC
  5
47E
330
2
100
AcDbEntity
  8
KIJUN
 62
     7
100
AcDbCircle
 10
318.8657364623419
 20
99.35802511073404
 30
0.0
 40
32.34864023084309
100
AcDbArc
 50
203.4935041385354
 51
230.1694849394968
  0
LINE
  5
47F
330
2
100
AcDbEntity
  8
KIJUN
 62
     7
100
AcDbLine
 10
289.6536663027374
 20
73.17001990876423
 30
0.0
 11
290.0765700215174
 21
73.83015298984465
 31
0.0
  0
ARC
  5
480
330
2
100
AcDbEntity
  8
KIJUN
 62
     7
100
AcDbCircle
 10
294.2078844259845
 20
83.59873176631657
 30
0.0
 40
10.60626654486359
100
AcDbArc
 50
247.0755903501204
 51
290.8320000336283
  0
ARC
  5
481
330
2
100
AcDbEntity
  8
KIJUN
 62
     7
100
AcDbCircle
 10
297.8019660193877
 20
74.1531401503409
 30
0.0
 40
0.5
100
AcDbArc
 50
290.8320000336283
 51
46.55031993510283
  0
ARC
  5
482
330
2
100
AcDbEntity
  8
KIJUN
 62
     7
100
AcDbCircle
 10
261.3632203644416
 20
74.1531401503409
 30
0.0
 40
0.5
100
AcDbArc
 50
290.8320000336283
 51
46.55031993510283
  0
ARC
  5
483
330
2
100
AcDbEntity
  8
KIJUN
 62
     7
100
AcDbCircle
 10
257.7691387710383
 20
83.59873176631657
 30
0.0
 40
10.60626654486359
100
AcDbArc
 50
247.0755903501204
 51
290.8320000336283
  0
LINE
  5
484
330
2
100
AcDbEntity
  8
KIJUN
 62
     7
100
AcDbLine
 10
253.2149206477912
 20
73.17001990876423
 30
0.0
 11
253.6378243665714
 21
73.83015298984465
 31
0.0
  0
ARC
  5
485
330
2
100
AcDbEntity
  8
KIJUN
 62
     7
100
AcDbCircle
 10
282.4269908073958
 20
99.35802511073404
 30
0.0
 40
32.34864023084309
100
AcDbArc
 50
203.4935041385354
 51
230.1694849394968
  0
ARC
  5
486
330
2
100
AcDbEntity
  8
KIJUN
 62
     7
100
AcDbCircle
 10
272.774571008966
 20
99.31240488052672
 30
0.0
 40
32.64971997220266
100
AcDbArc
 50
203.1769258084914
 51
233.1962794637182
  0
ARC
  5
487
330
2
100
AcDbEntity
  8
KIJUN
 62
     7
100
AcDbCircle
 10
291.7162786226668
 20
113.96424847629
 30
0.0
 40
55.32372275117328
100
AcDbArc
 50
212.9499844338206
 51
226.5055442926658
  0
ARC
  5
488
330
2
100
AcDbEntity
  8
KIJUN
 62
     7
100
AcDbCircle
 10
249.2169718127926
 20
74.1531401503409
 30
0.0
 40
0.5
100
AcDbArc
 50
290.8320000336283
 51
46.55031993510283
  0
ARC
  5
489
330
2
100
AcDbEntity
  8
KIJUN
 62
     7
100
AcDbCircle
 10
279.5700300710178
 20
113.96424847629
 30
0.0
 40
55.32372275117328
100
AcDbArc
 50
212.9499844338206
 51
226.5055442926658
  0
ARC
  5
48A
330
2
100
AcDbEntity
  8
KIJUN
 62
     7
100
AcDbCircle
 10
260.6283224573176
 20
99.31240488052672
 30
0.0
 40
32.64971997220266
100
AcDbArc
 50
203.1769258084914
 51
233.1962794637182
  0
LINE
  5
48B
330
2
100
AcDbEntity
  8
KIJUN
 62
     7
100
AcDbLine
 10
241.0686720961426
 20
73.17001990876423
 30
0.0
 11
241.4915758149227
 21
73.83015298984465
 31
0.0
  0
ARC
  5
48C
330
2
100
AcDbEntity
  8
KIJUN
 62
     7
100
AcDbCircle
 10
245.6228902193894
 20
83.59873176631657
 30
0.0
 40
10.60626654486359
100
AcDbArc
 50
247.0755903501204
 51
290.8320000336283
  0
ARC
  5
48D
330
2
100
AcDbEntity
  8
KIJUN
 62
     7
100
AcDbCircle
 10
270.2807422557472
 20
99.35802511073404
 30
0.0
 40
32.34864023084309
100
AcDbArc
 50
203.4935041385354
 51
230.1694849394968
  0
LINE
  5
48E
330
2
100
AcDbEntity
  8
KIJUN
 62
     7
100
AcDbLine
 10
228.9224235444935
 20
73.17001990876423
 30
0.0
 11
229.3453272632738
 21
73.83015298984465
 31
0.0
  0
ARC
  5
48F
330
2
100
AcDbEntity
  8
KIJUN
 62
     7
100
AcDbCircle
 10
258.1344937040991
 20
99.35802511073431
 30
0.0
 40
32.34864023084401
100
AcDbArc
 50
203.4935041385352
 51
230.1694849394963
  0
ARC
  5
490
330
2
100
AcDbEntity
  8
KIJUN
 62
     7
100
AcDbCircle
 10
237.070723261144
 20
74.1531401503409
 30
0.0
 40
0.5
100
AcDbArc
 50
290.8320000336283
 51
46.55031993510283
  0
ARC
  5
491
330
2
100
AcDbEntity
  8
KIJUN
 62
     7
100
AcDbCircle
 10
233.4766416677408
 20
83.59873176631657
 30
0.0
 40
10.60626654486359
100
AcDbArc
 50
247.0755903501204
 51
290.8320000336283
  0
ARC
  5
492
330
2
100
AcDbEntity
  8
KIJUN
 62
     7
100
AcDbCircle
 10
224.924474709495
 20
74.1531401503409
 30
0.0
 40
0.5
100
AcDbArc
 50
290.8320000336283
 51
46.55031993510283
  0
ARC
  5
493
330
2
100
AcDbEntity
  8
KIJUN
 62
     7
100
AcDbCircle
 10
346.1755981348243
 20
64.10772820285473
 30
0.0
 40
5.500000000000226
100
AcDbArc
 50
0.000000000000007
 51
180.0
  0
ARC
  5
494
330
2
100
AcDbEntity
  8
KIJUN
 62
     7
100
AcDbCircle
 10
346.1755981348252
 20
64.10772820285449
 30
0.0
 40
3.500000000000452
100
AcDbArc
 50
0.000000000000007
 51
180.0
  0
ARC
  5
495
330
2
100
AcDbEntity
  8
KIJUN
 62
     7
100
AcDbCircle
 10
357.1755981348252
 20
64.10772820285449
 30
0.0
 40
3.500000000000452
100
AcDbArc
 50
0.0
 51
180.0
  0
ARC
  5
496
330
2
100
AcDbEntity
  8
KIJUN
 62
     7
100
AcDbCircle
 10
357.1755981348252
 20
64.10772820285449
 30
0.0
 40
5.500000000000226
100
AcDbArc
 50
0.0
 51
180.0
  0
ARC
  5
497
330
2
100
AcDbEntity
  8
KIJUN
 62
     7
100
AcDbCircle
 10
368.175598134827
 20
64.10772820285449
 30
0.0
 40
5.500000000000226
100
AcDbArc
 50
0.000000000000007
 51
180.0
  0
ARC
  5
498
330
2
100
AcDbEntity
  8
KIJUN
 62
     7
100
AcDbCircle
 10
368.175598134827
 20
64.10772820285449
 30
0.0
 40
3.500000000000452
100
AcDbArc
 50
0.000000000000007
 51
180.0
  0
ARC
  5
499
330
2
100
AcDbEntity
  8
KIJUN
 62
     7
100
AcDbCircle
 10
379.175598134828
 20
64.10772820285449
 30
0.0
 40
3.500000000000452
100
AcDbArc
 50
90.00000000022472
 51
180.0
  0
ARC
  5
49A
330
2
100
AcDbEntity
  8
KIJUN
 62
     7
100
AcDbCircle
 10
379.175598134828
 20
64.10772820285449
 30
0.0
 40
5.500000000000226
100
AcDbArc
 50
90.00000000014329
 51
180.0
  0
ARC
  5
49B
330
2
100
AcDbEntity
  8
KIJUN
 62
     7
100
AcDbCircle
 10
335.1755981348243
 20
64.10772820285473
 30
0.0
 40
3.500000000000452
100
AcDbArc
 50
0.000000000000007
 51
180.0
  0
ARC
  5
49C
330
2
100
AcDbEntity
  8
KIJUN
 62
     7
100
AcDbCircle
 10
335.1755981348243
 20
64.10772820285473
 30
0.0
 40
5.500000000000226
100
AcDbArc
 50
0.000000000000007
 51
180.0
  0
ARC
  5
49D
330
2
100
AcDbEntity
  8
KIJUN
 62
     7
100
AcDbCircle
 10
324.1755981348224
 20
64.10772820285473
 30
0.0
 40
5.500000000000226
100
AcDbArc
 50
0.0
 51
180.0
  0
ARC
  5
49E
330
2
100
AcDbEntity
  8
KIJUN
 62
     7
100
AcDbCircle
 10
324.1755981348224
 20
64.10772820285473
 30
0.0
 40
3.500000000000452
100
AcDbArc
 50
0.0
 51
180.0
  0
ARC
  5
49F
330
2
100
AcDbEntity
  8
KIJUN
 62
     7
100
AcDbCircle
 10
379.2316242875254
 20
83.59873176631657
 30
0.0
 40
10.60626654486359
100
AcDbArc
 50
247.0755903501204
 51
269.6973414718664
  0
ARC
  5
4A0
330
2
100
AcDbEntity
  8
KIJUN
 62
     7
100
AcDbCircle
 10
394.2370565254532
 20
99.31240488052672
 30
0.0
 40
32.64971997220266
100
AcDbArc
 50
203.1769258084914
 51
233.1962794637182
  0
ARC
  5
4A1
330
2
100
AcDbEntity
  8
KIJUN
 62
     7
100
AcDbCircle
 10
413.1787641391539
 20
113.96424847629
 30
0.0
 40
55.32372275117328
100
AcDbArc
 50
212.9499844338206
 51
226.5055442926658
  0
ARC
  5
4A2
330
2
100
AcDbEntity
  8
KIJUN
 62
     7
100
AcDbCircle
 10
403.8894763238826
 20
99.35802511073404
 30
0.0
 40
32.34864023084309
100
AcDbArc
 50
203.4935041385354
 51
220.1832162788508
  0
LINE
  5
4A3
330
2
100
AcDbEntity
  8
KIJUN
 62
     7
100
AcDbLine
 10
374.6774061642782
 20
73.17001990876423
 30
0.0
 11
375.1003098830584
 21
73.83015298984465
 31
0.0
  0
ARC
  5
4A4
330
2
100
AcDbEntity
  8
KIJUN
 62
     7
100
AcDbCircle
 10
370.6794573292801
 20
74.1531401503409
 30
0.0
 40
0.5
100
AcDbArc
 50
290.8320000336283
 51
46.55031993510283
  0
ARC
  5
4A5
330
2
100
AcDbEntity
  8
KIJUN
 62
     7
100
AcDbCircle
 10
367.085375735877
 20
83.59873176631657
 30
0.0
 40
10.60626654486359
100
AcDbArc
 50
247.0755903501204
 51
290.8320000336283
  0
LINE
  5
4A6
330
2
100
AcDbEntity
  8
KIJUN
 62
     7
100
AcDbLine
 10
362.5311576126297
 20
73.17001990876423
 30
0.0
 11
362.9540613314098
 21
73.83015298984465
 31
0.0
  0
ARC
  5
4A7
330
2
100
AcDbEntity
  8
KIJUN
 62
     7
100
AcDbCircle
 10
358.5332087776309
 20
74.1531401503409
 30
0.0
 40
0.5
100
AcDbArc
 50
290.8320000336283
 51
46.55031993510283
  0
ARC
  5
4A8
330
2
100
AcDbEntity
  8
KIJUN
 62
     7
100
AcDbCircle
 10
318.5003815292816
 20
83.59873176631657
 30
0.0
 40
10.60626654486359
100
AcDbArc
 50
247.0755903501204
 51
290.8320000336283
  0
LINE
  5
4A9
330
2
100
AcDbEntity
  8
KIJUN
 62
     7
100
AcDbLine
 10
313.9461634060349
 20
73.17001990876423
 30
0.0
 11
314.3690671248151
 21
73.83015298984465
 31
0.0
  0
ARC
  5
4AA
330
2
100
AcDbEntity
  8
KIJUN
 62
     7
100
AcDbCircle
 10
322.0944631226848
 20
74.1531401503409
 30
0.0
 40
0.5
100
AcDbArc
 50
290.8320000336283
 51
46.55031993510283
  0
LINE
  5
4AB
330
2
100
AcDbEntity
  8
KIJUN
 62
     7
100
AcDbLine
 10
326.0924119576835
 20
73.17001990876423
 30
0.0
 11
326.5153156764637
 21
73.83015298984465
 31
0.0
  0
ARC
  5
4AC
330
2
100
AcDbEntity
  8
KIJUN
 62
     7
100
AcDbCircle
 10
330.6466300809307
 20
83.59873176631657
 30
0.0
 40
10.60626654486359
100
AcDbArc
 50
247.0755903501204
 51
290.8320000336283
  0
ARC
  5
4AD
330
2
100
AcDbEntity
  8
KIJUN
 62
     7
100
AcDbCircle
 10
334.2407116743339
 20
74.1531401503409
 30
0.0
 40
0.5
100
AcDbArc
 50
290.8320000336283
 51
46.55031993510283
  0
LINE
  5
4AE
330
2
100
AcDbEntity
  8
KIJUN
 62
     7
100
AcDbLine
 10
350.384909060981
 20
73.17001990876423
 30
0.0
 11
350.8078127797611
 21
73.83015298984465
 31
0.0
  0
LINE
  5
4AF
330
2
100
AcDbEntity
  8
KIJUN
 62
     7
100
AcDbLine
 10
338.238660509332
 20
73.17001990876423
 30
0.0
 11
338.6615642281122
 21
73.83015298984465
 31
0.0
  0
ARC
  5
4B0
330
2
100
AcDbEntity
  8
KIJUN
 62
     7
100
AcDbCircle
 10
346.3869602259824
 20
74.1531401503409
 30
0.0
 40
0.5
100
AcDbArc
 50
290.8320000336283
 51
46.55031993510283
  0
ARC
  5
4B1
330
2
100
AcDbEntity
  8
KIJUN
 62
     7
100
AcDbCircle
 10
342.7928786325793
 20
83.59873176631657
 30
0.0
 40
10.60626654486359
100
AcDbArc
 50
247.0755903501204
 51
290.8320000336283
  0
ARC
  5
4B2
330
2
100
AcDbEntity
  8
KIJUN
 62
     7
100
AcDbCircle
 10
334.2407116743335
 20
74.1531401503409
 30
0.0
 40
0.5
100
AcDbArc
 50
290.8320000336283
 51
46.55031993510283
  0
ARC
  5
4B3
330
2
100
AcDbEntity
  8
KIJUN
 62
     7
100
AcDbCircle
 10
330.6466300809303
 20
83.59873176631657
 30
0.0
 40
10.60626654486359
100
AcDbArc
 50
247.0755903501204
 51
290.8320000336283
  0
ARC
  5
4B4
330
2
100
AcDbEntity
  8
KIJUN
 62
     7
100
AcDbCircle
 10
354.9391271842279
 20
83.59873176631657
 30
0.0
 40
10.60626654486359
100
AcDbArc
 50
247.0755903501204
 51
290.8320000336283
  0
ARC
  5
4B5
330
2
100
AcDbEntity
  8
KIJUN
 62
     7
100
AcDbCircle
 10
391.7432277722342
 20
99.35802511073404
 30
0.0
 40
32.34864023084309
100
AcDbArc
 50
203.4935041385354
 51
230.1694849394968
  0
ARC
  5
4B6
330
2
100
AcDbEntity
  8
KIJUN
 62
     7
100
AcDbCircle
 10
401.0325155875052
 20
113.96424847629
 30
0.0
 40
55.32372275117328
100
AcDbArc
 50
212.9499844338206
 51
226.5055442926658
  0
ARC
  5
4B7
330
2
100
AcDbEntity
  8
KIJUN
 62
     7
100
AcDbCircle
 10
382.0908079738047
 20
99.31240488052672
 30
0.0
 40
32.64971997220266
100
AcDbArc
 50
203.1769258084914
 51
233.1962794637182
  0
ARC
  5
4B8
330
2
100
AcDbEntity
  8
KIJUN
 62
     7
100
AcDbCircle
 10
379.5969792205855
 20
99.35802511073404
 30
0.0
 40
32.34864023084309
100
AcDbArc
 50
203.4935041385354
 51
230.1694849394968
  0
ARC
  5
4B9
330
2
100
AcDbEntity
  8
KIJUN
 62
     7
100
AcDbCircle
 10
388.8862670358562
 20
113.96424847629
 30
0.0
 40
55.32372275117328
100
AcDbArc
 50
212.9499844338206
 51
226.5055442926658
  0
ARC
  5
4BA
330
2
100
AcDbEntity
  8
KIJUN
 62
     7
100
AcDbCircle
 10
369.9445594221562
 20
99.31240488052672
 30
0.0
 40
32.64971997220266
100
AcDbArc
 50
203.1769258084914
 51
233.1962794637182
  0
ARC
  5
4BB
330
2
100
AcDbEntity
  8
KIJUN
 62
     7
100
AcDbCircle
 10
367.4507306689374
 20
99.35802511073431
 30
0.0
 40
32.34864023084401
100
AcDbArc
 50
203.4935041385352
 51
230.1694849394963
  0
ARC
  5
4BC
330
2
100
AcDbEntity
  8
KIJUN
 62
     7
100
AcDbCircle
 10
355.3044821172881
 20
99.35802511073404
 30
0.0
 40
32.34864023084309
100
AcDbArc
 50
203.4935041385354
 51
230.1694849394968
  0
ARC
  5
4BD
330
2
100
AcDbEntity
  8
KIJUN
 62
     7
100
AcDbCircle
 10
376.7400184842077
 20
113.96424847629
 30
0.0
 40
55.32372275117328
100
AcDbArc
 50
212.9499844338206
 51
226.5055442926658
  0
ARC
  5
4BE
330
2
100
AcDbEntity
  8
KIJUN
 62
     7
100
AcDbCircle
 10
357.7983108705071
 20
99.31240488052672
 30
0.0
 40
32.64971997220266
100
AcDbArc
 50
203.1769258084914
 51
233.1962794637182
  0
ARC
  5
4BF
330
2
100
AcDbEntity
  8
KIJUN
 62
     7
100
AcDbCircle
 10
355.3044821172889
 20
99.35802511073431
 30
0.0
 40
32.34864023084401
100
AcDbArc
 50
203.4935041385352
 51
230.1694849394963
  0
ARC
  5
4C0
330
2
100
AcDbEntity
  8
KIJUN
 62
     7
100
AcDbCircle
 10
364.5937699325592
 20
113.96424847629
 30
0.0
 40
55.32372275117328
100
AcDbArc
 50
212.9499844338206
 51
226.5055442926658
  0
ARC
  5
4C1
330
2
100
AcDbEntity
  8
KIJUN
 62
     7
100
AcDbCircle
 10
345.6520623188586
 20
99.31240488052672
 30
0.0
 40
32.64971997220266
100
AcDbArc
 50
203.1769258084914
 51
233.1962794637182
  0
DIMENSION
  5
4C2
330
2
100
AcDbEntity
  8
SUNPOU
 62
     7
100
AcDbDimension
  2
*D1
 10
25.04417852983113
 20
102.7579365664064
 30
0.0
 11
43.54417852983113
 21
107.2579365664064
 31
0.0
 71
     5
 42
37.0
  3
1
100
AcDbAlignedDimension
 13
62.04417852983112
 23
88.96239833862654
 33
0.0
 14
25.04417852983113
 24
88.96239833862654
 34
0.0
 50
180.0
100
AcDbRotatedDimension
  0
TEXT
  5
4CF
330
2
100
AcDbEntity
  8
HOJO
100
AcDbText
 10
0.2600332367572946
 20
1.183313000000011
 30
0.0
 40
4.5
  1
PM831
  7
SUNPOU
100
AcDbText
  0
LINE
  5
4D1
330
2
100
AcDbEntity
  8
WAKU
100
AcDbLine
 10
0.0
 20
0.0
 30
0.0
 11
44.67747103027142
 21
0.0
 31
0.0
  0
LINE
  5
4D3
330
2
100
AcDbEntity
  8
WAKU
100
AcDbLine
 10
0.0
 20
7.0
 30
0.0
 11
44.67747103027142
 21
7.0
 31
0.0
  0
TEXT
  5
4D4
330
2
100
AcDbEntity
  8
HOJO
100
AcDbText
 10
29.80639723965987
 20
2.522193000000015
 30
0.0
 40
3.0
  1
66\U+00D737
  7
SUNPOU
100
AcDbText
  0
LWPOLYLINE
  5
4D5
330
2
100
AcDbEntity
  8
KIJUN
100
AcDbPolyline
 90
       31
 70
     1
 43
0.0
 10
56.02046585098225
 20
68.96239833862643
 42
0.2988656720718517
 10
57.71918209392196
 20
70.22876506205618
 42
-0.2772155191678387
 10
58.5194910799425
 20
70.87672134939328
 42
0.3697590095254685
 10
59.79702011640625
 20
72.32533574070993
 42
-0.1841185986533458
 10
60.06027458143371
 20
72.98723188117159
 42
0.2142572931590875
 10
62.04417852983124
 20
78.96239833862856
 42
0.222542395722283
 10
59.04417852983113
 20
86.46239833862654
 10
59.04417852983113
 20
87.96239833862655
 42
0.4142135623730951
 10
58.04417852983114
 20
88.96239833862654
 10
50.37076143227512
 20
88.96239833862654
 42
0.1559939389356462
 10
49.79055095169102
 20
88.77686491143455
 42
-0.3197691758462699
 10
35.29780610797374
 20
88.77686491143199
 42
0.1559939389356461
 10
34.71759562738714
 20
88.96239833862654
 10
26.04417852983113
 20
88.96239833862654
 42
0.4142135623730951
 10
25.04417852983113
 20
87.96239833862655
 10
25.04417852983113
 20
31.96239833862654
 42
0.4142135623730951
 10
26.04417852983113
 20
30.96239833862654
 10
38.04417852983113
 20
30.96239833862654
 10
38.04417852983113
 20
23.96239833862654
 42
0.4142135623730951
 10
39.04417852983114
 20
22.96239833862654
 10
43.04417852983114
 20
22.96239833862653
 42
0.4142135623730951
 10
44.04417852983114
 20
23.96239833862654
 10
44.04417852983114
 20
25.48755278403421
 42
0.3247709105516294
 10
45.64915234293567
 20
27.79260490360385
 42
0.3448661231678057
 10
45.45270577011862
 20
39.41173197815401
 42
-0.3119024234767212
 10
45.36590919601896
 20
40.54541307777582
 42
0.4892913972358239
 10
44.77709292253616
 20
42.0118639780705
 42
0.4172087020161876
 10
44.43496216048859
 20
44.72983821260172
 42
-0.2330161149622715
 10
44.04417852983114
 20
45.52284225756255
 10
44.04417852983114
 20
57.10584889696674
 42
-0.3683029215235927
 10
53.54417852983179
 20
68.96239833862671
  0
ENDSEC
  0
SECTION
  2
OBJECTS
  0
DICTIONARY
  5
9
330
0
100
AcDbDictionary
281
     1
  3
ACAD_COLOR
350
47
  3
ACAD_GROUP
350
3C
  3
ACAD_LAYOUT
350
1F
  3
ACAD_MATERIAL
350
C
  3
ACAD_MLEADERSTYLE
350
4A
  3
ACAD_MLINESTYLE
350
3D
  3
ACAD_PLOTSETTINGS
350
3E
  3
ACAD_PLOTSTYLENAME
350
8
  3
ACAD_SCALELIST
350
48
  3
ACAD_TABLESTYLE
350
49
  3
ACAD_VISUALSTYLE
350
32
  3
ACDB_RECOMPOSE_DATA
350
4E5
  3
AcDbVariableDictionary
350
4D8
  0
DICTIONARY
  5
3
330
2
100
AcDbDictionary
280
     1
281
     1
  3
ACAD_LAYOUTSELFREF
360
4
  0
DICTIONARY
  5
21
330
20
100
AcDbDictionary
280
     1
281
     1
  3
ACAD_LAYOUTSELFREF
360
22
  0
DICTIONARY
  5
47
102
{ACAD_REACTORS
330
9
102
}
330
9
100
AcDbDictionary
281
     1
  0
DICTIONARY
  5
3C
102
{ACAD_REACTORS
330
9
102
}
330
9
100
AcDbDictionary
281
     1
  0
DICTIONARY
  5
1F
102
{ACAD_REACTORS
330
9
102
}
330
9
100
AcDbDictionary
281
     1
  3
Model
350
1E
  3
ﾚｲｱｳﾄ1
350
25
  0
DICTIONARY
  5
C
102
{ACAD_REACTORS
330
9
102
}
330
9
100
AcDbDictionary
281
     1
  3
ByBlock
350
3F
  3
ByLayer
350
15
  3
Global
350
B
  0
DICTIONARY
  5
4A
102
{ACAD_REACTORS
330
9
102
}
330
9
100
AcDbDictionary
281
     1
  0
DICTIONARY
  5
3D
102
{ACAD_REACTORS
330
9
102
}
330
9
100
AcDbDictionary
281
     1
  3
STANDARD
350
4C
  0
DICTIONARY
  5
3E
102
{ACAD_REACTORS
330
9
102
}
330
9
100
AcDbDictionary
281
     1
  0
ACDBDICTIONARYWDFLT
  5
8
102
{ACAD_REACTORS
330
9
102
}
330
9
100
AcDbDictionary
281
     1
  3
Normal
350
7
100
AcDbDictionaryWithDefault
340
7
  0
DICTIONARY
  5
48
102
{ACAD_REACTORS
330
9
102
}
330
9
100
AcDbDictionary
281
     1
  3
A0
350
50
  3
A1
350
51
  3
A2
350
52
  3
A3
350
53
  3
A4
350
54
  3
A5
350
55
  3
A6
350
56
  3
A7
350
57
  3
A8
350
58
  3
A9
350
59
  3
B0
350
5A
  3
B1
350
5B
  3
B2
350
5C
  3
B3
350
5D
  3
B4
350
5E
  3
B5
350
5F
  3
B6
350
60
  0
DICTIONARY
  5
49
102
{ACAD_REACTORS
330
9
102
}
330
9
100
AcDbDictionary
281
     1
  3
Standard
350
4D
  0
DICTIONARY
  5
32
102
{ACAD_REACTORS
330
9
102
}
330
9
100
AcDbDictionary
281
     1
  3
2dWireframe
350
31
  3
Realistic
350
4E
  3
Wireframe
350
4F
  0
XRECORD
  5
4E5
102
{ACAD_REACTORS
330
9
102
}
330
9
100
AcDbXrecord
280
     1
 90
        1
330
4D
  0
DICTIONARY
  5
4D8
102
{ACAD_REACTORS
330
9
102
}
330
9
100
AcDbDictionary
281
     1
  3
CANNOSCALE
350
4DD
  3
CMLEADERSTYLE
350
4DA
  3
CTABLESTYLE
350
4D9
  3
CVIEWDETAILSTYLE
350
4DB
  3
CVIEWSECTIONSTYLE
350
4DC
  3
DIMASSOC
350
4E1
  3
HIDETEXT
350
4E0
  3
INDEXCTL
350
4DF
  3
SORTENTS
350
4DE
  3
XCLIPFRAME
350
4E2
  0
XRECORD
  5
4
102
{ACAD_REACTORS
330
3
102
}
330
3
100
AcDbXrecord
280
     1
340
2
  0
XRECORD
  5
22
102
{ACAD_REACTORS
330
21
102
}
330
21
100
AcDbXrecord
280
     1
340
20
  0
LAYOUT
  5
1E
102
{ACAD_XDICTIONARY
360
4E8
102
}
102
{ACAD_REACTORS
330
1F
102
}
330
1F
100
AcDbPlotSettings
  1

  2
なし
  4

  6

 40
0.0
 41
0.0
 42
0.0
 43
0.0
 44
0.0
 45
0.0
 46
0.0
 47
0.0
 48
0.0
 49
0.0
140
0.0
141
0.0
142
1.0
143
1.0
 70
  1712
 72
     0
 73
     0
 74
     0
  7
monochrome.ctb
 75
     0
147
1.0
148
0.0
149
0.0
100
AcDbLayout
  1
Model
 70
     1
 71
     0
 10
0.0
 20
0.0
 11
12.0
 21
9.0
 12
0.0
 22
0.0
 32
0.0
 14
0.0
 24
0.0
 34
0.0
 15
0.0
 25
0.0
 35
0.0
146
0.0
 13
0.0
 23
0.0
 33
0.0
 16
1.0
 26
0.0
 36
0.0
 17
0.0
 27
1.0
 37
0.0
 76
     0
330
2
  0
LAYOUT
  5
25
102
{ACAD_XDICTIONARY
360
4EA
102
}
102
{ACAD_REACTORS
330
1F
102
}
330
1F
100
AcDbPlotSettings
  1

  2
なし
  4

  6

 40
0.0
 41
0.0
 42
0.0
 43
0.0
 44
0.0
 45
0.0
 46
0.0
 47
0.0
 48
0.0
 49
0.0
140
0.0
141
0.0
142
1.0
143
1.0
 70
   688
 72
     0
 73
     0
 74
     5
  7
monochrome.ctb
 75
    16
147
1.0
148
0.0
149
0.0
100
AcDbLayout
  1
ﾚｲｱｳﾄ1
 70
     1
 71
     1
 10
0.0
 20
0.0
 11
12.0
 21
9.0
 12
0.0
 22
0.0
 32
0.0
 14
1.000000000000000E+20
 24
1.000000000000000E+20
 34
1.000000000000000E+20
 15
-1.000000000000000E+20
 25
-1.000000000000000E+20
 35
-1.000000000000000E+20
146
0.0
 13
0.0
 23
0.0
 33
0.0
 16
1.0
 26
0.0
 36
0.0
 17
0.0
 27
1.0
 37
0.0
 76
     0
330
20
  0
MATERIAL
  5
3F
102
{ACAD_XDICTIONARY
360
40
102
}
102
{ACAD_REACTORS
330
C
102
}
330
C
100
AcDbMaterial
  1
ByBlock
 72
     0
 43
0.0208333333333333
 43
0.0
 43
0.0
 43
0.0
 43
0.0
 43
0.0208333333333333
 43
0.0
 43
0.0
 43
0.0
 43
0.0
 43
1.0
 43
0.0
 43
0.0
 43
0.0
 43
0.0
 43
1.0
 77
     0
 47
0.0208333333333333
 47
0.0
 47
0.0
 47
0.0
 47
0.0
 47
0.0208333333333333
 47
0.0
 47
0.0
 47
0.0
 47
0.0
 47
1.0
 47
0.0
 47
0.0
 47
0.0
 47
0.0
 47
1.0
171
     0
 49
0.0208333333333333
 49
0.0
 49
0.0
 49
0.0
 49
0.0
 49
0.0208333333333333
 49
0.0
 49
0.0
 49
0.0
 49
0.0
 49
1.0
 49
0.0
 49
0.0
 49
0.0
 49
0.0
 49
1.0
175
     0
142
0.0208333333333333
142
0.0
142
0.0
142
0.0
142
0.0
142
0.0208333333333333
142
0.0
142
0.0
142
0.0
142
0.0
142
1.0
142
0.0
142
0.0
142
0.0
142
0.0
142
1.0
179
     0
144
0.0208333333333333
144
0.0
144
0.0
144
0.0
144
0.0
144
0.0208333333333333
144
0.0
144
0.0
144
0.0
144
0.0
144
1.0
144
0.0
144
0.0
144
0.0
144
0.0
144
1.0
147
0.0208333333333333
147
0.0
147
0.0
147
0.0
147
0.0
147
0.0208333333333333
147
0.0
147
0.0
147
0.0
147
0.0
147
1.0
147
0.0
147
0.0
147
0.0
147
0.0
147
1.0
  0
MATERIAL
  5
15
102
{ACAD_XDICTIONARY
360
16
102
}
102
{ACAD_REACTORS
330
C
102
}
330
C
100
AcDbMaterial
  1
ByLayer
 72
     0
 43
0.0208333333333333
 43
0.0
 43
0.0
 43
0.0
 43
0.0
 43
0.0208333333333333
 43
0.0
 43
0.0
 43
0.0
 43
0.0
 43
1.0
 43
0.0
 43
0.0
 43
0.0
 43
0.0
 43
1.0
 77
     0
 47
0.0208333333333333
 47
0.0
 47
0.0
 47
0.0
 47
0.0
 47
0.0208333333333333
 47
0.0
 47
0.0
 47
0.0
 47
0.0
 47
1.0
 47
0.0
 47
0.0
 47
0.0
 47
0.0
 47
1.0
171
     0
 49
0.0208333333333333
 49
0.0
 49
0.0
 49
0.0
 49
0.0
 49
0.0208333333333333
 49
0.0
 49
0.0
 49
0.0
 49
0.0
 49
1.0
 49
0.0
 49
0.0
 49
0.0
 49
0.0
 49
1.0
175
     0
142
0.0208333333333333
142
0.0
142
0.0
142
0.0
142
0.0
142
0.0208333333333333
142
0.0
142
0.0
142
0.0
142
0.0
142
1.0
142
0.0
142
0.0
142
0.0
142
0.0
142
1.0
179
     0
144
0.0208333333333333
144
0.0
144
0.0
144
0.0
144
0.0
144
0.0208333333333333
144
0.0
144
0.0
144
0.0
144
0.0
144
1.0
144
0.0
144
0.0
144
0.0
144
0.0
144
1.0
147
0.0208333333333333
147
0.0
147
0.0
147
0.0
147
0.0
147
0.0208333333333333
147
0.0
147
0.0
147
0.0
147
0.0
147
1.0
147
0.0
147
0.0
147
0.0
147
0.0
147
1.0
  0
MATERIAL
  5
B
102
{ACAD_XDICTIONARY
360
D
102
}
102
{ACAD_REACTORS
330
C
102
}
330
C
100
AcDbMaterial
  1
Global
 72
     0
 43
0.0208333333333333
 43
0.0
 43
0.0
 43
0.0
 43
0.0
 43
0.0208333333333333
 43
0.0
 43
0.0
 43
0.0
 43
0.0
 43
1.0
 43
0.0
 43
0.0
 43
0.0
 43
0.0
 43
1.0
 77
     0
 47
0.0208333333333333
 47
0.0
 47
0.0
 47
0.0
 47
0.0
 47
0.0208333333333333
 47
0.0
 47
0.0
 47
0.0
 47
0.0
 47
1.0
 47
0.0
 47
0.0
 47
0.0
 47
0.0
 47
1.0
171
     0
 49
0.0208333333333333
 49
0.0
 49
0.0
 49
0.0
 49
0.0
 49
0.0208333333333333
 49
0.0
 49
0.0
 49
0.0
 49
0.0
 49
1.0
 49
0.0
 49
0.0
 49
0.0
 49
0.0
 49
1.0
175
     0
142
0.0208333333333333
142
0.0
142
0.0
142
0.0
142
0.0
142
0.0208333333333333
142
0.0
142
0.0
142
0.0
142
0.0
142
1.0
142
0.0
142
0.0
142
0.0
142
0.0
142
1.0
179
     0
144
0.0208333333333333
144
0.0
144
0.0
144
0.0
144
0.0
144
0.0208333333333333
144
0.0
144
0.0
144
0.0
144
0.0
144
1.0
144
0.0
144
0.0
144
0.0
144
0.0
144
1.0
147
0.0208333333333333
147
0.0
147
0.0
147
0.0
147
0.0
147
0.0208333333333333
147
0.0
147
0.0
147
0.0
147
0.0
147
1.0
147
0.0
147
0.0
147
0.0
147
0.0
147
1.0
  0
MLINESTYLE
  5
4C
102
{ACAD_REACTORS
330
3D
102
}
330
3D
100
AcDbMlineStyle
  2
STANDARD
 70
     0
  3

 62
   256
 51
90.0
 52
90.0
 71
     2
 49
0.5
 62
   256
  6
BYLAYER
 49
-0.5
 62
   256
  6
BYLAYER
  0
ACDBPLACEHOLDER
  5
7
102
{ACAD_REACTORS
330
8
102
}
330
8
  0
SCALE
  5
50
102
{ACAD_REACTORS
330
48
102
}
330
48
100
AcDbScale
 70
     0
300
1:1
140
1.0
141
1.0
290
     1
  0
SCALE
  5
51
102
{ACAD_REACTORS
330
48
102
}
330
48
100
AcDbScale
 70
     0
300
1/128" = 1'-0"
140
0.0078125
141
12.0
290
     0
  0
SCALE
  5
52
102
{ACAD_REACTORS
330
48
102
}
330
48
100
AcDbScale
 70
     0
300
1/64" = 1'-0"
140
0.015625
141
12.0
290
     0
  0
SCALE
  5
53
102
{ACAD_REACTORS
330
48
102
}
330
48
100
AcDbScale
 70
     0
300
1/32" = 1'-0"
140
0.03125
141
12.0
290
     0
  0
SCALE
  5
54
102
{ACAD_REACTORS
330
48
102
}
330
48
100
AcDbScale
 70
     0
300
1/16" = 1'-0"
140
0.0625
141
12.0
290
     0
  0
SCALE
  5
55
102
{ACAD_REACTORS
330
48
102
}
330
48
100
AcDbScale
 70
     0
300
3/32" = 1'-0"
140
0.09375
141
12.0
290
     0
  0
SCALE
  5
56
102
{ACAD_REACTORS
330
48
102
}
330
48
100
AcDbScale
 70
     0
300
1/8" = 1'-0"
140
0.125
141
12.0
290
     0
  0
SCALE
  5
57
102
{ACAD_REACTORS
330
48
102
}
330
48
100
AcDbScale
 70
     0
300
3/16" = 1'-0"
140
0.1875
141
12.0
290
     0
  0
SCALE
  5
58
102
{ACAD_REACTORS
330
48
102
}
330
48
100
AcDbScale
 70
     0
300
1/4" = 1'-0"
140
0.25
141
12.0
290
     0
  0
SCALE
  5
59
102
{ACAD_REACTORS
330
48
102
}
330
48
100
AcDbScale
 70
     0
300
3/8" = 1'-0"
140
0.375
141
12.0
290
     0
  0
SCALE
  5
5A
102
{ACAD_REACTORS
330
48
102
}
330
48
100
AcDbScale
 70
     0
300
1/2" = 1'-0"
140
0.5
141
12.0
290
     0
  0
SCALE
  5
5B
102
{ACAD_REACTORS
330
48
102
}
330
48
100
AcDbScale
 70
     0
300
3/4" = 1'-0"
140
0.75
141
12.0
290
     0
  0
SCALE
  5
5C
102
{ACAD_REACTORS
330
48
102
}
330
48
100
AcDbScale
 70
     0
300
1" = 1'-0"
140
1.0
141
12.0
290
     0
  0
SCALE
  5
5D
102
{ACAD_REACTORS
330
48
102
}
330
48
100
AcDbScale
 70
     0
300
1-1/2" = 1'-0"
140
1.5
141
12.0
290
     0
  0
SCALE
  5
5E
102
{ACAD_REACTORS
330
48
102
}
330
48
100
AcDbScale
 70
     0
300
3" = 1'-0"
140
3.0
141
12.0
290
     0
  0
SCALE
  5
5F
102
{ACAD_REACTORS
330
48
102
}
330
48
100
AcDbScale
 70
     0
300
6" = 1'-0"
140
6.0
141
12.0
290
     0
  0
SCALE
  5
60
102
{ACAD_REACTORS
330
48
102
}
330
48
100
AcDbScale
 70
     0
300
1'-0" = 1'-0"
140
12.0
141
12.0
290
     0
  0
TABLESTYLE
  5
4D
102
{ACAD_XDICTIONARY
360
4E3
102
}
102
{ACAD_REACTORS
330
49
102
}
330
49
100
AcDbTableStyle
  3
Standard
 70
     0
 71
     0
 40
0.06
 41
0.06
280
     0
281
     0
  7
STANDARD
140
0.18
170
     2
 62
     0
 63
     7
283
     0
274
    -2
284
     1
 64
     0
275
    -2
285
     1
 65
     0
276
    -2
286
     1
 66
     0
277
    -2
287
     1
 67
     0
278
    -2
288
     1
 68
     0
279
    -2
289
     1
 69
     0
  7
STANDARD
140
0.25
170
     5
 62
     0
 63
     7
283
     0
274
    -2
284
     1
 64
     0
275
    -2
285
     1
 65
     0
276
    -2
286
     1
 66
     0
277
    -2
287
     1
 67
     0
278
    -2
288
     1
 68
     0
279
    -2
289
     1
 69
     0
  7
STANDARD
140
0.18
170
     5
 62
     0
 63
     7
283
     0
274
    -2
284
     1
 64
     0
275
    -2
285
     1
 65
     0
276
    -2
286
     1
 66
     0
277
    -2
287
     1
 67
     0
278
    -2
288
     1
 68
     0
279
    -2
289
     1
 69
     0
  0
VISUALSTYLE
  5
31
102
{ACAD_XDICTIONARY
360
4EC
102
}
102
{ACAD_REACTORS
330
32
102
}
330
32
100
AcDbVisualStyle
  2
2dWireframe
 70
     4
 71
     0
 72
     2
 73
     0
 90
        0
 40
-0.6
 41
-30.0
 62
     5
 63
     7
 74
     1
 91
        4
 64
     7
 65
   257
 75
     1
175
     1
 42
1.0
 92
        0
 66
   257
 43
1.0
 76
     1
 77
     6
 78
     2
 67
     7
 79
     5
170
     0
171
     0
290
     0
174
     0
 93
        1
 44
0.0
173
     0
291
     0
 45
0.0
1001
ACAD
1000
AcDbSavedByObjectVersion
1070
     0
  0
VISUALSTYLE
  5
4E
102
{ACAD_XDICTIONARY
360
4F0
102
}
102
{ACAD_REACTORS
330
32
102
}
330
32
100
AcDbVisualStyle
  2
Realistic
 70
     8
 71
     2
 72
     3
 73
     0
 90
        2
 40
-0.6
 41
30.0
 62
     5
 63
     7
 74
     0
 91
        0
 64
     7
 65
   257
 75
     1
175
     1
 42
1.0
 92
        8
 66
   257
 43
1.0
 76
     1
 77
     6
 78
     2
 67
     7
 79
     3
170
     0
171
     0
290
     0
174
     0
 93
       13
 44
0.0
173
     0
291
     0
 45
0.0
1001
ACAD
1000
AcDbSavedByObjectVersion
1070
     0
  0
VISUALSTYLE
  5
4F
102
{ACAD_XDICTIONARY
360
4F2
102
}
102
{ACAD_REACTORS
330
32
102
}
330
32
100
AcDbVisualStyle
  2
Wireframe
 70
     5
 71
     0
 72
     2
 73
     0
 90
        0
 40
-0.6
 41
-30.0
 62
     5
 63
     7
 74
     1
 91
        4
 64
     7
 65
   257
 75
     1
175
     1
 42
1.0
 92
        0
 66
   257
 43
1.0
 76
     1
 77
     6
 78
     2
 67
     7
 79
     3
170
     0
171
     0
290
     0
174
     0
 93
        1
 44
0.0
173
     0
291
     0
 45
0.0
1001
ACAD
1000
AcDbSavedByObjectVersion
1070
     0
  0
DICTIONARYVAR
  5
4DD
102
{ACAD_REACTORS
330
4D8
102
}
330
4D8
100
DictionaryVariables
280
     0
  1
1:1
  0
DICTIONARYVAR
  5
4DA
102
{ACAD_REACTORS
330
4D8
102
}
330
4D8
100
DictionaryVariables
280
     0
  1
STANDARD
  0
DICTIONARYVAR
  5
4D9
102
{ACAD_REACTORS
330
4D8
102
}
330
4D8
100
DictionaryVariables
280
     0
  1
STANDARD
  0
DICTIONARYVAR
  5
4DB
102
{ACAD_REACTORS
330
4D8
102
}
330
4D8
100
DictionaryVariables
280
     0
  1

  0
DICTIONARYVAR
  5
4DC
102
{ACAD_REACTORS
330
4D8
102
}
330
4D8
100
DictionaryVariables
280
     0
  1

  0
DICTIONARYVAR
  5
4E1
102
{ACAD_REACTORS
330
4D8
102
}
330
4D8
100
DictionaryVariables
280
     0
  1
1
  0
DICTIONARYVAR
  5
4E0
102
{ACAD_REACTORS
330
4D8
102
}
330
4D8
100
DictionaryVariables
280
     0
  1
1
  0
DICTIONARYVAR
  5
4DF
102
{ACAD_REACTORS
330
4D8
102
}
330
4D8
100
DictionaryVariables
280
     0
  1
0
  0
DICTIONARYVAR
  5
4DE
102
{ACAD_REACTORS
330
4D8
102
}
330
4D8
100
DictionaryVariables
280
     0
  1
127
  0
DICTIONARYVAR
  5
4E2
102
{ACAD_REACTORS
330
4D8
102
}
330
4D8
100
DictionaryVariables
280
     0
  1
2
  0
DICTIONARY
  5
4E8
330
1E
100
AcDbDictionary
280
     1
281
     1
  3
ACAD_XREC_ROUNDTRIP
360
4E9
  0
DICTIONARY
  5
4EA
330
25
100
AcDbDictionary
280
     1
281
     1
  3
ACAD_XREC_ROUNDTRIP
360
4EB
  0
DICTIONARY
  5
40
330
3F
100
AcDbDictionary
280
     1
281
     1
  3
ACAD_XREC_ROUNDTRIP
360
4EE
  3
BUMPTILE
360
41
  3
DIFFUSETILE
360
42
  3
OPACITYTILE
360
43
  3
REFLECTIONTILE
360
44
  3
REFRACTIONTILE
360
45
  3
SPECULARTILE
360
46
  0
DICTIONARY
  5
16
330
15
100
AcDbDictionary
280
     1
281
     1
  3
ACAD_XREC_ROUNDTRIP
360
4E7
  3
BUMPTILE
360
17
  3
DIFFUSETILE
360
18
  3
OPACITYTILE
360
19
  3
REFLECTIONTILE
360
1A
  3
REFRACTIONTILE
360
1B
  3
SPECULARTILE
360
1C
  0
DICTIONARY
  5
D
330
B
100
AcDbDictionary
280
     1
281
     1
  3
ACAD_XREC_ROUNDTRIP
360
4E6
  3
BUMPTILE
360
E
  3
DIFFUSETILE
360
F
  3
OPACITYTILE
360
10
  3
REFLECTIONTILE
360
11
  3
REFRACTIONTILE
360
12
  3
SPECULARTILE
360
13
  0
DICTIONARY
  5
4E3
330
4D
100
AcDbDictionary
280
     1
281
     1
  3
ACAD_ROUNDTRIP_2008_TABLESTYLE_CELLSTYLEMAP
360
4E4
  3
ACAD_XREC_ROUNDTRIP
360
4EF
  0
DICTIONARY
  5
4EC
330
31
100
AcDbDictionary
280
     1
281
     1
  3
ACAD_XREC_ROUNDTRIP
360
4ED
  0
DICTIONARY
  5
4F0
330
4E
100
AcDbDictionary
280
     1
281
     1
  3
ACAD_XREC_ROUNDTRIP
360
4F1
  0
DICTIONARY
  5
4F2
330
4F
100
AcDbDictionary
280
     1
281
     1
  3
ACAD_XREC_ROUNDTRIP
360
4F3
  0
XRECORD
  5
4E9
102
{ACAD_REACTORS
330
4E8
102
}
330
4E8
100
AcDbXrecord
280
     1
102
SHADEPLOT
 70
     0
102
SHADEPLOTRESLEVEL
 70
     2
102
SHADEPLOTCUSTOMDPI
 70
   300
  0
XRECORD
  5
4EB
102
{ACAD_REACTORS
330
4EA
102
}
330
4EA
100
AcDbXrecord
280
     1
102
SHADEPLOT
 70
     0
102
SHADEPLOTRESLEVEL
 70
     2
102
SHADEPLOTCUSTOMDPI
 70
   300
  0
XRECORD
  5
4EE
102
{ACAD_REACTORS
330
40
102
}
330
40
100
AcDbXrecord
280
     1
102
MATERIAL
148
0.0
149
0.0
149
0.0
 93
        0
 94
      127
282
     0
 72
     0
 77
     0
171
     0
175
     0
179
     0
273
     0
  0
XRECORD
  5
41
102
{ACAD_REACTORS
330
40
102
}
330
40
100
AcDbXrecord
280
     1
270
     1
271
     1
  0
XRECORD
  5
42
102
{ACAD_REACTORS
330
40
102
}
330
40
100
AcDbXrecord
280
     1
270
     1
271
     1
  0
XRECORD
  5
43
102
{ACAD_REACTORS
330
40
102
}
330
40
100
AcDbXrecord
280
     1
270
     1
271
     1
  0
XRECORD
  5
44
102
{ACAD_REACTORS
330
40
102
}
330
40
100
AcDbXrecord
280
     1
270
     1
271
     1
  0
XRECORD
  5
45
102
{ACAD_REACTORS
330
40
102
}
330
40
100
AcDbXrecord
280
     1
270
     1
271
     1
  0
XRECORD
  5
46
102
{ACAD_REACTORS
330
40
102
}
330
40
100
AcDbXrecord
280
     1
270
     1
271
     1
  0
XRECORD
  5
4E7
102
{ACAD_REACTORS
330
16
102
}
330
16
100
AcDbXrecord
280
     1
102
MATERIAL
148
0.0
149
0.0
149
0.0
 93
        0
 94
      127
282
     0
 72
     0
 77
     0
171
     0
175
     0
179
     0
273
     0
  0
XRECORD
  5
17
102
{ACAD_REACTORS
330
16
102
}
330
16
100
AcDbXrecord
280
     1
270
     1
271
     1
  0
XRECORD
  5
18
102
{ACAD_REACTORS
330
16
102
}
330
16
100
AcDbXrecord
280
     1
270
     1
271
     1
  0
XRECORD
  5
19
102
{ACAD_REACTORS
330
16
102
}
330
16
100
AcDbXrecord
280
     1
270
     1
271
     1
  0
XRECORD
  5
1A
102
{ACAD_REACTORS
330
16
102
}
330
16
100
AcDbXrecord
280
     1
270
     1
271
     1
  0
XRECORD
  5
1B
102
{ACAD_REACTORS
330
16
102
}
330
16
100
AcDbXrecord
280
     1
270
     1
271
     1
  0
XRECORD
  5
1C
102
{ACAD_REACTORS
330
16
102
}
330
16
100
AcDbXrecord
280
     1
270
     1
271
     1
  0
XRECORD
  5
4E6
102
{ACAD_REACTORS
330
D
102
}
330
D
100
AcDbXrecord
280
     1
102
MATERIAL
148
0.0
149
0.0
149
0.0
 93
        0
 94
      127
282
     0
 72
     0
 77
     0
171
     0
175
     0
179
     0
273
     0
  0
XRECORD
  5
E
102
{ACAD_REACTORS
330
D
102
}
330
D
100
AcDbXrecord
280
     1
270
     1
271
     1
  0
XRECORD
  5
F
102
{ACAD_REACTORS
330
D
102
}
330
D
100
AcDbXrecord
280
     1
270
     1
271
     1
  0
XRECORD
  5
10
102
{ACAD_REACTORS
330
D
102
}
330
D
100
AcDbXrecord
280
     1
270
     1
271
     1
  0
XRECORD
  5
11
102
{ACAD_REACTORS
330
D
102
}
330
D
100
AcDbXrecord
280
     1
270
     1
271
     1
  0
XRECORD
  5
12
102
{ACAD_REACTORS
330
D
102
}
330
D
100
AcDbXrecord
280
     1
270
     1
271
     1
  0
XRECORD
  5
13
102
{ACAD_REACTORS
330
D
102
}
330
D
100
AcDbXrecord
280
     1
270
     1
271
     1
  0
CELLSTYLEMAP
  5
4E4
102
{ACAD_REACTORS
330
4E3
102
}
330
4E3
100
AcDbCellStyleMap
 90
        3
300
CELLSTYLE
  1
TABLEFORMAT_BEGIN
 90
        5
170
     1
 91
        0
 92
    32768
 62
   257
 93
        1
300
CONTENTFORMAT
  1
CONTENTFORMAT_BEGIN
 90
        0
 91
        0
 92
        4
 93
        0
300

 40
0.0
140
1.0
 94
        5
 62
     0
340
28
144
0.25
309
CONTENTFORMAT_END
171
     0
 94
        6
 95
        1
302
GRIDFORMAT
  1
GRIDFORMAT_BEGIN
 90
        0
 91
        1
 62
     0
 92
       -2
340
0
 93
        0
 40
0.045
309
GRIDFORMAT_END
 95
        2
302
GRIDFORMAT
  1
GRIDFORMAT_BEGIN
 90
        0
 91
        1
 62
     0
 92
       -2
340
0
 93
        0
 40
0.045
309
GRIDFORMAT_END
 95
        4
302
GRIDFORMAT
  1
GRIDFORMAT_BEGIN
 90
        0
 91
        1
 62
     0
 92
       -2
340
0
 93
        0
 40
0.045
309
GRIDFORMAT_END
 95
        8
302
GRIDFORMAT
  1
GRIDFORMAT_BEGIN
 90
        0
 91
        1
 62
     0
 92
       -2
340
0
 93
        0
 40
0.045
309
GRIDFORMAT_END
 95
       16
302
GRIDFORMAT
  1
GRIDFORMAT_BEGIN
 90
        0
 91
        1
 62
     0
 92
       -2
340
0
 93
        0
 40
0.045
309
GRIDFORMAT_END
 95
       32
302
GRIDFORMAT
  1
GRIDFORMAT_BEGIN
 90
        0
 91
        1
 62
     0
 92
       -2
340
0
 93
        0
 40
0.045
309
GRIDFORMAT_END
309
TABLEFORMAT_END
  1
CELLSTYLE_BEGIN
 90
        1
 91
        1
300
_TITLE
309
CELLSTYLE_END
300
CELLSTYLE
  1
TABLEFORMAT_BEGIN
 90
        5
170
     1
 91
        0
 92
        0
 62
   257
 93
        1
300
CONTENTFORMAT
  1
CONTENTFORMAT_BEGIN
 90
        0
 91
        0
 92
        4
 93
        0
300

 40
0.0
140
1.0
 94
        5
 62
     0
340
28
144
0.18
309
CONTENTFORMAT_END
171
     0
 94
        6
 95
        1
302
GRIDFORMAT
  1
GRIDFORMAT_BEGIN
 90
        0
 91
        1
 62
     0
 92
       -2
340
0
 93
        0
 40
0.045
309
GRIDFORMAT_END
 95
        2
302
GRIDFORMAT
  1
GRIDFORMAT_BEGIN
 90
        0
 91
        1
 62
     0
 92
       -2
340
0
 93
        0
 40
0.045
309
GRIDFORMAT_END
 95
        4
302
GRIDFORMAT
  1
GRIDFORMAT_BEGIN
 90
        0
 91
        1
 62
     0
 92
       -2
340
0
 93
        0
 40
0.045
309
GRIDFORMAT_END
 95
        8
302
GRIDFORMAT
  1
GRIDFORMAT_BEGIN
 90
        0
 91
        1
 62
     0
 92
       -2
340
0
 93
        0
 40
0.045
309
GRIDFORMAT_END
 95
       16
302
GRIDFORMAT
  1
GRIDFORMAT_BEGIN
 90
        0
 91
        1
 62
     0
 92
       -2
340
0
 93
        0
 40
0.045
309
GRIDFORMAT_END
 95
       32
302
GRIDFORMAT
  1
GRIDFORMAT_BEGIN
 90
        0
 91
        1
 62
     0
 92
       -2
340
0
 93
        0
 40
0.045
309
GRIDFORMAT_END
309
TABLEFORMAT_END
  1
CELLSTYLE_BEGIN
 90
        2
 91
        1
300
_HEADER
309
CELLSTYLE_END
300
CELLSTYLE
  1
TABLEFORMAT_BEGIN
 90
        5
170
     1
 91
        0
 92
        0
 62
   257
 93
        1
300
CONTENTFORMAT
  1
CONTENTFORMAT_BEGIN
 90
        0
 91
        0
 92
        4
 93
        0
300

 40
0.0
140
1.0
 94
        2
 62
     0
340
28
144
0.18
309
CONTENTFORMAT_END
171
     0
 94
        6
 95
        1
302
GRIDFORMAT
  1
GRIDFORMAT_BEGIN
 90
        0
 91
        1
 62
     0
 92
       -2
340
0
 93
        0
 40
0.045
309
GRIDFORMAT_END
 95
        2
302
GRIDFORMAT
  1
GRIDFORMAT_BEGIN
 90
        0
 91
        1
 62
     0
 92
       -2
340
0
 93
        0
 40
0.045
309
GRIDFORMAT_END
 95
        4
302
GRIDFORMAT
  1
GRIDFORMAT_BEGIN
 90
        0
 91
        1
 62
     0
 92
       -2
340
0
 93
        0
 40
0.045
309
GRIDFORMAT_END
 95
        8
302
GRIDFORMAT
  1
GRIDFORMAT_BEGIN
 90
        0
 91
        1
 62
     0
 92
       -2
340
0
 93
        0
 40
0.045
309
GRIDFORMAT_END
 95
       16
302
GRIDFORMAT
  1
GRIDFORMAT_BEGIN
 90
        0
 91
        1
 62
     0
 92
       -2
340
0
 93
        0
 40
0.045
309
GRIDFORMAT_END
 95
       32
302
GRIDFORMAT
  1
GRIDFORMAT_BEGIN
 90
        0
 91
        1
 62
     0
 92
       -2
340
0
 93
        0
 40
0.045
309
GRIDFORMAT_END
309
TABLEFORMAT_END
  1
CELLSTYLE_BEGIN
 90
        3
 91
        2
300
_DATA
309
CELLSTYLE_END
  0
XRECORD
  5
4EF
102
{ACAD_REACTORS
330
4E3
102
}
330
4E3
100
AcDbXrecord
280
     1
102
ACAD_ROUNDTRIP_PRE2007_TABLESTYLE
 90
        4
 91
        0
  1

 92
        4
 93
        0
  2

 94
        4
 95
        0
  3

  0
XRECORD
  5
4ED
102
{ACAD_REACTORS
330
4EC
102
}
330
4EC
100
AcDbXrecord
280
     1
102
RTVSPost2010Prop28
280
     1
102
RTVSPost2010PropOp28
 70
     1
102
RTVSPost2010Prop29
280
     1
102
RTVSPost2010PropOp29
 70
     1
102
RTVSPost2010Prop30
280
     0
102
RTVSPost2010PropOp30
 70
     1
102
RTVSPost2010Prop31
280
     0
102
RTVSPost2010PropOp31
 70
     1
102
RTVSPost2010Prop32
280
     0
102
RTVSPost2010PropOp32
 70
     1
102
RTVSPost2010Prop33
280
     0
102
RTVSPost2010PropOp33
 70
     1
102
RTVSPost2010Prop34
280
     0
102
RTVSPost2010PropOp34
 70
     1
102
RTVSPost2010Prop35
280
     0
102
RTVSPost2010PropOp35
 70
     1
102
RTVSPost2010Prop36
280
     0
102
RTVSPost2010PropOp36
 70
     1
102
RTVSPost2010Prop37
 90
       50
102
RTVSPost2010PropOp37
 70
     1
102
RTVSPost2010Prop38
140
0.0
102
RTVSPost2010PropOp38
 70
     1
102
RTVSPost2010Prop39
140
1.0
102
RTVSPost2010PropOp39
 70
     1
102
RTVSPost2010Prop40
 90
        0
102
RTVSPost2010PropOp40
 70
     1
102
RTVSPost2010Prop41ColorIndex
 90
       18
102
RTVSPost2010Prop41ColorRGB
 90
        0
102
RTVSPost2010PropOp41
 70
     1
102
RTVSPost2010Prop42
 90
       50
102
RTVSPost2010PropOp42
 70
     1
102
RTVSPost2010Prop43
 90
        3
102
RTVSPost2010PropOp43
 70
     1
102
RTVSPost2010Prop44ColorIndex
 90
        5
102
RTVSPost2010Prop44ColorRGB
 90
      255
102
RTVSPost2010PropOp44
 70
     1
102
RTVSPost2010Prop45
280
     0
102
RTVSPost2010PropOp45
 70
     1
102
RTVSPost2010Prop46
 90
       50
102
RTVSPost2010PropOp46
 70
     1
102
RTVSPost2010Prop47
 90
       50
102
RTVSPost2010PropOp47
 70
     1
102
RTVSPost2010Prop48
 90
       50
102
RTVSPost2010PropOp48
 70
     1
102
RTVSPost2010Prop49
280
     0
102
RTVSPost2010PropOp49
 70
     1
102
RTVSPost2010Prop50
 90
       50
102
RTVSPost2010PropOp50
 70
     1
102
RTVSPost2010Prop51ColorIndex
 90
      256
102
RTVSPost2010Prop51ColorRGB
 90
-16777216
102
RTVSPost2010PropOp51
 70
     0
102
RTVSPost2010Prop52
140
1.0
102
RTVSPost2010PropOp52
 70
     0
102
RTVSPost2010Prop53
 90
        2
102
RTVSPost2010PropOp53
 70
     1
102
RTVSPost2010Prop54
  1
strokes_ogs.tif
102
RTVSPost2010PropOp54
 70
     1
102
RTVSPost2010Prop55
280
     0
102
RTVSPost2010PropOp55
 70
     1
102
RTVSPost2010Prop56
140
1.0
102
RTVSPost2010PropOp56
 70
     1
102
RTVSPost2010Prop57
140
1.0
102
RTVSPost2010PropOp57
 70
     1
102
RTVSPropertyOp0
 70
     1
102
RTVSPropertyOp1
 70
     1
102
RTVSPropertyOp2
 70
     1
102
RTVSPropertyOp3
 70
     1
102
RTVSPropertyOp4
 70
     1
102
RTVSPropertyOp5
 70
     1
102
RTVSPropertyOp6
 70
     1
102
RTVSPropertyOp7
 70
     1
102
RTVSPropertyOp8
 70
     1
102
RTVSPropertyOp9
 70
     1
102
RTVSPropertyOp10
 70
     1
102
RTVSPropertyOp11
 70
     1
102
RTVSPropertyOp12
 70
     1
102
RTVSPropertyOp13
 70
     1
102
RTVSPropertyOp14
 70
     1
102
RTVSPropertyOp15
 70
     1
102
RTVSPropertyOp16
 70
     1
102
RTVSPropertyOp17
 70
     1
102
RTVSPropertyOp18
 70
     1
102
RTVSPropertyOp19
 70
     1
102
RTVSPropertyOp20
 70
     1
102
RTVSPropertyOp21
 70
     1
102
RTVSPropertyOp22
 70
     1
102
RTVSPropertyOp23
 70
     1
102
RTVSPropertyOp24
 70
     1
102
RTVSPropertyOp25
 70
     1
102
RTVSPropertyOp26
 70
     1
102
RTVSPropertyOp27
 70
     1
102
RTVSPropertyOp28
 70
     1
102
RTVSPropertyOp29
 70
     1
102
RTVSPropertyOp30
 70
     1
102
RTVSPropertyOp31
 70
     1
102
RTVSPropertyOp32
 70
     1
102
RTVSPropertyOp33
 70
     1
102
RTVSPropertyOp34
 70
     1
102
RTVSPropertyOp35
 70
     1
102
RTVSPropertyOp36
 70
     1
102
RTVSPropertyOp37
 70
     1
102
RTVSPropertyOp38
 70
     1
102
RTVSPropertyOp39
 70
     1
102
RTVSPropertyOp40
 70
     1
102
RTVSPropertyOp41
 70
     1
102
RTVSPropertyOp42
 70
     1
102
RTVSPropertyOp43
 70
     1
102
RTVSPropertyOp44
 70
     1
102
RTVSPropertyOp45
 70
     1
102
RTVSPropertyOp46
 70
     1
102
RTVSPropertyOp47
 70
     1
102
RTVSPropertyOp48
 70
     1
102
RTVSPropertyOp49
 70
     1
102
RTVSPropertyOp50
 70
     1
102
RTVSPropertyOp51
 70
     0
102
RTVSPropertyOp52
 70
     0
102
RTVSPropertyOp53
 70
     1
102
RTVSPropertyOp54
 70
     1
102
RTVSPropertyOp55
 70
     1
102
RTVSPropertyOp56
 70
     1
102
RTVSPropertyOp57
 70
     1
102
RTVSPropertyOp58
 70
     1
102
RTVSPropertyOp59
 70
     1
102
RTVSPropertyOp60
 70
     1
102
RTVSPropertyOp61
 70
     1
102
RTVSPropertyOp62
 70
     1
  0
XRECORD
  5
4F1
102
{ACAD_REACTORS
330
4F0
102
}
330
4F0
100
AcDbXrecord
280
     1
102
RTVSPost2010Prop28
280
     0
102
RTVSPost2010PropOp28
 70
     1
102
RTVSPost2010Prop29
280
     1
102
RTVSPost2010PropOp29
 70
     1
102
RTVSPost2010Prop30
280
     1
102
RTVSPost2010PropOp30
 70
     1
102
RTVSPost2010Prop31
280
     0
102
RTVSPost2010PropOp31
 70
     1
102
RTVSPost2010Prop32
280
     0
102
RTVSPost2010PropOp32
 70
     1
102
RTVSPost2010Prop33
280
     0
102
RTVSPost2010PropOp33
 70
     1
102
RTVSPost2010Prop34
280
     0
102
RTVSPost2010PropOp34
 70
     1
102
RTVSPost2010Prop35
280
     0
102
RTVSPost2010PropOp35
 70
     1
102
RTVSPost2010Prop36
280
     0
102
RTVSPost2010PropOp36
 70
     1
102
RTVSPost2010Prop37
 90
       50
102
RTVSPost2010PropOp37
 70
     1
102
RTVSPost2010Prop38
140
0.0
102
RTVSPost2010PropOp38
 70
     1
102
RTVSPost2010Prop39
140
1.0
102
RTVSPost2010PropOp39
 70
     1
102
RTVSPost2010Prop40
 90
        0
102
RTVSPost2010PropOp40
 70
     1
102
RTVSPost2010Prop41ColorIndex
 90
       18
102
RTVSPost2010Prop41ColorRGB
 90
        0
102
RTVSPost2010PropOp41
 70
     1
102
RTVSPost2010Prop42
 90
       50
102
RTVSPost2010PropOp42
 70
     1
102
RTVSPost2010Prop43
 90
        3
102
RTVSPost2010PropOp43
 70
     1
102
RTVSPost2010Prop44ColorIndex
 90
        5
102
RTVSPost2010Prop44ColorRGB
 90
      255
102
RTVSPost2010PropOp44
 70
     1
102
RTVSPost2010Prop45
280
     0
102
RTVSPost2010PropOp45
 70
     1
102
RTVSPost2010Prop46
 90
       50
102
RTVSPost2010PropOp46
 70
     1
102
RTVSPost2010Prop47
 90
       50
102
RTVSPost2010PropOp47
 70
     1
102
RTVSPost2010Prop48
 90
       50
102
RTVSPost2010PropOp48
 70
     1
102
RTVSPost2010Prop49
280
     0
102
RTVSPost2010PropOp49
 70
     1
102
RTVSPost2010Prop50
 90
       50
102
RTVSPost2010PropOp50
 70
     1
102
RTVSPost2010Prop51ColorIndex
 90
      256
102
RTVSPost2010Prop51ColorRGB
 90
-16777216
102
RTVSPost2010PropOp51
 70
     0
102
RTVSPost2010Prop52
140
1.0
102
RTVSPost2010PropOp52
 70
     0
102
RTVSPost2010Prop53
 90
        2
102
RTVSPost2010PropOp53
 70
     1
102
RTVSPost2010Prop54
  1
strokes_ogs.tif
102
RTVSPost2010PropOp54
 70
     1
102
RTVSPost2010Prop55
280
     0
102
RTVSPost2010PropOp55
 70
     1
102
RTVSPost2010Prop56
140
1.0
102
RTVSPost2010PropOp56
 70
     1
102
RTVSPost2010Prop57
140
1.0
102
RTVSPost2010PropOp57
 70
     1
102
RTVSPropertyOp0
 70
     1
102
RTVSPropertyOp1
 70
     1
102
RTVSPropertyOp2
 70
     1
102
RTVSPropertyOp3
 70
     1
102
RTVSPropertyOp4
 70
     1
102
RTVSPropertyOp5
 70
     1
102
RTVSPropertyOp6
 70
     1
102
RTVSPropertyOp7
 70
     1
102
RTVSPropertyOp8
 70
     1
102
RTVSPropertyOp9
 70
     1
102
RTVSPropertyOp10
 70
     1
102
RTVSPropertyOp11
 70
     1
102
RTVSPropertyOp12
 70
     1
102
RTVSPropertyOp13
 70
     1
102
RTVSPropertyOp14
 70
     1
102
RTVSPropertyOp15
 70
     1
102
RTVSPropertyOp16
 70
     1
102
RTVSPropertyOp17
 70
     1
102
RTVSPropertyOp18
 70
     1
102
RTVSPropertyOp19
 70
     1
102
RTVSPropertyOp20
 70
     1
102
RTVSPropertyOp21
 70
     1
102
RTVSPropertyOp22
 70
     1
102
RTVSPropertyOp23
 70
     1
102
RTVSPropertyOp24
 70
     1
102
RTVSPropertyOp25
 70
     1
102
RTVSPropertyOp26
 70
     1
102
RTVSPropertyOp27
 70
     1
102
RTVSPropertyOp28
 70
     1
102
RTVSPropertyOp29
 70
     1
102
RTVSPropertyOp30
 70
     1
102
RTVSPropertyOp31
 70
     1
102
RTVSPropertyOp32
 70
     1
102
RTVSPropertyOp33
 70
     1
102
RTVSPropertyOp34
 70
     1
102
RTVSPropertyOp35
 70
     1
102
RTVSPropertyOp36
 70
     1
102
RTVSPropertyOp37
 70
     1
102
RTVSPropertyOp38
 70
     1
102
RTVSPropertyOp39
 70
     1
102
RTVSPropertyOp40
 70
     1
102
RTVSPropertyOp41
 70
     1
102
RTVSPropertyOp42
 70
     1
102
RTVSPropertyOp43
 70
     1
102
RTVSPropertyOp44
 70
     1
102
RTVSPropertyOp45
 70
     1
102
RTVSPropertyOp46
 70
     1
102
RTVSPropertyOp47
 70
     1
102
RTVSPropertyOp48
 70
     1
102
RTVSPropertyOp49
 70
     1
102
RTVSPropertyOp50
 70
     1
102
RTVSPropertyOp51
 70
     0
102
RTVSPropertyOp52
 70
     0
102
RTVSPropertyOp53
 70
     1
102
RTVSPropertyOp54
 70
     1
102
RTVSPropertyOp55
 70
     1
102
RTVSPropertyOp56
 70
     1
102
RTVSPropertyOp57
 70
     1
102
RTVSPropertyOp58
 70
     1
102
RTVSPropertyOp59
 70
     1
102
RTVSPropertyOp60
 70
     1
102
RTVSPropertyOp61
 70
     1
102
RTVSPropertyOp62
 70
     1
  0
XRECORD
  5
4F3
102
{ACAD_REACTORS
330
4F2
102
}
330
4F2
100
AcDbXrecord
280
     1
102
RTVSPost2010Prop28
280
     0
102
RTVSPost2010PropOp28
 70
     1
102
RTVSPost2010Prop29
280
     1
102
RTVSPost2010PropOp29
 70
     1
102
RTVSPost2010Prop30
280
     1
102
RTVSPost2010PropOp30
 70
     1
102
RTVSPost2010Prop31
280
     0
102
RTVSPost2010PropOp31
 70
     1
102
RTVSPost2010Prop32
280
     0
102
RTVSPost2010PropOp32
 70
     1
102
RTVSPost2010Prop33
280
     0
102
RTVSPost2010PropOp33
 70
     1
102
RTVSPost2010Prop34
280
     0
102
RTVSPost2010PropOp34
 70
     1
102
RTVSPost2010Prop35
280
     0
102
RTVSPost2010PropOp35
 70
     1
102
RTVSPost2010Prop36
280
     0
102
RTVSPost2010PropOp36
 70
     1
102
RTVSPost2010Prop37
 90
       50
102
RTVSPost2010PropOp37
 70
     1
102
RTVSPost2010Prop38
140
0.0
102
RTVSPost2010PropOp38
 70
     1
102
RTVSPost2010Prop39
140
1.0
102
RTVSPost2010PropOp39
 70
     1
102
RTVSPost2010Prop40
 90
        0
102
RTVSPost2010PropOp40
 70
     1
102
RTVSPost2010Prop41ColorIndex
 90
       18
102
RTVSPost2010Prop41ColorRGB
 90
        0
102
RTVSPost2010PropOp41
 70
     1
102
RTVSPost2010Prop42
 90
       50
102
RTVSPost2010PropOp42
 70
     1
102
RTVSPost2010Prop43
 90
        3
102
RTVSPost2010PropOp43
 70
     1
102
RTVSPost2010Prop44ColorIndex
 90
        5
102
RTVSPost2010Prop44ColorRGB
 90
      255
102
RTVSPost2010PropOp44
 70
     1
102
RTVSPost2010Prop45
280
     0
102
RTVSPost2010PropOp45
 70
     1
102
RTVSPost2010Prop46
 90
       50
102
RTVSPost2010PropOp46
 70
     1
102
RTVSPost2010Prop47
 90
       50
102
RTVSPost2010PropOp47
 70
     1
102
RTVSPost2010Prop48
 90
       50
102
RTVSPost2010PropOp48
 70
     1
102
RTVSPost2010Prop49
280
     0
102
RTVSPost2010PropOp49
 70
     1
102
RTVSPost2010Prop50
 90
       50
102
RTVSPost2010PropOp50
 70
     1
102
RTVSPost2010Prop51ColorIndex
 90
      256
102
RTVSPost2010Prop51ColorRGB
 90
-16777216
102
RTVSPost2010PropOp51
 70
     0
102
RTVSPost2010Prop52
140
1.0
102
RTVSPost2010PropOp52
 70
     0
102
RTVSPost2010Prop53
 90
        2
102
RTVSPost2010PropOp53
 70
     1
102
RTVSPost2010Prop54
  1
strokes_ogs.tif
102
RTVSPost2010PropOp54
 70
     1
102
RTVSPost2010Prop55
280
     0
102
RTVSPost2010PropOp55
 70
     1
102
RTVSPost2010Prop56
140
1.0
102
RTVSPost2010PropOp56
 70
     1
102
RTVSPost2010Prop57
140
1.0
102
RTVSPost2010PropOp57
 70
     1
102
RTVSPropertyOp0
 70
     1
102
RTVSPropertyOp1
 70
     1
102
RTVSPropertyOp2
 70
     1
102
RTVSPropertyOp3
 70
     1
102
RTVSPropertyOp4
 70
     1
102
RTVSPropertyOp5
 70
     1
102
RTVSPropertyOp6
 70
     1
102
RTVSPropertyOp7
 70
     1
102
RTVSPropertyOp8
 70
     1
102
RTVSPropertyOp9
 70
     1
102
RTVSPropertyOp10
 70
     1
102
RTVSPropertyOp11
 70
     1
102
RTVSPropertyOp12
 70
     1
102
RTVSPropertyOp13
 70
     1
102
RTVSPropertyOp14
 70
     1
102
RTVSPropertyOp15
 70
     1
102
RTVSPropertyOp16
 70
     1
102
RTVSPropertyOp17
 70
     1
102
RTVSPropertyOp18
 70
     1
102
RTVSPropertyOp19
 70
     1
102
RTVSPropertyOp20
 70
     1
102
RTVSPropertyOp21
 70
     1
102
RTVSPropertyOp22
 70
     1
102
RTVSPropertyOp23
 70
     1
102
RTVSPropertyOp24
 70
     1
102
RTVSPropertyOp25
 70
     1
102
RTVSPropertyOp26
 70
     1
102
RTVSPropertyOp27
 70
     1
102
RTVSPropertyOp28
 70
     1
102
RTVSPropertyOp29
 70
     1
102
RTVSPropertyOp30
 70
     1
102
RTVSPropertyOp31
 70
     1
102
RTVSPropertyOp32
 70
     1
102
RTVSPropertyOp33
 70
     1
102
RTVSPropertyOp34
 70
     1
102
RTVSPropertyOp35
 70
     1
102
RTVSPropertyOp36
 70
     1
102
RTVSPropertyOp37
 70
     1
102
RTVSPropertyOp38
 70
     1
102
RTVSPropertyOp39
 70
     1
102
RTVSPropertyOp40
 70
     1
102
RTVSPropertyOp41
 70
     1
102
RTVSPropertyOp42
 70
     1
102
RTVSPropertyOp43
 70
     1
102
RTVSPropertyOp44
 70
     1
102
RTVSPropertyOp45
 70
     1
102
RTVSPropertyOp46
 70
     1
102
RTVSPropertyOp47
 70
     1
102
RTVSPropertyOp48
 70
     1
102
RTVSPropertyOp49
 70
     1
102
RTVSPropertyOp50
 70
     1
102
RTVSPropertyOp51
 70
     0
102
RTVSPropertyOp52
 70
     0
102
RTVSPropertyOp53
 70
     1
102
RTVSPropertyOp54
 70
     1
102
RTVSPropertyOp55
 70
     1
102
RTVSPropertyOp56
 70
     1
102
RTVSPropertyOp57
 70
     1
102
RTVSPropertyOp58
 70
     1
102
RTVSPropertyOp59
 70
     1
102
RTVSPropertyOp60
 70
     1
102
RTVSPropertyOp61
 70
     1
102
RTVSPropertyOp62
 70
     1
  0
ENDSEC
  0
EOF
