  0
SECTION
  2
HEADER
  9
$ACADVER
  1
AC1015
  9
$ACADMAINTVER
 70
    18
  9
$DWGCODEPAGE
  3
ANSI_932
  9
$INSBASE
 10
0.0
 20
0.0
 30
0.0
  9
$EXTMIN
 10
-22.22419494021323
 20
0.0
 30
0.0
  9
$EXTMAX
 10
421.271101386636
 20
156.2158871517167
 30
0.0
  9
$LIMMIN
 10
0.0
 20
0.0
  9
$LIMMAX
 10
420.0
 20
297.0
  9
$ORTHOMODE
 70
     1
  9
$REGENMODE
 70
     1
  9
$FILLMODE
 70
     1
  9
$QTEXTMODE
 70
     0
  9
$MIRRTEXT
 70
     1
  9
$LTSCALE
 40
1.0
  9
$ATTMODE
 70
     1
  9
$TEXTSIZE
 40
30.0
  9
$TRACEWID
 40
0.05
  9
$TEXTSTYLE
  7
SUNPOU
  9
$CLAYER
  8
0
  9
$CELTYPE
  6
BYLAYER
  9
$CECOLOR
 62
     7
  9
$CELTSCALE
 40
1.0
  9
$DISPSILH
 70
     0
  9
$DIMSCALE
 40
1.0
  9
$DIMASZ
 40
3.0
  9
$DIMEXO
 40
2.0
  9
$DIMDLI
 40
0.38
  9
$DIMRND
 40
0.0
  9
$DIMDLE
 40
0.0
  9
$DIMEXE
 40
0.0
  9
$DIMTP
 40
0.0
  9
$DIMTM
 40
0.0
  9
$DIMTXT
 40
7.0
  9
$DIMCEN
 40
1.0
  9
$DIMTSZ
 40
0.0
  9
$DIMTOL
 70
     0
  9
$DIMLIM
 70
     0
  9
$DIMTIH
 70
     0
  9
$DIMTOH
 70
     0
  9
$DIMSE1
 70
     0
  9
$DIMSE2
 70
     0
  9
$DIMTAD
 70
     1
  9
$DIMZIN
 70
     0
  9
$DIMBLK
  1

  9
$DIMASO
 70
     1
  9
$DIMSHO
 70
     1
  9
$DIMPOST
  1

  9
$DIMAPOST
  1

  9
$DIMALT
 70
     0
  9
$DIMALTD
 70
     2
  9
$DIMALTF
 40
25.4
  9
$DIMLFAC
 40
1.0
  9
$DIMTOFL
 70
     0
  9
$DIMTVP
 40
0.0
  9
$DIMTIX
 70
     1
  9
$DIMSOXD
 70
     0
  9
$DIMSAH
 70
     1
  9
$DIMBLK1
  1
DOTSMALL
  9
$DIMBLK2
  1
DOTSMALL
  9
$DIMSTYLE
  2
1
  9
$DIMCLRD
 70
    60
  9
$DIMCLRE
 70
    70
  9
$DIMCLRT
 70
    60
  9
$DIMTFAC
 40
0.0642857142857143
  9
$DIMGAP
 40
1.0
  9
$DIMJUST
 70
     0
  9
$DIMSD1
 70
     0
  9
$DIMSD2
 70
     0
  9
$DIMTOLJ
 70
     1
  9
$DIMTZIN
 70
     0
  9
$DIMALTZ
 70
     0
  9
$DIMALTTZ
 70
     0
  9
$DIMUPT
 70
     0
  9
$DIMDEC
 70
     0
  9
$DIMTDEC
 70
     4
  9
$DIMALTU
 70
     2
  9
$DIMALTTD
 70
     2
  9
$DIMTXSTY
  7
STANDARD
  9
$DIMAUNIT
 70
     0
  9
$DIMADEC
 70
     0
  9
$DIMALTRND
 40
0.0
  9
$DIMAZIN
 70
     0
  9
$DIMDSEP
 70
    46
  9
$DIMATFIT
 70
     3
  9
$DIMFRAC
 70
     0
  9
$DIMLDRBLK
  1
DOTSMALL
  9
$DIMLUNIT
 70
     2
  9
$DIMLWD
 70
    -2
  9
$DIMLWE
 70
    -2
  9
$DIMTMOVE
 70
     0
  9
$LUNITS
 70
     4
  9
$LUPREC
 70
     4
  9
$SKETCHINC
 40
0.1
  9
$FILLETRAD
 40
3.0
  9
$AUNITS
 70
     0
  9
$AUPREC
 70
     2
  9
$MENU
  1
acad
  9
$ELEVATION
 40
0.0
  9
$PELEVATION
 40
0.0
  9
$THICKNESS
 40
0.0
  9
$LIMCHECK
 70
     0
  9
$CHAMFERA
 40
0.0
  9
$CHAMFERB
 40
0.0
  9
$CHAMFERC
 40
0.0
  9
$CHAMFERD
 40
0.0
  9
$SKPOLY
 70
     0
  9
$TDCREATE
 40
2450623.676023380
  9
$TDUCREATE
 40
2450623.301023380
  9
$TDUPDATE
 40
2453882.373003854
  9
$TDUUPDATE
 40
2453881.998003854
  9
$TDINDWG
 40
5.3825747106
  9
$TDUSRTIMER
 40
5.3825745139
  9
$USRTIMER
 70
     1
  9
$ANGBASE
 50
0.0
  9
$ANGDIR
 70
     0
  9
$PDMODE
 70
     0
  9
$PDSIZE
 40
0.0
  9
$PLINEWID
 40
0.0
  9
$SPLFRAME
 70
     0
  9
$SPLINETYPE
 70
     6
  9
$SPLINESEGS
 70
     8
  9
$HANDSEED
  5
3D2
  9
$SURFTAB1
 70
     6
  9
$SURFTAB2
 70
     6
  9
$SURFTYPE
 70
     6
  9
$SURFU
 70
     6
  9
$SURFV
 70
     6
  9
$UCSBASE
  2

  9
$UCSNAME
  2

  9
$UCSORG
 10
0.0
 20
0.0
 30
0.0
  9
$UCSXDIR
 10
1.0
 20
0.0
 30
0.0
  9
$UCSYDIR
 10
0.0
 20
1.0
 30
0.0
  9
$UCSORTHOREF
  2

  9
$UCSORTHOVIEW
 70
     0
  9
$UCSORGTOP
 10
0.0
 20
0.0
 30
0.0
  9
$UCSORGBOTTOM
 10
0.0
 20
0.0
 30
0.0
  9
$UCSORGLEFT
 10
0.0
 20
0.0
 30
0.0
  9
$UCSORGRIGHT
 10
0.0
 20
0.0
 30
0.0
  9
$UCSORGFRONT
 10
0.0
 20
0.0
 30
0.0
  9
$UCSORGBACK
 10
0.0
 20
0.0
 30
0.0
  9
$PUCSBASE
  2

  9
$PUCSNAME
  2

  9
$PUCSORG
 10
0.0
 20
0.0
 30
0.0
  9
$PUCSXDIR
 10
1.0
 20
0.0
 30
0.0
  9
$PUCSYDIR
 10
0.0
 20
1.0
 30
0.0
  9
$PUCSORTHOREF
  2

  9
$PUCSORTHOVIEW
 70
     0
  9
$PUCSORGTOP
 10
0.0
 20
0.0
 30
0.0
  9
$PUCSORGBOTTOM
 10
0.0
 20
0.0
 30
0.0
  9
$PUCSORGLEFT
 10
0.0
 20
0.0
 30
0.0
  9
$PUCSORGRIGHT
 10
0.0
 20
0.0
 30
0.0
  9
$PUCSORGFRONT
 10
0.0
 20
0.0
 30
0.0
  9
$PUCSORGBACK
 10
0.0
 20
0.0
 30
0.0
  9
$USERI1
 70
     0
  9
$USERI2
 70
     0
  9
$USERI3
 70
     0
  9
$USERI4
 70
     0
  9
$USERI5
 70
     0
  9
$USERR1
 40
0.0
  9
$USERR2
 40
0.0
  9
$USERR3
 40
0.0
  9
$USERR4
 40
0.0
  9
$USERR5
 40
0.0
  9
$WORLDVIEW
 70
     1
  9
$SHADEDGE
 70
     3
  9
$SHADEDIF
 70
    70
  9
$TILEMODE
 70
     1
  9
$MAXACTVP
 70
    16
  9
$PINSBASE
 10
0.0
 20
0.0
 30
0.0
  9
$PLIMCHECK
 70
     0
  9
$PEXTMIN
 10
1.000000000000000E+20
 20
1.000000000000000E+20
 30
1.000000000000000E+20
  9
$PEXTMAX
 10
-1.000000000000000E+20
 20
-1.000000000000000E+20
 30
-1.000000000000000E+20
  9
$PLIMMIN
 10
0.0
 20
0.0
  9
$PLIMMAX
 10
12.0
 20
9.0
  9
$UNITMODE
 70
     0
  9
$VISRETAIN
 70
     0
  9
$PLINEGEN
 70
     0
  9
$PSLTSCALE
 70
     1
  9
$TREEDEPTH
 70
  3020
  9
$CMLSTYLE
  2
STANDARD
  9
$CMLJUST
 70
     0
  9
$CMLSCALE
 40
1.0
  9
$PROXYGRAPHICS
 70
     1
  9
$MEASUREMENT
 70
     0
  9
$CELWEIGHT
370
    -1
  9
$ENDCAPS
280
     0
  9
$JOINSTYLE
280
     0
  9
$LWDISPLAY
290
     0
  9
$INSUNITS
 70
     0
  9
$HYPERLINKBASE
  1

  9
$STYLESHEET
  1

  9
$XEDIT
290
     1
  9
$CEPSNTYPE
380
     0
  9
$PSTYLEMODE
290
     1
  9
$FINGERPRINTGUID
  2
{9B0DFAE5-E541-4730-85AB-90B8F8F94889}
  9
$VERSIONGUID
  2
{9808E049-DA17-4841-A3E8-06D2B3D160F3}
  9
$EXTNAMES
290
     1
  9
$PSVPSCALE
 40
0.0
  9
$OLESTARTUP
290
     0
  0
ENDSEC
  0
SECTION
  2
CLASSES
  0
CLASS
  1
DICTIONARYVAR
  2
AcDbDictionaryVar
  3
ObjectDBX Classes
 90
        0
280
     0
281
     0
  0
CLASS
  1
RASTERVARIABLES
  2
AcDbRasterVariables
  3
ISM
 90
    32768
280
     0
281
     0
  0
CLASS
  1
ACDBDICTIONARYWDFLT
  2
AcDbDictionaryWithDefault
  3
ObjectDBX Classes
 90
        0
280
     0
281
     0
  0
CLASS
  1
ACDBPLACEHOLDER
  2
AcDbPlaceHolder
  3
ObjectDBX Classes
 90
        0
280
     0
281
     0
  0
CLASS
  1
LAYOUT
  2
AcDbLayout
  3
ObjectDBX Classes
 90
        0
280
     0
281
     0
  0
CLASS
  1
AEC_VARS_DWG_SETUP
  2
AecDbVarsDwgSetup
  3
AecBase
 90
    32897
280
     1
281
     0
  0
CLASS
  1
AEC_DISP_REP_MASS_ELEM_MODEL
  2
AecDbDispRepMassElemModel
  3
AecBase
 90
    32897
280
     1
281
     0
  0
CLASS
  1
AEC_DISP_PROPS_MASS_ELEM_MODEL
  2
AecDbDispPropsMassElem
  3
AecBase
 90
    32897
280
     1
281
     0
  0
CLASS
  1
AEC_DISP_REP_MASS_ELEM_SCHEM
  2
AecDbDispRepMassElemSchem
  3
AecBase
 90
    32897
280
     1
281
     0
  0
CLASS
  1
AEC_DISP_REP_DOOR_ELEV
  2
AecDbDispRepDoorElev
  3
AecArchBase
 90
    32897
280
     1
281
     0
  0
CLASS
  1
AEC_DISP_PROPS_DOOR
  2
AecDbDispPropsDoor
  3
AecArchBase
 90
    32897
280
     1
281
     0
  0
CLASS
  1
AEC_DISP_REP_MASKBLOCK_REF
  2
AecDbDispRepMaskBlockRef
  3
AecBase
 90
    32897
280
     1
281
     0
  0
CLASS
  1
AEC_DISP_PROPS_MASKBLOCK
  2
AecDbDispPropsMaskBlock
  3
AecBase
 90
    32897
280
     1
281
     0
  0
CLASS
  1
AEC_DISP_REP_LAYOUT_GRID3D
  2
AecDbDispRepLayoutGrid3d
  3
AecBase
 90
    32897
280
     1
281
     0
  0
CLASS
  1
AEC_DISP_PROPS_LAYOUT_GRID3D
  2
AecDbDispPropsLayoutGrid3d
  3
AecBase
 90
    32897
280
     1
281
     0
  0
CLASS
  1
AEC_DISP_REP_ENT_REF
  2
AecDbDispRepEntRef
  3
AecBase
 90
    32897
280
     1
281
     0
  0
CLASS
  1
AEC_DISP_PROPS_ENT_REF
  2
AecDbDispPropsEntRef
  3
AecBase
 90
    32897
280
     1
281
     0
  0
CLASS
  1
AEC_DISP_REP_CLIP_VOLUME_RESULT_SUBDIV
  2
AecDbDispRepClipVolResSubDiv
  3
AecBase
 90
    32897
280
     1
281
     0
  0
CLASS
  1
AEC_DISP_PROPS_CLIP_VOLUME_RESULT
  2
AecDbDispPropsClipVolResSubDiv
  3
AecBase
 90
    32897
280
     1
281
     0
  0
CLASS
  1
AEC_DISP_REP_CLIP_VOLUME_RESULT
  2
AecDbDispRepClipVolResult
  3
AecBase
 90
    32897
280
     1
281
     0
  0
CLASS
  1
AEC_DISP_REP_CLIP_VOLUME_PLAN
  2
AecDbDispRepClipVolPlan
  3
AecBase
 90
    32897
280
     1
281
     0
  0
CLASS
  1
AEC_DISP_PROPS_CLIP_VOLUME
  2
AecDbDispPropsClipVol
  3
AecBase
 90
    32897
280
     1
281
     0
  0
CLASS
  1
AEC_DISP_REP_CLIP_VOLUME_MODEL
  2
AecDbDispRepClipVolModel
  3
AecBase
 90
    32897
280
     1
281
     0
  0
CLASS
  1
AEC_DISP_REP_ANCHOR_ENT_TO_NODE
  2
AecDbDispRepAnchorEntToNode
  3
AecBase
 90
    32897
280
     1
281
     0
  0
CLASS
  1
AEC_DISP_PROPS_ENT
  2
AecDbDispPropsEnt
  3
AecBase
 90
    32897
280
     1
281
     0
  0
CLASS
  1
AEC_DISP_REP_LAYOUT_GRID2D
  2
AecDbDispRepLayoutGrid2d
  3
AecBase
 90
    32897
280
     1
281
     0
  0
CLASS
  1
AEC_DISP_PROPS_LAYOUT_GRID2D
  2
AecDbDispPropsLayoutGrid2d
  3
AecBase
 90
    32897
280
     1
281
     0
  0
CLASS
  1
AEC_DISP_REP_LAYOUT_CURVE
  2
AecDbDispRepLayoutCurve
  3
AecBase
 90
    32897
280
     1
281
     0
  0
CLASS
  1
AEC_DISP_PROPS_LAYOUT_CURVE
  2
AecDbDispPropsLayoutCurve
  3
AecBase
 90
    32897
280
     1
281
     0
  0
CLASS
  1
AEC_DISP_REP_ANCHOR
  2
AecDbDispRepAnchor
  3
AecBase
 90
    32897
280
     1
281
     0
  0
CLASS
  1
AEC_DISP_REP_CAMERA
  2
AecDbDispRepCamera
  3
AecBase
 90
    32897
280
     1
281
     0
  0
CLASS
  1
AEC_DISP_PROPS_CAMERA
  2
AecDbDispPropsCamera
  3
AecBase
 90
    32897
280
     1
281
     0
  0
CLASS
  1
AEC_DISP_REP_SLICE
  2
AecDbDispRepSlice
  3
AecBase
 90
    32897
280
     1
281
     0
  0
CLASS
  1
AEC_DISP_PROPS_SLICE
  2
AecDbDispPropsSlice
  3
AecBase
 90
    32897
280
     1
281
     0
  0
CLASS
  1
AEC_DISP_REP_MVBLOCK_REF
  2
AecDbDispRepMvBlockRef
  3
AecBase
 90
    32897
280
     1
281
     0
  0
CLASS
  1
AEC_DISP_REP_MVBLOCK_REF_MODEL
  2
AecDbDispRepMvBlockRefModel
  3
AecBase
 90
    32897
280
     1
281
     0
  0
CLASS
  1
AEC_DISP_REP_MASS_GROUP_MODEL
  2
AecDbDispRepMassGroupModel
  3
AecBase
 90
    32897
280
     1
281
     0
  0
CLASS
  1
AEC_DISP_PROPS_MASS_GROUP
  2
AecDbDispPropsMassGroup
  3
AecBase
 90
    32897
280
     1
281
     0
  0
CLASS
  1
AEC_DISP_REP_MASS_GROUP_PLAN
  2
AecDbDispRepMassGroupPlan
  3
AecBase
 90
    32897
280
     1
281
     0
  0
CLASS
  1
AEC_DISP_REP_DOOR_RCP
  2
AecDbDispRepDoorRcp
  3
AecArchBase
 90
    32897
280
     1
281
     0
  0
CLASS
  1
AEC_DISP_REP_DOOR_NOMINAL
  2
AecDbDispRepDoorNominal
  3
AecArchBase
 90
    32897
280
     1
281
     0
  0
CLASS
  1
AEC_DISP_PROPS_DOOR_NOMINAL
  2
AecDbDispPropsDoorNominal
  3
AecArchBase
 90
    32897
280
     1
281
     0
  0
CLASS
  1
AEC_DISP_REP_DOOR_PLAN
  2
AecDbDispRepDoorPlan
  3
AecArchBase
 90
    32897
280
     1
281
     0
  0
CLASS
  1
AEC_DISP_REP_DOOR_MODEL
  2
AecDbDispRepDoorModel
  3
AecArchBase
 90
    32897
280
     1
281
     0
  0
CLASS
  1
AEC_DISP_REP_MVBLOCK_REF_RCP
  2
AecDbDispRepMvBlockRefRcp
  3
AecArchBase
 90
    32897
280
     1
281
     0
  0
CLASS
  1
AEC_DISP_REP_MASS_GROUP_RCP
  2
AecDbDispRepMassGroupRcp
  3
AecArchBase
 90
    32897
280
     1
281
     0
  0
CLASS
  1
AEC_DISP_REP_MASS_ELEM_RCP
  2
AecDbDispRepMassElemRcp
  3
AecArchBase
 90
    32897
280
     1
281
     0
  0
CLASS
  1
AEC_DISP_REP_MASKBLOCK_REF_RCP
  2
AecDbDispRepMaskBlockRefRcp
  3
AecArchBase
 90
    32897
280
     1
281
     0
  0
CLASS
  1
AEC_DISP_REP_COLUMN_GRID_RCP
  2
AecDbDispRepColumnGridRcp
  3
AecArchBase
 90
    32897
280
     1
281
     0
  0
CLASS
  1
AEC_DISP_REP_COLUMN_GRID_MODEL
  2
AecDbDispRepColumnGridModel
  3
AecArchBase
 90
    32897
280
     1
281
     0
  0
CLASS
  1
AEC_DISP_REP_COLUMN_GRID
  2
AecDbDispRepColumnGrid
  3
AecArchBase
 90
    32897
280
     1
281
     0
  0
CLASS
  1
AEC_DISP_REP_CEILING_GRID_RCP
  2
AecDbDispRepCeilingGridRcp
  3
AecArchBase
 90
    32897
280
     1
281
     0
  0
CLASS
  1
AEC_DISP_REP_CEILING_GRID_MODEL
  2
AecDbDispRepCeilingGridModel
  3
AecArchBase
 90
    32897
280
     1
281
     0
  0
CLASS
  1
AEC_DISP_REP_CEILING_GRID
  2
AecDbDispRepCeilingGrid
  3
AecArchBase
 90
    33661
280
     1
281
     0
  0
CLASS
  1
AEC_DISP_REP_BDG_SECTION_SUBDIV
  2
AecDbDispRepBdgSectionSubDiv
  3
AecArchBase
 90
    32897
280
     1
281
     0
  0
CLASS
  1
AEC_DISP_REP_BDG_SECTION_MODEL
  2
AecDbDispRepBdgSectionModel
  3
AecArchBase
 90
    32897
280
     1
281
     0
  0
CLASS
  1
AEC_DISP_REP_BDG_SECTIONLINE_RCP
  2
AecDbDispRepBdgSectionLineRcp
  3
AecArchBase
 90
    32897
280
     1
281
     0
  0
CLASS
  1
AEC_DISP_REP_BDG_SECTIONLINE_PLAN
  2
AecDbDispRepBdgSectionLinePlan
  3
AecArchBase
 90
    32897
280
     1
281
     0
  0
CLASS
  1
AEC_DISP_REP_BDG_ELEVLINE_RCP
  2
AecDbDispRepBdgElevLineRcp
  3
AecArchBase
 90
    32897
280
     1
281
     0
  0
CLASS
  1
AEC_DISP_REP_BDG_ELEVLINE_PLAN
  2
AecDbDispRepBdgElevLinePlan
  3
AecArchBase
 90
    32897
280
     1
281
     0
  0
CLASS
  1
AEC_DISP_REP_BDG_SECTIONLINE_MODEL
  2
AecDbDispRepBdgSectionLineModel
  3
AecArchBase
 90
    32897
280
     1
281
     0
  0
CLASS
  1
AEC_DISP_REP_BDG_ELEVLINE_MODEL
  2
AecDbDispRepBdgElevLineModel
  3
AecArchBase
 90
    32897
280
     1
281
     0
  0
CLASS
  1
AEC_DISP_REP_ANCHOR_BUB_TO_GRID_RCP
  2
AecDbDispRepAnchorBubToGridRcp
  3
AecArchBase
 90
    32897
280
     1
281
     0
  0
CLASS
  1
AEC_DISP_REP_ANCHOR_BUB_TO_GRID_MODEL
  2
AecDbDispRepAnchorBubToGridMdl
  3
AecArchBase
 90
    32897
280
     1
281
     0
  0
CLASS
  1
AEC_DISP_REP_ANCHOR_BUB_TO_GRID
  2
AecDbDispRepAnchorBubToGrid
  3
AecArchBase
 90
    32897
280
     1
281
     0
  0
CLASS
  1
AEC_DISP_REP_WINDOW_RCP
  2
AecDbDispRepWindowRcp
  3
AecArchBase
 90
    32897
280
     1
281
     0
  0
CLASS
  1
AEC_DISP_PROPS_WINDOW
  2
AecDbDispPropsWindow
  3
AecArchBase
 90
    32897
280
     1
281
     0
  0
CLASS
  1
AEC_DISP_REP_ROOF_RCP
  2
AecDbDispRepRoofRcp
  3
AecArchBase
 90
    32897
280
     1
281
     0
  0
CLASS
  1
AEC_DISP_PROPS_ROOF
  2
AecDbDispPropsRoof
  3
AecArchBase
 90
    32897
280
     1
281
     0
  0
CLASS
  1
AEC_DISP_REP_ROOF_PLAN
  2
AecDbDispRepRoofPlan
  3
AecArchBase
 90
    32897
280
     1
281
     0
  0
CLASS
  1
AEC_DISP_REP_WINDOW_SILL_PLAN
  2
AecDbDispRepWindowSillPlan
  3
AecArchBase
 90
    32897
280
     1
281
     0
  0
CLASS
  1
AEC_DISP_PROPS_WINDOW_SILL_PLAN
  2
AecDbDispPropsWindowSillPlan
  3
AecArchBase
 90
    32897
280
     1
281
     0
  0
CLASS
  1
AEC_DISP_REP_SPACE_PLAN
  2
AecDbDispRepSpacePlan
  3
AecArchBase
 90
    32897
280
     1
281
     0
  0
CLASS
  1
AEC_DISP_PROPS_SPACE_PLAN
  2
AecDbDispPropsSpacePlan
  3
AecArchBase
 90
    32897
280
     1
281
     0
  0
CLASS
  1
AEC_DISP_REP_SPACE_MODEL
  2
AecDbDispRepSpaceModel
  3
AecArchBase
 90
    32897
280
     1
281
     0
  0
CLASS
  1
AEC_DISP_PROPS_SPACE_MODEL
  2
AecDbDispPropsSpaceModel
  3
AecArchBase
 90
    32897
280
     1
281
     0
  0
CLASS
  1
AEC_DISP_REP_WINDOW_MODEL
  2
AecDbDispRepWindowModel
  3
AecArchBase
 90
    32897
280
     1
281
     0
  0
CLASS
  1
AEC_DISP_REP_WINDOW_NOMINAL
  2
AecDbDispRepWindowNominal
  3
AecArchBase
 90
    32897
280
     1
281
     0
  0
CLASS
  1
AEC_DISP_PROPS_WINDOW_NOMINAL
  2
AecDbDispPropsWindowNominal
  3
AecArchBase
 90
    32897
280
     1
281
     0
  0
CLASS
  1
AEC_DISP_REP_OPENING
  2
AecDbDispRepOpening
  3
AecArchBase
 90
    32897
280
     1
281
     0
  0
CLASS
  1
AEC_DISP_PROPS_OPENING
  2
AecDbDispPropsOpening
  3
AecArchBase
 90
    32897
280
     1
281
     0
  0
CLASS
  1
AEC_DISP_REP_OPENING_MODEL
  2
AecDbDispRepOpeningModel
  3
AecArchBase
 90
    32897
280
     1
281
     0
  0
CLASS
  1
AEC_DISP_REP_RAILING_PLAN
  2
AecDbDispRepRailingPlan
  3
AecArchBase
 90
    32897
280
     1
281
     0
  0
CLASS
  1
AEC_DISP_PROPS_RAILING_PLAN
  2
AecDbDispPropsRailingPlan
  3
AecArchBase
 90
    32897
280
     1
281
     0
  0
CLASS
  1
AEC_DISP_REP_RAILING_MODEL
  2
AecDbDispRepRailingModel
  3
AecArchBase
 90
    32897
280
     1
281
     0
  0
CLASS
  1
AEC_DISP_PROPS_RAILING_MODEL
  2
AecDbDispPropsRailingModel
  3
AecArchBase
 90
    32897
280
     1
281
     0
  0
CLASS
  1
AEC_DISP_REP_WINDOW_ELEV
  2
AecDbDispRepWindowElev
  3
AecArchBase
 90
    32897
280
     1
281
     0
  0
CLASS
  1
AEC_DISP_REP_DOOR_THRESHOLD_PLAN
  2
AecDbDispRepDoorThresholdPlan
  3
AecArchBase
 90
    32897
280
     1
281
     0
  0
CLASS
  1
AEC_DISP_PROPS_DOOR_THRESHOLD_PLAN
  2
AecDbDispPropsDoorThresholdPlan
  3
AecArchBase
 90
    32897
280
     1
281
     0
  0
CLASS
  1
AEC_DISP_REP_ROOF_MODEL
  2
AecDbDispRepRoofModel
  3
AecArchBase
 90
    32897
280
     1
281
     0
  0
CLASS
  1
AEC_DISP_REP_WINDOW_PLAN
  2
AecDbDispRepWindowPlan
  3
AecArchBase
 90
    32897
280
     1
281
     0
  0
CLASS
  1
AEC_DISP_REP_WALL_SCHEM
  2
AecDbDispRepWallSchem
  3
AecArchBase
 90
    32897
280
     1
281
     0
  0
CLASS
  1
AEC_DISP_PROPS_WALL_SCHEM
  2
AecDbDispPropsWallSchem
  3
AecArchBase
 90
    32897
280
     1
281
     0
  0
CLASS
  1
AEC_DISP_REP_WALL_RCP
  2
AecDbDispRepWallRcp
  3
AecArchBase
 90
    32897
280
     1
281
     0
  0
CLASS
  1
AEC_DISP_PROPS_WALL_PLAN
  2
AecDbDispPropsWallPlan
  3
AecArchBase
 90
    32897
280
     1
281
     0
  0
CLASS
  1
AEC_DISP_REP_WALL_PLAN
  2
AecDbDispRepWallPlan
  3
AecArchBase
 90
    32897
280
     1
281
     0
  0
CLASS
  1
AEC_DISP_REP_WALL_MODEL
  2
AecDbDispRepWallModel
  3
AecArchBase
 90
    32897
280
     1
281
     0
  0
CLASS
  1
AEC_DISP_PROPS_WALL
  2
AecDbDispPropsWall
  3
AecArchBase
 90
    32897
280
     1
281
     0
  0
CLASS
  1
AEC_DISP_REP_WALL_GRAPH
  2
AecDbDispRepWallGraph
  3
AecArchBase
 90
    32897
280
     1
281
     0
  0
CLASS
  1
AEC_DISP_REP_STAIR_RCP
  2
AecDbDispRepStairRcp
  3
AecArchBase
 90
    32897
280
     1
281
     0
  0
CLASS
  1
AEC_DISP_PROPS_STAIR_PLAN
  2
AecDbDispPropsStairPlan
  3
AecArchBase
 90
    32897
280
     1
281
     0
  0
CLASS
  1
AEC_DISP_REP_STAIR_PLAN
  2
AecDbDispRepStairPlan
  3
AecArchBase
 90
    32897
280
     1
281
     0
  0
CLASS
  1
AEC_DISP_REP_STAIR_MODEL
  2
AecDbDispRepStairModel
  3
AecArchBase
 90
    32897
280
     1
281
     0
  0
CLASS
  1
AEC_DISP_PROPS_STAIR_MODEL
  2
AecDbDispPropsStairModel
  3
AecArchBase
 90
    32897
280
     1
281
     0
  0
CLASS
  1
AEC_DISP_REP_SPACE_BOUNDARY_SCHEM
  2
AecDbDispRepSpaceBoundarySketch
  3
AecArchBase
 90
    32897
280
     1
281
     0
  0
CLASS
  1
AEC_DISP_REP_SPACE_BOUNDARY_PLAN
  2
AecDbDispRepSpaceBoundaryPlan
  3
AecArchBase
 90
    32897
280
     1
281
     0
  0
CLASS
  1
AEC_DISP_REP_SPACE_BOUNDARY_MODEL
  2
AecDbDispRepSpaceBoundaryModel
  3
AecArchBase
 90
    32897
280
     1
281
     0
  0
CLASS
  1
AEC_DISP_REP_SPACE_BOUNDARY_DIAGRAM
  2
AecDbDispRepSpaceBoundaryDgrm
  3
AecArchBase
 90
    32897
280
     1
281
     0
  0
CLASS
  1
AEC_DISP_REP_SPACE_VOLUME
  2
AecDbDispRepSpaceVolume
  3
AecArchBase
 90
    32897
280
     1
281
     0
  0
CLASS
  1
AEC_DISP_REP_SPACE_RCP
  2
AecDbDispRepSpaceRcp
  3
AecArchBase
 90
    32897
280
     1
281
     0
  0
CLASS
  1
AEC_DISP_REP_ANCHOR_TAG_TO_ENT
  2
AecDbDispRepAnchorTagToEnt
  3
AecScheduleData
 90
    32897
280
     1
281
     0
  0
CLASS
  1
AEC_DISP_REP_SCHEDULE_TABLE
  2
AecDbDispRepScheduleTable
  3
AecSchedule
 90
    32897
280
     1
281
     0
  0
CLASS
  1
AEC_DISP_PROPS_SCHEDULE_TABLE
  2
AecDbDispPropsScheduleTable
  3
AecSchedule
 90
    32897
280
     1
281
     0
  0
CLASS
  1
AEC_DISP_REP_SET
  2
AecDbDispRepSet
  3
AecBase
 90
    32897
280
     1
281
     0
  0
CLASS
  1
AEC_DISP_REP_CONFIG
  2
AecDbDispRepConfig
  3
AecBase
 90
    32897
280
     1
281
     0
  0
CLASS
  1
TABLESTYLE
  2
AcDbTableStyle
  3
ObjectDBX Classes
 90
     4095
280
     0
281
     0
  0
CLASS
  1
MATERIAL
  2
AcDbMaterial
  3
ObjectDBX Classes
 90
     1153
280
     0
281
     0
  0
CLASS
  1
VISUALSTYLE
  2
AcDbVisualStyle
  3
ObjectDBX Classes
 90
     4095
280
     0
281
     0
  0
CLASS
  1
SCALE
  2
AcDbScale
  3
ObjectDBX Classes
 90
     1153
280
     0
281
     0
  0
CLASS
  1
MLEADERSTYLE
  2
AcDbMLeaderStyle
  3
ACDB_MLEADERSTYLE_CLASS
 90
    36863
280
     0
281
     0
  0
CLASS
  1
ACDBSECTIONVIEWSTYLE
  2
AcDbSectionViewStyle
  3
ObjectDBX Classes
 90
    33793
280
     0
281
     0
  0
CLASS
  1
ACDBDETAILVIEWSTYLE
  2
AcDbDetailViewStyle
  3
ObjectDBX Classes
 90
    33793
280
     0
281
     0
  0
CLASS
  1
CELLSTYLEMAP
  2
AcDbCellStyleMap
  3
ObjectDBX Classes
 90
     1152
280
     0
281
     0
  0
ENDSEC
  0
SECTION
  2
TABLES
  0
TABLE
  2
VPORT
  5
2E
330
0
100
AcDbSymbolTable
 70
     1
  0
VPORT
  5
2F
330
2E
100
AcDbSymbolTableRecord
100
AcDbViewportTableRecord
  2
*Active
 70
     0
 10
0.0
 20
0.0
 11
1.0
 21
1.0
 12
209.4504875723458
 22
69.19293592849459
 13
0.0
 23
0.0
 14
1.0
 24
1.0
 15
0.0
 25
0.0
 16
0.0
 26
0.0
 36
1.0
 17
0.0
 27
0.0
 37
0.0
 40
262.4392654047839
 41
2.043307086614173
 42
50.0
 43
0.0
 44
0.0
 50
0.0
 51
0.0
 71
     0
 72
 20000
 73
     1
 74
     1
 75
     0
 76
     0
 77
     0
 78
     0
281
     0
 65
     1
110
0.0
120
0.0
130
0.0
111
1.0
121
0.0
131
0.0
112
0.0
122
1.0
132
0.0
 79
     0
146
0.0
1001
ACAD_NAV_VCDISPLAY
1070
     3
  0
ENDTAB
  0
TABLE
  2
LTYPE
  5
29
330
0
100
AcDbSymbolTable
 70
     1
  0
LTYPE
  5
2A
330
29
100
AcDbSymbolTableRecord
100
AcDbLinetypeTableRecord
  2
BYBLOCK
 70
     0
  3

 72
    65
 73
     0
 40
0.0
  0
LTYPE
  5
2B
330
29
100
AcDbSymbolTableRecord
100
AcDbLinetypeTableRecord
  2
BYLAYER
 70
     0
  3

 72
    65
 73
     0
 40
0.0
  0
LTYPE
  5
13
330
29
100
AcDbSymbolTableRecord
100
AcDbLinetypeTableRecord
  2
CONTINUOUS
 70
     0
  3
Solid line
 72
    65
 73
     0
 40
0.0
  0
ENDTAB
  0
TABLE
  2
LAYER
  5
25
330
0
100
AcDbSymbolTable
 70
     6
  0
LAYER
  5
6
330
25
100
AcDbSymbolTableRecord
100
AcDbLayerTableRecord
  2
0
 70
     0
 62
     7
  6
CONTINUOUS
370
    -3
390
7
  0
LAYER
  5
2EF
330
25
100
AcDbSymbolTableRecord
100
AcDbLayerTableRecord
  2
DEFPOINTS
 70
     0
 62
     7
  6
CONTINUOUS
290
     0
370
    -3
390
7
  0
LAYER
  5
2E4
330
25
100
AcDbSymbolTableRecord
100
AcDbLayerTableRecord
  2
SUNPOU
 70
     0
 62
    70
  6
CONTINUOUS
370
    -3
390
7
  0
LAYER
  5
63
330
25
100
AcDbSymbolTableRecord
100
AcDbLayerTableRecord
  2
KIJUN
 70
     0
 62
     7
  6
CONTINUOUS
370
    -3
390
7
  0
LAYER
  5
3AC
330
25
100
AcDbSymbolTableRecord
100
AcDbLayerTableRecord
  2
HOJO
 70
     0
 62
     3
  6
CONTINUOUS
370
    -3
390
7
  0
LAYER
  5
3AE
330
25
100
AcDbSymbolTableRecord
100
AcDbLayerTableRecord
  2
WAKU
 70
     0
 62
     1
  6
CONTINUOUS
370
    -3
390
7
  0
ENDTAB
  0
TABLE
  2
STYLE
  5
26
330
0
100
AcDbSymbolTable
 70
     3
  0
STYLE
  5
27
330
26
100
AcDbSymbolTableRecord
100
AcDbTextStyleTableRecord
  2
STANDARD
 70
     0
 40
0.0
 41
1.0
 50
0.0
 71
     0
 42
0.2
  3
txt
  4

  0
STYLE
  5
4C
330
26
100
AcDbSymbolTableRecord
100
AcDbTextStyleTableRecord
  2
SUNPOU
 70
     0
 40
0.0
 41
1.0
 50
0.0
 71
     0
 42
30.0
  3
txt
  4
bigfont
  0
STYLE
  5
2ED
330
26
100
AcDbSymbolTableRecord
100
AcDbTextStyleTableRecord
  2
LIFE
 70
     0
 40
0.0
 41
0.7
 50
0.0
 71
     0
 42
10.0
  3
romans
  4
extfont
  0
ENDTAB
  0
TABLE
  2
VIEW
  5
2C
330
0
100
AcDbSymbolTable
 70
     0
  0
ENDTAB
  0
TABLE
  2
UCS
  5
2D
330
0
100
AcDbSymbolTable
 70
     0
  0
ENDTAB
  0
TABLE
  2
APPID
  5
33
330
0
100
AcDbSymbolTable
 70
     2
  0
APPID
  5
34
330
33
100
AcDbSymbolTableRecord
100
AcDbRegAppTableRecord
  2
ACAD
 70
     0
  0
APPID
  5
32
330
33
100
AcDbSymbolTableRecord
100
AcDbRegAppTableRecord
  2
ACAD_NAV_VCDISPLAY
 70
     0
  0
ENDTAB
  0
TABLE
  2
DIMSTYLE
  5
35
330
0
100
AcDbSymbolTable
 70
     3
100
AcDbDimStyleTable
 71
     2
340
36
340
3B
  0
DIMSTYLE
105
3B
330
35
100
AcDbSymbolTableRecord
100
AcDbDimStyleTableRecord
  2
STANDARD
 70
     0
 41
3.0
 42
2.0
 44
0.0
 73
     0
 74
     0
 77
     1
140
2.799999999999998
141
1.0
146
0.0642857142857143
147
1.0
173
     1
174
     1
176
    60
177
    70
178
    60
271
     0
340
27
341
37
343
37
344
37
  0
DIMSTYLE
105
2F3
102
{ACAD_REACTORS
330
2E3
330
39E
102
}
330
35
100
AcDbSymbolTableRecord
100
AcDbDimStyleTableRecord
  2
STANDARD$0
 70
     0
 40
2.0
 41
1.0
 42
2.0
 43
0.0
 44
1.0
 73
     0
 74
     0
 77
     3
 78
     9
140
4.5
141
0.0
147
1.0
172
     1
173
     1
178
     3
271
     2
340
2ED
341
2F4
343
2F4
344
2F4
  0
DIMSTYLE
105
36
330
35
100
AcDbSymbolTableRecord
100
AcDbDimStyleTableRecord
  2
1
 70
     0
 41
3.0
 42
2.0
 44
0.0
 73
     0
 74
     0
 77
     1
140
7.0
141
1.0
146
0.0642857142857143
147
1.0
173
     1
174
     1
176
    60
177
    70
178
    60
271
     0
340
27
341
37
343
37
344
37
  0
ENDTAB
  0
TABLE
  2
BLOCK_RECORD
  5
1
330
0
100
AcDbSymbolTable
 70
     4
  0
BLOCK_RECORD
  5
2
102
{ACAD_XDICTIONARY
360
3
102
}
330
1
100
AcDbSymbolTableRecord
100
AcDbBlockTableRecord
  2
*MODEL_SPACE
340
1D
  0
BLOCK_RECORD
  5
1F
102
{ACAD_XDICTIONARY
360
20
102
}
330
1
100
AcDbSymbolTableRecord
100
AcDbBlockTableRecord
  2
*PAPER_SPACE
340
24
  0
BLOCK_RECORD
  5
37
330
1
100
AcDbSymbolTableRecord
100
AcDbBlockTableRecord
  2
_DOTSMALL
340
0
102
{BLKREFS
331
2EA
331
2EB
331
3A4
331
3A5
102
}
  0
BLOCK_RECORD
  5
2F4
330
1
100
AcDbSymbolTableRecord
100
AcDbBlockTableRecord
  2
_DOT
340
0
  0
BLOCK_RECORD
  5
39F
330
1
100
AcDbSymbolTableRecord
100
AcDbBlockTableRecord
  2
*D2
340
0
  0
BLOCK_RECORD
  5
2E5
330
1
100
AcDbSymbolTableRecord
100
AcDbBlockTableRecord
  2
*D3
340
0
  0
ENDTAB
  0
ENDSEC
  0
SECTION
  2
BLOCKS
  0
BLOCK
  5
5
330
2
100
AcDbEntity
  8
0
100
AcDbBlockBegin
  2
*MODEL_SPACE
 70
     0
 10
0.0
 20
0.0
 30
0.0
  3
*MODEL_SPACE
  1

  0
ENDBLK
  5
1C
330
2
100
AcDbEntity
  8
0
100
AcDbBlockEnd
  0
BLOCK
  5
22
330
1F
100
AcDbEntity
 67
     1
  8
0
100
AcDbBlockBegin
  2
*PAPER_SPACE
 70
     0
 10
0.0
 20
0.0
 30
0.0
  3
*PAPER_SPACE
  1

  0
ENDBLK
  5
23
330
1F
100
AcDbEntity
 67
     1
  8
0
100
AcDbBlockEnd
  0
BLOCK
  5
38
330
37
100
AcDbEntity
  8
0
100
AcDbBlockBegin
  2
_DOTSMALL
 70
     0
 10
0.0
 20
0.0
 30
0.0
  3
_DOTSMALL
  1

  0
LWPOLYLINE
  5
39
330
37
100
AcDbEntity
  8
0
  6
ByBlock
 62
     0
100
AcDbPolyline
 90
        2
 70
     1
 43
0.5
 10
-0.0625
 20
0.0
 42
1.0
 10
0.0625
 20
0.0
 42
1.0
  0
ENDBLK
  5
3A
330
37
100
AcDbEntity
  8
0
100
AcDbBlockEnd
  0
BLOCK
  5
2F5
330
2F4
100
AcDbEntity
  8
0
100
AcDbBlockBegin
  2
_DOT
 70
     0
 10
0.0
 20
0.0
 30
0.0
  3
_DOT
  1

  0
LWPOLYLINE
  5
2F6
330
2F4
100
AcDbEntity
  8
0
  6
ByBlock
 62
     0
100
AcDbPolyline
 90
        2
 70
     1
 43
0.5
 10
-0.25
 20
0.0
 42
1.0
 10
0.25
 20
0.0
 42
1.0
  0
LINE
  5
2F7
330
2F4
100
AcDbEntity
  8
0
  6
ByBlock
 62
     0
100
AcDbLine
 10
-0.5
 20
0.0
 30
0.0
 11
-1.0
 21
0.0
 31
0.0
  0
ENDBLK
  5
2F8
330
2F4
100
AcDbEntity
  8
0
100
AcDbBlockEnd
  0
BLOCK
  5
3A0
330
39F
100
AcDbEntity
  8
0
 62
     7
100
AcDbBlockBegin
  2
*D2
 70
     1
 10
0.0
 20
0.0
 30
0.0
  3
*D2
  1

  0
LINE
  5
3A1
330
39F
100
AcDbEntity
  8
SUNPOU
 62
    70
370
    -2
100
AcDbLine
 10
24.37872456088252
 20
99.53654353737601
 30
0.0
 11
24.37872456088252
 21
110.6696960641829
 31
0.0
  0
LINE
  5
3A2
330
39F
100
AcDbEntity
  8
SUNPOU
 62
    70
370
    -2
100
AcDbLine
 10
56.37872456088258
 20
99.53654353737601
 30
0.0
 11
56.37872456088258
 21
110.6696960641829
 31
0.0
  0
LINE
  5
3A3
330
39F
100
AcDbEntity
  8
SUNPOU
 62
    60
370
    -2
100
AcDbLine
 10
24.37872456088252
 20
110.6696960641829
 30
0.0
 11
56.37872456088258
 21
110.6696960641829
 31
0.0
  0
INSERT
  5
3A4
330
39F
100
AcDbEntity
  8
SUNPOU
 62
    60
370
    -2
100
AcDbBlockReference
  2
_DOTSMALL
 10
24.37872456088252
 20
110.6696960641829
 30
0.0
 41
4.0
 42
4.0
 43
4.0
 50
180.0
  0
INSERT
  5
3A5
330
39F
100
AcDbEntity
  8
SUNPOU
 62
    60
370
    -2
100
AcDbBlockReference
  2
_DOTSMALL
 10
56.37872456088258
 20
110.6696960641829
 30
0.0
 41
4.0
 42
4.0
 43
4.0
  0
MTEXT
  5
3A6
330
39F
100
AcDbEntity
  8
SUNPOU
 62
    60
100
AcDbMText
 10
40.37872456088255
 20
115.669696064183
 30
0.0
 40
6.0
 41
0.0
 71
     5
 72
     1
  1
\A1;32
  7
LIFE
 73
     1
 44
1.0
1001
ACAD
1000
MTEXTBEGIN
1070
    73
1070
     1
1070
    44
1040
1.0
1070
    74
1070
     0
1000
MTEXTEND
  0
POINT
  5
3A7
330
39F
100
AcDbEntity
  8
DEFPOINTS
 62
     0
100
AcDbPoint
 10
24.37872456088252
 20
95.536543537376
 30
0.0
  0
POINT
  5
3A8
330
39F
100
AcDbEntity
  8
DEFPOINTS
 62
     0
100
AcDbPoint
 10
56.37872456088258
 20
95.536543537376
 30
0.0
  0
POINT
  5
3A9
330
39F
100
AcDbEntity
  8
DEFPOINTS
 62
     0
100
AcDbPoint
 10
56.37872456088258
 20
110.6696960641829
 30
0.0
  0
ENDBLK
  5
3AA
330
39F
100
AcDbEntity
  8
0
 62
     7
100
AcDbBlockEnd
  0
BLOCK
  5
2E6
330
2E5
100
AcDbEntity
  8
0
 62
     7
100
AcDbBlockBegin
  2
*D3
 70
     1
 10
0.0
 20
0.0
 30
0.0
  3
*D3
  1

  0
LINE
  5
2E7
330
2E5
100
AcDbEntity
  8
SUNPOU
 62
    70
370
    -2
100
AcDbLine
 10
20.37872456088253
 20
95.536543537376
 30
0.0
 11
9.390750558007422
 21
95.536543537376
 31
0.0
  0
LINE
  5
2E8
330
2E5
100
AcDbEntity
  8
SUNPOU
 62
    70
370
    -2
100
AcDbLine
 10
20.37872456088253
 20
23.53654353737607
 30
0.0
 11
9.390750558007406
 21
23.53654353737607
 31
0.0
  0
LINE
  5
2E9
330
2E5
100
AcDbEntity
  8
SUNPOU
 62
    60
370
    -2
100
AcDbLine
 10
9.390750558007422
 20
95.536543537376
 30
0.0
 11
9.390750558007406
 21
23.53654353737607
 31
0.0
  0
INSERT
  5
2EA
330
2E5
100
AcDbEntity
  8
SUNPOU
 62
    60
370
    -2
100
AcDbBlockReference
  2
_DOTSMALL
 10
9.390750558007422
 20
95.536543537376
 30
0.0
 41
4.0
 42
4.0
 43
4.0
 50
90.0
  0
INSERT
  5
2EB
330
2E5
100
AcDbEntity
  8
SUNPOU
 62
    60
370
    -2
100
AcDbBlockReference
  2
_DOTSMALL
 10
9.390750558007406
 20
23.53654353737607
 30
0.0
 41
4.0
 42
4.0
 43
4.0
 50
270.0
  0
MTEXT
  5
2EC
330
2E5
100
AcDbEntity
  8
SUNPOU
 62
    60
100
AcDbMText
 10
4.390750558007404
 20
59.53654353737604
 30
0.0
 40
6.0
 41
0.0
 71
     5
 72
     1
  1
\A1;72
  7
LIFE
 11
0.0000000000000001
 21
1.0
 31
0.0
 73
     1
 44
1.0
1001
ACAD
1000
MTEXTBEGIN
1070
    73
1070
     1
1070
    44
1040
1.0
1070
    74
1070
     0
1000
MTEXTEND
  0
POINT
  5
2EE
330
2E5
100
AcDbEntity
  8
DEFPOINTS
 62
     0
100
AcDbPoint
 10
24.37872456088252
 20
95.536543537376
 30
0.0
  0
POINT
  5
2F0
330
2E5
100
AcDbEntity
  8
DEFPOINTS
 62
     0
100
AcDbPoint
 10
24.37872456088252
 20
23.53654353737607
 30
0.0
  0
POINT
  5
2F1
330
2E5
100
AcDbEntity
  8
DEFPOINTS
 62
     0
100
AcDbPoint
 10
9.390750558007406
 20
23.53654353737607
 30
0.0
  0
ENDBLK
  5
2F2
330
2E5
100
AcDbEntity
  8
0
 62
     7
100
AcDbBlockEnd
  0
ENDSEC
  0
SECTION
  2
ENTITIES
  0
SPLINE
  5
62
330
2
100
AcDbEntity
  8
KIJUN
 62
     7
100
AcDbSpline
210
0.0
220
0.0
230
1.0
 70
     8
 71
     3
 72
    49
 73
    45
 74
     0
 42
0.000000001
 43
0.0000000001
 40
3.87927274479437
 40
3.87927274479437
 40
3.87927274479437
 40
3.87927274479437
 40
4.056901976943379
 40
4.056901976943379
 40
4.263676309584098
 40
4.263676309584098
 40
4.557489591596558
 40
4.557489591596558
 40
4.851302873609018
 40
4.851302873609018
 40
5.145116155621478
 40
5.145116155621478
 40
5.438929437633936
 40
5.438929437633936
 40
5.677460203821776
 40
5.677460203821776
 40
5.915990970009612
 40
5.915990970009612
 40
6.113379754984692
 40
6.113379754984692
 40
6.283185307179584
 40
6.283185307179584
 40
6.283185307179584
 40
6.469037160973584
 40
6.469037160973584
 40
6.654889014767586
 40
6.654889014767586
 40
6.840740868561586
 40
6.840740868561586
 40
7.026592722355585
 40
7.026592722355585
 40
7.212444576149587
 40
7.212444576149587
 40
7.492481639397643
 40
7.492481639397643
 40
7.772518702645702
 40
7.772518702645702
 40
8.052555765893762
 40
8.052555765893762
 40
8.33259282914182
 40
8.33259282914182
 40
8.612629892389879
 40
8.612629892389879
 40
8.687133100041886
 40
8.687133100041886
 40
8.687133100041886
 40
8.687133100041886
 10
393.9453653696871
 20
50.44231833347117
 30
0.0
 10
393.0681502218563
 20
49.8435251516485
 30
0.0
 10
392.0825318798825
 20
49.27785263748553
 30
0.0
 10
389.7506326214999
 20
48.16512180998626
 30
0.0
 10
388.3720954403517
 20
47.63636227446641
 30
0.0
 10
384.8188297062676
 20
46.5746505939549
 30
0.0
 10
382.5531667263173
 20
46.13482209290628
 30
0.0
 10
377.8926605008866
 20
45.68318769177113
 30
0.0
 10
375.4985498008828
 20
45.67126291322876
 30
0.0
 10
370.8248807208193
 20
46.07679106130653
 30
0.0
 10
368.5460456380039
 20
46.49435049993489
 30
0.0
 10
364.3366358643472
 20
47.70106560765277
 30
0.0
 10
362.4072446021888
 20
48.49050129994026
 30
0.0
 10
359.4058307120237
 20
50.14587264686117
 30
0.0
 10
358.2412546747534
 20
50.9685911397806
 30
0.0
 10
356.3341505532259
 20
52.67750036016225
 30
0.0
 10
355.5927844021599
 20
53.56176260591047
 30
0.0
 10
354.6133820810157
 20
55.14198815617902
 30
0.0
 10
354.3088138824793
 20
55.84295897850626
 30
0.0
 10
353.9591379806676
 20
57.10863497682821
 30
0.0
 10
353.8824310535293
 20
57.67962056554535
 30
0.0
 10
353.8824310535293
 20
58.24986246295003
 30
0.0
 10
353.8824310535293
 20
58.8739911346791
 30
0.0
 10
353.9740697689151
 20
59.49926777749951
 30
0.0
 10
354.3639360871414
 20
60.78609130579735
 30
0.0
 10
354.663963107099
 20
61.44810635592652
 30
0.0
 10
355.5109891262324
 20
62.79656873181585
 30
0.0
 10
356.0586675194947
 20
63.48193318168235
 30
0.0
 10
357.4125911193384
 20
64.82945069619366
 30
0.0
 10
358.2185543712409
 20
65.4908930517293
 30
0.0
 10
360.0684417172517
 20
66.73963329895816
 30
0.0
 10
361.112011534132
 20
67.32673959458072
 30
0.0
 10
363.9754814829272
 20
68.6540943615908
 30
0.0
 10
365.9211593583119
 20
69.31986369526822
 30
0.0
 10
370.0808002374512
 20
70.29595951606353
 30
0.0
 10
372.2939812673472
 20
70.60649331516906
 30
0.0
 10
376.7823795656297
 20
70.83391128647355
 30
0.0
 10
379.0570478924357
 20
70.75084436229857
 30
0.0
 10
383.4578650142794
 20
70.2012672925901
 30
0.0
 10
385.5834142746032
 20
69.73463706932403
 30
0.0
 10
389.4873291689208
 20
68.47759230217666
 30
0.0
 10
391.2646459785348
 20
67.68696289590372
 30
0.0
 10
393.1911837019794
 20
66.5536680026426
 30
0.0
 10
393.5777673647217
 20
66.30817837935372
 30
0.0
 10
393.9453653696971
 20
66.05691308163097
 30
0.0
  0
ELLIPSE
  5
64
330
2
100
AcDbEntity
  8
KIJUN
 62
     7
100
AcDbEllipse
 10
376.5018679662995
 20
58.24986246295003
 30
0.0
 11
-26.61943691277031
 21
0.0
 31
0.0
210
0.0
220
0.0
230
-1.0
 40
0.6205991529473243
 41
3.997820192789356
 42
8.568550421569812
  0
ELLIPSE
  5
65
330
2
100
AcDbEntity
  8
KIJUN
 62
     7
100
AcDbEllipse
 10
89.07202700946863
 20
58.24986246295003
 30
0.0
 11
26.61943691277031
 21
0.0
 31
0.0
210
0.0
220
0.0
230
1.0
 40
0.6205991529473243
 41
4.670051559950658
 42
7.896319054408512
  0
SPLINE
  5
66
330
2
100
AcDbEntity
  8
KIJUN
 62
     7
100
AcDbSpline
210
0.0
220
0.0
230
1.0
 70
     8
 71
     3
 72
    37
 73
    33
 74
     0
 42
0.000000001
 43
0.0000000001
 40
4.665690780077018
 40
4.665690780077018
 40
4.665690780077018
 40
4.665690780077018
 40
4.851302873609018
 40
4.851302873609018
 40
5.145116155621478
 40
5.145116155621478
 40
5.438929437633936
 40
5.438929437633936
 40
5.677460203821776
 40
5.677460203821776
 40
5.915990970009612
 40
5.915990970009612
 40
6.113379754984692
 40
6.113379754984692
 40
6.283185307179584
 40
6.283185307179584
 40
6.283185307179584
 40
6.469037160973584
 40
6.469037160973584
 40
6.654889014767586
 40
6.654889014767586
 40
6.840740868561586
 40
6.840740868561586
 40
7.026592722355585
 40
7.026592722355585
 40
7.212444576149587
 40
7.212444576149587
 40
7.492481639397643
 40
7.492481639397643
 40
7.772518702645702
 40
7.772518702645702
 40
7.90068055661665
 40
7.90068055661665
 40
7.90068055661665
 40
7.90068055661665
 10
87.94536536969713
 20
45.74658662689222
 30
0.0
 10
89.43680173594225
 20
45.70352066415632
 30
0.0
 10
90.93591986634139
 20
45.74593385268356
 30
0.0
 10
94.74901425494881
 20
46.07679106130653
 30
0.0
 10
97.02784933776429
 20
46.49435049993489
 30
0.0
 10
101.237259111421
 20
47.70106560765277
 30
0.0
 10
103.1666503735794
 20
48.49050129994026
 30
0.0
 10
106.1680642637445
 20
50.14587264686117
 30
0.0
 10
107.3326403010148
 20
50.9685911397806
 30
0.0
 10
109.2397444225423
 20
52.67750036016225
 30
0.0
 10
109.9811105736082
 20
53.56176260591047
 30
0.0
 10
110.9605128947526
 20
55.14198815617902
 30
0.0
 10
111.2650810932889
 20
55.84295897850626
 30
0.0
 10
111.6147569951006
 20
57.10863497682821
 30
0.0
 10
111.6914639222389
 20
57.67962056554535
 30
0.0
 10
111.6914639222389
 20
58.24986246295003
 30
0.0
 10
111.6914639222389
 20
58.8739911346791
 30
0.0
 10
111.5998252068532
 20
59.49926777749951
 30
0.0
 10
111.2099588886269
 20
60.78609130579735
 30
0.0
 10
110.9099318686692
 20
61.44810635592652
 30
0.0
 10
110.0629058495357
 20
62.79656873181585
 30
0.0
 10
109.5152274562735
 20
63.48193318168235
 30
0.0
 10
108.1613038564299
 20
64.82945069619366
 30
0.0
 10
107.3553406045273
 20
65.4908930517293
 30
0.0
 10
105.5054532585166
 20
66.73963329895816
 30
0.0
 10
104.4618834416362
 20
67.32673959458072
 30
0.0
 10
101.5984134928409
 20
68.6540943615908
 30
0.0
 10
99.65273561745629
 20
69.31986369526822
 30
0.0
 10
95.493094738317
 20
70.29595951606353
 30
0.0
 10
93.27991370842097
 20
70.60649331516906
 30
0.0
 10
90.00863364256861
 20
70.77224239239109
 30
0.0
 10
88.97517086594938
 20
70.78306718423576
 30
0.0
 10
87.94536536969799
 20
70.75316117296579
 30
0.0
  0
SPLINE
  5
67
330
2
100
AcDbEntity
  8
KIJUN
 62
     7
100
AcDbSpline
210
0.0
220
0.0
230
1.0
 70
     9
 71
     3
 72
    60
 73
    56
 74
     0
 42
0.000000001
 43
0.0000000001
 40
0.0
 40
0.0
 40
0.0
 40
0.0
 40
0.1858518537940001
 40
0.1858518537940001
 40
0.3717037075880003
 40
0.3717037075880003
 40
0.5575555613820005
 40
0.5575555613820005
 40
0.7434074151760007
 40
0.7434074151760007
 40
0.9292592689700008
 40
0.9292592689700008
 40
1.209296332218059
 40
1.209296332218059
 40
1.489333395466116
 40
1.489333395466116
 40
1.769370458714176
 40
1.769370458714176
 40
2.049407521962232
 40
2.049407521962232
 40
2.329444585210291
 40
2.329444585210291
 40
2.609481648458351
 40
2.609481648458351
 40
2.816255981099068
 40
2.816255981099068
 40
3.023030313739787
 40
3.023030313739787
 40
3.229804646380506
 40
3.229804646380506
 40
3.436578979021224
 40
3.436578979021224
 40
3.643353311661943
 40
3.643353311661943
 40
3.850127644302661
 40
3.850127644302661
 40
4.056901976943379
 40
4.056901976943379
 40
4.263676309584098
 40
4.263676309584098
 40
4.557489591596558
 40
4.557489591596558
 40
4.851302873609018
 40
4.851302873609018
 40
5.145116155621478
 40
5.145116155621478
 40
5.438929437633936
 40
5.438929437633936
 40
5.677460203821776
 40
5.677460203821776
 40
5.915990970009612
 40
5.915990970009612
 40
6.113379754984692
 40
6.113379754984692
 40
6.283185307179584
 40
6.283185307179584
 40
6.283185307179584
 40
6.283185307179584
 10
255.4199486320005
 20
58.24986246295003
 30
0.0
 10
255.4199486320005
 20
58.8739911346791
 30
0.0
 10
255.3283099166149
 20
59.49926777749951
 30
0.0
 10
254.9384435983885
 20
60.78609130579735
 30
0.0
 10
254.6384165784309
 20
61.44810635592652
 30
0.0
 10
253.7913905592974
 20
62.79656873181585
 30
0.0
 10
253.2437121660352
 20
63.48193318168235
 30
0.0
 10
251.8897885661915
 20
64.82945069619366
 30
0.0
 10
251.083825314289
 20
65.4908930517293
 30
0.0
 10
249.2339379682781
 20
66.73963329895816
 30
0.0
 10
248.1903681513978
 20
67.32673959458072
 30
0.0
 10
245.3268982026027
 20
68.6540943615908
 30
0.0
 10
243.381220327218
 20
69.31986369526822
 30
0.0
 10
239.2215794480787
 20
70.29595951606353
 30
0.0
 10
237.0083984181825
 20
70.60649331516906
 30
0.0
 10
232.5200001199002
 20
70.83391128647355
 30
0.0
 10
230.2453317930941
 20
70.75084436229857
 30
0.0
 10
225.8445146712504
 20
70.2012672925901
 30
0.0
 10
223.7189654109267
 20
69.73463706932403
 30
0.0
 10
219.8150505166093
 20
68.47759230217666
 30
0.0
 10
218.0377337069951
 20
67.68696289590372
 30
0.0
 10
214.9943447856724
 20
65.89667502312005
 30
0.0
 10
213.7306221922524
 20
64.89785031195612
 30
0.0
 10
212.049268394696
 20
63.12556040108058
 30
0.0
 10
211.4958771420362
 20
62.36320811659679
 30
0.0
 10
210.6878184108129
 20
60.87655876937702
 30
0.0
 10
210.4313494052846
 20
60.15380376444574
 30
0.0
 10
210.1611315126949
 20
58.74601707357811
 30
0.0
 10
210.1448386589734
 20
58.0586168307273
 30
0.0
 10
210.3442925149736
 20
56.65903767544985
 30
0.0
 10
210.5621034643792
 20
55.94388716539431
 30
0.0
 10
211.2846702854991
 20
54.46808507842462
 30
0.0
 10
211.7916281137965
 20
53.70865852458865
 30
0.0
 10
213.1267925010281
 20
52.19823970689031
 30
0.0
 10
213.954825544503
 20
51.44877761999516
 30
0.0
 10
215.9132672353646
 20
50.03054051057624
 30
0.0
 10
217.0430454956601
 20
49.36221879523809
 30
0.0
 10
219.55174706403
 20
48.16512180998626
 30
0.0
 10
220.9302842451781
 20
47.63636227446641
 30
0.0
 10
224.4835499792622
 20
46.5746505939549
 30
0.0
 10
226.7492129592126
 20
46.13482209290628
 30
0.0
 10
231.4097191846432
 20
45.68318769177113
 30
0.0
 10
233.8038298846469
 20
45.67126291322876
 30
0.0
 10
238.4774989647105
 20
46.07679106130653
 30
0.0
 10
240.756334047526
 20
46.49435049993489
 30
0.0
 10
244.9657438211827
 20
47.70106560765277
 30
0.0
 10
246.8951350833411
 20
48.49050129994026
 30
0.0
 10
249.8965489735061
 20
50.14587264686117
 30
0.0
 10
251.0611250107765
 20
50.9685911397806
 30
0.0
 10
252.968229132304
 20
52.67750036016225
 30
0.0
 10
253.7095952833698
 20
53.56176260591047
 30
0.0
 10
254.6889976045142
 20
55.14198815617902
 30
0.0
 10
254.9935658030505
 20
55.84295897850626
 30
0.0
 10
255.3432417048621
 20
57.10863497682821
 30
0.0
 10
255.4199486320005
 20
57.67962056554535
 30
0.0
 10
255.4199486320005
 20
58.24986246295003
 30
0.0
  0
ELLIPSE
  5
68
330
2
100
AcDbEntity
  8
KIJUN
 62
     7
100
AcDbEllipse
 10
232.8005117192302
 20
58.24986246295003
 30
0.0
 11
26.61943691277031
 21
0.0
 31
0.0
210
0.0
220
0.0
230
1.0
 40
0.6205991529473243
 41
0.0
 42
6.283185307179584
  0
ELLIPSE
  5
69
330
2
100
AcDbEntity
  8
KIJUN
 62
     7
100
AcDbEllipse
 10
303.8005117192303
 20
58.24986246295003
 30
0.0
 11
26.61943691277031
 21
0.0
 31
0.0
210
0.0
220
0.0
230
1.0
 40
0.6205991529473243
 41
0.0
 42
6.283185307179584
  0
SPLINE
  5
6A
330
2
100
AcDbEntity
  8
KIJUN
 62
     7
100
AcDbSpline
210
0.0
220
0.0
230
1.0
 70
     9
 71
     3
 72
    60
 73
    56
 74
     0
 42
0.000000001
 43
0.0000000001
 40
0.0
 40
0.0
 40
0.0
 40
0.0
 40
0.1858518537940001
 40
0.1858518537940001
 40
0.3717037075880003
 40
0.3717037075880003
 40
0.5575555613820005
 40
0.5575555613820005
 40
0.7434074151760007
 40
0.7434074151760007
 40
0.9292592689700008
 40
0.9292592689700008
 40
1.209296332218059
 40
1.209296332218059
 40
1.489333395466116
 40
1.489333395466116
 40
1.769370458714176
 40
1.769370458714176
 40
2.049407521962232
 40
2.049407521962232
 40
2.329444585210291
 40
2.329444585210291
 40
2.609481648458351
 40
2.609481648458351
 40
2.816255981099068
 40
2.816255981099068
 40
3.023030313739787
 40
3.023030313739787
 40
3.229804646380506
 40
3.229804646380506
 40
3.436578979021224
 40
3.436578979021224
 40
3.643353311661943
 40
3.643353311661943
 40
3.850127644302661
 40
3.850127644302661
 40
4.056901976943379
 40
4.056901976943379
 40
4.263676309584098
 40
4.263676309584098
 40
4.557489591596558
 40
4.557489591596558
 40
4.851302873609018
 40
4.851302873609018
 40
5.145116155621478
 40
5.145116155621478
 40
5.438929437633936
 40
5.438929437633936
 40
5.677460203821776
 40
5.677460203821776
 40
5.915990970009612
 40
5.915990970009612
 40
6.113379754984692
 40
6.113379754984692
 40
6.283185307179584
 40
6.283185307179584
 40
6.283185307179584
 40
6.283185307179584
 10
326.4199486320004
 20
58.24986246295003
 30
0.0
 10
326.4199486320004
 20
58.8739911346791
 30
0.0
 10
326.3283099166149
 20
59.49926777749951
 30
0.0
 10
325.9384435983886
 20
60.78609130579735
 30
0.0
 10
325.6384165784309
 20
61.44810635592652
 30
0.0
 10
324.7913905592974
 20
62.79656873181585
 30
0.0
 10
324.2437121660352
 20
63.48193318168235
 30
0.0
 10
322.8897885661914
 20
64.82945069619366
 30
0.0
 10
322.083825314289
 20
65.4908930517293
 30
0.0
 10
320.2339379682782
 20
66.73963329895816
 30
0.0
 10
319.1903681513979
 20
67.32673959458072
 30
0.0
 10
316.3268982026027
 20
68.6540943615908
 30
0.0
 10
314.381220327218
 20
69.31986369526822
 30
0.0
 10
310.2215794480787
 20
70.29595951606353
 30
0.0
 10
308.0083984181825
 20
70.60649331516906
 30
0.0
 10
303.5200001199001
 20
70.83391128647355
 30
0.0
 10
301.2453317930942
 20
70.75084436229857
 30
0.0
 10
296.8445146712504
 20
70.2012672925901
 30
0.0
 10
294.7189654109267
 20
69.73463706932403
 30
0.0
 10
290.8150505166092
 20
68.47759230217666
 30
0.0
 10
289.037733706995
 20
67.68696289590372
 30
0.0
 10
285.9943447856723
 20
65.89667502312005
 30
0.0
 10
284.7306221922524
 20
64.89785031195612
 30
0.0
 10
283.0492683946961
 20
63.12556040108058
 30
0.0
 10
282.4958771420362
 20
62.36320811659679
 30
0.0
 10
281.6878184108129
 20
60.87655876937702
 30
0.0
 10
281.4313494052846
 20
60.15380376444574
 30
0.0
 10
281.1611315126949
 20
58.74601707357811
 30
0.0
 10
281.1448386589734
 20
58.0586168307273
 30
0.0
 10
281.3442925149736
 20
56.65903767544985
 30
0.0
 10
281.5621034643792
 20
55.94388716539431
 30
0.0
 10
282.2846702854992
 20
54.46808507842462
 30
0.0
 10
282.7916281137965
 20
53.70865852458865
 30
0.0
 10
284.1267925010281
 20
52.19823970689031
 30
0.0
 10
284.9548255445031
 20
51.44877761999516
 30
0.0
 10
286.9132672353646
 20
50.03054051057624
 30
0.0
 10
288.0430454956601
 20
49.36221879523809
 30
0.0
 10
290.5517470640299
 20
48.16512180998626
 30
0.0
 10
291.9302842451781
 20
47.63636227446641
 30
0.0
 10
295.4835499792622
 20
46.5746505939549
 30
0.0
 10
297.7492129592126
 20
46.13482209290628
 30
0.0
 10
302.4097191846432
 20
45.68318769177113
 30
0.0
 10
304.803829884647
 20
45.67126291322876
 30
0.0
 10
309.4774989647104
 20
46.07679106130653
 30
0.0
 10
311.7563340475259
 20
46.49435049993489
 30
0.0
 10
315.9657438211827
 20
47.70106560765277
 30
0.0
 10
317.8951350833409
 20
48.49050129994026
 30
0.0
 10
320.8965489735062
 20
50.14587264686117
 30
0.0
 10
322.0611250107765
 20
50.9685911397806
 30
0.0
 10
323.9682291323039
 20
52.67750036016225
 30
0.0
 10
324.7095952833699
 20
53.56176260591047
 30
0.0
 10
325.6889976045142
 20
55.14198815617902
 30
0.0
 10
325.9935658030506
 20
55.84295897850626
 30
0.0
 10
326.3432417048623
 20
57.10863497682821
 30
0.0
 10
326.4199486320004
 20
57.67962056554535
 30
0.0
 10
326.4199486320004
 20
58.24986246295003
 30
0.0
  0
SPLINE
  5
6B
330
2
100
AcDbEntity
  8
KIJUN
 62
     7
100
AcDbSpline
210
0.0
220
0.0
230
1.0
 70
     9
 71
     3
 72
    60
 73
    56
 74
     0
 42
0.000000001
 43
0.0000000001
 40
0.0
 40
0.0
 40
0.0
 40
0.0
 40
0.1858518537940001
 40
0.1858518537940001
 40
0.3717037075880003
 40
0.3717037075880003
 40
0.5575555613820005
 40
0.5575555613820005
 40
0.7434074151760007
 40
0.7434074151760007
 40
0.9292592689700008
 40
0.9292592689700008
 40
1.209296332218059
 40
1.209296332218059
 40
1.489333395466116
 40
1.489333395466116
 40
1.769370458714176
 40
1.769370458714176
 40
2.049407521962232
 40
2.049407521962232
 40
2.329444585210291
 40
2.329444585210291
 40
2.609481648458351
 40
2.609481648458351
 40
2.816255981099068
 40
2.816255981099068
 40
3.023030313739787
 40
3.023030313739787
 40
3.229804646380506
 40
3.229804646380506
 40
3.436578979021224
 40
3.436578979021224
 40
3.643353311661943
 40
3.643353311661943
 40
3.850127644302661
 40
3.850127644302661
 40
4.056901976943379
 40
4.056901976943379
 40
4.263676309584098
 40
4.263676309584098
 40
4.557489591596558
 40
4.557489591596558
 40
4.851302873609018
 40
4.851302873609018
 40
5.145116155621478
 40
5.145116155621478
 40
5.438929437633936
 40
5.438929437633936
 40
5.677460203821776
 40
5.677460203821776
 40
5.915990970009612
 40
5.915990970009612
 40
6.113379754984692
 40
6.113379754984692
 40
6.283185307179584
 40
6.283185307179584
 40
6.283185307179584
 40
6.283185307179584
 10
139.1810748064601
 20
58.24986246295003
 30
0.0
 10
139.1810748064601
 20
58.8739911346791
 30
0.0
 10
139.2727135218457
 20
59.49926777749951
 30
0.0
 10
139.662579840072
 20
60.78609130579735
 30
0.0
 10
139.9626068600297
 20
61.44810635592652
 30
0.0
 10
140.8096328791632
 20
62.79656873181585
 30
0.0
 10
141.3573112724255
 20
63.48193318168235
 30
0.0
 10
142.7112348722691
 20
64.82945069619366
 30
0.0
 10
143.5171981241716
 20
65.4908930517293
 30
0.0
 10
145.3670854701823
 20
66.73963329895816
 30
0.0
 10
146.4106552870627
 20
67.32673959458072
 30
0.0
 10
149.2741252358579
 20
68.6540943615908
 30
0.0
 10
151.2198031112427
 20
69.31986369526822
 30
0.0
 10
155.3794439903819
 20
70.29595951606353
 30
0.0
 10
157.5926250202779
 20
70.60649331516906
 30
0.0
 10
162.0810233185603
 20
70.83391128647355
 30
0.0
 10
164.3556916453664
 20
70.75084436229857
 30
0.0
 10
168.7565087672102
 20
70.2012672925901
 30
0.0
 10
170.8820580275339
 20
69.73463706932403
 30
0.0
 10
174.7859729218514
 20
68.47759230217666
 30
0.0
 10
176.5632897314655
 20
67.68696289590372
 30
0.0
 10
179.6066786527882
 20
65.89667502312005
 30
0.0
 10
180.8704012462082
 20
64.89785031195612
 30
0.0
 10
182.5517550437645
 20
63.12556040108058
 30
0.0
 10
183.1051462964244
 20
62.36320811659679
 30
0.0
 10
183.9132050276477
 20
60.87655876937702
 30
0.0
 10
184.1696740331759
 20
60.15380376444574
 30
0.0
 10
184.4398919257656
 20
58.74601707357811
 30
0.0
 10
184.4561847794872
 20
58.0586168307273
 30
0.0
 10
184.256730923487
 20
56.65903767544985
 30
0.0
 10
184.0389199740814
 20
55.94388716539431
 30
0.0
 10
183.3163531529614
 20
54.46808507842462
 30
0.0
 10
182.809395324664
 20
53.70865852458865
 30
0.0
 10
181.4742309374326
 20
52.19823970689031
 30
0.0
 10
180.6461978939575
 20
51.44877761999516
 30
0.0
 10
178.687756203096
 20
50.03054051057624
 30
0.0
 10
177.5579779428005
 20
49.36221879523809
 30
0.0
 10
175.0492763744306
 20
48.16512180998626
 30
0.0
 10
173.6707391932824
 20
47.63636227446641
 30
0.0
 10
170.1174734591984
 20
46.5746505939549
 30
0.0
 10
167.851810479248
 20
46.13482209290628
 30
0.0
 10
163.1913042538173
 20
45.68318769177113
 30
0.0
 10
160.7971935538136
 20
45.67126291322876
 30
0.0
 10
156.1235244737503
 20
46.07679106130653
 30
0.0
 10
153.8446893909346
 20
46.49435049993489
 30
0.0
 10
149.635279617278
 20
47.70106560765277
 30
0.0
 10
147.7058883551195
 20
48.49050129994026
 30
0.0
 10
144.7044744649543
 20
50.14587264686117
 30
0.0
 10
143.5398984276841
 20
50.9685911397806
 30
0.0
 10
141.6327943061567
 20
52.67750036016225
 30
0.0
 10
140.8914281550907
 20
53.56176260591047
 30
0.0
 10
139.9120258339465
 20
55.14198815617902
 30
0.0
 10
139.60745763541
 20
55.84295897850626
 30
0.0
 10
139.2577817335984
 20
57.10863497682821
 30
0.0
 10
139.1810748064601
 20
57.67962056554535
 30
0.0
 10
139.1810748064601
 20
58.24986246295003
 30
0.0
  0
ELLIPSE
  5
6C
330
2
100
AcDbEntity
  8
KIJUN
 62
     7
100
AcDbEllipse
 10
161.8005117192302
 20
58.24986246295003
 30
0.0
 11
-26.61943691277031
 21
0.0
 31
0.0
210
0.0
220
0.0
230
-1.0
 40
0.6205991529473243
 41
0.0
 42
6.283185307179584
  0
ARC
  5
6D
330
2
100
AcDbEntity
  8
KIJUN
 62
     7
100
AcDbCircle
 10
340.9512860186344
 20
29.03197326173251
 30
0.0
 40
4.630223362121511
100
AcDbArc
 50
152.2283629078379
 51
222.9887082955493
  0
ARC
  5
6E
330
2
100
AcDbEntity
  8
KIJUN
 62
     7
100
AcDbCircle
 10
338.2301395816305
 20
29.7796197615956
 30
0.0
 40
5.398113552605123
100
AcDbArc
 50
244.4446917898608
 51
292.3204116574353
  0
LINE
  5
6F
330
2
100
AcDbEntity
  8
KIJUN
 62
     7
100
AcDbLine
 10
328.9550951061507
 20
93.7946417926148
 30
0.0
 11
340.151189842765
 21
93.7946417926148
 31
0.0
  0
LINE
  5
70
330
2
100
AcDbEntity
  8
KIJUN
 62
     7
100
AcDbLine
 10
328.9550951061507
 20
91.94912985754379
 30
0.0
 11
340.151189842765
 21
91.94912985754379
 31
0.0
  0
LINE
  5
71
330
2
100
AcDbEntity
  8
KIJUN
 62
     7
100
AcDbLine
 10
328.9550951061507
 20
89.9190563951732
 30
0.0
 11
340.151189842765
 21
89.9190563951732
 31
0.0
  0
LINE
  5
72
330
2
100
AcDbEntity
  8
KIJUN
 62
     7
100
AcDbLine
 10
329.0168083316086
 20
84.00135866753165
 30
0.0
 11
340.151189842765
 21
84.00135866753165
 31
0.0
  0
LINE
  5
73
330
2
100
AcDbEntity
  8
KIJUN
 62
     7
100
AcDbLine
 10
328.9550951061507
 20
85.82962608700045
 30
0.0
 11
340.151189842765
 21
85.82962608700045
 31
0.0
  0
LINE
  5
74
330
2
100
AcDbEntity
  8
KIJUN
 62
     7
100
AcDbLine
 10
328.9550951061507
 20
87.91316400636361
 30
0.0
 11
340.151189842765
 21
87.91316400636361
 31
0.0
  0
ARC
  5
75
330
2
100
AcDbEntity
  8
KIJUN
 62
     7
100
AcDbCircle
 10
351.4867028400906
 20
16.24256927994684
 30
0.0
 40
51.23762830557812
100
AcDbArc
 50
103.8762658558514
 51
109.3025015424082
  0
ARC
  5
76
330
2
100
AcDbEntity
  8
KIJUN
 62
     7
100
AcDbCircle
 10
351.4867028400906
 20
100.2571556459536
 30
0.0
 40
51.2376283055783
100
AcDbArc
 50
250.6974984575919
 51
256.1237341441485
  0
ARC
  5
77
330
2
100
AcDbEntity
  8
KIJUN
 62
     7
100
AcDbCircle
 10
332.9172748123939
 20
66.64901503043465
 30
0.0
 40
7.032305012685529
100
AcDbArc
 50
25.76260615274264
 51
98.16319222127237
  0
ARC
  5
78
330
2
100
AcDbEntity
  8
KIJUN
 62
     7
100
AcDbCircle
 10
335.7101465025313
 20
66.6629929749591
 30
0.0
 40
8.10809753725139
100
AcDbArc
 50
74.21783924518354
 51
118.3736862190124
  0
ARC
  5
79
330
2
100
AcDbEntity
  8
KIJUN
 62
     7
100
AcDbCircle
 10
332.9172748123939
 20
46.81184414667387
 30
0.0
 40
7.032305012685529
100
AcDbArc
 50
261.8368077787276
 51
334.2373938472574
  0
ARC
  5
7A
330
2
100
AcDbEntity
  8
KIJUN
 62
     7
100
AcDbCircle
 10
335.7101465025313
 20
46.79786620214946
 30
0.0
 40
8.10809753725139
100
AcDbArc
 50
241.6263137809875
 51
285.7821607548169
  0
LINE
  5
7B
330
2
100
AcDbEntity
  8
KIJUN
 62
     7
100
AcDbLine
 10
87.94536536969729
 20
33.5365435373763
 30
0.0
 11
393.9453653696971
 21
33.53654353737585
 31
0.0
  0
LINE
  5
7C
330
2
100
AcDbEntity
  8
KIJUN
 62
     7
100
AcDbLine
 10
87.94536536969729
 20
82.53654353737628
 30
0.0
 11
393.9453653696971
 21
82.53654353737653
 31
0.0
  0
LINE
  5
7D
330
2
100
AcDbEntity
  8
KIJUN
 62
     7
100
AcDbLine
 10
87.94536536969729
 20
23.53654353737607
 30
0.0
 11
393.9453653696971
 21
23.53654353737607
 31
0.0
  0
LINE
  5
7E
330
2
100
AcDbEntity
  8
KIJUN
 62
     7
100
AcDbLine
 10
87.94536536969713
 20
95.53654353737622
 30
0.0
 11
393.9453653696968
 21
95.536543537376
 31
0.0
  0
ARC
  5
7F
330
2
100
AcDbEntity
  8
KIJUN
 62
     7
100
AcDbCircle
 10
379.0726503165984
 20
111.1877137568224
 30
0.0
 40
70.34022899841263
100
AcDbArc
 50
245.611777564203
 51
267.9054974382744
  0
ARC
  5
80
330
2
100
AcDbEntity
  8
KIJUN
 62
     7
100
AcDbCircle
 10
367.4442473132994
 20
30.22844251623229
 30
0.0
 40
7.080037729581983
100
AcDbArc
 50
317.7831096656472
 51
348.1582884011118
  0
ARC
  5
81
330
2
100
AcDbEntity
  8
KIJUN
 62
     7
100
AcDbCircle
 10
374.6672249639335
 20
28.71399517528818
 30
0.0
 40
0.2999999999999999
100
AcDbArc
 50
12.77035161777764
 51
168.1582884011085
  0
ARC
  5
82
330
2
100
AcDbEntity
  8
KIJUN
 62
     7
100
AcDbCircle
 10
377.6141175419633
 20
30.26893931680144
 30
0.0
 40
7.133425299306913
100
AcDbArc
 50
311.8681378771993
 51
351.4597194168672
  0
ARC
  5
83
330
2
100
AcDbEntity
  8
KIJUN
 62
     7
100
AcDbCircle
 10
392.7139899324823
 20
30.90952530439636
 30
0.0
 40
7.642809917574137
100
AcDbArc
 50
192.6873397577066
 51
232.8477139241436
  0
ARC
  5
84
330
2
100
AcDbEntity
  8
KIJUN
 62
     7
100
AcDbCircle
 10
384.965118826366
 20
29.16504086264609
 30
0.0
 40
0.2999999999999999
100
AcDbArc
 50
12.68733975769382
 51
171.4597194168628
  0
ARC
  5
85
330
2
100
AcDbEntity
  8
KIJUN
 62
     7
100
AcDbCircle
 10
379.8121177775454
 20
29.57823962824301
 30
0.0
 40
5.398113552605123
100
AcDbArc
 50
245.6830086535634
 51
293.5093912082636
  0
ARC
  5
86
330
2
100
AcDbEntity
  8
KIJUN
 62
     7
100
AcDbCircle
 10
378.0010422523141
 20
25.57032143253132
 30
0.0
 40
0.9999999999999998
100
AcDbArc
 50
215.384886502983
 51
245.6830086535629
  0
ARC
  5
87
330
2
100
AcDbEntity
  8
KIJUN
 62
     7
100
AcDbCircle
 10
381.566522531882
 20
25.54519279246603
 30
0.0
 40
0.9999999999999998
100
AcDbArc
 50
293.5093912082676
 51
323.9569687958868
  0
ARC
  5
88
330
2
100
AcDbEntity
  8
KIJUN
 62
     7
100
AcDbCircle
 10
390.3360618981341
 20
29.57823962824301
 30
0.0
 40
5.398113552605123
100
AcDbArc
 50
250.8638034659151
 51
299.3134189641379
  0
ARC
  5
89
330
2
100
AcDbEntity
  8
KIJUN
 62
     7
100
AcDbCircle
 10
388.894295166416
 20
25.42315701619788
 30
0.0
 40
0.9999999999999998
100
AcDbArc
 50
217.2435538296249
 51
250.8638034659095
  0
ARC
  5
8A
330
2
100
AcDbEntity
  8
KIJUN
 62
     7
100
AcDbCircle
 10
392.489319716783
 20
25.74328414114331
 30
0.0
 40
0.9999999999999998
100
AcDbArc
 50
299.313418964129
 51
326.4327142865525
  0
ARC
  5
8B
330
2
100
AcDbEntity
  8
KIJUN
 62
     7
100
AcDbCircle
 10
379.8312256901507
 20
28.06540299809995
 30
0.0
 40
3.199999999999998
100
AcDbArc
 50
71.27662642606863
 51
108.7233735739314
  0
ARC
  5
8C
330
2
100
AcDbEntity
  8
KIJUN
 62
     7
100
AcDbCircle
 10
377.0516914019162
 20
28.83059312837992
 30
0.0
 40
4.583686550956493
100
AcDbArc
 50
316.3508454060718
 51
28.52958762984842
  0
ARC
  5
8D
330
2
100
AcDbEntity
  8
KIJUN
 62
     7
100
AcDbCircle
 10
390.616319349944
 20
28.06540299809995
 30
0.0
 40
3.199999999999998
100
AcDbArc
 50
71.27662642606863
 51
108.7233735739314
  0
ARC
  5
8E
330
2
100
AcDbEntity
  8
KIJUN
 62
     7
100
AcDbCircle
 10
385.6988090600248
 20
13.55673694707143
 30
0.0
 40
18.51937655492952
100
AcDbArc
 50
70.5552173107381
 51
71.27662642606863
  0
ARC
  5
8F
330
2
100
AcDbEntity
  8
KIJUN
 62
     7
100
AcDbCircle
 10
395.5338296398634
 20
13.55673694707143
 30
0.0
 40
18.51937655492952
100
AcDbArc
 50
108.7233735739314
 51
109.7380056766444
  0
ARC
  5
90
330
2
100
AcDbEntity
  8
KIJUN
 62
     7
100
AcDbCircle
 10
390.5745848394676
 20
26.21893919020254
 30
0.0
 40
0.8
100
AcDbArc
 50
222.9887082955468
 51
316.3508454060735
  0
ARC
  5
91
330
2
100
AcDbEntity
  8
KIJUN
 62
     7
100
AcDbCircle
 10
393.3763476258117
 20
28.83059312837992
 30
0.0
 40
4.630223362121511
100
AcDbArc
 50
152.2283629078379
 51
222.9887082955493
  0
ARC
  5
92
330
2
100
AcDbEntity
  8
KIJUN
 62
     7
100
AcDbCircle
 10
387.8367850617096
 20
28.83059312837992
 30
0.0
 40
4.583686550956493
100
AcDbArc
 50
316.3508454060718
 51
28.52958762984842
  0
ARC
  5
93
330
2
100
AcDbEntity
  8
KIJUN
 62
     7
100
AcDbCircle
 10
374.9137154002314
 20
13.55673694707143
 30
0.0
 40
18.51937655492952
100
AcDbArc
 50
70.5552173107381
 51
71.27662642606863
  0
ARC
  5
94
330
2
100
AcDbEntity
  8
KIJUN
 62
     7
100
AcDbCircle
 10
384.7487359800701
 20
13.55673694707143
 30
0.0
 40
18.51937655492952
100
AcDbArc
 50
108.7233735739314
 51
109.7380056766444
  0
ARC
  5
95
330
2
100
AcDbEntity
  8
KIJUN
 62
     7
100
AcDbCircle
 10
379.7894911796742
 20
26.21893919020254
 30
0.0
 40
0.8
100
AcDbArc
 50
222.9887082955468
 51
316.3508454060735
  0
ARC
  5
96
330
2
100
AcDbEntity
  8
KIJUN
 62
     7
100
AcDbCircle
 10
382.5912539660183
 20
28.83059312837992
 30
0.0
 40
4.630223362121511
100
AcDbArc
 50
152.2283629078379
 51
222.9887082955493
  0
ARC
  5
97
330
2
100
AcDbEntity
  8
KIJUN
 62
     7
100
AcDbCircle
 10
388.3622042747027
 20
30.11828983440711
 30
0.0
 40
6.992103272892951
100
AcDbArc
 50
315.1879144261838
 51
322.9866464886792
  0
ARC
  5
98
330
2
100
AcDbEntity
  8
KIJUN
 62
     7
100
AcDbCircle
 10
382.0225123291337
 20
30.38107339442358
 30
0.0
 40
7.241843409498067
100
AcDbArc
 50
192.7703516177796
 51
228.0956219600339
  0
ARC
  5
99
330
2
100
AcDbEntity
  8
KIJUN
 62
     7
100
AcDbCircle
 10
373.9310856160005
 20
111.1877137568224
 30
0.0
 40
70.34022899841263
100
AcDbArc
 50
272.0945025617256
 51
286.5310745969608
  0
ARC
  5
9A
330
2
100
AcDbEntity
  8
KIJUN
 62
     7
100
AcDbCircle
 10
361.340208629039
 20
30.58245352777618
 30
0.0
 40
7.241843409498067
100
AcDbArc
 50
192.7703516177796
 51
228.0956219600339
  0
ARC
  5
9B
330
2
100
AcDbEntity
  8
KIJUN
 62
     7
100
AcDbCircle
 10
361.9089502659236
 20
29.03197326173251
 30
0.0
 40
4.630223362121511
100
AcDbArc
 50
152.2283629078379
 51
222.9887082955493
  0
ARC
  5
9C
330
2
100
AcDbEntity
  8
KIJUN
 62
     7
100
AcDbCircle
 10
359.1071874795795
 20
26.42031932355513
 30
0.0
 40
0.8
100
AcDbArc
 50
222.9887082955468
 51
316.3508454060735
  0
ARC
  5
9D
330
2
100
AcDbEntity
  8
KIJUN
 62
     7
100
AcDbCircle
 10
364.0664322799754
 20
13.75811708042402
 30
0.0
 40
18.51937655492952
100
AcDbArc
 50
108.7233735739314
 51
109.7380056766444
  0
ARC
  5
9E
330
2
100
AcDbEntity
  8
KIJUN
 62
     7
100
AcDbCircle
 10
354.2314117001367
 20
13.75811708042402
 30
0.0
 40
18.51937655492952
100
AcDbArc
 50
70.5552173107381
 51
71.27662642606863
  0
ARC
  5
9F
330
2
100
AcDbEntity
  8
KIJUN
 62
     7
100
AcDbCircle
 10
367.1544813616147
 20
29.03197326173251
 30
0.0
 40
4.583686550956493
100
AcDbArc
 50
316.3508454060718
 51
28.52958762984842
  0
ARC
  5
A0
330
2
100
AcDbEntity
  8
KIJUN
 62
     7
100
AcDbCircle
 10
372.6940439257169
 20
29.03197326173251
 30
0.0
 40
4.630223362121511
100
AcDbArc
 50
152.2283629078379
 51
222.9887082955493
  0
ARC
  5
A1
330
2
100
AcDbEntity
  8
KIJUN
 62
     7
100
AcDbCircle
 10
369.8922811393729
 20
26.42031932355513
 30
0.0
 40
0.8
100
AcDbArc
 50
222.9887082955468
 51
316.3508454060735
  0
ARC
  5
A2
330
2
100
AcDbEntity
  8
KIJUN
 62
     7
100
AcDbCircle
 10
374.8515259397687
 20
13.75811708042402
 30
0.0
 40
18.51937655492952
100
AcDbArc
 50
108.7233735739314
 51
109.7380056766444
  0
ARC
  5
A3
330
2
100
AcDbEntity
  8
KIJUN
 62
     7
100
AcDbCircle
 10
365.0165053599299
 20
13.75811708042402
 30
0.0
 40
18.51937655492952
100
AcDbArc
 50
70.5552173107381
 51
71.27662642606863
  0
ARC
  5
A4
330
2
100
AcDbEntity
  8
KIJUN
 62
     7
100
AcDbCircle
 10
369.9340156498494
 20
28.26678313145254
 30
0.0
 40
3.199999999999998
100
AcDbArc
 50
71.27662642606863
 51
108.7233735739314
  0
ARC
  5
A5
330
2
100
AcDbEntity
  8
KIJUN
 62
     7
100
AcDbCircle
 10
356.3693877018214
 20
29.03197326173251
 30
0.0
 40
4.583686550956493
100
AcDbArc
 50
316.3508454060718
 51
28.52958762984842
  0
ARC
  5
A6
330
2
100
AcDbEntity
  8
KIJUN
 62
     7
100
AcDbCircle
 10
359.1489219900561
 20
28.26678313145254
 30
0.0
 40
3.199999999999998
100
AcDbArc
 50
71.27662642606863
 51
108.7233735739314
  0
ARC
  5
A7
330
2
100
AcDbEntity
  8
KIJUN
 62
     7
100
AcDbCircle
 10
371.8070160166882
 20
25.94466427449589
 30
0.0
 40
0.9999999999999998
100
AcDbArc
 50
299.313418964129
 51
331.7334022016187
  0
ARC
  5
A8
330
2
100
AcDbEntity
  8
KIJUN
 62
     7
100
AcDbCircle
 10
368.2119914663214
 20
25.62453714955046
 30
0.0
 40
0.9999999999999998
100
AcDbArc
 50
217.2435538296249
 51
250.8638034659095
  0
ARC
  5
A9
330
2
100
AcDbEntity
  8
KIJUN
 62
     7
100
AcDbCircle
 10
369.6537581980394
 20
29.7796197615956
 30
0.0
 40
5.398113552605123
100
AcDbArc
 50
250.8638034659151
 51
299.3134189641379
  0
ARC
  5
AA
330
2
100
AcDbEntity
  8
KIJUN
 62
     7
100
AcDbCircle
 10
360.8842188317874
 20
25.74657292581861
 30
0.0
 40
0.9999999999999998
100
AcDbArc
 50
293.5093912082676
 51
323.9569687958868
  0
ARC
  5
AB
330
2
100
AcDbEntity
  8
KIJUN
 62
     7
100
AcDbCircle
 10
357.3187385522194
 20
25.77170156588393
 30
0.0
 40
0.9999999999999998
100
AcDbArc
 50
215.384886502983
 51
245.6830086535629
  0
ARC
  5
AC
330
2
100
AcDbEntity
  8
KIJUN
 62
     7
100
AcDbCircle
 10
359.1298140774508
 20
29.7796197615956
 30
0.0
 40
5.398113552605123
100
AcDbArc
 50
245.6830086535634
 51
293.5093912082636
  0
ARC
  5
AD
330
2
100
AcDbEntity
  8
KIJUN
 62
     7
100
AcDbCircle
 10
364.2828151262713
 20
29.36642099599867
 30
0.0
 40
0.2999999999999999
100
AcDbArc
 50
12.68733975769382
 51
171.4597194168628
  0
ARC
  5
AE
330
2
100
AcDbEntity
  8
KIJUN
 62
     7
100
AcDbCircle
 10
372.0316862323877
 20
31.11090543774896
 30
0.0
 40
7.642809917574137
100
AcDbArc
 50
192.6873397577066
 51
232.8477139241436
  0
ARC
  5
AF
330
2
100
AcDbEntity
  8
KIJUN
 62
     7
100
AcDbCircle
 10
356.9318138418687
 20
30.47031945015401
 30
0.0
 40
7.133425299306913
100
AcDbArc
 50
311.8681378771993
 51
351.4597194168672
  0
ARC
  5
B0
330
2
100
AcDbEntity
  8
KIJUN
 62
     7
100
AcDbCircle
 10
346.2084465857572
 20
29.03197326173251
 30
0.0
 40
4.583686550956493
100
AcDbArc
 50
316.3508454060718
 51
28.52958762984842
  0
ARC
  5
B1
330
2
100
AcDbEntity
  8
KIJUN
 62
     7
100
AcDbCircle
 10
351.7480091498593
 20
29.03197326173251
 30
0.0
 40
4.630223362121511
100
AcDbArc
 50
152.2283629078379
 51
222.9887082955493
  0
ARC
  5
B2
330
2
100
AcDbEntity
  8
KIJUN
 62
     7
100
AcDbCircle
 10
348.9462463635152
 20
26.42031932355513
 30
0.0
 40
0.8
100
AcDbArc
 50
222.9887082955468
 51
316.3508454060735
  0
ARC
  5
B3
330
2
100
AcDbEntity
  8
KIJUN
 62
     7
100
AcDbCircle
 10
353.9054911639111
 20
13.75811708042402
 30
0.0
 40
18.51937655492952
100
AcDbArc
 50
108.7233735739314
 51
109.7380056766444
  0
ARC
  5
B4
330
2
100
AcDbEntity
  8
KIJUN
 62
     7
100
AcDbCircle
 10
344.0704705840724
 20
13.75811708042402
 30
0.0
 40
18.51937655492952
100
AcDbArc
 50
70.5552173107381
 51
71.27662642606863
  0
ARC
  5
B5
330
2
100
AcDbEntity
  8
KIJUN
 62
     7
100
AcDbCircle
 10
348.9879808739917
 20
28.26678313145254
 30
0.0
 40
3.199999999999998
100
AcDbArc
 50
71.27662642606863
 51
108.7233735739314
  0
ARC
  5
B6
330
2
100
AcDbEntity
  8
KIJUN
 62
     7
100
AcDbCircle
 10
338.1912577427668
 20
28.26678313145254
 30
0.0
 40
3.199999999999998
100
AcDbArc
 50
71.27662642606863
 51
108.7233735739314
  0
ARC
  5
B7
330
2
100
AcDbEntity
  8
KIJUN
 62
     7
100
AcDbCircle
 10
333.2737474528473
 20
13.75811708042402
 30
0.0
 40
18.51937655492952
100
AcDbArc
 50
70.5552173107381
 51
71.27662642606863
  0
ARC
  5
B8
330
2
100
AcDbEntity
  8
KIJUN
 62
     7
100
AcDbCircle
 10
343.108768032686
 20
13.75811708042402
 30
0.0
 40
18.51937655492952
100
AcDbArc
 50
108.7233735739314
 51
109.7380056766444
  0
ARC
  5
B9
330
2
100
AcDbEntity
  8
KIJUN
 62
     7
100
AcDbCircle
 10
335.4117234545321
 20
29.03197326173251
 30
0.0
 40
4.583686550956493
100
AcDbArc
 50
316.3508454060718
 51
28.52958762984842
  0
ARC
  5
BA
330
2
100
AcDbEntity
  8
KIJUN
 62
     7
100
AcDbCircle
 10
338.1495232322901
 20
26.42031932355513
 30
0.0
 40
0.8
100
AcDbArc
 50
222.9887082955468
 51
316.3508454060735
  0
ARC
  5
BB
330
2
100
AcDbEntity
  8
KIJUN
 62
     7
100
AcDbCircle
 10
350.7932009140579
 20
25.84487689537338
 30
0.0
 40
0.9999999999999998
100
AcDbArc
 50
296.5373492156036
 51
325.1948677071017
  0
ARC
  5
BC
330
2
100
AcDbEntity
  8
KIJUN
 62
     7
100
AcDbCircle
 10
347.2197600793772
 20
25.68617358705757
 30
0.0
 40
0.9999999999999998
100
AcDbArc
 50
216.4596838030823
 51
248.5485379340442
  0
ARC
  5
BD
330
2
100
AcDbEntity
  8
KIJUN
 62
     7
100
AcDbCircle
 10
348.8282069195832
 20
29.7796197615956
 30
0.0
 40
5.398113552605123
100
AcDbArc
 50
248.548537934039
 51
296.5373492155958
  0
ARC
  5
BE
330
2
100
AcDbEntity
  8
KIJUN
 62
     7
100
AcDbCircle
 10
339.9004804005454
 20
25.71103716193312
 30
0.0
 40
0.9999999999999998
100
AcDbArc
 50
292.3204116574282
 51
323.5046960568321
  0
ARC
  5
BF
330
2
100
AcDbEntity
  8
KIJUN
 62
     7
100
AcDbCircle
 10
353.9849212638389
 20
28.91537530864076
 30
0.0
 40
0.2999999999999999
100
AcDbArc
 50
12.77035161777764
 51
168.1582884011085
  0
ARC
  5
C0
330
2
100
AcDbEntity
  8
KIJUN
 62
     7
100
AcDbCircle
 10
346.7619436132047
 20
30.42982264958487
 30
0.0
 40
7.080037729581983
100
AcDbArc
 50
313.2637115001602
 51
348.1582884011118
  0
ARC
  5
C1
330
2
100
AcDbEntity
  8
KIJUN
 62
     7
100
AcDbCircle
 10
343.7871605556863
 20
28.83931276123787
 30
0.0
 40
0.2999999999999999
100
AcDbArc
 50
13.60630116877428
 51
161.5128410617493
  0
ARC
  5
C2
330
2
100
AcDbEntity
  8
KIJUN
 62
     7
100
AcDbCircle
 10
351.1709036198802
 20
30.62648779087869
 30
0.0
 40
7.296950455584057
100
AcDbArc
 50
193.6063011687619
 51
229.3301424383904
  0
ARC
  5
C3
330
2
100
AcDbEntity
  8
KIJUN
 62
     7
100
AcDbCircle
 10
336.1394826080011
 20
31.39628427410281
 30
0.0
 40
7.763813075035717
100
AcDbArc
 50
306.0132150135907
 51
341.5128410617338
  0
ARC
  5
C4
330
2
100
AcDbEntity
  8
KIJUN
 62
     7
100
AcDbCircle
 10
347.385104873136
 20
46.81184414667387
 30
0.0
 40
7.032305012685529
100
AcDbArc
 50
205.7626061527426
 51
278.1631922212724
  0
ARC
  5
C5
330
2
100
AcDbEntity
  8
KIJUN
 62
     7
100
AcDbCircle
 10
340.151189842765
 20
43.32065564557781
 30
0.0
 40
0.9999999999999998
100
AcDbArc
 50
25.76260615275184
 51
154.2373938472482
  0
ARC
  5
C6
330
2
100
AcDbEntity
  8
KIJUN
 62
     7
100
AcDbCircle
 10
344.5922331829987
 20
46.79786620214946
 30
0.0
 40
8.10809753725139
100
AcDbArc
 50
254.2178392452441
 51
298.3736862190125
  0
ARC
  5
C7
330
2
100
AcDbEntity
  8
KIJUN
 62
     7
100
AcDbCircle
 10
342.3597895300769
 20
38.89919159702964
 30
0.0
 40
0.1
100
AcDbArc
 50
74.21783924535361
 51
207.5195943311309
  0
ARC
  5
C8
330
2
100
AcDbEntity
  8
KIJUN
 62
     7
100
AcDbCircle
 10
337.9425901554615
 20
38.89919159703215
 30
0.0
 40
0.1
100
AcDbArc
 50
332.4804056688113
 51
105.7821607548972
  0
ARC
  5
C9
330
2
100
AcDbEntity
  8
KIJUN
 62
     7
100
AcDbCircle
 10
348.3978426532974
 20
39.75180611684601
 30
0.0
 40
0.1
100
AcDbArc
 50
298.3736862190601
 51
98.16319222138631
  0
ARC
  5
CA
330
2
100
AcDbEntity
  8
KIJUN
 62
     7
100
AcDbCircle
 10
328.2491889343984
 20
46.08117281630352
 30
0.0
 40
12.16289008678964
100
AcDbArc
 50
323.5385369542497
 51
339.0033704446495
  0
ARC
  5
CB
330
2
100
AcDbEntity
  8
KIJUN
 62
     7
100
AcDbCircle
 10
340.3029611162012
 20
37.66943410554706
 30
0.0
 40
2.561513584441384
100
AcDbArc
 50
152.4804056687798
 51
266.6031999505348
  0
ARC
  5
CC
330
2
100
AcDbEntity
  8
KIJUN
 62
     7
100
AcDbCircle
 10
352.0531907511314
 20
46.08117281630352
 30
0.0
 40
12.16289008678964
100
AcDbArc
 50
200.9966295553503
 51
216.4614630457503
  0
ARC
  5
CD
330
2
100
AcDbEntity
  8
KIJUN
 62
     7
100
AcDbCircle
 10
339.9994185693359
 20
37.66943410554727
 30
0.0
 40
2.561513584441384
100
AcDbArc
 50
273.3968000493587
 51
27.51959433115185
  0
ARC
  5
CE
330
2
100
AcDbEntity
  8
KIJUN
 62
     7
100
AcDbCircle
 10
380.5773850092339
 20
29.51954307844159
 30
0.0
 40
45.71870135304531
100
AcDbArc
 50
72.99852476925102
 51
95.11432511960318
  0
ARC
  5
CF
330
2
100
AcDbEntity
  8
KIJUN
 62
     7
100
AcDbCircle
 10
362.8762781492726
 20
54.2855953397962
 30
0.0
 40
17.2891241167071
100
AcDbArc
 50
187.9318753716742
 51
210.0729288757983
  0
ARC
  5
D0
330
2
100
AcDbEntity
  8
KIJUN
 62
     7
100
AcDbCircle
 10
362.8762781492726
 20
62.21412958610389
 30
0.0
 40
17.28912411670711
100
AcDbArc
 50
149.927071124202
 51
172.0681246283255
  0
ARC
  5
D1
330
2
100
AcDbEntity
  8
KIJUN
 62
     7
100
AcDbCircle
 10
372.4263509233652
 20
29.51954307844159
 30
0.0
 40
45.71870135304531
100
AcDbArc
 50
84.88567488039683
 51
119.3351603718926
  0
LINE
  5
D2
330
2
100
AcDbEntity
  8
KIJUN
 62
     7
100
AcDbLine
 10
347.9144728033091
 20
70.87774277647652
 30
0.0
 11
350.0279582618652
 21
69.37568011642118
 31
0.0
  0
LINE
  5
D3
330
2
100
AcDbEntity
  8
KIJUN
 62
     7
100
AcDbLine
 10
347.9144728033091
 20
45.62198214942355
 30
0.0
 11
350.0279582618652
 21
47.12404480947887
 31
0.0
  0
ARC
  5
D4
330
2
100
AcDbEntity
  8
KIJUN
 62
     7
100
AcDbCircle
 10
401.5024054709829
 20
118.7696753744631
 30
0.0
 40
30.89528221548988
100
AcDbArc
 50
255.0791237363539
 51
255.8417003704057
  0
ARC
  5
D5
330
2
100
AcDbEntity
  8
KIJUN
 62
     7
100
AcDbCircle
 10
401.0653567559613
 20
102.2938488481855
 30
0.0
 40
16.50161543791888
100
AcDbArc
 50
234.322502376871
 51
244.438962197587
  0
ARC
  5
D6
330
2
100
AcDbEntity
  8
KIJUN
 62
     7
100
AcDbCircle
 10
401.5676795325465
 20
97.27257357655552
 30
0.0
 40
13.36882843385103
100
AcDbArc
 50
221.8706710794596
 51
235.2389138608468
  0
ARC
  5
D7
330
2
100
AcDbEntity
  8
KIJUN
 62
     7
100
AcDbCircle
 10
380.4061743006858
 20
89.08976565991364
 30
0.0
 40
4.475298131879016
100
AcDbArc
 50
302.3271032911907
 51
57.6728967088093
  0
ARC
  5
D8
330
2
100
AcDbEntity
  8
KIJUN
 62
     7
100
AcDbCircle
 10
385.1925247502422
 20
89.08976565991364
 30
0.0
 40
4.475298131879016
100
AcDbArc
 50
122.3271032911907
 51
237.6728967088094
  0
ARC
  5
D9
330
2
100
AcDbEntity
  8
KIJUN
 62
     7
100
AcDbCircle
 10
372.4073364944524
 20
89.08976565991364
 30
0.0
 40
4.475298131879016
100
AcDbArc
 50
302.3271032911907
 51
57.6728967088093
  0
LINE
  5
DA
330
2
100
AcDbEntity
  8
KIJUN
 62
     7
100
AcDbLine
 10
380.8300583555596
 20
88.09117649290561
 30
0.0
 11
376.7698028891349
 21
88.09117649290561
 31
0.0
  0
LINE
  5
DB
330
2
100
AcDbEntity
  8
KIJUN
 62
     7
100
AcDbLine
 10
380.8300583555596
 20
88.09117649290561
 30
0.0
 11
376.7698028891349
 21
88.09117649290561
 31
0.0
  0
LINE
  5
DC
330
2
100
AcDbEntity
  8
KIJUN
 62
     7
100
AcDbLine
 10
391.8502971027928
 20
88.0911764929054
 30
0.0
 11
384.7686406953684
 21
88.09117649290561
 31
0.0
  0
ARC
  5
DD
330
2
100
AcDbEntity
  8
KIJUN
 62
     7
100
AcDbCircle
 10
401.5024054709829
 20
59.06254502707412
 30
0.0
 40
30.89528221548973
100
AcDbArc
 50
104.1582996295943
 51
104.9208762636461
  0
ARC
  5
DE
330
2
100
AcDbEntity
  8
KIJUN
 62
     7
100
AcDbCircle
 10
401.0653567559613
 20
75.4849070963592
 30
0.0
 40
16.50161543791881
100
AcDbArc
 50
115.5610378024132
 51
125.6774976231289
  0
ARC
  5
DF
330
2
100
AcDbEntity
  8
KIJUN
 62
     7
100
AcDbCircle
 10
400.9776055371961
 20
80.9157642558717
 30
0.0
 40
12.91940456011924
100
AcDbArc
 50
122.9779420720888
 51
136.4591898425413
  0
LINE
  5
E0
330
2
100
AcDbEntity
  8
KIJUN
 62
     7
100
AcDbLine
 10
376.7696650383689
 20
90.08895685489649
 30
0.0
 11
380.8301962063254
 21
90.08895685489649
 31
0.0
  0
LINE
  5
E1
330
2
100
AcDbEntity
  8
KIJUN
 62
     7
100
AcDbLine
 10
384.7685028446025
 20
90.08895685489649
 30
0.0
 11
391.8801579979562
 21
90.08895685489672
 31
0.0
  0
LINE
  5
E2
330
2
100
AcDbEntity
  8
KIJUN
 62
     7
100
AcDbLine
 10
376.7696650383689
 20
90.08895685489649
 30
0.0
 11
380.8301962063254
 21
90.08895685489649
 31
0.0
  0
ARC
  5
E3
330
2
100
AcDbEntity
  8
KIJUN
 62
     7
100
AcDbCircle
 10
392.2927450261704
 20
89.08254884013294
 30
0.0
 40
0.9999999999999998
100
AcDbArc
 50
132.8598790256259
 51
227.1401209743745
  0
ARC
  5
E4
330
2
100
AcDbEntity
  8
KIJUN
 62
     7
100
AcDbCircle
 10
350.2370229295686
 20
75.48490709635898
 30
0.0
 40
16.50161543791881
100
AcDbArc
 50
54.32250237687103
 51
86.14211106816552
  0
ARC
  5
E5
330
2
100
AcDbEntity
  8
KIJUN
 62
     7
100
AcDbCircle
 10
349.7999742145472
 20
59.0625450270739
 30
0.0
 40
30.89528221548973
100
AcDbArc
 50
75.07912373635389
 51
87.12928802635763
  0
ARC
  5
E6
330
2
100
AcDbEntity
  8
KIJUN
 62
     7
100
AcDbCircle
 10
350.3247741483339
 20
80.91576425587145
 30
0.0
 40
12.91940456011924
100
AcDbArc
 50
43.54081015745864
 51
85.46055949364863
  0
LINE
  5
E7
330
2
100
AcDbEntity
  8
KIJUN
 62
     7
100
AcDbLine
 10
351.3472845793792
 20
89.9190563951732
 30
0.0
 11
340.151189842765
 21
89.9190563951732
 31
0.0
  0
LINE
  5
E8
330
2
100
AcDbEntity
  8
KIJUN
 62
     7
100
AcDbLine
 10
351.3472845793792
 20
91.94912985754379
 30
0.0
 11
340.151189842765
 21
91.94912985754379
 31
0.0
  0
LINE
  5
E9
330
2
100
AcDbEntity
  8
KIJUN
 62
     7
100
AcDbLine
 10
351.3472845793792
 20
93.7946417926148
 30
0.0
 11
340.151189842765
 21
93.7946417926148
 31
0.0
  0
ARC
  5
EA
330
2
100
AcDbEntity
  8
KIJUN
 62
     7
100
AcDbCircle
 10
359.0096346593597
 20
89.08254884013269
 30
0.0
 40
0.9999999999999998
100
AcDbArc
 50
312.8598790256257
 51
47.1401209743741
  0
LINE
  5
EB
330
2
100
AcDbEntity
  8
KIJUN
 62
     7
100
AcDbLine
 10
368.7708272321349
 20
90.08895685489649
 30
0.0
 11
372.8313584000917
 21
90.08895685489649
 31
0.0
  0
LINE
  5
EC
330
2
100
AcDbEntity
  8
KIJUN
 62
     7
100
AcDbLine
 10
359.4222216875738
 20
90.08895685489649
 30
0.0
 11
364.8325205938588
 21
90.08895685489649
 31
0.0
  0
LINE
  5
ED
330
2
100
AcDbEntity
  8
KIJUN
 62
     7
100
AcDbLine
 10
351.2855713539212
 20
84.00135866753165
 30
0.0
 11
340.151189842765
 21
84.00135866753165
 31
0.0
  0
LINE
  5
EE
330
2
100
AcDbEntity
  8
KIJUN
 62
     7
100
AcDbLine
 10
351.3472845793792
 20
85.82962608700045
 30
0.0
 11
340.151189842765
 21
85.82962608700045
 31
0.0
  0
LINE
  5
EF
330
2
100
AcDbEntity
  8
KIJUN
 62
     7
100
AcDbLine
 10
351.3472845793792
 20
87.91316400636361
 30
0.0
 11
340.151189842765
 21
87.91316400636361
 31
0.0
  0
ARC
  5
F0
330
2
100
AcDbEntity
  8
KIJUN
 62
     7
100
AcDbCircle
 10
351.2855713539212
 20
85.00135866753161
 30
0.0
 40
0.9999999999999998
100
AcDbArc
 50
270.0
 51
277.2030159518941
  0
LINE
  5
F1
330
2
100
AcDbEntity
  8
KIJUN
 62
     7
100
AcDbLine
 10
372.8312205493259
 20
88.0911764929054
 30
0.0
 11
368.7709650829012
 21
88.0911764929054
 31
0.0
  0
LINE
  5
F2
330
2
100
AcDbEntity
  8
KIJUN
 62
     7
100
AcDbLine
 10
364.8323827430924
 20
88.0911764929054
 30
0.0
 11
359.4520825827369
 21
88.09117649290493
 31
0.0
  0
ARC
  5
F3
330
2
100
AcDbEntity
  8
KIJUN
 62
     7
100
AcDbCircle
 10
348.4871985366727
 20
33.59461331070434
 30
0.0
 40
28.93652586707739
100
AcDbArc
 50
108.7233735739314
 51
109.4447826892623
  0
ARC
  5
F4
330
2
100
AcDbEntity
  8
KIJUN
 62
     7
100
AcDbCircle
 10
333.1199788806754
 20
33.59461331070434
 30
0.0
 40
28.93652586707739
100
AcDbArc
 50
70.26199432335559
 51
71.27662642606863
  0
ARC
  5
F5
330
2
100
AcDbEntity
  8
KIJUN
 62
     7
100
AcDbCircle
 10
340.803588708674
 20
56.26440401543624
 30
0.0
 40
4.999999999999999
100
AcDbArc
 50
71.27662642606863
 51
108.7233735739314
  0
ARC
  5
F6
330
2
100
AcDbEntity
  8
KIJUN
 62
     7
100
AcDbCircle
 10
333.1199788806754
 20
38.57968629932822
 30
0.0
 40
28.93652586707739
100
AcDbArc
 50
64.05556146851527
 51
71.27662642606863
  0
ARC
  5
F7
330
2
100
AcDbEntity
  8
KIJUN
 62
     7
100
AcDbCircle
 10
340.803588708674
 20
61.24947700406011
 30
0.0
 40
4.999999999999999
100
AcDbArc
 50
71.27662642606863
 51
108.7233735739314
  0
ARC
  5
F8
330
2
100
AcDbEntity
  8
KIJUN
 62
     7
100
AcDbCircle
 10
333.1199788806754
 20
82.90511161519573
 30
0.0
 40
28.93652586707739
100
AcDbArc
 50
288.7233735739318
 51
289.7380056766444
  0
ARC
  5
F9
330
2
100
AcDbEntity
  8
KIJUN
 62
     7
100
AcDbCircle
 10
348.4871985366727
 20
82.90511161519573
 30
0.0
 40
28.93652586707739
100
AcDbArc
 50
250.5552173107381
 51
251.2766264260686
  0
ARC
  5
FA
330
2
100
AcDbEntity
  8
KIJUN
 62
     7
100
AcDbCircle
 10
340.803588708674
 20
60.23532091046383
 30
0.0
 40
4.999999999999999
100
AcDbArc
 50
251.2766264260686
 51
288.7233735739314
  0
ARC
  5
FB
330
2
100
AcDbEntity
  8
KIJUN
 62
     7
100
AcDbCircle
 10
333.1199788806754
 20
77.92003862657185
 30
0.0
 40
28.93652586707739
100
AcDbArc
 50
288.7233735739318
 51
295.9444385314851
  0
ARC
  5
FC
330
2
100
AcDbEntity
  8
KIJUN
 62
     7
100
AcDbCircle
 10
340.803588708674
 20
55.25024792183997
 30
0.0
 40
4.999999999999999
100
AcDbArc
 50
251.2766264260686
 51
288.7233735739314
  0
ARC
  5
FD
330
2
100
AcDbEntity
  8
KIJUN
 62
     7
100
AcDbCircle
 10
342.3986094811612
 20
58.24986246295003
 30
0.0
 40
4.414008682989955
100
AcDbArc
 50
143.4149527862895
 51
216.5850472137104
  0
ARC
  5
FE
330
2
100
AcDbEntity
  8
KIJUN
 62
     7
100
AcDbCircle
 10
339.3117598479563
 20
58.24986246295003
 30
0.0
 40
4.414008682989955
100
AcDbArc
 50
324.2135533823009
 51
35.78644661769905
  0
ARC
  5
FF
330
2
100
AcDbEntity
  8
KIJUN
 62
     7
100
AcDbCircle
 10
347.385104873136
 20
66.64901503043465
 30
0.0
 40
7.032305012685529
100
AcDbArc
 50
81.83680777872762
 51
154.2373938472574
  0
ARC
  5
100
330
2
100
AcDbEntity
  8
KIJUN
 62
     7
100
AcDbCircle
 10
344.5922331829987
 20
66.6629929749591
 30
0.0
 40
8.10809753725139
100
AcDbArc
 50
61.62631378098753
 51
105.7821607547559
  0
ARC
  5
101
330
2
100
AcDbEntity
  8
KIJUN
 62
     7
100
AcDbCircle
 10
340.3029611162012
 20
75.79142507156149
 30
0.0
 40
2.561513584441384
100
AcDbArc
 50
93.39680004946519
 51
207.5195943312202
  0
ARC
  5
102
330
2
100
AcDbEntity
  8
KIJUN
 62
     7
100
AcDbCircle
 10
348.3978426532974
 20
73.70905306026251
 30
0.0
 40
0.1
100
AcDbArc
 50
261.8368077786137
 51
61.62631378093987
  0
ARC
  5
103
330
2
100
AcDbEntity
  8
KIJUN
 62
     7
100
AcDbCircle
 10
337.9425901554615
 20
74.5616675800764
 30
0.0
 40
0.1
100
AcDbArc
 50
254.2178392451027
 51
27.5195943311888
  0
ARC
  5
104
330
2
100
AcDbEntity
  8
KIJUN
 62
     7
100
AcDbCircle
 10
339.9994185693359
 20
75.79142507156126
 30
0.0
 40
2.561513584441384
100
AcDbArc
 50
332.4804056688481
 51
86.60319995064126
  0
ARC
  5
105
330
2
100
AcDbEntity
  8
KIJUN
 62
     7
100
AcDbCircle
 10
342.3597895300769
 20
74.5616675800789
 30
0.0
 40
0.1
100
AcDbArc
 50
152.480405668869
 51
285.7821607546469
  0
ARC
  5
106
330
2
100
AcDbEntity
  8
KIJUN
 62
     7
100
AcDbCircle
 10
340.151189842765
 20
70.14020353153076
 30
0.0
 40
0.9999999999999998
100
AcDbArc
 50
205.7626061527518
 51
334.2373938472482
  0
ARC
  5
107
330
2
100
AcDbEntity
  8
KIJUN
 62
     7
100
AcDbCircle
 10
328.2491889343984
 20
67.37968636080501
 30
0.0
 40
12.16289008678964
100
AcDbArc
 50
20.99662955535054
 51
36.46146304575033
  0
ARC
  5
108
330
2
100
AcDbEntity
  8
KIJUN
 62
     7
100
AcDbCircle
 10
352.0531907511314
 20
67.37968636080501
 30
0.0
 40
12.16289008678964
100
AcDbArc
 50
143.5385369542497
 51
159.0033704446494
  0
ARC
  5
109
330
2
100
AcDbEntity
  8
KIJUN
 62
     7
100
AcDbCircle
 10
350.2370229295686
 20
102.2938488481852
 30
0.0
 40
16.50161543791888
100
AcDbArc
 50
273.8578889318345
 51
305.6774976231289
  0
ARC
  5
10A
330
2
100
AcDbEntity
  8
KIJUN
 62
     7
100
AcDbCircle
 10
349.7999742145472
 20
118.7696753744628
 30
0.0
 40
30.89528221548988
100
AcDbArc
 50
272.8707119736423
 51
284.9208762636461
  0
ARC
  5
10B
330
2
100
AcDbEntity
  8
KIJUN
 62
     7
100
AcDbCircle
 10
349.7347001529835
 20
97.27257357655531
 30
0.0
 40
13.36882843385103
100
AcDbArc
 50
277.2030159518924
 51
318.1293289205404
  0
ARC
  5
10C
330
2
100
AcDbEntity
  8
KIJUN
 62
     7
100
AcDbCircle
 10
364.4084986882186
 20
89.08976565991343
 30
0.0
 40
4.475298131879016
100
AcDbArc
 50
302.3271032911907
 51
57.6728967088093
  0
ARC
  5
10D
330
2
100
AcDbEntity
  8
KIJUN
 62
     7
100
AcDbCircle
 10
369.194849137775
 20
89.08976565991343
 30
0.0
 40
4.475298131879016
100
AcDbArc
 50
122.3271032911907
 51
237.6728967088094
  0
ARC
  5
10E
330
2
100
AcDbEntity
  8
KIJUN
 62
     7
100
AcDbCircle
 10
377.1936869440084
 20
89.08976565991343
 30
0.0
 40
4.475298131879016
100
AcDbArc
 50
122.3271032911907
 51
237.6728967088094
  0
ARC
  5
10F
330
2
100
AcDbEntity
  8
KIJUN
 62
     7
100
AcDbCircle
 10
159.0316862323877
 20
31.11090543774896
 30
0.0
 40
7.642809917574137
100
AcDbArc
 50
192.6873397577066
 51
232.8477139241436
  0
ARC
  5
110
330
2
100
AcDbEntity
  8
KIJUN
 62
     7
100
AcDbCircle
 10
164.3712940695292
 20
111.1877137568224
 30
0.0
 40
70.34022899841263
100
AcDbArc
 50
245.611777564203
 51
267.9054974382744
  0
ARC
  5
111
330
2
100
AcDbEntity
  8
KIJUN
 62
     7
100
AcDbCircle
 10
157.724994676296
 20
29.51954307844159
 30
0.0
 40
45.71870135304531
100
AcDbArc
 50
84.88567488039683
 51
119.3351603718926
  0
ARC
  5
112
330
2
100
AcDbEntity
  8
KIJUN
 62
     7
100
AcDbCircle
 10
156.1948491377749
 20
89.08976565991343
 30
0.0
 40
4.475298131879016
100
AcDbArc
 50
122.3271032911907
 51
237.6728967088094
  0
ARC
  5
113
330
2
100
AcDbEntity
  8
KIJUN
 62
     7
100
AcDbCircle
 10
235.3712940695292
 20
111.1877137568224
 30
0.0
 40
70.34022899841263
100
AcDbArc
 50
246.545241289089
 51
267.9054974382744
  0
ARC
  5
114
330
2
100
AcDbEntity
  8
KIJUN
 62
     7
100
AcDbCircle
 10
230.2297293689314
 20
111.1877137568224
 30
0.0
 40
70.34022899841263
100
AcDbArc
 50
272.0945025617256
 51
293.454758710911
  0
ARC
  5
115
330
2
100
AcDbEntity
  8
KIJUN
 62
     7
100
AcDbCircle
 10
306.3712940695292
 20
111.1877137568224
 30
0.0
 40
70.34022899841263
100
AcDbArc
 50
245.611777564203
 51
267.9054974382744
  0
ARC
  5
116
330
2
100
AcDbEntity
  8
KIJUN
 62
     7
100
AcDbCircle
 10
301.2297293689314
 20
111.1877137568224
 30
0.0
 40
70.34022899841263
100
AcDbArc
 50
272.0945025617256
 51
294.3882224357969
  0
ARC
  5
117
330
2
100
AcDbEntity
  8
KIJUN
 62
     7
100
AcDbCircle
 10
159.2297293689314
 20
111.1877137568224
 30
0.0
 40
70.34022899841263
100
AcDbArc
 50
272.0945025617256
 51
294.3882224357969
  0
ARC
  5
118
330
2
100
AcDbEntity
  8
KIJUN
 62
     7
100
AcDbCircle
 10
249.3319709263971
 20
29.03197326173251
 30
0.0
 40
4.630223362121511
100
AcDbArc
 50
152.2283629078379
 51
222.9887082955493
  0
ARC
  5
119
330
2
100
AcDbEntity
  8
KIJUN
 62
     7
100
AcDbCircle
 10
246.5528347379241
 20
29.7796197615956
 30
0.0
 40
5.398113552605123
100
AcDbArc
 50
245.6830086535634
 51
293.5093912082636
  0
ARC
  5
11A
330
2
100
AcDbEntity
  8
KIJUN
 62
     7
100
AcDbCircle
 10
300.8070160166882
 20
25.94466427449589
 30
0.0
 40
0.9999999999999998
100
AcDbArc
 50
299.313418964129
 51
326.4327142865525
  0
ARC
  5
11B
330
2
100
AcDbEntity
  8
KIJUN
 62
     7
100
AcDbCircle
 10
319.7632292895124
 20
30.58245352777618
 30
0.0
 40
7.241843409498067
100
AcDbArc
 50
192.7703516177796
 51
228.0956219600339
  0
ARC
  5
11C
330
2
100
AcDbEntity
  8
KIJUN
 62
     7
100
AcDbCircle
 10
315.354834502342
 20
30.47031945015401
 30
0.0
 40
7.133425299306913
100
AcDbArc
 50
311.8681378771993
 51
351.4597194168672
  0
ARC
  5
11D
330
2
100
AcDbEntity
  8
KIJUN
 62
     7
100
AcDbCircle
 10
322.7058357867447
 20
29.36642099599867
 30
0.0
 40
0.2999999999999999
100
AcDbArc
 50
12.68733975769382
 51
171.4597194168628
  0
ARC
  5
11E
330
2
100
AcDbEntity
  8
KIJUN
 62
     7
100
AcDbCircle
 10
317.5528347379244
 20
29.7796197615956
 30
0.0
 40
5.398113552605123
100
AcDbArc
 50
245.6830086535634
 51
293.5093912082636
  0
ARC
  5
11F
330
2
100
AcDbEntity
  8
KIJUN
 62
     7
100
AcDbCircle
 10
315.7417592126927
 20
25.77170156588393
 30
0.0
 40
0.9999999999999998
100
AcDbArc
 50
215.384886502983
 51
245.6830086535629
  0
ARC
  5
120
330
2
100
AcDbEntity
  8
KIJUN
 62
     7
100
AcDbCircle
 10
319.3072394922607
 20
25.74657292581861
 30
0.0
 40
0.9999999999999998
100
AcDbArc
 50
293.5093912082676
 51
323.9569687958868
  0
ARC
  5
121
330
2
100
AcDbEntity
  8
KIJUN
 62
     7
100
AcDbCircle
 10
317.5719426505294
 20
28.26678313145254
 30
0.0
 40
3.199999999999998
100
AcDbArc
 50
71.27662642606863
 51
108.7233735739314
  0
ARC
  5
122
330
2
100
AcDbEntity
  8
KIJUN
 62
     7
100
AcDbCircle
 10
314.7924083622949
 20
29.03197326173251
 30
0.0
 40
4.583686550956493
100
AcDbArc
 50
316.3508454060718
 51
28.52958762984842
  0
ARC
  5
123
330
2
100
AcDbEntity
  8
KIJUN
 62
     7
100
AcDbCircle
 10
312.6544323606101
 20
13.75811708042402
 30
0.0
 40
18.51937655492952
100
AcDbArc
 50
70.5552173107381
 51
71.27662642606863
  0
ARC
  5
124
330
2
100
AcDbEntity
  8
KIJUN
 62
     7
100
AcDbCircle
 10
322.4894529404489
 20
13.75811708042402
 30
0.0
 40
18.51937655492952
100
AcDbArc
 50
108.7233735739314
 51
109.7380056766444
  0
ARC
  5
125
330
2
100
AcDbEntity
  8
KIJUN
 62
     7
100
AcDbCircle
 10
317.5302081400529
 20
26.42031932355513
 30
0.0
 40
0.8
100
AcDbArc
 50
222.9887082955468
 51
316.3508454060735
  0
ARC
  5
126
330
2
100
AcDbEntity
  8
KIJUN
 62
     7
100
AcDbCircle
 10
320.3319709263971
 20
29.03197326173251
 30
0.0
 40
4.630223362121511
100
AcDbArc
 50
152.2283629078379
 51
222.9887082955493
  0
ARC
  5
127
330
2
100
AcDbEntity
  8
KIJUN
 62
     7
100
AcDbCircle
 10
305.1849642736781
 20
30.42982264958487
 30
0.0
 40
7.080037729581983
100
AcDbArc
 50
313.2637115001602
 51
348.1582884011118
  0
ARC
  5
128
330
2
100
AcDbEntity
  8
KIJUN
 62
     7
100
AcDbCircle
 10
312.4079419243122
 20
28.91537530864076
 30
0.0
 40
0.2999999999999999
100
AcDbArc
 50
12.77035161777764
 51
168.1582884011085
  0
ARC
  5
129
330
2
100
AcDbEntity
  8
KIJUN
 62
     7
100
AcDbCircle
 10
307.2512275800566
 20
29.7796197615956
 30
0.0
 40
5.398113552605123
100
AcDbArc
 50
248.548537934039
 51
296.5373492155958
  0
ARC
  5
12A
330
2
100
AcDbEntity
  8
KIJUN
 62
     7
100
AcDbCircle
 10
305.6427807398507
 20
25.68617358705757
 30
0.0
 40
0.9999999999999998
100
AcDbArc
 50
216.4596838030823
 51
248.5485379340442
  0
ARC
  5
12B
330
2
100
AcDbEntity
  8
KIJUN
 62
     7
100
AcDbCircle
 10
309.2162215745312
 20
25.84487689537338
 30
0.0
 40
0.9999999999999998
100
AcDbArc
 50
296.5373492156036
 51
325.1948677071017
  0
ARC
  5
12C
330
2
100
AcDbEntity
  8
KIJUN
 62
     7
100
AcDbCircle
 10
307.4110015344652
 20
28.26678313145254
 30
0.0
 40
3.199999999999998
100
AcDbArc
 50
71.27662642606863
 51
108.7233735739314
  0
ARC
  5
12D
330
2
100
AcDbEntity
  8
KIJUN
 62
     7
100
AcDbCircle
 10
302.4934912445457
 20
13.75811708042402
 30
0.0
 40
18.51937655492952
100
AcDbArc
 50
70.5552173107381
 51
71.27662642606863
  0
ARC
  5
12E
330
2
100
AcDbEntity
  8
KIJUN
 62
     7
100
AcDbCircle
 10
312.3285118243844
 20
13.75811708042402
 30
0.0
 40
18.51937655492952
100
AcDbArc
 50
108.7233735739314
 51
109.7380056766444
  0
ARC
  5
12F
330
2
100
AcDbEntity
  8
KIJUN
 62
     7
100
AcDbCircle
 10
307.3692670239886
 20
26.42031932355513
 30
0.0
 40
0.8
100
AcDbArc
 50
222.9887082955468
 51
316.3508454060735
  0
ARC
  5
130
330
2
100
AcDbEntity
  8
KIJUN
 62
     7
100
AcDbCircle
 10
310.1710298103327
 20
29.03197326173251
 30
0.0
 40
4.630223362121511
100
AcDbArc
 50
152.2283629078379
 51
222.9887082955493
  0
ARC
  5
131
330
2
100
AcDbEntity
  8
KIJUN
 62
     7
100
AcDbCircle
 10
304.6314672462306
 20
29.03197326173251
 30
0.0
 40
4.583686550956493
100
AcDbArc
 50
316.3508454060718
 51
28.52958762984842
  0
ARC
  5
132
330
2
100
AcDbEntity
  8
KIJUN
 62
     7
100
AcDbCircle
 10
303.5029242202869
 20
27.22484205942653
 30
0.0
 40
0.5
100
AcDbArc
 50
8.70647205676134
 51
155.6016219078264
  0
ARC
  5
133
330
2
100
AcDbEntity
  8
KIJUN
 62
     7
100
AcDbCircle
 10
309.5483192465087
 20
28.15061637452987
 30
0.0
 40
5.615869448048174
100
AcDbArc
 50
188.7064720567563
 51
213.0009498027627
  0
ARC
  5
134
330
2
100
AcDbEntity
  8
KIJUN
 62
     7
100
AcDbCircle
 10
296.679900574608
 20
30.31966996775969
 30
0.0
 40
6.992103272892951
100
AcDbArc
 50
315.1879144261838
 51
335.6016219078364
  0
ARC
  5
135
330
2
100
AcDbEntity
  8
KIJUN
 62
     7
100
AcDbCircle
 10
336.3328718088812
 20
25.81177679342073
 30
0.0
 40
0.9999999999999998
100
AcDbArc
 50
214.8861960524417
 51
244.4446917898527
  0
ARC
  5
136
330
2
100
AcDbEntity
  8
KIJUN
 62
     7
100
AcDbCircle
 10
328.0767788585127
 20
29.7796197615956
 30
0.0
 40
5.398113552605123
100
AcDbArc
 50
250.8638034659151
 51
299.3134189641379
  0
ARC
  5
137
330
2
100
AcDbEntity
  8
KIJUN
 62
     7
100
AcDbCircle
 10
326.6350121267949
 20
25.62453714955046
 30
0.0
 40
0.9999999999999998
100
AcDbArc
 50
217.2435538296249
 51
250.8638034659095
  0
ARC
  5
138
330
2
100
AcDbEntity
  8
KIJUN
 62
     7
100
AcDbCircle
 10
330.2300366771616
 20
25.94466427449589
 30
0.0
 40
0.9999999999999998
100
AcDbArc
 50
299.313418964129
 51
326.4327142865525
  0
ARC
  5
139
330
2
100
AcDbEntity
  8
KIJUN
 62
     7
100
AcDbCircle
 10
328.3570363103229
 20
28.26678313145254
 30
0.0
 40
3.199999999999998
100
AcDbArc
 50
71.27662642606863
 51
108.7233735739314
  0
ARC
  5
13A
330
2
100
AcDbEntity
  8
KIJUN
 62
     7
100
AcDbCircle
 10
323.4395260204034
 20
13.75811708042402
 30
0.0
 40
18.51937655492952
100
AcDbArc
 50
70.5552173107381
 51
71.27662642606863
  0
ARC
  5
13B
330
2
100
AcDbEntity
  8
KIJUN
 62
     7
100
AcDbCircle
 10
333.2745466002422
 20
13.75811708042402
 30
0.0
 40
18.51937655492952
100
AcDbArc
 50
108.7233735739314
 51
109.7380056766444
  0
ARC
  5
13C
330
2
100
AcDbEntity
  8
KIJUN
 62
     7
100
AcDbCircle
 10
328.3153017998462
 20
26.42031932355513
 30
0.0
 40
0.8
100
AcDbArc
 50
222.9887082955468
 51
316.3508454060735
  0
ARC
  5
13D
330
2
100
AcDbEntity
  8
KIJUN
 62
     7
100
AcDbCircle
 10
331.1170645861904
 20
29.03197326173251
 30
0.0
 40
4.630223362121511
100
AcDbArc
 50
152.2283629078379
 51
222.9887082955493
  0
ARC
  5
13E
330
2
100
AcDbEntity
  8
KIJUN
 62
     7
100
AcDbCircle
 10
325.5775020220883
 20
29.03197326173251
 30
0.0
 40
4.583686550956493
100
AcDbArc
 50
316.3508454060718
 51
28.52958762984842
  0
ARC
  5
13F
330
2
100
AcDbEntity
  8
KIJUN
 62
     7
100
AcDbCircle
 10
333.2114831074497
 20
27.95324659938097
 30
0.0
 40
0.5
100
AcDbArc
 50
18.61416022371324
 51
161.5875219085604
  0
ARC
  5
140
330
2
100
AcDbEntity
  8
KIJUN
 62
     7
100
AcDbCircle
 10
340.4287215372062
 20
30.38410154504806
 30
0.0
 40
7.115614638282919
100
AcDbArc
 50
198.6141602237122
 51
226.2990374065392
  0
ARC
  5
141
330
2
100
AcDbEntity
  8
KIJUN
 62
     7
100
AcDbCircle
 10
326.1029212350814
 20
30.31966996775969
 30
0.0
 40
6.992103272892951
100
AcDbArc
 50
315.1879144261838
 51
341.5875219085639
  0
ARC
  5
142
330
2
100
AcDbEntity
  8
KIJUN
 62
     7
100
AcDbCircle
 10
330.4547068928611
 20
31.11090543774896
 30
0.0
 40
7.642809917574137
100
AcDbArc
 50
192.6873397577066
 51
232.8477139241436
  0
ARC
  5
143
330
2
100
AcDbEntity
  8
KIJUN
 62
     7
100
AcDbCircle
 10
331.9045370322326
 20
39.75180611684601
 30
0.0
 40
0.1
100
AcDbArc
 50
81.8368077786137
 51
241.6263137809399
  0
ARC
  5
144
330
2
100
AcDbEntity
  8
KIJUN
 62
     7
100
AcDbCircle
 10
275.6964864062281
 20
39.75180611684601
 30
0.0
 40
0.1
100
AcDbArc
 50
298.3736862190601
 51
98.16319222138631
  0
ARC
  5
145
330
2
100
AcDbEntity
  8
KIJUN
 62
     7
100
AcDbCircle
 10
269.6584332829991
 20
38.89919159703215
 30
0.0
 40
0.1
100
AcDbArc
 50
74.21783924510275
 51
207.5195943311888
  0
ARC
  5
146
330
2
100
AcDbEntity
  8
KIJUN
 62
     7
100
AcDbCircle
 10
271.8908769359293
 20
46.79786620214946
 30
0.0
 40
8.10809753725139
100
AcDbArc
 50
254.2178392451836
 51
298.3736862190125
  0
ARC
  5
147
330
2
100
AcDbEntity
  8
KIJUN
 62
     7
100
AcDbCircle
 10
267.6016048691246
 20
37.66943410554727
 30
0.0
 40
2.561513584441384
100
AcDbArc
 50
152.4804056688481
 51
266.6031999506413
  0
ARC
  5
148
330
2
100
AcDbEntity
  8
KIJUN
 62
     7
100
AcDbCircle
 10
255.5478326873291
 20
46.08117281630352
 30
0.0
 40
12.16289008678964
100
AcDbArc
 50
323.5385369542497
 51
339.0033704446495
  0
ARC
  5
149
330
2
100
AcDbEntity
  8
KIJUN
 62
     7
100
AcDbCircle
 10
259.2031807851632
 20
39.75180611684601
 30
0.0
 40
0.1
100
AcDbArc
 50
81.8368077786137
 51
241.6263137809399
  0
ARC
  5
14A
330
2
100
AcDbEntity
  8
KIJUN
 62
     7
100
AcDbCircle
 10
265.2412339083836
 20
38.89919159702964
 30
0.0
 40
0.1
100
AcDbArc
 50
332.4804056688691
 51
105.7821607546468
  0
ARC
  5
14B
330
2
100
AcDbEntity
  8
KIJUN
 62
     7
100
AcDbCircle
 10
263.008790255462
 20
46.79786620214946
 30
0.0
 40
8.10809753725139
100
AcDbArc
 50
241.6263137809875
 51
285.7821607547564
  0
ARC
  5
14C
330
2
100
AcDbEntity
  8
KIJUN
 62
     7
100
AcDbCircle
 10
267.4498335956956
 20
43.32065564557781
 30
0.0
 40
0.9999999999999998
100
AcDbArc
 50
25.76260615275184
 51
154.237393847248
  0
ARC
  5
14D
330
2
100
AcDbEntity
  8
KIJUN
 62
     7
100
AcDbCircle
 10
260.2159185653247
 20
46.81184414667387
 30
0.0
 40
7.032305012685529
100
AcDbArc
 50
261.8368077787276
 51
334.2373938472575
  0
ARC
  5
14E
330
2
100
AcDbEntity
  8
KIJUN
 62
     7
100
AcDbCircle
 10
267.2980623222595
 20
37.66943410554706
 30
0.0
 40
2.561513584441384
100
AcDbArc
 50
273.3968000494652
 51
27.51959433122017
  0
ARC
  5
14F
330
2
100
AcDbEntity
  8
KIJUN
 62
     7
100
AcDbCircle
 10
279.3518345040622
 20
46.08117281630352
 30
0.0
 40
12.16289008678964
100
AcDbArc
 50
200.9966295553503
 51
216.4614630457503
  0
ARC
  5
150
330
2
100
AcDbEntity
  8
KIJUN
 62
     7
100
AcDbCircle
 10
274.6837486260667
 20
46.81184414667387
 30
0.0
 40
7.032305012685529
100
AcDbArc
 50
205.7626061527429
 51
278.1631922212724
  0
ARC
  5
151
330
2
100
AcDbEntity
  8
KIJUN
 62
     7
100
AcDbCircle
 10
255.1029212350816
 20
30.31966996775969
 30
0.0
 40
6.992103272892951
100
AcDbArc
 50
315.1879144261838
 51
341.5875219085639
  0
ARC
  5
152
330
2
100
AcDbEntity
  8
KIJUN
 62
     7
100
AcDbCircle
 10
269.4287215372061
 20
30.38410154504806
 30
0.0
 40
7.115614638282919
100
AcDbArc
 50
198.6141602237122
 51
226.2990374065392
  0
ARC
  5
153
330
2
100
AcDbEntity
  8
KIJUN
 62
     7
100
AcDbCircle
 10
262.2114831074498
 20
27.95324659938097
 30
0.0
 40
0.5
100
AcDbArc
 50
18.61416022371324
 51
161.5875219085604
  0
ARC
  5
154
330
2
100
AcDbEntity
  8
KIJUN
 62
     7
100
AcDbCircle
 10
246.5302081400529
 20
26.42031932355513
 30
0.0
 40
0.8
100
AcDbArc
 50
222.9887082955468
 51
316.3508454060735
  0
ARC
  5
155
330
2
100
AcDbEntity
  8
KIJUN
 62
     7
100
AcDbCircle
 10
251.4894529404489
 20
13.75811708042402
 30
0.0
 40
18.51937655492952
100
AcDbArc
 50
108.7233735739314
 51
109.7380056766444
  0
ARC
  5
156
330
2
100
AcDbEntity
  8
KIJUN
 62
     7
100
AcDbCircle
 10
241.6544323606102
 20
13.75811708042402
 30
0.0
 40
18.51937655492952
100
AcDbArc
 50
70.5552173107381
 51
71.27662642606863
  0
ARC
  5
157
330
2
100
AcDbEntity
  8
KIJUN
 62
     7
100
AcDbCircle
 10
254.5775020220883
 20
29.03197326173251
 30
0.0
 40
4.583686550956493
100
AcDbArc
 50
316.3508454060718
 51
28.52958762984842
  0
ARC
  5
158
330
2
100
AcDbEntity
  8
KIJUN
 62
     7
100
AcDbCircle
 10
260.1170645861905
 20
29.03197326173251
 30
0.0
 40
4.630223362121511
100
AcDbArc
 50
152.2283629078379
 51
222.9887082955493
  0
ARC
  5
159
330
2
100
AcDbEntity
  8
KIJUN
 62
     7
100
AcDbCircle
 10
257.3153017998462
 20
26.42031932355513
 30
0.0
 40
0.8
100
AcDbArc
 50
222.9887082955468
 51
316.3508454060735
  0
ARC
  5
15A
330
2
100
AcDbEntity
  8
KIJUN
 62
     7
100
AcDbCircle
 10
262.2745466002422
 20
13.75811708042402
 30
0.0
 40
18.51937655492952
100
AcDbArc
 50
108.7233735739314
 51
109.7380056766444
  0
ARC
  5
15B
330
2
100
AcDbEntity
  8
KIJUN
 62
     7
100
AcDbCircle
 10
252.4395260204035
 20
13.75811708042402
 30
0.0
 40
18.51937655492952
100
AcDbArc
 50
70.5552173107381
 51
71.27662642606863
  0
ARC
  5
15C
330
2
100
AcDbEntity
  8
KIJUN
 62
     7
100
AcDbCircle
 10
257.3570363103229
 20
28.26678313145254
 30
0.0
 40
3.199999999999998
100
AcDbArc
 50
71.27662642606863
 51
108.7233735739314
  0
ARC
  5
15D
330
2
100
AcDbEntity
  8
KIJUN
 62
     7
100
AcDbCircle
 10
243.792408362295
 20
29.03197326173251
 30
0.0
 40
4.583686550956493
100
AcDbArc
 50
316.3508454060718
 51
28.52958762984842
  0
ARC
  5
15E
330
2
100
AcDbEntity
  8
KIJUN
 62
     7
100
AcDbCircle
 10
246.5719426505295
 20
28.26678313145254
 30
0.0
 40
3.199999999999998
100
AcDbArc
 50
71.27662642606863
 51
108.7233735739314
  0
ARC
  5
15F
330
2
100
AcDbEntity
  8
KIJUN
 62
     7
100
AcDbCircle
 10
259.2300366771616
 20
25.94466427449589
 30
0.0
 40
0.9999999999999998
100
AcDbArc
 50
299.313418964129
 51
326.4327142865525
  0
ARC
  5
160
330
2
100
AcDbEntity
  8
KIJUN
 62
     7
100
AcDbCircle
 10
255.6350121267949
 20
25.62453714955046
 30
0.0
 40
0.9999999999999998
100
AcDbArc
 50
217.2435538296249
 51
250.8638034659095
  0
ARC
  5
161
330
2
100
AcDbEntity
  8
KIJUN
 62
     7
100
AcDbCircle
 10
257.0767788585127
 20
29.7796197615956
 30
0.0
 40
5.398113552605123
100
AcDbArc
 50
250.8638034659151
 51
299.3134189641379
  0
ARC
  5
162
330
2
100
AcDbEntity
  8
KIJUN
 62
     7
100
AcDbCircle
 10
248.3072394922607
 20
25.74657292581861
 30
0.0
 40
0.9999999999999998
100
AcDbArc
 50
293.5093912082676
 51
323.9569687958868
  0
ARC
  5
163
330
2
100
AcDbEntity
  8
KIJUN
 62
     7
100
AcDbCircle
 10
251.7058357867446
 20
29.36642099599867
 30
0.0
 40
0.2999999999999999
100
AcDbArc
 50
12.68733975769382
 51
171.4597194168628
  0
ARC
  5
164
330
2
100
AcDbEntity
  8
KIJUN
 62
     7
100
AcDbCircle
 10
259.4547068928611
 20
31.11090543774896
 30
0.0
 40
7.642809917574137
100
AcDbArc
 50
192.6873397577066
 51
232.8477139241436
  0
ARC
  5
165
330
2
100
AcDbEntity
  8
KIJUN
 62
     7
100
AcDbCircle
 10
244.3548345023421
 20
30.47031945015401
 30
0.0
 40
7.133425299306913
100
AcDbArc
 50
311.8681378771993
 51
351.4597194168672
  0
ARC
  5
166
330
2
100
AcDbEntity
  8
KIJUN
 62
     7
100
AcDbCircle
 10
265.1394826080011
 20
31.39628427410281
 30
0.0
 40
7.763813075035717
100
AcDbArc
 50
306.0132150135907
 51
341.5128410617338
  0
ARC
  5
167
330
2
100
AcDbEntity
  8
KIJUN
 62
     7
100
AcDbCircle
 10
280.1709036198801
 20
30.62648779087869
 30
0.0
 40
7.296950455584057
100
AcDbArc
 50
193.6063011687619
 51
229.3301424383904
  0
ARC
  5
168
330
2
100
AcDbEntity
  8
KIJUN
 62
     7
100
AcDbCircle
 10
272.7871605556862
 20
28.83931276123787
 30
0.0
 40
0.2999999999999999
100
AcDbArc
 50
13.60630116877428
 51
161.5128410617493
  0
ARC
  5
169
330
2
100
AcDbEntity
  8
KIJUN
 62
     7
100
AcDbCircle
 10
275.7619436132046
 20
30.42982264958487
 30
0.0
 40
7.080037729581983
100
AcDbArc
 50
313.2637115001602
 51
348.1582884011118
  0
ARC
  5
16A
330
2
100
AcDbEntity
  8
KIJUN
 62
     7
100
AcDbCircle
 10
282.9849212638389
 20
28.91537530864076
 30
0.0
 40
0.2999999999999999
100
AcDbArc
 50
12.77035161777764
 51
168.1582884011085
  0
ARC
  5
16B
330
2
100
AcDbEntity
  8
KIJUN
 62
     7
100
AcDbCircle
 10
267.2301395816305
 20
29.7796197615956
 30
0.0
 40
5.398113552605123
100
AcDbArc
 50
244.4446917898608
 51
292.3204116574353
  0
ARC
  5
16C
330
2
100
AcDbEntity
  8
KIJUN
 62
     7
100
AcDbCircle
 10
265.3328718088811
 20
25.81177679342073
 30
0.0
 40
0.9999999999999998
100
AcDbArc
 50
214.8861960524417
 51
244.4446917898527
  0
ARC
  5
16D
330
2
100
AcDbEntity
  8
KIJUN
 62
     7
100
AcDbCircle
 10
268.9004804005456
 20
25.71103716193312
 30
0.0
 40
0.9999999999999998
100
AcDbArc
 50
292.3204116574282
 51
323.5046960568321
  0
ARC
  5
16E
330
2
100
AcDbEntity
  8
KIJUN
 62
     7
100
AcDbCircle
 10
277.8282069195831
 20
29.7796197615956
 30
0.0
 40
5.398113552605123
100
AcDbArc
 50
248.548537934039
 51
296.5373492155958
  0
ARC
  5
16F
330
2
100
AcDbEntity
  8
KIJUN
 62
     7
100
AcDbCircle
 10
276.2197600793771
 20
25.68617358705757
 30
0.0
 40
0.9999999999999998
100
AcDbArc
 50
216.4596838030823
 51
248.5485379340442
  0
ARC
  5
170
330
2
100
AcDbEntity
  8
KIJUN
 62
     7
100
AcDbCircle
 10
279.7932009140579
 20
25.84487689537338
 30
0.0
 40
0.9999999999999998
100
AcDbArc
 50
296.5373492156036
 51
325.1948677071017
  0
ARC
  5
171
330
2
100
AcDbEntity
  8
KIJUN
 62
     7
100
AcDbCircle
 10
267.1495232322901
 20
26.42031932355513
 30
0.0
 40
0.8
100
AcDbArc
 50
222.9887082955468
 51
316.3508454060735
  0
ARC
  5
172
330
2
100
AcDbEntity
  8
KIJUN
 62
     7
100
AcDbCircle
 10
264.4117234545322
 20
29.03197326173251
 30
0.0
 40
4.583686550956493
100
AcDbArc
 50
316.3508454060718
 51
28.52958762984842
  0
ARC
  5
173
330
2
100
AcDbEntity
  8
KIJUN
 62
     7
100
AcDbCircle
 10
269.9512860186344
 20
29.03197326173251
 30
0.0
 40
4.630223362121511
100
AcDbArc
 50
152.2283629078379
 51
222.9887082955493
  0
ARC
  5
174
330
2
100
AcDbEntity
  8
KIJUN
 62
     7
100
AcDbCircle
 10
272.108768032686
 20
13.75811708042402
 30
0.0
 40
18.51937655492952
100
AcDbArc
 50
108.7233735739314
 51
109.7380056766444
  0
ARC
  5
175
330
2
100
AcDbEntity
  8
KIJUN
 62
     7
100
AcDbCircle
 10
262.2737474528474
 20
13.75811708042402
 30
0.0
 40
18.51937655492952
100
AcDbArc
 50
70.5552173107381
 51
71.27662642606863
  0
ARC
  5
176
330
2
100
AcDbEntity
  8
KIJUN
 62
     7
100
AcDbCircle
 10
267.1912577427666
 20
28.26678313145254
 30
0.0
 40
3.199999999999998
100
AcDbArc
 50
71.27662642606863
 51
108.7233735739314
  0
ARC
  5
177
330
2
100
AcDbEntity
  8
KIJUN
 62
     7
100
AcDbCircle
 10
277.9879808739917
 20
28.26678313145254
 30
0.0
 40
3.199999999999998
100
AcDbArc
 50
71.27662642606863
 51
108.7233735739314
  0
ARC
  5
178
330
2
100
AcDbEntity
  8
KIJUN
 62
     7
100
AcDbCircle
 10
273.0704705840723
 20
13.75811708042402
 30
0.0
 40
18.51937655492952
100
AcDbArc
 50
70.5552173107381
 51
71.27662642606863
  0
ARC
  5
179
330
2
100
AcDbEntity
  8
KIJUN
 62
     7
100
AcDbCircle
 10
282.9054911639111
 20
13.75811708042402
 30
0.0
 40
18.51937655492952
100
AcDbArc
 50
108.7233735739314
 51
109.7380056766444
  0
ARC
  5
17A
330
2
100
AcDbEntity
  8
KIJUN
 62
     7
100
AcDbCircle
 10
277.9462463635152
 20
26.42031932355513
 30
0.0
 40
0.8
100
AcDbArc
 50
222.9887082955468
 51
316.3508454060735
  0
ARC
  5
17B
330
2
100
AcDbEntity
  8
KIJUN
 62
     7
100
AcDbCircle
 10
280.7480091498593
 20
29.03197326173251
 30
0.0
 40
4.630223362121511
100
AcDbArc
 50
152.2283629078379
 51
222.9887082955493
  0
ARC
  5
17C
330
2
100
AcDbEntity
  8
KIJUN
 62
     7
100
AcDbCircle
 10
275.2084465857572
 20
29.03197326173251
 30
0.0
 40
4.583686550956493
100
AcDbArc
 50
316.3508454060718
 51
28.52958762984842
  0
ARC
  5
17D
330
2
100
AcDbEntity
  8
KIJUN
 62
     7
100
AcDbCircle
 10
285.9318138418687
 20
30.47031945015401
 30
0.0
 40
7.133425299306913
100
AcDbArc
 50
311.8681378771993
 51
351.4597194168672
  0
ARC
  5
17E
330
2
100
AcDbEntity
  8
KIJUN
 62
     7
100
AcDbCircle
 10
301.0316862323878
 20
31.11090543774896
 30
0.0
 40
7.642809917574137
100
AcDbArc
 50
192.6873397577066
 51
232.8477139241436
  0
ARC
  5
17F
330
2
100
AcDbEntity
  8
KIJUN
 62
     7
100
AcDbCircle
 10
293.2828151262713
 20
29.36642099599867
 30
0.0
 40
0.2999999999999999
100
AcDbArc
 50
12.68733975769382
 51
171.4597194168628
  0
ARC
  5
180
330
2
100
AcDbEntity
  8
KIJUN
 62
     7
100
AcDbCircle
 10
288.1298140774508
 20
29.7796197615956
 30
0.0
 40
5.398113552605123
100
AcDbArc
 50
245.6830086535634
 51
293.5093912082636
  0
ARC
  5
181
330
2
100
AcDbEntity
  8
KIJUN
 62
     7
100
AcDbCircle
 10
286.3187385522194
 20
25.77170156588393
 30
0.0
 40
0.9999999999999998
100
AcDbArc
 50
215.384886502983
 51
245.6830086535629
  0
ARC
  5
182
330
2
100
AcDbEntity
  8
KIJUN
 62
     7
100
AcDbCircle
 10
289.8842188317874
 20
25.74657292581861
 30
0.0
 40
0.9999999999999998
100
AcDbArc
 50
293.5093912082676
 51
323.9569687958868
  0
ARC
  5
183
330
2
100
AcDbEntity
  8
KIJUN
 62
     7
100
AcDbCircle
 10
298.6537581980394
 20
29.7796197615956
 30
0.0
 40
5.398113552605123
100
AcDbArc
 50
250.8638034659151
 51
299.3134189641379
  0
ARC
  5
184
330
2
100
AcDbEntity
  8
KIJUN
 62
     7
100
AcDbCircle
 10
297.2119914663214
 20
25.62453714955046
 30
0.0
 40
0.9999999999999998
100
AcDbArc
 50
217.2435538296249
 51
250.8638034659095
  0
ARC
  5
185
330
2
100
AcDbEntity
  8
KIJUN
 62
     7
100
AcDbCircle
 10
300.8070160166882
 20
25.94466427449589
 30
0.0
 40
0.9999999999999998
100
AcDbArc
 50
299.313418964129
 51
326.4327142865525
  0
ARC
  5
186
330
2
100
AcDbEntity
  8
KIJUN
 62
     7
100
AcDbCircle
 10
288.1489219900561
 20
28.26678313145254
 30
0.0
 40
3.199999999999998
100
AcDbArc
 50
71.27662642606863
 51
108.7233735739314
  0
ARC
  5
187
330
2
100
AcDbEntity
  8
KIJUN
 62
     7
100
AcDbCircle
 10
285.3693877018215
 20
29.03197326173251
 30
0.0
 40
4.583686550956493
100
AcDbArc
 50
316.3508454060718
 51
28.52958762984842
  0
ARC
  5
188
330
2
100
AcDbEntity
  8
KIJUN
 62
     7
100
AcDbCircle
 10
298.9340156498495
 20
28.26678313145254
 30
0.0
 40
3.199999999999998
100
AcDbArc
 50
71.27662642606863
 51
108.7233735739314
  0
ARC
  5
189
330
2
100
AcDbEntity
  8
KIJUN
 62
     7
100
AcDbCircle
 10
294.0165053599299
 20
13.75811708042402
 30
0.0
 40
18.51937655492952
100
AcDbArc
 50
70.5552173107381
 51
71.27662642606863
  0
ARC
  5
18A
330
2
100
AcDbEntity
  8
KIJUN
 62
     7
100
AcDbCircle
 10
303.8515259397688
 20
13.75811708042402
 30
0.0
 40
18.51937655492952
100
AcDbArc
 50
108.7233735739314
 51
109.7380056766444
  0
ARC
  5
18B
330
2
100
AcDbEntity
  8
KIJUN
 62
     7
100
AcDbCircle
 10
298.8922811393729
 20
26.42031932355513
 30
0.0
 40
0.8
100
AcDbArc
 50
222.9887082955468
 51
316.3508454060735
  0
ARC
  5
18C
330
2
100
AcDbEntity
  8
KIJUN
 62
     7
100
AcDbCircle
 10
301.6940439257171
 20
29.03197326173251
 30
0.0
 40
4.630223362121511
100
AcDbArc
 50
152.2283629078379
 51
222.9887082955493
  0
ARC
  5
18D
330
2
100
AcDbEntity
  8
KIJUN
 62
     7
100
AcDbCircle
 10
296.1544813616149
 20
29.03197326173251
 30
0.0
 40
4.583686550956493
100
AcDbArc
 50
316.3508454060718
 51
28.52958762984842
  0
ARC
  5
18E
330
2
100
AcDbEntity
  8
KIJUN
 62
     7
100
AcDbCircle
 10
283.2314117001366
 20
13.75811708042402
 30
0.0
 40
18.51937655492952
100
AcDbArc
 50
70.5552173107381
 51
71.27662642606863
  0
ARC
  5
18F
330
2
100
AcDbEntity
  8
KIJUN
 62
     7
100
AcDbCircle
 10
293.0664322799755
 20
13.75811708042402
 30
0.0
 40
18.51937655492952
100
AcDbArc
 50
108.7233735739314
 51
109.7380056766444
  0
ARC
  5
190
330
2
100
AcDbEntity
  8
KIJUN
 62
     7
100
AcDbCircle
 10
288.1071874795795
 20
26.42031932355513
 30
0.0
 40
0.8
100
AcDbArc
 50
222.9887082955468
 51
316.3508454060735
  0
ARC
  5
191
330
2
100
AcDbEntity
  8
KIJUN
 62
     7
100
AcDbCircle
 10
290.9089502659236
 20
29.03197326173251
 30
0.0
 40
4.630223362121511
100
AcDbArc
 50
152.2283629078379
 51
222.9887082955493
  0
ARC
  5
192
330
2
100
AcDbEntity
  8
KIJUN
 62
     7
100
AcDbCircle
 10
305.6427807398507
 20
25.68617358705757
 30
0.0
 40
0.9999999999999998
100
AcDbArc
 50
216.4596838030823
 51
248.5485379340442
  0
ARC
  5
193
330
2
100
AcDbEntity
  8
KIJUN
 62
     7
100
AcDbCircle
 10
303.5029242202869
 20
27.22484205942653
 30
0.0
 40
0.5
100
AcDbArc
 50
8.70647205676134
 51
155.6016219078264
  0
ARC
  5
194
330
2
100
AcDbEntity
  8
KIJUN
 62
     7
100
AcDbCircle
 10
309.5483192465087
 20
28.15061637452987
 30
0.0
 40
5.615869448048174
100
AcDbArc
 50
188.7064720567563
 51
213.0009498027627
  0
ARC
  5
195
330
2
100
AcDbEntity
  8
KIJUN
 62
     7
100
AcDbCircle
 10
296.679900574608
 20
30.31966996775969
 30
0.0
 40
6.992103272892951
100
AcDbArc
 50
315.1879144261838
 51
335.6016219078364
  0
ARC
  5
196
330
2
100
AcDbEntity
  8
KIJUN
 62
     7
100
AcDbCircle
 10
290.340208629039
 20
30.58245352777618
 30
0.0
 40
7.241843409498067
100
AcDbArc
 50
192.7703516177796
 51
228.0956219600339
  0
ARC
  5
197
330
2
100
AcDbEntity
  8
KIJUN
 62
     7
100
AcDbCircle
 10
232.502924220287
 20
27.22484205942653
 30
0.0
 40
0.5
100
AcDbArc
 50
8.70647205676134
 51
155.6016219078264
  0
ARC
  5
198
330
2
100
AcDbEntity
  8
KIJUN
 62
     7
100
AcDbCircle
 10
233.6314672462306
 20
29.03197326173251
 30
0.0
 40
4.583686550956493
100
AcDbArc
 50
316.3508454060718
 51
28.52958762984842
  0
ARC
  5
199
330
2
100
AcDbEntity
  8
KIJUN
 62
     7
100
AcDbCircle
 10
239.1710298103328
 20
29.03197326173251
 30
0.0
 40
4.630223362121511
100
AcDbArc
 50
152.2283629078379
 51
222.9887082955493
  0
ARC
  5
19A
330
2
100
AcDbEntity
  8
KIJUN
 62
     7
100
AcDbCircle
 10
236.3692670239887
 20
26.42031932355513
 30
0.0
 40
0.8
100
AcDbArc
 50
222.9887082955468
 51
316.3508454060735
  0
ARC
  5
19B
330
2
100
AcDbEntity
  8
KIJUN
 62
     7
100
AcDbCircle
 10
241.3285118243846
 20
13.75811708042402
 30
0.0
 40
18.51937655492952
100
AcDbArc
 50
108.7233735739314
 51
109.7380056766444
  0
ARC
  5
19C
330
2
100
AcDbEntity
  8
KIJUN
 62
     7
100
AcDbCircle
 10
231.4934912445457
 20
13.75811708042402
 30
0.0
 40
18.51937655492952
100
AcDbArc
 50
70.5552173107381
 51
71.27662642606863
  0
ARC
  5
19D
330
2
100
AcDbEntity
  8
KIJUN
 62
     7
100
AcDbCircle
 10
236.4110015344651
 20
28.26678313145254
 30
0.0
 40
3.199999999999998
100
AcDbArc
 50
71.27662642606863
 51
108.7233735739314
  0
ARC
  5
19E
330
2
100
AcDbEntity
  8
KIJUN
 62
     7
100
AcDbCircle
 10
238.2162215745313
 20
25.84487689537338
 30
0.0
 40
0.9999999999999998
100
AcDbArc
 50
296.5373492156036
 51
325.1948677071017
  0
ARC
  5
19F
330
2
100
AcDbEntity
  8
KIJUN
 62
     7
100
AcDbCircle
 10
234.6427807398506
 20
25.68617358705757
 30
0.0
 40
0.9999999999999998
100
AcDbArc
 50
216.4596838030823
 51
248.5485379340442
  0
ARC
  5
1A0
330
2
100
AcDbEntity
  8
KIJUN
 62
     7
100
AcDbCircle
 10
236.2512275800565
 20
29.7796197615956
 30
0.0
 40
5.398113552605123
100
AcDbArc
 50
248.548537934039
 51
296.5373492155958
  0
ARC
  5
1A1
330
2
100
AcDbEntity
  8
KIJUN
 62
     7
100
AcDbCircle
 10
241.4079419243122
 20
28.91537530864076
 30
0.0
 40
0.2999999999999999
100
AcDbArc
 50
12.77035161777764
 51
168.1582884011085
  0
ARC
  5
1A2
330
2
100
AcDbEntity
  8
KIJUN
 62
     7
100
AcDbCircle
 10
234.184964273678
 20
30.42982264958487
 30
0.0
 40
7.080037729581983
100
AcDbArc
 50
313.2637115001602
 51
348.1582884011118
  0
ARC
  5
1A3
330
2
100
AcDbEntity
  8
KIJUN
 62
     7
100
AcDbCircle
 10
244.7417592126928
 20
25.77170156588393
 30
0.0
 40
0.9999999999999998
100
AcDbArc
 50
215.384886502983
 51
245.6830086535629
  0
ARC
  5
1A4
330
2
100
AcDbEntity
  8
KIJUN
 62
     7
100
AcDbCircle
 10
248.7632292895125
 20
30.58245352777618
 30
0.0
 40
7.241843409498067
100
AcDbArc
 50
192.7703516177796
 51
228.0956219600339
  0
ARC
  5
1A5
330
2
100
AcDbEntity
  8
KIJUN
 62
     7
100
AcDbCircle
 10
238.5483192465086
 20
28.15061637452987
 30
0.0
 40
5.615869448048174
100
AcDbArc
 50
188.7064720567563
 51
213.0009498027627
  0
ARC
  5
1A6
330
2
100
AcDbEntity
  8
KIJUN
 62
     7
100
AcDbCircle
 10
161.5029242202869
 20
27.22484205942653
 30
0.0
 40
0.5
100
AcDbArc
 50
8.70647205676134
 51
155.6016219078264
  0
ARC
  5
1A7
330
2
100
AcDbEntity
  8
KIJUN
 62
     7
100
AcDbCircle
 10
184.1029212350814
 20
30.31966996775969
 30
0.0
 40
6.992103272892951
100
AcDbArc
 50
315.1879144261838
 51
341.5875219085639
  0
ARC
  5
1A8
330
2
100
AcDbEntity
  8
KIJUN
 62
     7
100
AcDbCircle
 10
198.4287215372061
 20
30.38410154504806
 30
0.0
 40
7.115614638282919
100
AcDbArc
 50
198.6141602237122
 51
226.2990374065392
  0
ARC
  5
1A9
330
2
100
AcDbEntity
  8
KIJUN
 62
     7
100
AcDbCircle
 10
191.2114831074497
 20
27.95324659938097
 30
0.0
 40
0.5
100
AcDbArc
 50
18.61416022371324
 51
161.5875219085604
  0
ARC
  5
1AA
330
2
100
AcDbEntity
  8
KIJUN
 62
     7
100
AcDbCircle
 10
162.6314672462305
 20
29.03197326173251
 30
0.0
 40
4.583686550956493
100
AcDbArc
 50
316.3508454060718
 51
28.52958762984842
  0
ARC
  5
1AB
330
2
100
AcDbEntity
  8
KIJUN
 62
     7
100
AcDbCircle
 10
168.1710298103327
 20
29.03197326173251
 30
0.0
 40
4.630223362121511
100
AcDbArc
 50
152.2283629078379
 51
222.9887082955493
  0
ARC
  5
1AC
330
2
100
AcDbEntity
  8
KIJUN
 62
     7
100
AcDbCircle
 10
165.3692670239885
 20
26.42031932355513
 30
0.0
 40
0.8
100
AcDbArc
 50
222.9887082955468
 51
316.3508454060735
  0
ARC
  5
1AD
330
2
100
AcDbEntity
  8
KIJUN
 62
     7
100
AcDbCircle
 10
170.3285118243843
 20
13.75811708042402
 30
0.0
 40
18.51937655492952
100
AcDbArc
 50
108.7233735739314
 51
109.7380056766444
  0
ARC
  5
1AE
330
2
100
AcDbEntity
  8
KIJUN
 62
     7
100
AcDbCircle
 10
160.4934912445457
 20
13.75811708042402
 30
0.0
 40
18.51937655492952
100
AcDbArc
 50
70.5552173107381
 51
71.27662642606863
  0
ARC
  5
1AF
330
2
100
AcDbEntity
  8
KIJUN
 62
     7
100
AcDbCircle
 10
165.4110015344651
 20
28.26678313145254
 30
0.0
 40
3.199999999999998
100
AcDbArc
 50
71.27662642606863
 51
108.7233735739314
  0
ARC
  5
1B0
330
2
100
AcDbEntity
  8
KIJUN
 62
     7
100
AcDbCircle
 10
167.2162215745312
 20
25.84487689537338
 30
0.0
 40
0.9999999999999998
100
AcDbArc
 50
296.5373492156036
 51
325.1948677071017
  0
ARC
  5
1B1
330
2
100
AcDbEntity
  8
KIJUN
 62
     7
100
AcDbCircle
 10
163.6427807398505
 20
25.68617358705757
 30
0.0
 40
0.9999999999999998
100
AcDbArc
 50
216.4596838030823
 51
248.5485379340442
  0
ARC
  5
1B2
330
2
100
AcDbEntity
  8
KIJUN
 62
     7
100
AcDbCircle
 10
165.2512275800565
 20
29.7796197615956
 30
0.0
 40
5.398113552605123
100
AcDbArc
 50
248.548537934039
 51
296.5373492155958
  0
ARC
  5
1B3
330
2
100
AcDbEntity
  8
KIJUN
 62
     7
100
AcDbCircle
 10
170.4079419243122
 20
28.91537530864076
 30
0.0
 40
0.2999999999999999
100
AcDbArc
 50
12.77035161777764
 51
168.1582884011085
  0
ARC
  5
1B4
330
2
100
AcDbEntity
  8
KIJUN
 62
     7
100
AcDbCircle
 10
163.184964273678
 20
30.42982264958487
 30
0.0
 40
7.080037729581983
100
AcDbArc
 50
313.2637115001602
 51
348.1582884011118
  0
ARC
  5
1B5
330
2
100
AcDbEntity
  8
KIJUN
 62
     7
100
AcDbCircle
 10
178.3319709263971
 20
29.03197326173251
 30
0.0
 40
4.630223362121511
100
AcDbArc
 50
152.2283629078379
 51
222.9887082955493
  0
ARC
  5
1B6
330
2
100
AcDbEntity
  8
KIJUN
 62
     7
100
AcDbCircle
 10
175.5302081400529
 20
26.42031932355513
 30
0.0
 40
0.8
100
AcDbArc
 50
222.9887082955468
 51
316.3508454060735
  0
ARC
  5
1B7
330
2
100
AcDbEntity
  8
KIJUN
 62
     7
100
AcDbCircle
 10
180.4894529404488
 20
13.75811708042402
 30
0.0
 40
18.51937655492952
100
AcDbArc
 50
108.7233735739314
 51
109.7380056766444
  0
ARC
  5
1B8
330
2
100
AcDbEntity
  8
KIJUN
 62
     7
100
AcDbCircle
 10
170.65443236061
 20
13.75811708042402
 30
0.0
 40
18.51937655492952
100
AcDbArc
 50
70.5552173107381
 51
71.27662642606863
  0
ARC
  5
1B9
330
2
100
AcDbEntity
  8
KIJUN
 62
     7
100
AcDbCircle
 10
183.5775020220882
 20
29.03197326173251
 30
0.0
 40
4.583686550956493
100
AcDbArc
 50
316.3508454060718
 51
28.52958762984842
  0
ARC
  5
1BA
330
2
100
AcDbEntity
  8
KIJUN
 62
     7
100
AcDbCircle
 10
189.1170645861905
 20
29.03197326173251
 30
0.0
 40
4.630223362121511
100
AcDbArc
 50
152.2283629078379
 51
222.9887082955493
  0
ARC
  5
1BB
330
2
100
AcDbEntity
  8
KIJUN
 62
     7
100
AcDbCircle
 10
186.3153017998462
 20
26.42031932355513
 30
0.0
 40
0.8
100
AcDbArc
 50
222.9887082955468
 51
316.3508454060735
  0
ARC
  5
1BC
330
2
100
AcDbEntity
  8
KIJUN
 62
     7
100
AcDbCircle
 10
191.2745466002421
 20
13.75811708042402
 30
0.0
 40
18.51937655492952
100
AcDbArc
 50
108.7233735739314
 51
109.7380056766444
  0
ARC
  5
1BD
330
2
100
AcDbEntity
  8
KIJUN
 62
     7
100
AcDbCircle
 10
181.4395260204035
 20
13.75811708042402
 30
0.0
 40
18.51937655492952
100
AcDbArc
 50
70.5552173107381
 51
71.27662642606863
  0
ARC
  5
1BE
330
2
100
AcDbEntity
  8
KIJUN
 62
     7
100
AcDbCircle
 10
186.3570363103227
 20
28.26678313145254
 30
0.0
 40
3.199999999999998
100
AcDbArc
 50
71.27662642606863
 51
108.7233735739314
  0
ARC
  5
1BF
330
2
100
AcDbEntity
  8
KIJUN
 62
     7
100
AcDbCircle
 10
172.7924083622948
 20
29.03197326173251
 30
0.0
 40
4.583686550956493
100
AcDbArc
 50
316.3508454060718
 51
28.52958762984842
  0
ARC
  5
1C0
330
2
100
AcDbEntity
  8
KIJUN
 62
     7
100
AcDbCircle
 10
175.5719426505294
 20
28.26678313145254
 30
0.0
 40
3.199999999999998
100
AcDbArc
 50
71.27662642606863
 51
108.7233735739314
  0
ARC
  5
1C1
330
2
100
AcDbEntity
  8
KIJUN
 62
     7
100
AcDbCircle
 10
188.2300366771616
 20
25.94466427449589
 30
0.0
 40
0.9999999999999998
100
AcDbArc
 50
299.313418964129
 51
326.4327142865525
  0
ARC
  5
1C2
330
2
100
AcDbEntity
  8
KIJUN
 62
     7
100
AcDbCircle
 10
184.6350121267948
 20
25.62453714955046
 30
0.0
 40
0.9999999999999998
100
AcDbArc
 50
217.2435538296249
 51
250.8638034659095
  0
ARC
  5
1C3
330
2
100
AcDbEntity
  8
KIJUN
 62
     7
100
AcDbCircle
 10
186.0767788585127
 20
29.7796197615956
 30
0.0
 40
5.398113552605123
100
AcDbArc
 50
250.8638034659151
 51
299.3134189641379
  0
ARC
  5
1C4
330
2
100
AcDbEntity
  8
KIJUN
 62
     7
100
AcDbCircle
 10
177.3072394922607
 20
25.74657292581861
 30
0.0
 40
0.9999999999999998
100
AcDbArc
 50
293.5093912082676
 51
323.9569687958868
  0
ARC
  5
1C5
330
2
100
AcDbEntity
  8
KIJUN
 62
     7
100
AcDbCircle
 10
173.7417592126927
 20
25.77170156588393
 30
0.0
 40
0.9999999999999998
100
AcDbArc
 50
215.384886502983
 51
245.6830086535629
  0
ARC
  5
1C6
330
2
100
AcDbEntity
  8
KIJUN
 62
     7
100
AcDbCircle
 10
175.5528347379242
 20
29.7796197615956
 30
0.0
 40
5.398113552605123
100
AcDbArc
 50
245.6830086535634
 51
293.5093912082636
  0
ARC
  5
1C7
330
2
100
AcDbEntity
  8
KIJUN
 62
     7
100
AcDbCircle
 10
180.7058357867446
 20
29.36642099599867
 30
0.0
 40
0.2999999999999999
100
AcDbArc
 50
12.68733975769382
 51
171.4597194168628
  0
ARC
  5
1C8
330
2
100
AcDbEntity
  8
KIJUN
 62
     7
100
AcDbCircle
 10
188.454706892861
 20
31.11090543774896
 30
0.0
 40
7.642809917574137
100
AcDbArc
 50
192.6873397577066
 51
232.8477139241436
  0
ARC
  5
1C9
330
2
100
AcDbEntity
  8
KIJUN
 62
     7
100
AcDbCircle
 10
173.354834502342
 20
30.47031945015401
 30
0.0
 40
7.133425299306913
100
AcDbArc
 50
311.8681378771993
 51
351.4597194168672
  0
ARC
  5
1CA
330
2
100
AcDbEntity
  8
KIJUN
 62
     7
100
AcDbCircle
 10
177.7632292895124
 20
30.58245352777618
 30
0.0
 40
7.241843409498067
100
AcDbArc
 50
192.7703516177796
 51
228.0956219600339
  0
ARC
  5
1CB
330
2
100
AcDbEntity
  8
KIJUN
 62
     7
100
AcDbCircle
 10
194.139482608001
 20
31.39628427410281
 30
0.0
 40
7.763813075035717
100
AcDbArc
 50
306.0132150135907
 51
341.5128410617338
  0
ARC
  5
1CC
330
2
100
AcDbEntity
  8
KIJUN
 62
     7
100
AcDbCircle
 10
209.1709036198801
 20
30.62648779087869
 30
0.0
 40
7.296950455584057
100
AcDbArc
 50
193.6063011687619
 51
229.3301424383904
  0
ARC
  5
1CD
330
2
100
AcDbEntity
  8
KIJUN
 62
     7
100
AcDbCircle
 10
201.7871605556862
 20
28.83931276123787
 30
0.0
 40
0.2999999999999999
100
AcDbArc
 50
13.60630116877428
 51
161.5128410617493
  0
ARC
  5
1CE
330
2
100
AcDbEntity
  8
KIJUN
 62
     7
100
AcDbCircle
 10
204.7619436132046
 20
30.42982264958487
 30
0.0
 40
7.080037729581983
100
AcDbArc
 50
313.2637115001602
 51
348.1582884011118
  0
ARC
  5
1CF
330
2
100
AcDbEntity
  8
KIJUN
 62
     7
100
AcDbCircle
 10
211.9849212638389
 20
28.91537530864076
 30
0.0
 40
0.2999999999999999
100
AcDbArc
 50
12.77035161777764
 51
168.1582884011085
  0
ARC
  5
1D0
330
2
100
AcDbEntity
  8
KIJUN
 62
     7
100
AcDbCircle
 10
196.2301395816305
 20
29.7796197615956
 30
0.0
 40
5.398113552605123
100
AcDbArc
 50
244.4446917898608
 51
292.3204116574353
  0
ARC
  5
1D1
330
2
100
AcDbEntity
  8
KIJUN
 62
     7
100
AcDbCircle
 10
194.3328718088811
 20
25.81177679342073
 30
0.0
 40
0.9999999999999998
100
AcDbArc
 50
214.8861960524417
 51
244.4446917898527
  0
ARC
  5
1D2
330
2
100
AcDbEntity
  8
KIJUN
 62
     7
100
AcDbCircle
 10
197.9004804005455
 20
25.71103716193312
 30
0.0
 40
0.9999999999999998
100
AcDbArc
 50
292.3204116574282
 51
323.5046960568321
  0
ARC
  5
1D3
330
2
100
AcDbEntity
  8
KIJUN
 62
     7
100
AcDbCircle
 10
206.828206919583
 20
29.7796197615956
 30
0.0
 40
5.398113552605123
100
AcDbArc
 50
248.548537934039
 51
296.5373492155958
  0
ARC
  5
1D4
330
2
100
AcDbEntity
  8
KIJUN
 62
     7
100
AcDbCircle
 10
205.2197600793771
 20
25.68617358705757
 30
0.0
 40
0.9999999999999998
100
AcDbArc
 50
216.4596838030823
 51
248.5485379340442
  0
ARC
  5
1D5
330
2
100
AcDbEntity
  8
KIJUN
 62
     7
100
AcDbCircle
 10
208.7932009140579
 20
25.84487689537338
 30
0.0
 40
0.9999999999999998
100
AcDbArc
 50
296.5373492156036
 51
325.1948677071017
  0
ARC
  5
1D6
330
2
100
AcDbEntity
  8
KIJUN
 62
     7
100
AcDbCircle
 10
196.1495232322901
 20
26.42031932355513
 30
0.0
 40
0.8
100
AcDbArc
 50
222.9887082955468
 51
316.3508454060735
  0
ARC
  5
1D7
330
2
100
AcDbEntity
  8
KIJUN
 62
     7
100
AcDbCircle
 10
193.4117234545322
 20
29.03197326173251
 30
0.0
 40
4.583686550956493
100
AcDbArc
 50
316.3508454060718
 51
28.52958762984842
  0
ARC
  5
1D8
330
2
100
AcDbEntity
  8
KIJUN
 62
     7
100
AcDbCircle
 10
198.9512860186343
 20
29.03197326173251
 30
0.0
 40
4.630223362121511
100
AcDbArc
 50
152.2283629078379
 51
222.9887082955493
  0
ARC
  5
1D9
330
2
100
AcDbEntity
  8
KIJUN
 62
     7
100
AcDbCircle
 10
201.108768032686
 20
13.75811708042402
 30
0.0
 40
18.51937655492952
100
AcDbArc
 50
108.7233735739314
 51
109.7380056766444
  0
ARC
  5
1DA
330
2
100
AcDbEntity
  8
KIJUN
 62
     7
100
AcDbCircle
 10
191.2737474528474
 20
13.75811708042402
 30
0.0
 40
18.51937655492952
100
AcDbArc
 50
70.5552173107381
 51
71.27662642606863
  0
ARC
  5
1DB
330
2
100
AcDbEntity
  8
KIJUN
 62
     7
100
AcDbCircle
 10
196.1912577427668
 20
28.26678313145254
 30
0.0
 40
3.199999999999998
100
AcDbArc
 50
71.27662642606863
 51
108.7233735739314
  0
ARC
  5
1DC
330
2
100
AcDbEntity
  8
KIJUN
 62
     7
100
AcDbCircle
 10
206.9879808739917
 20
28.26678313145254
 30
0.0
 40
3.199999999999998
100
AcDbArc
 50
71.27662642606863
 51
108.7233735739314
  0
ARC
  5
1DD
330
2
100
AcDbEntity
  8
KIJUN
 62
     7
100
AcDbCircle
 10
202.0704705840724
 20
13.75811708042402
 30
0.0
 40
18.51937655492952
100
AcDbArc
 50
70.5552173107381
 51
71.27662642606863
  0
ARC
  5
1DE
330
2
100
AcDbEntity
  8
KIJUN
 62
     7
100
AcDbCircle
 10
211.9054911639111
 20
13.75811708042402
 30
0.0
 40
18.51937655492952
100
AcDbArc
 50
108.7233735739314
 51
109.7380056766444
  0
ARC
  5
1DF
330
2
100
AcDbEntity
  8
KIJUN
 62
     7
100
AcDbCircle
 10
206.9462463635152
 20
26.42031932355513
 30
0.0
 40
0.8
100
AcDbArc
 50
222.9887082955468
 51
316.3508454060735
  0
ARC
  5
1E0
330
2
100
AcDbEntity
  8
KIJUN
 62
     7
100
AcDbCircle
 10
209.7480091498594
 20
29.03197326173251
 30
0.0
 40
4.630223362121511
100
AcDbArc
 50
152.2283629078379
 51
222.9887082955493
  0
ARC
  5
1E1
330
2
100
AcDbEntity
  8
KIJUN
 62
     7
100
AcDbCircle
 10
204.2084465857572
 20
29.03197326173251
 30
0.0
 40
4.583686550956493
100
AcDbArc
 50
316.3508454060718
 51
28.52958762984842
  0
ARC
  5
1E2
330
2
100
AcDbEntity
  8
KIJUN
 62
     7
100
AcDbCircle
 10
167.5483192465086
 20
28.15061637452987
 30
0.0
 40
5.615869448048174
100
AcDbArc
 50
188.7064720567563
 51
213.0009498027627
  0
ARC
  5
1E3
330
2
100
AcDbEntity
  8
KIJUN
 62
     7
100
AcDbCircle
 10
214.9318138418687
 20
30.47031945015401
 30
0.0
 40
7.133425299306913
100
AcDbArc
 50
311.8681378771993
 51
351.4597194168672
  0
ARC
  5
1E4
330
2
100
AcDbEntity
  8
KIJUN
 62
     7
100
AcDbCircle
 10
230.0316862323876
 20
31.11090543774896
 30
0.0
 40
7.642809917574137
100
AcDbArc
 50
192.6873397577066
 51
232.8477139241436
  0
ARC
  5
1E5
330
2
100
AcDbEntity
  8
KIJUN
 62
     7
100
AcDbCircle
 10
222.2828151262713
 20
29.36642099599867
 30
0.0
 40
0.2999999999999999
100
AcDbArc
 50
12.68733975769382
 51
171.4597194168628
  0
ARC
  5
1E6
330
2
100
AcDbEntity
  8
KIJUN
 62
     7
100
AcDbCircle
 10
225.679900574608
 20
30.31966996775969
 30
0.0
 40
6.992103272892951
100
AcDbArc
 50
315.1879144261838
 51
335.6016219078364
  0
ARC
  5
1E7
330
2
100
AcDbEntity
  8
KIJUN
 62
     7
100
AcDbCircle
 10
217.1298140774508
 20
29.7796197615956
 30
0.0
 40
5.398113552605123
100
AcDbArc
 50
245.6830086535634
 51
293.5093912082636
  0
ARC
  5
1E8
330
2
100
AcDbEntity
  8
KIJUN
 62
     7
100
AcDbCircle
 10
215.3187385522194
 20
25.77170156588393
 30
0.0
 40
0.9999999999999998
100
AcDbArc
 50
215.384886502983
 51
245.6830086535629
  0
ARC
  5
1E9
330
2
100
AcDbEntity
  8
KIJUN
 62
     7
100
AcDbCircle
 10
218.8842188317874
 20
25.74657292581861
 30
0.0
 40
0.9999999999999998
100
AcDbArc
 50
293.5093912082676
 51
323.9569687958868
  0
ARC
  5
1EA
330
2
100
AcDbEntity
  8
KIJUN
 62
     7
100
AcDbCircle
 10
227.6537581980393
 20
29.7796197615956
 30
0.0
 40
5.398113552605123
100
AcDbArc
 50
250.8638034659151
 51
299.3134189641379
  0
ARC
  5
1EB
330
2
100
AcDbEntity
  8
KIJUN
 62
     7
100
AcDbCircle
 10
226.2119914663215
 20
25.62453714955046
 30
0.0
 40
0.9999999999999998
100
AcDbArc
 50
217.2435538296249
 51
250.8638034659095
  0
ARC
  5
1EC
330
2
100
AcDbEntity
  8
KIJUN
 62
     7
100
AcDbCircle
 10
229.8070160166882
 20
25.94466427449589
 30
0.0
 40
0.9999999999999998
100
AcDbArc
 50
299.313418964129
 51
326.4327142865525
  0
ARC
  5
1ED
330
2
100
AcDbEntity
  8
KIJUN
 62
     7
100
AcDbCircle
 10
217.1489219900561
 20
28.26678313145254
 30
0.0
 40
3.199999999999998
100
AcDbArc
 50
71.27662642606863
 51
108.7233735739314
  0
ARC
  5
1EE
330
2
100
AcDbEntity
  8
KIJUN
 62
     7
100
AcDbCircle
 10
214.3693877018215
 20
29.03197326173251
 30
0.0
 40
4.583686550956493
100
AcDbArc
 50
316.3508454060718
 51
28.52958762984842
  0
ARC
  5
1EF
330
2
100
AcDbEntity
  8
KIJUN
 62
     7
100
AcDbCircle
 10
227.9340156498494
 20
28.26678313145254
 30
0.0
 40
3.199999999999998
100
AcDbArc
 50
71.27662642606863
 51
108.7233735739314
  0
ARC
  5
1F0
330
2
100
AcDbEntity
  8
KIJUN
 62
     7
100
AcDbCircle
 10
223.0165053599301
 20
13.75811708042402
 30
0.0
 40
18.51937655492952
100
AcDbArc
 50
70.5552173107381
 51
71.27662642606863
  0
ARC
  5
1F1
330
2
100
AcDbEntity
  8
KIJUN
 62
     7
100
AcDbCircle
 10
232.8515259397688
 20
13.75811708042402
 30
0.0
 40
18.51937655492952
100
AcDbArc
 50
108.7233735739314
 51
109.7380056766444
  0
ARC
  5
1F2
330
2
100
AcDbEntity
  8
KIJUN
 62
     7
100
AcDbCircle
 10
227.8922811393729
 20
26.42031932355513
 30
0.0
 40
0.8
100
AcDbArc
 50
222.9887082955468
 51
316.3508454060735
  0
ARC
  5
1F3
330
2
100
AcDbEntity
  8
KIJUN
 62
     7
100
AcDbCircle
 10
230.6940439257171
 20
29.03197326173251
 30
0.0
 40
4.630223362121511
100
AcDbArc
 50
152.2283629078379
 51
222.9887082955493
  0
ARC
  5
1F4
330
2
100
AcDbEntity
  8
KIJUN
 62
     7
100
AcDbCircle
 10
225.1544813616149
 20
29.03197326173251
 30
0.0
 40
4.583686550956493
100
AcDbArc
 50
316.3508454060718
 51
28.52958762984842
  0
ARC
  5
1F5
330
2
100
AcDbEntity
  8
KIJUN
 62
     7
100
AcDbCircle
 10
212.2314117001367
 20
13.75811708042402
 30
0.0
 40
18.51937655492952
100
AcDbArc
 50
70.5552173107381
 51
71.27662642606863
  0
ARC
  5
1F6
330
2
100
AcDbEntity
  8
KIJUN
 62
     7
100
AcDbCircle
 10
222.0664322799755
 20
13.75811708042402
 30
0.0
 40
18.51937655492952
100
AcDbArc
 50
108.7233735739314
 51
109.7380056766444
  0
ARC
  5
1F7
330
2
100
AcDbEntity
  8
KIJUN
 62
     7
100
AcDbCircle
 10
217.1071874795796
 20
26.42031932355513
 30
0.0
 40
0.8
100
AcDbArc
 50
222.9887082955468
 51
316.3508454060735
  0
ARC
  5
1F8
330
2
100
AcDbEntity
  8
KIJUN
 62
     7
100
AcDbCircle
 10
219.9089502659237
 20
29.03197326173251
 30
0.0
 40
4.630223362121511
100
AcDbArc
 50
152.2283629078379
 51
222.9887082955493
  0
ARC
  5
1F9
330
2
100
AcDbEntity
  8
KIJUN
 62
     7
100
AcDbCircle
 10
219.340208629039
 20
30.58245352777618
 30
0.0
 40
7.241843409498067
100
AcDbArc
 50
192.7703516177796
 51
228.0956219600339
  0
ARC
  5
1FA
330
2
100
AcDbEntity
  8
KIJUN
 62
     7
100
AcDbCircle
 10
155.2119914663214
 20
25.62453714955046
 30
0.0
 40
0.9999999999999998
100
AcDbArc
 50
217.2435538296249
 51
250.8638034659095
  0
ARC
  5
1FB
330
2
100
AcDbEntity
  8
KIJUN
 62
     7
100
AcDbCircle
 10
158.8070160166882
 20
25.94466427449589
 30
0.0
 40
0.9999999999999998
100
AcDbArc
 50
299.313418964129
 51
326.4327142865525
  0
ARC
  5
1FC
330
2
100
AcDbEntity
  8
KIJUN
 62
     7
100
AcDbCircle
 10
154.679900574608
 20
30.31966996775969
 30
0.0
 40
6.992103272892951
100
AcDbArc
 50
315.1879144261838
 51
335.6016219078364
  0
ARC
  5
1FD
330
2
100
AcDbEntity
  8
KIJUN
 62
     7
100
AcDbCircle
 10
156.6537581980393
 20
29.7796197615956
 30
0.0
 40
5.398113552605123
100
AcDbArc
 50
250.8638034659151
 51
299.3134189641379
  0
ARC
  5
1FE
330
2
100
AcDbEntity
  8
KIJUN
 62
     7
100
AcDbCircle
 10
156.9340156498493
 20
28.26678313145254
 30
0.0
 40
3.199999999999998
100
AcDbArc
 50
71.27662642606863
 51
108.7233735739314
  0
ARC
  5
1FF
330
2
100
AcDbEntity
  8
KIJUN
 62
     7
100
AcDbCircle
 10
152.0165053599299
 20
13.75811708042402
 30
0.0
 40
18.51937655492952
100
AcDbArc
 50
70.5552173107381
 51
71.27662642606863
  0
ARC
  5
200
330
2
100
AcDbEntity
  8
KIJUN
 62
     7
100
AcDbCircle
 10
161.8515259397687
 20
13.75811708042402
 30
0.0
 40
18.51937655492952
100
AcDbArc
 50
108.7233735739314
 51
109.7380056766444
  0
ARC
  5
201
330
2
100
AcDbEntity
  8
KIJUN
 62
     7
100
AcDbCircle
 10
156.8922811393728
 20
26.42031932355513
 30
0.0
 40
0.8
100
AcDbArc
 50
222.9887082955468
 51
316.3508454060735
  0
ARC
  5
202
330
2
100
AcDbEntity
  8
KIJUN
 62
     7
100
AcDbCircle
 10
159.694043925717
 20
29.03197326173251
 30
0.0
 40
4.630223362121511
100
AcDbArc
 50
152.2283629078379
 51
222.9887082955493
  0
ARC
  5
203
330
2
100
AcDbEntity
  8
KIJUN
 62
     7
100
AcDbCircle
 10
154.1544813616149
 20
29.03197326173251
 30
0.0
 40
4.583686550956493
100
AcDbArc
 50
316.3508454060718
 51
28.52958762984842
  0
ARC
  5
204
330
2
100
AcDbEntity
  8
KIJUN
 62
     7
100
AcDbCircle
 10
205.385104873136
 20
46.81184414667387
 30
0.0
 40
7.032305012685529
100
AcDbArc
 50
205.7626061527426
 51
278.1631922212724
  0
ARC
  5
205
330
2
100
AcDbEntity
  8
KIJUN
 62
     7
100
AcDbCircle
 10
190.9172748123939
 20
46.81184414667387
 30
0.0
 40
7.032305012685529
100
AcDbArc
 50
261.8368077787276
 51
334.2373938472574
  0
ARC
  5
206
330
2
100
AcDbEntity
  8
KIJUN
 62
     7
100
AcDbCircle
 10
198.151189842765
 20
43.32065564557781
 30
0.0
 40
0.9999999999999998
100
AcDbArc
 50
25.76260615275184
 51
154.2373938472482
  0
ARC
  5
207
330
2
100
AcDbEntity
  8
KIJUN
 62
     7
100
AcDbCircle
 10
202.5922331829985
 20
46.79786620214946
 30
0.0
 40
8.10809753725139
100
AcDbArc
 50
254.2178392452441
 51
298.3736862190125
  0
ARC
  5
208
330
2
100
AcDbEntity
  8
KIJUN
 62
     7
100
AcDbCircle
 10
200.359789530077
 20
38.89919159702964
 30
0.0
 40
0.1
100
AcDbArc
 50
74.21783924535361
 51
207.5195943311309
  0
ARC
  5
209
330
2
100
AcDbEntity
  8
KIJUN
 62
     7
100
AcDbCircle
 10
193.7101465025313
 20
46.79786620214946
 30
0.0
 40
8.10809753725139
100
AcDbArc
 50
241.6263137809875
 51
285.7821607548169
  0
ARC
  5
20A
330
2
100
AcDbEntity
  8
KIJUN
 62
     7
100
AcDbCircle
 10
195.9425901554615
 20
38.89919159703215
 30
0.0
 40
0.1
100
AcDbArc
 50
332.4804056688113
 51
105.7821607548972
  0
ARC
  5
20B
330
2
100
AcDbEntity
  8
KIJUN
 62
     7
100
AcDbCircle
 10
206.3978426532975
 20
39.75180611684601
 30
0.0
 40
0.1
100
AcDbArc
 50
298.3736862190601
 51
98.16319222138631
  0
ARC
  5
20C
330
2
100
AcDbEntity
  8
KIJUN
 62
     7
100
AcDbCircle
 10
189.9045370322325
 20
39.75180611684601
 30
0.0
 40
0.1
100
AcDbArc
 50
81.8368077786137
 51
241.6263137809399
  0
ARC
  5
20D
330
2
100
AcDbEntity
  8
KIJUN
 62
     7
100
AcDbCircle
 10
186.2491889343984
 20
46.08117281630352
 30
0.0
 40
12.16289008678964
100
AcDbArc
 50
323.5385369542497
 51
339.0033704446495
  0
ARC
  5
20E
330
2
100
AcDbEntity
  8
KIJUN
 62
     7
100
AcDbCircle
 10
198.3029611162011
 20
37.66943410554706
 30
0.0
 40
2.561513584441384
100
AcDbArc
 50
152.4804056687798
 51
266.6031999505348
  0
ARC
  5
20F
330
2
100
AcDbEntity
  8
KIJUN
 62
     7
100
AcDbCircle
 10
210.0531907511315
 20
46.08117281630352
 30
0.0
 40
12.16289008678964
100
AcDbArc
 50
200.9966295553503
 51
216.4614630457503
  0
ARC
  5
210
330
2
100
AcDbEntity
  8
KIJUN
 62
     7
100
AcDbCircle
 10
197.999418569336
 20
37.66943410554727
 30
0.0
 40
2.561513584441384
100
AcDbArc
 50
273.3968000493587
 51
27.51959433115185
  0
LINE
  5
211
330
2
100
AcDbEntity
  8
KIJUN
 62
     7
100
AcDbLine
 10
242.7685028446022
 20
90.08895685489624
 30
0.0
 11
249.880157997956
 21
90.08895685489649
 31
0.0
  0
ARC
  5
212
330
2
100
AcDbEntity
  8
KIJUN
 62
     7
100
AcDbCircle
 10
228.2088840929621
 20
5.302239362178903
 30
0.0
 40
70.48163548613088
100
AcDbArc
 50
65.37851370782774
 51
86.26473865126383
  0
LINE
  5
213
330
2
100
AcDbEntity
  8
KIJUN
 62
     7
100
AcDbLine
 10
249.8502971027925
 20
88.09117649290516
 30
0.0
 11
242.7686406953682
 21
88.0911764929054
 31
0.0
  0
LINE
  5
214
330
2
100
AcDbEntity
  8
KIJUN
 62
     7
100
AcDbLine
 10
245.3926388609512
 20
90.08895685489649
 30
0.0
 11
242.7685028446019
 21
90.08895685489649
 31
0.0
  0
LINE
  5
215
330
2
100
AcDbEntity
  8
KIJUN
 62
     7
100
AcDbLine
 10
242.7686406953682
 20
88.0911764929054
 30
0.0
 11
245.3926388609512
 21
88.09117649290516
 31
0.0
  0
ARC
  5
216
330
2
100
AcDbEntity
  8
KIJUN
 62
     7
100
AcDbCircle
 10
321.2927450261702
 20
89.08254884013269
 30
0.0
 40
0.9999999999999998
100
AcDbArc
 50
132.8598790256259
 51
227.1401209743745
  0
LINE
  5
217
330
2
100
AcDbEntity
  8
KIJUN
 62
     7
100
AcDbLine
 10
291.2083845775094
 20
90.08895685489649
 30
0.0
 11
293.8325205938588
 21
90.08895685489649
 31
0.0
  0
LINE
  5
218
330
2
100
AcDbEntity
  8
KIJUN
 62
     7
100
AcDbLine
 10
297.7708272321349
 20
90.08895685489649
 30
0.0
 11
301.8313584000917
 21
90.08895685489649
 31
0.0
  0
LINE
  5
219
330
2
100
AcDbEntity
  8
KIJUN
 62
     7
100
AcDbLine
 10
305.7696650383689
 20
90.08895685489624
 30
0.0
 11
309.8301962063252
 21
90.08895685489624
 31
0.0
  0
LINE
  5
21A
330
2
100
AcDbEntity
  8
KIJUN
 62
     7
100
AcDbLine
 10
313.7685028446024
 20
90.08895685489624
 30
0.0
 11
320.8801579979559
 21
90.08895685489649
 31
0.0
  0
LINE
  5
21B
330
2
100
AcDbEntity
  8
KIJUN
 62
     7
100
AcDbLine
 10
305.7696650383689
 20
90.08895685489624
 30
0.0
 11
309.8301962063252
 21
90.08895685489624
 31
0.0
  0
LINE
  5
21C
330
2
100
AcDbEntity
  8
KIJUN
 62
     7
100
AcDbLine
 10
288.4222216875738
 20
90.08895685489649
 30
0.0
 11
293.8325205938588
 21
90.08895685489649
 31
0.0
  0
LINE
  5
21D
330
2
100
AcDbEntity
  8
KIJUN
 62
     7
100
AcDbLine
 10
297.7708272321349
 20
90.08895685489649
 30
0.0
 11
301.8313584000917
 21
90.08895685489649
 31
0.0
  0
ARC
  5
21E
330
2
100
AcDbEntity
  8
KIJUN
 62
     7
100
AcDbCircle
 10
288.0096346593597
 20
89.08254884013269
 30
0.0
 40
0.9999999999999998
100
AcDbArc
 50
312.8598790256257
 51
47.1401209743741
  0
LINE
  5
21F
330
2
100
AcDbEntity
  8
KIJUN
 62
     7
100
AcDbLine
 10
280.3472845793791
 20
93.7946417926148
 30
0.0
 11
269.151189842765
 21
93.7946417926148
 31
0.0
  0
LINE
  5
220
330
2
100
AcDbEntity
  8
KIJUN
 62
     7
100
AcDbLine
 10
280.3472845793791
 20
91.94912985754379
 30
0.0
 11
269.151189842765
 21
91.94912985754379
 31
0.0
  0
LINE
  5
221
330
2
100
AcDbEntity
  8
KIJUN
 62
     7
100
AcDbLine
 10
280.3472845793791
 20
89.9190563951732
 30
0.0
 11
269.151189842765
 21
89.9190563951732
 31
0.0
  0
ARC
  5
222
330
2
100
AcDbEntity
  8
KIJUN
 62
     7
100
AcDbCircle
 10
279.3247741483339
 20
80.91576425587145
 30
0.0
 40
12.91940456011924
100
AcDbArc
 50
43.54081015745864
 51
85.46055949364863
  0
ARC
  5
223
330
2
100
AcDbEntity
  8
KIJUN
 62
     7
100
AcDbCircle
 10
278.7999742145472
 20
59.0625450270739
 30
0.0
 40
30.89528221548973
100
AcDbArc
 50
75.07912373635389
 51
87.12928802635763
  0
ARC
  5
224
330
2
100
AcDbEntity
  8
KIJUN
 62
     7
100
AcDbCircle
 10
279.2370229295686
 20
75.48490709635898
 30
0.0
 40
16.50161543791881
100
AcDbArc
 50
54.32250237687103
 51
86.14211106816552
  0
ARC
  5
225
330
2
100
AcDbEntity
  8
KIJUN
 62
     7
100
AcDbCircle
 10
329.9776055371959
 20
80.91576425587145
 30
0.0
 40
12.91940456011924
100
AcDbArc
 50
94.53944050635136
 51
136.4591898425413
  0
ARC
  5
226
330
2
100
AcDbEntity
  8
KIJUN
 62
     7
100
AcDbCircle
 10
330.0653567559614
 20
75.48490709635898
 30
0.0
 40
16.50161543791881
100
AcDbArc
 50
93.85788893183447
 51
125.6774976231289
  0
ARC
  5
227
330
2
100
AcDbEntity
  8
KIJUN
 62
     7
100
AcDbCircle
 10
330.5024054709826
 20
59.0625450270739
 30
0.0
 40
30.89528221548973
100
AcDbArc
 50
92.87071197364237
 51
104.9208762636461
  0
ARC
  5
228
330
2
100
AcDbEntity
  8
KIJUN
 62
     7
100
AcDbCircle
 10
329.0168083316086
 20
85.00135866753161
 30
0.0
 40
0.9999999999999998
100
AcDbArc
 50
262.7969840481059
 51
270.0
  0
ARC
  5
229
330
2
100
AcDbEntity
  8
KIJUN
 62
     7
100
AcDbCircle
 10
317.4261015362574
 20
54.2855953397962
 30
0.0
 40
17.2891241167071
100
AcDbArc
 50
329.927071124202
 51
352.0681246283257
  0
LINE
  5
22A
330
2
100
AcDbEntity
  8
KIJUN
 62
     7
100
AcDbLine
 10
332.3879068822209
 20
70.87774277647652
 30
0.0
 11
330.2744214236647
 21
69.37568011642118
 31
0.0
  0
LINE
  5
22B
330
2
100
AcDbEntity
  8
KIJUN
 62
     7
100
AcDbLine
 10
332.3879068822209
 20
45.62198214942355
 30
0.0
 11
330.2744214236647
 21
47.12404480947887
 31
0.0
  0
ARC
  5
22C
330
2
100
AcDbEntity
  8
KIJUN
 62
     7
100
AcDbCircle
 10
317.4261015362574
 20
62.21412958610389
 30
0.0
 40
17.28912411670711
100
AcDbArc
 50
7.931875371674465
 51
30.07292887579827
  0
ARC
  5
22D
330
2
100
AcDbEntity
  8
KIJUN
 62
     7
100
AcDbCircle
 10
331.9045370322326
 20
73.70905306026251
 30
0.0
 40
0.1
100
AcDbArc
 50
118.3736862190601
 51
278.1631922213863
  0
LINE
  5
22E
330
2
100
AcDbEntity
  8
KIJUN
 62
     7
100
AcDbLine
 10
320.8502971027925
 20
88.09117649290516
 30
0.0
 11
313.7686406953682
 21
88.0911764929054
 31
0.0
  0
LINE
  5
22F
330
2
100
AcDbEntity
  8
KIJUN
 62
     7
100
AcDbLine
 10
293.8323827430925
 20
88.0911764929054
 30
0.0
 11
291.2083845775094
 21
88.09117649290516
 31
0.0
  0
LINE
  5
230
330
2
100
AcDbEntity
  8
KIJUN
 62
     7
100
AcDbLine
 10
301.831220549326
 20
88.0911764929054
 30
0.0
 11
297.7709650829012
 21
88.0911764929054
 31
0.0
  0
LINE
  5
231
330
2
100
AcDbEntity
  8
KIJUN
 62
     7
100
AcDbLine
 10
309.8300583555594
 20
88.0911764929054
 30
0.0
 11
305.7698028891347
 21
88.0911764929054
 31
0.0
  0
ARC
  5
232
330
2
100
AcDbEntity
  8
KIJUN
 62
     7
100
AcDbCircle
 10
299.7249946762961
 20
29.51954307844159
 30
0.0
 40
45.71870135304531
100
AcDbArc
 50
84.88567488039683
 51
119.3351603718926
  0
ARC
  5
233
330
2
100
AcDbEntity
  8
KIJUN
 62
     7
100
AcDbCircle
 10
290.1749219022033
 20
62.21412958610389
 30
0.0
 40
17.28912411670711
100
AcDbArc
 50
149.927071124202
 51
172.0681246283255
  0
LINE
  5
234
330
2
100
AcDbEntity
  8
KIJUN
 62
     7
100
AcDbLine
 10
275.2131165562397
 20
70.87774277647652
 30
0.0
 11
277.3266020147959
 21
69.37568011642118
 31
0.0
  0
ARC
  5
235
330
2
100
AcDbEntity
  8
KIJUN
 62
     7
100
AcDbCircle
 10
271.8908769359293
 20
66.6629929749591
 30
0.0
 40
8.10809753725139
100
AcDbArc
 50
61.62631378098753
 51
105.7821607548165
  0
ARC
  5
236
330
2
100
AcDbEntity
  8
KIJUN
 62
     7
100
AcDbCircle
 10
269.6584332829991
 20
74.5616675800764
 30
0.0
 40
0.1
100
AcDbArc
 50
152.4804056688112
 51
285.7821607548972
  0
ARC
  5
237
330
2
100
AcDbEntity
  8
KIJUN
 62
     7
100
AcDbCircle
 10
275.6964864062281
 20
73.70905306026251
 30
0.0
 40
0.1
100
AcDbArc
 50
261.8368077786137
 51
61.62631378093987
  0
ARC
  5
238
330
2
100
AcDbEntity
  8
KIJUN
 62
     7
100
AcDbCircle
 10
290.1749219022033
 20
54.2855953397962
 30
0.0
 40
17.2891241167071
100
AcDbArc
 50
187.9318753716742
 51
210.072928875798
  0
LINE
  5
239
330
2
100
AcDbEntity
  8
KIJUN
 62
     7
100
AcDbLine
 10
275.2131165562397
 20
45.62198214942355
 30
0.0
 11
277.3266020147959
 21
47.12404480947887
 31
0.0
  0
ARC
  5
23A
330
2
100
AcDbEntity
  8
KIJUN
 62
     7
100
AcDbCircle
 10
265.2024139572992
 20
58.24986246295003
 30
0.0
 40
4.414008682989955
100
AcDbArc
 50
323.4149527862897
 51
36.58504721371045
  0
LINE
  5
23B
330
2
100
AcDbEntity
  8
KIJUN
 62
     7
100
AcDbLine
 10
309.8300583555594
 20
88.0911764929054
 30
0.0
 11
305.7698028891347
 21
88.0911764929054
 31
0.0
  0
LINE
  5
23C
330
2
100
AcDbEntity
  8
KIJUN
 62
     7
100
AcDbLine
 10
293.8323827430925
 20
88.0911764929054
 30
0.0
 11
288.4520825827369
 21
88.09117649290493
 31
0.0
  0
LINE
  5
23D
330
2
100
AcDbEntity
  8
KIJUN
 62
     7
100
AcDbLine
 10
301.831220549326
 20
88.0911764929054
 30
0.0
 11
297.7709650829012
 21
88.0911764929054
 31
0.0
  0
ARC
  5
23E
330
2
100
AcDbEntity
  8
KIJUN
 62
     7
100
AcDbCircle
 10
280.2855713539212
 20
85.00135866753161
 30
0.0
 40
0.9999999999999998
100
AcDbArc
 50
270.0
 51
277.2030159518941
  0
LINE
  5
23F
330
2
100
AcDbEntity
  8
KIJUN
 62
     7
100
AcDbLine
 10
280.3472845793791
 20
87.91316400636361
 30
0.0
 11
269.151189842765
 21
87.91316400636361
 31
0.0
  0
LINE
  5
240
330
2
100
AcDbEntity
  8
KIJUN
 62
     7
100
AcDbLine
 10
280.3472845793791
 20
85.82962608700045
 30
0.0
 11
269.151189842765
 21
85.82962608700045
 31
0.0
  0
LINE
  5
241
330
2
100
AcDbEntity
  8
KIJUN
 62
     7
100
AcDbLine
 10
280.2855713539212
 20
84.00135866753165
 30
0.0
 11
269.151189842765
 21
84.00135866753165
 31
0.0
  0
ARC
  5
242
330
2
100
AcDbEntity
  8
KIJUN
 62
     7
100
AcDbCircle
 10
307.8760287621646
 20
29.51954307844159
 30
0.0
 40
45.71870135304531
100
AcDbArc
 50
60.66483962810735
 51
95.11432511960318
  0
ARC
  5
243
330
2
100
AcDbEntity
  8
KIJUN
 62
     7
100
AcDbCircle
 10
306.1936869440085
 20
89.08976565991343
 30
0.0
 40
4.475298131879016
100
AcDbArc
 50
122.3271032911907
 51
237.6728967088094
  0
ARC
  5
244
330
2
100
AcDbEntity
  8
KIJUN
 62
     7
100
AcDbCircle
 10
301.4073364944522
 20
89.08976565991343
 30
0.0
 40
4.475298131879016
100
AcDbArc
 50
302.3271032911907
 51
57.6728967088093
  0
ARC
  5
245
330
2
100
AcDbEntity
  8
KIJUN
 62
     7
100
AcDbCircle
 10
314.1925247502419
 20
89.08976565991343
 30
0.0
 40
4.475298131879016
100
AcDbArc
 50
122.3271032911907
 51
237.6728967088094
  0
ARC
  5
246
330
2
100
AcDbEntity
  8
KIJUN
 62
     7
100
AcDbCircle
 10
309.4061743006857
 20
89.08976565991343
 30
0.0
 40
4.475298131879016
100
AcDbArc
 50
302.3271032911907
 51
57.6728967088093
  0
ARC
  5
247
330
2
100
AcDbEntity
  8
KIJUN
 62
     7
100
AcDbCircle
 10
298.194849137775
 20
89.08976565991343
 30
0.0
 40
4.475298131879016
100
AcDbArc
 50
122.3271032911907
 51
237.6728967088094
  0
ARC
  5
248
330
2
100
AcDbEntity
  8
KIJUN
 62
     7
100
AcDbCircle
 10
293.4084986882186
 20
89.08976565991343
 30
0.0
 40
4.475298131879016
100
AcDbArc
 50
302.3271032911907
 51
57.6728967088093
  0
ARC
  5
249
330
2
100
AcDbEntity
  8
KIJUN
 62
     7
100
AcDbCircle
 10
330.5676795325464
 20
97.27257357655531
 30
0.0
 40
13.36882843385103
100
AcDbArc
 50
221.8706710794596
 51
262.796984048108
  0
ARC
  5
24A
330
2
100
AcDbEntity
  8
KIJUN
 62
     7
100
AcDbCircle
 10
330.0653567559614
 20
102.2938488481852
 30
0.0
 40
16.50161543791888
100
AcDbArc
 50
234.322502376871
 51
266.1421110681655
  0
ARC
  5
24B
330
2
100
AcDbEntity
  8
KIJUN
 62
     7
100
AcDbCircle
 10
330.5024054709826
 20
118.7696753744628
 30
0.0
 40
30.89528221548988
100
AcDbArc
 50
255.0791237363539
 51
267.1292880263576
  0
ARC
  5
24C
330
2
100
AcDbEntity
  8
KIJUN
 62
     7
100
AcDbCircle
 10
278.7347001529835
 20
97.27257357655531
 30
0.0
 40
13.36882843385103
100
AcDbArc
 50
277.2030159518924
 51
318.1293289205404
  0
ARC
  5
24D
330
2
100
AcDbEntity
  8
KIJUN
 62
     7
100
AcDbCircle
 10
278.7999742145472
 20
118.7696753744628
 30
0.0
 40
30.89528221548988
100
AcDbArc
 50
272.8707119736423
 51
284.9208762636461
  0
ARC
  5
24E
330
2
100
AcDbEntity
  8
KIJUN
 62
     7
100
AcDbCircle
 10
279.2370229295686
 20
102.2938488481852
 30
0.0
 40
16.50161543791888
100
AcDbArc
 50
273.8578889318345
 51
305.6774976231289
  0
ARC
  5
24F
330
2
100
AcDbEntity
  8
KIJUN
 62
     7
100
AcDbCircle
 10
259.5024054709827
 20
59.0625450270739
 30
0.0
 40
30.89528221548973
100
AcDbArc
 50
92.87071197364237
 51
104.9208762636461
  0
ARC
  5
250
330
2
100
AcDbEntity
  8
KIJUN
 62
     7
100
AcDbCircle
 10
259.0653567559613
 20
75.48490709635898
 30
0.0
 40
16.50161543791881
100
AcDbArc
 50
93.85788893183447
 51
125.6774976231289
  0
ARC
  5
251
330
2
100
AcDbEntity
  8
KIJUN
 62
     7
100
AcDbCircle
 10
258.9776055371959
 20
80.91576425587145
 30
0.0
 40
12.91940456011924
100
AcDbArc
 50
94.53944050635136
 51
136.4591898425413
  0
ARC
  5
252
330
2
100
AcDbEntity
  8
KIJUN
 62
     7
100
AcDbCircle
 10
250.2927450261702
 20
89.08254884013269
 30
0.0
 40
0.9999999999999998
100
AcDbArc
 50
132.8598790256259
 51
227.1401209743745
  0
ARC
  5
253
330
2
100
AcDbEntity
  8
KIJUN
 62
     7
100
AcDbCircle
 10
244.724745289188
 20
62.21412958610389
 30
0.0
 40
17.28912411670711
100
AcDbArc
 50
7.931875371674465
 51
30.07292887579827
  0
ARC
  5
254
330
2
100
AcDbEntity
  8
KIJUN
 62
     7
100
AcDbCircle
 10
274.4810445577851
 20
38.57968629932822
 30
0.0
 40
28.93652586707739
100
AcDbArc
 50
108.7233735739314
 51
115.9444385314847
  0
ARC
  5
255
330
2
100
AcDbEntity
  8
KIJUN
 62
     7
100
AcDbCircle
 10
266.7974347297865
 20
61.24947700406011
 30
0.0
 40
4.999999999999999
100
AcDbArc
 50
71.27662642606863
 51
108.7233735739314
  0
ARC
  5
256
330
2
100
AcDbEntity
  8
KIJUN
 62
     7
100
AcDbCircle
 10
260.2159185653247
 20
66.64901503043465
 30
0.0
 40
7.032305012685529
100
AcDbArc
 50
25.76260615274264
 51
98.16319222127237
  0
ARC
  5
257
330
2
100
AcDbEntity
  8
KIJUN
 62
     7
100
AcDbCircle
 10
267.4498335956956
 20
70.14020353153076
 30
0.0
 40
0.9999999999999998
100
AcDbArc
 50
205.7626061527518
 51
334.2373938472483
  0
ARC
  5
258
330
2
100
AcDbEntity
  8
KIJUN
 62
     7
100
AcDbCircle
 10
263.008790255462
 20
66.6629929749591
 30
0.0
 40
8.10809753725139
100
AcDbArc
 50
74.21783924524404
 51
118.3736862190124
  0
ARC
  5
259
330
2
100
AcDbEntity
  8
KIJUN
 62
     7
100
AcDbCircle
 10
265.2412339083836
 20
74.5616675800789
 30
0.0
 40
0.1
100
AcDbArc
 50
254.2178392453532
 51
27.51959433113116
  0
ARC
  5
25A
330
2
100
AcDbEntity
  8
KIJUN
 62
     7
100
AcDbCircle
 10
259.2031807851632
 20
73.70905306026251
 30
0.0
 40
0.1
100
AcDbArc
 50
118.3736862190601
 51
278.1631922213863
  0
ARC
  5
25B
330
2
100
AcDbEntity
  8
KIJUN
 62
     7
100
AcDbCircle
 10
255.5478326873291
 20
67.37968636080501
 30
0.0
 40
12.16289008678964
100
AcDbArc
 50
20.99662955535054
 51
36.46146304575033
  0
ARC
  5
25C
330
2
100
AcDbEntity
  8
KIJUN
 62
     7
100
AcDbCircle
 10
267.6016048691246
 20
75.79142507156126
 30
0.0
 40
2.561513584441384
100
AcDbArc
 50
93.39680004935873
 51
207.5195943311519
  0
LINE
  5
25D
330
2
100
AcDbEntity
  8
KIJUN
 62
     7
100
AcDbLine
 10
259.6865506351516
 20
70.87774277647652
 30
0.0
 11
257.5730651765955
 21
69.37568011642118
 31
0.0
  0
LINE
  5
25E
330
2
100
AcDbEntity
  8
KIJUN
 62
     7
100
AcDbLine
 10
259.6865506351516
 20
45.62198214942355
 30
0.0
 11
258.2268867339627
 21
46.6593711853075
 31
0.0
  0
ARC
  5
25F
330
2
100
AcDbEntity
  8
KIJUN
 62
     7
100
AcDbCircle
 10
244.724745289188
 20
54.2855953397962
 30
0.0
 40
17.2891241167071
100
AcDbArc
 50
329.927071124202
 51
352.0681246283257
  0
ARC
  5
260
330
2
100
AcDbEntity
  8
KIJUN
 62
     7
100
AcDbCircle
 10
274.4810445577851
 20
77.92003862657185
 30
0.0
 40
28.93652586707739
100
AcDbArc
 50
244.0555614685153
 51
251.2766264260686
  0
ARC
  5
261
330
2
100
AcDbEntity
  8
KIJUN
 62
     7
100
AcDbCircle
 10
266.7974347297865
 20
55.25024792183997
 30
0.0
 40
4.999999999999999
100
AcDbArc
 50
251.2766264260686
 51
288.7233735739314
  0
ARC
  5
262
330
2
100
AcDbEntity
  8
KIJUN
 62
     7
100
AcDbCircle
 10
266.7974347297865
 20
56.26440401543624
 30
0.0
 40
4.999999999999999
100
AcDbArc
 50
71.27662642606863
 51
108.7233735739314
  0
ARC
  5
263
330
2
100
AcDbEntity
  8
KIJUN
 62
     7
100
AcDbCircle
 10
266.7974347297865
 20
60.23532091046383
 30
0.0
 40
4.999999999999999
100
AcDbArc
 50
251.2766264260686
 51
288.7233735739314
  0
ARC
  5
264
330
2
100
AcDbEntity
  8
KIJUN
 62
     7
100
AcDbCircle
 10
274.4810445577851
 20
33.59461331070434
 30
0.0
 40
28.93652586707739
100
AcDbArc
 50
108.7233735739314
 51
109.7380056766444
  0
ARC
  5
265
330
2
100
AcDbEntity
  8
KIJUN
 62
     7
100
AcDbCircle
 10
268.2892635905042
 20
58.24986246295003
 30
0.0
 40
4.414008682989955
100
AcDbArc
 50
144.2135533823009
 51
215.7864466176994
  0
ARC
  5
266
330
2
100
AcDbEntity
  8
KIJUN
 62
     7
100
AcDbCircle
 10
274.4810445577851
 20
82.90511161519573
 30
0.0
 40
28.93652586707739
100
AcDbArc
 50
250.2619943233556
 51
251.2766264260686
  0
ARC
  5
267
330
2
100
AcDbEntity
  8
KIJUN
 62
     7
100
AcDbCircle
 10
258.0168083316086
 20
85.00135866753161
 30
0.0
 40
0.9999999999999998
100
AcDbArc
 50
262.7969840481059
 51
270.0
  0
ARC
  5
268
330
2
100
AcDbEntity
  8
KIJUN
 62
     7
100
AcDbCircle
 10
259.5024054709827
 20
118.7696753744628
 30
0.0
 40
30.89528221548988
100
AcDbArc
 50
255.0791237363539
 51
267.1292880263576
  0
ARC
  5
269
330
2
100
AcDbEntity
  8
KIJUN
 62
     7
100
AcDbCircle
 10
259.0653567559613
 20
102.2938488481852
 30
0.0
 40
16.50161543791888
100
AcDbArc
 50
234.322502376871
 51
266.1421110681655
  0
ARC
  5
26A
330
2
100
AcDbEntity
  8
KIJUN
 62
     7
100
AcDbCircle
 10
259.5676795325464
 20
97.27257357655531
 30
0.0
 40
13.36882843385103
100
AcDbArc
 50
221.8706710794596
 51
262.796984048108
  0
ARC
  5
26B
330
2
100
AcDbEntity
  8
KIJUN
 62
     7
100
AcDbCircle
 10
256.1143205983701
 20
16.24256927994684
 30
0.0
 40
51.23762830557812
100
AcDbArc
 50
70.69749845759185
 51
76.12373414414856
  0
ARC
  5
26C
330
2
100
AcDbEntity
  8
KIJUN
 62
     7
100
AcDbCircle
 10
274.6837486260667
 20
66.64901503043465
 30
0.0
 40
7.032305012685529
100
AcDbArc
 50
81.83680777872762
 51
154.2373938472574
  0
ARC
  5
26D
330
2
100
AcDbEntity
  8
KIJUN
 62
     7
100
AcDbCircle
 10
279.3518345040622
 20
67.37968636080501
 30
0.0
 40
12.16289008678964
100
AcDbArc
 50
143.5385369542497
 51
159.0033704446494
  0
ARC
  5
26E
330
2
100
AcDbEntity
  8
KIJUN
 62
     7
100
AcDbCircle
 10
267.2980623222595
 20
75.79142507156149
 30
0.0
 40
2.561513584441384
100
AcDbArc
 50
332.4804056687801
 51
86.60319995053482
  0
ARC
  5
26F
330
2
100
AcDbEntity
  8
KIJUN
 62
     7
100
AcDbCircle
 10
256.1143205983701
 20
100.2571556459536
 30
0.0
 40
51.2376283055783
100
AcDbArc
 50
283.8762658558514
 51
289.3025015424082
  0
ARC
  5
270
330
2
100
AcDbEntity
  8
KIJUN
 62
     7
100
AcDbCircle
 10
259.1138249017879
 20
33.59461331070434
 30
0.0
 40
28.93652586707739
100
AcDbArc
 50
70.5552173107381
 51
71.27662642606863
  0
ARC
  5
271
330
2
100
AcDbEntity
  8
KIJUN
 62
     7
100
AcDbCircle
 10
259.1138249017879
 20
82.90511161519573
 30
0.0
 40
28.93652586707739
100
AcDbArc
 50
288.7233735739318
 51
289.4447826892623
  0
LINE
  5
272
330
2
100
AcDbEntity
  8
KIJUN
 62
     7
100
AcDbLine
 10
257.9550951061508
 20
87.91316400636361
 30
0.0
 11
269.151189842765
 21
87.91316400636361
 31
0.0
  0
LINE
  5
273
330
2
100
AcDbEntity
  8
KIJUN
 62
     7
100
AcDbLine
 10
257.9550951061508
 20
85.82962608700045
 30
0.0
 11
269.151189842765
 21
85.82962608700045
 31
0.0
  0
LINE
  5
274
330
2
100
AcDbEntity
  8
KIJUN
 62
     7
100
AcDbLine
 10
258.0168083316086
 20
84.00135866753165
 30
0.0
 11
269.151189842765
 21
84.00135866753165
 31
0.0
  0
LINE
  5
275
330
2
100
AcDbEntity
  8
KIJUN
 62
     7
100
AcDbLine
 10
257.9550951061508
 20
89.9190563951732
 30
0.0
 11
269.151189842765
 21
89.9190563951732
 31
0.0
  0
LINE
  5
276
330
2
100
AcDbEntity
  8
KIJUN
 62
     7
100
AcDbLine
 10
257.9550951061508
 20
91.94912985754379
 30
0.0
 11
269.151189842765
 21
91.94912985754379
 31
0.0
  0
LINE
  5
277
330
2
100
AcDbEntity
  8
KIJUN
 62
     7
100
AcDbLine
 10
257.9550951061508
 20
93.7946417926148
 30
0.0
 11
269.151189842765
 21
93.7946417926148
 31
0.0
  0
LINE
  5
278
330
2
100
AcDbEntity
  8
KIJUN
 62
     7
100
AcDbLine
 10
234.7696650383688
 20
90.08895685489624
 30
0.0
 11
238.8301962063253
 21
90.08895685489624
 31
0.0
  0
LINE
  5
279
330
2
100
AcDbEntity
  8
KIJUN
 62
     7
100
AcDbLine
 10
226.7708272321348
 20
90.08895685489649
 30
0.0
 11
230.8313584000917
 21
90.08895685489649
 31
0.0
  0
LINE
  5
27A
330
2
100
AcDbEntity
  8
KIJUN
 62
     7
100
AcDbLine
 10
220.2083845775092
 20
90.08895685489649
 30
0.0
 11
222.8325205938588
 21
90.08895685489649
 31
0.0
  0
LINE
  5
27B
330
2
100
AcDbEntity
  8
KIJUN
 62
     7
100
AcDbLine
 10
238.8300583555595
 20
88.0911764929054
 30
0.0
 11
234.7698028891347
 21
88.0911764929054
 31
0.0
  0
LINE
  5
27C
330
2
100
AcDbEntity
  8
KIJUN
 62
     7
100
AcDbLine
 10
230.831220549326
 20
88.0911764929054
 30
0.0
 11
226.7709650829012
 21
88.0911764929054
 31
0.0
  0
LINE
  5
27D
330
2
100
AcDbEntity
  8
KIJUN
 62
     7
100
AcDbLine
 10
222.8323827430925
 20
88.0911764929054
 30
0.0
 11
220.2083845775092
 21
88.09117649290516
 31
0.0
  0
ARC
  5
27E
330
2
100
AcDbEntity
  8
KIJUN
 62
     7
100
AcDbCircle
 10
222.4084986882187
 20
89.08976565991343
 30
0.0
 40
4.475298131879016
100
AcDbArc
 50
302.3271032911907
 51
57.6728967088093
  0
ARC
  5
27F
330
2
100
AcDbEntity
  8
KIJUN
 62
     7
100
AcDbCircle
 10
227.194849137775
 20
89.08976565991343
 30
0.0
 40
4.475298131879016
100
AcDbArc
 50
122.3271032911907
 51
237.6728967088094
  0
ARC
  5
280
330
2
100
AcDbEntity
  8
KIJUN
 62
     7
100
AcDbCircle
 10
238.4061743006856
 20
89.08976565991343
 30
0.0
 40
4.475298131879016
100
AcDbArc
 50
302.3271032911907
 51
57.6728967088093
  0
ARC
  5
281
330
2
100
AcDbEntity
  8
KIJUN
 62
     7
100
AcDbCircle
 10
243.192524750242
 20
89.08976565991343
 30
0.0
 40
4.475298131879016
100
AcDbArc
 50
122.3271032911907
 51
237.6728967088094
  0
ARC
  5
282
330
2
100
AcDbEntity
  8
KIJUN
 62
     7
100
AcDbCircle
 10
230.4073364944521
 20
89.08976565991343
 30
0.0
 40
4.475298131879016
100
AcDbArc
 50
302.3271032911907
 51
57.6728967088093
  0
ARC
  5
283
330
2
100
AcDbEntity
  8
KIJUN
 62
     7
100
AcDbCircle
 10
235.1936869440085
 20
89.08976565991343
 30
0.0
 40
4.475298131879016
100
AcDbArc
 50
122.3271032911907
 51
237.6728967088094
  0
LINE
  5
284
330
2
100
AcDbEntity
  8
KIJUN
 62
     7
100
AcDbLine
 10
207.6459283323099
 20
93.7946417926148
 30
0.0
 11
196.4498335956956
 21
93.7946417926148
 31
0.0
  0
LINE
  5
285
330
2
100
AcDbEntity
  8
KIJUN
 62
     7
100
AcDbLine
 10
207.6459283323099
 20
91.94912985754379
 30
0.0
 11
196.4498335956956
 21
91.94912985754379
 31
0.0
  0
LINE
  5
286
330
2
100
AcDbEntity
  8
KIJUN
 62
     7
100
AcDbLine
 10
207.6459283323099
 20
89.9190563951732
 30
0.0
 11
196.4498335956956
 21
89.9190563951732
 31
0.0
  0
ARC
  5
287
330
2
100
AcDbEntity
  8
KIJUN
 62
     7
100
AcDbCircle
 10
186.364000508892
 20
75.48490709635898
 30
0.0
 40
16.50161543791881
100
AcDbArc
 50
93.85788893183447
 51
125.6774976231289
  0
ARC
  5
288
330
2
100
AcDbEntity
  8
KIJUN
 62
     7
100
AcDbCircle
 10
186.8010492239133
 20
59.0625450270739
 30
0.0
 40
30.89528221548973
100
AcDbArc
 50
92.87071197364237
 51
104.9208762636461
  0
ARC
  5
289
330
2
100
AcDbEntity
  8
KIJUN
 62
     7
100
AcDbCircle
 10
186.2762492901267
 20
80.91576425587145
 30
0.0
 40
12.91940456011924
100
AcDbArc
 50
94.53944050635136
 51
136.4591898425413
  0
LINE
  5
28A
330
2
100
AcDbEntity
  8
KIJUN
 62
     7
100
AcDbLine
 10
185.2537388590814
 20
89.9190563951732
 30
0.0
 11
196.4498335956956
 21
89.9190563951732
 31
0.0
  0
LINE
  5
28B
330
2
100
AcDbEntity
  8
KIJUN
 62
     7
100
AcDbLine
 10
185.2537388590814
 20
91.94912985754379
 30
0.0
 11
196.4498335956956
 21
91.94912985754379
 31
0.0
  0
LINE
  5
28C
330
2
100
AcDbEntity
  8
KIJUN
 62
     7
100
AcDbLine
 10
185.2537388590814
 20
93.7946417926148
 30
0.0
 11
196.4498335956956
 21
93.7946417926148
 31
0.0
  0
ARC
  5
28D
330
2
100
AcDbEntity
  8
KIJUN
 62
     7
100
AcDbCircle
 10
177.5913887791008
 20
89.08254884013269
 30
0.0
 40
0.9999999999999998
100
AcDbArc
 50
132.8598790256259
 51
227.1401209743745
  0
LINE
  5
28E
330
2
100
AcDbEntity
  8
KIJUN
 62
     7
100
AcDbLine
 10
167.8301962063257
 20
90.08895685489649
 30
0.0
 11
163.7696650383689
 21
90.08895685489649
 31
0.0
  0
LINE
  5
28F
330
2
100
AcDbEntity
  8
KIJUN
 62
     7
100
AcDbLine
 10
177.1788017508867
 20
90.08895685489649
 30
0.0
 11
171.7685028446019
 21
90.08895685489649
 31
0.0
  0
ARC
  5
290
330
2
100
AcDbEntity
  8
KIJUN
 62
     7
100
AcDbCircle
 10
215.3082784122905
 20
89.08254884013269
 30
0.0
 40
0.9999999999999998
100
AcDbArc
 50
312.8598790256257
 51
47.1401209743741
  0
LINE
  5
291
330
2
100
AcDbEntity
  8
KIJUN
 62
     7
100
AcDbLine
 10
238.8301962063258
 20
90.08895685489649
 30
0.0
 11
234.7696650383688
 21
90.08895685489649
 31
0.0
  0
LINE
  5
292
330
2
100
AcDbEntity
  8
KIJUN
 62
     7
100
AcDbLine
 10
230.8313584000917
 20
90.08895685489624
 30
0.0
 11
226.7708272321354
 21
90.08895685489624
 31
0.0
  0
LINE
  5
293
330
2
100
AcDbEntity
  8
KIJUN
 62
     7
100
AcDbLine
 10
222.8325205938582
 20
90.08895685489624
 30
0.0
 11
215.7208654405046
 21
90.08895685489649
 31
0.0
  0
ARC
  5
294
330
2
100
AcDbEntity
  8
KIJUN
 62
     7
100
AcDbCircle
 10
206.6234179012647
 20
80.91576425587145
 30
0.0
 40
12.91940456011924
100
AcDbArc
 50
43.54081015745864
 51
85.46055949364863
  0
ARC
  5
295
330
2
100
AcDbEntity
  8
KIJUN
 62
     7
100
AcDbCircle
 10
206.5356666824992
 20
75.48490709635898
 30
0.0
 40
16.50161543791881
100
AcDbArc
 50
54.32250237687103
 51
86.14211106816552
  0
ARC
  5
296
330
2
100
AcDbEntity
  8
KIJUN
 62
     7
100
AcDbCircle
 10
206.098617967478
 20
59.0625450270739
 30
0.0
 40
30.89528221548973
100
AcDbArc
 50
75.07912373635389
 51
87.12928802635763
  0
LINE
  5
297
330
2
100
AcDbEntity
  8
KIJUN
 62
     7
100
AcDbLine
 10
207.584215106852
 20
84.00135866753165
 30
0.0
 11
196.4498335956956
 21
84.00135866753165
 31
0.0
  0
ARC
  5
298
330
2
100
AcDbEntity
  8
KIJUN
 62
     7
100
AcDbCircle
 10
207.584215106852
 20
85.00135866753161
 30
0.0
 40
0.9999999999999998
100
AcDbArc
 50
270.0
 51
277.2030159518941
  0
LINE
  5
299
330
2
100
AcDbEntity
  8
KIJUN
 62
     7
100
AcDbLine
 10
207.6459283323099
 20
85.82962608700045
 30
0.0
 11
196.4498335956956
 21
85.82962608700045
 31
0.0
  0
LINE
  5
29A
330
2
100
AcDbEntity
  8
KIJUN
 62
     7
100
AcDbLine
 10
207.6459283323099
 20
87.91316400636361
 30
0.0
 11
196.4498335956956
 21
87.91316400636361
 31
0.0
  0
LINE
  5
29B
330
2
100
AcDbEntity
  8
KIJUN
 62
     7
100
AcDbLine
 10
185.3154520845394
 20
84.00135866753165
 30
0.0
 11
196.4498335956956
 21
84.00135866753165
 31
0.0
  0
LINE
  5
29C
330
2
100
AcDbEntity
  8
KIJUN
 62
     7
100
AcDbLine
 10
185.2537388590814
 20
85.82962608700045
 30
0.0
 11
196.4498335956956
 21
85.82962608700045
 31
0.0
  0
LINE
  5
29D
330
2
100
AcDbEntity
  8
KIJUN
 62
     7
100
AcDbLine
 10
185.2537388590814
 20
87.91316400636361
 30
0.0
 11
196.4498335956956
 21
87.91316400636361
 31
0.0
  0
ARC
  5
29E
330
2
100
AcDbEntity
  8
KIJUN
 62
     7
100
AcDbCircle
 10
185.3154520845394
 20
85.00135866753161
 30
0.0
 40
0.9999999999999998
100
AcDbArc
 50
262.7969840481059
 51
270.0
  0
LINE
  5
29F
330
2
100
AcDbEntity
  8
KIJUN
 62
     7
100
AcDbLine
 10
163.7698028891347
 20
88.0911764929054
 30
0.0
 11
167.8300583555594
 21
88.0911764929054
 31
0.0
  0
LINE
  5
2A0
330
2
100
AcDbEntity
  8
KIJUN
 62
     7
100
AcDbLine
 10
171.7686406953682
 20
88.0911764929054
 30
0.0
 11
177.1489408557237
 21
88.09117649290493
 31
0.0
  0
LINE
  5
2A1
330
2
100
AcDbEntity
  8
KIJUN
 62
     7
100
AcDbLine
 10
215.7507263356681
 20
88.09117649290516
 30
0.0
 11
222.8323827430925
 21
88.0911764929054
 31
0.0
  0
LINE
  5
2A2
330
2
100
AcDbEntity
  8
KIJUN
 62
     7
100
AcDbLine
 10
234.7698028891347
 20
88.0911764929054
 30
0.0
 11
238.8300583555595
 21
88.0911764929054
 31
0.0
  0
LINE
  5
2A3
330
2
100
AcDbEntity
  8
KIJUN
 62
     7
100
AcDbLine
 10
226.7709650829012
 20
88.0911764929054
 30
0.0
 11
230.831220549326
 21
88.0911764929054
 31
0.0
  0
ARC
  5
2A4
330
2
100
AcDbEntity
  8
KIJUN
 62
     7
100
AcDbCircle
 10
230.4073364944521
 20
89.08976565991343
 30
0.0
 40
4.475298131879016
100
AcDbArc
 50
302.3271032911907
 51
57.6728967088093
  0
ARC
  5
2A5
330
2
100
AcDbEntity
  8
KIJUN
 62
     7
100
AcDbCircle
 10
235.1936869440085
 20
89.08976565991343
 30
0.0
 40
4.475298131879016
100
AcDbArc
 50
122.3271032911907
 51
237.6728967088094
  0
ARC
  5
2A6
330
2
100
AcDbEntity
  8
KIJUN
 62
     7
100
AcDbCircle
 10
222.4084986882187
 20
89.08976565991343
 30
0.0
 40
4.475298131879016
100
AcDbArc
 50
302.3271032911907
 51
57.6728967088093
  0
ARC
  5
2A7
330
2
100
AcDbEntity
  8
KIJUN
 62
     7
100
AcDbCircle
 10
227.194849137775
 20
89.08976565991343
 30
0.0
 40
4.475298131879016
100
AcDbArc
 50
122.3271032911907
 51
237.6728967088094
  0
ARC
  5
2A8
330
2
100
AcDbEntity
  8
KIJUN
 62
     7
100
AcDbCircle
 10
238.4061743006856
 20
89.08976565991343
 30
0.0
 40
4.475298131879016
100
AcDbArc
 50
302.3271032911907
 51
57.6728967088093
  0
ARC
  5
2A9
330
2
100
AcDbEntity
  8
KIJUN
 62
     7
100
AcDbCircle
 10
243.192524750242
 20
89.08976565991343
 30
0.0
 40
4.475298131879016
100
AcDbArc
 50
122.3271032911907
 51
237.6728967088094
  0
ARC
  5
2AA
330
2
100
AcDbEntity
  8
KIJUN
 62
     7
100
AcDbCircle
 10
206.0333439059142
 20
97.27257357655531
 30
0.0
 40
13.36882843385103
100
AcDbArc
 50
277.2030159518924
 51
318.1293289205404
  0
ARC
  5
2AB
330
2
100
AcDbEntity
  8
KIJUN
 62
     7
100
AcDbCircle
 10
206.5356666824992
 20
102.2938488481852
 30
0.0
 40
16.50161543791888
100
AcDbArc
 50
273.8578889318345
 51
305.6774976231289
  0
ARC
  5
2AC
330
2
100
AcDbEntity
  8
KIJUN
 62
     7
100
AcDbCircle
 10
206.098617967478
 20
118.7696753744628
 30
0.0
 40
30.89528221548988
100
AcDbArc
 50
272.8707119736423
 51
284.9208762636461
  0
ARC
  5
2AD
330
2
100
AcDbEntity
  8
KIJUN
 62
     7
100
AcDbCircle
 10
186.364000508892
 20
102.2938488481852
 30
0.0
 40
16.50161543791888
100
AcDbArc
 50
234.322502376871
 51
266.1421110681655
  0
ARC
  5
2AE
330
2
100
AcDbEntity
  8
KIJUN
 62
     7
100
AcDbCircle
 10
186.8010492239133
 20
118.7696753744628
 30
0.0
 40
30.89528221548988
100
AcDbArc
 50
255.0791237363539
 51
267.1292880263576
  0
ARC
  5
2AF
330
2
100
AcDbEntity
  8
KIJUN
 62
     7
100
AcDbCircle
 10
186.866323285477
 20
97.27257357655531
 30
0.0
 40
13.36882843385103
100
AcDbArc
 50
221.8706710794596
 51
262.796984048108
  0
LINE
  5
2B0
330
2
100
AcDbEntity
  8
KIJUN
 62
     7
100
AcDbLine
 10
155.7709650829012
 20
88.0911764929054
 30
0.0
 11
159.8312205493259
 21
88.0911764929054
 31
0.0
  0
LINE
  5
2B1
330
2
100
AcDbEntity
  8
KIJUN
 62
     7
100
AcDbLine
 10
159.8313584000917
 20
90.08895685489624
 30
0.0
 11
155.7708272321353
 21
90.08895685489624
 31
0.0
  0
ARC
  5
2B2
330
2
100
AcDbEntity
  8
KIJUN
 62
     7
100
AcDbCircle
 10
200.3986094811614
 20
58.24986246295003
 30
0.0
 40
4.414008682989955
100
AcDbArc
 50
143.4149527862895
 51
216.5850472137104
  0
ARC
  5
2B3
330
2
100
AcDbEntity
  8
KIJUN
 62
     7
100
AcDbCircle
 10
206.4871985366727
 20
82.90511161519573
 30
0.0
 40
28.93652586707739
100
AcDbArc
 50
250.5552173107381
 51
251.2766264260686
  0
ARC
  5
2B4
330
2
100
AcDbEntity
  8
KIJUN
 62
     7
100
AcDbCircle
 10
191.1199788806754
 20
82.90511161519573
 30
0.0
 40
28.93652586707739
100
AcDbArc
 50
288.7233735739318
 51
289.7380056766444
  0
ARC
  5
2B5
330
2
100
AcDbEntity
  8
KIJUN
 62
     7
100
AcDbCircle
 10
197.3117598479563
 20
58.24986246295003
 30
0.0
 40
4.414008682989955
100
AcDbArc
 50
324.2135533823009
 51
35.78644661769905
  0
ARC
  5
2B6
330
2
100
AcDbEntity
  8
KIJUN
 62
     7
100
AcDbCircle
 10
191.1199788806754
 20
33.59461331070434
 30
0.0
 40
28.93652586707739
100
AcDbArc
 50
70.26199432335559
 51
71.27662642606863
  0
ARC
  5
2B7
330
2
100
AcDbEntity
  8
KIJUN
 62
     7
100
AcDbCircle
 10
206.4871985366727
 20
33.59461331070434
 30
0.0
 40
28.93652586707739
100
AcDbArc
 50
108.7233735739314
 51
109.4447826892623
  0
ARC
  5
2B8
330
2
100
AcDbEntity
  8
KIJUN
 62
     7
100
AcDbCircle
 10
198.8035887086742
 20
60.23532091046383
 30
0.0
 40
4.999999999999999
100
AcDbArc
 50
251.2766264260686
 51
288.7233735739314
  0
ARC
  5
2B9
330
2
100
AcDbEntity
  8
KIJUN
 62
     7
100
AcDbCircle
 10
198.8035887086742
 20
56.26440401543624
 30
0.0
 40
4.999999999999999
100
AcDbArc
 50
71.27662642606863
 51
108.7233735739314
  0
LINE
  5
2BA
330
2
100
AcDbEntity
  8
KIJUN
 62
     7
100
AcDbLine
 10
190.3879068822208
 20
45.62198214942355
 30
0.0
 11
188.2744214236647
 21
47.12404480947887
 31
0.0
  0
ARC
  5
2BB
330
2
100
AcDbEntity
  8
KIJUN
 62
     7
100
AcDbCircle
 10
198.8035887086742
 20
55.25024792183997
 30
0.0
 40
4.999999999999999
100
AcDbArc
 50
251.2766264260686
 51
288.7233735739314
  0
ARC
  5
2BC
330
2
100
AcDbEntity
  8
KIJUN
 62
     7
100
AcDbCircle
 10
191.1199788806754
 20
77.92003862657185
 30
0.0
 40
28.93652586707739
100
AcDbArc
 50
288.7233735739318
 51
295.9444385314851
  0
ARC
  5
2BD
330
2
100
AcDbEntity
  8
KIJUN
 62
     7
100
AcDbCircle
 10
175.4261015362573
 20
54.2855953397962
 30
0.0
 40
17.2891241167071
100
AcDbArc
 50
329.927071124202
 51
352.0681246283257
  0
ARC
  5
2BE
330
2
100
AcDbEntity
  8
KIJUN
 62
     7
100
AcDbCircle
 10
209.4867028400906
 20
100.2571556459536
 30
0.0
 40
51.2376283055783
100
AcDbArc
 50
250.6974984575919
 51
256.1237341441485
  0
ARC
  5
2BF
330
2
100
AcDbEntity
  8
KIJUN
 62
     7
100
AcDbCircle
 10
220.8762781492726
 20
54.2855953397962
 30
0.0
 40
17.2891241167071
100
AcDbArc
 50
187.9318753716742
 51
210.072928875798
  0
LINE
  5
2C0
330
2
100
AcDbEntity
  8
KIJUN
 62
     7
100
AcDbLine
 10
205.914472803309
 20
45.62198214942355
 30
0.0
 11
207.3741367044978
 21
46.6593711853075
 31
0.0
  0
LINE
  5
2C1
330
2
100
AcDbEntity
  8
KIJUN
 62
     7
100
AcDbLine
 10
205.914472803309
 20
70.87774277647652
 30
0.0
 11
208.0279582618651
 21
69.37568011642118
 31
0.0
  0
ARC
  5
2C2
330
2
100
AcDbEntity
  8
KIJUN
 62
     7
100
AcDbCircle
 10
237.3921393454986
 20
5.302239362178903
 30
0.0
 40
70.48163548613088
100
AcDbArc
 50
93.73526134873616
 51
114.6214862921722
  0
ARC
  5
2C3
330
2
100
AcDbEntity
  8
KIJUN
 62
     7
100
AcDbCircle
 10
197.999418569336
 20
75.79142507156126
 30
0.0
 40
2.561513584441384
100
AcDbArc
 50
332.4804056688481
 51
86.60319995064126
  0
ARC
  5
2C4
330
2
100
AcDbEntity
  8
KIJUN
 62
     7
100
AcDbCircle
 10
210.0531907511315
 20
67.37968636080501
 30
0.0
 40
12.16289008678964
100
AcDbArc
 50
143.5385369542497
 51
159.0033704446494
  0
ARC
  5
2C5
330
2
100
AcDbEntity
  8
KIJUN
 62
     7
100
AcDbCircle
 10
198.3029611162011
 20
75.79142507156149
 30
0.0
 40
2.561513584441384
100
AcDbArc
 50
93.39680004946519
 51
207.5195943312202
  0
ARC
  5
2C6
330
2
100
AcDbEntity
  8
KIJUN
 62
     7
100
AcDbCircle
 10
186.2491889343984
 20
67.37968636080501
 30
0.0
 40
12.16289008678964
100
AcDbArc
 50
20.99662955535054
 51
36.46146304575033
  0
ARC
  5
2C7
330
2
100
AcDbEntity
  8
KIJUN
 62
     7
100
AcDbCircle
 10
189.9045370322325
 20
73.70905306026251
 30
0.0
 40
0.1
100
AcDbArc
 50
118.3736862190601
 51
278.1631922213863
  0
ARC
  5
2C8
330
2
100
AcDbEntity
  8
KIJUN
 62
     7
100
AcDbCircle
 10
206.3978426532975
 20
73.70905306026251
 30
0.0
 40
0.1
100
AcDbArc
 50
261.8368077786137
 51
61.62631378093987
  0
ARC
  5
2C9
330
2
100
AcDbEntity
  8
KIJUN
 62
     7
100
AcDbCircle
 10
195.9425901554615
 20
74.5616675800764
 30
0.0
 40
0.1
100
AcDbArc
 50
254.2178392451027
 51
27.5195943311888
  0
ARC
  5
2CA
330
2
100
AcDbEntity
  8
KIJUN
 62
     7
100
AcDbCircle
 10
193.7101465025313
 20
66.6629929749591
 30
0.0
 40
8.10809753725139
100
AcDbArc
 50
74.21783924518354
 51
118.3736862190124
  0
ARC
  5
2CB
330
2
100
AcDbEntity
  8
KIJUN
 62
     7
100
AcDbCircle
 10
200.359789530077
 20
74.5616675800789
 30
0.0
 40
0.1
100
AcDbArc
 50
152.480405668869
 51
285.7821607546469
  0
ARC
  5
2CC
330
2
100
AcDbEntity
  8
KIJUN
 62
     7
100
AcDbCircle
 10
202.5922331829985
 20
66.6629929749591
 30
0.0
 40
8.10809753725139
100
AcDbArc
 50
61.62631378098753
 51
105.7821607547559
  0
ARC
  5
2CD
330
2
100
AcDbEntity
  8
KIJUN
 62
     7
100
AcDbCircle
 10
198.151189842765
 20
70.14020353153076
 30
0.0
 40
0.9999999999999998
100
AcDbArc
 50
205.7626061527518
 51
334.2373938472482
  0
ARC
  5
2CE
330
2
100
AcDbEntity
  8
KIJUN
 62
     7
100
AcDbCircle
 10
190.9172748123939
 20
66.64901503043465
 30
0.0
 40
7.032305012685529
100
AcDbArc
 50
25.76260615274264
 51
98.16319222127237
  0
ARC
  5
2CF
330
2
100
AcDbEntity
  8
KIJUN
 62
     7
100
AcDbCircle
 10
205.385104873136
 20
66.64901503043465
 30
0.0
 40
7.032305012685529
100
AcDbArc
 50
81.83680777872762
 51
154.2373938472574
  0
ARC
  5
2D0
330
2
100
AcDbEntity
  8
KIJUN
 62
     7
100
AcDbCircle
 10
198.8035887086742
 20
61.24947700406011
 30
0.0
 40
4.999999999999999
100
AcDbArc
 50
71.27662642606863
 51
108.7233735739314
  0
LINE
  5
2D1
330
2
100
AcDbEntity
  8
KIJUN
 62
     7
100
AcDbLine
 10
190.3879068822208
 20
70.87774277647652
 30
0.0
 11
188.2744214236647
 21
69.37568011642118
 31
0.0
  0
ARC
  5
2D2
330
2
100
AcDbEntity
  8
KIJUN
 62
     7
100
AcDbCircle
 10
191.1199788806754
 20
38.57968629932822
 30
0.0
 40
28.93652586707739
100
AcDbArc
 50
64.05556146851527
 51
71.27662642606863
  0
ARC
  5
2D3
330
2
100
AcDbEntity
  8
KIJUN
 62
     7
100
AcDbCircle
 10
175.4261015362573
 20
62.21412958610389
 30
0.0
 40
17.28912411670711
100
AcDbArc
 50
7.931875371674465
 51
30.07292887579827
  0
ARC
  5
2D4
330
2
100
AcDbEntity
  8
KIJUN
 62
     7
100
AcDbCircle
 10
209.4867028400906
 20
16.24256927994684
 30
0.0
 40
51.23762830557812
100
AcDbArc
 50
103.8762658558514
 51
109.3025015424082
  0
ARC
  5
2D5
330
2
100
AcDbEntity
  8
KIJUN
 62
     7
100
AcDbCircle
 10
220.8762781492726
 20
62.21412958610389
 30
0.0
 40
17.28912411670711
100
AcDbArc
 50
149.927071124202
 51
172.0681246283255
  0
ARC
  5
2D6
330
2
100
AcDbEntity
  8
KIJUN
 62
     7
100
AcDbCircle
 10
165.8760287621646
 20
29.51954307844159
 30
0.0
 40
45.71870135304531
100
AcDbArc
 50
60.66483962810735
 51
95.11432511960318
  0
LINE
  5
2D7
330
2
100
AcDbEntity
  8
KIJUN
 62
     7
100
AcDbLine
 10
155.7709650829012
 20
88.0911764929054
 30
0.0
 11
159.8312205493259
 21
88.0911764929054
 31
0.0
  0
LINE
  5
2D8
330
2
100
AcDbEntity
  8
KIJUN
 62
     7
100
AcDbLine
 10
163.7698028891347
 20
88.0911764929054
 30
0.0
 11
167.8300583555594
 21
88.0911764929054
 31
0.0
  0
LINE
  5
2D9
330
2
100
AcDbEntity
  8
KIJUN
 62
     7
100
AcDbLine
 10
159.8313584000917
 20
90.08895685489624
 30
0.0
 11
155.7708272321353
 21
90.08895685489624
 31
0.0
  0
LINE
  5
2DA
330
2
100
AcDbEntity
  8
KIJUN
 62
     7
100
AcDbLine
 10
171.7686406953682
 20
88.0911764929054
 30
0.0
 11
174.3926388609512
 21
88.09117649290516
 31
0.0
  0
LINE
  5
2DB
330
2
100
AcDbEntity
  8
KIJUN
 62
     7
100
AcDbLine
 10
167.8301962063257
 20
90.08895685489649
 30
0.0
 11
163.7696650383689
 21
90.08895685489649
 31
0.0
  0
LINE
  5
2DC
330
2
100
AcDbEntity
  8
KIJUN
 62
     7
100
AcDbLine
 10
174.3926388609512
 20
90.08895685489649
 30
0.0
 11
171.7685028446019
 21
90.08895685489649
 31
0.0
  0
ARC
  5
2DD
330
2
100
AcDbEntity
  8
KIJUN
 62
     7
100
AcDbCircle
 10
172.192524750242
 20
89.08976565991343
 30
0.0
 40
4.475298131879016
100
AcDbArc
 50
122.3271032911907
 51
237.6728967088094
  0
ARC
  5
2DE
330
2
100
AcDbEntity
  8
KIJUN
 62
     7
100
AcDbCircle
 10
167.4061743006856
 20
89.08976565991343
 30
0.0
 40
4.475298131879016
100
AcDbArc
 50
302.3271032911907
 51
57.6728967088093
  0
ARC
  5
2DF
330
2
100
AcDbEntity
  8
KIJUN
 62
     7
100
AcDbCircle
 10
151.4084986882187
 20
89.08976565991343
 30
0.0
 40
4.475298131879016
100
AcDbArc
 50
302.3271032911907
 51
57.6728967088093
  0
ARC
  5
2E0
330
2
100
AcDbEntity
  8
KIJUN
 62
     7
100
AcDbCircle
 10
164.1936869440085
 20
89.08976565991343
 30
0.0
 40
4.475298131879016
100
AcDbArc
 50
122.3271032911907
 51
237.6728967088094
  0
ARC
  5
2E1
330
2
100
AcDbEntity
  8
KIJUN
 62
     7
100
AcDbCircle
 10
159.4073364944521
 20
89.08976565991343
 30
0.0
 40
4.475298131879016
100
AcDbArc
 50
302.3271032911907
 51
57.6728967088093
  0
ARC
  5
2E2
330
2
100
AcDbEntity
  8
KIJUN
 62
     7
100
AcDbCircle
 10
86.50124465916968
 20
111.1877137568224
 30
0.0
 40
70.34022899841263
100
AcDbArc
 50
272.0945025617256
 51
294.3882224357969
  0
DIMENSION
  5
2E3
330
2
100
AcDbEntity
  8
SUNPOU
100
AcDbDimension
  2
*D3
 10
9.390750558007406
 20
23.53654353737607
 30
0.0
 11
4.390750558007404
 21
59.53654353737604
 31
0.0
 71
     5
 42
71.99999999999993
  3
STANDARD$0
100
AcDbAlignedDimension
 13
24.37872456088252
 23
95.536543537376
 33
0.0
 14
24.37872456088252
 24
23.53654353737607
 34
0.0
 50
90.0
100
AcDbRotatedDimension
1001
ACAD
1000
DSTYLE
1002
{
1070
    41
1040
2.0
1070
    44
1040
0.0
1070
    77
1070
     1
1070
    78
1070
     0
1070
   140
1040
3.0
1070
   141
1040
1.0
1070
   146
1040
0.0642857142857143
1070
   172
1070
     0
1070
   173
1070
     0
1070
   176
1070
    60
1070
   177
1070
    70
1070
   178
1070
    60
1070
   271
1070
     0
1070
   272
1070
     0
1070
   341
1005
0
1070
   342
1005
37
1070
   343
1005
0
1070
   344
1005
0
1002
}
  0
ARC
  5
2F9
330
2
100
AcDbEntity
  8
KIJUN
 62
     7
100
AcDbCircle
 10
91.6428093597676
 20
111.1877137568224
 30
0.0
 40
70.34022899841263
100
AcDbArc
 50
266.98685063397
 51
267.9054974382744
  0
ARC
  5
2FA
330
2
100
AcDbEntity
  8
KIJUN
 62
     7
100
AcDbCircle
 10
120.2114831074498
 20
27.95324659938097
 30
0.0
 40
0.5
100
AcDbArc
 50
18.61416022371324
 51
161.5875219085604
  0
ARC
  5
2FB
330
2
100
AcDbEntity
  8
KIJUN
 62
     7
100
AcDbCircle
 10
91.63146724623061
 20
29.03197326173251
 30
0.0
 40
4.583686550956493
100
AcDbArc
 50
316.3508454060718
 51
28.52958762984842
  0
ARC
  5
2FC
330
2
100
AcDbEntity
  8
KIJUN
 62
     7
100
AcDbCircle
 10
97.17102981033283
 20
29.03197326173251
 30
0.0
 40
4.630223362121511
100
AcDbArc
 50
152.2283629078379
 51
222.9887082955493
  0
ARC
  5
2FD
330
2
100
AcDbEntity
  8
KIJUN
 62
     7
100
AcDbCircle
 10
94.36926702398857
 20
26.42031932355513
 30
0.0
 40
0.8
100
AcDbArc
 50
222.9887082955468
 51
316.3508454060735
  0
ARC
  5
2FE
330
2
100
AcDbEntity
  8
KIJUN
 62
     7
100
AcDbCircle
 10
99.32851182438447
 20
13.75811708042402
 30
0.0
 40
18.51937655492952
100
AcDbArc
 50
108.7233735739314
 51
109.7380056766444
  0
ARC
  5
2FF
330
2
100
AcDbEntity
  8
KIJUN
 62
     7
100
AcDbCircle
 10
89.49349124454576
 20
13.75811708042402
 30
0.0
 40
18.51937655492952
100
AcDbArc
 50
70.5552173107381
 51
71.27662642606863
  0
ARC
  5
300
330
2
100
AcDbEntity
  8
KIJUN
 62
     7
100
AcDbCircle
 10
94.41100153446511
 20
28.26678313145254
 30
0.0
 40
3.199999999999998
100
AcDbArc
 50
71.27662642606863
 51
108.7233735739314
  0
ARC
  5
301
330
2
100
AcDbEntity
  8
KIJUN
 62
     7
100
AcDbCircle
 10
96.21622157453129
 20
25.84487689537338
 30
0.0
 40
0.9999999999999998
100
AcDbArc
 50
296.5373492156036
 51
325.1948677071017
  0
ARC
  5
302
330
2
100
AcDbEntity
  8
KIJUN
 62
     7
100
AcDbCircle
 10
92.64278073985066
 20
25.68617358705757
 30
0.0
 40
0.9999999999999998
100
AcDbArc
 50
216.4596838030823
 51
248.5485379340442
  0
ARC
  5
303
330
2
100
AcDbEntity
  8
KIJUN
 62
     7
100
AcDbCircle
 10
94.25122758005665
 20
29.7796197615956
 30
0.0
 40
5.398113552605123
100
AcDbArc
 50
248.548537934039
 51
296.5373492155958
  0
ARC
  5
304
330
2
100
AcDbEntity
  8
KIJUN
 62
     7
100
AcDbCircle
 10
99.4079419243123
 20
28.91537530864076
 30
0.0
 40
0.2999999999999999
100
AcDbArc
 50
12.77035161777764
 51
168.1582884011085
  0
ARC
  5
305
330
2
100
AcDbEntity
  8
KIJUN
 62
     7
100
AcDbCircle
 10
92.18496427367814
 20
30.42982264958487
 30
0.0
 40
7.080037729581983
100
AcDbArc
 50
313.2637115001602
 51
348.1582884011118
  0
ARC
  5
306
330
2
100
AcDbEntity
  8
KIJUN
 62
     7
100
AcDbCircle
 10
96.54831924650874
 20
28.15061637452987
 30
0.0
 40
5.615869448048174
100
AcDbArc
 50
172.2297578944978
 51
213.0009498027627
  0
ARC
  5
307
330
2
100
AcDbEntity
  8
KIJUN
 62
     7
100
AcDbCircle
 10
107.3319709263971
 20
29.03197326173251
 30
0.0
 40
4.630223362121511
100
AcDbArc
 50
152.2283629078379
 51
222.9887082955493
  0
ARC
  5
308
330
2
100
AcDbEntity
  8
KIJUN
 62
     7
100
AcDbCircle
 10
104.530208140053
 20
26.42031932355513
 30
0.0
 40
0.8
100
AcDbArc
 50
222.9887082955468
 51
316.3508454060735
  0
ARC
  5
309
330
2
100
AcDbEntity
  8
KIJUN
 62
     7
100
AcDbCircle
 10
109.4894529404489
 20
13.75811708042402
 30
0.0
 40
18.51937655492952
100
AcDbArc
 50
108.7233735739314
 51
109.7380056766444
  0
ARC
  5
30A
330
2
100
AcDbEntity
  8
KIJUN
 62
     7
100
AcDbCircle
 10
99.65443236061014
 20
13.75811708042402
 30
0.0
 40
18.51937655492952
100
AcDbArc
 50
70.5552173107381
 51
71.27662642606863
  0
ARC
  5
30B
330
2
100
AcDbEntity
  8
KIJUN
 62
     7
100
AcDbCircle
 10
112.5775020220883
 20
29.03197326173251
 30
0.0
 40
4.583686550956493
100
AcDbArc
 50
316.3508454060718
 51
28.52958762984842
  0
ARC
  5
30C
330
2
100
AcDbEntity
  8
KIJUN
 62
     7
100
AcDbCircle
 10
118.1170645861905
 20
29.03197326173251
 30
0.0
 40
4.630223362121511
100
AcDbArc
 50
152.2283629078379
 51
222.9887082955493
  0
ARC
  5
30D
330
2
100
AcDbEntity
  8
KIJUN
 62
     7
100
AcDbCircle
 10
115.3153017998462
 20
26.42031932355513
 30
0.0
 40
0.8
100
AcDbArc
 50
222.9887082955468
 51
316.3508454060735
  0
ARC
  5
30E
330
2
100
AcDbEntity
  8
KIJUN
 62
     7
100
AcDbCircle
 10
120.2745466002422
 20
13.75811708042402
 30
0.0
 40
18.51937655492952
100
AcDbArc
 50
108.7233735739314
 51
109.7380056766444
  0
ARC
  5
30F
330
2
100
AcDbEntity
  8
KIJUN
 62
     7
100
AcDbCircle
 10
110.4395260204034
 20
13.75811708042402
 30
0.0
 40
18.51937655492952
100
AcDbArc
 50
70.5552173107381
 51
71.27662642606863
  0
ARC
  5
310
330
2
100
AcDbEntity
  8
KIJUN
 62
     7
100
AcDbCircle
 10
115.3570363103228
 20
28.26678313145254
 30
0.0
 40
3.199999999999998
100
AcDbArc
 50
71.27662642606863
 51
108.7233735739314
  0
ARC
  5
311
330
2
100
AcDbEntity
  8
KIJUN
 62
     7
100
AcDbCircle
 10
101.792408362295
 20
29.03197326173251
 30
0.0
 40
4.583686550956493
100
AcDbArc
 50
316.3508454060718
 51
28.52958762984842
  0
ARC
  5
312
330
2
100
AcDbEntity
  8
KIJUN
 62
     7
100
AcDbCircle
 10
104.5719426505294
 20
28.26678313145254
 30
0.0
 40
3.199999999999998
100
AcDbArc
 50
71.27662642606863
 51
108.7233735739314
  0
ARC
  5
313
330
2
100
AcDbEntity
  8
KIJUN
 62
     7
100
AcDbCircle
 10
117.2300366771616
 20
25.94466427449589
 30
0.0
 40
0.9999999999999998
100
AcDbArc
 50
299.313418964129
 51
326.4327142865525
  0
ARC
  5
314
330
2
100
AcDbEntity
  8
KIJUN
 62
     7
100
AcDbCircle
 10
113.6350121267948
 20
25.62453714955046
 30
0.0
 40
0.9999999999999998
100
AcDbArc
 50
217.2435538296249
 51
250.8638034659095
  0
ARC
  5
315
330
2
100
AcDbEntity
  8
KIJUN
 62
     7
100
AcDbCircle
 10
115.0767788585127
 20
29.7796197615956
 30
0.0
 40
5.398113552605123
100
AcDbArc
 50
250.8638034659151
 51
299.3134189641379
  0
ARC
  5
316
330
2
100
AcDbEntity
  8
KIJUN
 62
     7
100
AcDbCircle
 10
106.3072394922608
 20
25.74657292581861
 30
0.0
 40
0.9999999999999998
100
AcDbArc
 50
293.5093912082676
 51
323.9569687958868
  0
ARC
  5
317
330
2
100
AcDbEntity
  8
KIJUN
 62
     7
100
AcDbCircle
 10
102.7417592126928
 20
25.77170156588393
 30
0.0
 40
0.9999999999999998
100
AcDbArc
 50
215.384886502983
 51
245.6830086535629
  0
ARC
  5
318
330
2
100
AcDbEntity
  8
KIJUN
 62
     7
100
AcDbCircle
 10
104.5528347379243
 20
29.7796197615956
 30
0.0
 40
5.398113552605123
100
AcDbArc
 50
245.6830086535634
 51
293.5093912082636
  0
ARC
  5
319
330
2
100
AcDbEntity
  8
KIJUN
 62
     7
100
AcDbCircle
 10
113.1029212350815
 20
30.31966996775969
 30
0.0
 40
6.992103272892951
100
AcDbArc
 50
315.1879144261838
 51
341.5875219085639
  0
ARC
  5
31A
330
2
100
AcDbEntity
  8
KIJUN
 62
     7
100
AcDbCircle
 10
109.7058357867447
 20
29.36642099599867
 30
0.0
 40
0.2999999999999999
100
AcDbArc
 50
12.68733975769382
 51
171.4597194168628
  0
ARC
  5
31B
330
2
100
AcDbEntity
  8
KIJUN
 62
     7
100
AcDbCircle
 10
117.4547068928612
 20
31.11090543774896
 30
0.0
 40
7.642809917574137
100
AcDbArc
 50
192.6873397577066
 51
232.8477139241436
  0
ARC
  5
31C
330
2
100
AcDbEntity
  8
KIJUN
 62
     7
100
AcDbCircle
 10
102.3548345023421
 20
30.47031945015401
 30
0.0
 40
7.133425299306913
100
AcDbArc
 50
311.8681378771993
 51
351.4597194168672
  0
ARC
  5
31D
330
2
100
AcDbEntity
  8
KIJUN
 62
     7
100
AcDbCircle
 10
106.7632292895124
 20
30.58245352777618
 30
0.0
 40
7.241843409498067
100
AcDbArc
 50
192.7703516177796
 51
228.0956219600339
  0
ARC
  5
31E
330
2
100
AcDbEntity
  8
KIJUN
 62
     7
100
AcDbCircle
 10
130.7871605556862
 20
28.83931276123787
 30
0.0
 40
0.2999999999999999
100
AcDbArc
 50
13.60630116877428
 51
161.5128410617493
  0
ARC
  5
31F
330
2
100
AcDbEntity
  8
KIJUN
 62
     7
100
AcDbCircle
 10
140.9849212638388
 20
28.91537530864076
 30
0.0
 40
0.2999999999999999
100
AcDbArc
 50
12.77035161777764
 51
168.1582884011085
  0
ARC
  5
320
330
2
100
AcDbEntity
  8
KIJUN
 62
     7
100
AcDbCircle
 10
151.2828151262712
 20
29.36642099599867
 30
0.0
 40
0.2999999999999999
100
AcDbArc
 50
12.68733975769382
 51
171.4597194168628
  0
ARC
  5
321
330
2
100
AcDbEntity
  8
KIJUN
 62
     7
100
AcDbCircle
 10
123.3328718088811
 20
25.81177679342073
 30
0.0
 40
0.9999999999999998
100
AcDbArc
 50
214.8861960524417
 51
244.4446917898527
  0
ARC
  5
322
330
2
100
AcDbEntity
  8
KIJUN
 62
     7
100
AcDbCircle
 10
126.9004804005455
 20
25.71103716193312
 30
0.0
 40
0.9999999999999998
100
AcDbArc
 50
292.3204116574282
 51
323.5046960568321
  0
ARC
  5
323
330
2
100
AcDbEntity
  8
KIJUN
 62
     7
100
AcDbCircle
 10
134.2197600793771
 20
25.68617358705757
 30
0.0
 40
0.9999999999999998
100
AcDbArc
 50
216.4596838030823
 51
248.5485379340442
  0
ARC
  5
324
330
2
100
AcDbEntity
  8
KIJUN
 62
     7
100
AcDbCircle
 10
137.7932009140578
 20
25.84487689537338
 30
0.0
 40
0.9999999999999998
100
AcDbArc
 50
296.5373492156036
 51
325.1948677071017
  0
ARC
  5
325
330
2
100
AcDbEntity
  8
KIJUN
 62
     7
100
AcDbCircle
 10
144.3187385522193
 20
25.77170156588393
 30
0.0
 40
0.9999999999999998
100
AcDbArc
 50
215.384886502983
 51
245.6830086535629
  0
ARC
  5
326
330
2
100
AcDbEntity
  8
KIJUN
 62
     7
100
AcDbCircle
 10
147.8842188317875
 20
25.74657292581861
 30
0.0
 40
0.9999999999999998
100
AcDbArc
 50
293.5093912082676
 51
323.9569687958868
  0
ARC
  5
327
330
2
100
AcDbEntity
  8
KIJUN
 62
     7
100
AcDbCircle
 10
127.4287215372061
 20
30.38410154504806
 30
0.0
 40
7.115614638282919
100
AcDbArc
 50
198.6141602237122
 51
226.2990374065392
  0
ARC
  5
328
330
2
100
AcDbEntity
  8
KIJUN
 62
     7
100
AcDbCircle
 10
123.139482608001
 20
31.39628427410281
 30
0.0
 40
7.763813075035717
100
AcDbArc
 50
306.0132150135907
 51
341.5128410617338
  0
ARC
  5
329
330
2
100
AcDbEntity
  8
KIJUN
 62
     7
100
AcDbCircle
 10
138.17090361988
 20
30.62648779087869
 30
0.0
 40
7.296950455584057
100
AcDbArc
 50
193.6063011687619
 51
229.3301424383904
  0
ARC
  5
32A
330
2
100
AcDbEntity
  8
KIJUN
 62
     7
100
AcDbCircle
 10
133.7619436132046
 20
30.42982264958487
 30
0.0
 40
7.080037729581983
100
AcDbArc
 50
313.2637115001602
 51
348.1582884011118
  0
ARC
  5
32B
330
2
100
AcDbEntity
  8
KIJUN
 62
     7
100
AcDbCircle
 10
148.340208629039
 20
30.58245352777618
 30
0.0
 40
7.241843409498067
100
AcDbArc
 50
192.7703516177796
 51
228.0956219600339
  0
ARC
  5
32C
330
2
100
AcDbEntity
  8
KIJUN
 62
     7
100
AcDbCircle
 10
143.9318138418687
 20
30.47031945015401
 30
0.0
 40
7.133425299306913
100
AcDbArc
 50
311.8681378771993
 51
351.4597194168672
  0
ARC
  5
32D
330
2
100
AcDbEntity
  8
KIJUN
 62
     7
100
AcDbCircle
 10
125.2301395816304
 20
29.7796197615956
 30
0.0
 40
5.398113552605123
100
AcDbArc
 50
244.4446917898608
 51
292.3204116574353
  0
ARC
  5
32E
330
2
100
AcDbEntity
  8
KIJUN
 62
     7
100
AcDbCircle
 10
135.8282069195831
 20
29.7796197615956
 30
0.0
 40
5.398113552605123
100
AcDbArc
 50
248.548537934039
 51
296.5373492155958
  0
ARC
  5
32F
330
2
100
AcDbEntity
  8
KIJUN
 62
     7
100
AcDbCircle
 10
146.1298140774508
 20
29.7796197615956
 30
0.0
 40
5.398113552605123
100
AcDbArc
 50
245.6830086535634
 51
293.5093912082636
  0
ARC
  5
330
330
2
100
AcDbEntity
  8
KIJUN
 62
     7
100
AcDbCircle
 10
143.3693877018214
 20
29.03197326173251
 30
0.0
 40
4.583686550956493
100
AcDbArc
 50
316.3508454060718
 51
28.52958762984842
  0
ARC
  5
331
330
2
100
AcDbEntity
  8
KIJUN
 62
     7
100
AcDbCircle
 10
148.9089502659238
 20
29.03197326173251
 30
0.0
 40
4.630223362121511
100
AcDbArc
 50
152.2283629078379
 51
222.9887082955493
  0
ARC
  5
332
330
2
100
AcDbEntity
  8
KIJUN
 62
     7
100
AcDbCircle
 10
146.1071874795796
 20
26.42031932355513
 30
0.0
 40
0.8
100
AcDbArc
 50
222.9887082955468
 51
316.3508454060735
  0
ARC
  5
333
330
2
100
AcDbEntity
  8
KIJUN
 62
     7
100
AcDbCircle
 10
151.0664322799754
 20
13.75811708042402
 30
0.0
 40
18.51937655492952
100
AcDbArc
 50
108.7233735739314
 51
109.7380056766444
  0
ARC
  5
334
330
2
100
AcDbEntity
  8
KIJUN
 62
     7
100
AcDbCircle
 10
141.2314117001366
 20
13.75811708042402
 30
0.0
 40
18.51937655492952
100
AcDbArc
 50
70.5552173107381
 51
71.27662642606863
  0
ARC
  5
335
330
2
100
AcDbEntity
  8
KIJUN
 62
     7
100
AcDbCircle
 10
146.148921990056
 20
28.26678313145254
 30
0.0
 40
3.199999999999998
100
AcDbArc
 50
71.27662642606863
 51
108.7233735739314
  0
ARC
  5
336
330
2
100
AcDbEntity
  8
KIJUN
 62
     7
100
AcDbCircle
 10
133.2084465857572
 20
29.03197326173251
 30
0.0
 40
4.583686550956493
100
AcDbArc
 50
316.3508454060718
 51
28.52958762984842
  0
ARC
  5
337
330
2
100
AcDbEntity
  8
KIJUN
 62
     7
100
AcDbCircle
 10
138.7480091498593
 20
29.03197326173251
 30
0.0
 40
4.630223362121511
100
AcDbArc
 50
152.2283629078379
 51
222.9887082955493
  0
ARC
  5
338
330
2
100
AcDbEntity
  8
KIJUN
 62
     7
100
AcDbCircle
 10
135.9462463635151
 20
26.42031932355513
 30
0.0
 40
0.8
100
AcDbArc
 50
222.9887082955468
 51
316.3508454060735
  0
ARC
  5
339
330
2
100
AcDbEntity
  8
KIJUN
 62
     7
100
AcDbCircle
 10
140.905491163911
 20
13.75811708042402
 30
0.0
 40
18.51937655492952
100
AcDbArc
 50
108.7233735739314
 51
109.7380056766444
  0
ARC
  5
33A
330
2
100
AcDbEntity
  8
KIJUN
 62
     7
100
AcDbCircle
 10
131.0704705840722
 20
13.75811708042402
 30
0.0
 40
18.51937655492952
100
AcDbArc
 50
70.5552173107381
 51
71.27662642606863
  0
ARC
  5
33B
330
2
100
AcDbEntity
  8
KIJUN
 62
     7
100
AcDbCircle
 10
135.9879808739917
 20
28.26678313145254
 30
0.0
 40
3.199999999999998
100
AcDbArc
 50
71.27662642606863
 51
108.7233735739314
  0
ARC
  5
33C
330
2
100
AcDbEntity
  8
KIJUN
 62
     7
100
AcDbCircle
 10
125.1495232322901
 20
26.42031932355513
 30
0.0
 40
0.8
100
AcDbArc
 50
222.9887082955468
 51
316.3508454060735
  0
ARC
  5
33D
330
2
100
AcDbEntity
  8
KIJUN
 62
     7
100
AcDbCircle
 10
122.4117234545322
 20
29.03197326173251
 30
0.0
 40
4.583686550956493
100
AcDbArc
 50
316.3508454060718
 51
28.52958762984842
  0
ARC
  5
33E
330
2
100
AcDbEntity
  8
KIJUN
 62
     7
100
AcDbCircle
 10
127.9512860186345
 20
29.03197326173251
 30
0.0
 40
4.630223362121511
100
AcDbArc
 50
152.2283629078379
 51
222.9887082955493
  0
ARC
  5
33F
330
2
100
AcDbEntity
  8
KIJUN
 62
     7
100
AcDbCircle
 10
130.108768032686
 20
13.75811708042402
 30
0.0
 40
18.51937655492952
100
AcDbArc
 50
108.7233735739314
 51
109.7380056766444
  0
ARC
  5
340
330
2
100
AcDbEntity
  8
KIJUN
 62
     7
100
AcDbCircle
 10
120.2737474528474
 20
13.75811708042402
 30
0.0
 40
18.51937655492952
100
AcDbArc
 50
70.5552173107381
 51
71.27662642606863
  0
ARC
  5
341
330
2
100
AcDbEntity
  8
KIJUN
 62
     7
100
AcDbCircle
 10
125.1912577427667
 20
28.26678313145254
 30
0.0
 40
3.199999999999998
100
AcDbArc
 50
71.27662642606863
 51
108.7233735739314
  0
ARC
  5
342
330
2
100
AcDbEntity
  8
KIJUN
 62
     7
100
AcDbCircle
 10
125.6016048691247
 20
37.66943410554727
 30
0.0
 40
2.561513584441384
100
AcDbArc
 50
152.4804056688481
 51
266.6031999506413
  0
ARC
  5
343
330
2
100
AcDbEntity
  8
KIJUN
 62
     7
100
AcDbCircle
 10
113.5478326873292
 20
46.08117281630352
 30
0.0
 40
12.16289008678964
100
AcDbArc
 50
323.5385369542497
 51
339.0033704446495
  0
ARC
  5
344
330
2
100
AcDbEntity
  8
KIJUN
 62
     7
100
AcDbCircle
 10
125.2980623222594
 20
37.66943410554706
 30
0.0
 40
2.561513584441384
100
AcDbArc
 50
273.3968000494652
 51
27.51959433122017
  0
ARC
  5
345
330
2
100
AcDbEntity
  8
KIJUN
 62
     7
100
AcDbCircle
 10
137.3518345040622
 20
46.08117281630352
 30
0.0
 40
12.16289008678964
100
AcDbArc
 50
200.9966295553503
 51
216.4614630457503
  0
ARC
  5
346
330
2
100
AcDbEntity
  8
KIJUN
 62
     7
100
AcDbCircle
 10
133.6964864062281
 20
39.75180611684601
 30
0.0
 40
0.1
100
AcDbArc
 50
298.3736862190601
 51
98.16319222138631
  0
ARC
  5
347
330
2
100
AcDbEntity
  8
KIJUN
 62
     7
100
AcDbCircle
 10
117.2031807851632
 20
39.75180611684601
 30
0.0
 40
0.1
100
AcDbArc
 50
81.8368077786137
 51
241.6263137809399
  0
ARC
  5
348
330
2
100
AcDbEntity
  8
KIJUN
 62
     7
100
AcDbCircle
 10
127.658433282999
 20
38.89919159703215
 30
0.0
 40
0.1
100
AcDbArc
 50
74.21783924510275
 51
207.5195943311888
  0
ARC
  5
349
330
2
100
AcDbEntity
  8
KIJUN
 62
     7
100
AcDbCircle
 10
129.8908769359292
 20
46.79786620214946
 30
0.0
 40
8.10809753725139
100
AcDbArc
 50
254.2178392451836
 51
298.3736862190125
  0
ARC
  5
34A
330
2
100
AcDbEntity
  8
KIJUN
 62
     7
100
AcDbCircle
 10
123.2412339083836
 20
38.89919159702964
 30
0.0
 40
0.1
100
AcDbArc
 50
332.4804056688691
 51
105.7821607546468
  0
ARC
  5
34B
330
2
100
AcDbEntity
  8
KIJUN
 62
     7
100
AcDbCircle
 10
121.008790255462
 20
46.79786620214946
 30
0.0
 40
8.10809753725139
100
AcDbArc
 50
241.6263137809875
 51
285.7821607547564
  0
ARC
  5
34C
330
2
100
AcDbEntity
  8
KIJUN
 62
     7
100
AcDbCircle
 10
125.4498335956956
 20
43.32065564557781
 30
0.0
 40
0.9999999999999998
100
AcDbArc
 50
25.76260615275184
 51
154.237393847248
  0
ARC
  5
34D
330
2
100
AcDbEntity
  8
KIJUN
 62
     7
100
AcDbCircle
 10
132.6837486260667
 20
46.81184414667387
 30
0.0
 40
7.032305012685529
100
AcDbArc
 50
205.7626061527429
 51
278.1631922212724
  0
ARC
  5
34E
330
2
100
AcDbEntity
  8
KIJUN
 62
     7
100
AcDbCircle
 10
118.2159185653247
 20
46.81184414667387
 30
0.0
 40
7.032305012685529
100
AcDbArc
 50
261.8368077787276
 51
334.2373938472575
  0
ARC
  5
34F
330
2
100
AcDbEntity
  8
KIJUN
 62
     7
100
AcDbCircle
 10
102.6976168264958
 20
54.2855953397962
 30
0.0
 40
17.2891241167071
100
AcDbArc
 50
329.927071124202
 51
352.0681246283257
  0
LINE
  5
350
330
2
100
AcDbEntity
  8
KIJUN
 62
     7
100
AcDbLine
 10
117.6594221724592
 20
45.62198214942355
 30
0.0
 11
115.5459367139031
 21
47.12404480947887
 31
0.0
  0
ARC
  5
351
330
2
100
AcDbEntity
  8
KIJUN
 62
     7
100
AcDbCircle
 10
102.6976168264958
 20
62.21412958610389
 30
0.0
 40
17.28912411670711
100
AcDbArc
 50
7.931875371674465
 51
30.07292887579827
  0
LINE
  5
352
330
2
100
AcDbEntity
  8
KIJUN
 62
     7
100
AcDbLine
 10
117.6594221724592
 20
70.87774277647652
 30
0.0
 11
115.5459367139031
 21
69.37568011642118
 31
0.0
  0
ARC
  5
353
330
2
100
AcDbEntity
  8
KIJUN
 62
     7
100
AcDbCircle
 10
93.14754405240291
 20
29.51954307844159
 30
0.0
 40
45.71870135304531
100
AcDbArc
 50
60.66483962810735
 51
95.11432511960318
  0
ARC
  5
354
330
2
100
AcDbEntity
  8
KIJUN
 62
     7
100
AcDbCircle
 10
84.99650996653445
 20
29.51954307844159
 30
0.0
 40
45.71870135304531
100
AcDbArc
 50
84.88567488039683
 51
86.3018560386166
  0
LINE
  5
355
330
2
100
AcDbEntity
  8
KIJUN
 62
     7
100
AcDbLine
 10
88.83122054932551
 20
88.0911764929054
 30
0.0
 11
87.94536536969713
 21
88.09117649290561
 31
0.0
  0
LINE
  5
356
330
2
100
AcDbEntity
  8
KIJUN
 62
     7
100
AcDbLine
 10
88.83122054932551
 20
88.0911764929054
 30
0.0
 11
87.94536536969713
 21
88.09117649290561
 31
0.0
  0
ARC
  5
357
330
2
100
AcDbEntity
  8
KIJUN
 62
     7
100
AcDbCircle
 10
93.19368694400798
 20
89.08976565991343
 30
0.0
 40
4.475298131879016
100
AcDbArc
 50
122.3271032911907
 51
237.6728967088094
  0
LINE
  5
358
330
2
100
AcDbEntity
  8
KIJUN
 62
     7
100
AcDbLine
 10
87.94536536969713
 20
90.08895685489649
 30
0.0
 11
88.8313584000914
 21
90.08895685489649
 31
0.0
  0
LINE
  5
359
330
2
100
AcDbEntity
  8
KIJUN
 62
     7
100
AcDbLine
 10
87.94536536969713
 20
90.08895685489649
 30
0.0
 11
88.8313584000914
 21
90.08895685489649
 31
0.0
  0
ARC
  5
35A
330
2
100
AcDbEntity
  8
KIJUN
 62
     7
100
AcDbCircle
 10
113.5478326873292
 20
67.37968636080501
 30
0.0
 40
12.16289008678964
100
AcDbArc
 50
20.99662955535054
 51
36.46146304575033
  0
ARC
  5
35B
330
2
100
AcDbEntity
  8
KIJUN
 62
     7
100
AcDbCircle
 10
137.3518345040622
 20
67.37968636080501
 30
0.0
 40
12.16289008678964
100
AcDbArc
 50
143.5385369542497
 51
159.0033704446494
  0
ARC
  5
35C
330
2
100
AcDbEntity
  8
KIJUN
 62
     7
100
AcDbCircle
 10
125.4498335956956
 20
70.14020353153076
 30
0.0
 40
0.9999999999999998
100
AcDbArc
 50
205.7626061527518
 51
334.2373938472483
  0
ARC
  5
35D
330
2
100
AcDbEntity
  8
KIJUN
 62
     7
100
AcDbCircle
 10
123.2412339083836
 20
74.5616675800789
 30
0.0
 40
0.1
100
AcDbArc
 50
254.2178392453532
 51
27.51959433113116
  0
ARC
  5
35E
330
2
100
AcDbEntity
  8
KIJUN
 62
     7
100
AcDbCircle
 10
125.6016048691247
 20
75.79142507156126
 30
0.0
 40
2.561513584441384
100
AcDbArc
 50
93.39680004935873
 51
207.5195943311519
  0
ARC
  5
35F
330
2
100
AcDbEntity
  8
KIJUN
 62
     7
100
AcDbCircle
 10
127.658433282999
 20
74.5616675800764
 30
0.0
 40
0.1
100
AcDbArc
 50
152.4804056688112
 51
285.7821607548972
  0
ARC
  5
360
330
2
100
AcDbEntity
  8
KIJUN
 62
     7
100
AcDbCircle
 10
117.2031807851632
 20
73.70905306026251
 30
0.0
 40
0.1
100
AcDbArc
 50
118.3736862190601
 51
278.1631922213863
  0
ARC
  5
361
330
2
100
AcDbEntity
  8
KIJUN
 62
     7
100
AcDbCircle
 10
133.6964864062281
 20
73.70905306026251
 30
0.0
 40
0.1
100
AcDbArc
 50
261.8368077786137
 51
61.62631378093987
  0
ARC
  5
362
330
2
100
AcDbEntity
  8
KIJUN
 62
     7
100
AcDbCircle
 10
125.2980623222594
 20
75.79142507156149
 30
0.0
 40
2.561513584441384
100
AcDbArc
 50
332.4804056687801
 51
86.60319995053482
  0
ARC
  5
363
330
2
100
AcDbEntity
  8
KIJUN
 62
     7
100
AcDbCircle
 10
121.008790255462
 20
66.6629929749591
 30
0.0
 40
8.10809753725139
100
AcDbArc
 50
74.21783924524404
 51
118.3736862190124
  0
ARC
  5
364
330
2
100
AcDbEntity
  8
KIJUN
 62
     7
100
AcDbCircle
 10
129.8908769359292
 20
66.6629929749591
 30
0.0
 40
8.10809753725139
100
AcDbArc
 50
61.62631378098753
 51
105.7821607548165
  0
ARC
  5
365
330
2
100
AcDbEntity
  8
KIJUN
 62
     7
100
AcDbCircle
 10
118.2159185653247
 20
66.64901503043465
 30
0.0
 40
7.032305012685529
100
AcDbArc
 50
25.76260615274264
 51
98.16319222127237
  0
ARC
  5
366
330
2
100
AcDbEntity
  8
KIJUN
 62
     7
100
AcDbCircle
 10
132.6837486260667
 20
66.64901503043465
 30
0.0
 40
7.032305012685529
100
AcDbArc
 50
81.83680777872762
 51
154.2373938472574
  0
ARC
  5
367
330
2
100
AcDbEntity
  8
KIJUN
 62
     7
100
AcDbCircle
 10
148.1749219022032
 20
62.21412958610389
 30
0.0
 40
17.28912411670711
100
AcDbArc
 50
149.927071124202
 51
172.0681246283255
  0
ARC
  5
368
330
2
100
AcDbEntity
  8
KIJUN
 62
     7
100
AcDbCircle
 10
126.2892635905042
 20
58.24986246295003
 30
0.0
 40
4.414008682989955
100
AcDbArc
 50
144.2135533823009
 51
215.7864466176994
  0
ARC
  5
369
330
2
100
AcDbEntity
  8
KIJUN
 62
     7
100
AcDbCircle
 10
123.2024139572992
 20
58.24986246295003
 30
0.0
 40
4.414008682989955
100
AcDbArc
 50
323.4149527862897
 51
36.58504721371045
  0
ARC
  5
36A
330
2
100
AcDbEntity
  8
KIJUN
 62
     7
100
AcDbCircle
 10
124.7974347297865
 20
55.25024792183997
 30
0.0
 40
4.999999999999999
100
AcDbArc
 50
251.2766264260686
 51
288.7233735739314
  0
ARC
  5
36B
330
2
100
AcDbEntity
  8
KIJUN
 62
     7
100
AcDbCircle
 10
132.4810445577852
 20
77.92003862657185
 30
0.0
 40
28.93652586707739
100
AcDbArc
 50
244.0555614685153
 51
251.2766264260686
  0
ARC
  5
36C
330
2
100
AcDbEntity
  8
KIJUN
 62
     7
100
AcDbCircle
 10
114.1143205983701
 20
100.2571556459536
 30
0.0
 40
51.2376283055783
100
AcDbArc
 50
283.8762658558514
 51
289.3025015424082
  0
ARC
  5
36D
330
2
100
AcDbEntity
  8
KIJUN
 62
     7
100
AcDbCircle
 10
124.7974347297865
 20
60.23532091046383
 30
0.0
 40
4.999999999999999
100
AcDbArc
 50
251.2766264260686
 51
288.7233735739314
  0
ARC
  5
36E
330
2
100
AcDbEntity
  8
KIJUN
 62
     7
100
AcDbCircle
 10
117.1138249017878
 20
82.90511161519573
 30
0.0
 40
28.93652586707739
100
AcDbArc
 50
288.7233735739318
 51
289.4447826892623
  0
ARC
  5
36F
330
2
100
AcDbEntity
  8
KIJUN
 62
     7
100
AcDbCircle
 10
132.4810445577852
 20
82.90511161519573
 30
0.0
 40
28.93652586707739
100
AcDbArc
 50
250.2619943233556
 51
251.2766264260686
  0
ARC
  5
370
330
2
100
AcDbEntity
  8
KIJUN
 62
     7
100
AcDbCircle
 10
124.7974347297865
 20
61.24947700406011
 30
0.0
 40
4.999999999999999
100
AcDbArc
 50
71.27662642606863
 51
108.7233735739314
  0
ARC
  5
371
330
2
100
AcDbEntity
  8
KIJUN
 62
     7
100
AcDbCircle
 10
114.1143205983701
 20
16.24256927994684
 30
0.0
 40
51.23762830557812
100
AcDbArc
 50
70.69749845759185
 51
76.12373414414856
  0
ARC
  5
372
330
2
100
AcDbEntity
  8
KIJUN
 62
     7
100
AcDbCircle
 10
132.4810445577852
 20
38.57968629932822
 30
0.0
 40
28.93652586707739
100
AcDbArc
 50
108.7233735739314
 51
115.9444385314847
  0
ARC
  5
373
330
2
100
AcDbEntity
  8
KIJUN
 62
     7
100
AcDbCircle
 10
124.7974347297865
 20
56.26440401543624
 30
0.0
 40
4.999999999999999
100
AcDbArc
 50
71.27662642606863
 51
108.7233735739314
  0
ARC
  5
374
330
2
100
AcDbEntity
  8
KIJUN
 62
     7
100
AcDbCircle
 10
132.4810445577852
 20
33.59461331070434
 30
0.0
 40
28.93652586707739
100
AcDbArc
 50
108.7233735739314
 51
109.7380056766444
  0
ARC
  5
375
330
2
100
AcDbEntity
  8
KIJUN
 62
     7
100
AcDbCircle
 10
117.1138249017878
 20
33.59461331070434
 30
0.0
 40
28.93652586707739
100
AcDbArc
 50
70.5552173107381
 51
71.27662642606863
  0
LINE
  5
376
330
2
100
AcDbEntity
  8
KIJUN
 62
     7
100
AcDbLine
 10
133.2131165562397
 20
45.62198214942355
 30
0.0
 11
135.326602014796
 21
47.12404480947887
 31
0.0
  0
LINE
  5
377
330
2
100
AcDbEntity
  8
KIJUN
 62
     7
100
AcDbLine
 10
133.2131165562397
 20
70.87774277647652
 30
0.0
 11
135.326602014796
 21
69.37568011642118
 31
0.0
  0
ARC
  5
378
330
2
100
AcDbEntity
  8
KIJUN
 62
     7
100
AcDbCircle
 10
148.1749219022032
 20
54.2855953397962
 30
0.0
 40
17.2891241167071
100
AcDbArc
 50
187.9318753716742
 51
210.072928875798
  0
ARC
  5
379
330
2
100
AcDbEntity
  8
KIJUN
 62
     7
100
AcDbCircle
 10
88.40733649445224
 20
89.08976565991343
 30
0.0
 40
4.475298131879016
100
AcDbArc
 50
302.3271032911907
 51
57.6728967088093
  0
ARC
  5
37A
330
2
100
AcDbEntity
  8
KIJUN
 62
     7
100
AcDbCircle
 10
96.40617430068575
 20
89.08976565991343
 30
0.0
 40
4.475298131879016
100
AcDbArc
 50
302.3271032911907
 51
57.6728967088093
  0
ARC
  5
37B
330
2
100
AcDbEntity
  8
KIJUN
 62
     7
100
AcDbCircle
 10
101.192524750242
 20
89.08976565991343
 30
0.0
 40
4.475298131879016
100
AcDbArc
 50
122.3271032911907
 51
237.6728967088094
  0
LINE
  5
37C
330
2
100
AcDbEntity
  8
KIJUN
 62
     7
100
AcDbLine
 10
106.1788017508868
 20
90.08895685489649
 30
0.0
 11
100.7685028446019
 21
90.08895685489649
 31
0.0
  0
LINE
  5
37D
330
2
100
AcDbEntity
  8
KIJUN
 62
     7
100
AcDbLine
 10
100.7686406953682
 20
88.0911764929054
 30
0.0
 11
106.1489408557238
 21
88.09117649290493
 31
0.0
  0
LINE
  5
37E
330
2
100
AcDbEntity
  8
KIJUN
 62
     7
100
AcDbLine
 10
96.83019620632576
 20
90.08895685489649
 30
0.0
 11
92.76966503836893
 21
90.08895685489649
 31
0.0
  0
LINE
  5
37F
330
2
100
AcDbEntity
  8
KIJUN
 62
     7
100
AcDbLine
 10
92.76980288913478
 20
88.0911764929054
 30
0.0
 11
96.8300583555594
 21
88.0911764929054
 31
0.0
  0
LINE
  5
380
330
2
100
AcDbEntity
  8
KIJUN
 62
     7
100
AcDbLine
 10
151.8325205938582
 20
90.08895685489624
 30
0.0
 11
144.7208654405045
 21
90.08895685489649
 31
0.0
  0
LINE
  5
381
330
2
100
AcDbEntity
  8
KIJUN
 62
     7
100
AcDbLine
 10
144.750726335668
 20
88.09117649290516
 30
0.0
 11
151.8323827430925
 21
88.0911764929054
 31
0.0
  0
ARC
  5
382
330
2
100
AcDbEntity
  8
KIJUN
 62
     7
100
AcDbCircle
 10
106.5913887791009
 20
89.08254884013269
 30
0.0
 40
0.9999999999999998
100
AcDbArc
 50
132.8598790256259
 51
227.1401209743745
  0
ARC
  5
383
330
2
100
AcDbEntity
  8
KIJUN
 62
     7
100
AcDbCircle
 10
114.3154520845394
 20
85.00135866753161
 30
0.0
 40
0.9999999999999998
100
AcDbArc
 50
262.7969840481059
 51
270.0
  0
LINE
  5
384
330
2
100
AcDbEntity
  8
KIJUN
 62
     7
100
AcDbLine
 10
114.2537388590815
 20
93.7946417926148
 30
0.0
 11
125.4498335956956
 21
93.7946417926148
 31
0.0
  0
LINE
  5
385
330
2
100
AcDbEntity
  8
KIJUN
 62
     7
100
AcDbLine
 10
114.2537388590815
 20
91.94912985754379
 30
0.0
 11
125.4498335956956
 21
91.94912985754379
 31
0.0
  0
LINE
  5
386
330
2
100
AcDbEntity
  8
KIJUN
 62
     7
100
AcDbLine
 10
114.2537388590815
 20
89.9190563951732
 30
0.0
 11
125.4498335956956
 21
89.9190563951732
 31
0.0
  0
LINE
  5
387
330
2
100
AcDbEntity
  8
KIJUN
 62
     7
100
AcDbLine
 10
114.2537388590815
 20
87.91316400636361
 30
0.0
 11
125.4498335956956
 21
87.91316400636361
 31
0.0
  0
LINE
  5
388
330
2
100
AcDbEntity
  8
KIJUN
 62
     7
100
AcDbLine
 10
114.2537388590815
 20
85.82962608700045
 30
0.0
 11
125.4498335956956
 21
85.82962608700045
 31
0.0
  0
LINE
  5
389
330
2
100
AcDbEntity
  8
KIJUN
 62
     7
100
AcDbLine
 10
114.3154520845394
 20
84.00135866753165
 30
0.0
 11
125.4498335956956
 21
84.00135866753165
 31
0.0
  0
ARC
  5
38A
330
2
100
AcDbEntity
  8
KIJUN
 62
     7
100
AcDbCircle
 10
115.2762492901267
 20
80.91576425587145
 30
0.0
 40
12.91940456011924
100
AcDbArc
 50
94.53944050635136
 51
136.4591898425413
  0
ARC
  5
38B
330
2
100
AcDbEntity
  8
KIJUN
 62
     7
100
AcDbCircle
 10
115.8663232854771
 20
97.27257357655531
 30
0.0
 40
13.36882843385103
100
AcDbArc
 50
221.8706710794596
 51
262.796984048108
  0
ARC
  5
38C
330
2
100
AcDbEntity
  8
KIJUN
 62
     7
100
AcDbCircle
 10
115.8010492239134
 20
59.0625450270739
 30
0.0
 40
30.89528221548973
100
AcDbArc
 50
92.87071197364237
 51
104.9208762636461
  0
ARC
  5
38D
330
2
100
AcDbEntity
  8
KIJUN
 62
     7
100
AcDbCircle
 10
115.8010492239134
 20
118.7696753744628
 30
0.0
 40
30.89528221548988
100
AcDbArc
 50
255.0791237363539
 51
267.1292880263576
  0
ARC
  5
38E
330
2
100
AcDbEntity
  8
KIJUN
 62
     7
100
AcDbCircle
 10
115.3640005088921
 20
75.48490709635898
 30
0.0
 40
16.50161543791881
100
AcDbArc
 50
93.85788893183447
 51
125.6774976231289
  0
ARC
  5
38F
330
2
100
AcDbEntity
  8
KIJUN
 62
     7
100
AcDbCircle
 10
115.3640005088921
 20
102.2938488481852
 30
0.0
 40
16.50161543791888
100
AcDbArc
 50
234.322502376871
 51
266.1421110681655
  0
ARC
  5
390
330
2
100
AcDbEntity
  8
KIJUN
 62
     7
100
AcDbCircle
 10
135.0986179674779
 20
118.7696753744628
 30
0.0
 40
30.89528221548988
100
AcDbArc
 50
272.8707119736423
 51
284.9208762636461
  0
LINE
  5
391
330
2
100
AcDbEntity
  8
KIJUN
 62
     7
100
AcDbLine
 10
136.6459283323099
 20
87.91316400636361
 30
0.0
 11
125.4498335956956
 21
87.91316400636361
 31
0.0
  0
LINE
  5
392
330
2
100
AcDbEntity
  8
KIJUN
 62
     7
100
AcDbLine
 10
136.6459283323099
 20
89.9190563951732
 30
0.0
 11
125.4498335956956
 21
89.9190563951732
 31
0.0
  0
ARC
  5
393
330
2
100
AcDbEntity
  8
KIJUN
 62
     7
100
AcDbCircle
 10
135.0986179674779
 20
59.0625450270739
 30
0.0
 40
30.89528221548973
100
AcDbArc
 50
75.07912373635389
 51
87.12928802635763
  0
LINE
  5
394
330
2
100
AcDbEntity
  8
KIJUN
 62
     7
100
AcDbLine
 10
136.6459283323099
 20
85.82962608700045
 30
0.0
 11
125.4498335956956
 21
85.82962608700045
 31
0.0
  0
ARC
  5
395
330
2
100
AcDbEntity
  8
KIJUN
 62
     7
100
AcDbCircle
 10
135.5356666824992
 20
102.2938488481852
 30
0.0
 40
16.50161543791888
100
AcDbArc
 50
273.8578889318345
 51
305.6774976231289
  0
LINE
  5
396
330
2
100
AcDbEntity
  8
KIJUN
 62
     7
100
AcDbLine
 10
136.6459283323099
 20
91.94912985754379
 30
0.0
 11
125.4498335956956
 21
91.94912985754379
 31
0.0
  0
ARC
  5
397
330
2
100
AcDbEntity
  8
KIJUN
 62
     7
100
AcDbCircle
 10
135.5356666824992
 20
75.48490709635898
 30
0.0
 40
16.50161543791881
100
AcDbArc
 50
54.32250237687103
 51
86.14211106816552
  0
ARC
  5
398
330
2
100
AcDbEntity
  8
KIJUN
 62
     7
100
AcDbCircle
 10
136.5842151068519
 20
85.00135866753161
 30
0.0
 40
0.9999999999999998
100
AcDbArc
 50
270.0
 51
277.2030159518941
  0
LINE
  5
399
330
2
100
AcDbEntity
  8
KIJUN
 62
     7
100
AcDbLine
 10
136.5842151068519
 20
84.00135866753165
 30
0.0
 11
125.4498335956956
 21
84.00135866753165
 31
0.0
  0
LINE
  5
39A
330
2
100
AcDbEntity
  8
KIJUN
 62
     7
100
AcDbLine
 10
136.6459283323099
 20
93.7946417926148
 30
0.0
 11
125.4498335956956
 21
93.7946417926148
 31
0.0
  0
ARC
  5
39B
330
2
100
AcDbEntity
  8
KIJUN
 62
     7
100
AcDbCircle
 10
144.3082784122904
 20
89.08254884013269
 30
0.0
 40
0.9999999999999998
100
AcDbArc
 50
312.8598790256257
 51
47.1401209743741
  0
ARC
  5
39C
330
2
100
AcDbEntity
  8
KIJUN
 62
     7
100
AcDbCircle
 10
135.0333439059142
 20
97.27257357655531
 30
0.0
 40
13.36882843385103
100
AcDbArc
 50
277.2030159518924
 51
318.1293289205404
  0
ARC
  5
39D
330
2
100
AcDbEntity
  8
KIJUN
 62
     7
100
AcDbCircle
 10
135.6234179012647
 20
80.91576425587145
 30
0.0
 40
12.91940456011924
100
AcDbArc
 50
43.54081015745864
 51
85.46055949364863
  0
DIMENSION
  5
39E
330
2
100
AcDbEntity
  8
SUNPOU
100
AcDbDimension
  2
*D2
 10
56.37872456088258
 20
110.6696960641829
 30
0.0
 11
40.37872456088255
 21
115.669696064183
 31
0.0
 71
     5
 42
32.00000000000006
  3
STANDARD$0
100
AcDbAlignedDimension
 13
24.37872456088252
 23
95.536543537376
 33
0.0
 14
56.37872456088258
 24
95.536543537376
 34
0.0
 50
0.000000000000007
100
AcDbRotatedDimension
1001
ACAD
1000
DSTYLE
1002
{
1070
    41
1040
2.0
1070
    44
1040
0.0
1070
    77
1070
     1
1070
    78
1070
     0
1070
   140
1040
3.0
1070
   141
1040
1.0
1070
   146
1040
0.0642857142857143
1070
   172
1070
     0
1070
   173
1070
     0
1070
   176
1070
    60
1070
   177
1070
    70
1070
   178
1070
    60
1070
   271
1070
     0
1070
   272
1070
     0
1070
   341
1005
0
1070
   342
1005
37
1070
   343
1005
0
1070
   344
1005
0
1002
}
  0
TEXT
  5
3AB
330
2
100
AcDbEntity
  8
HOJO
100
AcDbText
 10
0.2042099365015701
 20
1.183313000000011
 30
0.0
 40
4.5
  1
PM829
  7
SUNPOU
100
AcDbText
  0
LINE
  5
3AD
330
2
100
AcDbEntity
  8
WAKU
100
AcDbLine
 10
0.0
 20
0.0
 30
0.0
 11
44.67747103027135
 21
0.0
 31
0.0
  0
LINE
  5
3AF
330
2
100
AcDbEntity
  8
WAKU
100
AcDbLine
 10
0.0
 20
7.0
 30
0.0
 11
44.67747103027135
 21
7.0
 31
0.0
  0
TEXT
  5
3B0
330
2
100
AcDbEntity
  8
HOJO
100
AcDbText
 10
29.79958636303513
 20
2.522193000000015
 30
0.0
 40
3.0
  1
72\U+00D732
  7
SUNPOU
100
AcDbText
  0
LWPOLYLINE
  5
3B1
330
2
100
AcDbEntity
  8
KIJUN
100
AcDbPolyline
 90
       29
 70
     1
 43
0.0
 10
54.75303870564944
 20
71.80518984385982
 42
-0.1450100662459025
 10
54.68875548551355
 20
72.36963553580206
 42
0.1104934900996284
 10
53.74698285094098
 20
77.69937183451844
 10
53.37872456088257
 20
81.53654353737605
 42
0.4142135623730951
 10
52.37872456088258
 20
82.53654353737609
 10
50.48852739648071
 20
82.53654353737607
 42
-0.5186458004903423
 10
50.01765487425797
 20
83.20470734981993
 42
-0.1189985957806489
 10
50.65554864403587
 20
84.17855753662754
 42
0.2231897282393306
 10
51.37872456088257
 20
85.71794711067292
 10
50.68483995580491
 20
94.61313261014538
 42
0.3919333042763877
 10
49.68777721257744
 20
95.536543537376
 10
44.37872456088252
 20
95.536543537376
 42
0.4142135623730951
 10
43.37872456088257
 20
94.53654353737601
 10
43.37872456088257
 20
86.53654353737611
 10
25.37872456088253
 20
86.53654353737605
 42
0.4142135623730951
 10
24.37872456088252
 20
85.53654353737606
 10
24.37872456088252
 20
24.53654353737607
 42
0.4142135623730951
 10
25.37872456088253
 20
23.53654353737607
 10
46.37872456088252
 20
23.53654353737607
 42
0.4142135623730951
 10
47.37872456088251
 20
24.53654353737607
 10
47.37872456088257
 20
25.19545674314309
 42
0.4085286290507455
 10
52.43270613412144
 20
35.22290120492074
 10
52.87872456088251
 20
35.22290120492203
 42
0.4142135623730951
 10
53.37872456088252
 20
35.72290120492203
 10
53.37872456088252
 20
38.53654353737608
 10
55.08059274357788
 20
39.17411578726211
 42
0.3529825963207282
 10
55.7192828946556
 20
40.25501975194317
 10
54.84135123815957
 20
46.26855649616579
 42
-0.1198570793462468
 10
55.0622412353127
 20
48.62140306792746
 42
0.1732182078554044
  0
ENDSEC
  0
SECTION
  2
OBJECTS
  0
DICTIONARY
  5
9
330
0
100
AcDbDictionary
281
     1
  3
ACAD_COLOR
350
48
  3
ACAD_GROUP
350
3D
  3
ACAD_LAYOUT
350
1E
  3
ACAD_MATERIAL
350
B
  3
ACAD_MLEADERSTYLE
350
4B
  3
ACAD_MLINESTYLE
350
3E
  3
ACAD_PLOTSETTINGS
350
3F
  3
ACAD_PLOTSTYLENAME
350
8
  3
ACAD_SCALELIST
350
49
  3
ACAD_TABLESTYLE
350
4A
  3
ACAD_VISUALSTYLE
350
31
  3
ACDB_RECOMPOSE_DATA
350
3C3
  3
AcDbVariableDictionary
350
3B6
  0
DICTIONARY
  5
3
330
2
100
AcDbDictionary
280
     1
281
     1
  3
ACAD_LAYOUTSELFREF
360
4
  0
DICTIONARY
  5
20
330
1F
100
AcDbDictionary
280
     1
281
     1
  3
ACAD_LAYOUTSELFREF
360
21
  0
DICTIONARY
  5
48
102
{ACAD_REACTORS
330
9
102
}
330
9
100
AcDbDictionary
281
     1
  0
DICTIONARY
  5
3D
102
{ACAD_REACTORS
330
9
102
}
330
9
100
AcDbDictionary
281
     1
  0
DICTIONARY
  5
1E
102
{ACAD_REACTORS
330
9
102
}
330
9
100
AcDbDictionary
281
     1
  3
Model
350
1D
  3
ﾚｲｱｳﾄ1
350
24
  0
DICTIONARY
  5
B
102
{ACAD_REACTORS
330
9
102
}
330
9
100
AcDbDictionary
281
     1
  3
ByBlock
350
40
  3
ByLayer
350
14
  3
Global
350
A
  0
DICTIONARY
  5
4B
102
{ACAD_REACTORS
330
9
102
}
330
9
100
AcDbDictionary
281
     1
  0
DICTIONARY
  5
3E
102
{ACAD_REACTORS
330
9
102
}
330
9
100
AcDbDictionary
281
     1
  3
STANDARD
350
4D
  0
DICTIONARY
  5
3F
102
{ACAD_REACTORS
330
9
102
}
330
9
100
AcDbDictionary
281
     1
  0
ACDBDICTIONARYWDFLT
  5
8
102
{ACAD_REACTORS
330
9
102
}
330
9
100
AcDbDictionary
281
     1
  3
Normal
350
7
100
AcDbDictionaryWithDefault
340
7
  0
DICTIONARY
  5
49
102
{ACAD_REACTORS
330
9
102
}
330
9
100
AcDbDictionary
281
     1
  3
A0
350
51
  3
A1
350
52
  3
A2
350
53
  3
A3
350
54
  3
A4
350
55
  3
A5
350
56
  3
A6
350
57
  3
A7
350
58
  3
A8
350
59
  3
A9
350
5A
  3
B0
350
5B
  3
B1
350
5C
  3
B2
350
5D
  3
B3
350
5E
  3
B4
350
5F
  3
B5
350
60
  3
B6
350
61
  0
DICTIONARY
  5
4A
102
{ACAD_REACTORS
330
9
102
}
330
9
100
AcDbDictionary
281
     1
  3
Standard
350
4E
  0
DICTIONARY
  5
31
102
{ACAD_REACTORS
330
9
102
}
330
9
100
AcDbDictionary
281
     1
  3
2dWireframe
350
30
  3
Realistic
350
4F
  3
Wireframe
350
50
  0
XRECORD
  5
3C3
102
{ACAD_REACTORS
330
9
102
}
330
9
100
AcDbXrecord
280
     1
 90
        1
330
4E
  0
DICTIONARY
  5
3B6
102
{ACAD_REACTORS
330
9
102
}
330
9
100
AcDbDictionary
281
     1
  3
CANNOSCALE
350
3BB
  3
CMLEADERSTYLE
350
3B8
  3
CTABLESTYLE
350
3B7
  3
CVIEWDETAILSTYLE
350
3B9
  3
CVIEWSECTIONSTYLE
350
3BA
  3
DIMASSOC
350
3BF
  3
HIDETEXT
350
3BE
  3
INDEXCTL
350
3BD
  3
SORTENTS
350
3BC
  3
XCLIPFRAME
350
3C0
  0
XRECORD
  5
4
102
{ACAD_REACTORS
330
3
102
}
330
3
100
AcDbXrecord
280
     1
340
2
  0
XRECORD
  5
21
102
{ACAD_REACTORS
330
20
102
}
330
20
100
AcDbXrecord
280
     1
340
1F
  0
LAYOUT
  5
1D
102
{ACAD_XDICTIONARY
360
3C6
102
}
102
{ACAD_REACTORS
330
1E
102
}
330
1E
100
AcDbPlotSettings
  1

  2
なし
  4

  6

 40
0.0
 41
0.0
 42
0.0
 43
0.0
 44
0.0
 45
0.0
 46
0.0
 47
0.0
 48
0.0
 49
0.0
140
0.0
141
0.0
142
1.0
143
1.0
 70
  1712
 72
     0
 73
     0
 74
     0
  7
monochrome.ctb
 75
     0
147
1.0
148
0.0
149
0.0
100
AcDbLayout
  1
Model
 70
     1
 71
     0
 10
0.0
 20
0.0
 11
12.0
 21
9.0
 12
0.0
 22
0.0
 32
0.0
 14
0.0
 24
0.0
 34
0.0
 15
0.0
 25
0.0
 35
0.0
146
0.0
 13
0.0
 23
0.0
 33
0.0
 16
1.0
 26
0.0
 36
0.0
 17
0.0
 27
1.0
 37
0.0
 76
     0
330
2
  0
LAYOUT
  5
24
102
{ACAD_XDICTIONARY
360
3C8
102
}
102
{ACAD_REACTORS
330
1E
102
}
330
1E
100
AcDbPlotSettings
  1

  2
なし
  4

  6

 40
0.0
 41
0.0
 42
0.0
 43
0.0
 44
0.0
 45
0.0
 46
0.0
 47
0.0
 48
0.0
 49
0.0
140
0.0
141
0.0
142
1.0
143
1.0
 70
   688
 72
     0
 73
     0
 74
     5
  7
monochrome.ctb
 75
    16
147
1.0
148
0.0
149
0.0
100
AcDbLayout
  1
ﾚｲｱｳﾄ1
 70
     1
 71
     1
 10
0.0
 20
0.0
 11
12.0
 21
9.0
 12
0.0
 22
0.0
 32
0.0
 14
1.000000000000000E+20
 24
1.000000000000000E+20
 34
1.000000000000000E+20
 15
-1.000000000000000E+20
 25
-1.000000000000000E+20
 35
-1.000000000000000E+20
146
0.0
 13
0.0
 23
0.0
 33
0.0
 16
1.0
 26
0.0
 36
0.0
 17
0.0
 27
1.0
 37
0.0
 76
     0
330
1F
  0
MATERIAL
  5
40
102
{ACAD_XDICTIONARY
360
41
102
}
102
{ACAD_REACTORS
330
B
102
}
330
B
100
AcDbMaterial
  1
ByBlock
 72
     0
 43
0.0208333333333333
 43
0.0
 43
0.0
 43
0.0
 43
0.0
 43
0.0208333333333333
 43
0.0
 43
0.0
 43
0.0
 43
0.0
 43
1.0
 43
0.0
 43
0.0
 43
0.0
 43
0.0
 43
1.0
 77
     0
 47
0.0208333333333333
 47
0.0
 47
0.0
 47
0.0
 47
0.0
 47
0.0208333333333333
 47
0.0
 47
0.0
 47
0.0
 47
0.0
 47
1.0
 47
0.0
 47
0.0
 47
0.0
 47
0.0
 47
1.0
171
     0
 49
0.0208333333333333
 49
0.0
 49
0.0
 49
0.0
 49
0.0
 49
0.0208333333333333
 49
0.0
 49
0.0
 49
0.0
 49
0.0
 49
1.0
 49
0.0
 49
0.0
 49
0.0
 49
0.0
 49
1.0
175
     0
142
0.0208333333333333
142
0.0
142
0.0
142
0.0
142
0.0
142
0.0208333333333333
142
0.0
142
0.0
142
0.0
142
0.0
142
1.0
142
0.0
142
0.0
142
0.0
142
0.0
142
1.0
179
     0
144
0.0208333333333333
144
0.0
144
0.0
144
0.0
144
0.0
144
0.0208333333333333
144
0.0
144
0.0
144
0.0
144
0.0
144
1.0
144
0.0
144
0.0
144
0.0
144
0.0
144
1.0
147
0.0208333333333333
147
0.0
147
0.0
147
0.0
147
0.0
147
0.0208333333333333
147
0.0
147
0.0
147
0.0
147
0.0
147
1.0
147
0.0
147
0.0
147
0.0
147
0.0
147
1.0
  0
MATERIAL
  5
14
102
{ACAD_XDICTIONARY
360
15
102
}
102
{ACAD_REACTORS
330
B
102
}
330
B
100
AcDbMaterial
  1
ByLayer
 72
     0
 43
0.0208333333333333
 43
0.0
 43
0.0
 43
0.0
 43
0.0
 43
0.0208333333333333
 43
0.0
 43
0.0
 43
0.0
 43
0.0
 43
1.0
 43
0.0
 43
0.0
 43
0.0
 43
0.0
 43
1.0
 77
     0
 47
0.0208333333333333
 47
0.0
 47
0.0
 47
0.0
 47
0.0
 47
0.0208333333333333
 47
0.0
 47
0.0
 47
0.0
 47
0.0
 47
1.0
 47
0.0
 47
0.0
 47
0.0
 47
0.0
 47
1.0
171
     0
 49
0.0208333333333333
 49
0.0
 49
0.0
 49
0.0
 49
0.0
 49
0.0208333333333333
 49
0.0
 49
0.0
 49
0.0
 49
0.0
 49
1.0
 49
0.0
 49
0.0
 49
0.0
 49
0.0
 49
1.0
175
     0
142
0.0208333333333333
142
0.0
142
0.0
142
0.0
142
0.0
142
0.0208333333333333
142
0.0
142
0.0
142
0.0
142
0.0
142
1.0
142
0.0
142
0.0
142
0.0
142
0.0
142
1.0
179
     0
144
0.0208333333333333
144
0.0
144
0.0
144
0.0
144
0.0
144
0.0208333333333333
144
0.0
144
0.0
144
0.0
144
0.0
144
1.0
144
0.0
144
0.0
144
0.0
144
0.0
144
1.0
147
0.0208333333333333
147
0.0
147
0.0
147
0.0
147
0.0
147
0.0208333333333333
147
0.0
147
0.0
147
0.0
147
0.0
147
1.0
147
0.0
147
0.0
147
0.0
147
0.0
147
1.0
  0
MATERIAL
  5
A
102
{ACAD_XDICTIONARY
360
C
102
}
102
{ACAD_REACTORS
330
B
102
}
330
B
100
AcDbMaterial
  1
Global
 72
     0
 43
0.0208333333333333
 43
0.0
 43
0.0
 43
0.0
 43
0.0
 43
0.0208333333333333
 43
0.0
 43
0.0
 43
0.0
 43
0.0
 43
1.0
 43
0.0
 43
0.0
 43
0.0
 43
0.0
 43
1.0
 77
     0
 47
0.0208333333333333
 47
0.0
 47
0.0
 47
0.0
 47
0.0
 47
0.0208333333333333
 47
0.0
 47
0.0
 47
0.0
 47
0.0
 47
1.0
 47
0.0
 47
0.0
 47
0.0
 47
0.0
 47
1.0
171
     0
 49
0.0208333333333333
 49
0.0
 49
0.0
 49
0.0
 49
0.0
 49
0.0208333333333333
 49
0.0
 49
0.0
 49
0.0
 49
0.0
 49
1.0
 49
0.0
 49
0.0
 49
0.0
 49
0.0
 49
1.0
175
     0
142
0.0208333333333333
142
0.0
142
0.0
142
0.0
142
0.0
142
0.0208333333333333
142
0.0
142
0.0
142
0.0
142
0.0
142
1.0
142
0.0
142
0.0
142
0.0
142
0.0
142
1.0
179
     0
144
0.0208333333333333
144
0.0
144
0.0
144
0.0
144
0.0
144
0.0208333333333333
144
0.0
144
0.0
144
0.0
144
0.0
144
1.0
144
0.0
144
0.0
144
0.0
144
0.0
144
1.0
147
0.0208333333333333
147
0.0
147
0.0
147
0.0
147
0.0
147
0.0208333333333333
147
0.0
147
0.0
147
0.0
147
0.0
147
1.0
147
0.0
147
0.0
147
0.0
147
0.0
147
1.0
  0
MLINESTYLE
  5
4D
102
{ACAD_REACTORS
330
3E
102
}
330
3E
100
AcDbMlineStyle
  2
STANDARD
 70
     0
  3

 62
   256
 51
90.0
 52
90.0
 71
     2
 49
0.5
 62
   256
  6
BYLAYER
 49
-0.5
 62
   256
  6
BYLAYER
  0
ACDBPLACEHOLDER
  5
7
102
{ACAD_REACTORS
330
8
102
}
330
8
  0
SCALE
  5
51
102
{ACAD_REACTORS
330
49
102
}
330
49
100
AcDbScale
 70
     0
300
1:1
140
1.0
141
1.0
290
     1
  0
SCALE
  5
52
102
{ACAD_REACTORS
330
49
102
}
330
49
100
AcDbScale
 70
     0
300
1/128" = 1'-0"
140
0.0078125
141
12.0
290
     0
  0
SCALE
  5
53
102
{ACAD_REACTORS
330
49
102
}
330
49
100
AcDbScale
 70
     0
300
1/64" = 1'-0"
140
0.015625
141
12.0
290
     0
  0
SCALE
  5
54
102
{ACAD_REACTORS
330
49
102
}
330
49
100
AcDbScale
 70
     0
300
1/32" = 1'-0"
140
0.03125
141
12.0
290
     0
  0
SCALE
  5
55
102
{ACAD_REACTORS
330
49
102
}
330
49
100
AcDbScale
 70
     0
300
1/16" = 1'-0"
140
0.0625
141
12.0
290
     0
  0
SCALE
  5
56
102
{ACAD_REACTORS
330
49
102
}
330
49
100
AcDbScale
 70
     0
300
3/32" = 1'-0"
140
0.09375
141
12.0
290
     0
  0
SCALE
  5
57
102
{ACAD_REACTORS
330
49
102
}
330
49
100
AcDbScale
 70
     0
300
1/8" = 1'-0"
140
0.125
141
12.0
290
     0
  0
SCALE
  5
58
102
{ACAD_REACTORS
330
49
102
}
330
49
100
AcDbScale
 70
     0
300
3/16" = 1'-0"
140
0.1875
141
12.0
290
     0
  0
SCALE
  5
59
102
{ACAD_REACTORS
330
49
102
}
330
49
100
AcDbScale
 70
     0
300
1/4" = 1'-0"
140
0.25
141
12.0
290
     0
  0
SCALE
  5
5A
102
{ACAD_REACTORS
330
49
102
}
330
49
100
AcDbScale
 70
     0
300
3/8" = 1'-0"
140
0.375
141
12.0
290
     0
  0
SCALE
  5
5B
102
{ACAD_REACTORS
330
49
102
}
330
49
100
AcDbScale
 70
     0
300
1/2" = 1'-0"
140
0.5
141
12.0
290
     0
  0
SCALE
  5
5C
102
{ACAD_REACTORS
330
49
102
}
330
49
100
AcDbScale
 70
     0
300
3/4" = 1'-0"
140
0.75
141
12.0
290
     0
  0
SCALE
  5
5D
102
{ACAD_REACTORS
330
49
102
}
330
49
100
AcDbScale
 70
     0
300
1" = 1'-0"
140
1.0
141
12.0
290
     0
  0
SCALE
  5
5E
102
{ACAD_REACTORS
330
49
102
}
330
49
100
AcDbScale
 70
     0
300
1-1/2" = 1'-0"
140
1.5
141
12.0
290
     0
  0
SCALE
  5
5F
102
{ACAD_REACTORS
330
49
102
}
330
49
100
AcDbScale
 70
     0
300
3" = 1'-0"
140
3.0
141
12.0
290
     0
  0
SCALE
  5
60
102
{ACAD_REACTORS
330
49
102
}
330
49
100
AcDbScale
 70
     0
300
6" = 1'-0"
140
6.0
141
12.0
290
     0
  0
SCALE
  5
61
102
{ACAD_REACTORS
330
49
102
}
330
49
100
AcDbScale
 70
     0
300
1'-0" = 1'-0"
140
12.0
141
12.0
290
     0
  0
TABLESTYLE
  5
4E
102
{ACAD_XDICTIONARY
360
3C1
102
}
102
{ACAD_REACTORS
330
4A
102
}
330
4A
100
AcDbTableStyle
  3
Standard
 70
     0
 71
     0
 40
0.06
 41
0.06
280
     0
281
     0
  7
STANDARD
140
0.18
170
     2
 62
     0
 63
     7
283
     0
274
    -2
284
     1
 64
     0
275
    -2
285
     1
 65
     0
276
    -2
286
     1
 66
     0
277
    -2
287
     1
 67
     0
278
    -2
288
     1
 68
     0
279
    -2
289
     1
 69
     0
  7
STANDARD
140
0.25
170
     5
 62
     0
 63
     7
283
     0
274
    -2
284
     1
 64
     0
275
    -2
285
     1
 65
     0
276
    -2
286
     1
 66
     0
277
    -2
287
     1
 67
     0
278
    -2
288
     1
 68
     0
279
    -2
289
     1
 69
     0
  7
STANDARD
140
0.18
170
     5
 62
     0
 63
     7
283
     0
274
    -2
284
     1
 64
     0
275
    -2
285
     1
 65
     0
276
    -2
286
     1
 66
     0
277
    -2
287
     1
 67
     0
278
    -2
288
     1
 68
     0
279
    -2
289
     1
 69
     0
  0
VISUALSTYLE
  5
30
102
{ACAD_XDICTIONARY
360
3CA
102
}
102
{ACAD_REACTORS
330
31
102
}
330
31
100
AcDbVisualStyle
  2
2dWireframe
 70
     4
 71
     0
 72
     2
 73
     0
 90
        0
 40
-0.6
 41
-30.0
 62
     5
 63
     7
 74
     1
 91
        4
 64
     7
 65
   257
 75
     1
175
     1
 42
1.0
 92
        0
 66
   257
 43
1.0
 76
     1
 77
     6
 78
     2
 67
     7
 79
     5
170
     0
171
     0
290
     0
174
     0
 93
        1
 44
0.0
173
     0
291
     0
 45
0.0
1001
ACAD
1000
AcDbSavedByObjectVersion
1070
     0
  0
VISUALSTYLE
  5
4F
102
{ACAD_XDICTIONARY
360
3CE
102
}
102
{ACAD_REACTORS
330
31
102
}
330
31
100
AcDbVisualStyle
  2
Realistic
 70
     8
 71
     2
 72
     3
 73
     0
 90
        2
 40
-0.6
 41
30.0
 62
     5
 63
     7
 74
     0
 91
        0
 64
     7
 65
   257
 75
     1
175
     1
 42
1.0
 92
        8
 66
   257
 43
1.0
 76
     1
 77
     6
 78
     2
 67
     7
 79
     3
170
     0
171
     0
290
     0
174
     0
 93
       13
 44
0.0
173
     0
291
     0
 45
0.0
1001
ACAD
1000
AcDbSavedByObjectVersion
1070
     0
  0
VISUALSTYLE
  5
50
102
{ACAD_XDICTIONARY
360
3D0
102
}
102
{ACAD_REACTORS
330
31
102
}
330
31
100
AcDbVisualStyle
  2
Wireframe
 70
     5
 71
     0
 72
     2
 73
     0
 90
        0
 40
-0.6
 41
-30.0
 62
     5
 63
     7
 74
     1
 91
        4
 64
     7
 65
   257
 75
     1
175
     1
 42
1.0
 92
        0
 66
   257
 43
1.0
 76
     1
 77
     6
 78
     2
 67
     7
 79
     3
170
     0
171
     0
290
     0
174
     0
 93
        1
 44
0.0
173
     0
291
     0
 45
0.0
1001
ACAD
1000
AcDbSavedByObjectVersion
1070
     0
  0
DICTIONARYVAR
  5
3BB
102
{ACAD_REACTORS
330
3B6
102
}
330
3B6
100
DictionaryVariables
280
     0
  1
1:1
  0
DICTIONARYVAR
  5
3B8
102
{ACAD_REACTORS
330
3B6
102
}
330
3B6
100
DictionaryVariables
280
     0
  1
STANDARD
  0
DICTIONARYVAR
  5
3B7
102
{ACAD_REACTORS
330
3B6
102
}
330
3B6
100
DictionaryVariables
280
     0
  1
STANDARD
  0
DICTIONARYVAR
  5
3B9
102
{ACAD_REACTORS
330
3B6
102
}
330
3B6
100
DictionaryVariables
280
     0
  1

  0
DICTIONARYVAR
  5
3BA
102
{ACAD_REACTORS
330
3B6
102
}
330
3B6
100
DictionaryVariables
280
     0
  1

  0
DICTIONARYVAR
  5
3BF
102
{ACAD_REACTORS
330
3B6
102
}
330
3B6
100
DictionaryVariables
280
     0
  1
1
  0
DICTIONARYVAR
  5
3BE
102
{ACAD_REACTORS
330
3B6
102
}
330
3B6
100
DictionaryVariables
280
     0
  1
1
  0
DICTIONARYVAR
  5
3BD
102
{ACAD_REACTORS
330
3B6
102
}
330
3B6
100
DictionaryVariables
280
     0
  1
0
  0
DICTIONARYVAR
  5
3BC
102
{ACAD_REACTORS
330
3B6
102
}
330
3B6
100
DictionaryVariables
280
     0
  1
127
  0
DICTIONARYVAR
  5
3C0
102
{ACAD_REACTORS
330
3B6
102
}
330
3B6
100
DictionaryVariables
280
     0
  1
2
  0
DICTIONARY
  5
3C6
330
1D
100
AcDbDictionary
280
     1
281
     1
  3
ACAD_XREC_ROUNDTRIP
360
3C7
  0
DICTIONARY
  5
3C8
330
24
100
AcDbDictionary
280
     1
281
     1
  3
ACAD_XREC_ROUNDTRIP
360
3C9
  0
DICTIONARY
  5
41
330
40
100
AcDbDictionary
280
     1
281
     1
  3
ACAD_XREC_ROUNDTRIP
360
3CC
  3
BUMPTILE
360
42
  3
DIFFUSETILE
360
43
  3
OPACITYTILE
360
44
  3
REFLECTIONTILE
360
45
  3
REFRACTIONTILE
360
46
  3
SPECULARTILE
360
47
  0
DICTIONARY
  5
15
330
14
100
AcDbDictionary
280
     1
281
     1
  3
ACAD_XREC_ROUNDTRIP
360
3C5
  3
BUMPTILE
360
16
  3
DIFFUSETILE
360
17
  3
OPACITYTILE
360
18
  3
REFLECTIONTILE
360
19
  3
REFRACTIONTILE
360
1A
  3
SPECULARTILE
360
1B
  0
DICTIONARY
  5
C
330
A
100
AcDbDictionary
280
     1
281
     1
  3
ACAD_XREC_ROUNDTRIP
360
3C4
  3
BUMPTILE
360
D
  3
DIFFUSETILE
360
E
  3
OPACITYTILE
360
F
  3
REFLECTIONTILE
360
10
  3
REFRACTIONTILE
360
11
  3
SPECULARTILE
360
12
  0
DICTIONARY
  5
3C1
330
4E
100
AcDbDictionary
280
     1
281
     1
  3
ACAD_ROUNDTRIP_2008_TABLESTYLE_CELLSTYLEMAP
360
3C2
  3
ACAD_XREC_ROUNDTRIP
360
3CD
  0
DICTIONARY
  5
3CA
330
30
100
AcDbDictionary
280
     1
281
     1
  3
ACAD_XREC_ROUNDTRIP
360
3CB
  0
DICTIONARY
  5
3CE
330
4F
100
AcDbDictionary
280
     1
281
     1
  3
ACAD_XREC_ROUNDTRIP
360
3CF
  0
DICTIONARY
  5
3D0
330
50
100
AcDbDictionary
280
     1
281
     1
  3
ACAD_XREC_ROUNDTRIP
360
3D1
  0
XRECORD
  5
3C7
102
{ACAD_REACTORS
330
3C6
102
}
330
3C6
100
AcDbXrecord
280
     1
102
SHADEPLOT
 70
     0
102
SHADEPLOTRESLEVEL
 70
     2
102
SHADEPLOTCUSTOMDPI
 70
   300
  0
XRECORD
  5
3C9
102
{ACAD_REACTORS
330
3C8
102
}
330
3C8
100
AcDbXrecord
280
     1
102
SHADEPLOT
 70
     0
102
SHADEPLOTRESLEVEL
 70
     2
102
SHADEPLOTCUSTOMDPI
 70
   300
  0
XRECORD
  5
3CC
102
{ACAD_REACTORS
330
41
102
}
330
41
100
AcDbXrecord
280
     1
102
MATERIAL
148
0.0
149
0.0
149
0.0
 93
        0
 94
      127
282
     0
 72
     0
 77
     0
171
     0
175
     0
179
     0
273
     0
  0
XRECORD
  5
42
102
{ACAD_REACTORS
330
41
102
}
330
41
100
AcDbXrecord
280
     1
270
     1
271
     1
  0
XRECORD
  5
43
102
{ACAD_REACTORS
330
41
102
}
330
41
100
AcDbXrecord
280
     1
270
     1
271
     1
  0
XRECORD
  5
44
102
{ACAD_REACTORS
330
41
102
}
330
41
100
AcDbXrecord
280
     1
270
     1
271
     1
  0
XRECORD
  5
45
102
{ACAD_REACTORS
330
41
102
}
330
41
100
AcDbXrecord
280
     1
270
     1
271
     1
  0
XRECORD
  5
46
102
{ACAD_REACTORS
330
41
102
}
330
41
100
AcDbXrecord
280
     1
270
     1
271
     1
  0
XRECORD
  5
47
102
{ACAD_REACTORS
330
41
102
}
330
41
100
AcDbXrecord
280
     1
270
     1
271
     1
  0
XRECORD
  5
3C5
102
{ACAD_REACTORS
330
15
102
}
330
15
100
AcDbXrecord
280
     1
102
MATERIAL
148
0.0
149
0.0
149
0.0
 93
        0
 94
      127
282
     0
 72
     0
 77
     0
171
     0
175
     0
179
     0
273
     0
  0
XRECORD
  5
16
102
{ACAD_REACTORS
330
15
102
}
330
15
100
AcDbXrecord
280
     1
270
     1
271
     1
  0
XRECORD
  5
17
102
{ACAD_REACTORS
330
15
102
}
330
15
100
AcDbXrecord
280
     1
270
     1
271
     1
  0
XRECORD
  5
18
102
{ACAD_REACTORS
330
15
102
}
330
15
100
AcDbXrecord
280
     1
270
     1
271
     1
  0
XRECORD
  5
19
102
{ACAD_REACTORS
330
15
102
}
330
15
100
AcDbXrecord
280
     1
270
     1
271
     1
  0
XRECORD
  5
1A
102
{ACAD_REACTORS
330
15
102
}
330
15
100
AcDbXrecord
280
     1
270
     1
271
     1
  0
XRECORD
  5
1B
102
{ACAD_REACTORS
330
15
102
}
330
15
100
AcDbXrecord
280
     1
270
     1
271
     1
  0
XRECORD
  5
3C4
102
{ACAD_REACTORS
330
C
102
}
330
C
100
AcDbXrecord
280
     1
102
MATERIAL
148
0.0
149
0.0
149
0.0
 93
        0
 94
      127
282
     0
 72
     0
 77
     0
171
     0
175
     0
179
     0
273
     0
  0
XRECORD
  5
D
102
{ACAD_REACTORS
330
C
102
}
330
C
100
AcDbXrecord
280
     1
270
     1
271
     1
  0
XRECORD
  5
E
102
{ACAD_REACTORS
330
C
102
}
330
C
100
AcDbXrecord
280
     1
270
     1
271
     1
  0
XRECORD
  5
F
102
{ACAD_REACTORS
330
C
102
}
330
C
100
AcDbXrecord
280
     1
270
     1
271
     1
  0
XRECORD
  5
10
102
{ACAD_REACTORS
330
C
102
}
330
C
100
AcDbXrecord
280
     1
270
     1
271
     1
  0
XRECORD
  5
11
102
{ACAD_REACTORS
330
C
102
}
330
C
100
AcDbXrecord
280
     1
270
     1
271
     1
  0
XRECORD
  5
12
102
{ACAD_REACTORS
330
C
102
}
330
C
100
AcDbXrecord
280
     1
270
     1
271
     1
  0
CELLSTYLEMAP
  5
3C2
102
{ACAD_REACTORS
330
3C1
102
}
330
3C1
100
AcDbCellStyleMap
 90
        3
300
CELLSTYLE
  1
TABLEFORMAT_BEGIN
 90
        5
170
     1
 91
        0
 92
    32768
 62
   257
 93
        1
300
CONTENTFORMAT
  1
CONTENTFORMAT_BEGIN
 90
        0
 91
        0
 92
        4
 93
        0
300

 40
0.0
140
1.0
 94
        5
 62
     0
340
27
144
0.25
309
CONTENTFORMAT_END
171
     0
 94
        6
 95
        1
302
GRIDFORMAT
  1
GRIDFORMAT_BEGIN
 90
        0
 91
        1
 62
     0
 92
       -2
340
0
 93
        0
 40
0.045
309
GRIDFORMAT_END
 95
        2
302
GRIDFORMAT
  1
GRIDFORMAT_BEGIN
 90
        0
 91
        1
 62
     0
 92
       -2
340
0
 93
        0
 40
0.045
309
GRIDFORMAT_END
 95
        4
302
GRIDFORMAT
  1
GRIDFORMAT_BEGIN
 90
        0
 91
        1
 62
     0
 92
       -2
340
0
 93
        0
 40
0.045
309
GRIDFORMAT_END
 95
        8
302
GRIDFORMAT
  1
GRIDFORMAT_BEGIN
 90
        0
 91
        1
 62
     0
 92
       -2
340
0
 93
        0
 40
0.045
309
GRIDFORMAT_END
 95
       16
302
GRIDFORMAT
  1
GRIDFORMAT_BEGIN
 90
        0
 91
        1
 62
     0
 92
       -2
340
0
 93
        0
 40
0.045
309
GRIDFORMAT_END
 95
       32
302
GRIDFORMAT
  1
GRIDFORMAT_BEGIN
 90
        0
 91
        1
 62
     0
 92
       -2
340
0
 93
        0
 40
0.045
309
GRIDFORMAT_END
309
TABLEFORMAT_END
  1
CELLSTYLE_BEGIN
 90
        1
 91
        1
300
_TITLE
309
CELLSTYLE_END
300
CELLSTYLE
  1
TABLEFORMAT_BEGIN
 90
        5
170
     1
 91
        0
 92
        0
 62
   257
 93
        1
300
CONTENTFORMAT
  1
CONTENTFORMAT_BEGIN
 90
        0
 91
        0
 92
        4
 93
        0
300

 40
0.0
140
1.0
 94
        5
 62
     0
340
27
144
0.18
309
CONTENTFORMAT_END
171
     0
 94
        6
 95
        1
302
GRIDFORMAT
  1
GRIDFORMAT_BEGIN
 90
        0
 91
        1
 62
     0
 92
       -2
340
0
 93
        0
 40
0.045
309
GRIDFORMAT_END
 95
        2
302
GRIDFORMAT
  1
GRIDFORMAT_BEGIN
 90
        0
 91
        1
 62
     0
 92
       -2
340
0
 93
        0
 40
0.045
309
GRIDFORMAT_END
 95
        4
302
GRIDFORMAT
  1
GRIDFORMAT_BEGIN
 90
        0
 91
        1
 62
     0
 92
       -2
340
0
 93
        0
 40
0.045
309
GRIDFORMAT_END
 95
        8
302
GRIDFORMAT
  1
GRIDFORMAT_BEGIN
 90
        0
 91
        1
 62
     0
 92
       -2
340
0
 93
        0
 40
0.045
309
GRIDFORMAT_END
 95
       16
302
GRIDFORMAT
  1
GRIDFORMAT_BEGIN
 90
        0
 91
        1
 62
     0
 92
       -2
340
0
 93
        0
 40
0.045
309
GRIDFORMAT_END
 95
       32
302
GRIDFORMAT
  1
GRIDFORMAT_BEGIN
 90
        0
 91
        1
 62
     0
 92
       -2
340
0
 93
        0
 40
0.045
309
GRIDFORMAT_END
309
TABLEFORMAT_END
  1
CELLSTYLE_BEGIN
 90
        2
 91
        1
300
_HEADER
309
CELLSTYLE_END
300
CELLSTYLE
  1
TABLEFORMAT_BEGIN
 90
        5
170
     1
 91
        0
 92
        0
 62
   257
 93
        1
300
CONTENTFORMAT
  1
CONTENTFORMAT_BEGIN
 90
        0
 91
        0
 92
        4
 93
        0
300

 40
0.0
140
1.0
 94
        2
 62
     0
340
27
144
0.18
309
CONTENTFORMAT_END
171
     0
 94
        6
 95
        1
302
GRIDFORMAT
  1
GRIDFORMAT_BEGIN
 90
        0
 91
        1
 62
     0
 92
       -2
340
0
 93
        0
 40
0.045
309
GRIDFORMAT_END
 95
        2
302
GRIDFORMAT
  1
GRIDFORMAT_BEGIN
 90
        0
 91
        1
 62
     0
 92
       -2
340
0
 93
        0
 40
0.045
309
GRIDFORMAT_END
 95
        4
302
GRIDFORMAT
  1
GRIDFORMAT_BEGIN
 90
        0
 91
        1
 62
     0
 92
       -2
340
0
 93
        0
 40
0.045
309
GRIDFORMAT_END
 95
        8
302
GRIDFORMAT
  1
GRIDFORMAT_BEGIN
 90
        0
 91
        1
 62
     0
 92
       -2
340
0
 93
        0
 40
0.045
309
GRIDFORMAT_END
 95
       16
302
GRIDFORMAT
  1
GRIDFORMAT_BEGIN
 90
        0
 91
        1
 62
     0
 92
       -2
340
0
 93
        0
 40
0.045
309
GRIDFORMAT_END
 95
       32
302
GRIDFORMAT
  1
GRIDFORMAT_BEGIN
 90
        0
 91
        1
 62
     0
 92
       -2
340
0
 93
        0
 40
0.045
309
GRIDFORMAT_END
309
TABLEFORMAT_END
  1
CELLSTYLE_BEGIN
 90
        3
 91
        2
300
_DATA
309
CELLSTYLE_END
  0
XRECORD
  5
3CD
102
{ACAD_REACTORS
330
3C1
102
}
330
3C1
100
AcDbXrecord
280
     1
102
ACAD_ROUNDTRIP_PRE2007_TABLESTYLE
 90
        4
 91
        0
  1

 92
        4
 93
        0
  2

 94
        4
 95
        0
  3

  0
XRECORD
  5
3CB
102
{ACAD_REACTORS
330
3CA
102
}
330
3CA
100
AcDbXrecord
280
     1
102
RTVSPost2010Prop28
280
     1
102
RTVSPost2010PropOp28
 70
     1
102
RTVSPost2010Prop29
280
     1
102
RTVSPost2010PropOp29
 70
     1
102
RTVSPost2010Prop30
280
     0
102
RTVSPost2010PropOp30
 70
     1
102
RTVSPost2010Prop31
280
     0
102
RTVSPost2010PropOp31
 70
     1
102
RTVSPost2010Prop32
280
     0
102
RTVSPost2010PropOp32
 70
     1
102
RTVSPost2010Prop33
280
     0
102
RTVSPost2010PropOp33
 70
     1
102
RTVSPost2010Prop34
280
     0
102
RTVSPost2010PropOp34
 70
     1
102
RTVSPost2010Prop35
280
     0
102
RTVSPost2010PropOp35
 70
     1
102
RTVSPost2010Prop36
280
     0
102
RTVSPost2010PropOp36
 70
     1
102
RTVSPost2010Prop37
 90
       50
102
RTVSPost2010PropOp37
 70
     1
102
RTVSPost2010Prop38
140
0.0
102
RTVSPost2010PropOp38
 70
     1
102
RTVSPost2010Prop39
140
1.0
102
RTVSPost2010PropOp39
 70
     1
102
RTVSPost2010Prop40
 90
        0
102
RTVSPost2010PropOp40
 70
     1
102
RTVSPost2010Prop41ColorIndex
 90
       18
102
RTVSPost2010Prop41ColorRGB
 90
        0
102
RTVSPost2010PropOp41
 70
     1
102
RTVSPost2010Prop42
 90
       50
102
RTVSPost2010PropOp42
 70
     1
102
RTVSPost2010Prop43
 90
        3
102
RTVSPost2010PropOp43
 70
     1
102
RTVSPost2010Prop44ColorIndex
 90
        5
102
RTVSPost2010Prop44ColorRGB
 90
      255
102
RTVSPost2010PropOp44
 70
     1
102
RTVSPost2010Prop45
280
     0
102
RTVSPost2010PropOp45
 70
     1
102
RTVSPost2010Prop46
 90
       50
102
RTVSPost2010PropOp46
 70
     1
102
RTVSPost2010Prop47
 90
       50
102
RTVSPost2010PropOp47
 70
     1
102
RTVSPost2010Prop48
 90
       50
102
RTVSPost2010PropOp48
 70
     1
102
RTVSPost2010Prop49
280
     0
102
RTVSPost2010PropOp49
 70
     1
102
RTVSPost2010Prop50
 90
       50
102
RTVSPost2010PropOp50
 70
     1
102
RTVSPost2010Prop51ColorIndex
 90
      256
102
RTVSPost2010Prop51ColorRGB
 90
-16777216
102
RTVSPost2010PropOp51
 70
     0
102
RTVSPost2010Prop52
140
1.0
102
RTVSPost2010PropOp52
 70
     0
102
RTVSPost2010Prop53
 90
        2
102
RTVSPost2010PropOp53
 70
     1
102
RTVSPost2010Prop54
  1
strokes_ogs.tif
102
RTVSPost2010PropOp54
 70
     1
102
RTVSPost2010Prop55
280
     0
102
RTVSPost2010PropOp55
 70
     1
102
RTVSPost2010Prop56
140
1.0
102
RTVSPost2010PropOp56
 70
     1
102
RTVSPost2010Prop57
140
1.0
102
RTVSPost2010PropOp57
 70
     1
102
RTVSPropertyOp0
 70
     1
102
RTVSPropertyOp1
 70
     1
102
RTVSPropertyOp2
 70
     1
102
RTVSPropertyOp3
 70
     1
102
RTVSPropertyOp4
 70
     1
102
RTVSPropertyOp5
 70
     1
102
RTVSPropertyOp6
 70
     1
102
RTVSPropertyOp7
 70
     1
102
RTVSPropertyOp8
 70
     1
102
RTVSPropertyOp9
 70
     1
102
RTVSPropertyOp10
 70
     1
102
RTVSPropertyOp11
 70
     1
102
RTVSPropertyOp12
 70
     1
102
RTVSPropertyOp13
 70
     1
102
RTVSPropertyOp14
 70
     1
102
RTVSPropertyOp15
 70
     1
102
RTVSPropertyOp16
 70
     1
102
RTVSPropertyOp17
 70
     1
102
RTVSPropertyOp18
 70
     1
102
RTVSPropertyOp19
 70
     1
102
RTVSPropertyOp20
 70
     1
102
RTVSPropertyOp21
 70
     1
102
RTVSPropertyOp22
 70
     1
102
RTVSPropertyOp23
 70
     1
102
RTVSPropertyOp24
 70
     1
102
RTVSPropertyOp25
 70
     1
102
RTVSPropertyOp26
 70
     1
102
RTVSPropertyOp27
 70
     1
102
RTVSPropertyOp28
 70
     1
102
RTVSPropertyOp29
 70
     1
102
RTVSPropertyOp30
 70
     1
102
RTVSPropertyOp31
 70
     1
102
RTVSPropertyOp32
 70
     1
102
RTVSPropertyOp33
 70
     1
102
RTVSPropertyOp34
 70
     1
102
RTVSPropertyOp35
 70
     1
102
RTVSPropertyOp36
 70
     1
102
RTVSPropertyOp37
 70
     1
102
RTVSPropertyOp38
 70
     1
102
RTVSPropertyOp39
 70
     1
102
RTVSPropertyOp40
 70
     1
102
RTVSPropertyOp41
 70
     1
102
RTVSPropertyOp42
 70
     1
102
RTVSPropertyOp43
 70
     1
102
RTVSPropertyOp44
 70
     1
102
RTVSPropertyOp45
 70
     1
102
RTVSPropertyOp46
 70
     1
102
RTVSPropertyOp47
 70
     1
102
RTVSPropertyOp48
 70
     1
102
RTVSPropertyOp49
 70
     1
102
RTVSPropertyOp50
 70
     1
102
RTVSPropertyOp51
 70
     0
102
RTVSPropertyOp52
 70
     0
102
RTVSPropertyOp53
 70
     1
102
RTVSPropertyOp54
 70
     1
102
RTVSPropertyOp55
 70
     1
102
RTVSPropertyOp56
 70
     1
102
RTVSPropertyOp57
 70
     1
102
RTVSPropertyOp58
 70
     1
102
RTVSPropertyOp59
 70
     1
102
RTVSPropertyOp60
 70
     1
102
RTVSPropertyOp61
 70
     1
102
RTVSPropertyOp62
 70
     1
  0
XRECORD
  5
3CF
102
{ACAD_REACTORS
330
3CE
102
}
330
3CE
100
AcDbXrecord
280
     1
102
RTVSPost2010Prop28
280
     0
102
RTVSPost2010PropOp28
 70
     1
102
RTVSPost2010Prop29
280
     1
102
RTVSPost2010PropOp29
 70
     1
102
RTVSPost2010Prop30
280
     1
102
RTVSPost2010PropOp30
 70
     1
102
RTVSPost2010Prop31
280
     0
102
RTVSPost2010PropOp31
 70
     1
102
RTVSPost2010Prop32
280
     0
102
RTVSPost2010PropOp32
 70
     1
102
RTVSPost2010Prop33
280
     0
102
RTVSPost2010PropOp33
 70
     1
102
RTVSPost2010Prop34
280
     0
102
RTVSPost2010PropOp34
 70
     1
102
RTVSPost2010Prop35
280
     0
102
RTVSPost2010PropOp35
 70
     1
102
RTVSPost2010Prop36
280
     0
102
RTVSPost2010PropOp36
 70
     1
102
RTVSPost2010Prop37
 90
       50
102
RTVSPost2010PropOp37
 70
     1
102
RTVSPost2010Prop38
140
0.0
102
RTVSPost2010PropOp38
 70
     1
102
RTVSPost2010Prop39
140
1.0
102
RTVSPost2010PropOp39
 70
     1
102
RTVSPost2010Prop40
 90
        0
102
RTVSPost2010PropOp40
 70
     1
102
RTVSPost2010Prop41ColorIndex
 90
       18
102
RTVSPost2010Prop41ColorRGB
 90
        0
102
RTVSPost2010PropOp41
 70
     1
102
RTVSPost2010Prop42
 90
       50
102
RTVSPost2010PropOp42
 70
     1
102
RTVSPost2010Prop43
 90
        3
102
RTVSPost2010PropOp43
 70
     1
102
RTVSPost2010Prop44ColorIndex
 90
        5
102
RTVSPost2010Prop44ColorRGB
 90
      255
102
RTVSPost2010PropOp44
 70
     1
102
RTVSPost2010Prop45
280
     0
102
RTVSPost2010PropOp45
 70
     1
102
RTVSPost2010Prop46
 90
       50
102
RTVSPost2010PropOp46
 70
     1
102
RTVSPost2010Prop47
 90
       50
102
RTVSPost2010PropOp47
 70
     1
102
RTVSPost2010Prop48
 90
       50
102
RTVSPost2010PropOp48
 70
     1
102
RTVSPost2010Prop49
280
     0
102
RTVSPost2010PropOp49
 70
     1
102
RTVSPost2010Prop50
 90
       50
102
RTVSPost2010PropOp50
 70
     1
102
RTVSPost2010Prop51ColorIndex
 90
      256
102
RTVSPost2010Prop51ColorRGB
 90
-16777216
102
RTVSPost2010PropOp51
 70
     0
102
RTVSPost2010Prop52
140
1.0
102
RTVSPost2010PropOp52
 70
     0
102
RTVSPost2010Prop53
 90
        2
102
RTVSPost2010PropOp53
 70
     1
102
RTVSPost2010Prop54
  1
strokes_ogs.tif
102
RTVSPost2010PropOp54
 70
     1
102
RTVSPost2010Prop55
280
     0
102
RTVSPost2010PropOp55
 70
     1
102
RTVSPost2010Prop56
140
1.0
102
RTVSPost2010PropOp56
 70
     1
102
RTVSPost2010Prop57
140
1.0
102
RTVSPost2010PropOp57
 70
     1
102
RTVSPropertyOp0
 70
     1
102
RTVSPropertyOp1
 70
     1
102
RTVSPropertyOp2
 70
     1
102
RTVSPropertyOp3
 70
     1
102
RTVSPropertyOp4
 70
     1
102
RTVSPropertyOp5
 70
     1
102
RTVSPropertyOp6
 70
     1
102
RTVSPropertyOp7
 70
     1
102
RTVSPropertyOp8
 70
     1
102
RTVSPropertyOp9
 70
     1
102
RTVSPropertyOp10
 70
     1
102
RTVSPropertyOp11
 70
     1
102
RTVSPropertyOp12
 70
     1
102
RTVSPropertyOp13
 70
     1
102
RTVSPropertyOp14
 70
     1
102
RTVSPropertyOp15
 70
     1
102
RTVSPropertyOp16
 70
     1
102
RTVSPropertyOp17
 70
     1
102
RTVSPropertyOp18
 70
     1
102
RTVSPropertyOp19
 70
     1
102
RTVSPropertyOp20
 70
     1
102
RTVSPropertyOp21
 70
     1
102
RTVSPropertyOp22
 70
     1
102
RTVSPropertyOp23
 70
     1
102
RTVSPropertyOp24
 70
     1
102
RTVSPropertyOp25
 70
     1
102
RTVSPropertyOp26
 70
     1
102
RTVSPropertyOp27
 70
     1
102
RTVSPropertyOp28
 70
     1
102
RTVSPropertyOp29
 70
     1
102
RTVSPropertyOp30
 70
     1
102
RTVSPropertyOp31
 70
     1
102
RTVSPropertyOp32
 70
     1
102
RTVSPropertyOp33
 70
     1
102
RTVSPropertyOp34
 70
     1
102
RTVSPropertyOp35
 70
     1
102
RTVSPropertyOp36
 70
     1
102
RTVSPropertyOp37
 70
     1
102
RTVSPropertyOp38
 70
     1
102
RTVSPropertyOp39
 70
     1
102
RTVSPropertyOp40
 70
     1
102
RTVSPropertyOp41
 70
     1
102
RTVSPropertyOp42
 70
     1
102
RTVSPropertyOp43
 70
     1
102
RTVSPropertyOp44
 70
     1
102
RTVSPropertyOp45
 70
     1
102
RTVSPropertyOp46
 70
     1
102
RTVSPropertyOp47
 70
     1
102
RTVSPropertyOp48
 70
     1
102
RTVSPropertyOp49
 70
     1
102
RTVSPropertyOp50
 70
     1
102
RTVSPropertyOp51
 70
     0
102
RTVSPropertyOp52
 70
     0
102
RTVSPropertyOp53
 70
     1
102
RTVSPropertyOp54
 70
     1
102
RTVSPropertyOp55
 70
     1
102
RTVSPropertyOp56
 70
     1
102
RTVSPropertyOp57
 70
     1
102
RTVSPropertyOp58
 70
     1
102
RTVSPropertyOp59
 70
     1
102
RTVSPropertyOp60
 70
     1
102
RTVSPropertyOp61
 70
     1
102
RTVSPropertyOp62
 70
     1
  0
XRECORD
  5
3D1
102
{ACAD_REACTORS
330
3D0
102
}
330
3D0
100
AcDbXrecord
280
     1
102
RTVSPost2010Prop28
280
     0
102
RTVSPost2010PropOp28
 70
     1
102
RTVSPost2010Prop29
280
     1
102
RTVSPost2010PropOp29
 70
     1
102
RTVSPost2010Prop30
280
     1
102
RTVSPost2010PropOp30
 70
     1
102
RTVSPost2010Prop31
280
     0
102
RTVSPost2010PropOp31
 70
     1
102
RTVSPost2010Prop32
280
     0
102
RTVSPost2010PropOp32
 70
     1
102
RTVSPost2010Prop33
280
     0
102
RTVSPost2010PropOp33
 70
     1
102
RTVSPost2010Prop34
280
     0
102
RTVSPost2010PropOp34
 70
     1
102
RTVSPost2010Prop35
280
     0
102
RTVSPost2010PropOp35
 70
     1
102
RTVSPost2010Prop36
280
     0
102
RTVSPost2010PropOp36
 70
     1
102
RTVSPost2010Prop37
 90
       50
102
RTVSPost2010PropOp37
 70
     1
102
RTVSPost2010Prop38
140
0.0
102
RTVSPost2010PropOp38
 70
     1
102
RTVSPost2010Prop39
140
1.0
102
RTVSPost2010PropOp39
 70
     1
102
RTVSPost2010Prop40
 90
        0
102
RTVSPost2010PropOp40
 70
     1
102
RTVSPost2010Prop41ColorIndex
 90
       18
102
RTVSPost2010Prop41ColorRGB
 90
        0
102
RTVSPost2010PropOp41
 70
     1
102
RTVSPost2010Prop42
 90
       50
102
RTVSPost2010PropOp42
 70
     1
102
RTVSPost2010Prop43
 90
        3
102
RTVSPost2010PropOp43
 70
     1
102
RTVSPost2010Prop44ColorIndex
 90
        5
102
RTVSPost2010Prop44ColorRGB
 90
      255
102
RTVSPost2010PropOp44
 70
     1
102
RTVSPost2010Prop45
280
     0
102
RTVSPost2010PropOp45
 70
     1
102
RTVSPost2010Prop46
 90
       50
102
RTVSPost2010PropOp46
 70
     1
102
RTVSPost2010Prop47
 90
       50
102
RTVSPost2010PropOp47
 70
     1
102
RTVSPost2010Prop48
 90
       50
102
RTVSPost2010PropOp48
 70
     1
102
RTVSPost2010Prop49
280
     0
102
RTVSPost2010PropOp49
 70
     1
102
RTVSPost2010Prop50
 90
       50
102
RTVSPost2010PropOp50
 70
     1
102
RTVSPost2010Prop51ColorIndex
 90
      256
102
RTVSPost2010Prop51ColorRGB
 90
-16777216
102
RTVSPost2010PropOp51
 70
     0
102
RTVSPost2010Prop52
140
1.0
102
RTVSPost2010PropOp52
 70
     0
102
RTVSPost2010Prop53
 90
        2
102
RTVSPost2010PropOp53
 70
     1
102
RTVSPost2010Prop54
  1
strokes_ogs.tif
102
RTVSPost2010PropOp54
 70
     1
102
RTVSPost2010Prop55
280
     0
102
RTVSPost2010PropOp55
 70
     1
102
RTVSPost2010Prop56
140
1.0
102
RTVSPost2010PropOp56
 70
     1
102
RTVSPost2010Prop57
140
1.0
102
RTVSPost2010PropOp57
 70
     1
102
RTVSPropertyOp0
 70
     1
102
RTVSPropertyOp1
 70
     1
102
RTVSPropertyOp2
 70
     1
102
RTVSPropertyOp3
 70
     1
102
RTVSPropertyOp4
 70
     1
102
RTVSPropertyOp5
 70
     1
102
RTVSPropertyOp6
 70
     1
102
RTVSPropertyOp7
 70
     1
102
RTVSPropertyOp8
 70
     1
102
RTVSPropertyOp9
 70
     1
102
RTVSPropertyOp10
 70
     1
102
RTVSPropertyOp11
 70
     1
102
RTVSPropertyOp12
 70
     1
102
RTVSPropertyOp13
 70
     1
102
RTVSPropertyOp14
 70
     1
102
RTVSPropertyOp15
 70
     1
102
RTVSPropertyOp16
 70
     1
102
RTVSPropertyOp17
 70
     1
102
RTVSPropertyOp18
 70
     1
102
RTVSPropertyOp19
 70
     1
102
RTVSPropertyOp20
 70
     1
102
RTVSPropertyOp21
 70
     1
102
RTVSPropertyOp22
 70
     1
102
RTVSPropertyOp23
 70
     1
102
RTVSPropertyOp24
 70
     1
102
RTVSPropertyOp25
 70
     1
102
RTVSPropertyOp26
 70
     1
102
RTVSPropertyOp27
 70
     1
102
RTVSPropertyOp28
 70
     1
102
RTVSPropertyOp29
 70
     1
102
RTVSPropertyOp30
 70
     1
102
RTVSPropertyOp31
 70
     1
102
RTVSPropertyOp32
 70
     1
102
RTVSPropertyOp33
 70
     1
102
RTVSPropertyOp34
 70
     1
102
RTVSPropertyOp35
 70
     1
102
RTVSPropertyOp36
 70
     1
102
RTVSPropertyOp37
 70
     1
102
RTVSPropertyOp38
 70
     1
102
RTVSPropertyOp39
 70
     1
102
RTVSPropertyOp40
 70
     1
102
RTVSPropertyOp41
 70
     1
102
RTVSPropertyOp42
 70
     1
102
RTVSPropertyOp43
 70
     1
102
RTVSPropertyOp44
 70
     1
102
RTVSPropertyOp45
 70
     1
102
RTVSPropertyOp46
 70
     1
102
RTVSPropertyOp47
 70
     1
102
RTVSPropertyOp48
 70
     1
102
RTVSPropertyOp49
 70
     1
102
RTVSPropertyOp50
 70
     1
102
RTVSPropertyOp51
 70
     0
102
RTVSPropertyOp52
 70
     0
102
RTVSPropertyOp53
 70
     1
102
RTVSPropertyOp54
 70
     1
102
RTVSPropertyOp55
 70
     1
102
RTVSPropertyOp56
 70
     1
102
RTVSPropertyOp57
 70
     1
102
RTVSPropertyOp58
 70
     1
102
RTVSPropertyOp59
 70
     1
102
RTVSPropertyOp60
 70
     1
102
RTVSPropertyOp61
 70
     1
102
RTVSPropertyOp62
 70
     1
  0
ENDSEC
  0
EOF
