  0
SECTION
  2
HEADER
  9
$ACADVER
  1
AC1015
  9
$ACADMAINTVER
 70
    18
  9
$DWGCODEPAGE
  3
ANSI_932
  9
$INSBASE
 10
0.0
 20
0.0
 30
0.0
  9
$EXTMIN
 10
-21.43215283377339
 20
0.0
 30
0.0
  9
$EXTMAX
 10
443.7806372268558
 20
178.1626699766161
 30
0.0
  9
$LIMMIN
 10
0.0
 20
0.0
  9
$LIMMAX
 10
420.0
 20
297.0
  9
$ORTHOMODE
 70
     1
  9
$REGENMODE
 70
     1
  9
$FILLMODE
 70
     1
  9
$QTEXTMODE
 70
     0
  9
$MIRRTEXT
 70
     1
  9
$LTSCALE
 40
1.0
  9
$ATTMODE
 70
     1
  9
$TEXTSIZE
 40
30.0
  9
$TRACEWID
 40
0.05
  9
$TEXTSTYLE
  7
SUNPOU
  9
$CLAYER
  8
0
  9
$CELTYPE
  6
BYLAYER
  9
$CECOLOR
 62
   256
  9
$CELTSCALE
 40
1.0
  9
$DISPSILH
 70
     0
  9
$DIMSCALE
 40
96.0
  9
$DIMASZ
 40
3.0
  9
$DIMEXO
 40
2.0
  9
$DIMDLI
 40
0.38
  9
$DIMRND
 40
0.0
  9
$DIMDLE
 40
0.0
  9
$DIMEXE
 40
0.0
  9
$DIMTP
 40
0.0
  9
$DIMTM
 40
0.0
  9
$DIMTXT
 40
2.799999999999998
  9
$DIMCEN
 40
1.0
  9
$DIMTSZ
 40
0.0
  9
$DIMTOL
 70
     0
  9
$DIMLIM
 70
     0
  9
$DIMTIH
 70
     0
  9
$DIMTOH
 70
     0
  9
$DIMSE1
 70
     0
  9
$DIMSE2
 70
     0
  9
$DIMTAD
 70
     1
  9
$DIMZIN
 70
     0
  9
$DIMBLK
  1

  9
$DIMASO
 70
     1
  9
$DIMSHO
 70
     1
  9
$DIMPOST
  1

  9
$DIMAPOST
  1

  9
$DIMALT
 70
     0
  9
$DIMALTD
 70
     2
  9
$DIMALTF
 40
25.4
  9
$DIMLFAC
 40
1.0
  9
$DIMTOFL
 70
     0
  9
$DIMTVP
 40
0.0
  9
$DIMTIX
 70
     1
  9
$DIMSOXD
 70
     0
  9
$DIMSAH
 70
     1
  9
$DIMBLK1
  1
DOTSMALL
  9
$DIMBLK2
  1
DOTSMALL
  9
$DIMSTYLE
  2
STANDARD
  9
$DIMCLRD
 70
    60
  9
$DIMCLRE
 70
    70
  9
$DIMCLRT
 70
    60
  9
$DIMTFAC
 40
0.0642857142857143
  9
$DIMGAP
 40
1.0
  9
$DIMJUST
 70
     0
  9
$DIMSD1
 70
     0
  9
$DIMSD2
 70
     0
  9
$DIMTOLJ
 70
     1
  9
$DIMTZIN
 70
     0
  9
$DIMALTZ
 70
     0
  9
$DIMALTTZ
 70
     0
  9
$DIMUPT
 70
     0
  9
$DIMDEC
 70
     4
  9
$DIMTDEC
 70
     4
  9
$DIMALTU
 70
     2
  9
$DIMALTTD
 70
     2
  9
$DIMTXSTY
  7
STANDARD
  9
$DIMAUNIT
 70
     0
  9
$DIMADEC
 70
     0
  9
$DIMALTRND
 40
0.0
  9
$DIMAZIN
 70
     0
  9
$DIMDSEP
 70
    46
  9
$DIMATFIT
 70
     3
  9
$DIMFRAC
 70
     0
  9
$DIMLDRBLK
  1
DOTSMALL
  9
$DIMLUNIT
 70
     2
  9
$DIMLWD
 70
    -2
  9
$DIMLWE
 70
    -2
  9
$DIMTMOVE
 70
     0
  9
$LUNITS
 70
     4
  9
$LUPREC
 70
     4
  9
$SKETCHINC
 40
0.1
  9
$FILLETRAD
 40
0.8
  9
$AUNITS
 70
     0
  9
$AUPREC
 70
     2
  9
$MENU
  1
acad
  9
$ELEVATION
 40
0.0
  9
$PELEVATION
 40
0.0
  9
$THICKNESS
 40
0.0
  9
$LIMCHECK
 70
     0
  9
$CHAMFERA
 40
0.0
  9
$CHAMFERB
 40
0.0
  9
$CHAMFERC
 40
0.0
  9
$CHAMFERD
 40
0.0
  9
$SKPOLY
 70
     0
  9
$TDCREATE
 40
2450623.676023380
  9
$TDUCREATE
 40
2450623.301023380
  9
$TDUPDATE
 40
2453882.372238843
  9
$TDUUPDATE
 40
2453881.997238843
  9
$TDINDWG
 40
3.4674252546
  9
$TDUSRTIMER
 40
3.4674248727
  9
$USRTIMER
 70
     1
  9
$ANGBASE
 50
0.0
  9
$ANGDIR
 70
     0
  9
$PDMODE
 70
     0
  9
$PDSIZE
 40
0.0
  9
$PLINEWID
 40
0.0
  9
$SPLFRAME
 70
     0
  9
$SPLINETYPE
 70
     6
  9
$SPLINESEGS
 70
     8
  9
$HANDSEED
  5
273
  9
$SURFTAB1
 70
     6
  9
$SURFTAB2
 70
     6
  9
$SURFTYPE
 70
     6
  9
$SURFU
 70
     6
  9
$SURFV
 70
     6
  9
$UCSBASE
  2

  9
$UCSNAME
  2

  9
$UCSORG
 10
0.0
 20
0.0
 30
0.0
  9
$UCSXDIR
 10
1.0
 20
0.0
 30
0.0
  9
$UCSYDIR
 10
0.0
 20
1.0
 30
0.0
  9
$UCSORTHOREF
  2

  9
$UCSORTHOVIEW
 70
     0
  9
$UCSORGTOP
 10
0.0
 20
0.0
 30
0.0
  9
$UCSORGBOTTOM
 10
0.0
 20
0.0
 30
0.0
  9
$UCSORGLEFT
 10
0.0
 20
0.0
 30
0.0
  9
$UCSORGRIGHT
 10
0.0
 20
0.0
 30
0.0
  9
$UCSORGFRONT
 10
0.0
 20
0.0
 30
0.0
  9
$UCSORGBACK
 10
0.0
 20
0.0
 30
0.0
  9
$PUCSBASE
  2

  9
$PUCSNAME
  2

  9
$PUCSORG
 10
0.0
 20
0.0
 30
0.0
  9
$PUCSXDIR
 10
1.0
 20
0.0
 30
0.0
  9
$PUCSYDIR
 10
0.0
 20
1.0
 30
0.0
  9
$PUCSORTHOREF
  2

  9
$PUCSORTHOVIEW
 70
     0
  9
$PUCSORGTOP
 10
0.0
 20
0.0
 30
0.0
  9
$PUCSORGBOTTOM
 10
0.0
 20
0.0
 30
0.0
  9
$PUCSORGLEFT
 10
0.0
 20
0.0
 30
0.0
  9
$PUCSORGRIGHT
 10
0.0
 20
0.0
 30
0.0
  9
$PUCSORGFRONT
 10
0.0
 20
0.0
 30
0.0
  9
$PUCSORGBACK
 10
0.0
 20
0.0
 30
0.0
  9
$USERI1
 70
     0
  9
$USERI2
 70
     0
  9
$USERI3
 70
     0
  9
$USERI4
 70
     0
  9
$USERI5
 70
     0
  9
$USERR1
 40
0.0
  9
$USERR2
 40
0.0
  9
$USERR3
 40
0.0
  9
$USERR4
 40
0.0
  9
$USERR5
 40
0.0
  9
$WORLDVIEW
 70
     1
  9
$SHADEDGE
 70
     3
  9
$SHADEDIF
 70
    70
  9
$TILEMODE
 70
     1
  9
$MAXACTVP
 70
    16
  9
$PINSBASE
 10
0.0
 20
0.0
 30
0.0
  9
$PLIMCHECK
 70
     0
  9
$PEXTMIN
 10
1.000000000000000E+20
 20
1.000000000000000E+20
 30
1.000000000000000E+20
  9
$PEXTMAX
 10
-1.000000000000000E+20
 20
-1.000000000000000E+20
 30
-1.000000000000000E+20
  9
$PLIMMIN
 10
0.0
 20
0.0
  9
$PLIMMAX
 10
12.0
 20
9.0
  9
$UNITMODE
 70
     0
  9
$VISRETAIN
 70
     0
  9
$PLINEGEN
 70
     0
  9
$PSLTSCALE
 70
     1
  9
$TREEDEPTH
 70
  3020
  9
$CMLSTYLE
  2
STANDARD
  9
$CMLJUST
 70
     0
  9
$CMLSCALE
 40
1.0
  9
$PROXYGRAPHICS
 70
     1
  9
$MEASUREMENT
 70
     0
  9
$CELWEIGHT
370
    -1
  9
$ENDCAPS
280
     0
  9
$JOINSTYLE
280
     0
  9
$LWDISPLAY
290
     0
  9
$INSUNITS
 70
     0
  9
$HYPERLINKBASE
  1

  9
$STYLESHEET
  1

  9
$XEDIT
290
     1
  9
$CEPSNTYPE
380
     0
  9
$PSTYLEMODE
290
     1
  9
$FINGERPRINTGUID
  2
{46953F94-57B1-4830-8768-AACBE9EDC5E5}
  9
$VERSIONGUID
  2
{F1C40606-5239-44E5-951E-BA9F77DE2661}
  9
$EXTNAMES
290
     1
  9
$PSVPSCALE
 40
0.0
  9
$OLESTARTUP
290
     0
  0
ENDSEC
  0
SECTION
  2
CLASSES
  0
CLASS
  1
DICTIONARYVAR
  2
AcDbDictionaryVar
  3
ObjectDBX Classes
 90
        0
280
     0
281
     0
  0
CLASS
  1
RASTERVARIABLES
  2
AcDbRasterVariables
  3
ISM
 90
    32768
280
     0
281
     0
  0
CLASS
  1
ACDBDICTIONARYWDFLT
  2
AcDbDictionaryWithDefault
  3
ObjectDBX Classes
 90
        0
280
     0
281
     0
  0
CLASS
  1
ACDBPLACEHOLDER
  2
AcDbPlaceHolder
  3
ObjectDBX Classes
 90
        0
280
     0
281
     0
  0
CLASS
  1
LAYOUT
  2
AcDbLayout
  3
ObjectDBX Classes
 90
        0
280
     0
281
     0
  0
CLASS
  1
AEC_VARS_DWG_SETUP
  2
AecDbVarsDwgSetup
  3
AecBase
 90
    32897
280
     1
281
     0
  0
CLASS
  1
AEC_DISP_REP_MASS_ELEM_MODEL
  2
AecDbDispRepMassElemModel
  3
AecBase
 90
    32897
280
     1
281
     0
  0
CLASS
  1
AEC_DISP_PROPS_MASS_ELEM_MODEL
  2
AecDbDispPropsMassElem
  3
AecBase
 90
    32897
280
     1
281
     0
  0
CLASS
  1
AEC_DISP_REP_MASS_ELEM_SCHEM
  2
AecDbDispRepMassElemSchem
  3
AecBase
 90
    32897
280
     1
281
     0
  0
CLASS
  1
AEC_DISP_REP_DOOR_ELEV
  2
AecDbDispRepDoorElev
  3
AecArchBase
 90
    32897
280
     1
281
     0
  0
CLASS
  1
AEC_DISP_PROPS_DOOR
  2
AecDbDispPropsDoor
  3
AecArchBase
 90
    32897
280
     1
281
     0
  0
CLASS
  1
AEC_DISP_REP_MASKBLOCK_REF
  2
AecDbDispRepMaskBlockRef
  3
AecBase
 90
    32897
280
     1
281
     0
  0
CLASS
  1
AEC_DISP_PROPS_MASKBLOCK
  2
AecDbDispPropsMaskBlock
  3
AecBase
 90
    32897
280
     1
281
     0
  0
CLASS
  1
AEC_DISP_REP_LAYOUT_GRID3D
  2
AecDbDispRepLayoutGrid3d
  3
AecBase
 90
    32897
280
     1
281
     0
  0
CLASS
  1
AEC_DISP_PROPS_LAYOUT_GRID3D
  2
AecDbDispPropsLayoutGrid3d
  3
AecBase
 90
    32897
280
     1
281
     0
  0
CLASS
  1
AEC_DISP_REP_ENT_REF
  2
AecDbDispRepEntRef
  3
AecBase
 90
    32897
280
     1
281
     0
  0
CLASS
  1
AEC_DISP_PROPS_ENT_REF
  2
AecDbDispPropsEntRef
  3
AecBase
 90
    32897
280
     1
281
     0
  0
CLASS
  1
AEC_DISP_REP_CLIP_VOLUME_RESULT_SUBDIV
  2
AecDbDispRepClipVolResSubDiv
  3
AecBase
 90
    32897
280
     1
281
     0
  0
CLASS
  1
AEC_DISP_PROPS_CLIP_VOLUME_RESULT
  2
AecDbDispPropsClipVolResSubDiv
  3
AecBase
 90
    32897
280
     1
281
     0
  0
CLASS
  1
AEC_DISP_REP_CLIP_VOLUME_RESULT
  2
AecDbDispRepClipVolResult
  3
AecBase
 90
    32897
280
     1
281
     0
  0
CLASS
  1
AEC_DISP_REP_CLIP_VOLUME_PLAN
  2
AecDbDispRepClipVolPlan
  3
AecBase
 90
    32897
280
     1
281
     0
  0
CLASS
  1
AEC_DISP_PROPS_CLIP_VOLUME
  2
AecDbDispPropsClipVol
  3
AecBase
 90
    32897
280
     1
281
     0
  0
CLASS
  1
AEC_DISP_REP_CLIP_VOLUME_MODEL
  2
AecDbDispRepClipVolModel
  3
AecBase
 90
    32897
280
     1
281
     0
  0
CLASS
  1
AEC_DISP_REP_ANCHOR_ENT_TO_NODE
  2
AecDbDispRepAnchorEntToNode
  3
AecBase
 90
    32897
280
     1
281
     0
  0
CLASS
  1
AEC_DISP_PROPS_ENT
  2
AecDbDispPropsEnt
  3
AecBase
 90
    32897
280
     1
281
     0
  0
CLASS
  1
AEC_DISP_REP_LAYOUT_GRID2D
  2
AecDbDispRepLayoutGrid2d
  3
AecBase
 90
    32897
280
     1
281
     0
  0
CLASS
  1
AEC_DISP_PROPS_LAYOUT_GRID2D
  2
AecDbDispPropsLayoutGrid2d
  3
AecBase
 90
    32897
280
     1
281
     0
  0
CLASS
  1
AEC_DISP_REP_LAYOUT_CURVE
  2
AecDbDispRepLayoutCurve
  3
AecBase
 90
    32897
280
     1
281
     0
  0
CLASS
  1
AEC_DISP_PROPS_LAYOUT_CURVE
  2
AecDbDispPropsLayoutCurve
  3
AecBase
 90
    32897
280
     1
281
     0
  0
CLASS
  1
AEC_DISP_REP_ANCHOR
  2
AecDbDispRepAnchor
  3
AecBase
 90
    32897
280
     1
281
     0
  0
CLASS
  1
AEC_DISP_REP_CAMERA
  2
AecDbDispRepCamera
  3
AecBase
 90
    32897
280
     1
281
     0
  0
CLASS
  1
AEC_DISP_PROPS_CAMERA
  2
AecDbDispPropsCamera
  3
AecBase
 90
    32897
280
     1
281
     0
  0
CLASS
  1
AEC_DISP_REP_SLICE
  2
AecDbDispRepSlice
  3
AecBase
 90
    32897
280
     1
281
     0
  0
CLASS
  1
AEC_DISP_PROPS_SLICE
  2
AecDbDispPropsSlice
  3
AecBase
 90
    32897
280
     1
281
     0
  0
CLASS
  1
AEC_DISP_REP_MVBLOCK_REF
  2
AecDbDispRepMvBlockRef
  3
AecBase
 90
    32897
280
     1
281
     0
  0
CLASS
  1
AEC_DISP_REP_MVBLOCK_REF_MODEL
  2
AecDbDispRepMvBlockRefModel
  3
AecBase
 90
    32897
280
     1
281
     0
  0
CLASS
  1
AEC_DISP_REP_MASS_GROUP_MODEL
  2
AecDbDispRepMassGroupModel
  3
AecBase
 90
    32897
280
     1
281
     0
  0
CLASS
  1
AEC_DISP_PROPS_MASS_GROUP
  2
AecDbDispPropsMassGroup
  3
AecBase
 90
    32897
280
     1
281
     0
  0
CLASS
  1
AEC_DISP_REP_MASS_GROUP_PLAN
  2
AecDbDispRepMassGroupPlan
  3
AecBase
 90
    32897
280
     1
281
     0
  0
CLASS
  1
AEC_DISP_REP_DOOR_RCP
  2
AecDbDispRepDoorRcp
  3
AecArchBase
 90
    32897
280
     1
281
     0
  0
CLASS
  1
AEC_DISP_REP_DOOR_NOMINAL
  2
AecDbDispRepDoorNominal
  3
AecArchBase
 90
    32897
280
     1
281
     0
  0
CLASS
  1
AEC_DISP_PROPS_DOOR_NOMINAL
  2
AecDbDispPropsDoorNominal
  3
AecArchBase
 90
    32897
280
     1
281
     0
  0
CLASS
  1
AEC_DISP_REP_DOOR_PLAN
  2
AecDbDispRepDoorPlan
  3
AecArchBase
 90
    32897
280
     1
281
     0
  0
CLASS
  1
AEC_DISP_REP_DOOR_MODEL
  2
AecDbDispRepDoorModel
  3
AecArchBase
 90
    32897
280
     1
281
     0
  0
CLASS
  1
AEC_DISP_REP_MVBLOCK_REF_RCP
  2
AecDbDispRepMvBlockRefRcp
  3
AecArchBase
 90
    32897
280
     1
281
     0
  0
CLASS
  1
AEC_DISP_REP_MASS_GROUP_RCP
  2
AecDbDispRepMassGroupRcp
  3
AecArchBase
 90
    32897
280
     1
281
     0
  0
CLASS
  1
AEC_DISP_REP_MASS_ELEM_RCP
  2
AecDbDispRepMassElemRcp
  3
AecArchBase
 90
    32897
280
     1
281
     0
  0
CLASS
  1
AEC_DISP_REP_MASKBLOCK_REF_RCP
  2
AecDbDispRepMaskBlockRefRcp
  3
AecArchBase
 90
    32897
280
     1
281
     0
  0
CLASS
  1
AEC_DISP_REP_COLUMN_GRID_RCP
  2
AecDbDispRepColumnGridRcp
  3
AecArchBase
 90
    32897
280
     1
281
     0
  0
CLASS
  1
AEC_DISP_REP_COLUMN_GRID_MODEL
  2
AecDbDispRepColumnGridModel
  3
AecArchBase
 90
    32897
280
     1
281
     0
  0
CLASS
  1
AEC_DISP_REP_COLUMN_GRID
  2
AecDbDispRepColumnGrid
  3
AecArchBase
 90
    32897
280
     1
281
     0
  0
CLASS
  1
AEC_DISP_REP_CEILING_GRID_RCP
  2
AecDbDispRepCeilingGridRcp
  3
AecArchBase
 90
    32897
280
     1
281
     0
  0
CLASS
  1
AEC_DISP_REP_CEILING_GRID_MODEL
  2
AecDbDispRepCeilingGridModel
  3
AecArchBase
 90
    32897
280
     1
281
     0
  0
CLASS
  1
AEC_DISP_REP_CEILING_GRID
  2
AecDbDispRepCeilingGrid
  3
AecArchBase
 90
    33661
280
     1
281
     0
  0
CLASS
  1
AEC_DISP_REP_BDG_SECTION_SUBDIV
  2
AecDbDispRepBdgSectionSubDiv
  3
AecArchBase
 90
    32897
280
     1
281
     0
  0
CLASS
  1
AEC_DISP_REP_BDG_SECTION_MODEL
  2
AecDbDispRepBdgSectionModel
  3
AecArchBase
 90
    32897
280
     1
281
     0
  0
CLASS
  1
AEC_DISP_REP_BDG_SECTIONLINE_RCP
  2
AecDbDispRepBdgSectionLineRcp
  3
AecArchBase
 90
    32897
280
     1
281
     0
  0
CLASS
  1
AEC_DISP_REP_BDG_SECTIONLINE_PLAN
  2
AecDbDispRepBdgSectionLinePlan
  3
AecArchBase
 90
    32897
280
     1
281
     0
  0
CLASS
  1
AEC_DISP_REP_BDG_ELEVLINE_RCP
  2
AecDbDispRepBdgElevLineRcp
  3
AecArchBase
 90
    32897
280
     1
281
     0
  0
CLASS
  1
AEC_DISP_REP_BDG_ELEVLINE_PLAN
  2
AecDbDispRepBdgElevLinePlan
  3
AecArchBase
 90
    32897
280
     1
281
     0
  0
CLASS
  1
AEC_DISP_REP_BDG_SECTIONLINE_MODEL
  2
AecDbDispRepBdgSectionLineModel
  3
AecArchBase
 90
    32897
280
     1
281
     0
  0
CLASS
  1
AEC_DISP_REP_BDG_ELEVLINE_MODEL
  2
AecDbDispRepBdgElevLineModel
  3
AecArchBase
 90
    32897
280
     1
281
     0
  0
CLASS
  1
AEC_DISP_REP_ANCHOR_BUB_TO_GRID_RCP
  2
AecDbDispRepAnchorBubToGridRcp
  3
AecArchBase
 90
    32897
280
     1
281
     0
  0
CLASS
  1
AEC_DISP_REP_ANCHOR_BUB_TO_GRID_MODEL
  2
AecDbDispRepAnchorBubToGridMdl
  3
AecArchBase
 90
    32897
280
     1
281
     0
  0
CLASS
  1
AEC_DISP_REP_ANCHOR_BUB_TO_GRID
  2
AecDbDispRepAnchorBubToGrid
  3
AecArchBase
 90
    32897
280
     1
281
     0
  0
CLASS
  1
AEC_DISP_REP_WINDOW_RCP
  2
AecDbDispRepWindowRcp
  3
AecArchBase
 90
    32897
280
     1
281
     0
  0
CLASS
  1
AEC_DISP_PROPS_WINDOW
  2
AecDbDispPropsWindow
  3
AecArchBase
 90
    32897
280
     1
281
     0
  0
CLASS
  1
AEC_DISP_REP_ROOF_RCP
  2
AecDbDispRepRoofRcp
  3
AecArchBase
 90
    32897
280
     1
281
     0
  0
CLASS
  1
AEC_DISP_PROPS_ROOF
  2
AecDbDispPropsRoof
  3
AecArchBase
 90
    32897
280
     1
281
     0
  0
CLASS
  1
AEC_DISP_REP_ROOF_PLAN
  2
AecDbDispRepRoofPlan
  3
AecArchBase
 90
    32897
280
     1
281
     0
  0
CLASS
  1
AEC_DISP_REP_WINDOW_SILL_PLAN
  2
AecDbDispRepWindowSillPlan
  3
AecArchBase
 90
    32897
280
     1
281
     0
  0
CLASS
  1
AEC_DISP_PROPS_WINDOW_SILL_PLAN
  2
AecDbDispPropsWindowSillPlan
  3
AecArchBase
 90
    32897
280
     1
281
     0
  0
CLASS
  1
AEC_DISP_REP_SPACE_PLAN
  2
AecDbDispRepSpacePlan
  3
AecArchBase
 90
    32897
280
     1
281
     0
  0
CLASS
  1
AEC_DISP_PROPS_SPACE_PLAN
  2
AecDbDispPropsSpacePlan
  3
AecArchBase
 90
    32897
280
     1
281
     0
  0
CLASS
  1
AEC_DISP_REP_SPACE_MODEL
  2
AecDbDispRepSpaceModel
  3
AecArchBase
 90
    32897
280
     1
281
     0
  0
CLASS
  1
AEC_DISP_PROPS_SPACE_MODEL
  2
AecDbDispPropsSpaceModel
  3
AecArchBase
 90
    32897
280
     1
281
     0
  0
CLASS
  1
AEC_DISP_REP_WINDOW_MODEL
  2
AecDbDispRepWindowModel
  3
AecArchBase
 90
    32897
280
     1
281
     0
  0
CLASS
  1
AEC_DISP_REP_WINDOW_NOMINAL
  2
AecDbDispRepWindowNominal
  3
AecArchBase
 90
    32897
280
     1
281
     0
  0
CLASS
  1
AEC_DISP_PROPS_WINDOW_NOMINAL
  2
AecDbDispPropsWindowNominal
  3
AecArchBase
 90
    32897
280
     1
281
     0
  0
CLASS
  1
AEC_DISP_REP_OPENING
  2
AecDbDispRepOpening
  3
AecArchBase
 90
    32897
280
     1
281
     0
  0
CLASS
  1
AEC_DISP_PROPS_OPENING
  2
AecDbDispPropsOpening
  3
AecArchBase
 90
    32897
280
     1
281
     0
  0
CLASS
  1
AEC_DISP_REP_OPENING_MODEL
  2
AecDbDispRepOpeningModel
  3
AecArchBase
 90
    32897
280
     1
281
     0
  0
CLASS
  1
AEC_DISP_REP_RAILING_PLAN
  2
AecDbDispRepRailingPlan
  3
AecArchBase
 90
    32897
280
     1
281
     0
  0
CLASS
  1
AEC_DISP_PROPS_RAILING_PLAN
  2
AecDbDispPropsRailingPlan
  3
AecArchBase
 90
    32897
280
     1
281
     0
  0
CLASS
  1
AEC_DISP_REP_RAILING_MODEL
  2
AecDbDispRepRailingModel
  3
AecArchBase
 90
    32897
280
     1
281
     0
  0
CLASS
  1
AEC_DISP_PROPS_RAILING_MODEL
  2
AecDbDispPropsRailingModel
  3
AecArchBase
 90
    32897
280
     1
281
     0
  0
CLASS
  1
AEC_DISP_REP_WINDOW_ELEV
  2
AecDbDispRepWindowElev
  3
AecArchBase
 90
    32897
280
     1
281
     0
  0
CLASS
  1
AEC_DISP_REP_DOOR_THRESHOLD_PLAN
  2
AecDbDispRepDoorThresholdPlan
  3
AecArchBase
 90
    32897
280
     1
281
     0
  0
CLASS
  1
AEC_DISP_PROPS_DOOR_THRESHOLD_PLAN
  2
AecDbDispPropsDoorThresholdPlan
  3
AecArchBase
 90
    32897
280
     1
281
     0
  0
CLASS
  1
AEC_DISP_REP_ROOF_MODEL
  2
AecDbDispRepRoofModel
  3
AecArchBase
 90
    32897
280
     1
281
     0
  0
CLASS
  1
AEC_DISP_REP_WINDOW_PLAN
  2
AecDbDispRepWindowPlan
  3
AecArchBase
 90
    32897
280
     1
281
     0
  0
CLASS
  1
AEC_DISP_REP_WALL_SCHEM
  2
AecDbDispRepWallSchem
  3
AecArchBase
 90
    32897
280
     1
281
     0
  0
CLASS
  1
AEC_DISP_PROPS_WALL_SCHEM
  2
AecDbDispPropsWallSchem
  3
AecArchBase
 90
    32897
280
     1
281
     0
  0
CLASS
  1
AEC_DISP_REP_WALL_RCP
  2
AecDbDispRepWallRcp
  3
AecArchBase
 90
    32897
280
     1
281
     0
  0
CLASS
  1
AEC_DISP_PROPS_WALL_PLAN
  2
AecDbDispPropsWallPlan
  3
AecArchBase
 90
    32897
280
     1
281
     0
  0
CLASS
  1
AEC_DISP_REP_WALL_PLAN
  2
AecDbDispRepWallPlan
  3
AecArchBase
 90
    32897
280
     1
281
     0
  0
CLASS
  1
AEC_DISP_REP_WALL_MODEL
  2
AecDbDispRepWallModel
  3
AecArchBase
 90
    32897
280
     1
281
     0
  0
CLASS
  1
AEC_DISP_PROPS_WALL
  2
AecDbDispPropsWall
  3
AecArchBase
 90
    32897
280
     1
281
     0
  0
CLASS
  1
AEC_DISP_REP_WALL_GRAPH
  2
AecDbDispRepWallGraph
  3
AecArchBase
 90
    32897
280
     1
281
     0
  0
CLASS
  1
AEC_DISP_REP_STAIR_RCP
  2
AecDbDispRepStairRcp
  3
AecArchBase
 90
    32897
280
     1
281
     0
  0
CLASS
  1
AEC_DISP_PROPS_STAIR_PLAN
  2
AecDbDispPropsStairPlan
  3
AecArchBase
 90
    32897
280
     1
281
     0
  0
CLASS
  1
AEC_DISP_REP_STAIR_PLAN
  2
AecDbDispRepStairPlan
  3
AecArchBase
 90
    32897
280
     1
281
     0
  0
CLASS
  1
AEC_DISP_REP_STAIR_MODEL
  2
AecDbDispRepStairModel
  3
AecArchBase
 90
    32897
280
     1
281
     0
  0
CLASS
  1
AEC_DISP_PROPS_STAIR_MODEL
  2
AecDbDispPropsStairModel
  3
AecArchBase
 90
    32897
280
     1
281
     0
  0
CLASS
  1
AEC_DISP_REP_SPACE_BOUNDARY_SCHEM
  2
AecDbDispRepSpaceBoundarySketch
  3
AecArchBase
 90
    32897
280
     1
281
     0
  0
CLASS
  1
AEC_DISP_REP_SPACE_BOUNDARY_PLAN
  2
AecDbDispRepSpaceBoundaryPlan
  3
AecArchBase
 90
    32897
280
     1
281
     0
  0
CLASS
  1
AEC_DISP_REP_SPACE_BOUNDARY_MODEL
  2
AecDbDispRepSpaceBoundaryModel
  3
AecArchBase
 90
    32897
280
     1
281
     0
  0
CLASS
  1
AEC_DISP_REP_SPACE_BOUNDARY_DIAGRAM
  2
AecDbDispRepSpaceBoundaryDgrm
  3
AecArchBase
 90
    32897
280
     1
281
     0
  0
CLASS
  1
AEC_DISP_REP_SPACE_VOLUME
  2
AecDbDispRepSpaceVolume
  3
AecArchBase
 90
    32897
280
     1
281
     0
  0
CLASS
  1
AEC_DISP_REP_SPACE_RCP
  2
AecDbDispRepSpaceRcp
  3
AecArchBase
 90
    32897
280
     1
281
     0
  0
CLASS
  1
AEC_DISP_REP_ANCHOR_TAG_TO_ENT
  2
AecDbDispRepAnchorTagToEnt
  3
AecScheduleData
 90
    32897
280
     1
281
     0
  0
CLASS
  1
AEC_DISP_REP_SCHEDULE_TABLE
  2
AecDbDispRepScheduleTable
  3
AecSchedule
 90
    32897
280
     1
281
     0
  0
CLASS
  1
AEC_DISP_PROPS_SCHEDULE_TABLE
  2
AecDbDispPropsScheduleTable
  3
AecSchedule
 90
    32897
280
     1
281
     0
  0
CLASS
  1
AEC_DISP_REP_SET
  2
AecDbDispRepSet
  3
AecBase
 90
    32897
280
     1
281
     0
  0
CLASS
  1
AEC_DISP_REP_CONFIG
  2
AecDbDispRepConfig
  3
AecBase
 90
    32897
280
     1
281
     0
  0
CLASS
  1
IMAGEDEF
  2
AcDbRasterImageDef
  3
ISM
 90
    32768
280
     0
281
     0
  0
CLASS
  1
IMAGEDEF_REACTOR
  2
AcDbRasterImageDefReactor
  3
ISM
 90
    32769
280
     0
281
     0
  0
CLASS
  1
IMAGE
  2
AcDbRasterImage
  3
ISM
 90
    34943
280
     0
281
     1
  0
CLASS
  1
TABLESTYLE
  2
AcDbTableStyle
  3
ObjectDBX Classes
 90
     4095
280
     0
281
     0
  0
CLASS
  1
MATERIAL
  2
AcDbMaterial
  3
ObjectDBX Classes
 90
     1153
280
     0
281
     0
  0
CLASS
  1
VISUALSTYLE
  2
AcDbVisualStyle
  3
ObjectDBX Classes
 90
     4095
280
     0
281
     0
  0
CLASS
  1
SCALE
  2
AcDbScale
  3
ObjectDBX Classes
 90
     1153
280
     0
281
     0
  0
CLASS
  1
MLEADERSTYLE
  2
AcDbMLeaderStyle
  3
ACDB_MLEADERSTYLE_CLASS
 90
    36863
280
     0
281
     0
  0
CLASS
  1
ACDBSECTIONVIEWSTYLE
  2
AcDbSectionViewStyle
  3
ObjectDBX Classes
 90
    33793
280
     0
281
     0
  0
CLASS
  1
ACDBDETAILVIEWSTYLE
  2
AcDbDetailViewStyle
  3
ObjectDBX Classes
 90
    33793
280
     0
281
     0
  0
CLASS
  1
CELLSTYLEMAP
  2
AcDbCellStyleMap
  3
ObjectDBX Classes
 90
     1152
280
     0
281
     0
  0
ENDSEC
  0
SECTION
  2
TABLES
  0
TABLE
  2
VPORT
  5
2F
330
0
100
AcDbSymbolTable
 70
     1
  0
VPORT
  5
30
330
2F
100
AcDbSymbolTableRecord
100
AcDbViewportTableRecord
  2
*Active
 70
     0
 10
0.0
 20
0.0
 11
1.0
 21
1.0
 12
216.7163156880406
 22
91.10962830841065
 13
0.0
 23
0.0
 14
1.0
 24
1.0
 15
0.0
 25
0.0
 16
0.0
 26
0.0
 36
1.0
 17
0.0
 27
0.0
 37
0.0
 40
337.1648264774509
 41
2.043307086614173
 42
50.0
 43
0.0
 44
0.0
 50
0.0
 51
0.0
 71
     0
 72
 20000
 73
     1
 74
     1
 75
     0
 76
     0
 77
     0
 78
     0
281
     0
 65
     1
110
0.0
120
0.0
130
0.0
111
1.0
121
0.0
131
0.0
112
0.0
122
1.0
132
0.0
 79
     0
146
0.0
1001
ACAD_NAV_VCDISPLAY
1070
     3
  0
ENDTAB
  0
TABLE
  2
LTYPE
  5
2A
330
0
100
AcDbSymbolTable
 70
     1
  0
LTYPE
  5
2B
330
2A
100
AcDbSymbolTableRecord
100
AcDbLinetypeTableRecord
  2
BYBLOCK
 70
     0
  3

 72
    65
 73
     0
 40
0.0
  0
LTYPE
  5
2C
330
2A
100
AcDbSymbolTableRecord
100
AcDbLinetypeTableRecord
  2
BYLAYER
 70
     0
  3

 72
    65
 73
     0
 40
0.0
  0
LTYPE
  5
14
330
2A
100
AcDbSymbolTableRecord
100
AcDbLinetypeTableRecord
  2
CONTINUOUS
 70
     0
  3
Solid line
 72
    65
 73
     0
 40
0.0
  0
ENDTAB
  0
TABLE
  2
LAYER
  5
26
330
0
100
AcDbSymbolTable
 70
     6
  0
LAYER
  5
7
330
26
100
AcDbSymbolTableRecord
100
AcDbLayerTableRecord
  2
0
 70
     0
 62
     7
  6
CONTINUOUS
370
    -3
390
8
  0
LAYER
  5
6D
330
26
100
AcDbSymbolTableRecord
100
AcDbLayerTableRecord
  2
DEFPOINTS
 70
     0
 62
     7
  6
CONTINUOUS
290
     0
370
    -3
390
8
  0
LAYER
  5
62
330
26
100
AcDbSymbolTableRecord
100
AcDbLayerTableRecord
  2
SUNPOU
 70
     0
 62
    70
  6
CONTINUOUS
370
    -3
390
8
  0
LAYER
  5
85
330
26
100
AcDbSymbolTableRecord
100
AcDbLayerTableRecord
  2
KIJUN
 70
     0
 62
     7
  6
CONTINUOUS
370
    -3
390
8
  0
LAYER
  5
24D
330
26
100
AcDbSymbolTableRecord
100
AcDbLayerTableRecord
  2
HOJO
 70
     0
 62
     3
  6
CONTINUOUS
370
    -3
390
8
  0
LAYER
  5
24F
330
26
100
AcDbSymbolTableRecord
100
AcDbLayerTableRecord
  2
WAKU
 70
     0
 62
     1
  6
CONTINUOUS
370
    -3
390
8
  0
ENDTAB
  0
TABLE
  2
STYLE
  5
27
330
0
100
AcDbSymbolTable
 70
     3
  0
STYLE
  5
28
330
27
100
AcDbSymbolTableRecord
100
AcDbTextStyleTableRecord
  2
STANDARD
 70
     0
 40
0.0
 41
1.0
 50
0.0
 71
     0
 42
0.2
  3
txt
  4

  0
STYLE
  5
4B
330
27
100
AcDbSymbolTableRecord
100
AcDbTextStyleTableRecord
  2
SUNPOU
 70
     0
 40
0.0
 41
1.0
 50
0.0
 71
     0
 42
30.0
  3
txt
  4
bigfont
  0
STYLE
  5
6B
330
27
100
AcDbSymbolTableRecord
100
AcDbTextStyleTableRecord
  2
LIFE
 70
     0
 40
0.0
 41
0.7
 50
0.0
 71
     0
 42
10.0
  3
romans
  4
extfont
  0
ENDTAB
  0
TABLE
  2
VIEW
  5
2D
330
0
100
AcDbSymbolTable
 70
     0
  0
ENDTAB
  0
TABLE
  2
UCS
  5
2E
330
0
100
AcDbSymbolTable
 70
     0
  0
ENDTAB
  0
TABLE
  2
APPID
  5
34
330
0
100
AcDbSymbolTable
 70
     2
  0
APPID
  5
5
330
34
100
AcDbSymbolTableRecord
100
AcDbRegAppTableRecord
  2
ACAD
 70
     0
  0
APPID
  5
33
330
34
100
AcDbSymbolTableRecord
100
AcDbRegAppTableRecord
  2
ACAD_NAV_VCDISPLAY
 70
     0
  0
ENDTAB
  0
TABLE
  2
DIMSTYLE
  5
35
330
0
100
AcDbSymbolTable
 70
     2
100
AcDbDimStyleTable
 71
     1
340
36
  0
DIMSTYLE
105
36
330
35
100
AcDbSymbolTableRecord
100
AcDbDimStyleTableRecord
  2
STANDARD
 70
     0
 41
3.0
 42
2.0
 44
0.0
 73
     0
 74
     0
 77
     1
140
2.799999999999998
141
1.0
146
0.0642857142857143
147
1.0
173
     1
174
     1
176
    60
177
    70
178
    60
271
     0
340
28
341
37
343
37
344
37
  0
DIMSTYLE
105
71
102
{ACAD_REACTORS
330
77
330
61
102
}
330
35
100
AcDbSymbolTableRecord
100
AcDbDimStyleTableRecord
  2
STANDARD$0
 70
     0
 40
2.0
 41
1.0
 42
2.0
 43
0.0
 44
1.0
 73
     0
 74
     0
 77
     3
 78
     9
140
4.5
141
0.0
147
1.0
172
     1
173
     1
178
     3
271
     2
340
6B
341
72
343
72
344
72
  0
ENDTAB
  0
TABLE
  2
BLOCK_RECORD
  5
1
330
0
100
AcDbSymbolTable
 70
     4
  0
BLOCK_RECORD
  5
2
102
{ACAD_XDICTIONARY
360
3
102
}
330
1
100
AcDbSymbolTableRecord
100
AcDbBlockTableRecord
  2
*MODEL_SPACE
340
1E
  0
BLOCK_RECORD
  5
20
102
{ACAD_XDICTIONARY
360
21
102
}
330
1
100
AcDbSymbolTableRecord
100
AcDbBlockTableRecord
  2
*PAPER_SPACE
340
25
  0
BLOCK_RECORD
  5
37
330
1
100
AcDbSymbolTableRecord
100
AcDbBlockTableRecord
  2
_DOTSMALL
340
0
102
{BLKREFS
331
68
331
69
331
7D
331
7E
102
}
  0
BLOCK_RECORD
  5
72
330
1
100
AcDbSymbolTableRecord
100
AcDbBlockTableRecord
  2
_DOT
340
0
  0
BLOCK_RECORD
  5
78
330
1
100
AcDbSymbolTableRecord
100
AcDbBlockTableRecord
  2
*D2
340
0
  0
BLOCK_RECORD
  5
63
330
1
100
AcDbSymbolTableRecord
100
AcDbBlockTableRecord
  2
*D3
340
0
  0
ENDTAB
  0
ENDSEC
  0
SECTION
  2
BLOCKS
  0
BLOCK
  5
6
330
2
100
AcDbEntity
  8
0
100
AcDbBlockBegin
  2
*MODEL_SPACE
 70
     0
 10
0.0
 20
0.0
 30
0.0
  3
*MODEL_SPACE
  1

  0
ENDBLK
  5
1D
330
2
100
AcDbEntity
  8
0
100
AcDbBlockEnd
  0
BLOCK
  5
23
330
20
100
AcDbEntity
 67
     1
  8
0
100
AcDbBlockBegin
  2
*PAPER_SPACE
 70
     0
 10
0.0
 20
0.0
 30
0.0
  3
*PAPER_SPACE
  1

  0
ENDBLK
  5
24
330
20
100
AcDbEntity
 67
     1
  8
0
100
AcDbBlockEnd
  0
BLOCK
  5
38
330
37
100
AcDbEntity
  8
0
100
AcDbBlockBegin
  2
_DOTSMALL
 70
     0
 10
0.0
 20
0.0
 30
0.0
  3
_DOTSMALL
  1

  0
LWPOLYLINE
  5
39
330
37
100
AcDbEntity
  8
0
  6
ByBlock
 62
     0
100
AcDbPolyline
 90
        2
 70
     1
 43
0.5
 10
-0.0625
 20
0.0
 42
1.0
 10
0.0625
 20
0.0
 42
1.0
  0
ENDBLK
  5
3A
330
37
100
AcDbEntity
  8
0
100
AcDbBlockEnd
  0
BLOCK
  5
73
330
72
100
AcDbEntity
  8
0
100
AcDbBlockBegin
  2
_DOT
 70
     0
 10
0.0
 20
0.0
 30
0.0
  3
_DOT
  1

  0
LWPOLYLINE
  5
74
330
72
100
AcDbEntity
  8
0
  6
ByBlock
 62
     0
100
AcDbPolyline
 90
        2
 70
     1
 43
0.5
 10
-0.25
 20
0.0
 42
1.0
 10
0.25
 20
0.0
 42
1.0
  0
LINE
  5
75
330
72
100
AcDbEntity
  8
0
  6
ByBlock
 62
     0
100
AcDbLine
 10
-0.5
 20
0.0
 30
0.0
 11
-1.0
 21
0.0
 31
0.0
  0
ENDBLK
  5
76
330
72
100
AcDbEntity
  8
0
100
AcDbBlockEnd
  0
BLOCK
  5
79
330
78
100
AcDbEntity
  8
0
100
AcDbBlockBegin
  2
*D2
 70
     1
 10
0.0
 20
0.0
 30
0.0
  3
*D2
  1

  0
LINE
  5
7A
330
78
100
AcDbEntity
  8
SUNPOU
 62
    70
370
    -2
100
AcDbLine
 10
25.15231859106291
 20
109.0715838904203
 30
0.0
 11
10.67133606179112
 21
109.0715838904203
 31
0.0
  0
LINE
  5
7B
330
78
100
AcDbEntity
  8
SUNPOU
 62
    70
370
    -2
100
AcDbLine
 10
25.15231859106291
 20
25.07158389042133
 30
0.0
 11
10.67133606179111
 21
25.07158389042134
 31
0.0
  0
LINE
  5
7C
330
78
100
AcDbEntity
  8
SUNPOU
 62
    60
370
    -2
100
AcDbLine
 10
10.67133606179112
 20
109.0715838904203
 30
0.0
 11
10.6713360617911
 21
25.07158389042134
 31
0.0
  0
INSERT
  5
7D
330
78
100
AcDbEntity
  8
SUNPOU
 62
    60
370
    -2
100
AcDbBlockReference
  2
_DOTSMALL
 10
10.67133606179112
 20
109.0715838904203
 30
0.0
 41
4.0
 42
4.0
 43
4.0
 50
90.0
  0
INSERT
  5
7E
330
78
100
AcDbEntity
  8
SUNPOU
 62
    60
370
    -2
100
AcDbBlockReference
  2
_DOTSMALL
 10
10.6713360617911
 20
25.07158389042134
 30
0.0
 41
4.0
 42
4.0
 43
4.0
 50
270.0
  0
MTEXT
  5
7F
330
78
100
AcDbEntity
  8
SUNPOU
 62
    60
100
AcDbMText
 10
5.671336061791104
 20
67.07158389042081
 30
0.0
 40
6.0
 41
0.0
 71
     5
 72
     1
  1
\A1;84
  7
LIFE
 11
0.0000000000000001
 21
1.0
 31
0.0
 73
     1
 44
1.0
1001
ACAD
1000
MTEXTBEGIN
1070
    73
1070
     1
1070
    44
1040
1.0
1070
    74
1070
     0
1000
MTEXTEND
  0
POINT
  5
80
330
78
100
AcDbEntity
  8
DEFPOINTS
 62
     0
100
AcDbPoint
 10
29.15231859106291
 20
109.0715838904203
 30
0.0
  0
POINT
  5
81
330
78
100
AcDbEntity
  8
DEFPOINTS
 62
     0
100
AcDbPoint
 10
29.15231859106291
 20
25.07158389042133
 30
0.0
  0
POINT
  5
82
330
78
100
AcDbEntity
  8
DEFPOINTS
 62
     0
100
AcDbPoint
 10
10.6713360617911
 20
25.07158389042134
 30
0.0
  0
ENDBLK
  5
83
330
78
100
AcDbEntity
  8
0
100
AcDbBlockEnd
  0
BLOCK
  5
64
330
63
100
AcDbEntity
  8
0
100
AcDbBlockBegin
  2
*D3
 70
     1
 10
0.0
 20
0.0
 30
0.0
  3
*D3
  1

  0
LINE
  5
65
330
63
100
AcDbEntity
  8
SUNPOU
 62
    70
370
    -2
100
AcDbLine
 10
29.15231859106291
 20
113.0715838904203
 30
0.0
 11
29.15231859106291
 21
123.6506517703524
 31
0.0
  0
LINE
  5
66
330
63
100
AcDbEntity
  8
SUNPOU
 62
    70
370
    -2
100
AcDbLine
 10
60.15231859106165
 20
113.0715838904203
 30
0.0
 11
60.15231859106165
 21
123.6506517703524
 31
0.0
  0
LINE
  5
67
330
63
100
AcDbEntity
  8
SUNPOU
 62
    60
370
    -2
100
AcDbLine
 10
29.15231859106291
 20
123.6506517703524
 30
0.0
 11
60.15231859106165
 21
123.6506517703524
 31
0.0
  0
INSERT
  5
68
330
63
100
AcDbEntity
  8
SUNPOU
 62
    60
370
    -2
100
AcDbBlockReference
  2
_DOTSMALL
 10
29.15231859106291
 20
123.6506517703524
 30
0.0
 41
4.0
 42
4.0
 43
4.0
 50
180.0
  0
INSERT
  5
69
330
63
100
AcDbEntity
  8
SUNPOU
 62
    60
370
    -2
100
AcDbBlockReference
  2
_DOTSMALL
 10
60.15231859106165
 20
123.6506517703524
 30
0.0
 41
4.0
 42
4.0
 43
4.0
  0
MTEXT
  5
6A
330
63
100
AcDbEntity
  8
SUNPOU
 62
    60
100
AcDbMText
 10
44.65231859106228
 20
128.6506517703524
 30
0.0
 40
6.0
 41
0.0
 71
     5
 72
     1
  1
\A1;31
  7
LIFE
 73
     1
 44
1.0
1001
ACAD
1000
MTEXTBEGIN
1070
    73
1070
     1
1070
    44
1040
1.0
1070
    74
1070
     0
1000
MTEXTEND
  0
POINT
  5
6C
330
63
100
AcDbEntity
  8
DEFPOINTS
 62
     0
100
AcDbPoint
 10
29.15231859106291
 20
109.0715838904203
 30
0.0
  0
POINT
  5
6E
330
63
100
AcDbEntity
  8
DEFPOINTS
 62
     0
100
AcDbPoint
 10
60.15231859106165
 20
109.0715838904203
 30
0.0
  0
POINT
  5
6F
330
63
100
AcDbEntity
  8
DEFPOINTS
 62
     0
100
AcDbPoint
 10
60.15231859106165
 20
123.6506517703524
 30
0.0
  0
ENDBLK
  5
70
330
63
100
AcDbEntity
  8
0
100
AcDbBlockEnd
  0
ENDSEC
  0
SECTION
  2
ENTITIES
  0
DIMENSION
  5
61
330
2
100
AcDbEntity
  8
SUNPOU
100
AcDbDimension
  2
*D3
 10
60.15231859106165
 20
123.6506517703524
 30
0.0
 11
44.65231859106228
 21
128.6506517703524
 31
0.0
 71
     5
 42
30.99999999999875
  3
STANDARD$0
100
AcDbAlignedDimension
 13
29.15231859106291
 23
109.0715838904203
 33
0.0
 14
60.15231859106165
 24
109.0715838904203
 34
0.0
 50
0.000000000000007
100
AcDbRotatedDimension
1001
ACAD
1000
DSTYLE
1002
{
1070
    41
1040
2.0
1070
    44
1040
0.0
1070
    77
1070
     1
1070
    78
1070
     0
1070
   140
1040
3.0
1070
   141
1040
1.0
1070
   146
1040
0.0642857142857143
1070
   172
1070
     0
1070
   173
1070
     0
1070
   176
1070
    60
1070
   177
1070
    70
1070
   178
1070
    60
1070
   271
1070
     0
1070
   272
1070
     0
1070
   341
1005
0
1070
   342
1005
37
1070
   343
1005
0
1070
   344
1005
0
1002
}
  0
DIMENSION
  5
77
330
2
100
AcDbEntity
  8
SUNPOU
100
AcDbDimension
  2
*D2
 10
10.6713360617911
 20
25.07158389042134
 30
0.0
 11
5.671336061791104
 21
67.07158389042081
 31
0.0
 71
     5
 42
83.99999999999897
  3
STANDARD$0
100
AcDbAlignedDimension
 13
29.15231859106291
 23
109.0715838904203
 33
0.0
 14
29.15231859106291
 24
25.07158389042133
 34
0.0
 50
90.0
100
AcDbRotatedDimension
1001
ACAD
1000
DSTYLE
1002
{
1070
    41
1040
2.0
1070
    44
1040
0.0
1070
    77
1070
     1
1070
    78
1070
     0
1070
   140
1040
3.0
1070
   141
1040
1.0
1070
   146
1040
0.0642857142857143
1070
   172
1070
     0
1070
   173
1070
     0
1070
   176
1070
    60
1070
   177
1070
    70
1070
   178
1070
    60
1070
   271
1070
     0
1070
   272
1070
     0
1070
   341
1005
0
1070
   342
1005
37
1070
   343
1005
0
1070
   344
1005
0
1002
}
  0
CIRCLE
  5
84
330
2
100
AcDbEntity
  8
KIJUN
100
AcDbCircle
 10
207.7398919952369
 20
101.9997428503444
 30
0.0
 40
2.143647237918048
  0
CIRCLE
  5
86
330
2
100
AcDbEntity
  8
KIJUN
100
AcDbCircle
 10
202.0575081633249
 20
101.9997428503444
 30
0.0
 40
2.143647237918048
  0
CIRCLE
  5
87
330
2
100
AcDbEntity
  8
KIJUN
100
AcDbCircle
 10
196.3183024788803
 20
101.9997428503444
 30
0.0
 40
2.143647237918048
  0
ARC
  5
88
330
2
100
AcDbEntity
  8
KIJUN
100
AcDbCircle
 10
213.3654539746152
 20
101.9997428503444
 30
0.0
 40
2.143647237918048
100
AcDbArc
 50
90.0
 51
270.0
  0
ARC
  5
89
330
2
100
AcDbEntity
  8
KIJUN
100
AcDbCircle
 10
219.2183128202501
 20
101.9997428503444
 30
0.0
 40
2.143647237918048
100
AcDbArc
 50
270.0
 51
90.0
  0
LINE
  5
8A
330
2
100
AcDbEntity
  8
KIJUN
100
AcDbLine
 10
213.3654539746152
 20
104.1433900882622
 30
0.0
 11
219.2183128202501
 21
104.1433900882622
 31
0.0
  0
LINE
  5
8B
330
2
100
AcDbEntity
  8
KIJUN
100
AcDbLine
 10
213.3654539746152
 20
99.85609561242625
 30
0.0
 11
219.2183128202501
 21
99.85609561242625
 31
0.0
  0
CIRCLE
  5
8C
330
2
100
AcDbEntity
  8
KIJUN
100
AcDbCircle
 10
225.2416655918591
 20
101.9997428503444
 30
0.0
 40
2.143647237918048
  0
CIRCLE
  5
8D
330
2
100
AcDbEntity
  8
KIJUN
100
AcDbCircle
 10
230.9808712763034
 20
101.9997428503444
 30
0.0
 40
2.143647237918048
  0
CIRCLE
  5
8E
330
2
100
AcDbEntity
  8
KIJUN
100
AcDbCircle
 10
236.6632551082152
 20
101.9997428503444
 30
0.0
 40
2.143647237918048
  0
ELLIPSE
  5
8F
330
2
100
AcDbEntity
  8
KIJUN
100
AcDbEllipse
 10
204.6404426885296
 20
52.14392514912304
 30
0.0
 11
4.90731021761203
 21
0.0
 31
0.0
210
0.0
220
0.0
230
1.0
 40
0.9281600502708355
 41
0.0
 42
6.283185307179584
  0
ELLIPSE
  5
90
330
2
100
AcDbEntity
  8
KIJUN
100
AcDbEllipse
 10
217.0255569257137
 20
52.14392514912304
 30
0.0
 11
4.90731021761203
 21
0.0
 31
0.0
210
0.0
220
0.0
230
1.0
 40
0.9281600502708355
 41
0.0
 42
6.283185307179584
  0
ELLIPSE
  5
91
330
2
100
AcDbEntity
  8
KIJUN
100
AcDbEllipse
 10
228.9433057521391
 20
52.14392514912304
 30
0.0
 11
4.90731021761203
 21
0.0
 31
0.0
210
0.0
220
0.0
230
1.0
 40
0.9281600502708355
 41
0.0
 42
6.283185307179584
  0
ELLIPSE
  5
92
330
2
100
AcDbEntity
  8
KIJUN
100
AcDbEllipse
 10
240.861054578564
 20
52.14392514912304
 30
0.0
 11
4.90731021761203
 21
0.0
 31
0.0
210
0.0
220
0.0
230
1.0
 40
0.9281600502708355
 41
0.0
 42
6.283185307179584
  0
ELLIPSE
  5
93
330
2
100
AcDbEntity
  8
KIJUN
100
AcDbEllipse
 10
253.5966955333515
 20
52.14392514912304
 30
0.0
 11
4.90731021761203
 21
0.0
 31
0.0
210
0.0
220
0.0
230
1.0
 40
0.9281600502708355
 41
0.0
 42
6.283185307179584
  0
ELLIPSE
  5
94
330
2
100
AcDbEntity
  8
KIJUN
100
AcDbEllipse
 10
192.0216404268962
 20
52.14392514912304
 30
0.0
 11
4.90731021761203
 21
0.0
 31
0.0
210
0.0
220
0.0
230
1.0
 40
0.9281600502708355
 41
0.0
 42
6.283185307179584
  0
ARC
  5
95
330
2
100
AcDbEntity
  8
KIJUN
100
AcDbCircle
 10
229.0420789053951
 20
63.91004115436832
 30
0.0
 40
25.42033528083894
100
AcDbArc
 50
45.97222522055493
 51
136.9407401749841
  0
ARC
  5
96
330
2
100
AcDbEntity
  8
KIJUN
100
AcDbCircle
 10
211.2124093612096
 20
71.04715918698421
 30
0.0
 40
4.251650588834444
100
AcDbArc
 50
357.0554586015236
 51
156.0181054533519
  0
ARC
  5
97
330
2
100
AcDbEntity
  8
KIJUN
100
AcDbCircle
 10
227.4722182889026
 20
65.29252414826363
 30
0.0
 40
28.61914842162823
100
AcDbArc
 50
84.87482644594136
 51
143.8653743010573
  0
ARC
  5
98
330
2
100
AcDbEntity
  8
KIJUN
100
AcDbCircle
 10
249.6140961092533
 20
54.26892743451181
 30
0.0
 40
47.57535084110542
100
AcDbArc
 50
145.5904037168705
 51
152.3343049175626
  0
ARC
  5
99
330
2
100
AcDbEntity
  8
KIJUN
100
AcDbCircle
 10
210.7760437194296
 20
80.87145256613181
 30
0.0
 40
0.5
100
AcDbArc
 50
127.9199948696664
 51
145.5904037168661
  0
ARC
  5
9A
330
2
100
AcDbEntity
  8
KIJUN
100
AcDbCircle
 10
209.10880015782
 20
72.46894913540353
 30
0.0
 40
6.558067359947831
100
AcDbArc
 50
249.6074220328564
 51
345.5163743086683
  0
ELLIPSE
  5
9B
330
2
100
AcDbEntity
  8
KIJUN
100
AcDbEllipse
 10
230.3666737636758
 20
68.71601658031713
 30
0.0
 11
3.457200370998471
 21
0.0
 31
0.0
210
0.0
220
0.0
230
1.0
 40
0.7343666486515076
 41
0.0
 42
6.283185307179584
  0
ARC
  5
9C
330
2
100
AcDbEntity
  8
KIJUN
100
AcDbCircle
 10
222.9663141337619
 20
79.58067079831163
 30
0.0
 40
7.534659968860472
100
AcDbArc
 50
214.9294396686175
 51
268.5904764382742
  0
ARC
  5
9D
330
2
100
AcDbEntity
  8
KIJUN
100
AcDbCircle
 10
224.3755862985599
 20
80.08423021712014
 30
0.0
 40
8.192625485161464
100
AcDbArc
 50
258.7763078931195
 51
313.6332356750838
  0
ARC
  5
9E
330
2
100
AcDbEntity
  8
KIJUN
100
AcDbCircle
 10
237.6481385037169
 20
77.38441857765035
 30
0.0
 40
10.68149255871774
100
AcDbArc
 50
135.5056454879692
 51
166.8431608156496
  0
ARC
  5
9F
330
2
100
AcDbEntity
  8
KIJUN
100
AcDbCircle
 10
236.3116322672259
 20
83.2532522056177
 30
0.0
 40
9.783830393502904
100
AcDbArc
 50
202.4905185278531
 51
230.0467249599897
  0
ARC
  5
A0
330
2
100
AcDbEntity
  8
KIJUN
100
AcDbCircle
 10
227.733903578416
 20
79.70190354398219
 30
0.0
 40
0.5
100
AcDbArc
 50
166.8431608156446
 51
202.4905185278666
  0
ARC
  5
A1
330
2
100
AcDbEntity
  8
KIJUN
100
AcDbCircle
 10
223.746010708308
 20
83.2532522056177
 30
0.0
 40
9.783830393502904
100
AcDbArc
 50
309.9532750400069
 51
337.5094814721468
  0
ARC
  5
A2
330
2
100
AcDbEntity
  8
KIJUN
100
AcDbCircle
 10
222.4095044718169
 20
77.38441857765035
 30
0.0
 40
10.68149255871774
100
AcDbArc
 50
13.15683918435041
 51
44.4943545120348
  0
ARC
  5
A3
330
2
100
AcDbEntity
  8
KIJUN
100
AcDbCircle
 10
232.3237393971175
 20
79.70190354398219
 30
0.0
 40
0.5
100
AcDbArc
 50
337.5094814721331
 51
13.15683918435523
  0
ARC
  5
A4
330
2
100
AcDbEntity
  8
KIJUN
100
AcDbCircle
 10
232.2476704499435
 20
79.41042595414562
 30
0.0
 40
8.443684819999241
100
AcDbArc
 50
105.2352044972248
 51
159.9114083864731
  0
ARC
  5
A5
330
2
100
AcDbEntity
  8
KIJUN
100
AcDbCircle
 10
233.024385307404
 20
81.37562852142272
 30
0.0
 40
8.756765633741474
100
AcDbArc
 50
173.870762346291
 51
223.3448509550528
  0
ARC
  5
A6
330
2
100
AcDbEntity
  8
KIJUN
100
AcDbCircle
 10
225.7409938255983
 20
74.92302469272242
 30
0.0
 40
1.016335983056852
100
AcDbArc
 50
209.0113985245953
 51
25.78280326196232
  0
ARC
  5
A7
330
2
100
AcDbEntity
  8
KIJUN
100
AcDbCircle
 10
246.9350355489533
 20
89.32664246215853
 30
0.0
 40
26.6375438910991
100
AcDbArc
 50
202.4129717405906
 51
214.0025907879135
  0
ARC
  5
A8
330
2
100
AcDbEntity
  8
KIJUN
100
AcDbCircle
 10
217.2611166193952
 20
78.82344540793302
 30
0.0
 40
4.714395050372838
100
AcDbArc
 50
101.3325606708153
 51
257.0060703349521
  0
ARC
  5
A9
330
2
100
AcDbEntity
  8
KIJUN
100
AcDbCircle
 10
218.0549100429975
 20
79.53712087229694
 30
0.0
 40
4.27057294588126
100
AcDbArc
 50
355.0723476134143
 51
113.7533552154835
  0
ARC
  5
AA
330
2
100
AcDbEntity
  8
KIJUN
100
AcDbCircle
 10
215.1319430467897
 20
75.59405680760541
 30
0.0
 40
1.733312180360464
100
AcDbArc
 50
308.0847249772891
 51
34.46053073716574
  0
ARC
  5
AB
330
2
100
AcDbEntity
  8
KIJUN
100
AcDbCircle
 10
217.2246468749035
 20
78.39306756890583
 30
0.0
 40
1.935534704682115
100
AcDbArc
 50
106.7749391406872
 51
249.9505959061549
  0
ARC
  5
AC
330
2
100
AcDbEntity
  8
KIJUN
100
AcDbCircle
 10
232.1483199625427
 20
68.76047375039222
 30
0.0
 40
25.12633030111107
100
AcDbArc
 50
31.78183990692053
 51
94.83886009389822
  0
ARC
  5
AD
330
2
100
AcDbEntity
  8
KIJUN
100
AcDbCircle
 10
249.9524206227483
 20
73.57650072641684
 30
0.0
 40
8.029987804545955
100
AcDbArc
 50
200.0100868564974
 51
289.6569185249994
  0
ARC
  5
AE
330
2
100
AcDbEntity
  8
KIJUN
100
AcDbCircle
 10
246.4169746183688
 20
71.2612379941889
 30
0.0
 40
4.033046351403669
100
AcDbArc
 50
22.04888763602341
 51
186.1559426008442
  0
ARC
  5
AF
330
2
100
AcDbEntity
  8
KIJUN
100
AcDbCircle
 10
208.2515344501834
 20
54.26892743451181
 30
0.0
 40
47.57535084110542
100
AcDbArc
 50
27.66569508243731
 51
35.58916303774792
  0
ARC
  5
B0
330
2
100
AcDbEntity
  8
KIJUN
100
AcDbCircle
 10
239.4110913334947
 20
78.63631517863511
 30
0.0
 40
2.762893648937013
100
AcDbArc
 50
311.7435648824139
 51
68.98221304370249
  0
ARC
  5
B1
330
2
100
AcDbEntity
  8
KIJUN
100
AcDbCircle
 10
240.6045139400416
 20
78.82344540793302
 30
0.0
 40
4.714395050372838
100
AcDbArc
 50
282.9939296650479
 51
78.6674393291847
  0
ARC
  5
B2
330
2
100
AcDbEntity
  8
KIJUN
100
AcDbCircle
 10
240.3136084009024
 20
80.71160884575112
 30
0.0
 40
2.993042295072444
100
AcDbArc
 50
66.00167303939688
 51
210.9953089572088
  0
ARC
  5
B3
330
2
100
AcDbEntity
  8
KIJUN
100
AcDbCircle
 10
213.1226074265805
 20
89.32664246215853
 30
0.0
 40
26.6375438910991
100
AcDbArc
 50
325.9974092120863
 51
337.5870282594093
  0
ARC
  5
B4
330
2
100
AcDbEntity
  8
KIJUN
100
AcDbCircle
 10
234.3166491499354
 20
74.92302469272242
 30
0.0
 40
1.016335983056852
100
AcDbArc
 50
154.2171967380376
 51
330.9886014754046
  0
ARC
  5
B5
330
2
100
AcDbEntity
  8
KIJUN
100
AcDbCircle
 10
227.0332576681298
 20
81.37562852142272
 30
0.0
 40
8.756765633741474
100
AcDbArc
 50
316.6551490449472
 51
6.129237653708871
  0
ARC
  5
B6
330
2
100
AcDbEntity
  8
KIJUN
100
AcDbCircle
 10
227.8099725255901
 20
79.41042595414562
 30
0.0
 40
8.443684819999241
100
AcDbArc
 50
20.08859161352666
 51
74.76479550277854
  0
ARC
  5
B7
330
2
100
AcDbEntity
  8
KIJUN
100
AcDbCircle
 10
235.2808839226455
 20
76.45955715499219
 30
0.0
 40
4.330466381074068
100
AcDbArc
 50
272.7281586100403
 51
344.0089839692253
  0
ARC
  5
B8
330
2
100
AcDbEntity
  8
KIJUN
100
AcDbCircle
 10
234.1942760641499
 20
77.02424443464733
 30
0.0
 40
5.058225323163227
100
AcDbArc
 50
214.56317206316
 51
284.8073158379275
  0
ARC
  5
B9
330
2
100
AcDbEntity
  8
KIJUN
100
AcDbCircle
 10
240.817293574616
 20
75.27145701091253
 30
0.0
 40
1.373519771620985
100
AcDbArc
 50
71.60983536419606
 51
180.2037940777659
  0
ARC
  5
BA
330
2
100
AcDbEntity
  8
KIJUN
100
AcDbCircle
 10
242.7130616882754
 20
75.62389865931492
 30
0.0
 40
1.744422143947214
100
AcDbArc
 50
146.96661379116
 51
233.0531646454188
  0
ARC
  5
BB
330
2
100
AcDbEntity
  8
KIJUN
100
AcDbCircle
 10
246.1271150795988
 20
81.37434567435292
 30
0.0
 40
1.0
100
AcDbArc
 50
35.58916303774893
 51
54.38930674851261
  0
CIRCLE
  5
BC
330
2
100
AcDbEntity
  8
KIJUN
100
AcDbCircle
 10
226.6751786159962
 20
41.96428989573559
 30
0.0
 40
1.453374311808145
  0
CIRCLE
  5
BD
330
2
100
AcDbEntity
  8
KIJUN
100
AcDbCircle
 10
215.6661881829422
 20
41.96428989573559
 30
0.0
 40
1.453374311808145
  0
CIRCLE
  5
BE
330
2
100
AcDbEntity
  8
KIJUN
100
AcDbCircle
 10
204.6571882937641
 20
41.96428989573559
 30
0.0
 40
1.453374311808145
  0
CIRCLE
  5
BF
330
2
100
AcDbEntity
  8
KIJUN
100
AcDbCircle
 10
193.6481978607115
 20
41.96428989573559
 30
0.0
 40
1.453374311808145
  0
CIRCLE
  5
C0
330
2
100
AcDbEntity
  8
KIJUN
100
AcDbCircle
 10
237.3725897445125
 20
41.96428989573559
 30
0.0
 40
1.453374311808145
  0
CIRCLE
  5
C1
330
2
100
AcDbEntity
  8
KIJUN
100
AcDbCircle
 10
248.4854462498275
 20
41.96428989573559
 30
0.0
 40
1.453374311808145
  0
ARC
  5
C2
330
2
100
AcDbEntity
  8
KIJUN
100
AcDbCircle
 10
222.9509064563768
 20
26.33217353516119
 30
0.0
 40
5.189234548520243
100
AcDbArc
 50
16.62282956760311
 51
95.04991397955803
  0
ARC
  5
C3
330
2
100
AcDbEntity
  8
KIJUN
100
AcDbCircle
 10
232.5716800415416
 20
37.52672892667232
 30
0.0
 40
4.698918945574749
100
AcDbArc
 50
217.5271849116349
 51
310.0158833099697
  0
ARC
  5
C4
330
2
100
AcDbEntity
  8
KIJUN
100
AcDbCircle
 10
233.5059248476572
 20
26.33217353516119
 30
0.0
 40
5.189234548520243
100
AcDbArc
 50
84.95008602044196
 51
163.3771704323968
  0
ARC
  5
C5
330
2
100
AcDbEntity
  8
KIJUN
100
AcDbCircle
 10
224.1109125294228
 20
36.12109765733129
 30
0.0
 40
3.49282902315871
100
AcDbArc
 50
212.3323784400342
 51
335.4212178987205
  0
ARC
  5
C6
330
2
100
AcDbEntity
  8
KIJUN
100
AcDbCircle
 10
234.7086077941513
 20
25.94956372152155
 30
0.0
 40
4.566667690191299
100
AcDbArc
 50
33.49481192080261
 51
65.19874865877582
  0
ARC
  5
C7
330
2
100
AcDbEntity
  8
KIJUN
100
AcDbCircle
 10
255.0814694646055
 20
29.75066399774113
 30
0.0
 40
18.4604852656779
100
AcDbArc
 50
169.1775687832435
 51
178.9310988351186
  0
ARC
  5
C8
330
2
100
AcDbEntity
  8
KIJUN
100
AcDbCircle
 10
236.1635547350939
 20
33.36712566024079
 30
0.0
 40
0.8
100
AcDbArc
 50
349.17756878325
 51
135.4866885518164
  0
ARC
  5
C9
330
2
100
AcDbEntity
  8
KIJUN
100
AcDbCircle
 10
237.5433134714662
 20
30.42816600605529
 30
0.0
 40
3.737958973492359
100
AcDbArc
 50
163.3166796513403
 51
224.3184104320893
  0
ARC
  5
CA
330
2
100
AcDbEntity
  8
KIJUN
100
AcDbCircle
 10
220.439271180452
 20
33.1483258424343
 30
0.0
 40
1.318809707917625
100
AcDbArc
 50
56.89289928687006
 51
105.4293468135759
  0
ARC
  5
CB
330
2
100
AcDbEntity
  8
KIJUN
100
AcDbCircle
 10
213.4795822515787
 20
30.9817801394567
 30
0.0
 40
6.524349853566682
100
AcDbArc
 50
352.4150581510547
 51
21.35104106940916
  0
ARC
  5
CC
330
2
100
AcDbEntity
  8
KIJUN
100
AcDbCircle
 10
220.3012419142769
 20
33.64843726472799
 30
0.0
 40
0.8
100
AcDbArc
 50
105.4293468135725
 51
201.3510410694102
  0
ARC
  5
CD
330
2
100
AcDbEntity
  8
KIJUN
100
AcDbCircle
 10
220.2419359892424
 20
27.33399060737719
 30
0.0
 40
2.802183118916735
100
AcDbArc
 50
96.04486921701765
 51
160.0074874094281
  0
ARC
  5
CE
330
2
100
AcDbEntity
  8
KIJUN
100
AcDbCircle
 10
237.5433134714662
 20
30.42816600605529
 30
0.0
 40
3.737958973492359
100
AcDbArc
 50
163.3166796513403
 51
224.3184104320893
  0
ARC
  5
CF
330
2
100
AcDbEntity
  8
KIJUN
100
AcDbCircle
 10
218.9135178325678
 20
30.42816600605529
 30
0.0
 40
3.737958973492359
100
AcDbArc
 50
315.6815895679105
 51
16.68332034865963
  0
ARC
  5
D0
330
2
100
AcDbEntity
  8
KIJUN
100
AcDbCircle
 10
239.1840640863771
 20
28.911220871382
 30
0.0
 40
0.8
100
AcDbArc
 50
213.4948119208183
 51
326.5051880791814
  0
ELLIPSE
  5
D1
330
2
100
AcDbEntity
  8
KIJUN
100
AcDbEllipse
 10
265.7456749738549
 20
52.14392514912304
 30
0.0
 11
4.90731021761203
 21
0.0
 31
0.0
210
0.0
220
0.0
230
1.0
 40
0.9281600502708355
 41
0.0
 42
6.283185307179584
  0
ELLIPSE
  5
D2
330
2
100
AcDbEntity
  8
KIJUN
100
AcDbEllipse
 10
278.4228806248556
 20
52.14392514912304
 30
0.0
 11
4.90731021761203
 21
0.0
 31
0.0
210
0.0
220
0.0
230
1.0
 40
0.9281600502708355
 41
0.0
 42
6.283185307179584
  0
CIRCLE
  5
D3
330
2
100
AcDbEntity
  8
KIJUN
100
AcDbCircle
 10
259.9105723567714
 20
41.96428989573559
 30
0.0
 40
1.453374311808145
  0
CIRCLE
  5
D4
330
2
100
AcDbEntity
  8
KIJUN
100
AcDbCircle
 10
270.709665192774
 20
41.96428989573559
 30
0.0
 40
1.453374311808145
  0
CIRCLE
  5
D5
330
2
100
AcDbEntity
  8
KIJUN
100
AcDbCircle
 10
282.1348007558435
 20
41.96428989573559
 30
0.0
 40
1.453374311808145
  0
CIRCLE
  5
D6
330
2
100
AcDbEntity
  8
KIJUN
100
AcDbCircle
 10
266.1149791814655
 20
101.9997428503444
 30
0.0
 40
2.143647237918048
  0
CIRCLE
  5
D7
330
2
100
AcDbEntity
  8
KIJUN
100
AcDbCircle
 10
260.4325953495535
 20
101.9997428503444
 30
0.0
 40
2.143647237918048
  0
CIRCLE
  5
D8
330
2
100
AcDbEntity
  8
KIJUN
100
AcDbCircle
 10
254.6933896651089
 20
101.9997428503444
 30
0.0
 40
2.143647237918048
  0
ARC
  5
D9
330
2
100
AcDbEntity
  8
KIJUN
100
AcDbCircle
 10
242.8171780478652
 20
101.9997428503444
 30
0.0
 40
2.143647237918048
100
AcDbArc
 50
90.0
 51
270.0
  0
ARC
  5
DA
330
2
100
AcDbEntity
  8
KIJUN
100
AcDbCircle
 10
248.6700368935002
 20
101.9997428503444
 30
0.0
 40
2.143647237918048
100
AcDbArc
 50
270.0
 51
90.0
  0
LINE
  5
DB
330
2
100
AcDbEntity
  8
KIJUN
100
AcDbLine
 10
242.8171780478652
 20
99.85609561242625
 30
0.0
 11
248.6700368935002
 21
99.85609561242625
 31
0.0
  0
LINE
  5
DC
330
2
100
AcDbEntity
  8
KIJUN
100
AcDbLine
 10
242.8171780478652
 20
104.1433900882622
 30
0.0
 11
248.6700368935002
 21
104.1433900882622
 31
0.0
  0
LINE
  5
DD
330
2
100
AcDbEntity
  8
KIJUN
100
AcDbLine
 10
320.6379856492258
 20
94.99231487001782
 30
0.0
 11
84.56738764913962
 21
94.99231487001782
 31
0.0
  0
LINE
  5
DE
330
2
100
AcDbEntity
  8
KIJUN
100
AcDbLine
 10
320.6379856492258
 20
62.34141307853104
 30
0.0
 11
84.56738764913962
 21
62.34141307853142
 31
0.0
  0
LINE
  5
DF
330
2
100
AcDbEntity
  8
KIJUN
100
AcDbLine
 10
320.6379856492258
 20
58.52259099955308
 30
0.0
 11
84.56738764913962
 21
58.52259099955308
 31
0.0
  0
LINE
  5
E0
330
2
100
AcDbEntity
  8
KIJUN
100
AcDbLine
 10
320.6379856492258
 20
45.92048584857518
 30
0.0
 11
84.56738764913962
 21
45.92048584857565
 31
0.0
  0
LINE
  5
E1
330
2
100
AcDbEntity
  8
KIJUN
100
AcDbLine
 10
320.5673876491397
 20
108.9824995186024
 30
0.0
 11
84.56738764913962
 21
108.9824995186024
 31
0.0
  0
LINE
  5
E2
330
2
100
AcDbEntity
  8
KIJUN
100
AcDbLine
 10
320.5673876491397
 20
24.98249951860288
 30
0.0
 11
84.56738764913962
 21
24.98249951860334
 31
0.0
  0
ARC
  5
E3
330
2
100
AcDbEntity
  8
KIJUN
100
AcDbCircle
 10
244.1893501849109
 20
74.47925710706535
 30
0.0
 40
11.9706408218904
100
AcDbArc
 50
314.9982043826629
 51
38.88642592305823
  0
ARC
  5
E4
330
2
100
AcDbEntity
  8
KIJUN
100
AcDbCircle
 10
215.5181639948441
 20
75.56718630956051
 30
0.0
 40
12.96614323064217
100
AcDbArc
 50
149.3933082463006
 51
222.9790218105273
  0
ARC
  5
E5
330
2
100
AcDbEntity
  8
KIJUN
100
AcDbCircle
 10
206.8365247629776
 20
67.32181159919054
 30
0.0
 40
1.0
100
AcDbArc
 50
216.4443033850059
 51
269.2615912177711
  0
ARC
  5
E6
330
2
100
AcDbEntity
  8
KIJUN
100
AcDbCircle
 10
209.7922174613035
 20
74.46685648644653
 30
0.0
 40
2.989147817383096
100
AcDbArc
 50
140.7346461300306
 51
214.4662982347074
  0
ARC
  5
E7
330
2
100
AcDbEntity
  8
KIJUN
100
AcDbCircle
 10
248.1809527935243
 20
74.70267855022503
 30
0.0
 40
2.759010866097364
100
AcDbArc
 50
315.6852181696324
 51
36.88654931999039
  0
CIRCLE
  5
E8
330
2
100
AcDbEntity
  8
KIJUN
100
AcDbCircle
 10
209.3723784472344
 20
71.37038020654441
 30
0.0
 40
2.386106551501506
  0
CIRCLE
  5
E9
330
2
100
AcDbEntity
  8
KIJUN
100
AcDbCircle
 10
248.1585764105798
 20
71.37038020654441
 30
0.0
 40
2.386106551501506
  0
ARC
  5
EA
330
2
100
AcDbEntity
  8
KIJUN
100
AcDbCircle
 10
303.7086332655971
 20
74.47925710706535
 30
0.0
 40
11.9706408218904
100
AcDbArc
 50
314.9982043826629
 51
38.88642592305823
  0
ARC
  5
EB
330
2
100
AcDbEntity
  8
KIJUN
100
AcDbCircle
 10
309.4717037034347
 20
73.57650072641684
 30
0.0
 40
8.029987804545955
100
AcDbArc
 50
200.0100868564974
 51
289.6569185249994
  0
CIRCLE
  5
EC
330
2
100
AcDbEntity
  8
KIJUN
100
AcDbCircle
 10
307.6778594912662
 20
71.37038020654441
 30
0.0
 40
2.386106551501506
  0
CIRCLE
  5
ED
330
2
100
AcDbEntity
  8
KIJUN
100
AcDbCircle
 10
268.8916615279207
 20
71.37038020654441
 30
0.0
 40
2.386106551501506
  0
ARC
  5
EE
330
2
100
AcDbEntity
  8
KIJUN
100
AcDbCircle
 10
305.9362576990552
 20
71.2612379941889
 30
0.0
 40
4.033046351403669
100
AcDbArc
 50
22.04888763602341
 51
186.1559426008442
  0
ARC
  5
EF
330
2
100
AcDbEntity
  8
KIJUN
100
AcDbCircle
 10
307.7002358742106
 20
74.70267855022503
 30
0.0
 40
2.759010866097364
100
AcDbArc
 50
315.6852181696324
 51
36.88654931999039
  0
ARC
  5
F0
330
2
100
AcDbEntity
  8
KIJUN
100
AcDbCircle
 10
270.7316924418959
 20
71.04715918698421
 30
0.0
 40
4.251650588834444
100
AcDbArc
 50
357.0554586015236
 51
156.0181054533519
  0
ARC
  5
F1
330
2
100
AcDbEntity
  8
KIJUN
100
AcDbCircle
 10
269.3115005419899
 20
74.46685648644653
 30
0.0
 40
2.989147817383096
100
AcDbArc
 50
140.7346461300306
 51
214.4662982347074
  0
ARC
  5
F2
330
2
100
AcDbEntity
  8
KIJUN
100
AcDbCircle
 10
298.9303744141813
 20
78.63631517863511
 30
0.0
 40
2.762893648937013
100
AcDbArc
 50
311.7435648824139
 51
68.98221304370249
  0
ARC
  5
F3
330
2
100
AcDbEntity
  8
KIJUN
100
AcDbCircle
 10
276.7439299555899
 20
78.39306756890583
 30
0.0
 40
1.935534704682115
100
AcDbArc
 50
106.7749391406872
 51
249.9505959061549
  0
ARC
  5
F4
330
2
100
AcDbEntity
  8
KIJUN
100
AcDbCircle
 10
274.651226127476
 20
75.59405680760541
 30
0.0
 40
1.733312180360464
100
AcDbArc
 50
308.0847249772891
 51
34.46053073716574
  0
ARC
  5
F5
330
2
100
AcDbEntity
  8
KIJUN
100
AcDbCircle
 10
294.8001670033317
 20
76.45955715499219
 30
0.0
 40
4.330466381074068
100
AcDbArc
 50
272.7281586100403
 51
344.0089839692253
  0
ARC
  5
F6
330
2
100
AcDbEntity
  8
KIJUN
100
AcDbCircle
 10
293.7135591448363
 20
77.02424443464733
 30
0.0
 40
5.058225323163227
100
AcDbArc
 50
214.56317206316
 51
284.8073158379275
  0
ARC
  5
F7
330
2
100
AcDbEntity
  8
KIJUN
100
AcDbCircle
 10
282.4855972144482
 20
79.58067079831163
 30
0.0
 40
7.534659968860472
100
AcDbArc
 50
214.9294396686175
 51
268.5904764382742
  0
ARC
  5
F8
330
2
100
AcDbEntity
  8
KIJUN
100
AcDbCircle
 10
283.8948693792462
 20
80.08423021712014
 30
0.0
 40
8.192625485161464
100
AcDbArc
 50
258.7763078931195
 51
313.6332356750838
  0
ELLIPSE
  5
F9
330
2
100
AcDbEntity
  8
KIJUN
100
AcDbEllipse
 10
289.8859568443623
 20
68.71601658031713
 30
0.0
 11
3.457200370998471
 21
0.0
 31
0.0
210
0.0
220
0.0
230
1.0
 40
0.7343666486515076
 41
0.0
 42
6.283185307179584
  0
ARC
  5
FA
330
2
100
AcDbEntity
  8
KIJUN
100
AcDbCircle
 10
266.355807843664
 20
67.32181159919054
 30
0.0
 40
1.0
100
AcDbArc
 50
216.4443033850059
 51
269.2615912177711
  0
ARC
  5
FB
330
2
100
AcDbEntity
  8
KIJUN
100
AcDbCircle
 10
268.6280832385064
 20
72.46894913540353
 30
0.0
 40
6.558067359947831
100
AcDbArc
 50
249.6074220328564
 51
345.5163743086683
  0
ARC
  5
FC
330
2
100
AcDbEntity
  8
KIJUN
100
AcDbCircle
 10
275.0374470755304
 20
75.56718630956051
 30
0.0
 40
12.96614323064217
100
AcDbArc
 50
149.3933082463006
 51
222.9790218105273
  0
ARC
  5
FD
330
2
100
AcDbEntity
  8
KIJUN
100
AcDbCircle
 10
291.667603043229
 20
68.76047375039222
 30
0.0
 40
25.12633030111107
100
AcDbArc
 50
31.78183990692053
 51
94.83886009389822
  0
ARC
  5
FE
330
2
100
AcDbEntity
  8
KIJUN
100
AcDbCircle
 10
300.3365766553025
 20
75.27145701091253
 30
0.0
 40
1.373519771620985
100
AcDbArc
 50
71.60983536419606
 51
180.2037940777659
  0
ARC
  5
FF
330
2
100
AcDbEntity
  8
KIJUN
100
AcDbCircle
 10
267.7708175308699
 20
54.26892743451181
 30
0.0
 40
47.57535084110542
100
AcDbArc
 50
27.66569508243731
 51
35.58916303774792
  0
ARC
  5
100
330
2
100
AcDbEntity
  8
KIJUN
100
AcDbCircle
 10
305.646398160285
 20
81.37434567435292
 30
0.0
 40
1.0
100
AcDbArc
 50
35.58916303774893
 51
54.38930674851261
  0
ARC
  5
101
330
2
100
AcDbEntity
  8
KIJUN
100
AcDbCircle
 10
302.2323447689617
 20
75.62389865931492
 30
0.0
 40
1.744422143947214
100
AcDbArc
 50
146.96661379116
 51
233.0531646454188
  0
ARC
  5
102
330
2
100
AcDbEntity
  8
KIJUN
100
AcDbCircle
 10
299.8328914815889
 20
80.71160884575112
 30
0.0
 40
2.993042295072444
100
AcDbArc
 50
66.00167303939688
 51
210.9953089572088
  0
ARC
  5
103
330
2
100
AcDbEntity
  8
KIJUN
100
AcDbCircle
 10
300.1237970207281
 20
78.82344540793302
 30
0.0
 40
4.714395050372838
100
AcDbArc
 50
282.9939296650479
 51
78.6674393291847
  0
ARC
  5
104
330
2
100
AcDbEntity
  8
KIJUN
100
AcDbCircle
 10
288.5613619860814
 20
63.91004115436832
 30
0.0
 40
25.42033528083894
100
AcDbArc
 50
45.97222522055493
 51
136.9407401749841
  0
ARC
  5
105
330
2
100
AcDbEntity
  8
KIJUN
100
AcDbCircle
 10
286.9915013695889
 20
65.29252414826363
 30
0.0
 40
28.61914842162823
100
AcDbArc
 50
84.87482644594136
 51
143.8653743010573
  0
ARC
  5
106
330
2
100
AcDbEntity
  8
KIJUN
100
AcDbCircle
 10
270.2953268001161
 20
80.87145256613181
 30
0.0
 40
0.5
100
AcDbArc
 50
127.9199948696664
 51
145.5904037168661
  0
ARC
  5
107
330
2
100
AcDbEntity
  8
KIJUN
100
AcDbCircle
 10
309.1333791899396
 20
54.26892743451181
 30
0.0
 40
47.57535084110542
100
AcDbArc
 50
145.5904037168705
 51
152.3343049175626
  0
ARC
  5
108
330
2
100
AcDbEntity
  8
KIJUN
100
AcDbCircle
 10
276.7803997000814
 20
78.82344540793302
 30
0.0
 40
4.714395050372838
100
AcDbArc
 50
101.3325606708153
 51
257.0060703349521
  0
ARC
  5
109
330
2
100
AcDbEntity
  8
KIJUN
100
AcDbCircle
 10
277.5741931236839
 20
79.53712087229694
 30
0.0
 40
4.27057294588126
100
AcDbArc
 50
355.0723476134143
 51
113.7533552154835
  0
ARC
  5
10A
330
2
100
AcDbEntity
  8
KIJUN
100
AcDbCircle
 10
291.76695353063
 20
79.41042595414562
 30
0.0
 40
8.443684819999241
100
AcDbArc
 50
105.2352044972248
 51
159.9114083864731
  0
ARC
  5
10B
330
2
100
AcDbEntity
  8
KIJUN
100
AcDbCircle
 10
287.3292556062766
 20
79.41042595414562
 30
0.0
 40
8.443684819999241
100
AcDbArc
 50
20.08859161352666
 51
74.76479550277854
  0
ARC
  5
10C
330
2
100
AcDbEntity
  8
KIJUN
100
AcDbCircle
 10
286.5525407488162
 20
81.37562852142272
 30
0.0
 40
8.756765633741474
100
AcDbArc
 50
316.6551490449472
 51
6.129237653708871
  0
ARC
  5
10D
330
2
100
AcDbEntity
  8
KIJUN
100
AcDbCircle
 10
293.8359322306219
 20
74.92302469272242
 30
0.0
 40
1.016335983056852
100
AcDbArc
 50
154.2171967380376
 51
330.9886014754046
  0
ARC
  5
10E
330
2
100
AcDbEntity
  8
KIJUN
100
AcDbCircle
 10
272.6418905072669
 20
89.32664246215853
 30
0.0
 40
26.6375438910991
100
AcDbArc
 50
325.9974092120863
 51
337.5870282594093
  0
ARC
  5
10F
330
2
100
AcDbEntity
  8
KIJUN
100
AcDbCircle
 10
306.4543186296396
 20
89.32664246215853
 30
0.0
 40
26.6375438910991
100
AcDbArc
 50
202.4129717405906
 51
214.0025907879135
  0
ARC
  5
110
330
2
100
AcDbEntity
  8
KIJUN
100
AcDbCircle
 10
285.2602769062845
 20
74.92302469272242
 30
0.0
 40
1.016335983056852
100
AcDbArc
 50
209.0113985245953
 51
25.78280326196232
  0
ARC
  5
111
330
2
100
AcDbEntity
  8
KIJUN
100
AcDbCircle
 10
292.5436683880901
 20
81.37562852142272
 30
0.0
 40
8.756765633741474
100
AcDbArc
 50
173.870762346291
 51
223.3448509550528
  0
ARC
  5
112
330
2
100
AcDbEntity
  8
KIJUN
100
AcDbCircle
 10
295.8309153479122
 20
83.2532522056177
 30
0.0
 40
9.783830393502904
100
AcDbArc
 50
202.4905185278531
 51
230.0467249599897
  0
ARC
  5
113
330
2
100
AcDbEntity
  8
KIJUN
100
AcDbCircle
 10
283.2652937889942
 20
83.2532522056177
 30
0.0
 40
9.783830393502904
100
AcDbArc
 50
309.9532750400069
 51
337.5094814721468
  0
ARC
  5
114
330
2
100
AcDbEntity
  8
KIJUN
100
AcDbCircle
 10
297.1674215844031
 20
77.38441857765035
 30
0.0
 40
10.68149255871774
100
AcDbArc
 50
135.5056454879692
 51
166.8431608156496
  0
ARC
  5
115
330
2
100
AcDbEntity
  8
KIJUN
100
AcDbCircle
 10
281.9287875525033
 20
77.38441857765035
 30
0.0
 40
10.68149255871774
100
AcDbArc
 50
13.15683918435041
 51
44.4943545120348
  0
ARC
  5
116
330
2
100
AcDbEntity
  8
KIJUN
100
AcDbCircle
 10
291.843022477804
 20
79.70190354398219
 30
0.0
 40
0.5
100
AcDbArc
 50
337.5094814721331
 51
13.15683918435523
  0
ARC
  5
117
330
2
100
AcDbEntity
  8
KIJUN
100
AcDbCircle
 10
287.2531866591026
 20
79.70190354398219
 30
0.0
 40
0.5
100
AcDbArc
 50
166.8431608156446
 51
202.4905185278666
  0
LINE
  5
118
330
2
100
AcDbEntity
  8
KIJUN
100
AcDbLine
 10
160.2404649276685
 20
104.1433900882622
 30
0.0
 11
154.3876060820334
 21
104.1433900882622
 31
0.0
  0
LINE
  5
119
330
2
100
AcDbEntity
  8
KIJUN
100
AcDbLine
 10
160.2404649276685
 20
99.85609561242625
 30
0.0
 11
154.3876060820334
 21
99.85609561242625
 31
0.0
  0
ARC
  5
11A
330
2
100
AcDbEntity
  8
KIJUN
100
AcDbCircle
 10
154.3876060820334
 20
101.9997428503444
 30
0.0
 40
2.143647237918048
100
AcDbArc
 50
90.0
 51
270.0
  0
ARC
  5
11B
330
2
100
AcDbEntity
  8
KIJUN
100
AcDbCircle
 10
160.2404649276685
 20
101.9997428503444
 30
0.0
 40
2.143647237918048
100
AcDbArc
 50
270.0
 51
90.0
  0
CIRCLE
  5
11C
330
2
100
AcDbEntity
  8
KIJUN
100
AcDbCircle
 10
148.3642533104247
 20
101.9997428503444
 30
0.0
 40
2.143647237918048
  0
CIRCLE
  5
11D
330
2
100
AcDbEntity
  8
KIJUN
100
AcDbCircle
 10
142.62504762598
 20
101.9997428503444
 30
0.0
 40
2.143647237918048
  0
CIRCLE
  5
11E
330
2
100
AcDbEntity
  8
KIJUN
100
AcDbCircle
 10
136.9426637940681
 20
101.9997428503444
 30
0.0
 40
2.143647237918048
  0
CIRCLE
  5
11F
330
2
100
AcDbEntity
  8
KIJUN
100
AcDbCircle
 10
166.3943878673185
 20
101.9997428503444
 30
0.0
 40
2.143647237918048
  0
CIRCLE
  5
120
330
2
100
AcDbEntity
  8
KIJUN
100
AcDbCircle
 10
172.0767716992304
 20
101.9997428503444
 30
0.0
 40
2.143647237918048
  0
CIRCLE
  5
121
330
2
100
AcDbEntity
  8
KIJUN
100
AcDbCircle
 10
177.8159773836746
 20
101.9997428503444
 30
0.0
 40
2.143647237918048
  0
ARC
  5
122
330
2
100
AcDbEntity
  8
KIJUN
100
AcDbCircle
 10
189.6921890009184
 20
101.9997428503444
 30
0.0
 40
2.143647237918048
100
AcDbArc
 50
270.0
 51
90.0
  0
ARC
  5
123
330
2
100
AcDbEntity
  8
KIJUN
100
AcDbCircle
 10
183.8393301552837
 20
101.9997428503444
 30
0.0
 40
2.143647237918048
100
AcDbArc
 50
90.0
 51
270.0
  0
LINE
  5
124
330
2
100
AcDbEntity
  8
KIJUN
100
AcDbLine
 10
189.6921890009184
 20
99.85609561242625
 30
0.0
 11
183.8393301552837
 21
99.85609561242625
 31
0.0
  0
LINE
  5
125
330
2
100
AcDbEntity
  8
KIJUN
100
AcDbLine
 10
189.6921890009184
 20
104.1433900882622
 30
0.0
 11
183.8393301552837
 21
104.1433900882622
 31
0.0
  0
CIRCLE
  5
126
330
2
100
AcDbEntity
  8
KIJUN
100
AcDbCircle
 10
284.1451137383593
 20
101.9997428503444
 30
0.0
 40
2.143647237918048
  0
CIRCLE
  5
127
330
2
100
AcDbEntity
  8
KIJUN
100
AcDbCircle
 10
289.8843194228039
 20
101.9997428503444
 30
0.0
 40
2.143647237918048
  0
CIRCLE
  5
128
330
2
100
AcDbEntity
  8
KIJUN
100
AcDbCircle
 10
295.5667032547158
 20
101.9997428503444
 30
0.0
 40
2.143647237918048
  0
LINE
  5
129
330
2
100
AcDbEntity
  8
KIJUN
100
AcDbLine
 10
272.2689021211153
 20
104.1433900882622
 30
0.0
 11
278.1217609667505
 21
104.1433900882622
 31
0.0
  0
LINE
  5
12A
330
2
100
AcDbEntity
  8
KIJUN
100
AcDbLine
 10
272.2689021211153
 20
99.85609561242625
 30
0.0
 11
278.1217609667505
 21
99.85609561242625
 31
0.0
  0
ARC
  5
12B
330
2
100
AcDbEntity
  8
KIJUN
100
AcDbCircle
 10
278.1217609667505
 20
101.9997428503444
 30
0.0
 40
2.143647237918048
100
AcDbArc
 50
270.0
 51
90.0
  0
ARC
  5
12C
330
2
100
AcDbEntity
  8
KIJUN
100
AcDbCircle
 10
272.2689021211153
 20
101.9997428503444
 30
0.0
 40
2.143647237918048
100
AcDbArc
 50
90.0
 51
270.0
  0
CIRCLE
  5
12D
330
2
100
AcDbEntity
  8
KIJUN
100
AcDbCircle
 10
266.1149791814655
 20
101.9997428503444
 30
0.0
 40
2.143647237918048
  0
CIRCLE
  5
12E
330
2
100
AcDbEntity
  8
KIJUN
100
AcDbCircle
 10
260.4325953495535
 20
101.9997428503444
 30
0.0
 40
2.143647237918048
  0
ARC
  5
12F
330
2
100
AcDbEntity
  8
KIJUN
100
AcDbCircle
 10
187.1893501849107
 20
74.47925710706535
 30
0.0
 40
11.9706408218904
100
AcDbArc
 50
314.9982043826629
 51
38.88642592305823
  0
ARC
  5
130
330
2
100
AcDbEntity
  8
KIJUN
100
AcDbCircle
 10
192.9524206227482
 20
73.57650072641684
 30
0.0
 40
8.029987804545955
100
AcDbArc
 50
200.0100868564974
 51
289.6569185249994
  0
CIRCLE
  5
131
330
2
100
AcDbEntity
  8
KIJUN
100
AcDbCircle
 10
191.1585764105798
 20
71.37038020654441
 30
0.0
 40
2.386106551501506
  0
CIRCLE
  5
132
330
2
100
AcDbEntity
  8
KIJUN
100
AcDbCircle
 10
152.3723784472344
 20
71.37038020654441
 30
0.0
 40
2.386106551501506
  0
ARC
  5
133
330
2
100
AcDbEntity
  8
KIJUN
100
AcDbCircle
 10
189.4169746183687
 20
71.2612379941889
 30
0.0
 40
4.033046351403669
100
AcDbArc
 50
22.04888763602341
 51
186.1559426008442
  0
ARC
  5
134
330
2
100
AcDbEntity
  8
KIJUN
100
AcDbCircle
 10
191.1809527935242
 20
74.70267855022503
 30
0.0
 40
2.759010866097364
100
AcDbArc
 50
315.6852181696324
 51
36.88654931999039
  0
ARC
  5
135
330
2
100
AcDbEntity
  8
KIJUN
100
AcDbCircle
 10
154.2124093612096
 20
71.04715918698421
 30
0.0
 40
4.251650588834444
100
AcDbArc
 50
357.0554586015236
 51
156.0181054533519
  0
ARC
  5
136
330
2
100
AcDbEntity
  8
KIJUN
100
AcDbCircle
 10
152.7922174613035
 20
74.46685648644653
 30
0.0
 40
2.989147817383096
100
AcDbArc
 50
140.7346461300306
 51
214.4662982347074
  0
ARC
  5
137
330
2
100
AcDbEntity
  8
KIJUN
100
AcDbCircle
 10
182.4110913334949
 20
78.63631517863511
 30
0.0
 40
2.762893648937013
100
AcDbArc
 50
311.7435648824139
 51
68.98221304370249
  0
ARC
  5
138
330
2
100
AcDbEntity
  8
KIJUN
100
AcDbCircle
 10
160.2246468749035
 20
78.39306756890583
 30
0.0
 40
1.935534704682115
100
AcDbArc
 50
106.7749391406872
 51
249.9505959061549
  0
ARC
  5
139
330
2
100
AcDbEntity
  8
KIJUN
100
AcDbCircle
 10
158.1319430467897
 20
75.59405680760541
 30
0.0
 40
1.733312180360464
100
AcDbArc
 50
308.0847249772891
 51
34.46053073716574
  0
ARC
  5
13A
330
2
100
AcDbEntity
  8
KIJUN
100
AcDbCircle
 10
178.2808839226454
 20
76.45955715499219
 30
0.0
 40
4.330466381074068
100
AcDbArc
 50
272.7281586100403
 51
344.0089839692253
  0
ARC
  5
13B
330
2
100
AcDbEntity
  8
KIJUN
100
AcDbCircle
 10
177.1942760641499
 20
77.02424443464733
 30
0.0
 40
5.058225323163227
100
AcDbArc
 50
214.56317206316
 51
284.8073158379275
  0
ARC
  5
13C
330
2
100
AcDbEntity
  8
KIJUN
100
AcDbCircle
 10
165.9663141337618
 20
79.58067079831163
 30
0.0
 40
7.534659968860472
100
AcDbArc
 50
214.9294396686175
 51
268.5904764382742
  0
ARC
  5
13D
330
2
100
AcDbEntity
  8
KIJUN
100
AcDbCircle
 10
167.3755862985599
 20
80.08423021712014
 30
0.0
 40
8.192625485161464
100
AcDbArc
 50
258.7763078931195
 51
313.6332356750838
  0
ELLIPSE
  5
13E
330
2
100
AcDbEntity
  8
KIJUN
100
AcDbEllipse
 10
173.3666737636758
 20
68.71601658031713
 30
0.0
 11
3.457200370998471
 21
0.0
 31
0.0
210
0.0
220
0.0
230
1.0
 40
0.7343666486515076
 41
0.0
 42
6.283185307179584
  0
ARC
  5
13F
330
2
100
AcDbEntity
  8
KIJUN
100
AcDbCircle
 10
149.8365247629775
 20
67.32181159919054
 30
0.0
 40
1.0
100
AcDbArc
 50
216.4443033850059
 51
269.2615912177711
  0
ARC
  5
140
330
2
100
AcDbEntity
  8
KIJUN
100
AcDbCircle
 10
152.10880015782
 20
72.46894913540353
 30
0.0
 40
6.558067359947831
100
AcDbArc
 50
249.6074220328564
 51
345.5163743086683
  0
ARC
  5
141
330
2
100
AcDbEntity
  8
KIJUN
100
AcDbCircle
 10
158.5181639948441
 20
75.56718630956051
 30
0.0
 40
12.96614323064217
100
AcDbArc
 50
149.3933082463006
 51
222.9790218105273
  0
ARC
  5
142
330
2
100
AcDbEntity
  8
KIJUN
100
AcDbCircle
 10
175.1483199625426
 20
68.76047375039222
 30
0.0
 40
25.12633030111107
100
AcDbArc
 50
31.78183990692053
 51
94.83886009389822
  0
ARC
  5
143
330
2
100
AcDbEntity
  8
KIJUN
100
AcDbCircle
 10
183.8172935746159
 20
75.27145701091253
 30
0.0
 40
1.373519771620985
100
AcDbArc
 50
71.60983536419606
 51
180.2037940777659
  0
ARC
  5
144
330
2
100
AcDbEntity
  8
KIJUN
100
AcDbCircle
 10
151.2515344501833
 20
54.26892743451181
 30
0.0
 40
47.57535084110542
100
AcDbArc
 50
27.66569508243731
 51
35.58916303774792
  0
ARC
  5
145
330
2
100
AcDbEntity
  8
KIJUN
100
AcDbCircle
 10
189.1271150795986
 20
81.37434567435292
 30
0.0
 40
1.0
100
AcDbArc
 50
35.58916303774893
 51
54.38930674851261
  0
ARC
  5
146
330
2
100
AcDbEntity
  8
KIJUN
100
AcDbCircle
 10
185.7130616882754
 20
75.62389865931492
 30
0.0
 40
1.744422143947214
100
AcDbArc
 50
146.96661379116
 51
233.0531646454188
  0
ARC
  5
147
330
2
100
AcDbEntity
  8
KIJUN
100
AcDbCircle
 10
183.3136084009024
 20
80.71160884575112
 30
0.0
 40
2.993042295072444
100
AcDbArc
 50
66.00167303939688
 51
210.9953089572088
  0
ARC
  5
148
330
2
100
AcDbEntity
  8
KIJUN
100
AcDbCircle
 10
183.6045139400416
 20
78.82344540793302
 30
0.0
 40
4.714395050372838
100
AcDbArc
 50
282.9939296650479
 51
78.6674393291847
  0
ARC
  5
149
330
2
100
AcDbEntity
  8
KIJUN
100
AcDbCircle
 10
172.042078905395
 20
63.91004115436832
 30
0.0
 40
25.42033528083894
100
AcDbArc
 50
45.97222522055493
 51
136.9407401749841
  0
ARC
  5
14A
330
2
100
AcDbEntity
  8
KIJUN
100
AcDbCircle
 10
170.4722182889025
 20
65.29252414826363
 30
0.0
 40
28.61914842162823
100
AcDbArc
 50
84.87482644594136
 51
143.8653743010573
  0
ARC
  5
14B
330
2
100
AcDbEntity
  8
KIJUN
100
AcDbCircle
 10
153.7760437194295
 20
80.87145256613181
 30
0.0
 40
0.5
100
AcDbArc
 50
127.9199948696664
 51
145.5904037168661
  0
ARC
  5
14C
330
2
100
AcDbEntity
  8
KIJUN
100
AcDbCircle
 10
192.6140961092532
 20
54.26892743451181
 30
0.0
 40
47.57535084110542
100
AcDbArc
 50
145.5904037168705
 51
152.3343049175626
  0
ARC
  5
14D
330
2
100
AcDbEntity
  8
KIJUN
100
AcDbCircle
 10
160.261116619395
 20
78.82344540793302
 30
0.0
 40
4.714395050372838
100
AcDbArc
 50
101.3325606708153
 51
257.0060703349521
  0
ARC
  5
14E
330
2
100
AcDbEntity
  8
KIJUN
100
AcDbCircle
 10
161.0549100429975
 20
79.53712087229694
 30
0.0
 40
4.27057294588126
100
AcDbArc
 50
355.0723476134143
 51
113.7533552154835
  0
ARC
  5
14F
330
2
100
AcDbEntity
  8
KIJUN
100
AcDbCircle
 10
175.2476704499435
 20
79.41042595414562
 30
0.0
 40
8.443684819999241
100
AcDbArc
 50
105.2352044972248
 51
159.9114083864731
  0
ARC
  5
150
330
2
100
AcDbEntity
  8
KIJUN
100
AcDbCircle
 10
170.80997252559
 20
79.41042595414562
 30
0.0
 40
8.443684819999241
100
AcDbArc
 50
20.08859161352666
 51
74.76479550277854
  0
ARC
  5
151
330
2
100
AcDbEntity
  8
KIJUN
100
AcDbCircle
 10
170.0332576681297
 20
81.37562852142272
 30
0.0
 40
8.756765633741474
100
AcDbArc
 50
316.6551490449472
 51
6.129237653708871
  0
ARC
  5
152
330
2
100
AcDbEntity
  8
KIJUN
100
AcDbCircle
 10
177.3166491499354
 20
74.92302469272242
 30
0.0
 40
1.016335983056852
100
AcDbArc
 50
154.2171967380376
 51
330.9886014754046
  0
ARC
  5
153
330
2
100
AcDbEntity
  8
KIJUN
100
AcDbCircle
 10
156.1226074265805
 20
89.32664246215853
 30
0.0
 40
26.6375438910991
100
AcDbArc
 50
325.9974092120863
 51
337.5870282594093
  0
ARC
  5
154
330
2
100
AcDbEntity
  8
KIJUN
100
AcDbCircle
 10
189.9350355489532
 20
89.32664246215853
 30
0.0
 40
26.6375438910991
100
AcDbArc
 50
202.4129717405906
 51
214.0025907879135
  0
ARC
  5
155
330
2
100
AcDbEntity
  8
KIJUN
100
AcDbCircle
 10
168.7409938255981
 20
74.92302469272242
 30
0.0
 40
1.016335983056852
100
AcDbArc
 50
209.0113985245953
 51
25.78280326196232
  0
ARC
  5
156
330
2
100
AcDbEntity
  8
KIJUN
100
AcDbCircle
 10
176.0243853074037
 20
81.37562852142272
 30
0.0
 40
8.756765633741474
100
AcDbArc
 50
173.870762346291
 51
223.3448509550528
  0
ARC
  5
157
330
2
100
AcDbEntity
  8
KIJUN
100
AcDbCircle
 10
179.3116322672256
 20
83.2532522056177
 30
0.0
 40
9.783830393502904
100
AcDbArc
 50
202.4905185278531
 51
230.0467249599897
  0
ARC
  5
158
330
2
100
AcDbEntity
  8
KIJUN
100
AcDbCircle
 10
166.7460107083079
 20
83.2532522056177
 30
0.0
 40
9.783830393502904
100
AcDbArc
 50
309.9532750400069
 51
337.5094814721468
  0
ARC
  5
159
330
2
100
AcDbEntity
  8
KIJUN
100
AcDbCircle
 10
180.6481385037167
 20
77.38441857765035
 30
0.0
 40
10.68149255871774
100
AcDbArc
 50
135.5056454879692
 51
166.8431608156496
  0
ARC
  5
15A
330
2
100
AcDbEntity
  8
KIJUN
100
AcDbCircle
 10
165.4095044718169
 20
77.38441857765035
 30
0.0
 40
10.68149255871774
100
AcDbArc
 50
13.15683918435041
 51
44.4943545120348
  0
ARC
  5
15B
330
2
100
AcDbEntity
  8
KIJUN
100
AcDbCircle
 10
175.3237393971175
 20
79.70190354398219
 30
0.0
 40
0.5
100
AcDbArc
 50
337.5094814721331
 51
13.15683918435523
  0
ARC
  5
15C
330
2
100
AcDbEntity
  8
KIJUN
100
AcDbCircle
 10
170.7339035784161
 20
79.70190354398219
 30
0.0
 40
0.5
100
AcDbArc
 50
166.8431608156446
 51
202.4905185278666
  0
ELLIPSE
  5
15D
330
2
100
AcDbEntity
  8
KIJUN
100
AcDbEllipse
 10
179.4028381652627
 20
52.14392514912304
 30
0.0
 11
-4.90731021761203
 21
0.0
 31
0.0
210
0.0
220
0.0
230
-1.0
 40
0.9281600502708355
 41
0.0
 42
6.283185307179584
  0
ELLIPSE
  5
15E
330
2
100
AcDbEntity
  8
KIJUN
100
AcDbEllipse
 10
167.0177239280786
 20
52.14392514912304
 30
0.0
 11
-4.90731021761203
 21
0.0
 31
0.0
210
0.0
220
0.0
230
-1.0
 40
0.9281600502708355
 41
0.0
 42
6.283185307179584
  0
ELLIPSE
  5
15F
330
2
100
AcDbEntity
  8
KIJUN
100
AcDbEllipse
 10
155.0999751016533
 20
52.14392514912304
 30
0.0
 11
-4.90731021761203
 21
0.0
 31
0.0
210
0.0
220
0.0
230
-1.0
 40
0.9281600502708355
 41
0.0
 42
6.283185307179584
  0
ELLIPSE
  5
160
330
2
100
AcDbEntity
  8
KIJUN
100
AcDbEllipse
 10
143.1822262752284
 20
52.14392514912304
 30
0.0
 11
-4.90731021761203
 21
0.0
 31
0.0
210
0.0
220
0.0
230
-1.0
 40
0.9281600502708355
 41
0.0
 42
6.283185307179584
  0
ELLIPSE
  5
161
330
2
100
AcDbEntity
  8
KIJUN
100
AcDbEllipse
 10
130.446585320441
 20
52.14392514912304
 30
0.0
 11
-4.90731021761203
 21
0.0
 31
0.0
210
0.0
220
0.0
230
-1.0
 40
0.9281600502708355
 41
0.0
 42
6.283185307179584
  0
ELLIPSE
  5
162
330
2
100
AcDbEntity
  8
KIJUN
100
AcDbEllipse
 10
118.2976058799376
 20
52.14392514912304
 30
0.0
 11
-4.90731021761203
 21
0.0
 31
0.0
210
0.0
220
0.0
230
-1.0
 40
0.9281600502708355
 41
0.0
 42
6.283185307179584
  0
ELLIPSE
  5
163
330
2
100
AcDbEntity
  8
KIJUN
100
AcDbEllipse
 10
105.6204002289369
 20
52.14392514912304
 30
0.0
 11
-4.90731021761203
 21
0.0
 31
0.0
210
0.0
220
0.0
230
-1.0
 40
0.9281600502708355
 41
0.0
 42
6.283185307179584
  0
ELLIPSE
  5
164
330
2
100
AcDbEntity
  8
KIJUN
100
AcDbEllipse
 10
315.9847066711472
 20
52.14392514912304
 30
0.0
 11
-4.90731021761203
 21
0.0
 31
0.0
210
0.0
220
0.0
230
-1.0
 40
0.9281600502708355
 41
0.0
 42
6.283185307179584
  0
ELLIPSE
  5
165
330
2
100
AcDbEntity
  8
KIJUN
100
AcDbEllipse
 10
303.2490657163599
 20
52.14392514912304
 30
0.0
 11
-4.90731021761203
 21
0.0
 31
0.0
210
0.0
220
0.0
230
-1.0
 40
0.9281600502708355
 41
0.0
 42
6.283185307179584
  0
ELLIPSE
  5
166
330
2
100
AcDbEntity
  8
KIJUN
100
AcDbEllipse
 10
291.1000862758564
 20
52.14392514912304
 30
0.0
 11
-4.90731021761203
 21
0.0
 31
0.0
210
0.0
220
0.0
230
-1.0
 40
0.9281600502708355
 41
0.0
 42
6.283185307179584
  0
CIRCLE
  5
167
330
2
100
AcDbEntity
  8
KIJUN
100
AcDbCircle
 10
105.1615949655797
 20
41.96428989573559
 30
0.0
 40
1.453374311808145
  0
CIRCLE
  5
168
330
2
100
AcDbEntity
  8
KIJUN
100
AcDbCircle
 10
116.5867305286492
 20
41.96428989573559
 30
0.0
 40
1.453374311808145
  0
CIRCLE
  5
169
330
2
100
AcDbEntity
  8
KIJUN
100
AcDbCircle
 10
127.3858233646518
 20
41.96428989573559
 30
0.0
 40
1.453374311808145
  0
CIRCLE
  5
16A
330
2
100
AcDbEntity
  8
KIJUN
100
AcDbCircle
 10
138.8109494715958
 20
41.96428989573559
 30
0.0
 40
1.453374311808145
  0
CIRCLE
  5
16B
330
2
100
AcDbEntity
  8
KIJUN
100
AcDbCircle
 10
149.9238059769108
 20
41.96428989573559
 30
0.0
 40
1.453374311808145
  0
CIRCLE
  5
16C
330
2
100
AcDbEntity
  8
KIJUN
100
AcDbCircle
 10
182.639207427659
 20
41.96428989573559
 30
0.0
 40
1.453374311808145
  0
CIRCLE
  5
16D
330
2
100
AcDbEntity
  8
KIJUN
100
AcDbCircle
 10
171.630207538481
 20
41.96428989573559
 30
0.0
 40
1.453374311808145
  0
CIRCLE
  5
16E
330
2
100
AcDbEntity
  8
KIJUN
100
AcDbCircle
 10
160.6212171054271
 20
41.96428989573559
 30
0.0
 40
1.453374311808145
  0
ARC
  5
16F
330
2
100
AcDbEntity
  8
KIJUN
100
AcDbCircle
 10
210.7627537883796
 20
26.33217353516119
 30
0.0
 40
5.189234548520243
100
AcDbArc
 50
84.95008602044196
 51
163.3771704323968
  0
ARC
  5
170
330
2
100
AcDbEntity
  8
KIJUN
100
AcDbCircle
 10
201.1419802032146
 20
37.52672892667232
 30
0.0
 40
4.698918945574749
100
AcDbArc
 50
229.9841166900304
 51
322.4728150883651
  0
ARC
  5
171
330
2
100
AcDbEntity
  8
KIJUN
100
AcDbCircle
 10
200.207735397099
 20
26.33217353516119
 30
0.0
 40
5.189234548520243
100
AcDbArc
 50
16.62282956760311
 51
95.04991397955803
  0
ARC
  5
172
330
2
100
AcDbEntity
  8
KIJUN
100
AcDbCircle
 10
209.6027477153334
 20
36.12109765733129
 30
0.0
 40
3.49282902315871
100
AcDbArc
 50
204.5787821012795
 51
327.6676215599656
  0
ARC
  5
173
330
2
100
AcDbEntity
  8
KIJUN
100
AcDbCircle
 10
178.6321907801506
 20
29.75066399774113
 30
0.0
 40
18.4604852656779
100
AcDbArc
 50
1.068901164881304
 51
10.82243121675641
  0
ARC
  5
174
330
2
100
AcDbEntity
  8
KIJUN
100
AcDbCircle
 10
197.5501055096624
 20
33.36712566024079
 30
0.0
 40
0.8
100
AcDbArc
 50
44.51331144818126
 51
190.8224312167497
  0
ARC
  5
175
330
2
100
AcDbEntity
  8
KIJUN
100
AcDbCircle
 10
196.17034677329
 20
30.42816600605529
 30
0.0
 40
3.737958973492359
100
AcDbArc
 50
315.6815895679105
 51
16.68332034865963
  0
ARC
  5
176
330
2
100
AcDbEntity
  8
KIJUN
100
AcDbCircle
 10
213.2743890643041
 20
33.1483258424343
 30
0.0
 40
1.318809707917625
100
AcDbArc
 50
74.57065318642387
 51
123.10710071313
  0
ARC
  5
177
330
2
100
AcDbEntity
  8
KIJUN
100
AcDbCircle
 10
220.2340779931774
 20
30.9817801394567
 30
0.0
 40
6.524349853566682
100
AcDbArc
 50
158.6489589305907
 51
187.5849418489451
  0
ARC
  5
178
330
2
100
AcDbEntity
  8
KIJUN
100
AcDbCircle
 10
213.4124183304793
 20
33.64843726472799
 30
0.0
 40
0.8
100
AcDbArc
 50
338.6489589305896
 51
74.57065318642744
  0
ARC
  5
179
330
2
100
AcDbEntity
  8
KIJUN
100
AcDbCircle
 10
213.4717242555138
 20
27.33399060737719
 30
0.0
 40
2.802183118916735
100
AcDbArc
 50
19.99251259057176
 51
83.95513078298234
  0
ARC
  5
17A
330
2
100
AcDbEntity
  8
KIJUN
100
AcDbCircle
 10
196.17034677329
 20
30.42816600605529
 30
0.0
 40
3.737958973492359
100
AcDbArc
 50
315.6815895679105
 51
16.68332034865963
  0
ARC
  5
17B
330
2
100
AcDbEntity
  8
KIJUN
100
AcDbCircle
 10
214.8001424121884
 20
30.42816600605529
 30
0.0
 40
3.737958973492359
100
AcDbArc
 50
163.3166796513403
 51
224.3184104320893
  0
ARC
  5
17C
330
2
100
AcDbEntity
  8
KIJUN
100
AcDbCircle
 10
174.2590499045699
 20
30.42816600605529
 30
0.0
 40
3.737958973492359
100
AcDbArc
 50
315.6815895679105
 51
16.68332034865963
  0
ARC
  5
17D
330
2
100
AcDbEntity
  8
KIJUN
100
AcDbCircle
 10
175.6467739862791
 20
33.64843726472799
 30
0.0
 40
0.8
100
AcDbArc
 50
105.4293468135725
 51
201.3510410694102
  0
ARC
  5
17E
330
2
100
AcDbEntity
  8
KIJUN
100
AcDbCircle
 10
168.825114323581
 20
30.9817801394567
 30
0.0
 40
6.524349853566682
100
AcDbArc
 50
352.4150581510547
 51
21.35104106940916
  0
ARC
  5
17F
330
2
100
AcDbEntity
  8
KIJUN
100
AcDbCircle
 10
175.7848032524543
 20
33.1483258424343
 30
0.0
 40
1.318809707917625
100
AcDbArc
 50
56.89289928687006
 51
105.4293468135759
  0
ARC
  5
180
330
2
100
AcDbEntity
  8
KIJUN
100
AcDbCircle
 10
179.4564446014249
 20
36.12109765733129
 30
0.0
 40
3.49282902315871
100
AcDbArc
 50
212.3323784400342
 51
335.4212178987205
  0
ARC
  5
181
330
2
100
AcDbEntity
  8
KIJUN
100
AcDbCircle
 10
178.2964385283789
 20
26.33217353516119
 30
0.0
 40
5.189234548520243
100
AcDbArc
 50
16.62282956760311
 51
95.04991397955803
  0
ARC
  5
182
330
2
100
AcDbEntity
  8
KIJUN
100
AcDbCircle
 10
188.8514569196594
 20
26.33217353516119
 30
0.0
 40
5.189234548520243
100
AcDbArc
 50
84.95008602044196
 51
163.3771704323968
  0
ARC
  5
183
330
2
100
AcDbEntity
  8
KIJUN
100
AcDbCircle
 10
187.9172121135438
 20
37.52672892667232
 30
0.0
 40
4.698918945574749
100
AcDbArc
 50
217.5271849116349
 51
310.0158833099697
  0
ARC
  5
184
330
2
100
AcDbEntity
  8
KIJUN
100
AcDbCircle
 10
192.8888455434684
 20
30.42816600605529
 30
0.0
 40
3.737958973492359
100
AcDbArc
 50
163.3166796513403
 51
224.3184104320893
  0
ARC
  5
185
330
2
100
AcDbEntity
  8
KIJUN
100
AcDbCircle
 10
192.8888455434684
 20
30.42816600605529
 30
0.0
 40
3.737958973492359
100
AcDbArc
 50
163.3166796513403
 51
224.3184104320893
  0
ARC
  5
186
330
2
100
AcDbEntity
  8
KIJUN
100
AcDbCircle
 10
191.509086807096
 20
33.36712566024079
 30
0.0
 40
0.8
100
AcDbArc
 50
349.17756878325
 51
135.4866885518164
  0
ARC
  5
187
330
2
100
AcDbEntity
  8
KIJUN
100
AcDbCircle
 10
210.4270015366076
 20
29.75066399774113
 30
0.0
 40
18.4604852656779
100
AcDbArc
 50
169.1775687832435
 51
178.9310988351186
  0
ARC
  5
188
330
2
100
AcDbEntity
  8
KIJUN
100
AcDbCircle
 10
194.5295961583792
 20
28.911220871382
 30
0.0
 40
0.8
100
AcDbArc
 50
213.4948119208183
 51
326.5051880791814
  0
ARC
  5
189
330
2
100
AcDbEntity
  8
KIJUN
100
AcDbCircle
 10
199.005052450605
 20
25.94956372152155
 30
0.0
 40
4.566667690191299
100
AcDbArc
 50
114.8012513412242
 51
146.5051880791973
  0
ARC
  5
18A
330
2
100
AcDbEntity
  8
KIJUN
100
AcDbCircle
 10
190.0541398661534
 20
25.94956372152155
 30
0.0
 40
4.566667690191299
100
AcDbArc
 50
33.49481192080263
 51
65.19874865877582
  0
ARC
  5
18B
330
2
100
AcDbEntity
  8
KIJUN
100
AcDbCircle
 10
172.3371403378581
 20
28.88676004061442
 30
0.0
 40
0.8
100
AcDbArc
 50
260.3009707286546
 51
334.4649325761344
  0
ARC
  5
18C
330
2
100
AcDbEntity
  8
KIJUN
100
AcDbCircle
 10
175.5874680612446
 20
27.33399060737719
 30
0.0
 40
2.802183118916735
100
AcDbArc
 50
96.04486921701765
 51
154.4649325761398
  0
ARC
  5
18D
330
2
100
AcDbEntity
  8
KIJUN
100
AcDbCircle
 10
216.8568301223781
 20
28.56556743905656
 30
0.0
 40
0.8
100
AcDbArc
 50
199.9925125905805
 51
340.0074874094193
  0
ARC
  5
18E
330
2
100
AcDbEntity
  8
KIJUN
100
AcDbCircle
 10
130.9330001332468
 20
27.33399060737719
 30
0.0
 40
2.802183118916735
100
AcDbArc
 50
96.04486921701765
 51
160.0074874094281
  0
ARC
  5
18F
330
2
100
AcDbEntity
  8
KIJUN
100
AcDbCircle
 10
124.1627883995183
 20
27.33399060737719
 30
0.0
 40
2.802183118916735
100
AcDbArc
 50
19.99251259057176
 51
83.95513078298234
  0
ARC
  5
190
330
2
100
AcDbEntity
  8
KIJUN
100
AcDbCircle
 10
127.5478942663825
 20
28.56556743905656
 30
0.0
 40
0.8
100
AcDbArc
 50
199.9925125905805
 51
340.0074874094193
  0
ARC
  5
191
330
2
100
AcDbEntity
  8
KIJUN
100
AcDbCircle
 10
154.3505845226072
 20
25.94956372152155
 30
0.0
 40
4.566667690191299
100
AcDbArc
 50
114.8012513412242
 51
146.5051880791973
  0
ARC
  5
192
330
2
100
AcDbEntity
  8
KIJUN
100
AcDbCircle
 10
145.3996719381557
 20
25.94956372152155
 30
0.0
 40
4.566667690191299
100
AcDbArc
 50
33.49481192080263
 51
65.19874865877582
  0
ARC
  5
193
330
2
100
AcDbEntity
  8
KIJUN
100
AcDbCircle
 10
149.8751282303814
 20
28.911220871382
 30
0.0
 40
0.8
100
AcDbArc
 50
213.4948119208183
 51
326.5051880791814
  0
ARC
  5
194
330
2
100
AcDbEntity
  8
KIJUN
100
AcDbCircle
 10
133.9777228521528
 20
29.75066399774113
 30
0.0
 40
18.4604852656779
100
AcDbArc
 50
1.068901164881304
 51
10.82243121675641
  0
ARC
  5
195
330
2
100
AcDbEntity
  8
KIJUN
100
AcDbCircle
 10
152.8956375816646
 20
33.36712566024079
 30
0.0
 40
0.8
100
AcDbArc
 50
44.51331144818126
 51
190.8224312167497
  0
ARC
  5
196
330
2
100
AcDbEntity
  8
KIJUN
100
AcDbCircle
 10
151.5158788452922
 20
30.42816600605529
 30
0.0
 40
3.737958973492359
100
AcDbArc
 50
315.6815895679105
 51
16.68332034865963
  0
ARC
  5
197
330
2
100
AcDbEntity
  8
KIJUN
100
AcDbCircle
 10
151.5158788452922
 20
30.42816600605529
 30
0.0
 40
3.737958973492359
100
AcDbArc
 50
315.6815895679105
 51
16.68332034865963
  0
ARC
  5
198
330
2
100
AcDbEntity
  8
KIJUN
100
AcDbCircle
 10
156.4875122752168
 20
37.52672892667232
 30
0.0
 40
4.698918945574749
100
AcDbArc
 50
229.9841166900304
 51
322.4728150883651
  0
ARC
  5
199
330
2
100
AcDbEntity
  8
KIJUN
100
AcDbCircle
 10
155.5532674691013
 20
26.33217353516119
 30
0.0
 40
5.189234548520243
100
AcDbArc
 50
16.62282956760311
 51
95.04991397955803
  0
ARC
  5
19A
330
2
100
AcDbEntity
  8
KIJUN
100
AcDbCircle
 10
166.1082858603817
 20
26.33217353516119
 30
0.0
 40
5.189234548520243
100
AcDbArc
 50
84.95008602044196
 51
163.3771704323968
  0
ARC
  5
19B
330
2
100
AcDbEntity
  8
KIJUN
100
AcDbCircle
 10
164.9482797873355
 20
36.12109765733129
 30
0.0
 40
3.49282902315871
100
AcDbArc
 50
204.5787821012795
 51
327.6676215599656
  0
ARC
  5
19C
330
2
100
AcDbEntity
  8
KIJUN
100
AcDbCircle
 10
168.6199211363062
 20
33.1483258424343
 30
0.0
 40
1.318809707917625
100
AcDbArc
 50
74.57065318642387
 51
123.10710071313
  0
ARC
  5
19D
330
2
100
AcDbEntity
  8
KIJUN
100
AcDbCircle
 10
175.5796100651795
 20
30.9817801394567
 30
0.0
 40
6.524349853566682
100
AcDbArc
 50
158.6489589305907
 51
187.5849418489451
  0
ARC
  5
19E
330
2
100
AcDbEntity
  8
KIJUN
100
AcDbCircle
 10
168.7579504024815
 20
33.64843726472799
 30
0.0
 40
0.8
100
AcDbArc
 50
338.6489589305896
 51
74.57065318642744
  0
ARC
  5
19F
330
2
100
AcDbEntity
  8
KIJUN
100
AcDbCircle
 10
170.1456744841907
 20
30.42816600605529
 30
0.0
 40
3.737958973492359
100
AcDbArc
 50
163.3166796513403
 51
224.3184104320893
  0
ARC
  5
1A0
330
2
100
AcDbEntity
  8
KIJUN
100
AcDbCircle
 10
129.6045819765722
 20
30.42816600605529
 30
0.0
 40
3.737958973492359
100
AcDbArc
 50
315.6815895679105
 51
16.68332034865963
  0
ARC
  5
1A1
330
2
100
AcDbEntity
  8
KIJUN
100
AcDbCircle
 10
148.2343776154706
 20
30.42816600605529
 30
0.0
 40
3.737958973492359
100
AcDbArc
 50
163.3166796513403
 51
224.3184104320893
  0
ARC
  5
1A2
330
2
100
AcDbEntity
  8
KIJUN
100
AcDbCircle
 10
130.9923060582814
 20
33.64843726472799
 30
0.0
 40
0.8
100
AcDbArc
 50
105.4293468135725
 51
201.3510410694102
  0
ARC
  5
1A3
330
2
100
AcDbEntity
  8
KIJUN
100
AcDbCircle
 10
124.1706463955833
 20
30.9817801394567
 30
0.0
 40
6.524349853566682
100
AcDbArc
 50
352.4150581510547
 51
21.35104106940916
  0
ARC
  5
1A4
330
2
100
AcDbEntity
  8
KIJUN
100
AcDbCircle
 10
131.1303353244565
 20
33.1483258424343
 30
0.0
 40
1.318809707917625
100
AcDbArc
 50
56.89289928687006
 51
105.4293468135759
  0
ARC
  5
1A5
330
2
100
AcDbEntity
  8
KIJUN
100
AcDbCircle
 10
148.2343776154706
 20
30.42816600605529
 30
0.0
 40
3.737958973492359
100
AcDbArc
 50
163.3166796513403
 51
224.3184104320893
  0
ARC
  5
1A6
330
2
100
AcDbEntity
  8
KIJUN
100
AcDbCircle
 10
146.8546188790983
 20
33.36712566024079
 30
0.0
 40
0.8
100
AcDbArc
 50
349.17756878325
 51
135.4866885518164
  0
ARC
  5
1A7
330
2
100
AcDbEntity
  8
KIJUN
100
AcDbCircle
 10
165.77253360861
 20
29.75066399774113
 30
0.0
 40
18.4604852656779
100
AcDbArc
 50
169.1775687832435
 51
178.9310988351186
  0
ARC
  5
1A8
330
2
100
AcDbEntity
  8
KIJUN
100
AcDbCircle
 10
134.8019766734273
 20
36.12109765733129
 30
0.0
 40
3.49282902315871
100
AcDbArc
 50
212.3323784400342
 51
335.4212178987205
  0
ARC
  5
1A9
330
2
100
AcDbEntity
  8
KIJUN
100
AcDbCircle
 10
144.1969889916616
 20
26.33217353516119
 30
0.0
 40
5.189234548520243
100
AcDbArc
 50
84.95008602044196
 51
163.3771704323968
  0
ARC
  5
1AA
330
2
100
AcDbEntity
  8
KIJUN
100
AcDbCircle
 10
143.262744185546
 20
37.52672892667232
 30
0.0
 40
4.698918945574749
100
AcDbArc
 50
217.5271849116349
 51
310.0158833099697
  0
ARC
  5
1AB
330
2
100
AcDbEntity
  8
KIJUN
100
AcDbCircle
 10
133.641970600381
 20
26.33217353516119
 30
0.0
 40
5.189234548520243
100
AcDbArc
 50
16.62282956760311
 51
95.04991397955803
  0
ARC
  5
1AC
330
2
100
AcDbEntity
  8
KIJUN
100
AcDbCircle
 10
121.4538179323839
 20
26.33217353516119
 30
0.0
 40
5.189234548520243
100
AcDbArc
 50
84.95008602044196
 51
163.3771704323968
  0
ARC
  5
1AD
330
2
100
AcDbEntity
  8
KIJUN
100
AcDbCircle
 10
111.8330443472191
 20
37.52672892667232
 30
0.0
 40
4.698918945574749
100
AcDbArc
 50
229.9841166900304
 51
322.4728150883651
  0
ARC
  5
1AE
330
2
100
AcDbEntity
  8
KIJUN
100
AcDbCircle
 10
110.8987995411034
 20
26.33217353516119
 30
0.0
 40
5.189234548520243
100
AcDbArc
 50
16.62282956760311
 51
95.04991397955803
  0
ARC
  5
1AF
330
2
100
AcDbEntity
  8
KIJUN
100
AcDbCircle
 10
120.2938118593378
 20
36.12109765733129
 30
0.0
 40
3.49282902315871
100
AcDbArc
 50
204.5787821012795
 51
327.6676215599656
  0
ARC
  5
1B0
330
2
100
AcDbEntity
  8
KIJUN
100
AcDbCircle
 10
89.3232549241552
 20
29.75066399774113
 30
0.0
 40
18.4604852656779
100
AcDbArc
 50
1.068901164881304
 51
10.82243121675641
  0
ARC
  5
1B1
330
2
100
AcDbEntity
  8
KIJUN
100
AcDbCircle
 10
108.2411696536669
 20
33.36712566024079
 30
0.0
 40
0.8
100
AcDbArc
 50
44.51331144818126
 51
190.8224312167497
  0
ARC
  5
1B2
330
2
100
AcDbEntity
  8
KIJUN
100
AcDbCircle
 10
106.8614109172945
 20
30.42816600605529
 30
0.0
 40
3.737958973492359
100
AcDbArc
 50
315.6815895679105
 51
16.68332034865963
  0
ARC
  5
1B3
330
2
100
AcDbEntity
  8
KIJUN
100
AcDbCircle
 10
123.9654532083086
 20
33.1483258424343
 30
0.0
 40
1.318809707917625
100
AcDbArc
 50
74.57065318642387
 51
123.10710071313
  0
ARC
  5
1B4
330
2
100
AcDbEntity
  8
KIJUN
100
AcDbCircle
 10
130.9251421371818
 20
30.9817801394567
 30
0.0
 40
6.524349853566682
100
AcDbArc
 50
158.6489589305907
 51
187.5849418489451
  0
ARC
  5
1B5
330
2
100
AcDbEntity
  8
KIJUN
100
AcDbCircle
 10
124.1034824744836
 20
33.64843726472799
 30
0.0
 40
0.8
100
AcDbArc
 50
338.6489589305896
 51
74.57065318642744
  0
ARC
  5
1B6
330
2
100
AcDbEntity
  8
KIJUN
100
AcDbCircle
 10
106.8614109172945
 20
30.42816600605529
 30
0.0
 40
3.737958973492359
100
AcDbArc
 50
315.6815895679105
 51
16.68332034865963
  0
ARC
  5
1B7
330
2
100
AcDbEntity
  8
KIJUN
100
AcDbCircle
 10
125.4912065561929
 20
30.42816600605529
 30
0.0
 40
3.737958973492359
100
AcDbArc
 50
163.3166796513403
 51
224.3184104320893
  0
ARC
  5
1B8
330
2
100
AcDbEntity
  8
KIJUN
100
AcDbCircle
 10
84.9501140485745
 20
30.42816600605529
 30
0.0
 40
3.737958973492359
100
AcDbArc
 50
315.6815895679105
 51
16.68332034865963
  0
ARC
  5
1B9
330
2
100
AcDbEntity
  8
KIJUN
100
AcDbCircle
 10
86.33783813028367
 20
33.64843726472799
 30
0.0
 40
0.8
100
AcDbArc
 50
105.4293468135725
 51
201.3510410694102
  0
ARC
  5
1BA
330
2
100
AcDbEntity
  8
KIJUN
100
AcDbCircle
 10
79.51617846758563
 20
30.9817801394567
 30
0.0
 40
6.524349853566682
100
AcDbArc
 50
352.4150581510547
 51
21.35104106940916
  0
ARC
  5
1BB
330
2
100
AcDbEntity
  8
KIJUN
100
AcDbCircle
 10
86.47586739645886
 20
33.1483258424343
 30
0.0
 40
1.318809707917625
100
AcDbArc
 50
56.89289928687006
 51
105.4293468135759
  0
ARC
  5
1BC
330
2
100
AcDbEntity
  8
KIJUN
100
AcDbCircle
 10
90.1475087454296
 20
36.12109765733129
 30
0.0
 40
3.49282902315871
100
AcDbArc
 50
212.3323784400342
 51
335.4212178987205
  0
ARC
  5
1BD
330
2
100
AcDbEntity
  8
KIJUN
100
AcDbCircle
 10
88.98750267238348
 20
26.33217353516119
 30
0.0
 40
5.189234548520243
100
AcDbArc
 50
16.62282956760311
 51
95.04991397955803
  0
ARC
  5
1BE
330
2
100
AcDbEntity
  8
KIJUN
100
AcDbCircle
 10
99.54252106366404
 20
26.33217353516119
 30
0.0
 40
5.189234548520243
100
AcDbArc
 50
84.95008602044196
 51
163.3771704323968
  0
ARC
  5
1BF
330
2
100
AcDbEntity
  8
KIJUN
100
AcDbCircle
 10
98.60827625754838
 20
37.52672892667232
 30
0.0
 40
4.698918945574749
100
AcDbArc
 50
217.5271849116349
 51
310.0158833099697
  0
ARC
  5
1C0
330
2
100
AcDbEntity
  8
KIJUN
100
AcDbCircle
 10
103.5799096874729
 20
30.42816600605529
 30
0.0
 40
3.737958973492359
100
AcDbArc
 50
163.3166796513403
 51
224.3184104320893
  0
ARC
  5
1C1
330
2
100
AcDbEntity
  8
KIJUN
100
AcDbCircle
 10
103.5799096874729
 20
30.42816600605529
 30
0.0
 40
3.737958973492359
100
AcDbArc
 50
163.3166796513403
 51
224.3184104320893
  0
ARC
  5
1C2
330
2
100
AcDbEntity
  8
KIJUN
100
AcDbCircle
 10
102.2001509511005
 20
33.36712566024079
 30
0.0
 40
0.8
100
AcDbArc
 50
349.17756878325
 51
135.4866885518164
  0
ARC
  5
1C3
330
2
100
AcDbEntity
  8
KIJUN
100
AcDbCircle
 10
121.1180656806122
 20
29.75066399774113
 30
0.0
 40
18.4604852656779
100
AcDbArc
 50
169.1775687832435
 51
178.9310988351186
  0
ARC
  5
1C4
330
2
100
AcDbEntity
  8
KIJUN
100
AcDbCircle
 10
105.2206603023837
 20
28.911220871382
 30
0.0
 40
0.8
100
AcDbArc
 50
213.4948119208183
 51
326.5051880791814
  0
ARC
  5
1C5
330
2
100
AcDbEntity
  8
KIJUN
100
AcDbCircle
 10
109.6961165946095
 20
25.94956372152155
 30
0.0
 40
4.566667690191299
100
AcDbArc
 50
114.8012513412242
 51
146.5051880791973
  0
ARC
  5
1C6
330
2
100
AcDbEntity
  8
KIJUN
100
AcDbCircle
 10
100.745204010158
 20
25.94956372152155
 30
0.0
 40
4.566667690191299
100
AcDbArc
 50
33.49481192080263
 51
65.19874865877582
  0
ARC
  5
1C7
330
2
100
AcDbEntity
  8
KIJUN
100
AcDbCircle
 10
86.27853220524912
 20
27.33399060737719
 30
0.0
 40
2.802183118916735
100
AcDbArc
 50
96.04486921701765
 51
127.6362958899536
  0
ARC
  5
1C8
330
2
100
AcDbEntity
  8
KIJUN
100
AcDbCircle
 10
168.817256327516
 20
27.33399060737719
 30
0.0
 40
2.802183118916735
100
AcDbArc
 50
25.53506742386012
 51
83.95513078298234
  0
ARC
  5
1C9
330
2
100
AcDbEntity
  8
KIJUN
100
AcDbCircle
 10
172.0675840509024
 20
28.88676004061442
 30
0.0
 40
0.8
100
AcDbArc
 50
205.5350674238654
 51
279.6990292713454
  0
ARC
  5
1CA
330
2
100
AcDbEntity
  8
KIJUN
100
AcDbCircle
 10
110.7724697397888
 20
79.70190354398262
 30
0.0
 40
0.5
100
AcDbArc
 50
166.8431608156446
 51
202.4905185278666
  0
ARC
  5
1CB
330
2
100
AcDbEntity
  8
KIJUN
100
AcDbCircle
 10
115.3623055584902
 20
79.70190354398262
 30
0.0
 40
0.5
100
AcDbArc
 50
337.5094814721331
 51
13.15683918435523
  0
ARC
  5
1CC
330
2
100
AcDbEntity
  8
KIJUN
100
AcDbCircle
 10
105.4480706331896
 20
77.38441857765081
 30
0.0
 40
10.68149255871774
100
AcDbArc
 50
13.15683918435041
 51
44.4943545120348
  0
ARC
  5
1CD
330
2
100
AcDbEntity
  8
KIJUN
100
AcDbCircle
 10
120.6867046650895
 20
77.38441857765081
 30
0.0
 40
10.68149255871774
100
AcDbArc
 50
135.5056454879692
 51
166.8431608156496
  0
ARC
  5
1CE
330
2
100
AcDbEntity
  8
KIJUN
100
AcDbCircle
 10
106.7845768696807
 20
83.25325220561822
 30
0.0
 40
9.783830393502904
100
AcDbArc
 50
309.9532750400069
 51
337.5094814721468
  0
ARC
  5
1CF
330
2
100
AcDbEntity
  8
KIJUN
100
AcDbCircle
 10
119.3501984285985
 20
83.25325220561822
 30
0.0
 40
9.783830393502904
100
AcDbArc
 50
202.4905185278531
 51
230.0467249599897
  0
ARC
  5
1D0
330
2
100
AcDbEntity
  8
KIJUN
100
AcDbCircle
 10
116.0629514687766
 20
81.37562852142322
 30
0.0
 40
8.756765633741474
100
AcDbArc
 50
173.870762346291
 51
223.3448509550528
  0
ARC
  5
1D1
330
2
100
AcDbEntity
  8
KIJUN
100
AcDbCircle
 10
108.7795599869709
 20
74.92302469272281
 30
0.0
 40
1.016335983056852
100
AcDbArc
 50
209.0113985245953
 51
25.78280326196232
  0
ARC
  5
1D2
330
2
100
AcDbEntity
  8
KIJUN
100
AcDbCircle
 10
129.9736017103259
 20
89.32664246215892
 30
0.0
 40
26.6375438910991
100
AcDbArc
 50
202.4129717405906
 51
214.0025907879135
  0
ARC
  5
1D3
330
2
100
AcDbEntity
  8
KIJUN
100
AcDbCircle
 10
96.16117358795328
 20
89.32664246215892
 30
0.0
 40
26.6375438910991
100
AcDbArc
 50
325.9974092120863
 51
337.5870282594093
  0
ARC
  5
1D4
330
2
100
AcDbEntity
  8
KIJUN
100
AcDbCircle
 10
117.3552153113082
 20
74.92302469272281
 30
0.0
 40
1.016335983056852
100
AcDbArc
 50
154.2171967380376
 51
330.9886014754046
  0
ARC
  5
1D5
330
2
100
AcDbEntity
  8
KIJUN
100
AcDbCircle
 10
110.0718238295025
 20
81.37562852142322
 30
0.0
 40
8.756765633741474
100
AcDbArc
 50
316.6551490449472
 51
6.129237653708871
  0
ARC
  5
1D6
330
2
100
AcDbEntity
  8
KIJUN
100
AcDbCircle
 10
110.8485386869629
 20
79.41042595414605
 30
0.0
 40
8.443684819999241
100
AcDbArc
 50
20.08859161352666
 51
74.76479550277854
  0
ARC
  5
1D7
330
2
100
AcDbEntity
  8
KIJUN
100
AcDbCircle
 10
115.2862366113162
 20
79.41042595414605
 30
0.0
 40
8.443684819999241
100
AcDbArc
 50
105.2352044972248
 51
159.9114083864731
  0
ARC
  5
1D8
330
2
100
AcDbEntity
  8
KIJUN
100
AcDbCircle
 10
101.0934762043703
 20
79.53712087229732
 30
0.0
 40
4.27057294588126
100
AcDbArc
 50
355.0723476134143
 51
113.7533552154835
  0
ARC
  5
1D9
330
2
100
AcDbEntity
  8
KIJUN
100
AcDbCircle
 10
100.2996827807678
 20
78.82344540793353
 30
0.0
 40
4.714395050372838
100
AcDbArc
 50
101.3325606708153
 51
257.0060703349521
  0
ARC
  5
1DA
330
2
100
AcDbEntity
  8
KIJUN
100
AcDbCircle
 10
132.6526622706259
 20
54.26892743451225
 30
0.0
 40
47.57535084110542
100
AcDbArc
 50
145.5904037168705
 51
152.3343049175626
  0
ARC
  5
1DB
330
2
100
AcDbEntity
  8
KIJUN
100
AcDbCircle
 10
93.81460988080243
 20
80.87145256613222
 30
0.0
 40
0.5
100
AcDbArc
 50
127.9199948696664
 51
145.5904037168661
  0
ARC
  5
1DC
330
2
100
AcDbEntity
  8
KIJUN
100
AcDbCircle
 10
110.5107844502754
 20
65.29252414826411
 30
0.0
 40
28.61914842162823
100
AcDbArc
 50
84.87482644594136
 51
143.8653743010573
  0
ARC
  5
1DD
330
2
100
AcDbEntity
  8
KIJUN
100
AcDbCircle
 10
112.0806450667678
 20
63.91004115436873
 30
0.0
 40
25.42033528083894
100
AcDbArc
 50
45.97222522055493
 51
136.9407401749841
  0
ARC
  5
1DE
330
2
100
AcDbEntity
  8
KIJUN
100
AcDbCircle
 10
123.6430801014143
 20
78.82344540793353
 30
0.0
 40
4.714395050372838
100
AcDbArc
 50
282.9939296650479
 51
78.6674393291847
  0
ARC
  5
1DF
330
2
100
AcDbEntity
  8
KIJUN
100
AcDbCircle
 10
123.352174562275
 20
80.71160884575162
 30
0.0
 40
2.993042295072444
100
AcDbArc
 50
66.00167303939688
 51
210.9953089572088
  0
ARC
  5
1E0
330
2
100
AcDbEntity
  8
KIJUN
100
AcDbCircle
 10
125.7516278496481
 20
75.62389865931542
 30
0.0
 40
1.744422143947214
100
AcDbArc
 50
146.96661379116
 51
233.0531646454188
  0
ARC
  5
1E1
330
2
100
AcDbEntity
  8
KIJUN
100
AcDbCircle
 10
129.1656812409713
 20
81.37434567435333
 30
0.0
 40
1.0
100
AcDbArc
 50
35.58916303774893
 51
54.38930674851261
  0
ARC
  5
1E2
330
2
100
AcDbEntity
  8
KIJUN
100
AcDbCircle
 10
91.29010061155623
 20
54.26892743451225
 30
0.0
 40
47.57535084110542
100
AcDbArc
 50
27.66569508243731
 51
35.58916303774792
  0
ARC
  5
1E3
330
2
100
AcDbEntity
  8
KIJUN
100
AcDbCircle
 10
123.8558597359886
 20
75.27145701091291
 30
0.0
 40
1.373519771620985
100
AcDbArc
 50
71.60983536419606
 51
180.2037940777659
  0
ARC
  5
1E4
330
2
100
AcDbEntity
  8
KIJUN
100
AcDbCircle
 10
115.1868861239153
 20
68.76047375039262
 30
0.0
 40
25.12633030111107
100
AcDbArc
 50
31.78183990692053
 51
94.83886009389822
  0
ARC
  5
1E5
330
2
100
AcDbEntity
  8
KIJUN
100
AcDbCircle
 10
98.55673015621688
 20
75.56718630956092
 30
0.0
 40
12.96614323064217
100
AcDbArc
 50
149.3933082463006
 51
222.9790218105273
  0
ARC
  5
1E6
330
2
100
AcDbEntity
  8
KIJUN
100
AcDbCircle
 10
92.14736631919278
 20
72.46894913540391
 30
0.0
 40
6.558067359947831
100
AcDbArc
 50
249.6074220328564
 51
345.5163743086683
  0
ARC
  5
1E7
330
2
100
AcDbEntity
  8
KIJUN
100
AcDbCircle
 10
89.87509092435038
 20
67.32181159919092
 30
0.0
 40
1.0
100
AcDbArc
 50
216.4443033850059
 51
269.2615912177711
  0
ELLIPSE
  5
1E8
330
2
100
AcDbEntity
  8
KIJUN
100
AcDbEllipse
 10
113.4052399250485
 20
68.71601658031763
 30
0.0
 11
3.457200370998471
 21
0.0
 31
0.0
210
0.0
220
0.0
230
1.0
 40
0.7343666486515076
 41
0.0
 42
6.283185307179584
  0
ARC
  5
1E9
330
2
100
AcDbEntity
  8
KIJUN
100
AcDbCircle
 10
107.4141524599326
 20
80.08423021712053
 30
0.0
 40
8.192625485161464
100
AcDbArc
 50
258.7763078931195
 51
313.6332356750838
  0
ARC
  5
1EA
330
2
100
AcDbEntity
  8
KIJUN
100
AcDbCircle
 10
106.0048802951346
 20
79.58067079831213
 30
0.0
 40
7.534659968860472
100
AcDbArc
 50
214.9294396686175
 51
268.5904764382742
  0
ARC
  5
1EB
330
2
100
AcDbEntity
  8
KIJUN
100
AcDbCircle
 10
117.2328422255227
 20
77.02424443464781
 30
0.0
 40
5.058225323163227
100
AcDbArc
 50
214.56317206316
 51
284.8073158379275
  0
ARC
  5
1EC
330
2
100
AcDbEntity
  8
KIJUN
100
AcDbCircle
 10
118.3194500840181
 20
76.45955715499271
 30
0.0
 40
4.330466381074068
100
AcDbArc
 50
272.7281586100403
 51
344.0089839692253
  0
ARC
  5
1ED
330
2
100
AcDbEntity
  8
KIJUN
100
AcDbCircle
 10
98.17050920816246
 20
75.59405680760582
 30
0.0
 40
1.733312180360464
100
AcDbArc
 50
308.0847249772891
 51
34.46053073716574
  0
ARC
  5
1EE
330
2
100
AcDbEntity
  8
KIJUN
100
AcDbCircle
 10
100.2632130362762
 20
78.39306756890632
 30
0.0
 40
1.935534704682115
100
AcDbArc
 50
106.7749391406872
 51
249.9505959061549
  0
ARC
  5
1EF
330
2
100
AcDbEntity
  8
KIJUN
100
AcDbCircle
 10
122.4496574948675
 20
78.63631517863556
 30
0.0
 40
2.762893648937013
100
AcDbArc
 50
311.7435648824139
 51
68.98221304370249
  0
ARC
  5
1F0
330
2
100
AcDbEntity
  8
KIJUN
100
AcDbCircle
 10
92.83078362267634
 20
74.46685648644701
 30
0.0
 40
2.989147817383096
100
AcDbArc
 50
140.7346461300306
 51
214.4662982347074
  0
ARC
  5
1F1
330
2
100
AcDbEntity
  8
KIJUN
100
AcDbCircle
 10
94.2509755225824
 20
71.0471591869847
 30
0.0
 40
4.251650588834444
100
AcDbArc
 50
357.0554586015236
 51
156.0181054533519
  0
ARC
  5
1F2
330
2
100
AcDbEntity
  8
KIJUN
100
AcDbCircle
 10
131.2195189548968
 20
74.70267855022544
 30
0.0
 40
2.759010866097364
100
AcDbArc
 50
315.6852181696324
 51
36.88654931999039
  0
ARC
  5
1F3
330
2
100
AcDbEntity
  8
KIJUN
100
AcDbCircle
 10
129.4555407797415
 20
71.2612379941894
 30
0.0
 40
4.033046351403669
100
AcDbArc
 50
22.04888763602341
 51
186.1559426008442
  0
CIRCLE
  5
1F4
330
2
100
AcDbEntity
  8
KIJUN
100
AcDbCircle
 10
92.41094460860722
 20
71.37038020654483
 30
0.0
 40
2.386106551501506
  0
CIRCLE
  5
1F5
330
2
100
AcDbEntity
  8
KIJUN
100
AcDbCircle
 10
131.1971425719525
 20
71.37038020654483
 30
0.0
 40
2.386106551501506
  0
ARC
  5
1F6
330
2
100
AcDbEntity
  8
KIJUN
100
AcDbCircle
 10
132.990986784121
 20
73.57650072641733
 30
0.0
 40
8.029987804545955
100
AcDbArc
 50
200.0100868564974
 51
289.6569185249994
  0
ARC
  5
1F7
330
2
100
AcDbEntity
  8
KIJUN
100
AcDbCircle
 10
127.2279163462834
 20
74.47925710706583
 30
0.0
 40
11.9706408218904
100
AcDbArc
 50
314.9982043826629
 51
38.88642592305823
  0
LINE
  5
1F8
330
2
100
AcDbEntity
  8
KIJUN
100
AcDbLine
 10
96.33308717487899
 20
104.1433900882622
 30
0.0
 11
102.1859460205137
 21
104.1433900882622
 31
0.0
  0
LINE
  5
1F9
330
2
100
AcDbEntity
  8
KIJUN
100
AcDbLine
 10
96.33308717487899
 20
99.85609561242625
 30
0.0
 11
102.1859460205137
 21
99.85609561242625
 31
0.0
  0
ARC
  5
1FA
330
2
100
AcDbEntity
  8
KIJUN
100
AcDbCircle
 10
102.1859460205137
 20
101.9997428503444
 30
0.0
 40
2.143647237918048
100
AcDbArc
 50
270.0
 51
90.0
  0
ARC
  5
1FB
330
2
100
AcDbEntity
  8
KIJUN
100
AcDbCircle
 10
96.33308717487899
 20
101.9997428503444
 30
0.0
 40
2.143647237918048
100
AcDbArc
 50
90.0
 51
270.0
  0
CIRCLE
  5
1FC
330
2
100
AcDbEntity
  8
KIJUN
100
AcDbCircle
 10
108.2092987921228
 20
101.9997428503444
 30
0.0
 40
2.143647237918048
  0
CIRCLE
  5
1FD
330
2
100
AcDbEntity
  8
KIJUN
100
AcDbCircle
 10
113.9485044765669
 20
101.9997428503444
 30
0.0
 40
2.143647237918048
  0
CIRCLE
  5
1FE
330
2
100
AcDbEntity
  8
KIJUN
100
AcDbCircle
 10
119.6308883084788
 20
101.9997428503444
 30
0.0
 40
2.143647237918048
  0
ARC
  5
1FF
330
2
100
AcDbEntity
  8
KIJUN
100
AcDbCircle
 10
125.7848112481286
 20
101.9997428503444
 30
0.0
 40
2.143647237918048
100
AcDbArc
 50
90.0
 51
270.0
  0
ARC
  5
200
330
2
100
AcDbEntity
  8
KIJUN
100
AcDbCircle
 10
131.6376700937638
 20
101.9997428503444
 30
0.0
 40
2.143647237918048
100
AcDbArc
 50
270.0
 51
90.0
  0
LINE
  5
201
330
2
100
AcDbEntity
  8
KIJUN
100
AcDbLine
 10
125.7848112481286
 20
99.85609561242625
 30
0.0
 11
131.6376700937638
 21
99.85609561242625
 31
0.0
  0
LINE
  5
202
330
2
100
AcDbEntity
  8
KIJUN
100
AcDbLine
 10
125.7848112481286
 20
104.1433900882622
 30
0.0
 11
131.6376700937638
 21
104.1433900882622
 31
0.0
  0
CIRCLE
  5
203
330
2
100
AcDbEntity
  8
KIJUN
100
AcDbCircle
 10
89.70697369691698
 20
101.9997428503444
 30
0.0
 40
2.143647237918048
  0
ARC
  5
204
330
2
100
AcDbEntity
  8
KIJUN
100
AcDbCircle
 10
83.96776801247233
 20
101.9997428503444
 30
0.0
 40
2.143647237918048
100
AcDbArc
 50
286.243456045258
 51
73.75654395474207
  0
ELLIPSE
  5
205
330
2
100
AcDbEntity
  8
KIJUN
100
AcDbEllipse
 10
92.94319457793607
 20
52.14392514912304
 30
0.0
 11
4.90731021761203
 21
0.0
 31
0.0
210
0.0
220
0.0
230
1.0
 40
0.9281600502708355
 41
0.0
 42
6.283185307179584
  0
CIRCLE
  5
206
330
2
100
AcDbEntity
  8
KIJUN
100
AcDbCircle
 10
116.5867305286492
 20
41.96428989573559
 30
0.0
 40
1.453374311808145
  0
CIRCLE
  5
207
330
2
100
AcDbEntity
  8
KIJUN
100
AcDbCircle
 10
93.73645940251027
 20
41.96428989573559
 30
0.0
 40
1.453374311808145
  0
CIRCLE
  5
208
330
2
100
AcDbEntity
  8
KIJUN
100
AcDbCircle
 10
93.73645940251027
 20
41.96428989573559
 30
0.0
 40
1.453374311808145
  0
ARC
  5
209
330
2
100
AcDbEntity
  8
KIJUN
100
AcDbCircle
 10
313.4198483854184
 20
36.12109765733129
 30
0.0
 40
3.49282902315871
100
AcDbArc
 50
212.3323784400342
 51
335.4212178987205
  0
ARC
  5
20A
330
2
100
AcDbEntity
  8
KIJUN
100
AcDbCircle
 10
312.2598423123723
 20
26.33217353516119
 30
0.0
 40
5.189234548520243
100
AcDbArc
 50
16.62282956760311
 51
95.04991397955803
  0
ARC
  5
20B
330
2
100
AcDbEntity
  8
KIJUN
100
AcDbCircle
 10
322.8148607036528
 20
26.33217353516119
 30
0.0
 40
5.189234548520243
100
AcDbArc
 50
115.6646461638195
 51
163.3771704323968
  0
ARC
  5
20C
330
2
100
AcDbEntity
  8
KIJUN
100
AcDbCircle
 10
321.8806158975371
 20
37.52672892667232
 30
0.0
 40
4.698918945574749
100
AcDbArc
 50
217.5271849116349
 51
253.7711533966649
  0
ARC
  5
20D
330
2
100
AcDbEntity
  8
KIJUN
100
AcDbCircle
 10
268.7653804574206
 20
36.12109765733129
 30
0.0
 40
3.49282902315871
100
AcDbArc
 50
212.3323784400342
 51
335.4212178987205
  0
ARC
  5
20E
330
2
100
AcDbEntity
  8
KIJUN
100
AcDbCircle
 10
267.6053743843745
 20
26.33217353516119
 30
0.0
 40
5.189234548520243
100
AcDbArc
 50
16.62282956760311
 51
95.04991397955803
  0
ARC
  5
20F
330
2
100
AcDbEntity
  8
KIJUN
100
AcDbCircle
 10
306.0309878348957
 20
28.88676004061442
 30
0.0
 40
0.8
100
AcDbArc
 50
205.5350674238654
 51
279.6990292713454
  0
ARC
  5
210
330
2
100
AcDbEntity
  8
KIJUN
100
AcDbCircle
 10
306.3005441218516
 20
28.88676004061442
 30
0.0
 40
0.8
100
AcDbArc
 50
260.3009707286546
 51
334.4649325761344
  0
ARC
  5
211
330
2
100
AcDbEntity
  8
KIJUN
100
AcDbCircle
 10
309.5508718452378
 20
27.33399060737719
 30
0.0
 40
2.802183118916735
100
AcDbArc
 50
96.04486921701765
 51
154.4649325761398
  0
ARC
  5
212
330
2
100
AcDbEntity
  8
KIJUN
100
AcDbCircle
 10
308.2224536885633
 20
30.42816600605529
 30
0.0
 40
3.737958973492359
100
AcDbArc
 50
315.6815895679105
 51
16.68332034865963
  0
ARC
  5
213
330
2
100
AcDbEntity
  8
KIJUN
100
AcDbCircle
 10
309.6101777702724
 20
33.64843726472799
 30
0.0
 40
0.8
100
AcDbArc
 50
105.4293468135725
 51
201.3510410694102
  0
ARC
  5
214
330
2
100
AcDbEntity
  8
KIJUN
100
AcDbCircle
 10
302.7885181075743
 20
30.9817801394567
 30
0.0
 40
6.524349853566682
100
AcDbArc
 50
352.4150581510547
 51
21.35104106940916
  0
ARC
  5
215
330
2
100
AcDbEntity
  8
KIJUN
100
AcDbCircle
 10
309.7482070364477
 20
33.1483258424343
 30
0.0
 40
1.318809707917625
100
AcDbArc
 50
56.89289928687006
 51
105.4293468135759
  0
ARC
  5
216
330
2
100
AcDbEntity
  8
KIJUN
100
AcDbCircle
 10
302.7806601115094
 20
27.33399060737719
 30
0.0
 40
2.802183118916735
100
AcDbArc
 50
25.53506742386012
 51
83.95513078298234
  0
ARC
  5
217
330
2
100
AcDbEntity
  8
KIJUN
100
AcDbCircle
 10
288.3139883066005
 20
25.94956372152155
 30
0.0
 40
4.566667690191299
100
AcDbArc
 50
114.8012513412242
 51
146.5051880791973
  0
ARC
  5
218
330
2
100
AcDbEntity
  8
KIJUN
100
AcDbCircle
 10
279.3630757221489
 20
25.94956372152155
 30
0.0
 40
4.566667690191299
100
AcDbArc
 50
33.49481192080263
 51
65.19874865877582
  0
ARC
  5
219
330
2
100
AcDbEntity
  8
KIJUN
100
AcDbCircle
 10
283.8385320143748
 20
28.911220871382
 30
0.0
 40
0.8
100
AcDbArc
 50
213.4948119208183
 51
326.5051880791814
  0
ARC
  5
21A
330
2
100
AcDbEntity
  8
KIJUN
100
AcDbCircle
 10
267.9411266361462
 20
29.75066399774113
 30
0.0
 40
18.4604852656779
100
AcDbArc
 50
1.068901164881304
 51
10.82243121675641
  0
ARC
  5
21B
330
2
100
AcDbEntity
  8
KIJUN
100
AcDbCircle
 10
286.859041365658
 20
33.36712566024079
 30
0.0
 40
0.8
100
AcDbArc
 50
44.51331144818126
 51
190.8224312167497
  0
ARC
  5
21C
330
2
100
AcDbEntity
  8
KIJUN
100
AcDbCircle
 10
285.4792826292856
 20
30.42816600605529
 30
0.0
 40
3.737958973492359
100
AcDbArc
 50
315.6815895679105
 51
16.68332034865963
  0
ARC
  5
21D
330
2
100
AcDbEntity
  8
KIJUN
100
AcDbCircle
 10
285.4792826292856
 20
30.42816600605529
 30
0.0
 40
3.737958973492359
100
AcDbArc
 50
315.6815895679105
 51
16.68332034865963
  0
ARC
  5
21E
330
2
100
AcDbEntity
  8
KIJUN
100
AcDbCircle
 10
290.4509160592101
 20
37.52672892667232
 30
0.0
 40
4.698918945574749
100
AcDbArc
 50
229.9841166900304
 51
322.4728150883651
  0
ARC
  5
21F
330
2
100
AcDbEntity
  8
KIJUN
100
AcDbCircle
 10
289.5166712530945
 20
26.33217353516119
 30
0.0
 40
5.189234548520243
100
AcDbArc
 50
16.62282956760311
 51
95.04991397955803
  0
ARC
  5
220
330
2
100
AcDbEntity
  8
KIJUN
100
AcDbCircle
 10
300.071689644375
 20
26.33217353516119
 30
0.0
 40
5.189234548520243
100
AcDbArc
 50
84.95008602044196
 51
163.3771704323968
  0
ARC
  5
221
330
2
100
AcDbEntity
  8
KIJUN
100
AcDbCircle
 10
298.911683571329
 20
36.12109765733129
 30
0.0
 40
3.49282902315871
100
AcDbArc
 50
204.5787821012795
 51
327.6676215599656
  0
ARC
  5
222
330
2
100
AcDbEntity
  8
KIJUN
100
AcDbCircle
 10
302.5833249202996
 20
33.1483258424343
 30
0.0
 40
1.318809707917625
100
AcDbArc
 50
74.57065318642387
 51
123.10710071313
  0
ARC
  5
223
330
2
100
AcDbEntity
  8
KIJUN
100
AcDbCircle
 10
309.5430138491727
 20
30.9817801394567
 30
0.0
 40
6.524349853566682
100
AcDbArc
 50
158.6489589305907
 51
187.5849418489451
  0
ARC
  5
224
330
2
100
AcDbEntity
  8
KIJUN
100
AcDbCircle
 10
302.7213541864747
 20
33.64843726472799
 30
0.0
 40
0.8
100
AcDbArc
 50
338.6489589305896
 51
74.57065318642744
  0
ARC
  5
225
330
2
100
AcDbEntity
  8
KIJUN
100
AcDbCircle
 10
304.1090782681841
 20
30.42816600605529
 30
0.0
 40
3.737958973492359
100
AcDbArc
 50
163.3166796513403
 51
224.3184104320893
  0
ARC
  5
226
330
2
100
AcDbEntity
  8
KIJUN
100
AcDbCircle
 10
282.197781399464
 20
30.42816600605529
 30
0.0
 40
3.737958973492359
100
AcDbArc
 50
163.3166796513403
 51
224.3184104320893
  0
ARC
  5
227
330
2
100
AcDbEntity
  8
KIJUN
100
AcDbCircle
 10
282.197781399464
 20
30.42816600605529
 30
0.0
 40
3.737958973492359
100
AcDbArc
 50
163.3166796513403
 51
224.3184104320893
  0
ARC
  5
228
330
2
100
AcDbEntity
  8
KIJUN
100
AcDbCircle
 10
280.8180226630916
 20
33.36712566024079
 30
0.0
 40
0.8
100
AcDbArc
 50
349.17756878325
 51
135.4866885518164
  0
ARC
  5
229
330
2
100
AcDbEntity
  8
KIJUN
100
AcDbCircle
 10
299.7359373926033
 20
29.75066399774113
 30
0.0
 40
18.4604852656779
100
AcDbArc
 50
169.1775687832435
 51
178.9310988351186
  0
ARC
  5
22A
330
2
100
AcDbEntity
  8
KIJUN
100
AcDbCircle
 10
278.160392775655
 20
26.33217353516119
 30
0.0
 40
5.189234548520243
100
AcDbArc
 50
84.95008602044196
 51
163.3771704323968
  0
ARC
  5
22B
330
2
100
AcDbEntity
  8
KIJUN
100
AcDbCircle
 10
277.2261479695394
 20
37.52672892667232
 30
0.0
 40
4.698918945574749
100
AcDbArc
 50
217.5271849116349
 51
310.0158833099697
  0
ARC
  5
22C
330
2
100
AcDbEntity
  8
KIJUN
100
AcDbCircle
 10
264.89640391724
 20
27.33399060737719
 30
0.0
 40
2.802183118916735
100
AcDbArc
 50
96.04486921701765
 51
160.0074874094281
  0
ARC
  5
22D
330
2
100
AcDbEntity
  8
KIJUN
100
AcDbCircle
 10
258.1261921835117
 20
27.33399060737719
 30
0.0
 40
2.802183118916735
100
AcDbArc
 50
19.99251259057176
 51
83.95513078298234
  0
ARC
  5
22E
330
2
100
AcDbEntity
  8
KIJUN
100
AcDbCircle
 10
261.5112980503759
 20
28.56556743905656
 30
0.0
 40
0.8
100
AcDbArc
 50
199.9925125905805
 51
340.0074874094193
  0
ARC
  5
22F
330
2
100
AcDbEntity
  8
KIJUN
100
AcDbCircle
 10
263.5679857605655
 20
30.42816600605529
 30
0.0
 40
3.737958973492359
100
AcDbArc
 50
315.6815895679105
 51
16.68332034865963
  0
ARC
  5
230
330
2
100
AcDbEntity
  8
KIJUN
100
AcDbCircle
 10
264.9557098422746
 20
33.64843726472799
 30
0.0
 40
0.8
100
AcDbArc
 50
105.4293468135725
 51
201.3510410694102
  0
ARC
  5
231
330
2
100
AcDbEntity
  8
KIJUN
100
AcDbCircle
 10
258.1340501795767
 20
30.9817801394567
 30
0.0
 40
6.524349853566682
100
AcDbArc
 50
352.4150581510547
 51
21.35104106940916
  0
ARC
  5
232
330
2
100
AcDbEntity
  8
KIJUN
100
AcDbCircle
 10
265.0937391084499
 20
33.1483258424343
 30
0.0
 40
1.318809707917625
100
AcDbArc
 50
56.89289928687006
 51
105.4293468135759
  0
ARC
  5
233
330
2
100
AcDbEntity
  8
KIJUN
100
AcDbCircle
 10
255.4172217163772
 20
26.33217353516119
 30
0.0
 40
5.189234548520243
100
AcDbArc
 50
84.95008602044196
 51
163.3771704323968
  0
ARC
  5
234
330
2
100
AcDbEntity
  8
KIJUN
100
AcDbCircle
 10
245.7964481312124
 20
37.52672892667232
 30
0.0
 40
4.698918945574749
100
AcDbArc
 50
229.9841166900304
 51
322.4728150883651
  0
ARC
  5
235
330
2
100
AcDbEntity
  8
KIJUN
100
AcDbCircle
 10
244.8622033250966
 20
26.33217353516119
 30
0.0
 40
5.189234548520243
100
AcDbArc
 50
16.62282956760311
 51
95.04991397955803
  0
ARC
  5
236
330
2
100
AcDbEntity
  8
KIJUN
100
AcDbCircle
 10
254.2572156433312
 20
36.12109765733129
 30
0.0
 40
3.49282902315871
100
AcDbArc
 50
204.5787821012795
 51
327.6676215599656
  0
ARC
  5
237
330
2
100
AcDbEntity
  8
KIJUN
100
AcDbCircle
 10
223.2866587081485
 20
29.75066399774113
 30
0.0
 40
18.4604852656779
100
AcDbArc
 50
1.068901164881304
 51
10.82243121675641
  0
ARC
  5
238
330
2
100
AcDbEntity
  8
KIJUN
100
AcDbCircle
 10
242.2045734376601
 20
33.36712566024079
 30
0.0
 40
0.8
100
AcDbArc
 50
44.51331144818126
 51
190.8224312167497
  0
ARC
  5
239
330
2
100
AcDbEntity
  8
KIJUN
100
AcDbCircle
 10
240.8248147012878
 20
30.42816600605529
 30
0.0
 40
3.737958973492359
100
AcDbArc
 50
315.6815895679105
 51
16.68332034865963
  0
ARC
  5
23A
330
2
100
AcDbEntity
  8
KIJUN
100
AcDbCircle
 10
257.9288569923019
 20
33.1483258424343
 30
0.0
 40
1.318809707917625
100
AcDbArc
 50
74.57065318642387
 51
123.10710071313
  0
ARC
  5
23B
330
2
100
AcDbEntity
  8
KIJUN
100
AcDbCircle
 10
264.8885459211751
 20
30.9817801394567
 30
0.0
 40
6.524349853566682
100
AcDbArc
 50
158.6489589305907
 51
187.5849418489451
  0
ARC
  5
23C
330
2
100
AcDbEntity
  8
KIJUN
100
AcDbCircle
 10
258.066886258477
 20
33.64843726472799
 30
0.0
 40
0.8
100
AcDbArc
 50
338.6489589305896
 51
74.57065318642744
  0
ARC
  5
23D
330
2
100
AcDbEntity
  8
KIJUN
100
AcDbCircle
 10
240.8248147012878
 20
30.42816600605529
 30
0.0
 40
3.737958973492359
100
AcDbArc
 50
315.6815895679105
 51
16.68332034865963
  0
ARC
  5
23E
330
2
100
AcDbEntity
  8
KIJUN
100
AcDbCircle
 10
259.4546103401863
 20
30.42816600605529
 30
0.0
 40
3.737958973492359
100
AcDbArc
 50
163.3166796513403
 51
224.3184104320893
  0
ARC
  5
23F
330
2
100
AcDbEntity
  8
KIJUN
100
AcDbCircle
 10
239.1840640863771
 20
28.911220871382
 30
0.0
 40
0.8
100
AcDbArc
 50
213.4948119208183
 51
326.5051880791814
  0
ARC
  5
240
330
2
100
AcDbEntity
  8
KIJUN
100
AcDbCircle
 10
243.6595203786028
 20
25.94956372152155
 30
0.0
 40
4.566667690191299
100
AcDbArc
 50
114.8012513412242
 51
146.5051880791973
  0
ARC
  5
241
330
2
100
AcDbEntity
  8
KIJUN
100
AcDbCircle
 10
306.8273070157911
 20
101.9997428503444
 30
0.0
 40
2.143647237918048
100
AcDbArc
 50
270.0
 51
90.0
  0
LINE
  5
242
330
2
100
AcDbEntity
  8
KIJUN
100
AcDbLine
 10
306.8273070157911
 20
99.85609561242625
 30
0.0
 11
300.9744481701559
 21
99.85609561242625
 31
0.0
  0
LINE
  5
243
330
2
100
AcDbEntity
  8
KIJUN
100
AcDbLine
 10
306.8273070157911
 20
104.1433900882622
 30
0.0
 11
300.9744481701559
 21
104.1433900882622
 31
0.0
  0
ARC
  5
244
330
2
100
AcDbEntity
  8
KIJUN
100
AcDbCircle
 10
300.9744481701559
 20
101.9997428503444
 30
0.0
 40
2.143647237918048
100
AcDbArc
 50
90.0
 51
270.0
  0
CIRCLE
  5
245
330
2
100
AcDbEntity
  8
KIJUN
100
AcDbCircle
 10
312.9812299554409
 20
101.9997428503444
 30
0.0
 40
2.143647237918048
  0
CIRCLE
  5
246
330
2
100
AcDbEntity
  8
KIJUN
100
AcDbCircle
 10
312.9812299554409
 20
101.9997428503444
 30
0.0
 40
2.143647237918048
  0
CIRCLE
  5
247
330
2
100
AcDbEntity
  8
KIJUN
100
AcDbCircle
 10
318.6636137873528
 20
101.9997428503444
 30
0.0
 40
2.143647237918048
  0
CIRCLE
  5
248
330
2
100
AcDbEntity
  8
KIJUN
100
AcDbCircle
 10
318.6636137873528
 20
101.9997428503444
 30
0.0
 40
2.143647237918048
  0
CIRCLE
  5
249
330
2
100
AcDbEntity
  8
KIJUN
100
AcDbCircle
 10
293.5599363189131
 20
41.96428989573559
 30
0.0
 40
1.453374311808145
  0
CIRCLE
  5
24A
330
2
100
AcDbEntity
  8
KIJUN
100
AcDbCircle
 10
304.3590291549157
 20
41.96428989573559
 30
0.0
 40
1.453374311808145
  0
CIRCLE
  5
24B
330
2
100
AcDbEntity
  8
KIJUN
100
AcDbCircle
 10
315.1581219909186
 20
41.96428989573559
 30
0.0
 40
1.453374311808145
  0
TEXT
  5
24C
330
2
100
AcDbEntity
  8
HOJO
100
AcDbText
 10
0.3352747691446893
 20
1.183313000000011
 30
0.0
 40
4.5
  1
PM827
  7
SUNPOU
100
AcDbText
  0
LINE
  5
24E
330
2
100
AcDbEntity
  8
WAKU
100
AcDbLine
 10
0.0
 20
0.0
 30
0.0
 11
44.67747103027142
 21
0.0
 31
0.0
  0
LINE
  5
250
330
2
100
AcDbEntity
  8
WAKU
100
AcDbLine
 10
0.0
 20
7.0
 30
0.0
 11
44.67747103027142
 21
7.0
 31
0.0
  0
TEXT
  5
251
330
2
100
AcDbEntity
  8
HOJO
100
AcDbText
 10
30.73519785024632
 20
2.522193000000015
 30
0.0
 40
3.0
  1
84\U+00D731
  7
SUNPOU
100
AcDbText
  0
LWPOLYLINE
  5
252
330
2
100
AcDbEntity
  8
KIJUN
100
AcDbPolyline
 90
       39
 70
     1
 43
0.0
 10
54.1523185910629
 20
64.57158389042032
 10
54.15231859106166
 20
66.98943679312212
 42
0.2121945978035091
 10
55.50436692929332
 20
70.49915029527863
 10
55.22938027526072
 20
78.69597126580822
 42
0.1948380267030621
 10
54.26922919999032
 20
81.22048726477633
 42
0.1055181774848263
 10
53.48654501680551
 20
92.09950340139554
 42
-0.446541993959283
 10
54.27490799011883
 20
93.36293316112152
 10
54.46998029757669
 20
93.39701683880512
 42
0.4097864229789031
 10
55.28543380744589
 20
94.53927735370021
 42
0.0100965019020754
 10
55.25930905528286
 20
94.68446671626869
 42
0.3272042996371467
 10
54.92340302169139
 20
101.0715838904203
 10
54.93605588285368
 20
101.4149059163957
 42
-0.228571410739347
 10
53.15231859106166
 20
104.0237234958314
 10
53.15231859106166
 20
108.0715838904212
 42
0.4142135623730951
 10
52.15231859106303
 20
109.0715838904203
 10
47.15231859106291
 20
109.0715838904203
 42
0.4142135623730951
 10
46.15231859106303
 20
108.0715838904212
 10
46.15231859106303
 20
99.07158389042031
 10
30.15231859106291
 20
99.07158389042031
 42
0.4142135623730951
 10
29.15231859106291
 20
98.07158389042029
 10
29.15231859106291
 20
26.07158389042041
 42
0.4142135623730951
 10
30.15231859106291
 20
25.07158389042132
 10
44.37051082487431
 20
25.07158389042133
 42
0.3878912856080872
 10
45.36640053091169
 20
25.98100964788745
 10
45.44774031884367
 20
26.87536388400594
 10
45.83164011175739
 20
27.07362752478291
 42
-0.2421414690867098
 10
51.89411399753192
 20
40.93758158917141
 10
51.87246320979387
 20
42.24745943757549
 42
-0.2247216930052976
 10
58.40889571086847
 20
47.77067790427842
 42
0.3401013008701986
 10
59.15231859106292
 20
48.73720166580249
 10
59.1523185910629
 20
49.37310227514597
 42
-0.1042069153494407
 10
59.23733481937745
 20
49.77659291636808
 42
0.2164053533975855
 10
59.15197109220536
 20
57.60104233380634
 42
-0.0927582230353246
 10
58.69306233615059
 20
59.38221311370506
 42
0.2138733084700514
 10
57.84965136108771
 20
60.96890123407021
 10
56.602083807136
 20
61.95613843690053
 42
-0.1645997517968335
 10
56.25341980177587
 20
62.49405551562965
 10
55.97948835074487
 20
63.57217805241422
 42
0.2758601318380529
 10
55.25314750957218
 20
64.29598114938754
  0
ENDSEC
  0
SECTION
  2
OBJECTS
  0
DICTIONARY
  5
A
330
0
100
AcDbDictionary
281
     1
  3
ACAD_COLOR
350
47
  3
ACAD_GROUP
350
3C
  3
ACAD_LAYOUT
350
1F
  3
ACAD_MATERIAL
350
C
  3
ACAD_MLEADERSTYLE
350
4A
  3
ACAD_MLINESTYLE
350
3D
  3
ACAD_PLOTSETTINGS
350
3E
  3
ACAD_PLOTSTYLENAME
350
9
  3
ACAD_SCALELIST
350
48
  3
ACAD_TABLESTYLE
350
49
  3
ACAD_VISUALSTYLE
350
32
  3
ACDB_RECOMPOSE_DATA
350
264
  3
AcDbVariableDictionary
350
257
  0
DICTIONARY
  5
3
330
2
100
AcDbDictionary
280
     1
281
     1
  3
ACAD_LAYOUTSELFREF
360
4
  0
DICTIONARY
  5
21
330
20
100
AcDbDictionary
280
     1
281
     1
  3
ACAD_LAYOUTSELFREF
360
22
  0
DICTIONARY
  5
47
102
{ACAD_REACTORS
330
A
102
}
330
A
100
AcDbDictionary
281
     1
  0
DICTIONARY
  5
3C
102
{ACAD_REACTORS
330
A
102
}
330
A
100
AcDbDictionary
281
     1
  0
DICTIONARY
  5
1F
102
{ACAD_REACTORS
330
A
102
}
330
A
100
AcDbDictionary
281
     1
  3
Model
350
1E
  3
ﾚｲｱｳﾄ1
350
25
  0
DICTIONARY
  5
C
102
{ACAD_REACTORS
330
A
102
}
330
A
100
AcDbDictionary
281
     1
  3
ByBlock
350
3F
  3
ByLayer
350
15
  3
Global
350
B
  0
DICTIONARY
  5
4A
102
{ACAD_REACTORS
330
A
102
}
330
A
100
AcDbDictionary
281
     1
  0
DICTIONARY
  5
3D
102
{ACAD_REACTORS
330
A
102
}
330
A
100
AcDbDictionary
281
     1
  3
STANDARD
350
4C
  0
DICTIONARY
  5
3E
102
{ACAD_REACTORS
330
A
102
}
330
A
100
AcDbDictionary
281
     1
  0
ACDBDICTIONARYWDFLT
  5
9
102
{ACAD_REACTORS
330
A
102
}
330
A
100
AcDbDictionary
281
     1
  3
Normal
350
8
100
AcDbDictionaryWithDefault
340
8
  0
DICTIONARY
  5
48
102
{ACAD_REACTORS
330
A
102
}
330
A
100
AcDbDictionary
281
     1
  3
A0
350
50
  3
A1
350
51
  3
A2
350
52
  3
A3
350
53
  3
A4
350
54
  3
A5
350
55
  3
A6
350
56
  3
A7
350
57
  3
A8
350
58
  3
A9
350
59
  3
B0
350
5A
  3
B1
350
5B
  3
B2
350
5C
  3
B3
350
5D
  3
B4
350
5E
  3
B5
350
5F
  3
B6
350
60
  0
DICTIONARY
  5
49
102
{ACAD_REACTORS
330
A
102
}
330
A
100
AcDbDictionary
281
     1
  3
Standard
350
4D
  0
DICTIONARY
  5
32
102
{ACAD_REACTORS
330
A
102
}
330
A
100
AcDbDictionary
281
     1
  3
2dWireframe
350
31
  3
Realistic
350
4E
  3
Wireframe
350
4F
  0
XRECORD
  5
264
102
{ACAD_REACTORS
330
A
102
}
330
A
100
AcDbXrecord
280
     1
 90
        1
330
4D
  0
DICTIONARY
  5
257
102
{ACAD_REACTORS
330
A
102
}
330
A
100
AcDbDictionary
281
     1
  3
CANNOSCALE
350
25C
  3
CMLEADERSTYLE
350
259
  3
CTABLESTYLE
350
258
  3
CVIEWDETAILSTYLE
350
25A
  3
CVIEWSECTIONSTYLE
350
25B
  3
DIMASSOC
350
260
  3
HIDETEXT
350
25F
  3
INDEXCTL
350
25E
  3
SORTENTS
350
25D
  3
XCLIPFRAME
350
261
  0
XRECORD
  5
4
102
{ACAD_REACTORS
330
3
102
}
330
3
100
AcDbXrecord
280
     1
340
2
  0
XRECORD
  5
22
102
{ACAD_REACTORS
330
21
102
}
330
21
100
AcDbXrecord
280
     1
340
20
  0
LAYOUT
  5
1E
102
{ACAD_XDICTIONARY
360
267
102
}
102
{ACAD_REACTORS
330
1F
102
}
330
1F
100
AcDbPlotSettings
  1

  2
なし
  4

  6

 40
0.0
 41
0.0
 42
0.0
 43
0.0
 44
0.0
 45
0.0
 46
0.0
 47
0.0
 48
0.0
 49
0.0
140
0.0
141
0.0
142
1.0
143
1.0
 70
  1712
 72
     0
 73
     0
 74
     0
  7
monochrome.ctb
 75
     0
147
1.0
148
0.0
149
0.0
100
AcDbLayout
  1
Model
 70
     1
 71
     0
 10
0.0
 20
0.0
 11
12.0
 21
9.0
 12
0.0
 22
0.0
 32
0.0
 14
0.0
 24
0.0
 34
0.0
 15
0.0
 25
0.0
 35
0.0
146
0.0
 13
0.0
 23
0.0
 33
0.0
 16
1.0
 26
0.0
 36
0.0
 17
0.0
 27
1.0
 37
0.0
 76
     0
330
2
  0
LAYOUT
  5
25
102
{ACAD_XDICTIONARY
360
269
102
}
102
{ACAD_REACTORS
330
1F
102
}
330
1F
100
AcDbPlotSettings
  1

  2
なし
  4

  6

 40
0.0
 41
0.0
 42
0.0
 43
0.0
 44
0.0
 45
0.0
 46
0.0
 47
0.0
 48
0.0
 49
0.0
140
0.0
141
0.0
142
1.0
143
1.0
 70
   688
 72
     0
 73
     0
 74
     5
  7
monochrome.ctb
 75
    16
147
1.0
148
0.0
149
0.0
100
AcDbLayout
  1
ﾚｲｱｳﾄ1
 70
     1
 71
     1
 10
0.0
 20
0.0
 11
12.0
 21
9.0
 12
0.0
 22
0.0
 32
0.0
 14
1.000000000000000E+20
 24
1.000000000000000E+20
 34
1.000000000000000E+20
 15
-1.000000000000000E+20
 25
-1.000000000000000E+20
 35
-1.000000000000000E+20
146
0.0
 13
0.0
 23
0.0
 33
0.0
 16
1.0
 26
0.0
 36
0.0
 17
0.0
 27
1.0
 37
0.0
 76
     0
330
20
  0
MATERIAL
  5
3F
102
{ACAD_XDICTIONARY
360
40
102
}
102
{ACAD_REACTORS
330
C
102
}
330
C
100
AcDbMaterial
  1
ByBlock
 72
     0
 43
0.0208333333333333
 43
0.0
 43
0.0
 43
0.0
 43
0.0
 43
0.0208333333333333
 43
0.0
 43
0.0
 43
0.0
 43
0.0
 43
1.0
 43
0.0
 43
0.0
 43
0.0
 43
0.0
 43
1.0
 77
     0
 47
0.0208333333333333
 47
0.0
 47
0.0
 47
0.0
 47
0.0
 47
0.0208333333333333
 47
0.0
 47
0.0
 47
0.0
 47
0.0
 47
1.0
 47
0.0
 47
0.0
 47
0.0
 47
0.0
 47
1.0
171
     0
 49
0.0208333333333333
 49
0.0
 49
0.0
 49
0.0
 49
0.0
 49
0.0208333333333333
 49
0.0
 49
0.0
 49
0.0
 49
0.0
 49
1.0
 49
0.0
 49
0.0
 49
0.0
 49
0.0
 49
1.0
175
     0
142
0.0208333333333333
142
0.0
142
0.0
142
0.0
142
0.0
142
0.0208333333333333
142
0.0
142
0.0
142
0.0
142
0.0
142
1.0
142
0.0
142
0.0
142
0.0
142
0.0
142
1.0
179
     0
144
0.0208333333333333
144
0.0
144
0.0
144
0.0
144
0.0
144
0.0208333333333333
144
0.0
144
0.0
144
0.0
144
0.0
144
1.0
144
0.0
144
0.0
144
0.0
144
0.0
144
1.0
147
0.0208333333333333
147
0.0
147
0.0
147
0.0
147
0.0
147
0.0208333333333333
147
0.0
147
0.0
147
0.0
147
0.0
147
1.0
147
0.0
147
0.0
147
0.0
147
0.0
147
1.0
  0
MATERIAL
  5
15
102
{ACAD_XDICTIONARY
360
16
102
}
102
{ACAD_REACTORS
330
C
102
}
330
C
100
AcDbMaterial
  1
ByLayer
 72
     0
 43
0.0208333333333333
 43
0.0
 43
0.0
 43
0.0
 43
0.0
 43
0.0208333333333333
 43
0.0
 43
0.0
 43
0.0
 43
0.0
 43
1.0
 43
0.0
 43
0.0
 43
0.0
 43
0.0
 43
1.0
 77
     0
 47
0.0208333333333333
 47
0.0
 47
0.0
 47
0.0
 47
0.0
 47
0.0208333333333333
 47
0.0
 47
0.0
 47
0.0
 47
0.0
 47
1.0
 47
0.0
 47
0.0
 47
0.0
 47
0.0
 47
1.0
171
     0
 49
0.0208333333333333
 49
0.0
 49
0.0
 49
0.0
 49
0.0
 49
0.0208333333333333
 49
0.0
 49
0.0
 49
0.0
 49
0.0
 49
1.0
 49
0.0
 49
0.0
 49
0.0
 49
0.0
 49
1.0
175
     0
142
0.0208333333333333
142
0.0
142
0.0
142
0.0
142
0.0
142
0.0208333333333333
142
0.0
142
0.0
142
0.0
142
0.0
142
1.0
142
0.0
142
0.0
142
0.0
142
0.0
142
1.0
179
     0
144
0.0208333333333333
144
0.0
144
0.0
144
0.0
144
0.0
144
0.0208333333333333
144
0.0
144
0.0
144
0.0
144
0.0
144
1.0
144
0.0
144
0.0
144
0.0
144
0.0
144
1.0
147
0.0208333333333333
147
0.0
147
0.0
147
0.0
147
0.0
147
0.0208333333333333
147
0.0
147
0.0
147
0.0
147
0.0
147
1.0
147
0.0
147
0.0
147
0.0
147
0.0
147
1.0
  0
MATERIAL
  5
B
102
{ACAD_XDICTIONARY
360
D
102
}
102
{ACAD_REACTORS
330
C
102
}
330
C
100
AcDbMaterial
  1
Global
 72
     0
 43
0.0208333333333333
 43
0.0
 43
0.0
 43
0.0
 43
0.0
 43
0.0208333333333333
 43
0.0
 43
0.0
 43
0.0
 43
0.0
 43
1.0
 43
0.0
 43
0.0
 43
0.0
 43
0.0
 43
1.0
 77
     0
 47
0.0208333333333333
 47
0.0
 47
0.0
 47
0.0
 47
0.0
 47
0.0208333333333333
 47
0.0
 47
0.0
 47
0.0
 47
0.0
 47
1.0
 47
0.0
 47
0.0
 47
0.0
 47
0.0
 47
1.0
171
     0
 49
0.0208333333333333
 49
0.0
 49
0.0
 49
0.0
 49
0.0
 49
0.0208333333333333
 49
0.0
 49
0.0
 49
0.0
 49
0.0
 49
1.0
 49
0.0
 49
0.0
 49
0.0
 49
0.0
 49
1.0
175
     0
142
0.0208333333333333
142
0.0
142
0.0
142
0.0
142
0.0
142
0.0208333333333333
142
0.0
142
0.0
142
0.0
142
0.0
142
1.0
142
0.0
142
0.0
142
0.0
142
0.0
142
1.0
179
     0
144
0.0208333333333333
144
0.0
144
0.0
144
0.0
144
0.0
144
0.0208333333333333
144
0.0
144
0.0
144
0.0
144
0.0
144
1.0
144
0.0
144
0.0
144
0.0
144
0.0
144
1.0
147
0.0208333333333333
147
0.0
147
0.0
147
0.0
147
0.0
147
0.0208333333333333
147
0.0
147
0.0
147
0.0
147
0.0
147
1.0
147
0.0
147
0.0
147
0.0
147
0.0
147
1.0
  0
MLINESTYLE
  5
4C
102
{ACAD_REACTORS
330
3D
102
}
330
3D
100
AcDbMlineStyle
  2
STANDARD
 70
     0
  3

 62
   256
 51
90.0
 52
90.0
 71
     2
 49
0.5
 62
   256
  6
BYLAYER
 49
-0.5
 62
   256
  6
BYLAYER
  0
ACDBPLACEHOLDER
  5
8
102
{ACAD_REACTORS
330
9
102
}
330
9
  0
SCALE
  5
50
102
{ACAD_REACTORS
330
48
102
}
330
48
100
AcDbScale
 70
     0
300
1:1
140
1.0
141
1.0
290
     1
  0
SCALE
  5
51
102
{ACAD_REACTORS
330
48
102
}
330
48
100
AcDbScale
 70
     0
300
1/128" = 1'-0"
140
0.0078125
141
12.0
290
     0
  0
SCALE
  5
52
102
{ACAD_REACTORS
330
48
102
}
330
48
100
AcDbScale
 70
     0
300
1/64" = 1'-0"
140
0.015625
141
12.0
290
     0
  0
SCALE
  5
53
102
{ACAD_REACTORS
330
48
102
}
330
48
100
AcDbScale
 70
     0
300
1/32" = 1'-0"
140
0.03125
141
12.0
290
     0
  0
SCALE
  5
54
102
{ACAD_REACTORS
330
48
102
}
330
48
100
AcDbScale
 70
     0
300
1/16" = 1'-0"
140
0.0625
141
12.0
290
     0
  0
SCALE
  5
55
102
{ACAD_REACTORS
330
48
102
}
330
48
100
AcDbScale
 70
     0
300
3/32" = 1'-0"
140
0.09375
141
12.0
290
     0
  0
SCALE
  5
56
102
{ACAD_REACTORS
330
48
102
}
330
48
100
AcDbScale
 70
     0
300
1/8" = 1'-0"
140
0.125
141
12.0
290
     0
  0
SCALE
  5
57
102
{ACAD_REACTORS
330
48
102
}
330
48
100
AcDbScale
 70
     0
300
3/16" = 1'-0"
140
0.1875
141
12.0
290
     0
  0
SCALE
  5
58
102
{ACAD_REACTORS
330
48
102
}
330
48
100
AcDbScale
 70
     0
300
1/4" = 1'-0"
140
0.25
141
12.0
290
     0
  0
SCALE
  5
59
102
{ACAD_REACTORS
330
48
102
}
330
48
100
AcDbScale
 70
     0
300
3/8" = 1'-0"
140
0.375
141
12.0
290
     0
  0
SCALE
  5
5A
102
{ACAD_REACTORS
330
48
102
}
330
48
100
AcDbScale
 70
     0
300
1/2" = 1'-0"
140
0.5
141
12.0
290
     0
  0
SCALE
  5
5B
102
{ACAD_REACTORS
330
48
102
}
330
48
100
AcDbScale
 70
     0
300
3/4" = 1'-0"
140
0.75
141
12.0
290
     0
  0
SCALE
  5
5C
102
{ACAD_REACTORS
330
48
102
}
330
48
100
AcDbScale
 70
     0
300
1" = 1'-0"
140
1.0
141
12.0
290
     0
  0
SCALE
  5
5D
102
{ACAD_REACTORS
330
48
102
}
330
48
100
AcDbScale
 70
     0
300
1-1/2" = 1'-0"
140
1.5
141
12.0
290
     0
  0
SCALE
  5
5E
102
{ACAD_REACTORS
330
48
102
}
330
48
100
AcDbScale
 70
     0
300
3" = 1'-0"
140
3.0
141
12.0
290
     0
  0
SCALE
  5
5F
102
{ACAD_REACTORS
330
48
102
}
330
48
100
AcDbScale
 70
     0
300
6" = 1'-0"
140
6.0
141
12.0
290
     0
  0
SCALE
  5
60
102
{ACAD_REACTORS
330
48
102
}
330
48
100
AcDbScale
 70
     0
300
1'-0" = 1'-0"
140
12.0
141
12.0
290
     0
  0
TABLESTYLE
  5
4D
102
{ACAD_XDICTIONARY
360
262
102
}
102
{ACAD_REACTORS
330
49
102
}
330
49
100
AcDbTableStyle
  3
Standard
 70
     0
 71
     0
 40
0.06
 41
0.06
280
     0
281
     0
  7
STANDARD
140
0.18
170
     2
 62
     0
 63
     7
283
     0
274
    -2
284
     1
 64
     0
275
    -2
285
     1
 65
     0
276
    -2
286
     1
 66
     0
277
    -2
287
     1
 67
     0
278
    -2
288
     1
 68
     0
279
    -2
289
     1
 69
     0
  7
STANDARD
140
0.25
170
     5
 62
     0
 63
     7
283
     0
274
    -2
284
     1
 64
     0
275
    -2
285
     1
 65
     0
276
    -2
286
     1
 66
     0
277
    -2
287
     1
 67
     0
278
    -2
288
     1
 68
     0
279
    -2
289
     1
 69
     0
  7
STANDARD
140
0.18
170
     5
 62
     0
 63
     7
283
     0
274
    -2
284
     1
 64
     0
275
    -2
285
     1
 65
     0
276
    -2
286
     1
 66
     0
277
    -2
287
     1
 67
     0
278
    -2
288
     1
 68
     0
279
    -2
289
     1
 69
     0
  0
VISUALSTYLE
  5
31
102
{ACAD_XDICTIONARY
360
26B
102
}
102
{ACAD_REACTORS
330
32
102
}
330
32
100
AcDbVisualStyle
  2
2dWireframe
 70
     4
 71
     0
 72
     2
 73
     0
 90
        0
 40
-0.6
 41
-30.0
 62
     5
 63
     7
 74
     1
 91
        4
 64
     7
 65
   257
 75
     1
175
     1
 42
1.0
 92
        0
 66
   257
 43
1.0
 76
     1
 77
     6
 78
     2
 67
     7
 79
     5
170
     0
171
     0
290
     0
174
     0
 93
        1
 44
0.0
173
     0
291
     0
 45
0.0
1001
ACAD
1000
AcDbSavedByObjectVersion
1070
     0
  0
VISUALSTYLE
  5
4E
102
{ACAD_XDICTIONARY
360
26F
102
}
102
{ACAD_REACTORS
330
32
102
}
330
32
100
AcDbVisualStyle
  2
Realistic
 70
     8
 71
     2
 72
     3
 73
     0
 90
        2
 40
-0.6
 41
30.0
 62
     5
 63
     7
 74
     0
 91
        0
 64
     7
 65
   257
 75
     1
175
     1
 42
1.0
 92
        8
 66
   257
 43
1.0
 76
     1
 77
     6
 78
     2
 67
     7
 79
     3
170
     0
171
     0
290
     0
174
     0
 93
       13
 44
0.0
173
     0
291
     0
 45
0.0
1001
ACAD
1000
AcDbSavedByObjectVersion
1070
     0
  0
VISUALSTYLE
  5
4F
102
{ACAD_XDICTIONARY
360
271
102
}
102
{ACAD_REACTORS
330
32
102
}
330
32
100
AcDbVisualStyle
  2
Wireframe
 70
     5
 71
     0
 72
     2
 73
     0
 90
        0
 40
-0.6
 41
-30.0
 62
     5
 63
     7
 74
     1
 91
        4
 64
     7
 65
   257
 75
     1
175
     1
 42
1.0
 92
        0
 66
   257
 43
1.0
 76
     1
 77
     6
 78
     2
 67
     7
 79
     3
170
     0
171
     0
290
     0
174
     0
 93
        1
 44
0.0
173
     0
291
     0
 45
0.0
1001
ACAD
1000
AcDbSavedByObjectVersion
1070
     0
  0
DICTIONARYVAR
  5
25C
102
{ACAD_REACTORS
330
257
102
}
330
257
100
DictionaryVariables
280
     0
  1
1:1
  0
DICTIONARYVAR
  5
259
102
{ACAD_REACTORS
330
257
102
}
330
257
100
DictionaryVariables
280
     0
  1
STANDARD
  0
DICTIONARYVAR
  5
258
102
{ACAD_REACTORS
330
257
102
}
330
257
100
DictionaryVariables
280
     0
  1
STANDARD
  0
DICTIONARYVAR
  5
25A
102
{ACAD_REACTORS
330
257
102
}
330
257
100
DictionaryVariables
280
     0
  1

  0
DICTIONARYVAR
  5
25B
102
{ACAD_REACTORS
330
257
102
}
330
257
100
DictionaryVariables
280
     0
  1

  0
DICTIONARYVAR
  5
260
102
{ACAD_REACTORS
330
257
102
}
330
257
100
DictionaryVariables
280
     0
  1
1
  0
DICTIONARYVAR
  5
25F
102
{ACAD_REACTORS
330
257
102
}
330
257
100
DictionaryVariables
280
     0
  1
1
  0
DICTIONARYVAR
  5
25E
102
{ACAD_REACTORS
330
257
102
}
330
257
100
DictionaryVariables
280
     0
  1
0
  0
DICTIONARYVAR
  5
25D
102
{ACAD_REACTORS
330
257
102
}
330
257
100
DictionaryVariables
280
     0
  1
127
  0
DICTIONARYVAR
  5
261
102
{ACAD_REACTORS
330
257
102
}
330
257
100
DictionaryVariables
280
     0
  1
2
  0
DICTIONARY
  5
267
330
1E
100
AcDbDictionary
280
     1
281
     1
  3
ACAD_XREC_ROUNDTRIP
360
268
  0
DICTIONARY
  5
269
330
25
100
AcDbDictionary
280
     1
281
     1
  3
ACAD_XREC_ROUNDTRIP
360
26A
  0
DICTIONARY
  5
40
330
3F
100
AcDbDictionary
280
     1
281
     1
  3
ACAD_XREC_ROUNDTRIP
360
26D
  3
BUMPTILE
360
41
  3
DIFFUSETILE
360
42
  3
OPACITYTILE
360
43
  3
REFLECTIONTILE
360
44
  3
REFRACTIONTILE
360
45
  3
SPECULARTILE
360
46
  0
DICTIONARY
  5
16
330
15
100
AcDbDictionary
280
     1
281
     1
  3
ACAD_XREC_ROUNDTRIP
360
266
  3
BUMPTILE
360
17
  3
DIFFUSETILE
360
18
  3
OPACITYTILE
360
19
  3
REFLECTIONTILE
360
1A
  3
REFRACTIONTILE
360
1B
  3
SPECULARTILE
360
1C
  0
DICTIONARY
  5
D
330
B
100
AcDbDictionary
280
     1
281
     1
  3
ACAD_XREC_ROUNDTRIP
360
265
  3
BUMPTILE
360
E
  3
DIFFUSETILE
360
F
  3
OPACITYTILE
360
10
  3
REFLECTIONTILE
360
11
  3
REFRACTIONTILE
360
12
  3
SPECULARTILE
360
13
  0
DICTIONARY
  5
262
330
4D
100
AcDbDictionary
280
     1
281
     1
  3
ACAD_ROUNDTRIP_2008_TABLESTYLE_CELLSTYLEMAP
360
263
  3
ACAD_XREC_ROUNDTRIP
360
26E
  0
DICTIONARY
  5
26B
330
31
100
AcDbDictionary
280
     1
281
     1
  3
ACAD_XREC_ROUNDTRIP
360
26C
  0
DICTIONARY
  5
26F
330
4E
100
AcDbDictionary
280
     1
281
     1
  3
ACAD_XREC_ROUNDTRIP
360
270
  0
DICTIONARY
  5
271
330
4F
100
AcDbDictionary
280
     1
281
     1
  3
ACAD_XREC_ROUNDTRIP
360
272
  0
XRECORD
  5
268
102
{ACAD_REACTORS
330
267
102
}
330
267
100
AcDbXrecord
280
     1
102
SHADEPLOT
 70
     0
102
SHADEPLOTRESLEVEL
 70
     2
102
SHADEPLOTCUSTOMDPI
 70
   300
  0
XRECORD
  5
26A
102
{ACAD_REACTORS
330
269
102
}
330
269
100
AcDbXrecord
280
     1
102
SHADEPLOT
 70
     0
102
SHADEPLOTRESLEVEL
 70
     2
102
SHADEPLOTCUSTOMDPI
 70
   300
  0
XRECORD
  5
26D
102
{ACAD_REACTORS
330
40
102
}
330
40
100
AcDbXrecord
280
     1
102
MATERIAL
148
0.0
149
0.0
149
0.0
 93
        0
 94
      127
282
     0
 72
     0
 77
     0
171
     0
175
     0
179
     0
273
     0
  0
XRECORD
  5
41
102
{ACAD_REACTORS
330
40
102
}
330
40
100
AcDbXrecord
280
     1
270
     1
271
     1
  0
XRECORD
  5
42
102
{ACAD_REACTORS
330
40
102
}
330
40
100
AcDbXrecord
280
     1
270
     1
271
     1
  0
XRECORD
  5
43
102
{ACAD_REACTORS
330
40
102
}
330
40
100
AcDbXrecord
280
     1
270
     1
271
     1
  0
XRECORD
  5
44
102
{ACAD_REACTORS
330
40
102
}
330
40
100
AcDbXrecord
280
     1
270
     1
271
     1
  0
XRECORD
  5
45
102
{ACAD_REACTORS
330
40
102
}
330
40
100
AcDbXrecord
280
     1
270
     1
271
     1
  0
XRECORD
  5
46
102
{ACAD_REACTORS
330
40
102
}
330
40
100
AcDbXrecord
280
     1
270
     1
271
     1
  0
XRECORD
  5
266
102
{ACAD_REACTORS
330
16
102
}
330
16
100
AcDbXrecord
280
     1
102
MATERIAL
148
0.0
149
0.0
149
0.0
 93
        0
 94
      127
282
     0
 72
     0
 77
     0
171
     0
175
     0
179
     0
273
     0
  0
XRECORD
  5
17
102
{ACAD_REACTORS
330
16
102
}
330
16
100
AcDbXrecord
280
     1
270
     1
271
     1
  0
XRECORD
  5
18
102
{ACAD_REACTORS
330
16
102
}
330
16
100
AcDbXrecord
280
     1
270
     1
271
     1
  0
XRECORD
  5
19
102
{ACAD_REACTORS
330
16
102
}
330
16
100
AcDbXrecord
280
     1
270
     1
271
     1
  0
XRECORD
  5
1A
102
{ACAD_REACTORS
330
16
102
}
330
16
100
AcDbXrecord
280
     1
270
     1
271
     1
  0
XRECORD
  5
1B
102
{ACAD_REACTORS
330
16
102
}
330
16
100
AcDbXrecord
280
     1
270
     1
271
     1
  0
XRECORD
  5
1C
102
{ACAD_REACTORS
330
16
102
}
330
16
100
AcDbXrecord
280
     1
270
     1
271
     1
  0
XRECORD
  5
265
102
{ACAD_REACTORS
330
D
102
}
330
D
100
AcDbXrecord
280
     1
102
MATERIAL
148
0.0
149
0.0
149
0.0
 93
        0
 94
      127
282
     0
 72
     0
 77
     0
171
     0
175
     0
179
     0
273
     0
  0
XRECORD
  5
E
102
{ACAD_REACTORS
330
D
102
}
330
D
100
AcDbXrecord
280
     1
270
     1
271
     1
  0
XRECORD
  5
F
102
{ACAD_REACTORS
330
D
102
}
330
D
100
AcDbXrecord
280
     1
270
     1
271
     1
  0
XRECORD
  5
10
102
{ACAD_REACTORS
330
D
102
}
330
D
100
AcDbXrecord
280
     1
270
     1
271
     1
  0
XRECORD
  5
11
102
{ACAD_REACTORS
330
D
102
}
330
D
100
AcDbXrecord
280
     1
270
     1
271
     1
  0
XRECORD
  5
12
102
{ACAD_REACTORS
330
D
102
}
330
D
100
AcDbXrecord
280
     1
270
     1
271
     1
  0
XRECORD
  5
13
102
{ACAD_REACTORS
330
D
102
}
330
D
100
AcDbXrecord
280
     1
270
     1
271
     1
  0
CELLSTYLEMAP
  5
263
102
{ACAD_REACTORS
330
262
102
}
330
262
100
AcDbCellStyleMap
 90
        3
300
CELLSTYLE
  1
TABLEFORMAT_BEGIN
 90
        5
170
     1
 91
        0
 92
    32768
 62
   257
 93
        1
300
CONTENTFORMAT
  1
CONTENTFORMAT_BEGIN
 90
        0
 91
        0
 92
        4
 93
        0
300

 40
0.0
140
1.0
 94
        5
 62
     0
340
28
144
0.25
309
CONTENTFORMAT_END
171
     0
 94
        6
 95
        1
302
GRIDFORMAT
  1
GRIDFORMAT_BEGIN
 90
        0
 91
        1
 62
     0
 92
       -2
340
0
 93
        0
 40
0.045
309
GRIDFORMAT_END
 95
        2
302
GRIDFORMAT
  1
GRIDFORMAT_BEGIN
 90
        0
 91
        1
 62
     0
 92
       -2
340
0
 93
        0
 40
0.045
309
GRIDFORMAT_END
 95
        4
302
GRIDFORMAT
  1
GRIDFORMAT_BEGIN
 90
        0
 91
        1
 62
     0
 92
       -2
340
0
 93
        0
 40
0.045
309
GRIDFORMAT_END
 95
        8
302
GRIDFORMAT
  1
GRIDFORMAT_BEGIN
 90
        0
 91
        1
 62
     0
 92
       -2
340
0
 93
        0
 40
0.045
309
GRIDFORMAT_END
 95
       16
302
GRIDFORMAT
  1
GRIDFORMAT_BEGIN
 90
        0
 91
        1
 62
     0
 92
       -2
340
0
 93
        0
 40
0.045
309
GRIDFORMAT_END
 95
       32
302
GRIDFORMAT
  1
GRIDFORMAT_BEGIN
 90
        0
 91
        1
 62
     0
 92
       -2
340
0
 93
        0
 40
0.045
309
GRIDFORMAT_END
309
TABLEFORMAT_END
  1
CELLSTYLE_BEGIN
 90
        1
 91
        1
300
_TITLE
309
CELLSTYLE_END
300
CELLSTYLE
  1
TABLEFORMAT_BEGIN
 90
        5
170
     1
 91
        0
 92
        0
 62
   257
 93
        1
300
CONTENTFORMAT
  1
CONTENTFORMAT_BEGIN
 90
        0
 91
        0
 92
        4
 93
        0
300

 40
0.0
140
1.0
 94
        5
 62
     0
340
28
144
0.18
309
CONTENTFORMAT_END
171
     0
 94
        6
 95
        1
302
GRIDFORMAT
  1
GRIDFORMAT_BEGIN
 90
        0
 91
        1
 62
     0
 92
       -2
340
0
 93
        0
 40
0.045
309
GRIDFORMAT_END
 95
        2
302
GRIDFORMAT
  1
GRIDFORMAT_BEGIN
 90
        0
 91
        1
 62
     0
 92
       -2
340
0
 93
        0
 40
0.045
309
GRIDFORMAT_END
 95
        4
302
GRIDFORMAT
  1
GRIDFORMAT_BEGIN
 90
        0
 91
        1
 62
     0
 92
       -2
340
0
 93
        0
 40
0.045
309
GRIDFORMAT_END
 95
        8
302
GRIDFORMAT
  1
GRIDFORMAT_BEGIN
 90
        0
 91
        1
 62
     0
 92
       -2
340
0
 93
        0
 40
0.045
309
GRIDFORMAT_END
 95
       16
302
GRIDFORMAT
  1
GRIDFORMAT_BEGIN
 90
        0
 91
        1
 62
     0
 92
       -2
340
0
 93
        0
 40
0.045
309
GRIDFORMAT_END
 95
       32
302
GRIDFORMAT
  1
GRIDFORMAT_BEGIN
 90
        0
 91
        1
 62
     0
 92
       -2
340
0
 93
        0
 40
0.045
309
GRIDFORMAT_END
309
TABLEFORMAT_END
  1
CELLSTYLE_BEGIN
 90
        2
 91
        1
300
_HEADER
309
CELLSTYLE_END
300
CELLSTYLE
  1
TABLEFORMAT_BEGIN
 90
        5
170
     1
 91
        0
 92
        0
 62
   257
 93
        1
300
CONTENTFORMAT
  1
CONTENTFORMAT_BEGIN
 90
        0
 91
        0
 92
        4
 93
        0
300

 40
0.0
140
1.0
 94
        2
 62
     0
340
28
144
0.18
309
CONTENTFORMAT_END
171
     0
 94
        6
 95
        1
302
GRIDFORMAT
  1
GRIDFORMAT_BEGIN
 90
        0
 91
        1
 62
     0
 92
       -2
340
0
 93
        0
 40
0.045
309
GRIDFORMAT_END
 95
        2
302
GRIDFORMAT
  1
GRIDFORMAT_BEGIN
 90
        0
 91
        1
 62
     0
 92
       -2
340
0
 93
        0
 40
0.045
309
GRIDFORMAT_END
 95
        4
302
GRIDFORMAT
  1
GRIDFORMAT_BEGIN
 90
        0
 91
        1
 62
     0
 92
       -2
340
0
 93
        0
 40
0.045
309
GRIDFORMAT_END
 95
        8
302
GRIDFORMAT
  1
GRIDFORMAT_BEGIN
 90
        0
 91
        1
 62
     0
 92
       -2
340
0
 93
        0
 40
0.045
309
GRIDFORMAT_END
 95
       16
302
GRIDFORMAT
  1
GRIDFORMAT_BEGIN
 90
        0
 91
        1
 62
     0
 92
       -2
340
0
 93
        0
 40
0.045
309
GRIDFORMAT_END
 95
       32
302
GRIDFORMAT
  1
GRIDFORMAT_BEGIN
 90
        0
 91
        1
 62
     0
 92
       -2
340
0
 93
        0
 40
0.045
309
GRIDFORMAT_END
309
TABLEFORMAT_END
  1
CELLSTYLE_BEGIN
 90
        3
 91
        2
300
_DATA
309
CELLSTYLE_END
  0
XRECORD
  5
26E
102
{ACAD_REACTORS
330
262
102
}
330
262
100
AcDbXrecord
280
     1
102
ACAD_ROUNDTRIP_PRE2007_TABLESTYLE
 90
        4
 91
        0
  1

 92
        4
 93
        0
  2

 94
        4
 95
        0
  3

  0
XRECORD
  5
26C
102
{ACAD_REACTORS
330
26B
102
}
330
26B
100
AcDbXrecord
280
     1
102
RTVSPost2010Prop28
280
     1
102
RTVSPost2010PropOp28
 70
     1
102
RTVSPost2010Prop29
280
     1
102
RTVSPost2010PropOp29
 70
     1
102
RTVSPost2010Prop30
280
     0
102
RTVSPost2010PropOp30
 70
     1
102
RTVSPost2010Prop31
280
     0
102
RTVSPost2010PropOp31
 70
     1
102
RTVSPost2010Prop32
280
     0
102
RTVSPost2010PropOp32
 70
     1
102
RTVSPost2010Prop33
280
     0
102
RTVSPost2010PropOp33
 70
     1
102
RTVSPost2010Prop34
280
     0
102
RTVSPost2010PropOp34
 70
     1
102
RTVSPost2010Prop35
280
     0
102
RTVSPost2010PropOp35
 70
     1
102
RTVSPost2010Prop36
280
     0
102
RTVSPost2010PropOp36
 70
     1
102
RTVSPost2010Prop37
 90
       50
102
RTVSPost2010PropOp37
 70
     1
102
RTVSPost2010Prop38
140
0.0
102
RTVSPost2010PropOp38
 70
     1
102
RTVSPost2010Prop39
140
1.0
102
RTVSPost2010PropOp39
 70
     1
102
RTVSPost2010Prop40
 90
        0
102
RTVSPost2010PropOp40
 70
     1
102
RTVSPost2010Prop41ColorIndex
 90
       18
102
RTVSPost2010Prop41ColorRGB
 90
        0
102
RTVSPost2010PropOp41
 70
     1
102
RTVSPost2010Prop42
 90
       50
102
RTVSPost2010PropOp42
 70
     1
102
RTVSPost2010Prop43
 90
        3
102
RTVSPost2010PropOp43
 70
     1
102
RTVSPost2010Prop44ColorIndex
 90
        5
102
RTVSPost2010Prop44ColorRGB
 90
      255
102
RTVSPost2010PropOp44
 70
     1
102
RTVSPost2010Prop45
280
     0
102
RTVSPost2010PropOp45
 70
     1
102
RTVSPost2010Prop46
 90
       50
102
RTVSPost2010PropOp46
 70
     1
102
RTVSPost2010Prop47
 90
       50
102
RTVSPost2010PropOp47
 70
     1
102
RTVSPost2010Prop48
 90
       50
102
RTVSPost2010PropOp48
 70
     1
102
RTVSPost2010Prop49
280
     0
102
RTVSPost2010PropOp49
 70
     1
102
RTVSPost2010Prop50
 90
       50
102
RTVSPost2010PropOp50
 70
     1
102
RTVSPost2010Prop51ColorIndex
 90
      256
102
RTVSPost2010Prop51ColorRGB
 90
-16777216
102
RTVSPost2010PropOp51
 70
     0
102
RTVSPost2010Prop52
140
1.0
102
RTVSPost2010PropOp52
 70
     0
102
RTVSPost2010Prop53
 90
        2
102
RTVSPost2010PropOp53
 70
     1
102
RTVSPost2010Prop54
  1
strokes_ogs.tif
102
RTVSPost2010PropOp54
 70
     1
102
RTVSPost2010Prop55
280
     0
102
RTVSPost2010PropOp55
 70
     1
102
RTVSPost2010Prop56
140
1.0
102
RTVSPost2010PropOp56
 70
     1
102
RTVSPost2010Prop57
140
1.0
102
RTVSPost2010PropOp57
 70
     1
102
RTVSPropertyOp0
 70
     1
102
RTVSPropertyOp1
 70
     1
102
RTVSPropertyOp2
 70
     1
102
RTVSPropertyOp3
 70
     1
102
RTVSPropertyOp4
 70
     1
102
RTVSPropertyOp5
 70
     1
102
RTVSPropertyOp6
 70
     1
102
RTVSPropertyOp7
 70
     1
102
RTVSPropertyOp8
 70
     1
102
RTVSPropertyOp9
 70
     1
102
RTVSPropertyOp10
 70
     1
102
RTVSPropertyOp11
 70
     1
102
RTVSPropertyOp12
 70
     1
102
RTVSPropertyOp13
 70
     1
102
RTVSPropertyOp14
 70
     1
102
RTVSPropertyOp15
 70
     1
102
RTVSPropertyOp16
 70
     1
102
RTVSPropertyOp17
 70
     1
102
RTVSPropertyOp18
 70
     1
102
RTVSPropertyOp19
 70
     1
102
RTVSPropertyOp20
 70
     1
102
RTVSPropertyOp21
 70
     1
102
RTVSPropertyOp22
 70
     1
102
RTVSPropertyOp23
 70
     1
102
RTVSPropertyOp24
 70
     1
102
RTVSPropertyOp25
 70
     1
102
RTVSPropertyOp26
 70
     1
102
RTVSPropertyOp27
 70
     1
102
RTVSPropertyOp28
 70
     1
102
RTVSPropertyOp29
 70
     1
102
RTVSPropertyOp30
 70
     1
102
RTVSPropertyOp31
 70
     1
102
RTVSPropertyOp32
 70
     1
102
RTVSPropertyOp33
 70
     1
102
RTVSPropertyOp34
 70
     1
102
RTVSPropertyOp35
 70
     1
102
RTVSPropertyOp36
 70
     1
102
RTVSPropertyOp37
 70
     1
102
RTVSPropertyOp38
 70
     1
102
RTVSPropertyOp39
 70
     1
102
RTVSPropertyOp40
 70
     1
102
RTVSPropertyOp41
 70
     1
102
RTVSPropertyOp42
 70
     1
102
RTVSPropertyOp43
 70
     1
102
RTVSPropertyOp44
 70
     1
102
RTVSPropertyOp45
 70
     1
102
RTVSPropertyOp46
 70
     1
102
RTVSPropertyOp47
 70
     1
102
RTVSPropertyOp48
 70
     1
102
RTVSPropertyOp49
 70
     1
102
RTVSPropertyOp50
 70
     1
102
RTVSPropertyOp51
 70
     0
102
RTVSPropertyOp52
 70
     0
102
RTVSPropertyOp53
 70
     1
102
RTVSPropertyOp54
 70
     1
102
RTVSPropertyOp55
 70
     1
102
RTVSPropertyOp56
 70
     1
102
RTVSPropertyOp57
 70
     1
102
RTVSPropertyOp58
 70
     1
102
RTVSPropertyOp59
 70
     1
102
RTVSPropertyOp60
 70
     1
102
RTVSPropertyOp61
 70
     1
102
RTVSPropertyOp62
 70
     1
  0
XRECORD
  5
270
102
{ACAD_REACTORS
330
26F
102
}
330
26F
100
AcDbXrecord
280
     1
102
RTVSPost2010Prop28
280
     0
102
RTVSPost2010PropOp28
 70
     1
102
RTVSPost2010Prop29
280
     1
102
RTVSPost2010PropOp29
 70
     1
102
RTVSPost2010Prop30
280
     1
102
RTVSPost2010PropOp30
 70
     1
102
RTVSPost2010Prop31
280
     0
102
RTVSPost2010PropOp31
 70
     1
102
RTVSPost2010Prop32
280
     0
102
RTVSPost2010PropOp32
 70
     1
102
RTVSPost2010Prop33
280
     0
102
RTVSPost2010PropOp33
 70
     1
102
RTVSPost2010Prop34
280
     0
102
RTVSPost2010PropOp34
 70
     1
102
RTVSPost2010Prop35
280
     0
102
RTVSPost2010PropOp35
 70
     1
102
RTVSPost2010Prop36
280
     0
102
RTVSPost2010PropOp36
 70
     1
102
RTVSPost2010Prop37
 90
       50
102
RTVSPost2010PropOp37
 70
     1
102
RTVSPost2010Prop38
140
0.0
102
RTVSPost2010PropOp38
 70
     1
102
RTVSPost2010Prop39
140
1.0
102
RTVSPost2010PropOp39
 70
     1
102
RTVSPost2010Prop40
 90
        0
102
RTVSPost2010PropOp40
 70
     1
102
RTVSPost2010Prop41ColorIndex
 90
       18
102
RTVSPost2010Prop41ColorRGB
 90
        0
102
RTVSPost2010PropOp41
 70
     1
102
RTVSPost2010Prop42
 90
       50
102
RTVSPost2010PropOp42
 70
     1
102
RTVSPost2010Prop43
 90
        3
102
RTVSPost2010PropOp43
 70
     1
102
RTVSPost2010Prop44ColorIndex
 90
        5
102
RTVSPost2010Prop44ColorRGB
 90
      255
102
RTVSPost2010PropOp44
 70
     1
102
RTVSPost2010Prop45
280
     0
102
RTVSPost2010PropOp45
 70
     1
102
RTVSPost2010Prop46
 90
       50
102
RTVSPost2010PropOp46
 70
     1
102
RTVSPost2010Prop47
 90
       50
102
RTVSPost2010PropOp47
 70
     1
102
RTVSPost2010Prop48
 90
       50
102
RTVSPost2010PropOp48
 70
     1
102
RTVSPost2010Prop49
280
     0
102
RTVSPost2010PropOp49
 70
     1
102
RTVSPost2010Prop50
 90
       50
102
RTVSPost2010PropOp50
 70
     1
102
RTVSPost2010Prop51ColorIndex
 90
      256
102
RTVSPost2010Prop51ColorRGB
 90
-16777216
102
RTVSPost2010PropOp51
 70
     0
102
RTVSPost2010Prop52
140
1.0
102
RTVSPost2010PropOp52
 70
     0
102
RTVSPost2010Prop53
 90
        2
102
RTVSPost2010PropOp53
 70
     1
102
RTVSPost2010Prop54
  1
strokes_ogs.tif
102
RTVSPost2010PropOp54
 70
     1
102
RTVSPost2010Prop55
280
     0
102
RTVSPost2010PropOp55
 70
     1
102
RTVSPost2010Prop56
140
1.0
102
RTVSPost2010PropOp56
 70
     1
102
RTVSPost2010Prop57
140
1.0
102
RTVSPost2010PropOp57
 70
     1
102
RTVSPropertyOp0
 70
     1
102
RTVSPropertyOp1
 70
     1
102
RTVSPropertyOp2
 70
     1
102
RTVSPropertyOp3
 70
     1
102
RTVSPropertyOp4
 70
     1
102
RTVSPropertyOp5
 70
     1
102
RTVSPropertyOp6
 70
     1
102
RTVSPropertyOp7
 70
     1
102
RTVSPropertyOp8
 70
     1
102
RTVSPropertyOp9
 70
     1
102
RTVSPropertyOp10
 70
     1
102
RTVSPropertyOp11
 70
     1
102
RTVSPropertyOp12
 70
     1
102
RTVSPropertyOp13
 70
     1
102
RTVSPropertyOp14
 70
     1
102
RTVSPropertyOp15
 70
     1
102
RTVSPropertyOp16
 70
     1
102
RTVSPropertyOp17
 70
     1
102
RTVSPropertyOp18
 70
     1
102
RTVSPropertyOp19
 70
     1
102
RTVSPropertyOp20
 70
     1
102
RTVSPropertyOp21
 70
     1
102
RTVSPropertyOp22
 70
     1
102
RTVSPropertyOp23
 70
     1
102
RTVSPropertyOp24
 70
     1
102
RTVSPropertyOp25
 70
     1
102
RTVSPropertyOp26
 70
     1
102
RTVSPropertyOp27
 70
     1
102
RTVSPropertyOp28
 70
     1
102
RTVSPropertyOp29
 70
     1
102
RTVSPropertyOp30
 70
     1
102
RTVSPropertyOp31
 70
     1
102
RTVSPropertyOp32
 70
     1
102
RTVSPropertyOp33
 70
     1
102
RTVSPropertyOp34
 70
     1
102
RTVSPropertyOp35
 70
     1
102
RTVSPropertyOp36
 70
     1
102
RTVSPropertyOp37
 70
     1
102
RTVSPropertyOp38
 70
     1
102
RTVSPropertyOp39
 70
     1
102
RTVSPropertyOp40
 70
     1
102
RTVSPropertyOp41
 70
     1
102
RTVSPropertyOp42
 70
     1
102
RTVSPropertyOp43
 70
     1
102
RTVSPropertyOp44
 70
     1
102
RTVSPropertyOp45
 70
     1
102
RTVSPropertyOp46
 70
     1
102
RTVSPropertyOp47
 70
     1
102
RTVSPropertyOp48
 70
     1
102
RTVSPropertyOp49
 70
     1
102
RTVSPropertyOp50
 70
     1
102
RTVSPropertyOp51
 70
     0
102
RTVSPropertyOp52
 70
     0
102
RTVSPropertyOp53
 70
     1
102
RTVSPropertyOp54
 70
     1
102
RTVSPropertyOp55
 70
     1
102
RTVSPropertyOp56
 70
     1
102
RTVSPropertyOp57
 70
     1
102
RTVSPropertyOp58
 70
     1
102
RTVSPropertyOp59
 70
     1
102
RTVSPropertyOp60
 70
     1
102
RTVSPropertyOp61
 70
     1
102
RTVSPropertyOp62
 70
     1
  0
XRECORD
  5
272
102
{ACAD_REACTORS
330
271
102
}
330
271
100
AcDbXrecord
280
     1
102
RTVSPost2010Prop28
280
     0
102
RTVSPost2010PropOp28
 70
     1
102
RTVSPost2010Prop29
280
     1
102
RTVSPost2010PropOp29
 70
     1
102
RTVSPost2010Prop30
280
     1
102
RTVSPost2010PropOp30
 70
     1
102
RTVSPost2010Prop31
280
     0
102
RTVSPost2010PropOp31
 70
     1
102
RTVSPost2010Prop32
280
     0
102
RTVSPost2010PropOp32
 70
     1
102
RTVSPost2010Prop33
280
     0
102
RTVSPost2010PropOp33
 70
     1
102
RTVSPost2010Prop34
280
     0
102
RTVSPost2010PropOp34
 70
     1
102
RTVSPost2010Prop35
280
     0
102
RTVSPost2010PropOp35
 70
     1
102
RTVSPost2010Prop36
280
     0
102
RTVSPost2010PropOp36
 70
     1
102
RTVSPost2010Prop37
 90
       50
102
RTVSPost2010PropOp37
 70
     1
102
RTVSPost2010Prop38
140
0.0
102
RTVSPost2010PropOp38
 70
     1
102
RTVSPost2010Prop39
140
1.0
102
RTVSPost2010PropOp39
 70
     1
102
RTVSPost2010Prop40
 90
        0
102
RTVSPost2010PropOp40
 70
     1
102
RTVSPost2010Prop41ColorIndex
 90
       18
102
RTVSPost2010Prop41ColorRGB
 90
        0
102
RTVSPost2010PropOp41
 70
     1
102
RTVSPost2010Prop42
 90
       50
102
RTVSPost2010PropOp42
 70
     1
102
RTVSPost2010Prop43
 90
        3
102
RTVSPost2010PropOp43
 70
     1
102
RTVSPost2010Prop44ColorIndex
 90
        5
102
RTVSPost2010Prop44ColorRGB
 90
      255
102
RTVSPost2010PropOp44
 70
     1
102
RTVSPost2010Prop45
280
     0
102
RTVSPost2010PropOp45
 70
     1
102
RTVSPost2010Prop46
 90
       50
102
RTVSPost2010PropOp46
 70
     1
102
RTVSPost2010Prop47
 90
       50
102
RTVSPost2010PropOp47
 70
     1
102
RTVSPost2010Prop48
 90
       50
102
RTVSPost2010PropOp48
 70
     1
102
RTVSPost2010Prop49
280
     0
102
RTVSPost2010PropOp49
 70
     1
102
RTVSPost2010Prop50
 90
       50
102
RTVSPost2010PropOp50
 70
     1
102
RTVSPost2010Prop51ColorIndex
 90
      256
102
RTVSPost2010Prop51ColorRGB
 90
-16777216
102
RTVSPost2010PropOp51
 70
     0
102
RTVSPost2010Prop52
140
1.0
102
RTVSPost2010PropOp52
 70
     0
102
RTVSPost2010Prop53
 90
        2
102
RTVSPost2010PropOp53
 70
     1
102
RTVSPost2010Prop54
  1
strokes_ogs.tif
102
RTVSPost2010PropOp54
 70
     1
102
RTVSPost2010Prop55
280
     0
102
RTVSPost2010PropOp55
 70
     1
102
RTVSPost2010Prop56
140
1.0
102
RTVSPost2010PropOp56
 70
     1
102
RTVSPost2010Prop57
140
1.0
102
RTVSPost2010PropOp57
 70
     1
102
RTVSPropertyOp0
 70
     1
102
RTVSPropertyOp1
 70
     1
102
RTVSPropertyOp2
 70
     1
102
RTVSPropertyOp3
 70
     1
102
RTVSPropertyOp4
 70
     1
102
RTVSPropertyOp5
 70
     1
102
RTVSPropertyOp6
 70
     1
102
RTVSPropertyOp7
 70
     1
102
RTVSPropertyOp8
 70
     1
102
RTVSPropertyOp9
 70
     1
102
RTVSPropertyOp10
 70
     1
102
RTVSPropertyOp11
 70
     1
102
RTVSPropertyOp12
 70
     1
102
RTVSPropertyOp13
 70
     1
102
RTVSPropertyOp14
 70
     1
102
RTVSPropertyOp15
 70
     1
102
RTVSPropertyOp16
 70
     1
102
RTVSPropertyOp17
 70
     1
102
RTVSPropertyOp18
 70
     1
102
RTVSPropertyOp19
 70
     1
102
RTVSPropertyOp20
 70
     1
102
RTVSPropertyOp21
 70
     1
102
RTVSPropertyOp22
 70
     1
102
RTVSPropertyOp23
 70
     1
102
RTVSPropertyOp24
 70
     1
102
RTVSPropertyOp25
 70
     1
102
RTVSPropertyOp26
 70
     1
102
RTVSPropertyOp27
 70
     1
102
RTVSPropertyOp28
 70
     1
102
RTVSPropertyOp29
 70
     1
102
RTVSPropertyOp30
 70
     1
102
RTVSPropertyOp31
 70
     1
102
RTVSPropertyOp32
 70
     1
102
RTVSPropertyOp33
 70
     1
102
RTVSPropertyOp34
 70
     1
102
RTVSPropertyOp35
 70
     1
102
RTVSPropertyOp36
 70
     1
102
RTVSPropertyOp37
 70
     1
102
RTVSPropertyOp38
 70
     1
102
RTVSPropertyOp39
 70
     1
102
RTVSPropertyOp40
 70
     1
102
RTVSPropertyOp41
 70
     1
102
RTVSPropertyOp42
 70
     1
102
RTVSPropertyOp43
 70
     1
102
RTVSPropertyOp44
 70
     1
102
RTVSPropertyOp45
 70
     1
102
RTVSPropertyOp46
 70
     1
102
RTVSPropertyOp47
 70
     1
102
RTVSPropertyOp48
 70
     1
102
RTVSPropertyOp49
 70
     1
102
RTVSPropertyOp50
 70
     1
102
RTVSPropertyOp51
 70
     0
102
RTVSPropertyOp52
 70
     0
102
RTVSPropertyOp53
 70
     1
102
RTVSPropertyOp54
 70
     1
102
RTVSPropertyOp55
 70
     1
102
RTVSPropertyOp56
 70
     1
102
RTVSPropertyOp57
 70
     1
102
RTVSPropertyOp58
 70
     1
102
RTVSPropertyOp59
 70
     1
102
RTVSPropertyOp60
 70
     1
102
RTVSPropertyOp61
 70
     1
102
RTVSPropertyOp62
 70
     1
  0
ENDSEC
  0
EOF
