  0
SECTION
  2
HEADER
  9
$ACADVER
  1
AC1015
  9
$ACADMAINTVER
 70
    18
  9
$DWGCODEPAGE
  3
ANSI_932
  9
$INSBASE
 10
0.0
 20
0.0
 30
0.0
  9
$EXTMIN
 10
-35.86847720225832
 20
0.0
 30
0.0
  9
$EXTMAX
 10
362.1959727514976
 20
135.7717701247694
 30
0.0
  9
$LIMMIN
 10
0.0
 20
0.0
  9
$LIMMAX
 10
420.0
 20
297.0
  9
$ORTHOMODE
 70
     1
  9
$REGENMODE
 70
     1
  9
$FILLMODE
 70
     1
  9
$QTEXTMODE
 70
     0
  9
$MIRRTEXT
 70
     1
  9
$LTSCALE
 40
1.0
  9
$ATTMODE
 70
     1
  9
$TEXTSIZE
 40
30.0
  9
$TRACEWID
 40
0.05
  9
$TEXTSTYLE
  7
SUNPOU
  9
$CLAYER
  8
0
  9
$CELTYPE
  6
BYLAYER
  9
$CECOLOR
 62
     7
  9
$CELTSCALE
 40
1.0
  9
$DISPSILH
 70
     0
  9
$DIMSCALE
 40
1.0
  9
$DIMASZ
 40
3.0
  9
$DIMEXO
 40
2.0
  9
$DIMDLI
 40
0.38
  9
$DIMRND
 40
0.0
  9
$DIMDLE
 40
0.0
  9
$DIMEXE
 40
0.0
  9
$DIMTP
 40
0.0
  9
$DIMTM
 40
0.0
  9
$DIMTXT
 40
7.0
  9
$DIMCEN
 40
1.0
  9
$DIMTSZ
 40
0.0
  9
$DIMTOL
 70
     0
  9
$DIMLIM
 70
     0
  9
$DIMTIH
 70
     0
  9
$DIMTOH
 70
     0
  9
$DIMSE1
 70
     0
  9
$DIMSE2
 70
     0
  9
$DIMTAD
 70
     1
  9
$DIMZIN
 70
     0
  9
$DIMBLK
  1

  9
$DIMASO
 70
     1
  9
$DIMSHO
 70
     1
  9
$DIMPOST
  1

  9
$DIMAPOST
  1

  9
$DIMALT
 70
     0
  9
$DIMALTD
 70
     2
  9
$DIMALTF
 40
25.4
  9
$DIMLFAC
 40
1.0
  9
$DIMTOFL
 70
     0
  9
$DIMTVP
 40
0.0
  9
$DIMTIX
 70
     1
  9
$DIMSOXD
 70
     0
  9
$DIMSAH
 70
     1
  9
$DIMBLK1
  1
DOTSMALL
  9
$DIMBLK2
  1
DOTSMALL
  9
$DIMSTYLE
  2
1
  9
$DIMCLRD
 70
    60
  9
$DIMCLRE
 70
    70
  9
$DIMCLRT
 70
    60
  9
$DIMTFAC
 40
0.0642857142857143
  9
$DIMGAP
 40
1.0
  9
$DIMJUST
 70
     0
  9
$DIMSD1
 70
     0
  9
$DIMSD2
 70
     0
  9
$DIMTOLJ
 70
     1
  9
$DIMTZIN
 70
     0
  9
$DIMALTZ
 70
     0
  9
$DIMALTTZ
 70
     0
  9
$DIMUPT
 70
     0
  9
$DIMDEC
 70
     0
  9
$DIMTDEC
 70
     4
  9
$DIMALTU
 70
     2
  9
$DIMALTTD
 70
     2
  9
$DIMTXSTY
  7
STANDARD
  9
$DIMAUNIT
 70
     0
  9
$DIMADEC
 70
     0
  9
$DIMALTRND
 40
0.0
  9
$DIMAZIN
 70
     0
  9
$DIMDSEP
 70
    46
  9
$DIMATFIT
 70
     3
  9
$DIMFRAC
 70
     0
  9
$DIMLDRBLK
  1
DOTSMALL
  9
$DIMLUNIT
 70
     2
  9
$DIMLWD
 70
    -2
  9
$DIMLWE
 70
    -2
  9
$DIMTMOVE
 70
     0
  9
$LUNITS
 70
     4
  9
$LUPREC
 70
     4
  9
$SKETCHINC
 40
0.1
  9
$FILLETRAD
 40
0.0
  9
$AUNITS
 70
     0
  9
$AUPREC
 70
     2
  9
$MENU
  1
acad
  9
$ELEVATION
 40
0.0
  9
$PELEVATION
 40
0.0
  9
$THICKNESS
 40
0.0
  9
$LIMCHECK
 70
     0
  9
$CHAMFERA
 40
0.0
  9
$CHAMFERB
 40
0.0
  9
$CHAMFERC
 40
0.0
  9
$CHAMFERD
 40
0.0
  9
$SKPOLY
 70
     0
  9
$TDCREATE
 40
2450623.676023380
  9
$TDUCREATE
 40
2450623.301023380
  9
$TDUPDATE
 40
2453882.371666470
  9
$TDUUPDATE
 40
2453881.996666470
  9
$TDINDWG
 40
5.3859123380
  9
$TDUSRTIMER
 40
5.3859121412
  9
$USRTIMER
 70
     1
  9
$ANGBASE
 50
0.0
  9
$ANGDIR
 70
     0
  9
$PDMODE
 70
     0
  9
$PDSIZE
 40
0.0
  9
$PLINEWID
 40
0.0
  9
$SPLFRAME
 70
     0
  9
$SPLINETYPE
 70
     6
  9
$SPLINESEGS
 70
     8
  9
$HANDSEED
  5
18A
  9
$SURFTAB1
 70
     6
  9
$SURFTAB2
 70
     6
  9
$SURFTYPE
 70
     6
  9
$SURFU
 70
     6
  9
$SURFV
 70
     6
  9
$UCSBASE
  2

  9
$UCSNAME
  2

  9
$UCSORG
 10
0.0
 20
0.0
 30
0.0
  9
$UCSXDIR
 10
1.0
 20
0.0
 30
0.0
  9
$UCSYDIR
 10
0.0
 20
1.0
 30
0.0
  9
$UCSORTHOREF
  2

  9
$UCSORTHOVIEW
 70
     0
  9
$UCSORGTOP
 10
0.0
 20
0.0
 30
0.0
  9
$UCSORGBOTTOM
 10
0.0
 20
0.0
 30
0.0
  9
$UCSORGLEFT
 10
0.0
 20
0.0
 30
0.0
  9
$UCSORGRIGHT
 10
0.0
 20
0.0
 30
0.0
  9
$UCSORGFRONT
 10
0.0
 20
0.0
 30
0.0
  9
$UCSORGBACK
 10
0.0
 20
0.0
 30
0.0
  9
$PUCSBASE
  2

  9
$PUCSNAME
  2

  9
$PUCSORG
 10
0.0
 20
0.0
 30
0.0
  9
$PUCSXDIR
 10
1.0
 20
0.0
 30
0.0
  9
$PUCSYDIR
 10
0.0
 20
1.0
 30
0.0
  9
$PUCSORTHOREF
  2

  9
$PUCSORTHOVIEW
 70
     0
  9
$PUCSORGTOP
 10
0.0
 20
0.0
 30
0.0
  9
$PUCSORGBOTTOM
 10
0.0
 20
0.0
 30
0.0
  9
$PUCSORGLEFT
 10
0.0
 20
0.0
 30
0.0
  9
$PUCSORGRIGHT
 10
0.0
 20
0.0
 30
0.0
  9
$PUCSORGFRONT
 10
0.0
 20
0.0
 30
0.0
  9
$PUCSORGBACK
 10
0.0
 20
0.0
 30
0.0
  9
$USERI1
 70
     0
  9
$USERI2
 70
     0
  9
$USERI3
 70
     0
  9
$USERI4
 70
     0
  9
$USERI5
 70
     0
  9
$USERR1
 40
0.0
  9
$USERR2
 40
0.0
  9
$USERR3
 40
0.0
  9
$USERR4
 40
0.0
  9
$USERR5
 40
0.0
  9
$WORLDVIEW
 70
     1
  9
$SHADEDGE
 70
     3
  9
$SHADEDIF
 70
    70
  9
$TILEMODE
 70
     1
  9
$MAXACTVP
 70
    16
  9
$PINSBASE
 10
0.0
 20
0.0
 30
0.0
  9
$PLIMCHECK
 70
     0
  9
$PEXTMIN
 10
1.000000000000000E+20
 20
1.000000000000000E+20
 30
1.000000000000000E+20
  9
$PEXTMAX
 10
-1.000000000000000E+20
 20
-1.000000000000000E+20
 30
-1.000000000000000E+20
  9
$PLIMMIN
 10
0.0
 20
0.0
  9
$PLIMMAX
 10
12.0
 20
9.0
  9
$UNITMODE
 70
     0
  9
$VISRETAIN
 70
     0
  9
$PLINEGEN
 70
     0
  9
$PSLTSCALE
 70
     1
  9
$TREEDEPTH
 70
  3020
  9
$CMLSTYLE
  2
STANDARD
  9
$CMLJUST
 70
     0
  9
$CMLSCALE
 40
1.0
  9
$PROXYGRAPHICS
 70
     1
  9
$MEASUREMENT
 70
     0
  9
$CELWEIGHT
370
    -1
  9
$ENDCAPS
280
     0
  9
$JOINSTYLE
280
     0
  9
$LWDISPLAY
290
     0
  9
$INSUNITS
 70
     0
  9
$HYPERLINKBASE
  1

  9
$STYLESHEET
  1

  9
$XEDIT
290
     1
  9
$CEPSNTYPE
380
     0
  9
$PSTYLEMODE
290
     1
  9
$FINGERPRINTGUID
  2
{4B80DB1F-72C0-4634-98EB-07AC71A29C4C}
  9
$VERSIONGUID
  2
{3F64290E-0B55-48AE-92B7-1DB6D30C0327}
  9
$EXTNAMES
290
     1
  9
$PSVPSCALE
 40
0.0
  9
$OLESTARTUP
290
     0
  0
ENDSEC
  0
SECTION
  2
CLASSES
  0
CLASS
  1
DICTIONARYVAR
  2
AcDbDictionaryVar
  3
ObjectDBX Classes
 90
        0
280
     0
281
     0
  0
CLASS
  1
RASTERVARIABLES
  2
AcDbRasterVariables
  3
ISM
 90
    32768
280
     1
281
     0
  0
CLASS
  1
ACDBDICTIONARYWDFLT
  2
AcDbDictionaryWithDefault
  3
ObjectDBX Classes
 90
        0
280
     0
281
     0
  0
CLASS
  1
ACDBPLACEHOLDER
  2
AcDbPlaceHolder
  3
ObjectDBX Classes
 90
        0
280
     0
281
     0
  0
CLASS
  1
LAYOUT
  2
AcDbLayout
  3
ObjectDBX Classes
 90
        0
280
     0
281
     0
  0
CLASS
  1
AEC_VARS_DWG_SETUP
  2
AecDbVarsDwgSetup
  3
AecBase
 90
    32897
280
     1
281
     0
  0
CLASS
  1
AEC_DISP_REP_MASS_ELEM_MODEL
  2
AecDbDispRepMassElemModel
  3
AecBase
 90
    32897
280
     1
281
     0
  0
CLASS
  1
AEC_DISP_PROPS_MASS_ELEM_MODEL
  2
AecDbDispPropsMassElem
  3
AecBase
 90
    32897
280
     1
281
     0
  0
CLASS
  1
AEC_DISP_REP_MASS_ELEM_SCHEM
  2
AecDbDispRepMassElemSchem
  3
AecBase
 90
    32897
280
     1
281
     0
  0
CLASS
  1
AEC_DISP_REP_DOOR_ELEV
  2
AecDbDispRepDoorElev
  3
AecArchBase
 90
    32897
280
     1
281
     0
  0
CLASS
  1
AEC_DISP_PROPS_DOOR
  2
AecDbDispPropsDoor
  3
AecArchBase
 90
    32897
280
     1
281
     0
  0
CLASS
  1
AEC_DISP_REP_MASKBLOCK_REF
  2
AecDbDispRepMaskBlockRef
  3
AecBase
 90
    32897
280
     1
281
     0
  0
CLASS
  1
AEC_DISP_PROPS_MASKBLOCK
  2
AecDbDispPropsMaskBlock
  3
AecBase
 90
    32897
280
     1
281
     0
  0
CLASS
  1
AEC_DISP_REP_LAYOUT_GRID3D
  2
AecDbDispRepLayoutGrid3d
  3
AecBase
 90
    32897
280
     1
281
     0
  0
CLASS
  1
AEC_DISP_PROPS_LAYOUT_GRID3D
  2
AecDbDispPropsLayoutGrid3d
  3
AecBase
 90
    32897
280
     1
281
     0
  0
CLASS
  1
AEC_DISP_REP_ENT_REF
  2
AecDbDispRepEntRef
  3
AecBase
 90
    32897
280
     1
281
     0
  0
CLASS
  1
AEC_DISP_PROPS_ENT_REF
  2
AecDbDispPropsEntRef
  3
AecBase
 90
    32897
280
     1
281
     0
  0
CLASS
  1
AEC_DISP_REP_CLIP_VOLUME_RESULT_SUBDIV
  2
AecDbDispRepClipVolResSubDiv
  3
AecBase
 90
    32897
280
     1
281
     0
  0
CLASS
  1
AEC_DISP_PROPS_CLIP_VOLUME_RESULT
  2
AecDbDispPropsClipVolResSubDiv
  3
AecBase
 90
    32897
280
     1
281
     0
  0
CLASS
  1
AEC_DISP_REP_CLIP_VOLUME_RESULT
  2
AecDbDispRepClipVolResult
  3
AecBase
 90
    32897
280
     1
281
     0
  0
CLASS
  1
AEC_DISP_REP_CLIP_VOLUME_PLAN
  2
AecDbDispRepClipVolPlan
  3
AecBase
 90
    32897
280
     1
281
     0
  0
CLASS
  1
AEC_DISP_PROPS_CLIP_VOLUME
  2
AecDbDispPropsClipVol
  3
AecBase
 90
    32897
280
     1
281
     0
  0
CLASS
  1
AEC_DISP_REP_CLIP_VOLUME_MODEL
  2
AecDbDispRepClipVolModel
  3
AecBase
 90
    32897
280
     1
281
     0
  0
CLASS
  1
AEC_DISP_REP_ANCHOR_ENT_TO_NODE
  2
AecDbDispRepAnchorEntToNode
  3
AecBase
 90
    32897
280
     1
281
     0
  0
CLASS
  1
AEC_DISP_PROPS_ENT
  2
AecDbDispPropsEnt
  3
AecBase
 90
    32897
280
     1
281
     0
  0
CLASS
  1
AEC_DISP_REP_LAYOUT_GRID2D
  2
AecDbDispRepLayoutGrid2d
  3
AecBase
 90
    32897
280
     1
281
     0
  0
CLASS
  1
AEC_DISP_PROPS_LAYOUT_GRID2D
  2
AecDbDispPropsLayoutGrid2d
  3
AecBase
 90
    32897
280
     1
281
     0
  0
CLASS
  1
AEC_DISP_REP_LAYOUT_CURVE
  2
AecDbDispRepLayoutCurve
  3
AecBase
 90
    32897
280
     1
281
     0
  0
CLASS
  1
AEC_DISP_PROPS_LAYOUT_CURVE
  2
AecDbDispPropsLayoutCurve
  3
AecBase
 90
    32897
280
     1
281
     0
  0
CLASS
  1
AEC_DISP_REP_ANCHOR
  2
AecDbDispRepAnchor
  3
AecBase
 90
    32897
280
     1
281
     0
  0
CLASS
  1
AEC_DISP_REP_CAMERA
  2
AecDbDispRepCamera
  3
AecBase
 90
    32897
280
     1
281
     0
  0
CLASS
  1
AEC_DISP_PROPS_CAMERA
  2
AecDbDispPropsCamera
  3
AecBase
 90
    32897
280
     1
281
     0
  0
CLASS
  1
AEC_DISP_REP_SLICE
  2
AecDbDispRepSlice
  3
AecBase
 90
    32897
280
     1
281
     0
  0
CLASS
  1
AEC_DISP_PROPS_SLICE
  2
AecDbDispPropsSlice
  3
AecBase
 90
    32897
280
     1
281
     0
  0
CLASS
  1
AEC_DISP_REP_MVBLOCK_REF
  2
AecDbDispRepMvBlockRef
  3
AecBase
 90
    32897
280
     1
281
     0
  0
CLASS
  1
AEC_DISP_REP_MVBLOCK_REF_MODEL
  2
AecDbDispRepMvBlockRefModel
  3
AecBase
 90
    32897
280
     1
281
     0
  0
CLASS
  1
AEC_DISP_REP_MASS_GROUP_MODEL
  2
AecDbDispRepMassGroupModel
  3
AecBase
 90
    32897
280
     1
281
     0
  0
CLASS
  1
AEC_DISP_PROPS_MASS_GROUP
  2
AecDbDispPropsMassGroup
  3
AecBase
 90
    32897
280
     1
281
     0
  0
CLASS
  1
AEC_DISP_REP_MASS_GROUP_PLAN
  2
AecDbDispRepMassGroupPlan
  3
AecBase
 90
    32897
280
     1
281
     0
  0
CLASS
  1
AEC_DISP_REP_DOOR_RCP
  2
AecDbDispRepDoorRcp
  3
AecArchBase
 90
    32897
280
     1
281
     0
  0
CLASS
  1
AEC_DISP_REP_DOOR_NOMINAL
  2
AecDbDispRepDoorNominal
  3
AecArchBase
 90
    32897
280
     1
281
     0
  0
CLASS
  1
AEC_DISP_PROPS_DOOR_NOMINAL
  2
AecDbDispPropsDoorNominal
  3
AecArchBase
 90
    32897
280
     1
281
     0
  0
CLASS
  1
AEC_DISP_REP_DOOR_PLAN
  2
AecDbDispRepDoorPlan
  3
AecArchBase
 90
    32897
280
     1
281
     0
  0
CLASS
  1
AEC_DISP_REP_DOOR_MODEL
  2
AecDbDispRepDoorModel
  3
AecArchBase
 90
    32897
280
     1
281
     0
  0
CLASS
  1
AEC_DISP_REP_MVBLOCK_REF_RCP
  2
AecDbDispRepMvBlockRefRcp
  3
AecArchBase
 90
    32897
280
     1
281
     0
  0
CLASS
  1
AEC_DISP_REP_MASS_GROUP_RCP
  2
AecDbDispRepMassGroupRcp
  3
AecArchBase
 90
    32897
280
     1
281
     0
  0
CLASS
  1
AEC_DISP_REP_MASS_ELEM_RCP
  2
AecDbDispRepMassElemRcp
  3
AecArchBase
 90
    32897
280
     1
281
     0
  0
CLASS
  1
AEC_DISP_REP_MASKBLOCK_REF_RCP
  2
AecDbDispRepMaskBlockRefRcp
  3
AecArchBase
 90
    32897
280
     1
281
     0
  0
CLASS
  1
AEC_DISP_REP_COLUMN_GRID_RCP
  2
AecDbDispRepColumnGridRcp
  3
AecArchBase
 90
    32897
280
     1
281
     0
  0
CLASS
  1
AEC_DISP_REP_COLUMN_GRID_MODEL
  2
AecDbDispRepColumnGridModel
  3
AecArchBase
 90
    32897
280
     1
281
     0
  0
CLASS
  1
AEC_DISP_REP_COLUMN_GRID
  2
AecDbDispRepColumnGrid
  3
AecArchBase
 90
    32897
280
     1
281
     0
  0
CLASS
  1
AEC_DISP_REP_CEILING_GRID_RCP
  2
AecDbDispRepCeilingGridRcp
  3
AecArchBase
 90
    32897
280
     1
281
     0
  0
CLASS
  1
AEC_DISP_REP_CEILING_GRID_MODEL
  2
AecDbDispRepCeilingGridModel
  3
AecArchBase
 90
    32897
280
     1
281
     0
  0
CLASS
  1
AEC_DISP_REP_CEILING_GRID
  2
AecDbDispRepCeilingGrid
  3
AecArchBase
 90
    33661
280
     1
281
     0
  0
CLASS
  1
AEC_DISP_REP_BDG_SECTION_SUBDIV
  2
AecDbDispRepBdgSectionSubDiv
  3
AecArchBase
 90
    32897
280
     1
281
     0
  0
CLASS
  1
AEC_DISP_REP_BDG_SECTION_MODEL
  2
AecDbDispRepBdgSectionModel
  3
AecArchBase
 90
    32897
280
     1
281
     0
  0
CLASS
  1
AEC_DISP_REP_BDG_SECTIONLINE_RCP
  2
AecDbDispRepBdgSectionLineRcp
  3
AecArchBase
 90
    32897
280
     1
281
     0
  0
CLASS
  1
AEC_DISP_REP_BDG_SECTIONLINE_PLAN
  2
AecDbDispRepBdgSectionLinePlan
  3
AecArchBase
 90
    32897
280
     1
281
     0
  0
CLASS
  1
AEC_DISP_REP_BDG_ELEVLINE_RCP
  2
AecDbDispRepBdgElevLineRcp
  3
AecArchBase
 90
    32897
280
     1
281
     0
  0
CLASS
  1
AEC_DISP_REP_BDG_ELEVLINE_PLAN
  2
AecDbDispRepBdgElevLinePlan
  3
AecArchBase
 90
    32897
280
     1
281
     0
  0
CLASS
  1
AEC_DISP_REP_BDG_SECTIONLINE_MODEL
  2
AecDbDispRepBdgSectionLineModel
  3
AecArchBase
 90
    32897
280
     1
281
     0
  0
CLASS
  1
AEC_DISP_REP_BDG_ELEVLINE_MODEL
  2
AecDbDispRepBdgElevLineModel
  3
AecArchBase
 90
    32897
280
     1
281
     0
  0
CLASS
  1
AEC_DISP_REP_ANCHOR_BUB_TO_GRID_RCP
  2
AecDbDispRepAnchorBubToGridRcp
  3
AecArchBase
 90
    32897
280
     1
281
     0
  0
CLASS
  1
AEC_DISP_REP_ANCHOR_BUB_TO_GRID_MODEL
  2
AecDbDispRepAnchorBubToGridMdl
  3
AecArchBase
 90
    32897
280
     1
281
     0
  0
CLASS
  1
AEC_DISP_REP_ANCHOR_BUB_TO_GRID
  2
AecDbDispRepAnchorBubToGrid
  3
AecArchBase
 90
    32897
280
     1
281
     0
  0
CLASS
  1
AEC_DISP_REP_WINDOW_RCP
  2
AecDbDispRepWindowRcp
  3
AecArchBase
 90
    32897
280
     1
281
     0
  0
CLASS
  1
AEC_DISP_PROPS_WINDOW
  2
AecDbDispPropsWindow
  3
AecArchBase
 90
    32897
280
     1
281
     0
  0
CLASS
  1
AEC_DISP_REP_ROOF_RCP
  2
AecDbDispRepRoofRcp
  3
AecArchBase
 90
    32897
280
     1
281
     0
  0
CLASS
  1
AEC_DISP_PROPS_ROOF
  2
AecDbDispPropsRoof
  3
AecArchBase
 90
    32897
280
     1
281
     0
  0
CLASS
  1
AEC_DISP_REP_ROOF_PLAN
  2
AecDbDispRepRoofPlan
  3
AecArchBase
 90
    32897
280
     1
281
     0
  0
CLASS
  1
AEC_DISP_REP_WINDOW_SILL_PLAN
  2
AecDbDispRepWindowSillPlan
  3
AecArchBase
 90
    32897
280
     1
281
     0
  0
CLASS
  1
AEC_DISP_PROPS_WINDOW_SILL_PLAN
  2
AecDbDispPropsWindowSillPlan
  3
AecArchBase
 90
    32897
280
     1
281
     0
  0
CLASS
  1
AEC_DISP_REP_SPACE_PLAN
  2
AecDbDispRepSpacePlan
  3
AecArchBase
 90
    32897
280
     1
281
     0
  0
CLASS
  1
AEC_DISP_PROPS_SPACE_PLAN
  2
AecDbDispPropsSpacePlan
  3
AecArchBase
 90
    32897
280
     1
281
     0
  0
CLASS
  1
AEC_DISP_REP_SPACE_MODEL
  2
AecDbDispRepSpaceModel
  3
AecArchBase
 90
    32897
280
     1
281
     0
  0
CLASS
  1
AEC_DISP_PROPS_SPACE_MODEL
  2
AecDbDispPropsSpaceModel
  3
AecArchBase
 90
    32897
280
     1
281
     0
  0
CLASS
  1
AEC_DISP_REP_WINDOW_MODEL
  2
AecDbDispRepWindowModel
  3
AecArchBase
 90
    32897
280
     1
281
     0
  0
CLASS
  1
AEC_DISP_REP_WINDOW_NOMINAL
  2
AecDbDispRepWindowNominal
  3
AecArchBase
 90
    32897
280
     1
281
     0
  0
CLASS
  1
AEC_DISP_PROPS_WINDOW_NOMINAL
  2
AecDbDispPropsWindowNominal
  3
AecArchBase
 90
    32897
280
     1
281
     0
  0
CLASS
  1
AEC_DISP_REP_OPENING
  2
AecDbDispRepOpening
  3
AecArchBase
 90
    32897
280
     1
281
     0
  0
CLASS
  1
AEC_DISP_PROPS_OPENING
  2
AecDbDispPropsOpening
  3
AecArchBase
 90
    32897
280
     1
281
     0
  0
CLASS
  1
AEC_DISP_REP_OPENING_MODEL
  2
AecDbDispRepOpeningModel
  3
AecArchBase
 90
    32897
280
     1
281
     0
  0
CLASS
  1
AEC_DISP_REP_RAILING_PLAN
  2
AecDbDispRepRailingPlan
  3
AecArchBase
 90
    32897
280
     1
281
     0
  0
CLASS
  1
AEC_DISP_PROPS_RAILING_PLAN
  2
AecDbDispPropsRailingPlan
  3
AecArchBase
 90
    32897
280
     1
281
     0
  0
CLASS
  1
AEC_DISP_REP_RAILING_MODEL
  2
AecDbDispRepRailingModel
  3
AecArchBase
 90
    32897
280
     1
281
     0
  0
CLASS
  1
AEC_DISP_PROPS_RAILING_MODEL
  2
AecDbDispPropsRailingModel
  3
AecArchBase
 90
    32897
280
     1
281
     0
  0
CLASS
  1
AEC_DISP_REP_WINDOW_ELEV
  2
AecDbDispRepWindowElev
  3
AecArchBase
 90
    32897
280
     1
281
     0
  0
CLASS
  1
AEC_DISP_REP_DOOR_THRESHOLD_PLAN
  2
AecDbDispRepDoorThresholdPlan
  3
AecArchBase
 90
    32897
280
     1
281
     0
  0
CLASS
  1
AEC_DISP_PROPS_DOOR_THRESHOLD_PLAN
  2
AecDbDispPropsDoorThresholdPlan
  3
AecArchBase
 90
    32897
280
     1
281
     0
  0
CLASS
  1
AEC_DISP_REP_ROOF_MODEL
  2
AecDbDispRepRoofModel
  3
AecArchBase
 90
    32897
280
     1
281
     0
  0
CLASS
  1
AEC_DISP_REP_WINDOW_PLAN
  2
AecDbDispRepWindowPlan
  3
AecArchBase
 90
    32897
280
     1
281
     0
  0
CLASS
  1
AEC_DISP_REP_WALL_SCHEM
  2
AecDbDispRepWallSchem
  3
AecArchBase
 90
    32897
280
     1
281
     0
  0
CLASS
  1
AEC_DISP_PROPS_WALL_SCHEM
  2
AecDbDispPropsWallSchem
  3
AecArchBase
 90
    32897
280
     1
281
     0
  0
CLASS
  1
AEC_DISP_REP_WALL_RCP
  2
AecDbDispRepWallRcp
  3
AecArchBase
 90
    32897
280
     1
281
     0
  0
CLASS
  1
AEC_DISP_PROPS_WALL_PLAN
  2
AecDbDispPropsWallPlan
  3
AecArchBase
 90
    32897
280
     1
281
     0
  0
CLASS
  1
AEC_DISP_REP_WALL_PLAN
  2
AecDbDispRepWallPlan
  3
AecArchBase
 90
    32897
280
     1
281
     0
  0
CLASS
  1
AEC_DISP_REP_WALL_MODEL
  2
AecDbDispRepWallModel
  3
AecArchBase
 90
    32897
280
     1
281
     0
  0
CLASS
  1
AEC_DISP_PROPS_WALL
  2
AecDbDispPropsWall
  3
AecArchBase
 90
    32897
280
     1
281
     0
  0
CLASS
  1
AEC_DISP_REP_WALL_GRAPH
  2
AecDbDispRepWallGraph
  3
AecArchBase
 90
    32897
280
     1
281
     0
  0
CLASS
  1
AEC_DISP_REP_STAIR_RCP
  2
AecDbDispRepStairRcp
  3
AecArchBase
 90
    32897
280
     1
281
     0
  0
CLASS
  1
AEC_DISP_PROPS_STAIR_PLAN
  2
AecDbDispPropsStairPlan
  3
AecArchBase
 90
    32897
280
     1
281
     0
  0
CLASS
  1
AEC_DISP_REP_STAIR_PLAN
  2
AecDbDispRepStairPlan
  3
AecArchBase
 90
    32897
280
     1
281
     0
  0
CLASS
  1
AEC_DISP_REP_STAIR_MODEL
  2
AecDbDispRepStairModel
  3
AecArchBase
 90
    32897
280
     1
281
     0
  0
CLASS
  1
AEC_DISP_PROPS_STAIR_MODEL
  2
AecDbDispPropsStairModel
  3
AecArchBase
 90
    32897
280
     1
281
     0
  0
CLASS
  1
AEC_DISP_REP_SPACE_BOUNDARY_SCHEM
  2
AecDbDispRepSpaceBoundarySketch
  3
AecArchBase
 90
    32897
280
     1
281
     0
  0
CLASS
  1
AEC_DISP_REP_SPACE_BOUNDARY_PLAN
  2
AecDbDispRepSpaceBoundaryPlan
  3
AecArchBase
 90
    32897
280
     1
281
     0
  0
CLASS
  1
AEC_DISP_REP_SPACE_BOUNDARY_MODEL
  2
AecDbDispRepSpaceBoundaryModel
  3
AecArchBase
 90
    32897
280
     1
281
     0
  0
CLASS
  1
AEC_DISP_REP_SPACE_BOUNDARY_DIAGRAM
  2
AecDbDispRepSpaceBoundaryDgrm
  3
AecArchBase
 90
    32897
280
     1
281
     0
  0
CLASS
  1
AEC_DISP_REP_SPACE_VOLUME
  2
AecDbDispRepSpaceVolume
  3
AecArchBase
 90
    32897
280
     1
281
     0
  0
CLASS
  1
AEC_DISP_REP_SPACE_RCP
  2
AecDbDispRepSpaceRcp
  3
AecArchBase
 90
    32897
280
     1
281
     0
  0
CLASS
  1
AEC_DISP_REP_ANCHOR_TAG_TO_ENT
  2
AecDbDispRepAnchorTagToEnt
  3
AecScheduleData
 90
    32897
280
     1
281
     0
  0
CLASS
  1
AEC_DISP_REP_SCHEDULE_TABLE
  2
AecDbDispRepScheduleTable
  3
AecSchedule
 90
    32897
280
     1
281
     0
  0
CLASS
  1
AEC_DISP_PROPS_SCHEDULE_TABLE
  2
AecDbDispPropsScheduleTable
  3
AecSchedule
 90
    32897
280
     1
281
     0
  0
CLASS
  1
AEC_DISP_REP_SET
  2
AecDbDispRepSet
  3
AecBase
 90
    32897
280
     1
281
     0
  0
CLASS
  1
AEC_DISP_REP_CONFIG
  2
AecDbDispRepConfig
  3
AecBase
 90
    32897
280
     1
281
     0
  0
CLASS
  1
TABLESTYLE
  2
AcDbTableStyle
  3
ObjectDBX Classes
 90
     4095
280
     0
281
     0
  0
CLASS
  1
MATERIAL
  2
AcDbMaterial
  3
ObjectDBX Classes
 90
     1153
280
     0
281
     0
  0
CLASS
  1
VISUALSTYLE
  2
AcDbVisualStyle
  3
ObjectDBX Classes
 90
     4095
280
     0
281
     0
  0
CLASS
  1
SCALE
  2
AcDbScale
  3
ObjectDBX Classes
 90
     1153
280
     0
281
     0
  0
CLASS
  1
MLEADERSTYLE
  2
AcDbMLeaderStyle
  3
ACDB_MLEADERSTYLE_CLASS
 90
    36863
280
     0
281
     0
  0
CLASS
  1
ACDBSECTIONVIEWSTYLE
  2
AcDbSectionViewStyle
  3
ObjectDBX Classes
 90
    33793
280
     0
281
     0
  0
CLASS
  1
ACDBDETAILVIEWSTYLE
  2
AcDbDetailViewStyle
  3
ObjectDBX Classes
 90
    33793
280
     0
281
     0
  0
CLASS
  1
CELLSTYLEMAP
  2
AcDbCellStyleMap
  3
ObjectDBX Classes
 90
     1152
280
     0
281
     0
  0
ENDSEC
  0
SECTION
  2
TABLES
  0
TABLE
  2
VPORT
  5
2F
330
0
100
AcDbSymbolTable
 70
     1
  0
VPORT
  5
30
330
2F
100
AcDbSymbolTableRecord
100
AcDbViewportTableRecord
  2
*Active
 70
     0
 10
0.0
 20
0.0
 11
1.0
 21
1.0
 12
211.4492407384527
 22
72.95169282949325
 13
0.0
 23
0.0
 14
1.0
 24
1.0
 15
0.0
 25
0.0
 16
0.0
 26
0.0
 36
1.0
 17
0.0
 27
0.0
 37
0.0
 40
376.7097085018215
 41
2.043307086614173
 42
50.0
 43
0.0
 44
0.0
 50
0.0
 51
0.0
 71
     0
 72
 20000
 73
     1
 74
     1
 75
     0
 76
     0
 77
     0
 78
     0
281
     0
 65
     1
110
0.0
120
0.0
130
0.0
111
1.0
121
0.0
131
0.0
112
0.0
122
1.0
132
0.0
 79
     0
146
0.0
1001
ACAD_NAV_VCDISPLAY
1070
     3
  0
ENDTAB
  0
TABLE
  2
LTYPE
  5
2A
330
0
100
AcDbSymbolTable
 70
     1
  0
LTYPE
  5
2B
330
2A
100
AcDbSymbolTableRecord
100
AcDbLinetypeTableRecord
  2
BYBLOCK
 70
     0
  3

 72
    65
 73
     0
 40
0.0
  0
LTYPE
  5
2C
330
2A
100
AcDbSymbolTableRecord
100
AcDbLinetypeTableRecord
  2
BYLAYER
 70
     0
  3

 72
    65
 73
     0
 40
0.0
  0
LTYPE
  5
14
330
2A
100
AcDbSymbolTableRecord
100
AcDbLinetypeTableRecord
  2
CONTINUOUS
 70
     0
  3
Solid line
 72
    65
 73
     0
 40
0.0
  0
ENDTAB
  0
TABLE
  2
LAYER
  5
26
330
0
100
AcDbSymbolTable
 70
     6
  0
LAYER
  5
6
330
26
100
AcDbSymbolTableRecord
100
AcDbLayerTableRecord
  2
0
 70
     0
 62
     7
  6
CONTINUOUS
370
    -3
390
7
  0
LAYER
  5
9E
330
26
100
AcDbSymbolTableRecord
100
AcDbLayerTableRecord
  2
DEFPOINTS
 70
     0
 62
     7
  6
CONTINUOUS
290
     0
370
    -3
390
7
  0
LAYER
  5
93
330
26
100
AcDbSymbolTableRecord
100
AcDbLayerTableRecord
  2
SUNPOU
 70
     0
 62
    70
  6
CONTINUOUS
370
    -3
390
7
  0
LAYER
  5
63
330
26
100
AcDbSymbolTableRecord
100
AcDbLayerTableRecord
  2
KIJUN
 70
     0
 62
     7
  6
CONTINUOUS
370
    -3
390
7
  0
LAYER
  5
164
330
26
100
AcDbSymbolTableRecord
100
AcDbLayerTableRecord
  2
HOJO
 70
     0
 62
     3
  6
CONTINUOUS
370
    -3
390
7
  0
LAYER
  5
166
330
26
100
AcDbSymbolTableRecord
100
AcDbLayerTableRecord
  2
WAKU
 70
     0
 62
     1
  6
CONTINUOUS
370
    -3
390
7
  0
ENDTAB
  0
TABLE
  2
STYLE
  5
27
330
0
100
AcDbSymbolTable
 70
     3
  0
STYLE
  5
28
330
27
100
AcDbSymbolTableRecord
100
AcDbTextStyleTableRecord
  2
STANDARD
 70
     0
 40
0.0
 41
1.0
 50
0.0
 71
     0
 42
0.2
  3
txt
  4

  0
STYLE
  5
4C
330
27
100
AcDbSymbolTableRecord
100
AcDbTextStyleTableRecord
  2
SUNPOU
 70
     0
 40
0.0
 41
1.0
 50
0.0
 71
     0
 42
30.0
  3
txt
  4
bigfont
  0
STYLE
  5
9C
330
27
100
AcDbSymbolTableRecord
100
AcDbTextStyleTableRecord
  2
LIFE
 70
     0
 40
0.0
 41
0.7
 50
0.0
 71
     0
 42
10.0
  3
romans
  4
extfont
  0
ENDTAB
  0
TABLE
  2
VIEW
  5
2D
330
0
100
AcDbSymbolTable
 70
     0
  0
ENDTAB
  0
TABLE
  2
UCS
  5
2E
330
0
100
AcDbSymbolTable
 70
     0
  0
ENDTAB
  0
TABLE
  2
APPID
  5
34
330
0
100
AcDbSymbolTable
 70
     2
  0
APPID
  5
A
330
34
100
AcDbSymbolTableRecord
100
AcDbRegAppTableRecord
  2
ACAD
 70
     0
  0
APPID
  5
33
330
34
100
AcDbSymbolTableRecord
100
AcDbRegAppTableRecord
  2
ACAD_NAV_VCDISPLAY
 70
     0
  0
ENDTAB
  0
TABLE
  2
DIMSTYLE
  5
35
330
0
100
AcDbSymbolTable
 70
     3
100
AcDbDimStyleTable
 71
     2
340
36
340
3B
  0
DIMSTYLE
105
3B
330
35
100
AcDbSymbolTableRecord
100
AcDbDimStyleTableRecord
  2
STANDARD
 70
     0
 41
3.0
 42
2.0
 44
0.0
 73
     0
 74
     0
 77
     1
140
2.799999999999998
141
1.0
146
0.0642857142857143
147
1.0
173
     1
174
     1
176
    60
177
    70
178
    60
271
     0
340
28
341
37
343
37
344
37
  0
DIMSTYLE
105
A2
102
{ACAD_REACTORS
330
92
330
14B
102
}
330
35
100
AcDbSymbolTableRecord
100
AcDbDimStyleTableRecord
  2
STANDARD$0
 70
     0
 40
2.0
 41
1.0
 42
2.0
 43
0.0
 44
1.0
 73
     0
 74
     0
 77
     3
 78
     9
140
4.5
141
0.0
147
1.0
172
     1
173
     1
178
     3
271
     2
340
9C
341
A3
343
A3
344
A3
  0
DIMSTYLE
105
36
330
35
100
AcDbSymbolTableRecord
100
AcDbDimStyleTableRecord
  2
1
 70
     0
 41
3.0
 42
2.0
 44
0.0
 73
     0
 74
     0
 77
     1
140
7.0
141
1.0
146
0.0642857142857143
147
1.0
173
     1
174
     1
176
    60
177
    70
178
    60
271
     0
340
28
341
37
343
37
344
37
  0
ENDTAB
  0
TABLE
  2
BLOCK_RECORD
  5
1
330
0
100
AcDbSymbolTable
 70
     4
  0
BLOCK_RECORD
  5
2
102
{ACAD_XDICTIONARY
360
3
102
}
330
1
100
AcDbSymbolTableRecord
100
AcDbBlockTableRecord
  2
*MODEL_SPACE
340
1E
  0
BLOCK_RECORD
  5
20
102
{ACAD_XDICTIONARY
360
21
102
}
330
1
100
AcDbSymbolTableRecord
100
AcDbBlockTableRecord
  2
*PAPER_SPACE
340
25
  0
BLOCK_RECORD
  5
37
330
1
100
AcDbSymbolTableRecord
100
AcDbBlockTableRecord
  2
_DOTSMALL
340
0
102
{BLKREFS
331
99
331
9A
331
151
331
152
102
}
  0
BLOCK_RECORD
  5
A3
330
1
100
AcDbSymbolTableRecord
100
AcDbBlockTableRecord
  2
_DOT
340
0
  0
BLOCK_RECORD
  5
14C
330
1
100
AcDbSymbolTableRecord
100
AcDbBlockTableRecord
  2
*D2
340
0
  0
BLOCK_RECORD
  5
94
330
1
100
AcDbSymbolTableRecord
100
AcDbBlockTableRecord
  2
*D3
340
0
  0
ENDTAB
  0
ENDSEC
  0
SECTION
  2
BLOCKS
  0
BLOCK
  5
5
330
2
100
AcDbEntity
  8
0
100
AcDbBlockBegin
  2
*MODEL_SPACE
 70
     0
 10
0.0
 20
0.0
 30
0.0
  3
*MODEL_SPACE
  1

  0
ENDBLK
  5
1D
330
2
100
AcDbEntity
  8
0
100
AcDbBlockEnd
  0
BLOCK
  5
23
330
20
100
AcDbEntity
 67
     1
  8
0
100
AcDbBlockBegin
  2
*PAPER_SPACE
 70
     0
 10
0.0
 20
0.0
 30
0.0
  3
*PAPER_SPACE
  1

  0
ENDBLK
  5
24
330
20
100
AcDbEntity
 67
     1
  8
0
100
AcDbBlockEnd
  0
BLOCK
  5
38
330
37
100
AcDbEntity
  8
0
100
AcDbBlockBegin
  2
_DOTSMALL
 70
     0
 10
0.0
 20
0.0
 30
0.0
  3
_DOTSMALL
  1

  0
LWPOLYLINE
  5
39
330
37
100
AcDbEntity
  8
0
  6
ByBlock
 62
     0
100
AcDbPolyline
 90
        2
 70
     1
 43
0.5
 10
-0.0625
 20
0.0
 42
1.0
 10
0.0625
 20
0.0
 42
1.0
  0
ENDBLK
  5
3A
330
37
100
AcDbEntity
  8
0
100
AcDbBlockEnd
  0
BLOCK
  5
A4
330
A3
100
AcDbEntity
  8
0
100
AcDbBlockBegin
  2
_DOT
 70
     0
 10
0.0
 20
0.0
 30
0.0
  3
_DOT
  1

  0
LWPOLYLINE
  5
A5
330
A3
100
AcDbEntity
  8
0
  6
ByBlock
 62
     0
100
AcDbPolyline
 90
        2
 70
     1
 43
0.5
 10
-0.25
 20
0.0
 42
1.0
 10
0.25
 20
0.0
 42
1.0
  0
LINE
  5
A6
330
A3
100
AcDbEntity
  8
0
  6
ByBlock
 62
     0
100
AcDbLine
 10
-0.5
 20
0.0
 30
0.0
 11
-1.0
 21
0.0
 31
0.0
  0
ENDBLK
  5
A7
330
A3
100
AcDbEntity
  8
0
100
AcDbBlockEnd
  0
BLOCK
  5
14D
330
14C
100
AcDbEntity
  8
0
 62
     7
100
AcDbBlockBegin
  2
*D2
 70
     1
 10
0.0
 20
0.0
 30
0.0
  3
*D2
  1

  0
LINE
  5
14E
330
14C
100
AcDbEntity
  8
SUNPOU
 62
    70
370
    -2
100
AcDbLine
 10
25.89748411767518
 20
99.271109277309
 30
0.0
 11
25.89748411767518
 21
111.7439057485767
 31
0.0
  0
LINE
  5
14F
330
14C
100
AcDbEntity
  8
SUNPOU
 62
    70
370
    -2
100
AcDbLine
 10
90.89748411767516
 20
99.271109277309
 30
0.0
 11
90.89748411767516
 21
111.7439057485767
 31
0.0
  0
LINE
  5
150
330
14C
100
AcDbEntity
  8
SUNPOU
 62
    60
370
    -2
100
AcDbLine
 10
25.89748411767518
 20
111.7439057485767
 30
0.0
 11
90.89748411767516
 21
111.7439057485767
 31
0.0
  0
INSERT
  5
151
330
14C
100
AcDbEntity
  8
SUNPOU
 62
    60
370
    -2
100
AcDbBlockReference
  2
_DOTSMALL
 10
25.89748411767518
 20
111.7439057485767
 30
0.0
 41
4.0
 42
4.0
 43
4.0
 50
180.0
  0
INSERT
  5
152
330
14C
100
AcDbEntity
  8
SUNPOU
 62
    60
370
    -2
100
AcDbBlockReference
  2
_DOTSMALL
 10
90.89748411767516
 20
111.7439057485767
 30
0.0
 41
4.0
 42
4.0
 43
4.0
  0
MTEXT
  5
153
330
14C
100
AcDbEntity
  8
SUNPOU
 62
    60
100
AcDbMText
 10
58.39748411767517
 20
116.7439057485767
 30
0.0
 40
6.0
 41
0.0
 71
     5
 72
     1
  1
\A1;65
  7
LIFE
 73
     1
 44
1.0
1001
ACAD
1000
MTEXTBEGIN
1070
    73
1070
     1
1070
    44
1040
1.0
1070
    74
1070
     0
1000
MTEXTEND
  0
POINT
  5
154
330
14C
100
AcDbEntity
  8
DEFPOINTS
 62
     0
100
AcDbPoint
 10
25.89748411767518
 20
95.271109277309
 30
0.0
  0
POINT
  5
155
330
14C
100
AcDbEntity
  8
DEFPOINTS
 62
     0
100
AcDbPoint
 10
90.89748411767516
 20
95.271109277309
 30
0.0
  0
POINT
  5
156
330
14C
100
AcDbEntity
  8
DEFPOINTS
 62
     0
100
AcDbPoint
 10
90.89748411767516
 20
111.7439057485767
 30
0.0
  0
ENDBLK
  5
157
330
14C
100
AcDbEntity
  8
0
 62
     7
100
AcDbBlockEnd
  0
BLOCK
  5
95
330
94
100
AcDbEntity
  8
0
 62
     7
100
AcDbBlockBegin
  2
*D3
 70
     1
 10
0.0
 20
0.0
 30
0.0
  3
*D3
  1

  0
LINE
  5
96
330
94
100
AcDbEntity
  8
SUNPOU
 62
    70
370
    -2
100
AcDbLine
 10
21.86440947475649
 20
95.29447529775117
 30
0.0
 11
9.778388075685725
 21
95.29447529775117
 31
0.0
  0
LINE
  5
97
330
94
100
AcDbEntity
  8
SUNPOU
 62
    70
370
    -2
100
AcDbLine
 10
21.86440947475649
 20
30.29447529775115
 30
0.0
 11
9.778388075685711
 21
30.29447529775115
 31
0.0
  0
LINE
  5
98
330
94
100
AcDbEntity
  8
SUNPOU
 62
    60
370
    -2
100
AcDbLine
 10
9.778388075685725
 20
95.29447529775117
 30
0.0
 11
9.778388075685711
 21
30.29447529775115
 31
0.0
  0
INSERT
  5
99
330
94
100
AcDbEntity
  8
SUNPOU
 62
    60
370
    -2
100
AcDbBlockReference
  2
_DOTSMALL
 10
9.778388075685725
 20
95.29447529775117
 30
0.0
 41
4.0
 42
4.0
 43
4.0
 50
90.0
  0
INSERT
  5
9A
330
94
100
AcDbEntity
  8
SUNPOU
 62
    60
370
    -2
100
AcDbBlockReference
  2
_DOTSMALL
 10
9.778388075685711
 20
30.29447529775115
 30
0.0
 41
4.0
 42
4.0
 43
4.0
 50
270.0
  0
MTEXT
  5
9B
330
94
100
AcDbEntity
  8
SUNPOU
 62
    60
100
AcDbMText
 10
4.778388075685708
 20
62.79447529775116
 30
0.0
 40
6.0
 41
0.0
 71
     5
 72
     1
  1
\A1;65
  7
LIFE
 11
0.0000000000000001
 21
1.0
 31
0.0
 73
     1
 44
1.0
1001
ACAD
1000
MTEXTBEGIN
1070
    73
1070
     1
1070
    44
1040
1.0
1070
    74
1070
     0
1000
MTEXTEND
  0
POINT
  5
9D
330
94
100
AcDbEntity
  8
DEFPOINTS
 62
     0
100
AcDbPoint
 10
25.8644094747565
 20
95.29447529775117
 30
0.0
  0
POINT
  5
9F
330
94
100
AcDbEntity
  8
DEFPOINTS
 62
     0
100
AcDbPoint
 10
25.8644094747565
 20
30.29447529775115
 30
0.0
  0
POINT
  5
A0
330
94
100
AcDbEntity
  8
DEFPOINTS
 62
     0
100
AcDbPoint
 10
9.778388075685711
 20
30.29447529775115
 30
0.0
  0
ENDBLK
  5
A1
330
94
100
AcDbEntity
  8
0
 62
     7
100
AcDbBlockEnd
  0
ENDSEC
  0
SECTION
  2
ENTITIES
  0
ARC
  5
62
330
2
100
AcDbEntity
  8
KIJUN
 62
     7
100
AcDbCircle
 10
158.6923937163245
 20
69.01107852633522
 30
0.0
 40
10.99824529335587
100
AcDbArc
 50
197.6294733646778
 51
283.9118937219622
  0
ARC
  5
64
330
2
100
AcDbEntity
  8
KIJUN
 62
     7
100
AcDbCircle
 10
145.1830245441368
 20
69.25675828635388
 30
0.0
 40
12.46686934091919
100
AcDbArc
 50
6.519048142267826
 51
97.30706731079685
  0
ARC
  5
65
330
2
100
AcDbEntity
  8
KIJUN
 62
     7
100
AcDbCircle
 10
149.8793219248676
 20
61.62631509925739
 30
0.0
 40
23.45759434577106
100
AcDbArc
 50
67.85739984139491
 51
113.2043983098869
  0
ARC
  5
66
330
2
100
AcDbEntity
  8
KIJUN
 62
     7
100
AcDbCircle
 10
150.3391904215694
 20
63.45599795995184
 30
0.0
 40
10.48904228015641
100
AcDbArc
 50
236.2341002866731
 51
328.8519680416347
  0
LINE
  5
67
330
2
100
AcDbEntity
  8
KIJUN
 62
     7
100
AcDbLine
 10
361.3366968071167
 20
36.61255704038643
 30
0.0
 11
121.3366968071171
 21
36.61255704038711
 31
0.0
  0
LINE
  5
68
330
2
100
AcDbEntity
  8
KIJUN
 62
     7
100
AcDbLine
 10
361.3366968071167
 20
50.29447529775115
 30
0.0
 11
121.3366968071171
 21
50.29447529775161
 31
0.0
  0
LINE
  5
69
330
2
100
AcDbEntity
  8
KIJUN
 62
     7
100
AcDbLine
 10
361.3366968071162
 20
85.2944752977509
 30
0.0
 11
121.3366968071167
 21
85.29447529775138
 31
0.0
  0
LINE
  5
6A
330
2
100
AcDbEntity
  8
KIJUN
 62
     7
100
AcDbLine
 10
361.336696807117
 20
30.29447529775069
 30
0.0
 11
121.3366968071171
 21
30.29447529775092
 31
0.0
  0
LINE
  5
6B
330
2
100
AcDbEntity
  8
KIJUN
 62
     7
100
AcDbLine
 10
361.3366968071162
 20
95.29447529775159
 30
0.0
 11
121.3366968071167
 21
95.29447529775138
 31
0.0
  0
ARC
  5
6C
330
2
100
AcDbEntity
  8
KIJUN
 62
     7
100
AcDbCircle
 10
129.7614638823441
 20
56.60833842762002
 30
0.0
 40
5.549875194775438
100
AcDbArc
 50
200.4144474370538
 51
253.0717078197675
  0
ARC
  5
6D
330
2
100
AcDbEntity
  8
KIJUN
 62
     7
100
AcDbCircle
 10
126.0777911139561
 20
54.82251797537667
 30
0.0
 40
4.085455312634707
100
AcDbArc
 50
300.4050668784054
 51
351.7326907278895
  0
ARC
  5
6E
330
2
100
AcDbEntity
  8
KIJUN
 62
     7
100
AcDbCircle
 10
137.3493413669024
 20
60.1278518563965
 30
0.0
 40
9.326140703595932
100
AcDbArc
 50
164.7508998573181
 51
322.9809534977733
  0
ARC
  5
6F
330
2
100
AcDbEntity
  8
KIJUN
 62
     7
100
AcDbCircle
 10
148.3089270678018
 20
65.69879502205544
 30
0.0
 40
0.1
100
AcDbArc
 50
176.0784466809333
 51
190.7468679520508
  0
ARC
  5
70
330
2
100
AcDbEntity
  8
KIJUN
 62
     7
100
AcDbCircle
 10
132.4323151765783
 20
78.32822057581181
 30
0.0
 40
8.0
100
AcDbArc
 50
205.2913906890992
 51
217.6093575525441
  0
ARC
  5
71
330
2
100
AcDbEntity
  8
KIJUN
 62
     7
100
AcDbCircle
 10
117.8007932172621
 20
66.05632488489796
 30
0.0
 40
11.10847090973929
100
AcDbArc
 50
341.7675022856768
 51
41.70004992654456
  0
ARC
  5
72
330
2
100
AcDbEntity
  8
KIJUN
 62
     7
100
AcDbCircle
 10
141.0778031656276
 20
81.70720374625506
 30
0.0
 40
1.543467904995979
100
AcDbArc
 50
106.6044549011305
 51
255.693091469414
  0
ARC
  5
73
330
2
100
AcDbEntity
  8
KIJUN
 62
     7
100
AcDbCircle
 10
139.4608085221669
 20
75.36667533399072
 30
0.0
 40
5.0
100
AcDbArc
 50
51.74789738198269
 51
75.69309146941408
  0
ARC
  5
74
330
2
100
AcDbEntity
  8
KIJUN
 62
     7
100
AcDbCircle
 10
142.6080928989389
 20
52.41570454410288
 30
0.0
 40
3.0
100
AcDbArc
 50
50.67197539358677
 51
59.8504360106079
  0
ARC
  5
75
330
2
100
AcDbEntity
  8
KIJUN
 62
     7
100
AcDbCircle
 10
141.8937762360868
 20
63.31786160018118
 30
0.0
 40
5.0
100
AcDbArc
 50
197.255152063087
 51
230.517424715477
  0
ARC
  5
76
330
2
100
AcDbEntity
  8
KIJUN
 62
     7
100
AcDbCircle
 10
141.8937762360877
 20
63.31786160018094
 30
0.0
 40
5.0
100
AcDbArc
 50
197.2551520630869
 51
230.5174247154692
  0
LINE
  5
77
330
2
100
AcDbEntity
  8
KIJUN
 62
     7
100
AcDbLine
 10
138.7145586089121
 20
59.45877164540473
 30
0.0
 11
144.1148697573829
 21
55.00985633204045
 31
0.0
  0
ARC
  5
78
330
2
100
AcDbEntity
  8
KIJUN
 62
     7
100
AcDbCircle
 10
128.5729076134893
 20
72.49213040487501
 30
0.0
 40
5.0
100
AcDbArc
 50
17.25515206309015
 51
41.78203226905837
  0
LINE
  5
79
330
2
100
AcDbEntity
  8
KIJUN
 62
     7
100
AcDbLine
 10
133.3478739906899
 20
73.97526765294144
 30
0.0
 11
137.1188098588872
 21
61.83472435211474
 31
0.0
  0
ARC
  5
7A
330
2
100
AcDbEntity
  8
KIJUN
 62
     7
100
AcDbCircle
 10
134.0971499167748
 20
80.95023866975946
 30
0.0
 40
5.0
100
AcDbArc
 50
218.5019610048263
 51
232.4424115764982
  0
ARC
  5
7B
330
2
100
AcDbEntity
  8
KIJUN
 62
     7
100
AcDbCircle
 10
125.4431569664874
 20
69.69557595958526
 30
0.0
 40
9.197148541288655
100
AcDbArc
 50
41.78203226905885
 51
52.44241157649828
  0
ARC
  5
7C
330
2
100
AcDbEntity
  8
KIJUN
 62
     7
100
AcDbCircle
 10
120.2033344453087
 20
69.8978223971814
 30
0.0
 40
12.75370422806194
100
AcDbArc
 50
38.50196100482324
 51
84.90166525049936
  0
ARC
  5
7D
330
2
100
AcDbEntity
  8
KIJUN
 62
     7
100
AcDbCircle
 10
115.7130780823808
 20
64.1919370206155
 30
0.0
 40
12.99578839332631
100
AcDbArc
 50
295.640699389116
 51
341.3125538400564
  0
ARC
  5
7E
330
2
100
AcDbEntity
  8
KIJUN
 62
     7
100
AcDbCircle
 10
122.0245284610413
 20
73.90363788387519
 30
0.0
 40
3.330439191439848
100
AcDbArc
 50
17.59606681160239
 51
101.9190089807454
  0
ARC
  5
7F
330
2
100
AcDbEntity
  8
KIJUN
 62
     7
100
AcDbCircle
 10
110.2058617586434
 20
57.87533588556442
 30
0.0
 40
38.79795585063936
100
AcDbArc
 50
11.60512546021356
 51
33.50670104399434
  0
ARC
  5
80
330
2
100
AcDbEntity
  8
KIJUN
 62
     7
100
AcDbCircle
 10
179.5735417074063
 20
66.1057944663143
 30
0.0
 40
15.29207216416041
100
AcDbArc
 50
259.0516732936624
 51
356.4110652394285
  0
ARC
  5
81
330
2
100
AcDbEntity
  8
KIJUN
 62
     7
100
AcDbCircle
 10
177.1786806887784
 20
52.85443534497012
 30
0.0
 40
1.834540167304739
100
AcDbArc
 50
205.9753739124434
 51
253.8766005754126
  0
ARC
  5
82
330
2
100
AcDbEntity
  8
KIJUN
 62
     7
100
AcDbCircle
 10
203.0964207631684
 20
61.99158229943731
 30
0.0
 40
10.93156503481936
100
AcDbArc
 50
199.2432231712631
 51
250.0138166884824
  0
ARC
  5
83
330
2
100
AcDbEntity
  8
KIJUN
 62
     7
100
AcDbCircle
 10
172.7275017149185
 20
58.4007156926911
 30
0.0
 40
6.940511331967235
100
AcDbArc
 50
182.2390031700787
 51
341.0926841432332
  0
ARC
  5
84
330
2
100
AcDbEntity
  8
KIJUN
 62
     7
100
AcDbCircle
 10
339.5735417074064
 20
66.1057944663143
 30
0.0
 40
15.29207216416041
100
AcDbArc
 50
259.0516732936624
 51
356.4110652394285
  0
ARC
  5
85
330
2
100
AcDbEntity
  8
KIJUN
 62
     7
100
AcDbCircle
 10
337.1786806887784
 20
52.85443534497012
 30
0.0
 40
1.834540167304739
100
AcDbArc
 50
205.9753739124434
 51
253.8766005754126
  0
ARC
  5
86
330
2
100
AcDbEntity
  8
KIJUN
 62
     7
100
AcDbCircle
 10
363.0964207631684
 20
61.99158229943731
 30
0.0
 40
10.93156503481936
100
AcDbArc
 50
199.2432231712631
 51
250.0138166884824
  0
ARC
  5
87
330
2
100
AcDbEntity
  8
KIJUN
 62
     7
100
AcDbCircle
 10
332.7275017149185
 20
58.4007156926911
 30
0.0
 40
6.940511331967235
100
AcDbArc
 50
182.2390031700787
 51
341.0926841432332
  0
ARC
  5
88
330
2
100
AcDbEntity
  8
KIJUN
 62
     7
100
AcDbCircle
 10
289.7614638823442
 20
56.60833842762002
 30
0.0
 40
5.549875194775438
100
AcDbArc
 50
200.4144474370538
 51
253.0717078197675
  0
ARC
  5
89
330
2
100
AcDbEntity
  8
KIJUN
 62
     7
100
AcDbCircle
 10
286.077791113956
 20
54.82251797537667
 30
0.0
 40
4.085455312634707
100
AcDbArc
 50
300.4050668784054
 51
351.7326907278895
  0
ARC
  5
8A
330
2
100
AcDbEntity
  8
KIJUN
 62
     7
100
AcDbCircle
 10
297.3493413669024
 20
60.1278518563965
 30
0.0
 40
9.326140703595932
100
AcDbArc
 50
164.7508998573181
 51
322.9809534977733
  0
ARC
  5
8B
330
2
100
AcDbEntity
  8
KIJUN
 62
     7
100
AcDbCircle
 10
217.3493413669024
 20
60.1278518563965
 30
0.0
 40
9.326140703595932
100
AcDbArc
 50
164.7508998573181
 51
322.9809534977733
  0
ARC
  5
8C
330
2
100
AcDbEntity
  8
KIJUN
 62
     7
100
AcDbCircle
 10
206.0777911139561
 20
54.82251797537667
 30
0.0
 40
4.085455312634707
100
AcDbArc
 50
300.4050668784054
 51
351.7326907278895
  0
ARC
  5
8D
330
2
100
AcDbEntity
  8
KIJUN
 62
     7
100
AcDbCircle
 10
209.7614638823441
 20
56.60833842762002
 30
0.0
 40
5.549875194775438
100
AcDbArc
 50
200.4144474370538
 51
253.0717078197675
  0
ARC
  5
8E
330
2
100
AcDbEntity
  8
KIJUN
 62
     7
100
AcDbCircle
 10
257.1786806887784
 20
52.85443534497012
 30
0.0
 40
1.834540167304739
100
AcDbArc
 50
205.9753739124434
 51
253.8766005754126
  0
ARC
  5
8F
330
2
100
AcDbEntity
  8
KIJUN
 62
     7
100
AcDbCircle
 10
259.5735417074064
 20
66.1057944663143
 30
0.0
 40
15.29207216416041
100
AcDbArc
 50
259.0516732936624
 51
356.4110652394285
  0
ARC
  5
90
330
2
100
AcDbEntity
  8
KIJUN
 62
     7
100
AcDbCircle
 10
283.0964207631685
 20
61.99158229943731
 30
0.0
 40
10.93156503481936
100
AcDbArc
 50
199.2432231712631
 51
250.0138166884824
  0
ARC
  5
91
330
2
100
AcDbEntity
  8
KIJUN
 62
     7
100
AcDbCircle
 10
252.7275017149185
 20
58.4007156926911
 30
0.0
 40
6.940511331967235
100
AcDbArc
 50
182.2390031700787
 51
341.0926841432332
  0
DIMENSION
  5
92
330
2
100
AcDbEntity
  8
SUNPOU
100
AcDbDimension
  2
*D3
 10
9.778388075685711
 20
30.29447529775115
 30
0.0
 11
4.778388075685708
 21
62.79447529775116
 31
0.0
 71
     5
 42
65.0
  3
STANDARD$0
100
AcDbAlignedDimension
 13
25.8644094747565
 23
95.29447529775117
 33
0.0
 14
25.8644094747565
 24
30.29447529775115
 34
0.0
 50
90.0
100
AcDbRotatedDimension
1001
ACAD
1000
DSTYLE
1002
{
1070
    41
1040
2.0
1070
    44
1040
0.0
1070
    77
1070
     1
1070
    78
1070
     0
1070
   140
1040
3.0
1070
   141
1040
1.0
1070
   146
1040
0.0642857142857143
1070
   172
1070
     0
1070
   173
1070
     0
1070
   176
1070
    60
1070
   177
1070
    70
1070
   178
1070
    60
1070
   271
1070
     0
1070
   272
1070
     0
1070
   341
1005
0
1070
   342
1005
37
1070
   343
1005
0
1070
   344
1005
0
1002
}
  0
ARC
  5
A8
330
2
100
AcDbEntity
  8
KIJUN
 62
     7
100
AcDbCircle
 10
332.7940716893657
 20
61.62631509925739
 30
0.0
 40
23.45759434577106
100
AcDbArc
 50
66.79560169011309
 51
112.1426001586051
  0
ARC
  5
A9
330
2
100
AcDbEntity
  8
KIJUN
 62
     7
100
AcDbCircle
 10
337.4903690700967
 20
69.25675828635388
 30
0.0
 40
12.46686934091919
100
AcDbArc
 50
82.69293268920314
 51
173.480951857732
  0
ARC
  5
AA
330
2
100
AcDbEntity
  8
KIJUN
 62
     7
100
AcDbCircle
 10
323.9809998979087
 20
69.01107852633522
 30
0.0
 40
10.99824529335587
100
AcDbArc
 50
256.0881062780377
 51
342.370526635322
  0
ARC
  5
AB
330
2
100
AcDbEntity
  8
KIJUN
 62
     7
100
AcDbCircle
 10
204.5398792829076
 20
75.1249744779313
 30
0.0
 40
38.0293855468478
100
AcDbArc
 50
350.2521324058242
 51
4.510664719822618
  0
ARC
  5
AC
330
2
100
AcDbEntity
  8
KIJUN
 62
     7
100
AcDbCircle
 10
240.2580585949339
 20
81.82500107100457
 30
0.0
 40
4.309221167437494
100
AcDbArc
 50
289.2263422010491
 51
348.6918931531373
  0
ARC
  5
AD
330
2
100
AcDbEntity
  8
KIJUN
 62
     7
100
AcDbCircle
 10
238.5813013293666
 20
76.03243013518721
 30
0.0
 40
9.277785610364027
100
AcDbArc
 50
61.86222093861561
 51
72.72318608020424
  0
ARC
  5
AE
330
2
100
AcDbEntity
  8
KIJUN
 62
     7
100
AcDbCircle
 10
241.6476967336315
 20
66.93484596628826
 30
0.0
 40
3.0
100
AcDbArc
 50
273.3187516643509
 51
353.9834117978159
  0
ARC
  5
AF
330
2
100
AcDbEntity
  8
KIJUN
 62
     7
100
AcDbCircle
 10
238.5813013293666
 20
76.03243013518721
 30
0.0
 40
9.277785610364027
100
AcDbArc
 50
61.86222093862298
 51
72.72318608020424
  0
ARC
  5
B0
330
2
100
AcDbEntity
  8
KIJUN
 62
     7
100
AcDbCircle
 10
240.258058594933
 20
81.82500107100457
 30
0.0
 40
4.309221167437494
100
AcDbArc
 50
289.2263422010491
 51
348.6918931531478
  0
ARC
  5
B1
330
2
100
AcDbEntity
  8
KIJUN
 62
     7
100
AcDbCircle
 10
204.5398792829062
 20
75.12497447792788
 30
0.0
 40
38.0293855468478
100
AcDbArc
 50
350.25213240583
 51
4.510664719827378
  0
ARC
  5
B2
330
2
100
AcDbEntity
  8
KIJUN
 62
     7
100
AcDbCircle
 10
243.9809998979089
 20
69.01107852633522
 30
0.0
 40
10.99824529335587
100
AcDbArc
 50
256.0881062780377
 51
342.370526635322
  0
ARC
  5
B3
330
2
100
AcDbEntity
  8
KIJUN
 62
     7
100
AcDbCircle
 10
204.8759884788376
 20
67.16614125181303
 30
0.0
 40
10.24107524382521
100
AcDbArc
 50
123.4953881082032
 51
191.3621789490996
  0
ARC
  5
B4
330
2
100
AcDbEntity
  8
KIJUN
 62
     7
100
AcDbCircle
 10
161.3366968071158
 20
68.83713934310384
 30
0.0
 40
0.7
100
AcDbArc
 50
192.4597430513385
 51
347.5402569486615
  0
ARC
  5
B5
330
2
100
AcDbEntity
  8
KIJUN
 62
     7
100
AcDbCircle
 10
198.1335143313256
 20
75.1249744779313
 30
0.0
 40
38.0293855468478
100
AcDbArc
 50
175.4893352801773
 51
189.7478675941757
  0
ARC
  5
B6
330
2
100
AcDbEntity
  8
KIJUN
 62
     7
100
AcDbCircle
 10
161.3366968071171
 20
68.83713934310384
 30
0.0
 40
0.7
100
AcDbArc
 50
192.4597430513436
 51
347.5402569486675
  0
ARC
  5
B7
330
2
100
AcDbEntity
  8
KIJUN
 62
     7
100
AcDbCircle
 10
161.4465780007989
 20
78.41708395678998
 30
0.0
 40
0.7
100
AcDbArc
 50
260.9687504836477
 51
289.2263422010633
  0
ARC
  5
B8
330
2
100
AcDbEntity
  8
KIJUN
 62
     7
100
AcDbCircle
 10
161.2268156134331
 20
78.41708395678979
 30
0.0
 40
0.7
100
AcDbArc
 50
250.7736577989401
 51
279.0312495164645
  0
ARC
  5
B9
330
2
100
AcDbEntity
  8
KIJUN
 62
     7
100
AcDbCircle
 10
124.5398792829063
 20
75.12497447792788
 30
0.0
 40
38.0293855468478
100
AcDbArc
 50
350.25213240583
 51
4.510664719827378
  0
ARC
  5
BA
330
2
100
AcDbEntity
  8
KIJUN
 62
     7
100
AcDbCircle
 10
161.131529861779
 20
81.56828258162198
 30
0.0
 40
3.0
100
AcDbArc
 50
118.1377790613839
 51
191.3081068468629
  0
ARC
  5
BB
330
2
100
AcDbEntity
  8
KIJUN
 62
     7
100
AcDbCircle
 10
162.4153350192995
 20
81.82500107100457
 30
0.0
 40
4.309221167437494
100
AcDbArc
 50
191.3081068468624
 51
250.7736577989505
  0
ARC
  5
BC
330
2
100
AcDbEntity
  8
KIJUN
 62
     7
100
AcDbCircle
 10
164.0920922848666
 20
76.03243013518721
 30
0.0
 40
9.277785610364027
100
AcDbArc
 50
107.2768139197957
 51
118.1377790613844
  0
ARC
  5
BD
330
2
100
AcDbEntity
  8
KIJUN
 62
     7
100
AcDbCircle
 10
161.5418637524534
 20
81.56828258162219
 30
0.0
 40
3.0
100
AcDbArc
 50
348.6918931531473
 51
61.86222093862252
  0
ARC
  5
BE
330
2
100
AcDbEntity
  8
KIJUN
 62
     7
100
AcDbCircle
 10
160.258058594933
 20
81.82500107100457
 30
0.0
 40
4.309221167437494
100
AcDbArc
 50
289.2263422010491
 51
348.6918931531478
  0
ARC
  5
BF
330
2
100
AcDbEntity
  8
KIJUN
 62
     7
100
AcDbCircle
 10
158.5813013293667
 20
76.03243013518721
 30
0.0
 40
9.277785610364027
100
AcDbArc
 50
61.86222093862298
 51
72.72318608020424
  0
ARC
  5
C0
330
2
100
AcDbEntity
  8
KIJUN
 62
     7
100
AcDbCircle
 10
172.7940716893656
 20
61.62631509925739
 30
0.0
 40
23.45759434577106
100
AcDbArc
 50
66.79560169011309
 51
112.1426001586051
  0
ARC
  5
C1
330
2
100
AcDbEntity
  8
KIJUN
 62
     7
100
AcDbCircle
 10
183.2125850920663
 20
75.36667533399072
 30
0.0
 40
5.0
100
AcDbArc
 50
104.3069085305859
 51
128.2521026180172
  0
ARC
  5
C2
330
2
100
AcDbEntity
  8
KIJUN
 62
     7
100
AcDbCircle
 10
181.5955904486057
 20
81.70720374625506
 30
0.0
 40
1.543467904995979
100
AcDbArc
 50
284.3069085305859
 51
73.39554509886949
  0
ARC
  5
C3
330
2
100
AcDbEntity
  8
KIJUN
 62
     7
100
AcDbCircle
 10
192.9915760872239
 20
72.78338023257783
 30
0.0
 40
5.0
100
AcDbArc
 50
163.6735719060995
 51
188.8475321748957
  0
ARC
  5
C4
330
2
100
AcDbEntity
  8
KIJUN
 62
     7
100
AcDbCircle
 10
162.3311147287962
 20
76.97886286580064
 30
0.0
 40
26.19470345671516
100
AcDbArc
 50
312.1543559710262
 51
349.0750251409874
  0
ARC
  5
C5
330
2
100
AcDbEntity
  8
KIJUN
 62
     7
100
AcDbCircle
 10
184.1267183983384
 20
54.87098388099087
 30
0.0
 40
5.0
100
AcDbArc
 50
147.4699254340069
 51
165.1583692237096
  0
ARC
  5
C6
330
2
100
AcDbEntity
  8
KIJUN
 62
     7
100
AcDbCircle
 10
177.4903690700965
 20
69.25675828635388
 30
0.0
 40
12.46686934091919
100
AcDbArc
 50
82.69293268920314
 51
173.480951857732
  0
ARC
  5
C7
330
2
100
AcDbEntity
  8
KIJUN
 62
     7
100
AcDbCircle
 10
161.6476967336315
 20
66.93484596628826
 30
0.0
 40
3.0
100
AcDbArc
 50
273.3187516643509
 51
353.9834117978159
  0
ARC
  5
C8
330
2
100
AcDbEntity
  8
KIJUN
 62
     7
100
AcDbCircle
 10
161.2951245351758
 20
73.01493389771639
 30
0.0
 40
9.090301832341415
100
AcDbArc
 50
270.2620291464249
 51
273.3187516643541
  0
ARC
  5
C9
330
2
100
AcDbEntity
  8
KIJUN
 62
     7
100
AcDbCircle
 10
345.9287747305732
 20
47.51218033669231
 30
0.0
 40
182.3017961269509
100
AcDbArc
 50
172.7013057182884
 51
173.9834117978179
  0
ARC
  5
CA
330
2
100
AcDbEntity
  8
KIJUN
 62
     7
100
AcDbCircle
 10
163.9809998979088
 20
69.01107852633522
 30
0.0
 40
10.99824529335587
100
AcDbArc
 50
256.0881062780377
 51
342.370526635322
  0
ARC
  5
CB
330
2
100
AcDbEntity
  8
KIJUN
 62
     7
100
AcDbCircle
 10
174.3644665464315
 20
65.69879502205544
 30
0.0
 40
0.1
100
AcDbArc
 50
349.2531320479492
 51
3.921553319066644
  0
ARC
  5
CC
330
2
100
AcDbEntity
  8
KIJUN
 62
     7
100
AcDbCircle
 10
212.46753185559
 20
57.87533588556442
 30
0.0
 40
38.79795585063936
100
AcDbArc
 50
146.4932989560056
 51
168.3948745397863
  0
ARC
  5
CD
330
2
100
AcDbEntity
  8
KIJUN
 62
     7
100
AcDbCircle
 10
-23.25538111633989
 20
47.51218033669231
 30
0.0
 40
182.3017961269509
100
AcDbArc
 50
6.016588202182012
 51
7.298694281711592
  0
ARC
  5
CE
330
2
100
AcDbEntity
  8
KIJUN
 62
     7
100
AcDbCircle
 10
161.3782690790575
 20
73.01493389771639
 30
0.0
 40
9.090301832341415
100
AcDbArc
 50
266.6812483356459
 51
269.7379708535751
  0
ARC
  5
CF
330
2
100
AcDbEntity
  8
KIJUN
 62
     7
100
AcDbCircle
 10
161.0256968806019
 20
66.93484596628826
 30
0.0
 40
3.0
100
AcDbArc
 50
186.016588202184
 51
266.6812483356491
  0
ARC
  5
D0
330
2
100
AcDbEntity
  8
KIJUN
 62
     7
100
AcDbCircle
 10
164.0920922848666
 20
76.03243013518721
 30
0.0
 40
9.277785610364027
100
AcDbArc
 50
107.2768139197957
 51
118.137779061377
  0
ARC
  5
D1
330
2
100
AcDbEntity
  8
KIJUN
 62
     7
100
AcDbCircle
 10
162.4153350193004
 20
81.82500107100457
 30
0.0
 40
4.309221167437494
100
AcDbArc
 50
191.3081068468519
 51
250.7736577989505
  0
ARC
  5
D2
330
2
100
AcDbEntity
  8
KIJUN
 62
     7
100
AcDbCircle
 10
161.13152986178
 20
81.56828258162219
 30
0.0
 40
3.0
100
AcDbArc
 50
118.1377790613774
 51
191.3081068468525
  0
ARC
  5
D3
330
2
100
AcDbEntity
  8
KIJUN
 62
     7
100
AcDbCircle
 10
158.5813013293667
 20
76.03243013518721
 30
0.0
 40
9.277785610364027
100
AcDbArc
 50
61.86222093861561
 51
72.72318608020424
  0
ARC
  5
D4
330
2
100
AcDbEntity
  8
KIJUN
 62
     7
100
AcDbCircle
 10
160.2580585949339
 20
81.82500107100457
 30
0.0
 40
4.309221167437494
100
AcDbArc
 50
289.2263422010491
 51
348.6918931531373
  0
ARC
  5
D5
330
2
100
AcDbEntity
  8
KIJUN
 62
     7
100
AcDbCircle
 10
161.5418637524543
 20
81.56828258162198
 30
0.0
 40
3.0
100
AcDbArc
 50
348.6918931531369
 51
61.86222093861603
  0
ARC
  5
D6
330
2
100
AcDbEntity
  8
KIJUN
 62
     7
100
AcDbCircle
 10
198.133514331327
 20
75.12497447792788
 30
0.0
 40
38.0293855468478
100
AcDbArc
 50
175.4893352801725
 51
189.7478675941699
  0
ARC
  5
D7
330
2
100
AcDbEntity
  8
KIJUN
 62
     7
100
AcDbCircle
 10
161.4465780008003
 20
78.41708395678979
 30
0.0
 40
0.7
100
AcDbArc
 50
260.9687504835355
 51
289.2263422010599
  0
ARC
  5
D8
330
2
100
AcDbEntity
  8
KIJUN
 62
     7
100
AcDbCircle
 10
161.2268156134344
 20
78.41708395678998
 30
0.0
 40
0.7
100
AcDbArc
 50
250.7736577989332
 51
279.0312495163523
  0
ARC
  5
D9
330
2
100
AcDbEntity
  8
KIJUN
 62
     7
100
AcDbCircle
 10
161.3366968071162
 20
68.83713934310384
 30
0.0
 40
0.7
100
AcDbArc
 50
192.4597430513326
 51
347.5402569486561
  0
ARC
  5
DA
330
2
100
AcDbEntity
  8
KIJUN
 62
     7
100
AcDbCircle
 10
124.5398792829077
 20
75.1249744779313
 30
0.0
 40
38.0293855468478
100
AcDbArc
 50
350.2521324058242
 51
4.510664719822618
  0
ARC
  5
DB
330
2
100
AcDbEntity
  8
KIJUN
 62
     7
100
AcDbCircle
 10
161.3366968071176
 20
68.83713934310384
 30
0.0
 40
0.7
100
AcDbArc
 50
192.4597430513385
 51
347.5402569486615
  0
ARC
  5
DC
330
2
100
AcDbEntity
  8
KIJUN
 62
     7
100
AcDbCircle
 10
202.0245284610413
 20
73.90363788387519
 30
0.0
 40
3.330439191439848
100
AcDbArc
 50
101.9190089807454
 51
147.2262035294972
  0
ARC
  5
DD
330
2
100
AcDbEntity
  8
KIJUN
 62
     7
100
AcDbCircle
 10
200.2033344453087
 20
69.8978223971814
 30
0.0
 40
12.75370422806194
100
AcDbArc
 50
84.90166525049936
 51
160.3386867805834
  0
ARC
  5
DE
330
2
100
AcDbEntity
  8
KIJUN
 62
     7
100
AcDbCircle
 10
195.7130780823806
 20
64.1919370206155
 30
0.0
 40
12.99578839332631
100
AcDbArc
 50
286.2977920679057
 51
295.640699389116
  0
ARC
  5
DF
330
2
100
AcDbEntity
  8
KIJUN
 62
     7
100
AcDbCircle
 10
214.0971499167747
 20
80.95023866975946
 30
0.0
 40
5.0
100
AcDbArc
 50
218.5019610048263
 51
232.4424115764982
  0
ARC
  5
E0
330
2
100
AcDbEntity
  8
KIJUN
 62
     7
100
AcDbCircle
 10
208.5729076134892
 20
72.49213040487501
 30
0.0
 40
5.0
100
AcDbArc
 50
17.25515206309015
 51
41.78203226905837
  0
ARC
  5
E1
330
2
100
AcDbEntity
  8
KIJUN
 62
     7
100
AcDbCircle
 10
221.8937762360876
 20
63.31786160018094
 30
0.0
 40
5.0
100
AcDbArc
 50
197.2551520630869
 51
230.5174247154692
  0
ARC
  5
E2
330
2
100
AcDbEntity
  8
KIJUN
 62
     7
100
AcDbCircle
 10
221.8937762360867
 20
63.31786160018118
 30
0.0
 40
5.0
100
AcDbArc
 50
197.255152063087
 51
230.517424715477
  0
LINE
  5
E3
330
2
100
AcDbEntity
  8
KIJUN
 62
     7
100
AcDbLine
 10
213.3478739906899
 20
73.97526765294144
 30
0.0
 11
217.1188098588871
 21
61.83472435211474
 31
0.0
  0
ARC
  5
E4
330
2
100
AcDbEntity
  8
KIJUN
 62
     7
100
AcDbCircle
 10
222.6080928989389
 20
52.41570454410288
 30
0.0
 40
3.0
100
AcDbArc
 50
50.67197539358677
 51
59.8504360106079
  0
LINE
  5
E5
330
2
100
AcDbEntity
  8
KIJUN
 62
     7
100
AcDbLine
 10
218.7145586089121
 20
59.45877164540473
 30
0.0
 11
224.1148697573829
 21
55.00985633204045
 31
0.0
  0
ARC
  5
E6
330
2
100
AcDbEntity
  8
KIJUN
 62
     7
100
AcDbCircle
 10
230.3391904215694
 20
63.45599795995184
 30
0.0
 40
10.48904228015641
100
AcDbArc
 50
236.2341002866731
 51
328.8519680416347
  0
ARC
  5
E7
330
2
100
AcDbEntity
  8
KIJUN
 62
     7
100
AcDbCircle
 10
241.3366968071176
 20
68.83713934310384
 30
0.0
 40
0.7
100
AcDbArc
 50
192.4597430513385
 51
347.5402569486615
  0
ARC
  5
E8
330
2
100
AcDbEntity
  8
KIJUN
 62
     7
100
AcDbCircle
 10
241.3366968071161
 20
68.83713934310384
 30
0.0
 40
0.7
100
AcDbArc
 50
192.4597430513326
 51
347.5402569486561
  0
ARC
  5
E9
330
2
100
AcDbEntity
  8
KIJUN
 62
     7
100
AcDbCircle
 10
241.2268156134345
 20
78.41708395678998
 30
0.0
 40
0.7
100
AcDbArc
 50
250.7736577989332
 51
279.0312495163523
  0
ARC
  5
EA
330
2
100
AcDbEntity
  8
KIJUN
 62
     7
100
AcDbCircle
 10
241.4465780008002
 20
78.41708395678979
 30
0.0
 40
0.7
100
AcDbArc
 50
260.9687504835355
 51
289.2263422010599
  0
ARC
  5
EB
330
2
100
AcDbEntity
  8
KIJUN
 62
     7
100
AcDbCircle
 10
278.133514331327
 20
75.12497447792788
 30
0.0
 40
38.0293855468478
100
AcDbArc
 50
175.4893352801725
 51
189.7478675941699
  0
ARC
  5
EC
330
2
100
AcDbEntity
  8
KIJUN
 62
     7
100
AcDbCircle
 10
241.13152986178
 20
81.56828258162219
 30
0.0
 40
3.0
100
AcDbArc
 50
118.1377790613774
 51
191.3081068468525
  0
ARC
  5
ED
330
2
100
AcDbEntity
  8
KIJUN
 62
     7
100
AcDbCircle
 10
242.4153350193004
 20
81.82500107100457
 30
0.0
 40
4.309221167437494
100
AcDbArc
 50
191.3081068468519
 51
250.7736577989505
  0
ARC
  5
EE
330
2
100
AcDbEntity
  8
KIJUN
 62
     7
100
AcDbCircle
 10
244.0920922848667
 20
76.03243013518721
 30
0.0
 40
9.277785610364027
100
AcDbArc
 50
107.2768139197957
 51
118.137779061377
  0
ARC
  5
EF
330
2
100
AcDbEntity
  8
KIJUN
 62
     7
100
AcDbCircle
 10
229.8793219248675
 20
61.62631509925739
 30
0.0
 40
23.45759434577106
100
AcDbArc
 50
67.85739984139491
 51
113.2043983098869
  0
ARC
  5
F0
330
2
100
AcDbEntity
  8
KIJUN
 62
     7
100
AcDbCircle
 10
219.4608085221669
 20
75.36667533399072
 30
0.0
 40
5.0
100
AcDbArc
 50
51.74789738198269
 51
75.69309146941408
  0
ARC
  5
F1
330
2
100
AcDbEntity
  8
KIJUN
 62
     7
100
AcDbCircle
 10
221.0778031656275
 20
81.70720374625506
 30
0.0
 40
1.543467904995979
100
AcDbArc
 50
106.6044549011305
 51
255.693091469414
  0
ARC
  5
F2
330
2
100
AcDbEntity
  8
KIJUN
 62
     7
100
AcDbCircle
 10
225.1830245441367
 20
69.25675828635388
 30
0.0
 40
12.46686934091919
100
AcDbArc
 50
6.519048142267826
 51
97.30706731079685
  0
ARC
  5
F3
330
2
100
AcDbEntity
  8
KIJUN
 62
     7
100
AcDbCircle
 10
241.0256968806019
 20
66.93484596628826
 30
0.0
 40
3.0
100
AcDbArc
 50
186.016588202184
 51
266.6812483356491
  0
ARC
  5
F4
330
2
100
AcDbEntity
  8
KIJUN
 62
     7
100
AcDbCircle
 10
241.3782690790575
 20
73.01493389771639
 30
0.0
 40
9.090301832341415
100
AcDbArc
 50
266.6812483356459
 51
269.7379708535751
  0
ARC
  5
F5
330
2
100
AcDbEntity
  8
KIJUN
 62
     7
100
AcDbCircle
 10
56.7446188836601
 20
47.51218033669231
 30
0.0
 40
182.3017961269509
100
AcDbArc
 50
6.016588202182012
 51
7.298694281711592
  0
ARC
  5
F6
330
2
100
AcDbEntity
  8
KIJUN
 62
     7
100
AcDbCircle
 10
238.6923937163245
 20
69.01107852633522
 30
0.0
 40
10.99824529335587
100
AcDbArc
 50
197.6294733646778
 51
283.9118937219622
  0
ARC
  5
F7
330
2
100
AcDbEntity
  8
KIJUN
 62
     7
100
AcDbCircle
 10
228.3089270678019
 20
65.69879502205544
 30
0.0
 40
0.1
100
AcDbArc
 50
176.0784466809333
 51
190.7468679520508
  0
ARC
  5
F8
330
2
100
AcDbEntity
  8
KIJUN
 62
     7
100
AcDbCircle
 10
190.2058617586433
 20
57.87533588556442
 30
0.0
 40
38.79795585063936
100
AcDbArc
 50
11.60512546021356
 51
33.50670104399434
  0
ARC
  5
F9
330
2
100
AcDbEntity
  8
KIJUN
 62
     7
100
AcDbCircle
 10
205.4431569664874
 20
69.69557595958526
 30
0.0
 40
9.197148541288655
100
AcDbArc
 50
41.78203226905885
 51
52.44241157649828
  0
ARC
  5
FA
330
2
100
AcDbEntity
  8
KIJUN
 62
     7
100
AcDbCircle
 10
197.800793217262
 20
66.05632488489796
 30
0.0
 40
11.10847090973929
100
AcDbArc
 50
341.7675022856768
 51
41.70004992654456
  0
ARC
  5
FB
330
2
100
AcDbEntity
  8
KIJUN
 62
     7
100
AcDbCircle
 10
212.4323151765782
 20
78.32822057581181
 30
0.0
 40
8.0
100
AcDbArc
 50
205.2913906890992
 51
217.6093575525441
  0
ARC
  5
FC
330
2
100
AcDbEntity
  8
KIJUN
 62
     7
100
AcDbCircle
 10
195.7130780823806
 20
64.1919370206155
 30
0.0
 40
12.99578839332631
100
AcDbArc
 50
295.640699389116
 51
341.3125538400564
  0
ARC
  5
FD
330
2
100
AcDbEntity
  8
KIJUN
 62
     7
100
AcDbCircle
 10
200.2033344453087
 20
69.8978223971814
 30
0.0
 40
12.75370422806194
100
AcDbArc
 50
38.50196100482324
 51
84.90166525049936
  0
ARC
  5
FE
330
2
100
AcDbEntity
  8
KIJUN
 62
     7
100
AcDbCircle
 10
202.0245284610413
 20
73.90363788387519
 30
0.0
 40
3.330439191439848
100
AcDbArc
 50
17.59606681160239
 51
101.9190089807454
  0
ARC
  5
FF
330
2
100
AcDbEntity
  8
KIJUN
 62
     7
100
AcDbCircle
 10
241.1315298617791
 20
81.56828258162198
 30
0.0
 40
3.0
100
AcDbArc
 50
118.1377790613839
 51
191.3081068468629
  0
ARC
  5
100
330
2
100
AcDbEntity
  8
KIJUN
 62
     7
100
AcDbCircle
 10
244.0920922848667
 20
76.03243013518721
 30
0.0
 40
9.277785610364027
100
AcDbArc
 50
107.2768139197957
 51
118.1377790613844
  0
ARC
  5
101
330
2
100
AcDbEntity
  8
KIJUN
 62
     7
100
AcDbCircle
 10
241.3366968071171
 20
68.83713934310384
 30
0.0
 40
0.7
100
AcDbArc
 50
192.4597430513436
 51
347.5402569486675
  0
ARC
  5
102
330
2
100
AcDbEntity
  8
KIJUN
 62
     7
100
AcDbCircle
 10
241.4465780007989
 20
78.41708395678998
 30
0.0
 40
0.7
100
AcDbArc
 50
260.9687504836477
 51
289.2263422010633
  0
ARC
  5
103
330
2
100
AcDbEntity
  8
KIJUN
 62
     7
100
AcDbCircle
 10
241.3366968071157
 20
68.83713934310384
 30
0.0
 40
0.7
100
AcDbArc
 50
192.4597430513385
 51
347.5402569486615
  0
ARC
  5
104
330
2
100
AcDbEntity
  8
KIJUN
 62
     7
100
AcDbCircle
 10
278.1335143313256
 20
75.1249744779313
 30
0.0
 40
38.0293855468478
100
AcDbArc
 50
175.4893352801773
 51
189.7478675941757
  0
ARC
  5
105
330
2
100
AcDbEntity
  8
KIJUN
 62
     7
100
AcDbCircle
 10
241.2268156134331
 20
78.41708395678979
 30
0.0
 40
0.7
100
AcDbArc
 50
250.7736577989401
 51
279.0312495164645
  0
ARC
  5
106
330
2
100
AcDbEntity
  8
KIJUN
 62
     7
100
AcDbCircle
 10
242.4153350192995
 20
81.82500107100457
 30
0.0
 40
4.309221167437494
100
AcDbArc
 50
191.3081068468624
 51
250.7736577989505
  0
ARC
  5
107
330
2
100
AcDbEntity
  8
KIJUN
 62
     7
100
AcDbCircle
 10
241.2951245351759
 20
73.01493389771639
 30
0.0
 40
9.090301832341415
100
AcDbArc
 50
270.2620291464249
 51
273.3187516643541
  0
ARC
  5
108
330
2
100
AcDbEntity
  8
KIJUN
 62
     7
100
AcDbCircle
 10
321.3366968071158
 20
68.83713934310384
 30
0.0
 40
0.7
100
AcDbArc
 50
192.4597430513385
 51
347.5402569486615
  0
ARC
  5
109
330
2
100
AcDbEntity
  8
KIJUN
 62
     7
100
AcDbCircle
 10
358.1335143313257
 20
75.1249744779313
 30
0.0
 40
38.0293855468478
100
AcDbArc
 50
175.4893352801773
 51
189.7478675941757
  0
ARC
  5
10A
330
2
100
AcDbEntity
  8
KIJUN
 62
     7
100
AcDbCircle
 10
321.336696807117
 20
68.83713934310384
 30
0.0
 40
0.7
100
AcDbArc
 50
192.4597430513436
 51
347.5402569486675
  0
ARC
  5
10B
330
2
100
AcDbEntity
  8
KIJUN
 62
     7
100
AcDbCircle
 10
321.4465780007989
 20
78.41708395678998
 30
0.0
 40
0.7
100
AcDbArc
 50
260.9687504836477
 51
289.2263422010633
  0
ARC
  5
10C
330
2
100
AcDbEntity
  8
KIJUN
 62
     7
100
AcDbCircle
 10
321.2268156134332
 20
78.41708395678979
 30
0.0
 40
0.7
100
AcDbArc
 50
250.7736577989401
 51
279.0312495164645
  0
ARC
  5
10D
330
2
100
AcDbEntity
  8
KIJUN
 62
     7
100
AcDbCircle
 10
284.5398792829062
 20
75.12497447792788
 30
0.0
 40
38.0293855468478
100
AcDbArc
 50
350.25213240583
 51
4.510664719827378
  0
ARC
  5
10E
330
2
100
AcDbEntity
  8
KIJUN
 62
     7
100
AcDbCircle
 10
321.131529861779
 20
81.56828258162198
 30
0.0
 40
3.0
100
AcDbArc
 50
118.1377790613839
 51
191.3081068468629
  0
ARC
  5
10F
330
2
100
AcDbEntity
  8
KIJUN
 62
     7
100
AcDbCircle
 10
322.4153350192995
 20
81.82500107100457
 30
0.0
 40
4.309221167437494
100
AcDbArc
 50
191.3081068468624
 51
250.7736577989505
  0
ARC
  5
110
330
2
100
AcDbEntity
  8
KIJUN
 62
     7
100
AcDbCircle
 10
324.0920922848666
 20
76.03243013518721
 30
0.0
 40
9.277785610364027
100
AcDbArc
 50
107.2768139197957
 51
118.1377790613844
  0
ARC
  5
111
330
2
100
AcDbEntity
  8
KIJUN
 62
     7
100
AcDbCircle
 10
321.5418637524534
 20
81.56828258162219
 30
0.0
 40
3.0
100
AcDbArc
 50
348.6918931531473
 51
61.86222093862252
  0
ARC
  5
112
330
2
100
AcDbEntity
  8
KIJUN
 62
     7
100
AcDbCircle
 10
320.258058594933
 20
81.82500107100457
 30
0.0
 40
4.309221167437494
100
AcDbArc
 50
289.2263422010491
 51
348.6918931531478
  0
ARC
  5
113
330
2
100
AcDbEntity
  8
KIJUN
 62
     7
100
AcDbCircle
 10
318.5813013293667
 20
76.03243013518721
 30
0.0
 40
9.277785610364027
100
AcDbArc
 50
61.86222093862298
 51
72.72318608020424
  0
ARC
  5
114
330
2
100
AcDbEntity
  8
KIJUN
 62
     7
100
AcDbCircle
 10
321.6476967336315
 20
66.93484596628826
 30
0.0
 40
3.0
100
AcDbArc
 50
273.3187516643509
 51
353.9834117978159
  0
ARC
  5
115
330
2
100
AcDbEntity
  8
KIJUN
 62
     7
100
AcDbCircle
 10
321.2951245351758
 20
73.01493389771639
 30
0.0
 40
9.090301832341415
100
AcDbArc
 50
270.2620291464249
 51
273.3187516643541
  0
ARC
  5
116
330
2
100
AcDbEntity
  8
KIJUN
 62
     7
100
AcDbCircle
 10
505.9287747305732
 20
47.51218033669231
 30
0.0
 40
182.3017961269509
100
AcDbArc
 50
172.7013057182884
 51
173.9834117978179
  0
ARC
  5
117
330
2
100
AcDbEntity
  8
KIJUN
 62
     7
100
AcDbCircle
 10
308.3089270678018
 20
65.69879502205544
 30
0.0
 40
0.1
100
AcDbArc
 50
176.0784466809333
 51
190.7468679520508
  0
ARC
  5
118
330
2
100
AcDbEntity
  8
KIJUN
 62
     7
100
AcDbCircle
 10
136.7446188836601
 20
47.51218033669231
 30
0.0
 40
182.3017961269509
100
AcDbArc
 50
6.016588202182012
 51
7.298694281711592
  0
ARC
  5
119
330
2
100
AcDbEntity
  8
KIJUN
 62
     7
100
AcDbCircle
 10
321.3782690790575
 20
73.01493389771639
 30
0.0
 40
9.090301832341415
100
AcDbArc
 50
266.6812483356459
 51
269.7379708535751
  0
ARC
  5
11A
330
2
100
AcDbEntity
  8
KIJUN
 62
     7
100
AcDbCircle
 10
321.0256968806019
 20
66.93484596628826
 30
0.0
 40
3.0
100
AcDbArc
 50
186.016588202184
 51
266.6812483356491
  0
ARC
  5
11B
330
2
100
AcDbEntity
  8
KIJUN
 62
     7
100
AcDbCircle
 10
324.0920922848666
 20
76.03243013518721
 30
0.0
 40
9.277785610364027
100
AcDbArc
 50
107.2768139197957
 51
118.137779061377
  0
ARC
  5
11C
330
2
100
AcDbEntity
  8
KIJUN
 62
     7
100
AcDbCircle
 10
322.4153350193004
 20
81.82500107100457
 30
0.0
 40
4.309221167437494
100
AcDbArc
 50
191.3081068468519
 51
250.7736577989505
  0
ARC
  5
11D
330
2
100
AcDbEntity
  8
KIJUN
 62
     7
100
AcDbCircle
 10
321.13152986178
 20
81.56828258162219
 30
0.0
 40
3.0
100
AcDbArc
 50
118.1377790613774
 51
191.3081068468525
  0
ARC
  5
11E
330
2
100
AcDbEntity
  8
KIJUN
 62
     7
100
AcDbCircle
 10
318.5813013293667
 20
76.03243013518721
 30
0.0
 40
9.277785610364027
100
AcDbArc
 50
61.86222093861561
 51
72.72318608020424
  0
ARC
  5
11F
330
2
100
AcDbEntity
  8
KIJUN
 62
     7
100
AcDbCircle
 10
320.2580585949339
 20
81.82500107100457
 30
0.0
 40
4.309221167437494
100
AcDbArc
 50
289.2263422010491
 51
348.6918931531373
  0
ARC
  5
120
330
2
100
AcDbEntity
  8
KIJUN
 62
     7
100
AcDbCircle
 10
321.5418637524542
 20
81.56828258162198
 30
0.0
 40
3.0
100
AcDbArc
 50
348.6918931531369
 51
61.86222093861603
  0
ARC
  5
121
330
2
100
AcDbEntity
  8
KIJUN
 62
     7
100
AcDbCircle
 10
358.1335143313272
 20
75.12497447792788
 30
0.0
 40
38.0293855468478
100
AcDbArc
 50
175.4893352801725
 51
189.7478675941699
  0
ARC
  5
122
330
2
100
AcDbEntity
  8
KIJUN
 62
     7
100
AcDbCircle
 10
321.4465780008004
 20
78.41708395678979
 30
0.0
 40
0.7
100
AcDbArc
 50
260.9687504835355
 51
289.2263422010599
  0
ARC
  5
123
330
2
100
AcDbEntity
  8
KIJUN
 62
     7
100
AcDbCircle
 10
321.2268156134344
 20
78.41708395678998
 30
0.0
 40
0.7
100
AcDbArc
 50
250.7736577989332
 51
279.0312495163523
  0
ARC
  5
124
330
2
100
AcDbEntity
  8
KIJUN
 62
     7
100
AcDbCircle
 10
321.3366968071162
 20
68.83713934310384
 30
0.0
 40
0.7
100
AcDbArc
 50
192.4597430513326
 51
347.5402569486561
  0
ARC
  5
125
330
2
100
AcDbEntity
  8
KIJUN
 62
     7
100
AcDbCircle
 10
284.5398792829076
 20
75.1249744779313
 30
0.0
 40
38.0293855468478
100
AcDbArc
 50
350.2521324058242
 51
4.510664719822618
  0
ARC
  5
126
330
2
100
AcDbEntity
  8
KIJUN
 62
     7
100
AcDbCircle
 10
321.3366968071175
 20
68.83713934310384
 30
0.0
 40
0.7
100
AcDbArc
 50
192.4597430513385
 51
347.5402569486615
  0
ARC
  5
127
330
2
100
AcDbEntity
  8
KIJUN
 62
     7
100
AcDbCircle
 10
292.4323151765784
 20
78.32822057581181
 30
0.0
 40
8.0
100
AcDbArc
 50
205.2913906890992
 51
217.6093575525441
  0
ARC
  5
128
330
2
100
AcDbEntity
  8
KIJUN
 62
     7
100
AcDbCircle
 10
277.8007932172621
 20
66.05632488489796
 30
0.0
 40
11.10847090973929
100
AcDbArc
 50
341.7675022856768
 51
41.70004992654456
  0
ARC
  5
129
330
2
100
AcDbEntity
  8
KIJUN
 62
     7
100
AcDbCircle
 10
301.0778031656276
 20
81.70720374625506
 30
0.0
 40
1.543467904995979
100
AcDbArc
 50
106.6044549011305
 51
255.693091469414
  0
ARC
  5
12A
330
2
100
AcDbEntity
  8
KIJUN
 62
     7
100
AcDbCircle
 10
299.460808522167
 20
75.36667533399072
 30
0.0
 40
5.0
100
AcDbArc
 50
51.74789738198269
 51
75.69309146941408
  0
ARC
  5
12B
330
2
100
AcDbEntity
  8
KIJUN
 62
     7
100
AcDbCircle
 10
302.6080928989389
 20
52.41570454410288
 30
0.0
 40
3.0
100
AcDbArc
 50
50.67197539358677
 51
59.8504360106079
  0
ARC
  5
12C
330
2
100
AcDbEntity
  8
KIJUN
 62
     7
100
AcDbCircle
 10
301.8937762360867
 20
63.31786160018118
 30
0.0
 40
5.0
100
AcDbArc
 50
197.255152063087
 51
230.517424715477
  0
ARC
  5
12D
330
2
100
AcDbEntity
  8
KIJUN
 62
     7
100
AcDbCircle
 10
301.8937762360876
 20
63.31786160018094
 30
0.0
 40
5.0
100
AcDbArc
 50
197.2551520630869
 51
230.5174247154692
  0
LINE
  5
12E
330
2
100
AcDbEntity
  8
KIJUN
 62
     7
100
AcDbLine
 10
298.7145586089122
 20
59.45877164540473
 30
0.0
 11
304.1148697573829
 21
55.00985633204045
 31
0.0
  0
ARC
  5
12F
330
2
100
AcDbEntity
  8
KIJUN
 62
     7
100
AcDbCircle
 10
288.5729076134893
 20
72.49213040487501
 30
0.0
 40
5.0
100
AcDbArc
 50
17.25515206309015
 51
41.78203226905837
  0
LINE
  5
130
330
2
100
AcDbEntity
  8
KIJUN
 62
     7
100
AcDbLine
 10
293.3478739906898
 20
73.97526765294144
 30
0.0
 11
297.1188098588871
 21
61.83472435211474
 31
0.0
  0
ARC
  5
131
330
2
100
AcDbEntity
  8
KIJUN
 62
     7
100
AcDbCircle
 10
294.0971499167748
 20
80.95023866975946
 30
0.0
 40
5.0
100
AcDbArc
 50
218.5019610048263
 51
232.4424115764982
  0
ARC
  5
132
330
2
100
AcDbEntity
  8
KIJUN
 62
     7
100
AcDbCircle
 10
285.4431569664874
 20
69.69557595958526
 30
0.0
 40
9.197148541288655
100
AcDbArc
 50
41.78203226905885
 51
52.44241157649828
  0
ARC
  5
133
330
2
100
AcDbEntity
  8
KIJUN
 62
     7
100
AcDbCircle
 10
280.2033344453087
 20
69.8978223971814
 30
0.0
 40
12.75370422806194
100
AcDbArc
 50
38.50196100482324
 51
84.90166525049936
  0
ARC
  5
134
330
2
100
AcDbEntity
  8
KIJUN
 62
     7
100
AcDbCircle
 10
275.7130780823807
 20
64.1919370206155
 30
0.0
 40
12.99578839332631
100
AcDbArc
 50
295.640699389116
 51
341.3125538400564
  0
ARC
  5
135
330
2
100
AcDbEntity
  8
KIJUN
 62
     7
100
AcDbCircle
 10
282.0245284610413
 20
73.90363788387519
 30
0.0
 40
3.330439191439848
100
AcDbArc
 50
17.59606681160239
 51
101.9190089807454
  0
ARC
  5
136
330
2
100
AcDbEntity
  8
KIJUN
 62
     7
100
AcDbCircle
 10
270.2058617586434
 20
57.87533588556442
 30
0.0
 40
38.79795585063936
100
AcDbArc
 50
11.60512546021356
 51
33.50670104399434
  0
ARC
  5
137
330
2
100
AcDbEntity
  8
KIJUN
 62
     7
100
AcDbCircle
 10
318.6923937163245
 20
69.01107852633522
 30
0.0
 40
10.99824529335587
100
AcDbArc
 50
197.6294733646778
 51
283.9118937219622
  0
ARC
  5
138
330
2
100
AcDbEntity
  8
KIJUN
 62
     7
100
AcDbCircle
 10
305.1830245441367
 20
69.25675828635388
 30
0.0
 40
12.46686934091919
100
AcDbArc
 50
6.519048142267826
 51
97.30706731079685
  0
ARC
  5
139
330
2
100
AcDbEntity
  8
KIJUN
 62
     7
100
AcDbCircle
 10
309.8793219248675
 20
61.62631509925739
 30
0.0
 40
23.45759434577106
100
AcDbArc
 50
67.85739984139491
 51
113.2043983098869
  0
ARC
  5
13A
330
2
100
AcDbEntity
  8
KIJUN
 62
     7
100
AcDbCircle
 10
310.3391904215695
 20
63.45599795995184
 30
0.0
 40
10.48904228015641
100
AcDbArc
 50
236.2341002866731
 51
328.8519680416347
  0
ARC
  5
13B
330
2
100
AcDbEntity
  8
KIJUN
 62
     7
100
AcDbCircle
 10
241.5418637524542
 20
81.56828258162198
 30
0.0
 40
3.0
100
AcDbArc
 50
348.6918931531369
 51
61.86222093861603
  0
ARC
  5
13C
330
2
100
AcDbEntity
  8
KIJUN
 62
     7
100
AcDbCircle
 10
292.46753185559
 20
57.87533588556442
 30
0.0
 40
38.79795585063936
100
AcDbArc
 50
146.4932989560056
 51
168.3948745397863
  0
ARC
  5
13D
330
2
100
AcDbEntity
  8
KIJUN
 62
     7
100
AcDbCircle
 10
425.9287747305733
 20
47.51218033669231
 30
0.0
 40
182.3017961269509
100
AcDbArc
 50
172.7013057182884
 51
173.9834117978179
  0
ARC
  5
13E
330
2
100
AcDbEntity
  8
KIJUN
 62
     7
100
AcDbCircle
 10
241.5418637524534
 20
81.56828258162219
 30
0.0
 40
3.0
100
AcDbArc
 50
348.6918931531473
 51
61.86222093862252
  0
ARC
  5
13F
330
2
100
AcDbEntity
  8
KIJUN
 62
     7
100
AcDbCircle
 10
254.3644665464315
 20
65.69879502205544
 30
0.0
 40
0.1
100
AcDbArc
 50
349.2531320479492
 51
3.921553319066644
  0
ARC
  5
140
330
2
100
AcDbEntity
  8
KIJUN
 62
     7
100
AcDbCircle
 10
263.2125850920664
 20
75.36667533399072
 30
0.0
 40
5.0
100
AcDbArc
 50
104.3069085305859
 51
128.2521026180172
  0
ARC
  5
141
330
2
100
AcDbEntity
  8
KIJUN
 62
     7
100
AcDbCircle
 10
261.5955904486057
 20
81.70720374625506
 30
0.0
 40
1.543467904995979
100
AcDbArc
 50
284.3069085305859
 51
73.39554509886949
  0
ARC
  5
142
330
2
100
AcDbEntity
  8
KIJUN
 62
     7
100
AcDbCircle
 10
264.1267183983385
 20
54.87098388099087
 30
0.0
 40
5.0
100
AcDbArc
 50
147.4699254340069
 51
165.1583692237096
  0
ARC
  5
143
330
2
100
AcDbEntity
  8
KIJUN
 62
     7
100
AcDbCircle
 10
272.9915760872239
 20
72.78338023257783
 30
0.0
 40
5.0
100
AcDbArc
 50
163.6735719060995
 51
188.8475321748957
  0
ARC
  5
144
330
2
100
AcDbEntity
  8
KIJUN
 62
     7
100
AcDbCircle
 10
242.3311147287962
 20
76.97886286580064
 30
0.0
 40
26.19470345671516
100
AcDbArc
 50
312.1543559710262
 51
349.0750251409874
  0
ARC
  5
145
330
2
100
AcDbEntity
  8
KIJUN
 62
     7
100
AcDbCircle
 10
280.2033344453087
 20
69.8978223971814
 30
0.0
 40
12.75370422806194
100
AcDbArc
 50
84.90166525049936
 51
160.3386867805834
  0
ARC
  5
146
330
2
100
AcDbEntity
  8
KIJUN
 62
     7
100
AcDbCircle
 10
282.0245284610413
 20
73.90363788387519
 30
0.0
 40
3.330439191439848
100
AcDbArc
 50
101.9190089807454
 51
147.2262035294972
  0
ARC
  5
147
330
2
100
AcDbEntity
  8
KIJUN
 62
     7
100
AcDbCircle
 10
284.8759884788377
 20
67.16614125181303
 30
0.0
 40
10.24107524382521
100
AcDbArc
 50
123.4953881082032
 51
191.3621789490996
  0
ARC
  5
148
330
2
100
AcDbEntity
  8
KIJUN
 62
     7
100
AcDbCircle
 10
275.7130780823807
 20
64.1919370206155
 30
0.0
 40
12.99578839332631
100
AcDbArc
 50
286.2977920679057
 51
295.640699389116
  0
ARC
  5
149
330
2
100
AcDbEntity
  8
KIJUN
 62
     7
100
AcDbCircle
 10
252.7940716893657
 20
61.62631509925739
 30
0.0
 40
23.45759434577106
100
AcDbArc
 50
66.79560169011309
 51
112.1426001586051
  0
ARC
  5
14A
330
2
100
AcDbEntity
  8
KIJUN
 62
     7
100
AcDbCircle
 10
257.4903690700965
 20
69.25675828635388
 30
0.0
 40
12.46686934091919
100
AcDbArc
 50
82.69293268920314
 51
173.480951857732
  0
DIMENSION
  5
14B
330
2
100
AcDbEntity
  8
SUNPOU
100
AcDbDimension
  2
*D2
 10
90.89748411767516
 20
111.7439057485767
 30
0.0
 11
58.39748411767517
 21
116.7439057485767
 31
0.0
 71
     5
 42
64.99999999999999
  3
STANDARD$0
100
AcDbAlignedDimension
 13
25.89748411767518
 23
95.271109277309
 33
0.0
 14
90.89748411767516
 24
95.271109277309
 34
0.0
 50
0.000000000000007
100
AcDbRotatedDimension
1001
ACAD
1000
DSTYLE
1002
{
1070
    41
1040
2.0
1070
    44
1040
0.0
1070
    77
1070
     1
1070
    78
1070
     0
1070
   140
1040
3.0
1070
   141
1040
1.0
1070
   146
1040
0.0642857142857143
1070
   172
1070
     0
1070
   173
1070
     0
1070
   176
1070
    60
1070
   177
1070
    70
1070
   178
1070
    60
1070
   271
1070
     0
1070
   272
1070
     0
1070
   341
1005
0
1070
   342
1005
37
1070
   343
1005
0
1070
   344
1005
0
1002
}
  0
ARC
  5
158
330
2
100
AcDbEntity
  8
KIJUN
 62
     7
100
AcDbCircle
 10
364.8759884788377
 20
67.16614125181303
 30
0.0
 40
10.24107524382521
100
AcDbArc
 50
123.4953881082032
 51
191.3621789490996
  0
ARC
  5
159
330
2
100
AcDbEntity
  8
KIJUN
 62
     7
100
AcDbCircle
 10
343.2125850920663
 20
75.36667533399072
 30
0.0
 40
5.0
100
AcDbArc
 50
104.3069085305859
 51
128.2521026180172
  0
ARC
  5
15A
330
2
100
AcDbEntity
  8
KIJUN
 62
     7
100
AcDbCircle
 10
341.5955904486057
 20
81.70720374625506
 30
0.0
 40
1.543467904995979
100
AcDbArc
 50
284.3069085305859
 51
73.39554509886949
  0
ARC
  5
15B
330
2
100
AcDbEntity
  8
KIJUN
 62
     7
100
AcDbCircle
 10
352.9915760872239
 20
72.78338023257783
 30
0.0
 40
5.0
100
AcDbArc
 50
163.6735719060995
 51
188.8475321748957
  0
ARC
  5
15C
330
2
100
AcDbEntity
  8
KIJUN
 62
     7
100
AcDbCircle
 10
322.3311147287962
 20
76.97886286580064
 30
0.0
 40
26.19470345671516
100
AcDbArc
 50
312.1543559710262
 51
349.0750251409874
  0
ARC
  5
15D
330
2
100
AcDbEntity
  8
KIJUN
 62
     7
100
AcDbCircle
 10
344.1267183983384
 20
54.87098388099087
 30
0.0
 40
5.0
100
AcDbArc
 50
147.4699254340069
 51
165.1583692237096
  0
ARC
  5
15E
330
2
100
AcDbEntity
  8
KIJUN
 62
     7
100
AcDbCircle
 10
334.3644665464315
 20
65.69879502205544
 30
0.0
 40
0.1
100
AcDbArc
 50
349.2531320479492
 51
3.921553319066644
  0
ARC
  5
15F
330
2
100
AcDbEntity
  8
KIJUN
 62
     7
100
AcDbCircle
 10
372.4675318555899
 20
57.87533588556442
 30
0.0
 40
38.79795585063936
100
AcDbArc
 50
146.4932989560056
 51
168.3948745397863
  0
ARC
  5
160
330
2
100
AcDbEntity
  8
KIJUN
 62
     7
100
AcDbCircle
 10
362.0245284610412
 20
73.90363788387519
 30
0.0
 40
3.330439191439848
100
AcDbArc
 50
101.9190089807454
 51
147.2262035294972
  0
ARC
  5
161
330
2
100
AcDbEntity
  8
KIJUN
 62
     7
100
AcDbCircle
 10
360.2033344453087
 20
69.8978223971814
 30
0.0
 40
12.75370422806194
100
AcDbArc
 50
84.90166525049936
 51
160.3386867805834
  0
ARC
  5
162
330
2
100
AcDbEntity
  8
KIJUN
 62
     7
100
AcDbCircle
 10
355.7130780823807
 20
64.1919370206155
 30
0.0
 40
12.99578839332631
100
AcDbArc
 50
286.2977920679057
 51
295.640699389116
  0
TEXT
  5
163
330
2
100
AcDbEntity
  8
HOJO
100
AcDbText
 10
0.3949469579716833
 20
1.183313000000011
 30
0.0
 40
4.5
  1
PM826
  7
SUNPOU
100
AcDbText
  0
LINE
  5
165
330
2
100
AcDbEntity
  8
WAKU
100
AcDbLine
 10
0.0
 20
0.0
 30
0.0
 11
44.67747103027142
 21
0.0
 31
0.0
  0
LINE
  5
167
330
2
100
AcDbEntity
  8
WAKU
100
AcDbLine
 10
0.0
 20
7.0
 30
0.0
 11
44.67747103027142
 21
7.0
 31
0.0
  0
TEXT
  5
168
330
2
100
AcDbEntity
  8
HOJO
100
AcDbText
 10
29.75638327815966
 20
2.522193000000015
 30
0.0
 40
3.0
  1
65\U+00D765
  7
SUNPOU
100
AcDbText
  0
LWPOLYLINE
  5
169
330
2
100
AcDbEntity
  8
KIJUN
100
AcDbPolyline
 90
       23
 70
     1
 43
0.0
 10
88.86440947475653
 20
74.6125357773309
 10
88.86440947475653
 20
85.29447529775117
 10
89.86440947475655
 20
85.29447529775112
 42
0.4142135623730951
 10
90.86440947475654
 20
86.29447529775111
 10
90.86440947475654
 20
94.29447529775115
 42
0.4142135623730951
 10
89.86440947475655
 20
95.29447529775117
 10
31.69283659950276
 20
95.29447529775117
 42
0.1989123673796162
 10
30.27862303712988
 20
94.7086888601245
 10
26.45019591238364
 20
90.88026173537823
 42
0.1989123673796997
 10
25.8644094747565
 20
89.46604817300494
 10
25.8644094747565
 20
41.29447529775115
 42
0.4142135623730951
 10
26.86440947475649
 20
40.29447529775114
 10
40.86440947475649
 20
40.29447529775114
 10
40.86440947475649
 20
31.29447529775115
 42
0.4142135623730951
 10
41.86440947475649
 20
30.29447529775115
 10
46.92301741428219
 20
30.29447529775115
 42
0.3800208658515499
 10
47.91604754476916
 20
31.17661453267208
 42
-0.2290627312037333
 10
51.3887571618323
 20
36.61255704038741
 42
0.2603670821365492
 10
51.86440947475649
 20
37.46406129936548
 10
51.86440947475649
 20
46.64419537485691
 42
-0.5981823243380543
 10
52.64073059506736
 20
47.06090467217356
 42
0.3112089297444843
 10
55.47973668478341
 20
47.11168621655627
 42
0.1617240785611547
 10
82.30778149701459
 20
62.45596417389672
 42
0.2148014565082055
  0
ENDSEC
  0
SECTION
  2
OBJECTS
  0
DICTIONARY
  5
9
330
0
100
AcDbDictionary
281
     1
  3
ACAD_COLOR
350
48
  3
ACAD_GROUP
350
3D
  3
ACAD_LAYOUT
350
1F
  3
ACAD_MATERIAL
350
C
  3
ACAD_MLEADERSTYLE
350
4B
  3
ACAD_MLINESTYLE
350
3E
  3
ACAD_PLOTSETTINGS
350
3F
  3
ACAD_PLOTSTYLENAME
350
8
  3
ACAD_SCALELIST
350
49
  3
ACAD_TABLESTYLE
350
4A
  3
ACAD_VISUALSTYLE
350
32
  3
ACDB_RECOMPOSE_DATA
350
17B
  3
AcDbVariableDictionary
350
16E
  0
DICTIONARY
  5
3
330
2
100
AcDbDictionary
280
     1
281
     1
  3
ACAD_LAYOUTSELFREF
360
4
  0
DICTIONARY
  5
21
330
20
100
AcDbDictionary
280
     1
281
     1
  3
ACAD_LAYOUTSELFREF
360
22
  0
DICTIONARY
  5
48
102
{ACAD_REACTORS
330
9
102
}
330
9
100
AcDbDictionary
281
     1
  0
DICTIONARY
  5
3D
102
{ACAD_REACTORS
330
9
102
}
330
9
100
AcDbDictionary
281
     1
  0
DICTIONARY
  5
1F
102
{ACAD_REACTORS
330
9
102
}
330
9
100
AcDbDictionary
281
     1
  3
Model
350
1E
  3
ﾚｲｱｳﾄ1
350
25
  0
DICTIONARY
  5
C
102
{ACAD_REACTORS
330
9
102
}
330
9
100
AcDbDictionary
281
     1
  3
ByBlock
350
40
  3
ByLayer
350
15
  3
Global
350
B
  0
DICTIONARY
  5
4B
102
{ACAD_REACTORS
330
9
102
}
330
9
100
AcDbDictionary
281
     1
  0
DICTIONARY
  5
3E
102
{ACAD_REACTORS
330
9
102
}
330
9
100
AcDbDictionary
281
     1
  3
STANDARD
350
4D
  0
DICTIONARY
  5
3F
102
{ACAD_REACTORS
330
9
102
}
330
9
100
AcDbDictionary
281
     1
  0
ACDBDICTIONARYWDFLT
  5
8
102
{ACAD_REACTORS
330
9
102
}
330
9
100
AcDbDictionary
281
     1
  3
Normal
350
7
100
AcDbDictionaryWithDefault
340
7
  0
DICTIONARY
  5
49
102
{ACAD_REACTORS
330
9
102
}
330
9
100
AcDbDictionary
281
     1
  3
A0
350
51
  3
A1
350
52
  3
A2
350
53
  3
A3
350
54
  3
A4
350
55
  3
A5
350
56
  3
A6
350
57
  3
A7
350
58
  3
A8
350
59
  3
A9
350
5A
  3
B0
350
5B
  3
B1
350
5C
  3
B2
350
5D
  3
B3
350
5E
  3
B4
350
5F
  3
B5
350
60
  3
B6
350
61
  0
DICTIONARY
  5
4A
102
{ACAD_REACTORS
330
9
102
}
330
9
100
AcDbDictionary
281
     1
  3
Standard
350
4E
  0
DICTIONARY
  5
32
102
{ACAD_REACTORS
330
9
102
}
330
9
100
AcDbDictionary
281
     1
  3
2dWireframe
350
31
  3
Realistic
350
4F
  3
Wireframe
350
50
  0
XRECORD
  5
17B
102
{ACAD_REACTORS
330
9
102
}
330
9
100
AcDbXrecord
280
     1
 90
        1
330
4E
  0
DICTIONARY
  5
16E
102
{ACAD_REACTORS
330
9
102
}
330
9
100
AcDbDictionary
281
     1
  3
CANNOSCALE
350
173
  3
CMLEADERSTYLE
350
170
  3
CTABLESTYLE
350
16F
  3
CVIEWDETAILSTYLE
350
171
  3
CVIEWSECTIONSTYLE
350
172
  3
DIMASSOC
350
177
  3
HIDETEXT
350
176
  3
INDEXCTL
350
175
  3
SORTENTS
350
174
  3
XCLIPFRAME
350
178
  0
XRECORD
  5
4
102
{ACAD_REACTORS
330
3
102
}
330
3
100
AcDbXrecord
280
     1
340
2
  0
XRECORD
  5
22
102
{ACAD_REACTORS
330
21
102
}
330
21
100
AcDbXrecord
280
     1
340
20
  0
LAYOUT
  5
1E
102
{ACAD_XDICTIONARY
360
17E
102
}
102
{ACAD_REACTORS
330
1F
102
}
330
1F
100
AcDbPlotSettings
  1

  2
なし
  4

  6

 40
0.0
 41
0.0
 42
0.0
 43
0.0
 44
0.0
 45
0.0
 46
0.0
 47
0.0
 48
0.0
 49
0.0
140
0.0
141
0.0
142
1.0
143
1.0
 70
  1712
 72
     0
 73
     0
 74
     0
  7
monochrome.ctb
 75
     0
147
1.0
148
0.0
149
0.0
100
AcDbLayout
  1
Model
 70
     1
 71
     0
 10
0.0
 20
0.0
 11
12.0
 21
9.0
 12
0.0
 22
0.0
 32
0.0
 14
0.0
 24
0.0
 34
0.0
 15
0.0
 25
0.0
 35
0.0
146
0.0
 13
0.0
 23
0.0
 33
0.0
 16
1.0
 26
0.0
 36
0.0
 17
0.0
 27
1.0
 37
0.0
 76
     0
330
2
  0
LAYOUT
  5
25
102
{ACAD_XDICTIONARY
360
180
102
}
102
{ACAD_REACTORS
330
1F
102
}
330
1F
100
AcDbPlotSettings
  1

  2
なし
  4

  6

 40
0.0
 41
0.0
 42
0.0
 43
0.0
 44
0.0
 45
0.0
 46
0.0
 47
0.0
 48
0.0
 49
0.0
140
0.0
141
0.0
142
1.0
143
1.0
 70
   688
 72
     0
 73
     0
 74
     5
  7
monochrome.ctb
 75
    16
147
1.0
148
0.0
149
0.0
100
AcDbLayout
  1
ﾚｲｱｳﾄ1
 70
     1
 71
     1
 10
0.0
 20
0.0
 11
12.0
 21
9.0
 12
0.0
 22
0.0
 32
0.0
 14
1.000000000000000E+20
 24
1.000000000000000E+20
 34
1.000000000000000E+20
 15
-1.000000000000000E+20
 25
-1.000000000000000E+20
 35
-1.000000000000000E+20
146
0.0
 13
0.0
 23
0.0
 33
0.0
 16
1.0
 26
0.0
 36
0.0
 17
0.0
 27
1.0
 37
0.0
 76
     0
330
20
  0
MATERIAL
  5
40
102
{ACAD_XDICTIONARY
360
41
102
}
102
{ACAD_REACTORS
330
C
102
}
330
C
100
AcDbMaterial
  1
ByBlock
 72
     0
 43
0.0208333333333333
 43
0.0
 43
0.0
 43
0.0
 43
0.0
 43
0.0208333333333333
 43
0.0
 43
0.0
 43
0.0
 43
0.0
 43
1.0
 43
0.0
 43
0.0
 43
0.0
 43
0.0
 43
1.0
 77
     0
 47
0.0208333333333333
 47
0.0
 47
0.0
 47
0.0
 47
0.0
 47
0.0208333333333333
 47
0.0
 47
0.0
 47
0.0
 47
0.0
 47
1.0
 47
0.0
 47
0.0
 47
0.0
 47
0.0
 47
1.0
171
     0
 49
0.0208333333333333
 49
0.0
 49
0.0
 49
0.0
 49
0.0
 49
0.0208333333333333
 49
0.0
 49
0.0
 49
0.0
 49
0.0
 49
1.0
 49
0.0
 49
0.0
 49
0.0
 49
0.0
 49
1.0
175
     0
142
0.0208333333333333
142
0.0
142
0.0
142
0.0
142
0.0
142
0.0208333333333333
142
0.0
142
0.0
142
0.0
142
0.0
142
1.0
142
0.0
142
0.0
142
0.0
142
0.0
142
1.0
179
     0
144
0.0208333333333333
144
0.0
144
0.0
144
0.0
144
0.0
144
0.0208333333333333
144
0.0
144
0.0
144
0.0
144
0.0
144
1.0
144
0.0
144
0.0
144
0.0
144
0.0
144
1.0
147
0.0208333333333333
147
0.0
147
0.0
147
0.0
147
0.0
147
0.0208333333333333
147
0.0
147
0.0
147
0.0
147
0.0
147
1.0
147
0.0
147
0.0
147
0.0
147
0.0
147
1.0
  0
MATERIAL
  5
15
102
{ACAD_XDICTIONARY
360
16
102
}
102
{ACAD_REACTORS
330
C
102
}
330
C
100
AcDbMaterial
  1
ByLayer
 72
     0
 43
0.0208333333333333
 43
0.0
 43
0.0
 43
0.0
 43
0.0
 43
0.0208333333333333
 43
0.0
 43
0.0
 43
0.0
 43
0.0
 43
1.0
 43
0.0
 43
0.0
 43
0.0
 43
0.0
 43
1.0
 77
     0
 47
0.0208333333333333
 47
0.0
 47
0.0
 47
0.0
 47
0.0
 47
0.0208333333333333
 47
0.0
 47
0.0
 47
0.0
 47
0.0
 47
1.0
 47
0.0
 47
0.0
 47
0.0
 47
0.0
 47
1.0
171
     0
 49
0.0208333333333333
 49
0.0
 49
0.0
 49
0.0
 49
0.0
 49
0.0208333333333333
 49
0.0
 49
0.0
 49
0.0
 49
0.0
 49
1.0
 49
0.0
 49
0.0
 49
0.0
 49
0.0
 49
1.0
175
     0
142
0.0208333333333333
142
0.0
142
0.0
142
0.0
142
0.0
142
0.0208333333333333
142
0.0
142
0.0
142
0.0
142
0.0
142
1.0
142
0.0
142
0.0
142
0.0
142
0.0
142
1.0
179
     0
144
0.0208333333333333
144
0.0
144
0.0
144
0.0
144
0.0
144
0.0208333333333333
144
0.0
144
0.0
144
0.0
144
0.0
144
1.0
144
0.0
144
0.0
144
0.0
144
0.0
144
1.0
147
0.0208333333333333
147
0.0
147
0.0
147
0.0
147
0.0
147
0.0208333333333333
147
0.0
147
0.0
147
0.0
147
0.0
147
1.0
147
0.0
147
0.0
147
0.0
147
0.0
147
1.0
  0
MATERIAL
  5
B
102
{ACAD_XDICTIONARY
360
D
102
}
102
{ACAD_REACTORS
330
C
102
}
330
C
100
AcDbMaterial
  1
Global
 72
     0
 43
0.0208333333333333
 43
0.0
 43
0.0
 43
0.0
 43
0.0
 43
0.0208333333333333
 43
0.0
 43
0.0
 43
0.0
 43
0.0
 43
1.0
 43
0.0
 43
0.0
 43
0.0
 43
0.0
 43
1.0
 77
     0
 47
0.0208333333333333
 47
0.0
 47
0.0
 47
0.0
 47
0.0
 47
0.0208333333333333
 47
0.0
 47
0.0
 47
0.0
 47
0.0
 47
1.0
 47
0.0
 47
0.0
 47
0.0
 47
0.0
 47
1.0
171
     0
 49
0.0208333333333333
 49
0.0
 49
0.0
 49
0.0
 49
0.0
 49
0.0208333333333333
 49
0.0
 49
0.0
 49
0.0
 49
0.0
 49
1.0
 49
0.0
 49
0.0
 49
0.0
 49
0.0
 49
1.0
175
     0
142
0.0208333333333333
142
0.0
142
0.0
142
0.0
142
0.0
142
0.0208333333333333
142
0.0
142
0.0
142
0.0
142
0.0
142
1.0
142
0.0
142
0.0
142
0.0
142
0.0
142
1.0
179
     0
144
0.0208333333333333
144
0.0
144
0.0
144
0.0
144
0.0
144
0.0208333333333333
144
0.0
144
0.0
144
0.0
144
0.0
144
1.0
144
0.0
144
0.0
144
0.0
144
0.0
144
1.0
147
0.0208333333333333
147
0.0
147
0.0
147
0.0
147
0.0
147
0.0208333333333333
147
0.0
147
0.0
147
0.0
147
0.0
147
1.0
147
0.0
147
0.0
147
0.0
147
0.0
147
1.0
  0
MLINESTYLE
  5
4D
102
{ACAD_REACTORS
330
3E
102
}
330
3E
100
AcDbMlineStyle
  2
STANDARD
 70
     0
  3

 62
   256
 51
90.0
 52
90.0
 71
     2
 49
0.5
 62
   256
  6
BYLAYER
 49
-0.5
 62
   256
  6
BYLAYER
  0
ACDBPLACEHOLDER
  5
7
102
{ACAD_REACTORS
330
8
102
}
330
8
  0
SCALE
  5
51
102
{ACAD_REACTORS
330
49
102
}
330
49
100
AcDbScale
 70
     0
300
1:1
140
1.0
141
1.0
290
     1
  0
SCALE
  5
52
102
{ACAD_REACTORS
330
49
102
}
330
49
100
AcDbScale
 70
     0
300
1/128" = 1'-0"
140
0.0078125
141
12.0
290
     0
  0
SCALE
  5
53
102
{ACAD_REACTORS
330
49
102
}
330
49
100
AcDbScale
 70
     0
300
1/64" = 1'-0"
140
0.015625
141
12.0
290
     0
  0
SCALE
  5
54
102
{ACAD_REACTORS
330
49
102
}
330
49
100
AcDbScale
 70
     0
300
1/32" = 1'-0"
140
0.03125
141
12.0
290
     0
  0
SCALE
  5
55
102
{ACAD_REACTORS
330
49
102
}
330
49
100
AcDbScale
 70
     0
300
1/16" = 1'-0"
140
0.0625
141
12.0
290
     0
  0
SCALE
  5
56
102
{ACAD_REACTORS
330
49
102
}
330
49
100
AcDbScale
 70
     0
300
3/32" = 1'-0"
140
0.09375
141
12.0
290
     0
  0
SCALE
  5
57
102
{ACAD_REACTORS
330
49
102
}
330
49
100
AcDbScale
 70
     0
300
1/8" = 1'-0"
140
0.125
141
12.0
290
     0
  0
SCALE
  5
58
102
{ACAD_REACTORS
330
49
102
}
330
49
100
AcDbScale
 70
     0
300
3/16" = 1'-0"
140
0.1875
141
12.0
290
     0
  0
SCALE
  5
59
102
{ACAD_REACTORS
330
49
102
}
330
49
100
AcDbScale
 70
     0
300
1/4" = 1'-0"
140
0.25
141
12.0
290
     0
  0
SCALE
  5
5A
102
{ACAD_REACTORS
330
49
102
}
330
49
100
AcDbScale
 70
     0
300
3/8" = 1'-0"
140
0.375
141
12.0
290
     0
  0
SCALE
  5
5B
102
{ACAD_REACTORS
330
49
102
}
330
49
100
AcDbScale
 70
     0
300
1/2" = 1'-0"
140
0.5
141
12.0
290
     0
  0
SCALE
  5
5C
102
{ACAD_REACTORS
330
49
102
}
330
49
100
AcDbScale
 70
     0
300
3/4" = 1'-0"
140
0.75
141
12.0
290
     0
  0
SCALE
  5
5D
102
{ACAD_REACTORS
330
49
102
}
330
49
100
AcDbScale
 70
     0
300
1" = 1'-0"
140
1.0
141
12.0
290
     0
  0
SCALE
  5
5E
102
{ACAD_REACTORS
330
49
102
}
330
49
100
AcDbScale
 70
     0
300
1-1/2" = 1'-0"
140
1.5
141
12.0
290
     0
  0
SCALE
  5
5F
102
{ACAD_REACTORS
330
49
102
}
330
49
100
AcDbScale
 70
     0
300
3" = 1'-0"
140
3.0
141
12.0
290
     0
  0
SCALE
  5
60
102
{ACAD_REACTORS
330
49
102
}
330
49
100
AcDbScale
 70
     0
300
6" = 1'-0"
140
6.0
141
12.0
290
     0
  0
SCALE
  5
61
102
{ACAD_REACTORS
330
49
102
}
330
49
100
AcDbScale
 70
     0
300
1'-0" = 1'-0"
140
12.0
141
12.0
290
     0
  0
TABLESTYLE
  5
4E
102
{ACAD_XDICTIONARY
360
179
102
}
102
{ACAD_REACTORS
330
4A
102
}
330
4A
100
AcDbTableStyle
  3
Standard
 70
     0
 71
     0
 40
0.06
 41
0.06
280
     0
281
     0
  7
STANDARD
140
0.18
170
     2
 62
     0
 63
     7
283
     0
274
    -2
284
     1
 64
     0
275
    -2
285
     1
 65
     0
276
    -2
286
     1
 66
     0
277
    -2
287
     1
 67
     0
278
    -2
288
     1
 68
     0
279
    -2
289
     1
 69
     0
  7
STANDARD
140
0.25
170
     5
 62
     0
 63
     7
283
     0
274
    -2
284
     1
 64
     0
275
    -2
285
     1
 65
     0
276
    -2
286
     1
 66
     0
277
    -2
287
     1
 67
     0
278
    -2
288
     1
 68
     0
279
    -2
289
     1
 69
     0
  7
STANDARD
140
0.18
170
     5
 62
     0
 63
     7
283
     0
274
    -2
284
     1
 64
     0
275
    -2
285
     1
 65
     0
276
    -2
286
     1
 66
     0
277
    -2
287
     1
 67
     0
278
    -2
288
     1
 68
     0
279
    -2
289
     1
 69
     0
  0
VISUALSTYLE
  5
31
102
{ACAD_XDICTIONARY
360
182
102
}
102
{ACAD_REACTORS
330
32
102
}
330
32
100
AcDbVisualStyle
  2
2dWireframe
 70
     4
 71
     0
 72
     2
 73
     0
 90
        0
 40
-0.6
 41
-30.0
 62
     5
 63
     7
 74
     1
 91
        4
 64
     7
 65
   257
 75
     1
175
     1
 42
1.0
 92
        0
 66
   257
 43
1.0
 76
     1
 77
     6
 78
     2
 67
     7
 79
     5
170
     0
171
     0
290
     0
174
     0
 93
        1
 44
0.0
173
     0
291
     0
 45
0.0
1001
ACAD
1000
AcDbSavedByObjectVersion
1070
     0
  0
VISUALSTYLE
  5
4F
102
{ACAD_XDICTIONARY
360
186
102
}
102
{ACAD_REACTORS
330
32
102
}
330
32
100
AcDbVisualStyle
  2
Realistic
 70
     8
 71
     2
 72
     3
 73
     0
 90
        2
 40
-0.6
 41
30.0
 62
     5
 63
     7
 74
     0
 91
        0
 64
     7
 65
   257
 75
     1
175
     1
 42
1.0
 92
        8
 66
   257
 43
1.0
 76
     1
 77
     6
 78
     2
 67
     7
 79
     3
170
     0
171
     0
290
     0
174
     0
 93
       13
 44
0.0
173
     0
291
     0
 45
0.0
1001
ACAD
1000
AcDbSavedByObjectVersion
1070
     0
  0
VISUALSTYLE
  5
50
102
{ACAD_XDICTIONARY
360
188
102
}
102
{ACAD_REACTORS
330
32
102
}
330
32
100
AcDbVisualStyle
  2
Wireframe
 70
     5
 71
     0
 72
     2
 73
     0
 90
        0
 40
-0.6
 41
-30.0
 62
     5
 63
     7
 74
     1
 91
        4
 64
     7
 65
   257
 75
     1
175
     1
 42
1.0
 92
        0
 66
   257
 43
1.0
 76
     1
 77
     6
 78
     2
 67
     7
 79
     3
170
     0
171
     0
290
     0
174
     0
 93
        1
 44
0.0
173
     0
291
     0
 45
0.0
1001
ACAD
1000
AcDbSavedByObjectVersion
1070
     0
  0
DICTIONARYVAR
  5
173
102
{ACAD_REACTORS
330
16E
102
}
330
16E
100
DictionaryVariables
280
     0
  1
1:1
  0
DICTIONARYVAR
  5
170
102
{ACAD_REACTORS
330
16E
102
}
330
16E
100
DictionaryVariables
280
     0
  1
STANDARD
  0
DICTIONARYVAR
  5
16F
102
{ACAD_REACTORS
330
16E
102
}
330
16E
100
DictionaryVariables
280
     0
  1
STANDARD
  0
DICTIONARYVAR
  5
171
102
{ACAD_REACTORS
330
16E
102
}
330
16E
100
DictionaryVariables
280
     0
  1

  0
DICTIONARYVAR
  5
172
102
{ACAD_REACTORS
330
16E
102
}
330
16E
100
DictionaryVariables
280
     0
  1

  0
DICTIONARYVAR
  5
177
102
{ACAD_REACTORS
330
16E
102
}
330
16E
100
DictionaryVariables
280
     0
  1
1
  0
DICTIONARYVAR
  5
176
102
{ACAD_REACTORS
330
16E
102
}
330
16E
100
DictionaryVariables
280
     0
  1
1
  0
DICTIONARYVAR
  5
175
102
{ACAD_REACTORS
330
16E
102
}
330
16E
100
DictionaryVariables
280
     0
  1
0
  0
DICTIONARYVAR
  5
174
102
{ACAD_REACTORS
330
16E
102
}
330
16E
100
DictionaryVariables
280
     0
  1
127
  0
DICTIONARYVAR
  5
178
102
{ACAD_REACTORS
330
16E
102
}
330
16E
100
DictionaryVariables
280
     0
  1
2
  0
DICTIONARY
  5
17E
330
1E
100
AcDbDictionary
280
     1
281
     1
  3
ACAD_XREC_ROUNDTRIP
360
17F
  0
DICTIONARY
  5
180
330
25
100
AcDbDictionary
280
     1
281
     1
  3
ACAD_XREC_ROUNDTRIP
360
181
  0
DICTIONARY
  5
41
330
40
100
AcDbDictionary
280
     1
281
     1
  3
ACAD_XREC_ROUNDTRIP
360
184
  3
BUMPTILE
360
42
  3
DIFFUSETILE
360
43
  3
OPACITYTILE
360
44
  3
REFLECTIONTILE
360
45
  3
REFRACTIONTILE
360
46
  3
SPECULARTILE
360
47
  0
DICTIONARY
  5
16
330
15
100
AcDbDictionary
280
     1
281
     1
  3
ACAD_XREC_ROUNDTRIP
360
17D
  3
BUMPTILE
360
17
  3
DIFFUSETILE
360
18
  3
OPACITYTILE
360
19
  3
REFLECTIONTILE
360
1A
  3
REFRACTIONTILE
360
1B
  3
SPECULARTILE
360
1C
  0
DICTIONARY
  5
D
330
B
100
AcDbDictionary
280
     1
281
     1
  3
ACAD_XREC_ROUNDTRIP
360
17C
  3
BUMPTILE
360
E
  3
DIFFUSETILE
360
F
  3
OPACITYTILE
360
10
  3
REFLECTIONTILE
360
11
  3
REFRACTIONTILE
360
12
  3
SPECULARTILE
360
13
  0
DICTIONARY
  5
179
330
4E
100
AcDbDictionary
280
     1
281
     1
  3
ACAD_ROUNDTRIP_2008_TABLESTYLE_CELLSTYLEMAP
360
17A
  3
ACAD_XREC_ROUNDTRIP
360
185
  0
DICTIONARY
  5
182
330
31
100
AcDbDictionary
280
     1
281
     1
  3
ACAD_XREC_ROUNDTRIP
360
183
  0
DICTIONARY
  5
186
330
4F
100
AcDbDictionary
280
     1
281
     1
  3
ACAD_XREC_ROUNDTRIP
360
187
  0
DICTIONARY
  5
188
330
50
100
AcDbDictionary
280
     1
281
     1
  3
ACAD_XREC_ROUNDTRIP
360
189
  0
XRECORD
  5
17F
102
{ACAD_REACTORS
330
17E
102
}
330
17E
100
AcDbXrecord
280
     1
102
SHADEPLOT
 70
     0
102
SHADEPLOTRESLEVEL
 70
     2
102
SHADEPLOTCUSTOMDPI
 70
   300
  0
XRECORD
  5
181
102
{ACAD_REACTORS
330
180
102
}
330
180
100
AcDbXrecord
280
     1
102
SHADEPLOT
 70
     0
102
SHADEPLOTRESLEVEL
 70
     2
102
SHADEPLOTCUSTOMDPI
 70
   300
  0
XRECORD
  5
184
102
{ACAD_REACTORS
330
41
102
}
330
41
100
AcDbXrecord
280
     1
102
MATERIAL
148
0.0
149
0.0
149
0.0
 93
        0
 94
      127
282
     0
 72
     0
 77
     0
171
     0
175
     0
179
     0
273
     0
  0
XRECORD
  5
42
102
{ACAD_REACTORS
330
41
102
}
330
41
100
AcDbXrecord
280
     1
270
     1
271
     1
  0
XRECORD
  5
43
102
{ACAD_REACTORS
330
41
102
}
330
41
100
AcDbXrecord
280
     1
270
     1
271
     1
  0
XRECORD
  5
44
102
{ACAD_REACTORS
330
41
102
}
330
41
100
AcDbXrecord
280
     1
270
     1
271
     1
  0
XRECORD
  5
45
102
{ACAD_REACTORS
330
41
102
}
330
41
100
AcDbXrecord
280
     1
270
     1
271
     1
  0
XRECORD
  5
46
102
{ACAD_REACTORS
330
41
102
}
330
41
100
AcDbXrecord
280
     1
270
     1
271
     1
  0
XRECORD
  5
47
102
{ACAD_REACTORS
330
41
102
}
330
41
100
AcDbXrecord
280
     1
270
     1
271
     1
  0
XRECORD
  5
17D
102
{ACAD_REACTORS
330
16
102
}
330
16
100
AcDbXrecord
280
     1
102
MATERIAL
148
0.0
149
0.0
149
0.0
 93
        0
 94
      127
282
     0
 72
     0
 77
     0
171
     0
175
     0
179
     0
273
     0
  0
XRECORD
  5
17
102
{ACAD_REACTORS
330
16
102
}
330
16
100
AcDbXrecord
280
     1
270
     1
271
     1
  0
XRECORD
  5
18
102
{ACAD_REACTORS
330
16
102
}
330
16
100
AcDbXrecord
280
     1
270
     1
271
     1
  0
XRECORD
  5
19
102
{ACAD_REACTORS
330
16
102
}
330
16
100
AcDbXrecord
280
     1
270
     1
271
     1
  0
XRECORD
  5
1A
102
{ACAD_REACTORS
330
16
102
}
330
16
100
AcDbXrecord
280
     1
270
     1
271
     1
  0
XRECORD
  5
1B
102
{ACAD_REACTORS
330
16
102
}
330
16
100
AcDbXrecord
280
     1
270
     1
271
     1
  0
XRECORD
  5
1C
102
{ACAD_REACTORS
330
16
102
}
330
16
100
AcDbXrecord
280
     1
270
     1
271
     1
  0
XRECORD
  5
17C
102
{ACAD_REACTORS
330
D
102
}
330
D
100
AcDbXrecord
280
     1
102
MATERIAL
148
0.0
149
0.0
149
0.0
 93
        0
 94
      127
282
     0
 72
     0
 77
     0
171
     0
175
     0
179
     0
273
     0
  0
XRECORD
  5
E
102
{ACAD_REACTORS
330
D
102
}
330
D
100
AcDbXrecord
280
     1
270
     1
271
     1
  0
XRECORD
  5
F
102
{ACAD_REACTORS
330
D
102
}
330
D
100
AcDbXrecord
280
     1
270
     1
271
     1
  0
XRECORD
  5
10
102
{ACAD_REACTORS
330
D
102
}
330
D
100
AcDbXrecord
280
     1
270
     1
271
     1
  0
XRECORD
  5
11
102
{ACAD_REACTORS
330
D
102
}
330
D
100
AcDbXrecord
280
     1
270
     1
271
     1
  0
XRECORD
  5
12
102
{ACAD_REACTORS
330
D
102
}
330
D
100
AcDbXrecord
280
     1
270
     1
271
     1
  0
XRECORD
  5
13
102
{ACAD_REACTORS
330
D
102
}
330
D
100
AcDbXrecord
280
     1
270
     1
271
     1
  0
CELLSTYLEMAP
  5
17A
102
{ACAD_REACTORS
330
179
102
}
330
179
100
AcDbCellStyleMap
 90
        3
300
CELLSTYLE
  1
TABLEFORMAT_BEGIN
 90
        5
170
     1
 91
        0
 92
    32768
 62
   257
 93
        1
300
CONTENTFORMAT
  1
CONTENTFORMAT_BEGIN
 90
        0
 91
        0
 92
        4
 93
        0
300

 40
0.0
140
1.0
 94
        5
 62
     0
340
28
144
0.25
309
CONTENTFORMAT_END
171
     0
 94
        6
 95
        1
302
GRIDFORMAT
  1
GRIDFORMAT_BEGIN
 90
        0
 91
        1
 62
     0
 92
       -2
340
0
 93
        0
 40
0.045
309
GRIDFORMAT_END
 95
        2
302
GRIDFORMAT
  1
GRIDFORMAT_BEGIN
 90
        0
 91
        1
 62
     0
 92
       -2
340
0
 93
        0
 40
0.045
309
GRIDFORMAT_END
 95
        4
302
GRIDFORMAT
  1
GRIDFORMAT_BEGIN
 90
        0
 91
        1
 62
     0
 92
       -2
340
0
 93
        0
 40
0.045
309
GRIDFORMAT_END
 95
        8
302
GRIDFORMAT
  1
GRIDFORMAT_BEGIN
 90
        0
 91
        1
 62
     0
 92
       -2
340
0
 93
        0
 40
0.045
309
GRIDFORMAT_END
 95
       16
302
GRIDFORMAT
  1
GRIDFORMAT_BEGIN
 90
        0
 91
        1
 62
     0
 92
       -2
340
0
 93
        0
 40
0.045
309
GRIDFORMAT_END
 95
       32
302
GRIDFORMAT
  1
GRIDFORMAT_BEGIN
 90
        0
 91
        1
 62
     0
 92
       -2
340
0
 93
        0
 40
0.045
309
GRIDFORMAT_END
309
TABLEFORMAT_END
  1
CELLSTYLE_BEGIN
 90
        1
 91
        1
300
_TITLE
309
CELLSTYLE_END
300
CELLSTYLE
  1
TABLEFORMAT_BEGIN
 90
        5
170
     1
 91
        0
 92
        0
 62
   257
 93
        1
300
CONTENTFORMAT
  1
CONTENTFORMAT_BEGIN
 90
        0
 91
        0
 92
        4
 93
        0
300

 40
0.0
140
1.0
 94
        5
 62
     0
340
28
144
0.18
309
CONTENTFORMAT_END
171
     0
 94
        6
 95
        1
302
GRIDFORMAT
  1
GRIDFORMAT_BEGIN
 90
        0
 91
        1
 62
     0
 92
       -2
340
0
 93
        0
 40
0.045
309
GRIDFORMAT_END
 95
        2
302
GRIDFORMAT
  1
GRIDFORMAT_BEGIN
 90
        0
 91
        1
 62
     0
 92
       -2
340
0
 93
        0
 40
0.045
309
GRIDFORMAT_END
 95
        4
302
GRIDFORMAT
  1
GRIDFORMAT_BEGIN
 90
        0
 91
        1
 62
     0
 92
       -2
340
0
 93
        0
 40
0.045
309
GRIDFORMAT_END
 95
        8
302
GRIDFORMAT
  1
GRIDFORMAT_BEGIN
 90
        0
 91
        1
 62
     0
 92
       -2
340
0
 93
        0
 40
0.045
309
GRIDFORMAT_END
 95
       16
302
GRIDFORMAT
  1
GRIDFORMAT_BEGIN
 90
        0
 91
        1
 62
     0
 92
       -2
340
0
 93
        0
 40
0.045
309
GRIDFORMAT_END
 95
       32
302
GRIDFORMAT
  1
GRIDFORMAT_BEGIN
 90
        0
 91
        1
 62
     0
 92
       -2
340
0
 93
        0
 40
0.045
309
GRIDFORMAT_END
309
TABLEFORMAT_END
  1
CELLSTYLE_BEGIN
 90
        2
 91
        1
300
_HEADER
309
CELLSTYLE_END
300
CELLSTYLE
  1
TABLEFORMAT_BEGIN
 90
        5
170
     1
 91
        0
 92
        0
 62
   257
 93
        1
300
CONTENTFORMAT
  1
CONTENTFORMAT_BEGIN
 90
        0
 91
        0
 92
        4
 93
        0
300

 40
0.0
140
1.0
 94
        2
 62
     0
340
28
144
0.18
309
CONTENTFORMAT_END
171
     0
 94
        6
 95
        1
302
GRIDFORMAT
  1
GRIDFORMAT_BEGIN
 90
        0
 91
        1
 62
     0
 92
       -2
340
0
 93
        0
 40
0.045
309
GRIDFORMAT_END
 95
        2
302
GRIDFORMAT
  1
GRIDFORMAT_BEGIN
 90
        0
 91
        1
 62
     0
 92
       -2
340
0
 93
        0
 40
0.045
309
GRIDFORMAT_END
 95
        4
302
GRIDFORMAT
  1
GRIDFORMAT_BEGIN
 90
        0
 91
        1
 62
     0
 92
       -2
340
0
 93
        0
 40
0.045
309
GRIDFORMAT_END
 95
        8
302
GRIDFORMAT
  1
GRIDFORMAT_BEGIN
 90
        0
 91
        1
 62
     0
 92
       -2
340
0
 93
        0
 40
0.045
309
GRIDFORMAT_END
 95
       16
302
GRIDFORMAT
  1
GRIDFORMAT_BEGIN
 90
        0
 91
        1
 62
     0
 92
       -2
340
0
 93
        0
 40
0.045
309
GRIDFORMAT_END
 95
       32
302
GRIDFORMAT
  1
GRIDFORMAT_BEGIN
 90
        0
 91
        1
 62
     0
 92
       -2
340
0
 93
        0
 40
0.045
309
GRIDFORMAT_END
309
TABLEFORMAT_END
  1
CELLSTYLE_BEGIN
 90
        3
 91
        2
300
_DATA
309
CELLSTYLE_END
  0
XRECORD
  5
185
102
{ACAD_REACTORS
330
179
102
}
330
179
100
AcDbXrecord
280
     1
102
ACAD_ROUNDTRIP_PRE2007_TABLESTYLE
 90
        4
 91
        0
  1

 92
        4
 93
        0
  2

 94
        4
 95
        0
  3

  0
XRECORD
  5
183
102
{ACAD_REACTORS
330
182
102
}
330
182
100
AcDbXrecord
280
     1
102
RTVSPost2010Prop28
280
     1
102
RTVSPost2010PropOp28
 70
     1
102
RTVSPost2010Prop29
280
     1
102
RTVSPost2010PropOp29
 70
     1
102
RTVSPost2010Prop30
280
     0
102
RTVSPost2010PropOp30
 70
     1
102
RTVSPost2010Prop31
280
     0
102
RTVSPost2010PropOp31
 70
     1
102
RTVSPost2010Prop32
280
     0
102
RTVSPost2010PropOp32
 70
     1
102
RTVSPost2010Prop33
280
     0
102
RTVSPost2010PropOp33
 70
     1
102
RTVSPost2010Prop34
280
     0
102
RTVSPost2010PropOp34
 70
     1
102
RTVSPost2010Prop35
280
     0
102
RTVSPost2010PropOp35
 70
     1
102
RTVSPost2010Prop36
280
     0
102
RTVSPost2010PropOp36
 70
     1
102
RTVSPost2010Prop37
 90
       50
102
RTVSPost2010PropOp37
 70
     1
102
RTVSPost2010Prop38
140
0.0
102
RTVSPost2010PropOp38
 70
     1
102
RTVSPost2010Prop39
140
1.0
102
RTVSPost2010PropOp39
 70
     1
102
RTVSPost2010Prop40
 90
        0
102
RTVSPost2010PropOp40
 70
     1
102
RTVSPost2010Prop41ColorIndex
 90
       18
102
RTVSPost2010Prop41ColorRGB
 90
        0
102
RTVSPost2010PropOp41
 70
     1
102
RTVSPost2010Prop42
 90
       50
102
RTVSPost2010PropOp42
 70
     1
102
RTVSPost2010Prop43
 90
        3
102
RTVSPost2010PropOp43
 70
     1
102
RTVSPost2010Prop44ColorIndex
 90
        5
102
RTVSPost2010Prop44ColorRGB
 90
      255
102
RTVSPost2010PropOp44
 70
     1
102
RTVSPost2010Prop45
280
     0
102
RTVSPost2010PropOp45
 70
     1
102
RTVSPost2010Prop46
 90
       50
102
RTVSPost2010PropOp46
 70
     1
102
RTVSPost2010Prop47
 90
       50
102
RTVSPost2010PropOp47
 70
     1
102
RTVSPost2010Prop48
 90
       50
102
RTVSPost2010PropOp48
 70
     1
102
RTVSPost2010Prop49
280
     0
102
RTVSPost2010PropOp49
 70
     1
102
RTVSPost2010Prop50
 90
       50
102
RTVSPost2010PropOp50
 70
     1
102
RTVSPost2010Prop51ColorIndex
 90
      256
102
RTVSPost2010Prop51ColorRGB
 90
-16777216
102
RTVSPost2010PropOp51
 70
     0
102
RTVSPost2010Prop52
140
1.0
102
RTVSPost2010PropOp52
 70
     0
102
RTVSPost2010Prop53
 90
        2
102
RTVSPost2010PropOp53
 70
     1
102
RTVSPost2010Prop54
  1
strokes_ogs.tif
102
RTVSPost2010PropOp54
 70
     1
102
RTVSPost2010Prop55
280
     0
102
RTVSPost2010PropOp55
 70
     1
102
RTVSPost2010Prop56
140
1.0
102
RTVSPost2010PropOp56
 70
     1
102
RTVSPost2010Prop57
140
1.0
102
RTVSPost2010PropOp57
 70
     1
102
RTVSPropertyOp0
 70
     1
102
RTVSPropertyOp1
 70
     1
102
RTVSPropertyOp2
 70
     1
102
RTVSPropertyOp3
 70
     1
102
RTVSPropertyOp4
 70
     1
102
RTVSPropertyOp5
 70
     1
102
RTVSPropertyOp6
 70
     1
102
RTVSPropertyOp7
 70
     1
102
RTVSPropertyOp8
 70
     1
102
RTVSPropertyOp9
 70
     1
102
RTVSPropertyOp10
 70
     1
102
RTVSPropertyOp11
 70
     1
102
RTVSPropertyOp12
 70
     1
102
RTVSPropertyOp13
 70
     1
102
RTVSPropertyOp14
 70
     1
102
RTVSPropertyOp15
 70
     1
102
RTVSPropertyOp16
 70
     1
102
RTVSPropertyOp17
 70
     1
102
RTVSPropertyOp18
 70
     1
102
RTVSPropertyOp19
 70
     1
102
RTVSPropertyOp20
 70
     1
102
RTVSPropertyOp21
 70
     1
102
RTVSPropertyOp22
 70
     1
102
RTVSPropertyOp23
 70
     1
102
RTVSPropertyOp24
 70
     1
102
RTVSPropertyOp25
 70
     1
102
RTVSPropertyOp26
 70
     1
102
RTVSPropertyOp27
 70
     1
102
RTVSPropertyOp28
 70
     1
102
RTVSPropertyOp29
 70
     1
102
RTVSPropertyOp30
 70
     1
102
RTVSPropertyOp31
 70
     1
102
RTVSPropertyOp32
 70
     1
102
RTVSPropertyOp33
 70
     1
102
RTVSPropertyOp34
 70
     1
102
RTVSPropertyOp35
 70
     1
102
RTVSPropertyOp36
 70
     1
102
RTVSPropertyOp37
 70
     1
102
RTVSPropertyOp38
 70
     1
102
RTVSPropertyOp39
 70
     1
102
RTVSPropertyOp40
 70
     1
102
RTVSPropertyOp41
 70
     1
102
RTVSPropertyOp42
 70
     1
102
RTVSPropertyOp43
 70
     1
102
RTVSPropertyOp44
 70
     1
102
RTVSPropertyOp45
 70
     1
102
RTVSPropertyOp46
 70
     1
102
RTVSPropertyOp47
 70
     1
102
RTVSPropertyOp48
 70
     1
102
RTVSPropertyOp49
 70
     1
102
RTVSPropertyOp50
 70
     1
102
RTVSPropertyOp51
 70
     0
102
RTVSPropertyOp52
 70
     0
102
RTVSPropertyOp53
 70
     1
102
RTVSPropertyOp54
 70
     1
102
RTVSPropertyOp55
 70
     1
102
RTVSPropertyOp56
 70
     1
102
RTVSPropertyOp57
 70
     1
102
RTVSPropertyOp58
 70
     1
102
RTVSPropertyOp59
 70
     1
102
RTVSPropertyOp60
 70
     1
102
RTVSPropertyOp61
 70
     1
102
RTVSPropertyOp62
 70
     1
  0
XRECORD
  5
187
102
{ACAD_REACTORS
330
186
102
}
330
186
100
AcDbXrecord
280
     1
102
RTVSPost2010Prop28
280
     0
102
RTVSPost2010PropOp28
 70
     1
102
RTVSPost2010Prop29
280
     1
102
RTVSPost2010PropOp29
 70
     1
102
RTVSPost2010Prop30
280
     1
102
RTVSPost2010PropOp30
 70
     1
102
RTVSPost2010Prop31
280
     0
102
RTVSPost2010PropOp31
 70
     1
102
RTVSPost2010Prop32
280
     0
102
RTVSPost2010PropOp32
 70
     1
102
RTVSPost2010Prop33
280
     0
102
RTVSPost2010PropOp33
 70
     1
102
RTVSPost2010Prop34
280
     0
102
RTVSPost2010PropOp34
 70
     1
102
RTVSPost2010Prop35
280
     0
102
RTVSPost2010PropOp35
 70
     1
102
RTVSPost2010Prop36
280
     0
102
RTVSPost2010PropOp36
 70
     1
102
RTVSPost2010Prop37
 90
       50
102
RTVSPost2010PropOp37
 70
     1
102
RTVSPost2010Prop38
140
0.0
102
RTVSPost2010PropOp38
 70
     1
102
RTVSPost2010Prop39
140
1.0
102
RTVSPost2010PropOp39
 70
     1
102
RTVSPost2010Prop40
 90
        0
102
RTVSPost2010PropOp40
 70
     1
102
RTVSPost2010Prop41ColorIndex
 90
       18
102
RTVSPost2010Prop41ColorRGB
 90
        0
102
RTVSPost2010PropOp41
 70
     1
102
RTVSPost2010Prop42
 90
       50
102
RTVSPost2010PropOp42
 70
     1
102
RTVSPost2010Prop43
 90
        3
102
RTVSPost2010PropOp43
 70
     1
102
RTVSPost2010Prop44ColorIndex
 90
        5
102
RTVSPost2010Prop44ColorRGB
 90
      255
102
RTVSPost2010PropOp44
 70
     1
102
RTVSPost2010Prop45
280
     0
102
RTVSPost2010PropOp45
 70
     1
102
RTVSPost2010Prop46
 90
       50
102
RTVSPost2010PropOp46
 70
     1
102
RTVSPost2010Prop47
 90
       50
102
RTVSPost2010PropOp47
 70
     1
102
RTVSPost2010Prop48
 90
       50
102
RTVSPost2010PropOp48
 70
     1
102
RTVSPost2010Prop49
280
     0
102
RTVSPost2010PropOp49
 70
     1
102
RTVSPost2010Prop50
 90
       50
102
RTVSPost2010PropOp50
 70
     1
102
RTVSPost2010Prop51ColorIndex
 90
      256
102
RTVSPost2010Prop51ColorRGB
 90
-16777216
102
RTVSPost2010PropOp51
 70
     0
102
RTVSPost2010Prop52
140
1.0
102
RTVSPost2010PropOp52
 70
     0
102
RTVSPost2010Prop53
 90
        2
102
RTVSPost2010PropOp53
 70
     1
102
RTVSPost2010Prop54
  1
strokes_ogs.tif
102
RTVSPost2010PropOp54
 70
     1
102
RTVSPost2010Prop55
280
     0
102
RTVSPost2010PropOp55
 70
     1
102
RTVSPost2010Prop56
140
1.0
102
RTVSPost2010PropOp56
 70
     1
102
RTVSPost2010Prop57
140
1.0
102
RTVSPost2010PropOp57
 70
     1
102
RTVSPropertyOp0
 70
     1
102
RTVSPropertyOp1
 70
     1
102
RTVSPropertyOp2
 70
     1
102
RTVSPropertyOp3
 70
     1
102
RTVSPropertyOp4
 70
     1
102
RTVSPropertyOp5
 70
     1
102
RTVSPropertyOp6
 70
     1
102
RTVSPropertyOp7
 70
     1
102
RTVSPropertyOp8
 70
     1
102
RTVSPropertyOp9
 70
     1
102
RTVSPropertyOp10
 70
     1
102
RTVSPropertyOp11
 70
     1
102
RTVSPropertyOp12
 70
     1
102
RTVSPropertyOp13
 70
     1
102
RTVSPropertyOp14
 70
     1
102
RTVSPropertyOp15
 70
     1
102
RTVSPropertyOp16
 70
     1
102
RTVSPropertyOp17
 70
     1
102
RTVSPropertyOp18
 70
     1
102
RTVSPropertyOp19
 70
     1
102
RTVSPropertyOp20
 70
     1
102
RTVSPropertyOp21
 70
     1
102
RTVSPropertyOp22
 70
     1
102
RTVSPropertyOp23
 70
     1
102
RTVSPropertyOp24
 70
     1
102
RTVSPropertyOp25
 70
     1
102
RTVSPropertyOp26
 70
     1
102
RTVSPropertyOp27
 70
     1
102
RTVSPropertyOp28
 70
     1
102
RTVSPropertyOp29
 70
     1
102
RTVSPropertyOp30
 70
     1
102
RTVSPropertyOp31
 70
     1
102
RTVSPropertyOp32
 70
     1
102
RTVSPropertyOp33
 70
     1
102
RTVSPropertyOp34
 70
     1
102
RTVSPropertyOp35
 70
     1
102
RTVSPropertyOp36
 70
     1
102
RTVSPropertyOp37
 70
     1
102
RTVSPropertyOp38
 70
     1
102
RTVSPropertyOp39
 70
     1
102
RTVSPropertyOp40
 70
     1
102
RTVSPropertyOp41
 70
     1
102
RTVSPropertyOp42
 70
     1
102
RTVSPropertyOp43
 70
     1
102
RTVSPropertyOp44
 70
     1
102
RTVSPropertyOp45
 70
     1
102
RTVSPropertyOp46
 70
     1
102
RTVSPropertyOp47
 70
     1
102
RTVSPropertyOp48
 70
     1
102
RTVSPropertyOp49
 70
     1
102
RTVSPropertyOp50
 70
     1
102
RTVSPropertyOp51
 70
     0
102
RTVSPropertyOp52
 70
     0
102
RTVSPropertyOp53
 70
     1
102
RTVSPropertyOp54
 70
     1
102
RTVSPropertyOp55
 70
     1
102
RTVSPropertyOp56
 70
     1
102
RTVSPropertyOp57
 70
     1
102
RTVSPropertyOp58
 70
     1
102
RTVSPropertyOp59
 70
     1
102
RTVSPropertyOp60
 70
     1
102
RTVSPropertyOp61
 70
     1
102
RTVSPropertyOp62
 70
     1
  0
XRECORD
  5
189
102
{ACAD_REACTORS
330
188
102
}
330
188
100
AcDbXrecord
280
     1
102
RTVSPost2010Prop28
280
     0
102
RTVSPost2010PropOp28
 70
     1
102
RTVSPost2010Prop29
280
     1
102
RTVSPost2010PropOp29
 70
     1
102
RTVSPost2010Prop30
280
     1
102
RTVSPost2010PropOp30
 70
     1
102
RTVSPost2010Prop31
280
     0
102
RTVSPost2010PropOp31
 70
     1
102
RTVSPost2010Prop32
280
     0
102
RTVSPost2010PropOp32
 70
     1
102
RTVSPost2010Prop33
280
     0
102
RTVSPost2010PropOp33
 70
     1
102
RTVSPost2010Prop34
280
     0
102
RTVSPost2010PropOp34
 70
     1
102
RTVSPost2010Prop35
280
     0
102
RTVSPost2010PropOp35
 70
     1
102
RTVSPost2010Prop36
280
     0
102
RTVSPost2010PropOp36
 70
     1
102
RTVSPost2010Prop37
 90
       50
102
RTVSPost2010PropOp37
 70
     1
102
RTVSPost2010Prop38
140
0.0
102
RTVSPost2010PropOp38
 70
     1
102
RTVSPost2010Prop39
140
1.0
102
RTVSPost2010PropOp39
 70
     1
102
RTVSPost2010Prop40
 90
        0
102
RTVSPost2010PropOp40
 70
     1
102
RTVSPost2010Prop41ColorIndex
 90
       18
102
RTVSPost2010Prop41ColorRGB
 90
        0
102
RTVSPost2010PropOp41
 70
     1
102
RTVSPost2010Prop42
 90
       50
102
RTVSPost2010PropOp42
 70
     1
102
RTVSPost2010Prop43
 90
        3
102
RTVSPost2010PropOp43
 70
     1
102
RTVSPost2010Prop44ColorIndex
 90
        5
102
RTVSPost2010Prop44ColorRGB
 90
      255
102
RTVSPost2010PropOp44
 70
     1
102
RTVSPost2010Prop45
280
     0
102
RTVSPost2010PropOp45
 70
     1
102
RTVSPost2010Prop46
 90
       50
102
RTVSPost2010PropOp46
 70
     1
102
RTVSPost2010Prop47
 90
       50
102
RTVSPost2010PropOp47
 70
     1
102
RTVSPost2010Prop48
 90
       50
102
RTVSPost2010PropOp48
 70
     1
102
RTVSPost2010Prop49
280
     0
102
RTVSPost2010PropOp49
 70
     1
102
RTVSPost2010Prop50
 90
       50
102
RTVSPost2010PropOp50
 70
     1
102
RTVSPost2010Prop51ColorIndex
 90
      256
102
RTVSPost2010Prop51ColorRGB
 90
-16777216
102
RTVSPost2010PropOp51
 70
     0
102
RTVSPost2010Prop52
140
1.0
102
RTVSPost2010PropOp52
 70
     0
102
RTVSPost2010Prop53
 90
        2
102
RTVSPost2010PropOp53
 70
     1
102
RTVSPost2010Prop54
  1
strokes_ogs.tif
102
RTVSPost2010PropOp54
 70
     1
102
RTVSPost2010Prop55
280
     0
102
RTVSPost2010PropOp55
 70
     1
102
RTVSPost2010Prop56
140
1.0
102
RTVSPost2010PropOp56
 70
     1
102
RTVSPost2010Prop57
140
1.0
102
RTVSPost2010PropOp57
 70
     1
102
RTVSPropertyOp0
 70
     1
102
RTVSPropertyOp1
 70
     1
102
RTVSPropertyOp2
 70
     1
102
RTVSPropertyOp3
 70
     1
102
RTVSPropertyOp4
 70
     1
102
RTVSPropertyOp5
 70
     1
102
RTVSPropertyOp6
 70
     1
102
RTVSPropertyOp7
 70
     1
102
RTVSPropertyOp8
 70
     1
102
RTVSPropertyOp9
 70
     1
102
RTVSPropertyOp10
 70
     1
102
RTVSPropertyOp11
 70
     1
102
RTVSPropertyOp12
 70
     1
102
RTVSPropertyOp13
 70
     1
102
RTVSPropertyOp14
 70
     1
102
RTVSPropertyOp15
 70
     1
102
RTVSPropertyOp16
 70
     1
102
RTVSPropertyOp17
 70
     1
102
RTVSPropertyOp18
 70
     1
102
RTVSPropertyOp19
 70
     1
102
RTVSPropertyOp20
 70
     1
102
RTVSPropertyOp21
 70
     1
102
RTVSPropertyOp22
 70
     1
102
RTVSPropertyOp23
 70
     1
102
RTVSPropertyOp24
 70
     1
102
RTVSPropertyOp25
 70
     1
102
RTVSPropertyOp26
 70
     1
102
RTVSPropertyOp27
 70
     1
102
RTVSPropertyOp28
 70
     1
102
RTVSPropertyOp29
 70
     1
102
RTVSPropertyOp30
 70
     1
102
RTVSPropertyOp31
 70
     1
102
RTVSPropertyOp32
 70
     1
102
RTVSPropertyOp33
 70
     1
102
RTVSPropertyOp34
 70
     1
102
RTVSPropertyOp35
 70
     1
102
RTVSPropertyOp36
 70
     1
102
RTVSPropertyOp37
 70
     1
102
RTVSPropertyOp38
 70
     1
102
RTVSPropertyOp39
 70
     1
102
RTVSPropertyOp40
 70
     1
102
RTVSPropertyOp41
 70
     1
102
RTVSPropertyOp42
 70
     1
102
RTVSPropertyOp43
 70
     1
102
RTVSPropertyOp44
 70
     1
102
RTVSPropertyOp45
 70
     1
102
RTVSPropertyOp46
 70
     1
102
RTVSPropertyOp47
 70
     1
102
RTVSPropertyOp48
 70
     1
102
RTVSPropertyOp49
 70
     1
102
RTVSPropertyOp50
 70
     1
102
RTVSPropertyOp51
 70
     0
102
RTVSPropertyOp52
 70
     0
102
RTVSPropertyOp53
 70
     1
102
RTVSPropertyOp54
 70
     1
102
RTVSPropertyOp55
 70
     1
102
RTVSPropertyOp56
 70
     1
102
RTVSPropertyOp57
 70
     1
102
RTVSPropertyOp58
 70
     1
102
RTVSPropertyOp59
 70
     1
102
RTVSPropertyOp60
 70
     1
102
RTVSPropertyOp61
 70
     1
102
RTVSPropertyOp62
 70
     1
  0
ENDSEC
  0
EOF
