  0
SECTION
  2
HEADER
  9
$ACADVER
  1
AC1015
  9
$ACADMAINTVER
 70
    18
  9
$DWGCODEPAGE
  3
ANSI_932
  9
$INSBASE
 10
0.0
 20
0.0
 30
0.0
  9
$EXTMIN
 10
-44.57472244169298
 20
-16.35040292570363
 30
0.0
  9
$EXTMAX
 10
521.5210867905055
 20
271.6483757915276
 30
0.0
  9
$LIMMIN
 10
0.0
 20
0.0
  9
$LIMMAX
 10
420.0
 20
297.0
  9
$ORTHOMODE
 70
     1
  9
$REGENMODE
 70
     1
  9
$FILLMODE
 70
     1
  9
$QTEXTMODE
 70
     0
  9
$MIRRTEXT
 70
     1
  9
$LTSCALE
 40
1.0
  9
$ATTMODE
 70
     1
  9
$TEXTSIZE
 40
30.0
  9
$TRACEWID
 40
0.05
  9
$TEXTSTYLE
  7
SUNPOU
  9
$CLAYER
  8
0
  9
$CELTYPE
  6
BYLAYER
  9
$CECOLOR
 62
     7
  9
$CELTSCALE
 40
1.0
  9
$DISPSILH
 70
     0
  9
$DIMSCALE
 40
96.0
  9
$DIMASZ
 40
3.0
  9
$DIMEXO
 40
2.0
  9
$DIMDLI
 40
0.38
  9
$DIMRND
 40
0.0
  9
$DIMDLE
 40
0.0
  9
$DIMEXE
 40
0.0
  9
$DIMTP
 40
0.0
  9
$DIMTM
 40
0.0
  9
$DIMTXT
 40
2.799999999999998
  9
$DIMCEN
 40
0.05
  9
$DIMTSZ
 40
0.0
  9
$DIMTOL
 70
     0
  9
$DIMLIM
 70
     0
  9
$DIMTIH
 70
     0
  9
$DIMTOH
 70
     0
  9
$DIMSE1
 70
     0
  9
$DIMSE2
 70
     0
  9
$DIMTAD
 70
     1
  9
$DIMZIN
 70
     0
  9
$DIMBLK
  1

  9
$DIMASO
 70
     1
  9
$DIMSHO
 70
     1
  9
$DIMPOST
  1

  9
$DIMAPOST
  1

  9
$DIMALT
 70
     0
  9
$DIMALTD
 70
     2
  9
$DIMALTF
 40
25.4
  9
$DIMLFAC
 40
1.0
  9
$DIMTOFL
 70
     0
  9
$DIMTVP
 40
0.0
  9
$DIMTIX
 70
     1
  9
$DIMSOXD
 70
     0
  9
$DIMSAH
 70
     1
  9
$DIMBLK1
  1
DOTSMALL
  9
$DIMBLK2
  1
DOTSMALL
  9
$DIMSTYLE
  2
STANDARD
  9
$DIMCLRD
 70
    60
  9
$DIMCLRE
 70
    70
  9
$DIMCLRT
 70
    60
  9
$DIMTFAC
 40
0.0642857142857143
  9
$DIMGAP
 40
1.0
  9
$DIMJUST
 70
     0
  9
$DIMSD1
 70
     0
  9
$DIMSD2
 70
     0
  9
$DIMTOLJ
 70
     1
  9
$DIMTZIN
 70
     0
  9
$DIMALTZ
 70
     0
  9
$DIMALTTZ
 70
     0
  9
$DIMUPT
 70
     0
  9
$DIMDEC
 70
     4
  9
$DIMTDEC
 70
     4
  9
$DIMALTU
 70
     2
  9
$DIMALTTD
 70
     2
  9
$DIMTXSTY
  7
STANDARD
  9
$DIMAUNIT
 70
     0
  9
$DIMADEC
 70
     0
  9
$DIMALTRND
 40
0.0
  9
$DIMAZIN
 70
     0
  9
$DIMDSEP
 70
    46
  9
$DIMATFIT
 70
     3
  9
$DIMFRAC
 70
     0
  9
$DIMLDRBLK
  1
DOTSMALL
  9
$DIMLUNIT
 70
     2
  9
$DIMLWD
 70
    -2
  9
$DIMLWE
 70
    -2
  9
$DIMTMOVE
 70
     0
  9
$LUNITS
 70
     4
  9
$LUPREC
 70
     4
  9
$SKETCHINC
 40
0.1
  9
$FILLETRAD
 40
3.0
  9
$AUNITS
 70
     0
  9
$AUPREC
 70
     2
  9
$MENU
  1
acad
  9
$ELEVATION
 40
0.0
  9
$PELEVATION
 40
0.0
  9
$THICKNESS
 40
0.0
  9
$LIMCHECK
 70
     0
  9
$CHAMFERA
 40
0.0
  9
$CHAMFERB
 40
0.0
  9
$CHAMFERC
 40
0.0
  9
$CHAMFERD
 40
0.0
  9
$SKPOLY
 70
     0
  9
$TDCREATE
 40
2450623.676023380
  9
$TDUCREATE
 40
2450623.301023380
  9
$TDUPDATE
 40
2453882.367624850
  9
$TDUUPDATE
 40
2453881.992624850
  9
$TDINDWG
 40
5.3248884375
  9
$TDUSRTIMER
 40
5.3248882523
  9
$USRTIMER
 70
     1
  9
$ANGBASE
 50
0.0
  9
$ANGDIR
 70
     0
  9
$PDMODE
 70
     0
  9
$PDSIZE
 40
0.0
  9
$PLINEWID
 40
0.0
  9
$SPLFRAME
 70
     0
  9
$SPLINETYPE
 70
     6
  9
$SPLINESEGS
 70
     8
  9
$HANDSEED
  5
24A
  9
$SURFTAB1
 70
     6
  9
$SURFTAB2
 70
     6
  9
$SURFTYPE
 70
     6
  9
$SURFU
 70
     6
  9
$SURFV
 70
     6
  9
$UCSBASE
  2

  9
$UCSNAME
  2

  9
$UCSORG
 10
0.0
 20
0.0
 30
0.0
  9
$UCSXDIR
 10
1.0
 20
0.0
 30
0.0
  9
$UCSYDIR
 10
0.0
 20
1.0
 30
0.0
  9
$UCSORTHOREF
  2

  9
$UCSORTHOVIEW
 70
     0
  9
$UCSORGTOP
 10
0.0
 20
0.0
 30
0.0
  9
$UCSORGBOTTOM
 10
0.0
 20
0.0
 30
0.0
  9
$UCSORGLEFT
 10
0.0
 20
0.0
 30
0.0
  9
$UCSORGRIGHT
 10
0.0
 20
0.0
 30
0.0
  9
$UCSORGFRONT
 10
0.0
 20
0.0
 30
0.0
  9
$UCSORGBACK
 10
0.0
 20
0.0
 30
0.0
  9
$PUCSBASE
  2

  9
$PUCSNAME
  2

  9
$PUCSORG
 10
0.0
 20
0.0
 30
0.0
  9
$PUCSXDIR
 10
1.0
 20
0.0
 30
0.0
  9
$PUCSYDIR
 10
0.0
 20
1.0
 30
0.0
  9
$PUCSORTHOREF
  2

  9
$PUCSORTHOVIEW
 70
     0
  9
$PUCSORGTOP
 10
0.0
 20
0.0
 30
0.0
  9
$PUCSORGBOTTOM
 10
0.0
 20
0.0
 30
0.0
  9
$PUCSORGLEFT
 10
0.0
 20
0.0
 30
0.0
  9
$PUCSORGRIGHT
 10
0.0
 20
0.0
 30
0.0
  9
$PUCSORGFRONT
 10
0.0
 20
0.0
 30
0.0
  9
$PUCSORGBACK
 10
0.0
 20
0.0
 30
0.0
  9
$USERI1
 70
     0
  9
$USERI2
 70
     0
  9
$USERI3
 70
     0
  9
$USERI4
 70
     0
  9
$USERI5
 70
     0
  9
$USERR1
 40
0.0
  9
$USERR2
 40
0.0
  9
$USERR3
 40
0.0
  9
$USERR4
 40
0.0
  9
$USERR5
 40
0.0
  9
$WORLDVIEW
 70
     1
  9
$SHADEDGE
 70
     3
  9
$SHADEDIF
 70
    70
  9
$TILEMODE
 70
     1
  9
$MAXACTVP
 70
    16
  9
$PINSBASE
 10
0.0
 20
0.0
 30
0.0
  9
$PLIMCHECK
 70
     0
  9
$PEXTMIN
 10
1.000000000000000E+20
 20
1.000000000000000E+20
 30
1.000000000000000E+20
  9
$PEXTMAX
 10
-1.000000000000000E+20
 20
-1.000000000000000E+20
 30
-1.000000000000000E+20
  9
$PLIMMIN
 10
0.0
 20
0.0
  9
$PLIMMAX
 10
12.0
 20
9.0
  9
$UNITMODE
 70
     0
  9
$VISRETAIN
 70
     0
  9
$PLINEGEN
 70
     0
  9
$PSLTSCALE
 70
     1
  9
$TREEDEPTH
 70
  3020
  9
$CMLSTYLE
  2
STANDARD
  9
$CMLJUST
 70
     0
  9
$CMLSCALE
 40
1.0
  9
$PROXYGRAPHICS
 70
     1
  9
$MEASUREMENT
 70
     0
  9
$CELWEIGHT
370
    -1
  9
$ENDCAPS
280
     0
  9
$JOINSTYLE
280
     0
  9
$LWDISPLAY
290
     0
  9
$INSUNITS
 70
     0
  9
$HYPERLINKBASE
  1

  9
$STYLESHEET
  1

  9
$XEDIT
290
     1
  9
$CEPSNTYPE
380
     0
  9
$PSTYLEMODE
290
     1
  9
$FINGERPRINTGUID
  2
{AE114F59-D85E-4F65-BBDF-A272870C57C4}
  9
$VERSIONGUID
  2
{F4CE4CBC-E35D-4621-85A8-AE34B174685F}
  9
$EXTNAMES
290
     1
  9
$PSVPSCALE
 40
0.0
  9
$OLESTARTUP
290
     0
  0
ENDSEC
  0
SECTION
  2
CLASSES
  0
CLASS
  1
DICTIONARYVAR
  2
AcDbDictionaryVar
  3
ObjectDBX Classes
 90
        0
280
     0
281
     0
  0
CLASS
  1
RASTERVARIABLES
  2
AcDbRasterVariables
  3
ISM
 90
    32768
280
     0
281
     0
  0
CLASS
  1
ACDBDICTIONARYWDFLT
  2
AcDbDictionaryWithDefault
  3
ObjectDBX Classes
 90
        0
280
     0
281
     0
  0
CLASS
  1
ACDBPLACEHOLDER
  2
AcDbPlaceHolder
  3
ObjectDBX Classes
 90
        0
280
     0
281
     0
  0
CLASS
  1
LAYOUT
  2
AcDbLayout
  3
ObjectDBX Classes
 90
        0
280
     0
281
     0
  0
CLASS
  1
AEC_VARS_DWG_SETUP
  2
AecDbVarsDwgSetup
  3
AecBase
 90
    32897
280
     1
281
     0
  0
CLASS
  1
AEC_DISP_REP_MASS_ELEM_MODEL
  2
AecDbDispRepMassElemModel
  3
AecBase
 90
    32897
280
     1
281
     0
  0
CLASS
  1
AEC_DISP_PROPS_MASS_ELEM_MODEL
  2
AecDbDispPropsMassElem
  3
AecBase
 90
    32897
280
     1
281
     0
  0
CLASS
  1
AEC_DISP_REP_MASS_ELEM_SCHEM
  2
AecDbDispRepMassElemSchem
  3
AecBase
 90
    32897
280
     1
281
     0
  0
CLASS
  1
AEC_DISP_REP_DOOR_ELEV
  2
AecDbDispRepDoorElev
  3
AecArchBase
 90
    32897
280
     1
281
     0
  0
CLASS
  1
AEC_DISP_PROPS_DOOR
  2
AecDbDispPropsDoor
  3
AecArchBase
 90
    32897
280
     1
281
     0
  0
CLASS
  1
AEC_DISP_REP_MASKBLOCK_REF
  2
AecDbDispRepMaskBlockRef
  3
AecBase
 90
    32897
280
     1
281
     0
  0
CLASS
  1
AEC_DISP_PROPS_MASKBLOCK
  2
AecDbDispPropsMaskBlock
  3
AecBase
 90
    32897
280
     1
281
     0
  0
CLASS
  1
AEC_DISP_REP_LAYOUT_GRID3D
  2
AecDbDispRepLayoutGrid3d
  3
AecBase
 90
    32897
280
     1
281
     0
  0
CLASS
  1
AEC_DISP_PROPS_LAYOUT_GRID3D
  2
AecDbDispPropsLayoutGrid3d
  3
AecBase
 90
    32897
280
     1
281
     0
  0
CLASS
  1
AEC_DISP_REP_ENT_REF
  2
AecDbDispRepEntRef
  3
AecBase
 90
    32897
280
     1
281
     0
  0
CLASS
  1
AEC_DISP_PROPS_ENT_REF
  2
AecDbDispPropsEntRef
  3
AecBase
 90
    32897
280
     1
281
     0
  0
CLASS
  1
AEC_DISP_REP_CLIP_VOLUME_RESULT_SUBDIV
  2
AecDbDispRepClipVolResSubDiv
  3
AecBase
 90
    32897
280
     1
281
     0
  0
CLASS
  1
AEC_DISP_PROPS_CLIP_VOLUME_RESULT
  2
AecDbDispPropsClipVolResSubDiv
  3
AecBase
 90
    32897
280
     1
281
     0
  0
CLASS
  1
AEC_DISP_REP_CLIP_VOLUME_RESULT
  2
AecDbDispRepClipVolResult
  3
AecBase
 90
    32897
280
     1
281
     0
  0
CLASS
  1
AEC_DISP_REP_CLIP_VOLUME_PLAN
  2
AecDbDispRepClipVolPlan
  3
AecBase
 90
    32897
280
     1
281
     0
  0
CLASS
  1
AEC_DISP_PROPS_CLIP_VOLUME
  2
AecDbDispPropsClipVol
  3
AecBase
 90
    32897
280
     1
281
     0
  0
CLASS
  1
AEC_DISP_REP_CLIP_VOLUME_MODEL
  2
AecDbDispRepClipVolModel
  3
AecBase
 90
    32897
280
     1
281
     0
  0
CLASS
  1
AEC_DISP_REP_ANCHOR_ENT_TO_NODE
  2
AecDbDispRepAnchorEntToNode
  3
AecBase
 90
    32897
280
     1
281
     0
  0
CLASS
  1
AEC_DISP_PROPS_ENT
  2
AecDbDispPropsEnt
  3
AecBase
 90
    32897
280
     1
281
     0
  0
CLASS
  1
AEC_DISP_REP_LAYOUT_GRID2D
  2
AecDbDispRepLayoutGrid2d
  3
AecBase
 90
    32897
280
     1
281
     0
  0
CLASS
  1
AEC_DISP_PROPS_LAYOUT_GRID2D
  2
AecDbDispPropsLayoutGrid2d
  3
AecBase
 90
    32897
280
     1
281
     0
  0
CLASS
  1
AEC_DISP_REP_LAYOUT_CURVE
  2
AecDbDispRepLayoutCurve
  3
AecBase
 90
    32897
280
     1
281
     0
  0
CLASS
  1
AEC_DISP_PROPS_LAYOUT_CURVE
  2
AecDbDispPropsLayoutCurve
  3
AecBase
 90
    32897
280
     1
281
     0
  0
CLASS
  1
AEC_DISP_REP_ANCHOR
  2
AecDbDispRepAnchor
  3
AecBase
 90
    32897
280
     1
281
     0
  0
CLASS
  1
AEC_DISP_REP_CAMERA
  2
AecDbDispRepCamera
  3
AecBase
 90
    32897
280
     1
281
     0
  0
CLASS
  1
AEC_DISP_PROPS_CAMERA
  2
AecDbDispPropsCamera
  3
AecBase
 90
    32897
280
     1
281
     0
  0
CLASS
  1
AEC_DISP_REP_SLICE
  2
AecDbDispRepSlice
  3
AecBase
 90
    32897
280
     1
281
     0
  0
CLASS
  1
AEC_DISP_PROPS_SLICE
  2
AecDbDispPropsSlice
  3
AecBase
 90
    32897
280
     1
281
     0
  0
CLASS
  1
AEC_DISP_REP_MVBLOCK_REF
  2
AecDbDispRepMvBlockRef
  3
AecBase
 90
    32897
280
     1
281
     0
  0
CLASS
  1
AEC_DISP_REP_MVBLOCK_REF_MODEL
  2
AecDbDispRepMvBlockRefModel
  3
AecBase
 90
    32897
280
     1
281
     0
  0
CLASS
  1
AEC_DISP_REP_MASS_GROUP_MODEL
  2
AecDbDispRepMassGroupModel
  3
AecBase
 90
    32897
280
     1
281
     0
  0
CLASS
  1
AEC_DISP_PROPS_MASS_GROUP
  2
AecDbDispPropsMassGroup
  3
AecBase
 90
    32897
280
     1
281
     0
  0
CLASS
  1
AEC_DISP_REP_MASS_GROUP_PLAN
  2
AecDbDispRepMassGroupPlan
  3
AecBase
 90
    32897
280
     1
281
     0
  0
CLASS
  1
AEC_DISP_REP_DOOR_RCP
  2
AecDbDispRepDoorRcp
  3
AecArchBase
 90
    32897
280
     1
281
     0
  0
CLASS
  1
AEC_DISP_REP_DOOR_NOMINAL
  2
AecDbDispRepDoorNominal
  3
AecArchBase
 90
    32897
280
     1
281
     0
  0
CLASS
  1
AEC_DISP_PROPS_DOOR_NOMINAL
  2
AecDbDispPropsDoorNominal
  3
AecArchBase
 90
    32897
280
     1
281
     0
  0
CLASS
  1
AEC_DISP_REP_DOOR_PLAN
  2
AecDbDispRepDoorPlan
  3
AecArchBase
 90
    32897
280
     1
281
     0
  0
CLASS
  1
AEC_DISP_REP_DOOR_MODEL
  2
AecDbDispRepDoorModel
  3
AecArchBase
 90
    32897
280
     1
281
     0
  0
CLASS
  1
AEC_DISP_REP_MVBLOCK_REF_RCP
  2
AecDbDispRepMvBlockRefRcp
  3
AecArchBase
 90
    32897
280
     1
281
     0
  0
CLASS
  1
AEC_DISP_REP_MASS_GROUP_RCP
  2
AecDbDispRepMassGroupRcp
  3
AecArchBase
 90
    32897
280
     1
281
     0
  0
CLASS
  1
AEC_DISP_REP_MASS_ELEM_RCP
  2
AecDbDispRepMassElemRcp
  3
AecArchBase
 90
    32897
280
     1
281
     0
  0
CLASS
  1
AEC_DISP_REP_MASKBLOCK_REF_RCP
  2
AecDbDispRepMaskBlockRefRcp
  3
AecArchBase
 90
    32897
280
     1
281
     0
  0
CLASS
  1
AEC_DISP_REP_COLUMN_GRID_RCP
  2
AecDbDispRepColumnGridRcp
  3
AecArchBase
 90
    32897
280
     1
281
     0
  0
CLASS
  1
AEC_DISP_REP_COLUMN_GRID_MODEL
  2
AecDbDispRepColumnGridModel
  3
AecArchBase
 90
    32897
280
     1
281
     0
  0
CLASS
  1
AEC_DISP_REP_COLUMN_GRID
  2
AecDbDispRepColumnGrid
  3
AecArchBase
 90
    32897
280
     1
281
     0
  0
CLASS
  1
AEC_DISP_REP_CEILING_GRID_RCP
  2
AecDbDispRepCeilingGridRcp
  3
AecArchBase
 90
    32897
280
     1
281
     0
  0
CLASS
  1
AEC_DISP_REP_CEILING_GRID_MODEL
  2
AecDbDispRepCeilingGridModel
  3
AecArchBase
 90
    32897
280
     1
281
     0
  0
CLASS
  1
AEC_DISP_REP_CEILING_GRID
  2
AecDbDispRepCeilingGrid
  3
AecArchBase
 90
    33661
280
     1
281
     0
  0
CLASS
  1
AEC_DISP_REP_BDG_SECTION_SUBDIV
  2
AecDbDispRepBdgSectionSubDiv
  3
AecArchBase
 90
    32897
280
     1
281
     0
  0
CLASS
  1
AEC_DISP_REP_BDG_SECTION_MODEL
  2
AecDbDispRepBdgSectionModel
  3
AecArchBase
 90
    32897
280
     1
281
     0
  0
CLASS
  1
AEC_DISP_REP_BDG_SECTIONLINE_RCP
  2
AecDbDispRepBdgSectionLineRcp
  3
AecArchBase
 90
    32897
280
     1
281
     0
  0
CLASS
  1
AEC_DISP_REP_BDG_SECTIONLINE_PLAN
  2
AecDbDispRepBdgSectionLinePlan
  3
AecArchBase
 90
    32897
280
     1
281
     0
  0
CLASS
  1
AEC_DISP_REP_BDG_ELEVLINE_RCP
  2
AecDbDispRepBdgElevLineRcp
  3
AecArchBase
 90
    32897
280
     1
281
     0
  0
CLASS
  1
AEC_DISP_REP_BDG_ELEVLINE_PLAN
  2
AecDbDispRepBdgElevLinePlan
  3
AecArchBase
 90
    32897
280
     1
281
     0
  0
CLASS
  1
AEC_DISP_REP_BDG_SECTIONLINE_MODEL
  2
AecDbDispRepBdgSectionLineModel
  3
AecArchBase
 90
    32897
280
     1
281
     0
  0
CLASS
  1
AEC_DISP_REP_BDG_ELEVLINE_MODEL
  2
AecDbDispRepBdgElevLineModel
  3
AecArchBase
 90
    32897
280
     1
281
     0
  0
CLASS
  1
AEC_DISP_REP_ANCHOR_BUB_TO_GRID_RCP
  2
AecDbDispRepAnchorBubToGridRcp
  3
AecArchBase
 90
    32897
280
     1
281
     0
  0
CLASS
  1
AEC_DISP_REP_ANCHOR_BUB_TO_GRID_MODEL
  2
AecDbDispRepAnchorBubToGridMdl
  3
AecArchBase
 90
    32897
280
     1
281
     0
  0
CLASS
  1
AEC_DISP_REP_ANCHOR_BUB_TO_GRID
  2
AecDbDispRepAnchorBubToGrid
  3
AecArchBase
 90
    32897
280
     1
281
     0
  0
CLASS
  1
AEC_DISP_REP_WINDOW_RCP
  2
AecDbDispRepWindowRcp
  3
AecArchBase
 90
    32897
280
     1
281
     0
  0
CLASS
  1
AEC_DISP_PROPS_WINDOW
  2
AecDbDispPropsWindow
  3
AecArchBase
 90
    32897
280
     1
281
     0
  0
CLASS
  1
AEC_DISP_REP_ROOF_RCP
  2
AecDbDispRepRoofRcp
  3
AecArchBase
 90
    32897
280
     1
281
     0
  0
CLASS
  1
AEC_DISP_PROPS_ROOF
  2
AecDbDispPropsRoof
  3
AecArchBase
 90
    32897
280
     1
281
     0
  0
CLASS
  1
AEC_DISP_REP_ROOF_PLAN
  2
AecDbDispRepRoofPlan
  3
AecArchBase
 90
    32897
280
     1
281
     0
  0
CLASS
  1
AEC_DISP_REP_WINDOW_SILL_PLAN
  2
AecDbDispRepWindowSillPlan
  3
AecArchBase
 90
    32897
280
     1
281
     0
  0
CLASS
  1
AEC_DISP_PROPS_WINDOW_SILL_PLAN
  2
AecDbDispPropsWindowSillPlan
  3
AecArchBase
 90
    32897
280
     1
281
     0
  0
CLASS
  1
AEC_DISP_REP_SPACE_PLAN
  2
AecDbDispRepSpacePlan
  3
AecArchBase
 90
    32897
280
     1
281
     0
  0
CLASS
  1
AEC_DISP_PROPS_SPACE_PLAN
  2
AecDbDispPropsSpacePlan
  3
AecArchBase
 90
    32897
280
     1
281
     0
  0
CLASS
  1
AEC_DISP_REP_SPACE_MODEL
  2
AecDbDispRepSpaceModel
  3
AecArchBase
 90
    32897
280
     1
281
     0
  0
CLASS
  1
AEC_DISP_PROPS_SPACE_MODEL
  2
AecDbDispPropsSpaceModel
  3
AecArchBase
 90
    32897
280
     1
281
     0
  0
CLASS
  1
AEC_DISP_REP_WINDOW_MODEL
  2
AecDbDispRepWindowModel
  3
AecArchBase
 90
    32897
280
     1
281
     0
  0
CLASS
  1
AEC_DISP_REP_WINDOW_NOMINAL
  2
AecDbDispRepWindowNominal
  3
AecArchBase
 90
    32897
280
     1
281
     0
  0
CLASS
  1
AEC_DISP_PROPS_WINDOW_NOMINAL
  2
AecDbDispPropsWindowNominal
  3
AecArchBase
 90
    32897
280
     1
281
     0
  0
CLASS
  1
AEC_DISP_REP_OPENING
  2
AecDbDispRepOpening
  3
AecArchBase
 90
    32897
280
     1
281
     0
  0
CLASS
  1
AEC_DISP_PROPS_OPENING
  2
AecDbDispPropsOpening
  3
AecArchBase
 90
    32897
280
     1
281
     0
  0
CLASS
  1
AEC_DISP_REP_OPENING_MODEL
  2
AecDbDispRepOpeningModel
  3
AecArchBase
 90
    32897
280
     1
281
     0
  0
CLASS
  1
AEC_DISP_REP_RAILING_PLAN
  2
AecDbDispRepRailingPlan
  3
AecArchBase
 90
    32897
280
     1
281
     0
  0
CLASS
  1
AEC_DISP_PROPS_RAILING_PLAN
  2
AecDbDispPropsRailingPlan
  3
AecArchBase
 90
    32897
280
     1
281
     0
  0
CLASS
  1
AEC_DISP_REP_RAILING_MODEL
  2
AecDbDispRepRailingModel
  3
AecArchBase
 90
    32897
280
     1
281
     0
  0
CLASS
  1
AEC_DISP_PROPS_RAILING_MODEL
  2
AecDbDispPropsRailingModel
  3
AecArchBase
 90
    32897
280
     1
281
     0
  0
CLASS
  1
AEC_DISP_REP_WINDOW_ELEV
  2
AecDbDispRepWindowElev
  3
AecArchBase
 90
    32897
280
     1
281
     0
  0
CLASS
  1
AEC_DISP_REP_DOOR_THRESHOLD_PLAN
  2
AecDbDispRepDoorThresholdPlan
  3
AecArchBase
 90
    32897
280
     1
281
     0
  0
CLASS
  1
AEC_DISP_PROPS_DOOR_THRESHOLD_PLAN
  2
AecDbDispPropsDoorThresholdPlan
  3
AecArchBase
 90
    32897
280
     1
281
     0
  0
CLASS
  1
AEC_DISP_REP_ROOF_MODEL
  2
AecDbDispRepRoofModel
  3
AecArchBase
 90
    32897
280
     1
281
     0
  0
CLASS
  1
AEC_DISP_REP_WINDOW_PLAN
  2
AecDbDispRepWindowPlan
  3
AecArchBase
 90
    32897
280
     1
281
     0
  0
CLASS
  1
AEC_DISP_REP_WALL_SCHEM
  2
AecDbDispRepWallSchem
  3
AecArchBase
 90
    32897
280
     1
281
     0
  0
CLASS
  1
AEC_DISP_PROPS_WALL_SCHEM
  2
AecDbDispPropsWallSchem
  3
AecArchBase
 90
    32897
280
     1
281
     0
  0
CLASS
  1
AEC_DISP_REP_WALL_RCP
  2
AecDbDispRepWallRcp
  3
AecArchBase
 90
    32897
280
     1
281
     0
  0
CLASS
  1
AEC_DISP_PROPS_WALL_PLAN
  2
AecDbDispPropsWallPlan
  3
AecArchBase
 90
    32897
280
     1
281
     0
  0
CLASS
  1
AEC_DISP_REP_WALL_PLAN
  2
AecDbDispRepWallPlan
  3
AecArchBase
 90
    32897
280
     1
281
     0
  0
CLASS
  1
AEC_DISP_REP_WALL_MODEL
  2
AecDbDispRepWallModel
  3
AecArchBase
 90
    32897
280
     1
281
     0
  0
CLASS
  1
AEC_DISP_PROPS_WALL
  2
AecDbDispPropsWall
  3
AecArchBase
 90
    32897
280
     1
281
     0
  0
CLASS
  1
AEC_DISP_REP_WALL_GRAPH
  2
AecDbDispRepWallGraph
  3
AecArchBase
 90
    32897
280
     1
281
     0
  0
CLASS
  1
AEC_DISP_REP_STAIR_RCP
  2
AecDbDispRepStairRcp
  3
AecArchBase
 90
    32897
280
     1
281
     0
  0
CLASS
  1
AEC_DISP_PROPS_STAIR_PLAN
  2
AecDbDispPropsStairPlan
  3
AecArchBase
 90
    32897
280
     1
281
     0
  0
CLASS
  1
AEC_DISP_REP_STAIR_PLAN
  2
AecDbDispRepStairPlan
  3
AecArchBase
 90
    32897
280
     1
281
     0
  0
CLASS
  1
AEC_DISP_REP_STAIR_MODEL
  2
AecDbDispRepStairModel
  3
AecArchBase
 90
    32897
280
     1
281
     0
  0
CLASS
  1
AEC_DISP_PROPS_STAIR_MODEL
  2
AecDbDispPropsStairModel
  3
AecArchBase
 90
    32897
280
     1
281
     0
  0
CLASS
  1
AEC_DISP_REP_SPACE_BOUNDARY_SCHEM
  2
AecDbDispRepSpaceBoundarySketch
  3
AecArchBase
 90
    32897
280
     1
281
     0
  0
CLASS
  1
AEC_DISP_REP_SPACE_BOUNDARY_PLAN
  2
AecDbDispRepSpaceBoundaryPlan
  3
AecArchBase
 90
    32897
280
     1
281
     0
  0
CLASS
  1
AEC_DISP_REP_SPACE_BOUNDARY_MODEL
  2
AecDbDispRepSpaceBoundaryModel
  3
AecArchBase
 90
    32897
280
     1
281
     0
  0
CLASS
  1
AEC_DISP_REP_SPACE_BOUNDARY_DIAGRAM
  2
AecDbDispRepSpaceBoundaryDgrm
  3
AecArchBase
 90
    32897
280
     1
281
     0
  0
CLASS
  1
AEC_DISP_REP_SPACE_VOLUME
  2
AecDbDispRepSpaceVolume
  3
AecArchBase
 90
    32897
280
     1
281
     0
  0
CLASS
  1
AEC_DISP_REP_SPACE_RCP
  2
AecDbDispRepSpaceRcp
  3
AecArchBase
 90
    32897
280
     1
281
     0
  0
CLASS
  1
AEC_DISP_REP_ANCHOR_TAG_TO_ENT
  2
AecDbDispRepAnchorTagToEnt
  3
AecScheduleData
 90
    32897
280
     1
281
     0
  0
CLASS
  1
AEC_DISP_REP_SCHEDULE_TABLE
  2
AecDbDispRepScheduleTable
  3
AecSchedule
 90
    32897
280
     1
281
     0
  0
CLASS
  1
AEC_DISP_PROPS_SCHEDULE_TABLE
  2
AecDbDispPropsScheduleTable
  3
AecSchedule
 90
    32897
280
     1
281
     0
  0
CLASS
  1
AEC_DISP_REP_SET
  2
AecDbDispRepSet
  3
AecBase
 90
    32897
280
     1
281
     0
  0
CLASS
  1
AEC_DISP_REP_CONFIG
  2
AecDbDispRepConfig
  3
AecBase
 90
    32897
280
     1
281
     0
  0
CLASS
  1
TABLESTYLE
  2
AcDbTableStyle
  3
ObjectDBX Classes
 90
     4095
280
     0
281
     0
  0
CLASS
  1
MATERIAL
  2
AcDbMaterial
  3
ObjectDBX Classes
 90
     1153
280
     0
281
     0
  0
CLASS
  1
VISUALSTYLE
  2
AcDbVisualStyle
  3
ObjectDBX Classes
 90
     4095
280
     0
281
     0
  0
CLASS
  1
SCALE
  2
AcDbScale
  3
ObjectDBX Classes
 90
     1153
280
     0
281
     0
  0
CLASS
  1
MLEADERSTYLE
  2
AcDbMLeaderStyle
  3
ACDB_MLEADERSTYLE_CLASS
 90
    36863
280
     0
281
     0
  0
CLASS
  1
ACDBSECTIONVIEWSTYLE
  2
AcDbSectionViewStyle
  3
ObjectDBX Classes
 90
    33793
280
     0
281
     0
  0
CLASS
  1
ACDBDETAILVIEWSTYLE
  2
AcDbDetailViewStyle
  3
ObjectDBX Classes
 90
    33793
280
     0
281
     0
  0
CLASS
  1
EXACXREFPANELOBJECT
  2
ExAcXREFPanelObject
  3
EXAC_ESW
 90
    33793
280
     0
281
     0
  0
CLASS
  1
NPOCOLLECTION
  2
AcDbImpNonPersistentObjectsCollection
  3
ObjectDBX Classes
 90
    33921
280
     0
281
     0
  0
CLASS
  1
CELLSTYLEMAP
  2
AcDbCellStyleMap
  3
ObjectDBX Classes
 90
     1152
280
     0
281
     0
  0
ENDSEC
  0
SECTION
  2
TABLES
  0
TABLE
  2
VPORT
  5
2F
330
0
100
AcDbSymbolTable
 70
     1
  0
VPORT
  5
30
330
2F
100
AcDbSymbolTableRecord
100
AcDbViewportTableRecord
  2
*Active
 70
     0
 10
0.0
 20
0.0
 11
1.0
 21
1.0
 12
183.6139709199276
 22
82.70467396730419
 13
0.0
 23
0.0
 14
1.0
 24
1.0
 15
0.0
 25
0.0
 16
0.0
 26
0.0
 36
1.0
 17
0.0
 27
0.0
 37
0.0
 40
411.2099938474044
 41
2.095558546433378
 42
50.0
 43
0.0
 44
0.0
 50
0.0
 51
0.0
 71
     0
 72
 20000
 73
     1
 74
     1
 75
     0
 76
     0
 77
     0
 78
     0
281
     0
 65
     1
110
0.0
120
0.0
130
0.0
111
1.0
121
0.0
131
0.0
112
0.0
122
1.0
132
0.0
 79
     0
146
0.0
1001
ACAD_NAV_VCDISPLAY
1070
     3
  0
ENDTAB
  0
TABLE
  2
LTYPE
  5
2A
330
0
100
AcDbSymbolTable
 70
     1
  0
LTYPE
  5
2B
330
2A
100
AcDbSymbolTableRecord
100
AcDbLinetypeTableRecord
  2
BYBLOCK
 70
     0
  3

 72
    65
 73
     0
 40
0.0
  0
LTYPE
  5
2C
330
2A
100
AcDbSymbolTableRecord
100
AcDbLinetypeTableRecord
  2
BYLAYER
 70
     0
  3

 72
    65
 73
     0
 40
0.0
  0
LTYPE
  5
14
330
2A
100
AcDbSymbolTableRecord
100
AcDbLinetypeTableRecord
  2
CONTINUOUS
 70
     0
  3
Solid line
 72
    65
 73
     0
 40
0.0
  0
ENDTAB
  0
TABLE
  2
LAYER
  5
26
330
0
100
AcDbSymbolTable
 70
     6
  0
LAYER
  5
6
330
26
100
AcDbSymbolTableRecord
100
AcDbLayerTableRecord
  2
0
 70
     0
 62
     7
  6
CONTINUOUS
370
    -3
390
7
  0
LAYER
  5
20A
330
26
100
AcDbSymbolTableRecord
100
AcDbLayerTableRecord
  2
DEFPOINTS
 70
     0
 62
     7
  6
CONTINUOUS
290
     0
370
    -3
390
7
  0
LAYER
  5
1FA
330
26
100
AcDbSymbolTableRecord
100
AcDbLayerTableRecord
  2
SUNPOU
 70
     0
 62
    70
  6
CONTINUOUS
370
    -3
390
7
  0
LAYER
  5
62
330
26
100
AcDbSymbolTableRecord
100
AcDbLayerTableRecord
  2
KIJUN
 70
     0
 62
     7
  6
CONTINUOUS
370
    -3
390
7
  0
LAYER
  5
224
330
26
100
AcDbSymbolTableRecord
100
AcDbLayerTableRecord
  2
HOJO
 70
     0
 62
     3
  6
CONTINUOUS
370
    -3
390
7
  0
LAYER
  5
226
330
26
100
AcDbSymbolTableRecord
100
AcDbLayerTableRecord
  2
WAKU
 70
     0
 62
     1
  6
CONTINUOUS
370
    -3
390
7
  0
ENDTAB
  0
TABLE
  2
STYLE
  5
27
330
0
100
AcDbSymbolTable
 70
     3
  0
STYLE
  5
28
330
27
100
AcDbSymbolTableRecord
100
AcDbTextStyleTableRecord
  2
STANDARD
 70
     0
 40
0.0
 41
1.0
 50
0.0
 71
     0
 42
0.2
  3
txt
  4

  0
STYLE
  5
4B
330
27
100
AcDbSymbolTableRecord
100
AcDbTextStyleTableRecord
  2
SUNPOU
 70
     0
 40
0.0
 41
1.0
 50
0.0
 71
     0
 42
30.0
  3
txt
  4
bigfont
  0
STYLE
  5
208
330
27
100
AcDbSymbolTableRecord
100
AcDbTextStyleTableRecord
  2
LIFE
 70
     0
 40
0.0
 41
0.7
 50
0.0
 71
     0
 42
10.0
  3
romans
  4
extfont
  0
ENDTAB
  0
TABLE
  2
VIEW
  5
2D
330
0
100
AcDbSymbolTable
 70
     0
  0
ENDTAB
  0
TABLE
  2
UCS
  5
2E
330
0
100
AcDbSymbolTable
 70
     0
  0
ENDTAB
  0
TABLE
  2
APPID
  5
34
330
0
100
AcDbSymbolTable
 70
     2
  0
APPID
  5
A
330
34
100
AcDbSymbolTableRecord
100
AcDbRegAppTableRecord
  2
ACAD
 70
     0
  0
APPID
  5
33
330
34
100
AcDbSymbolTableRecord
100
AcDbRegAppTableRecord
  2
ACAD_NAV_VCDISPLAY
 70
     0
  0
ENDTAB
  0
TABLE
  2
DIMSTYLE
  5
35
330
0
100
AcDbSymbolTable
 70
     2
100
AcDbDimStyleTable
 71
     1
340
36
  0
DIMSTYLE
105
36
330
35
100
AcDbSymbolTableRecord
100
AcDbDimStyleTableRecord
  2
STANDARD
 70
     0
 41
3.0
 42
2.0
 44
0.0
 73
     0
 74
     0
 77
     1
140
2.799999999999998
141
1.0
146
0.0642857142857143
147
1.0
173
     1
174
     1
176
    60
177
    70
178
    60
271
     0
340
28
341
37
343
37
344
37
  0
DIMSTYLE
105
20E
102
{ACAD_REACTORS
330
1F9
330
213
102
}
330
35
100
AcDbSymbolTableRecord
100
AcDbDimStyleTableRecord
  2
STANDARD$0
 70
     0
 40
2.0
 41
1.0
 42
2.0
 43
0.0
 44
1.0
 73
     0
 74
     0
 77
     3
 78
     9
140
4.5
141
0.0
147
1.0
172
     1
173
     1
178
     3
271
     2
340
208
341
201
343
201
344
201
  0
ENDTAB
  0
TABLE
  2
BLOCK_RECORD
  5
1
330
0
100
AcDbSymbolTable
 70
     4
  0
BLOCK_RECORD
  5
2
102
{ACAD_XDICTIONARY
360
3
102
}
330
1
100
AcDbSymbolTableRecord
100
AcDbBlockTableRecord
  2
*MODEL_SPACE
340
1E
  0
BLOCK_RECORD
  5
20
102
{ACAD_XDICTIONARY
360
21
102
}
330
1
100
AcDbSymbolTableRecord
100
AcDbBlockTableRecord
  2
*PAPER_SPACE
340
25
  0
BLOCK_RECORD
  5
37
330
1
100
AcDbSymbolTableRecord
100
AcDbBlockTableRecord
  2
_DOTSMALL
340
0
  0
BLOCK_RECORD
  5
201
330
1
100
AcDbSymbolTableRecord
100
AcDbBlockTableRecord
  2
_DOT
340
0
102
{BLKREFS
331
200
331
206
331
219
331
21A
102
}
  0
BLOCK_RECORD
  5
214
330
1
100
AcDbSymbolTableRecord
100
AcDbBlockTableRecord
  2
*D2
340
0
  0
BLOCK_RECORD
  5
1FB
330
1
100
AcDbSymbolTableRecord
100
AcDbBlockTableRecord
  2
*D3
340
0
  0
ENDTAB
  0
ENDSEC
  0
SECTION
  2
BLOCKS
  0
BLOCK
  5
5
330
2
100
AcDbEntity
  8
0
100
AcDbBlockBegin
  2
*MODEL_SPACE
 70
     0
 10
0.0
 20
0.0
 30
0.0
  3
*MODEL_SPACE
  1

  0
ENDBLK
  5
1D
330
2
100
AcDbEntity
  8
0
100
AcDbBlockEnd
  0
BLOCK
  5
23
330
20
100
AcDbEntity
 67
     1
  8
0
100
AcDbBlockBegin
  2
*PAPER_SPACE
 70
     0
 10
0.0
 20
0.0
 30
0.0
  3
*PAPER_SPACE
  1

  0
ENDBLK
  5
24
330
20
100
AcDbEntity
 67
     1
  8
0
100
AcDbBlockEnd
  0
BLOCK
  5
38
330
37
100
AcDbEntity
  8
0
100
AcDbBlockBegin
  2
_DOTSMALL
 70
     0
 10
0.0
 20
0.0
 30
0.0
  3
_DOTSMALL
  1

  0
LWPOLYLINE
  5
39
330
37
100
AcDbEntity
  8
0
  6
ByBlock
 62
     0
100
AcDbPolyline
 90
        2
 70
     1
 43
0.5
 10
-0.0625
 20
0.0
 42
1.0
 10
0.0625
 20
0.0
 42
1.0
  0
ENDBLK
  5
3A
330
37
100
AcDbEntity
  8
0
100
AcDbBlockEnd
  0
BLOCK
  5
202
330
201
100
AcDbEntity
  8
0
100
AcDbBlockBegin
  2
_DOT
 70
     0
 10
0.0
 20
0.0
 30
0.0
  3
_DOT
  1

  0
LWPOLYLINE
  5
203
330
201
100
AcDbEntity
  8
0
  6
ByBlock
 62
     0
100
AcDbPolyline
 90
        2
 70
     1
 43
0.5
 10
-0.25
 20
0.0
 42
1.0
 10
0.25
 20
0.0
 42
1.0
  0
LINE
  5
204
330
201
100
AcDbEntity
  8
0
  6
ByBlock
 62
     0
100
AcDbLine
 10
-0.5
 20
0.0
 30
0.0
 11
-1.0
 21
0.0
 31
0.0
  0
ENDBLK
  5
205
330
201
100
AcDbEntity
  8
0
100
AcDbBlockEnd
  0
BLOCK
  5
215
330
214
100
AcDbEntity
  8
0
 62
     7
100
AcDbBlockBegin
  2
*D2
 70
     1
 10
0.0
 20
0.0
 30
0.0
  3
*D2
  1

  0
LINE
  5
216
330
214
100
AcDbEntity
  8
SUNPOU
 62
    70
370
    -2
100
AcDbLine
 10
26.922548529315
 20
143.4299967986674
 30
0.0
 11
26.922548529315
 21
169.2522099629369
 31
0.0
  0
LINE
  5
217
330
214
100
AcDbEntity
  8
SUNPOU
 62
    70
370
    -2
100
AcDbLine
 10
109.922548529315
 20
143.4299967986674
 30
0.0
 11
109.922548529315
 21
169.2522099629369
 31
0.0
  0
LINE
  5
218
330
214
100
AcDbEntity
  8
SUNPOU
 62
    60
370
    -2
100
AcDbLine
 10
27.92254852931499
 20
169.2522099629369
 30
0.0
 11
108.922548529315
 21
169.2522099629369
 31
0.0
  0
INSERT
  5
219
330
214
100
AcDbEntity
  8
SUNPOU
 62
    60
370
    -2
100
AcDbBlockReference
  2
_DOT
 10
26.922548529315
 20
169.2522099629369
 30
0.0
 50
180.0
  0
INSERT
  5
21A
330
214
100
AcDbEntity
  8
SUNPOU
 62
    60
370
    -2
100
AcDbBlockReference
  2
_DOT
 10
109.922548529315
 20
169.2522099629369
 30
0.0
  0
MTEXT
  5
21B
330
214
100
AcDbEntity
  8
SUNPOU
 62
    60
100
AcDbMText
 10
68.422548529315
 20
174.2522099629369
 30
0.0
 40
6.0
 41
0.0
 71
     5
 72
     1
  1
\A1;83
  7
LIFE
 73
     1
 44
1.0
1001
ACAD
1000
MTEXTBEGIN
1070
    73
1070
     1
1070
    44
1040
1.0
1070
    74
1070
     0
1000
MTEXTEND
  0
POINT
  5
21C
330
214
100
AcDbEntity
  8
DEFPOINTS
 62
     0
100
AcDbPoint
 10
26.922548529315
 20
141.4299967986674
 30
0.0
  0
POINT
  5
21D
330
214
100
AcDbEntity
  8
DEFPOINTS
 62
     0
100
AcDbPoint
 10
109.922548529315
 20
141.4299967986674
 30
0.0
  0
POINT
  5
21E
330
214
100
AcDbEntity
  8
DEFPOINTS
 62
     0
100
AcDbPoint
 10
109.922548529315
 20
169.2522099629369
 30
0.0
  0
ENDBLK
  5
21F
330
214
100
AcDbEntity
  8
0
 62
     7
100
AcDbBlockEnd
  0
BLOCK
  5
1FC
330
1FB
100
AcDbEntity
  8
0
 62
     7
100
AcDbBlockBegin
  2
*D3
 70
     1
 10
0.0
 20
0.0
 30
0.0
  3
*D3
  1

  0
LINE
  5
1FD
330
1FB
100
AcDbEntity
  8
SUNPOU
 62
    70
370
    -2
100
AcDbLine
 10
24.922548529315
 20
141.4299967986672
 30
0.0
 11
12.01267622202574
 21
141.4299967986672
 31
0.0
  0
LINE
  5
1FE
330
1FB
100
AcDbEntity
  8
SUNPOU
 62
    70
370
    -2
100
AcDbLine
 10
24.922548529315
 20
28.42999679866738
 30
0.0
 11
12.01267622202571
 21
28.42999679866738
 31
0.0
  0
LINE
  5
1FF
330
1FB
100
AcDbEntity
  8
SUNPOU
 62
    60
370
    -2
100
AcDbLine
 10
12.01267622202574
 20
140.4299967986672
 30
0.0
 11
12.01267622202571
 21
29.42999679866738
 31
0.0
  0
INSERT
  5
200
330
1FB
100
AcDbEntity
  8
SUNPOU
 62
    60
370
    -2
100
AcDbBlockReference
  2
_DOT
 10
12.01267622202574
 20
141.4299967986672
 30
0.0
 50
90.0
  0
INSERT
  5
206
330
1FB
100
AcDbEntity
  8
SUNPOU
 62
    60
370
    -2
100
AcDbBlockReference
  2
_DOT
 10
12.01267622202571
 20
28.42999679866738
 30
0.0
 50
270.0
  0
MTEXT
  5
207
330
1FB
100
AcDbEntity
  8
SUNPOU
 62
    60
100
AcDbMText
 10
7.012676222025715
 20
84.92999679866732
 30
0.0
 40
6.0
 41
0.0
 71
     5
 72
     1
  1
\A1;113
  7
LIFE
 11
0.0000000000000001
 21
1.0
 31
0.0
 73
     1
 44
1.0
1001
ACAD
1000
MTEXTBEGIN
1070
    73
1070
     1
1070
    44
1040
1.0
1070
    74
1070
     0
1000
MTEXTEND
  0
POINT
  5
209
330
1FB
100
AcDbEntity
  8
DEFPOINTS
 62
     0
100
AcDbPoint
 10
26.922548529315
 20
141.4299967986672
 30
0.0
  0
POINT
  5
20B
330
1FB
100
AcDbEntity
  8
DEFPOINTS
 62
     0
100
AcDbPoint
 10
26.922548529315
 20
28.42999679866738
 30
0.0
  0
POINT
  5
20C
330
1FB
100
AcDbEntity
  8
DEFPOINTS
 62
     0
100
AcDbPoint
 10
12.01267622202571
 20
28.42999679866738
 30
0.0
  0
ENDBLK
  5
20D
330
1FB
100
AcDbEntity
  8
0
 62
     7
100
AcDbBlockEnd
  0
ENDSEC
  0
SECTION
  2
ENTITIES
  0
ARC
  5
61
330
2
100
AcDbEntity
  8
KIJUN
 62
     7
100
AcDbCircle
 10
206.8090814026203
 20
34.16229438243204
 30
0.0
 40
3.5
100
AcDbArc
 50
57.28815469985518
 51
138.1385545823905
  0
ARC
  5
63
330
2
100
AcDbEntity
  8
KIJUN
 62
     7
100
AcDbCircle
 10
206.8090814026203
 20
34.16229438243204
 30
0.0
 40
3.5
100
AcDbArc
 50
221.8614454176095
 51
302.7118453001448
  0
ARC
  5
64
330
2
100
AcDbEntity
  8
KIJUN
 62
     7
100
AcDbCircle
 10
204.7695924142931
 20
118.3555030672151
 30
0.0
 40
5.484328245193591
100
AcDbArc
 50
285.1725113175716
 51
354.1578967632868
  0
ARC
  5
65
330
2
100
AcDbEntity
  8
KIJUN
 62
     7
100
AcDbCircle
 10
203.8360230245956
 20
119.9695808832013
 30
0.0
 40
5.408317591263967
100
AcDbArc
 50
293.2651449982468
 51
4.052774638057027
  0
ARC
  5
66
330
2
100
AcDbEntity
  8
KIJUN
 62
     7
100
AcDbCircle
 10
195.933006032326
 20
127.2332544572743
 30
0.0
 40
13.17970829986046
100
AcDbArc
 50
267.0968819594845
 51
355.7016354246842
  0
ARC
  5
67
330
2
100
AcDbEntity
  8
KIJUN
 62
     7
100
AcDbCircle
 10
205.2372425114414
 20
124.055073776704
 30
0.0
 40
8.013207475080267
100
AcDbArc
 50
74.85629356148513
 51
128.191616196307
  0
ARC
  5
68
330
2
100
AcDbEntity
  8
KIJUN
 62
     7
100
AcDbCircle
 10
208.1078936423897
 20
127.3896198488261
 30
0.0
 40
8.013207475080267
100
AcDbArc
 50
74.85629356148513
 51
138.4869192817196
  0
ARC
  5
69
330
2
100
AcDbEntity
  8
KIJUN
 62
     7
100
AcDbCircle
 10
191.3920095957736
 20
132.5728934067816
 30
0.0
 40
17.33691485514848
100
AcDbArc
 50
280.8140948409666
 51
3.95128060146229
  0
LWPOLYLINE
  5
6A
330
2
100
AcDbEntity
  8
KIJUN
 62
     7
100
AcDbPolyline
 90
        6
 70
     1
 43
0.0
 10
204.2516632670665
 20
47.69817956935934
 10
207.123481364852
 20
47.69817956935934
 10
207.9562051781823
 20
100.6216710037284
 42
0.4188292494842841
 10
206.956328942191
 20
101.637403540066
 10
204.4188232183318
 20
101.637403540066
 42
0.4188292076925493
 10
203.418946980103
 20
100.6216711459303
  0
LINE
  5
6B
330
2
100
AcDbEntity
  8
KIJUN
 62
     7
100
AcDbLine
 10
397.7012713018618
 20
46.15843543805408
 30
0.0
 11
147.7012713018618
 21
46.15843543805408
 31
0.0
  0
LINE
  5
6C
330
2
100
AcDbEntity
  8
KIJUN
 62
     7
100
AcDbLine
 10
397.7012713018622
 20
38.63148188842
 30
0.0
 11
147.701271301862
 21
38.63148188841956
 31
0.0
  0
LINE
  5
6D
330
2
100
AcDbEntity
  8
KIJUN
 62
     7
100
AcDbLine
 10
397.701271301862
 20
111.9299967986672
 30
0.0
 11
147.7012713018618
 21
111.9299967986669
 31
0.0
  0
LINE
  5
6E
330
2
100
AcDbEntity
  8
KIJUN
 62
     7
100
AcDbLine
 10
397.7012713018618
 20
103.3652111651665
 30
0.0
 11
147.7012713018616
 21
103.3652111651665
 31
0.0
  0
LINE
  5
6F
330
2
100
AcDbEntity
  8
KIJUN
 62
     7
100
AcDbLine
 10
397.7012713018618
 20
106.4299967986672
 30
0.0
 11
147.7012713018618
 21
106.4299967986668
 31
0.0
  0
LINE
  5
70
330
2
100
AcDbEntity
  8
KIJUN
 62
     7
100
AcDbLine
 10
397.701271301862
 20
137.3707587209615
 30
0.0
 11
147.701271301862
 21
137.3707587209611
 31
0.0
  0
LINE
  5
71
330
2
100
AcDbEntity
  8
KIJUN
 62
     7
100
AcDbLine
 10
397.701271301862
 20
28.42999679866693
 30
0.0
 11
147.7012713018618
 21
28.42999679866786
 31
0.0
  0
LINE
  5
72
330
2
100
AcDbEntity
  8
KIJUN
 62
     7
100
AcDbLine
 10
397.701271301862
 20
141.4299967986679
 30
0.0
 11
147.7012713018618
 21
141.4299967986679
 31
0.0
  0
LWPOLYLINE
  5
73
330
2
100
AcDbEntity
  8
KIJUN
 62
     7
100
AcDbPolyline
 90
        6
 70
     1
 43
0.0
 10
149.7370489387821
 20
47.69817956935934
 10
152.6088670365674
 20
47.69817956935934
 10
153.4415908498978
 20
100.6216710037284
 42
0.4188292494843214
 10
152.4417146139064
 20
101.637403540066
 10
149.9042088900468
 20
101.637403540065
 42
0.4188292076925117
 10
148.9043326518181
 20
100.6216711459293
  0
LWPOLYLINE
  5
74
330
2
100
AcDbEntity
  8
KIJUN
 62
     7
100
AcDbPolyline
 90
        6
 70
     1
 43
0.0
 10
194.5697733200776
 20
47.69817956935934
 10
197.4415914178629
 20
47.69817956935934
 10
198.2743152311934
 20
100.6216710037279
 42
0.4188292494842841
 10
197.2744389952021
 20
101.6374035400655
 10
194.7369332713427
 20
101.637403540066
 42
0.4188292076925493
 10
193.737057033114
 20
100.6216711459303
  0
LWPOLYLINE
  5
75
330
2
100
AcDbEntity
  8
KIJUN
 62
     7
100
AcDbPolyline
 90
        6
 70
     1
 43
0.0
 10
184.8878833730886
 20
47.69817956935934
 10
187.7597014708739
 20
47.69817956935934
 10
188.5924252842045
 20
100.6216710037284
 42
0.4188292494842841
 10
187.5925490482133
 20
101.637403540066
 10
185.055043324354
 20
101.637403540066
 42
0.4188292076925493
 10
184.0551670861252
 20
100.6216711459303
  0
LWPOLYLINE
  5
76
330
2
100
AcDbEntity
  8
KIJUN
 62
     7
100
AcDbPolyline
 90
        6
 70
     1
 43
0.0
 10
175.7293446353059
 20
47.69817956935934
 10
178.6011627330912
 20
47.69817956935934
 10
179.4338865464218
 20
100.6216710037284
 42
0.4188292494842841
 10
178.4340103104306
 20
101.637403540066
 10
175.8965045865711
 20
101.637403540066
 42
0.4188292076925493
 10
174.8966283483422
 20
100.6216711459303
  0
LWPOLYLINE
  5
77
330
2
100
AcDbEntity
  8
KIJUN
 62
     7
100
AcDbPolyline
 90
        6
 70
     1
 43
0.0
 10
166.5708058975232
 20
47.69817956935934
 10
169.4426239953085
 20
47.69817956935934
 10
170.2753478086392
 20
100.6216710037284
 42
0.4188292494843214
 10
169.2754715726477
 20
101.637403540066
 10
166.7379658487879
 20
101.637403540065
 42
0.4188292076925117
 10
165.7380896105593
 20
100.6216711459293
  0
LWPOLYLINE
  5
78
330
2
100
AcDbEntity
  8
KIJUN
 62
     7
100
AcDbPolyline
 90
        6
 70
     1
 43
0.0
 10
158.8955876765648
 20
47.69817956935934
 10
161.7674057743501
 20
47.69817956935934
 10
162.6001295876806
 20
100.6216710037284
 42
0.4188292494843214
 10
161.6002533516893
 20
101.637403540066
 10
159.0627476278295
 20
101.637403540065
 42
0.4188292076925117
 10
158.0628713896009
 20
100.6216711459293
  0
ARC
  5
79
330
2
100
AcDbEntity
  8
KIJUN
 62
     7
100
AcDbCircle
 10
155.9137364432271
 20
38.77535107481459
 30
0.0
 40
3.0
100
AcDbArc
 50
225.2105954800058
 51
314.7894045199941
  0
ARC
  5
7A
330
2
100
AcDbEntity
  8
KIJUN
 62
     7
100
AcDbCircle
 10
155.9137364432271
 20
29.5492376900495
 30
0.0
 40
3.0
100
AcDbArc
 50
45.21059548000587
 51
134.789404519994
  0
ARC
  5
7B
330
2
100
AcDbEntity
  8
KIJUN
 62
     7
100
AcDbCircle
 10
192.2862464821368
 20
38.4999494820911
 30
0.0
 40
3.0
100
AcDbArc
 50
221.8614454176094
 51
318.1385545823906
  0
ARC
  5
7C
330
2
100
AcDbEntity
  8
KIJUN
 62
     7
100
AcDbCircle
 10
192.2862464821368
 20
29.82463928277298
 30
0.0
 40
3.0
100
AcDbArc
 50
41.86144541760937
 51
138.1385545823906
  0
ARC
  5
7D
330
2
100
AcDbEntity
  8
KIJUN
 62
     7
100
AcDbCircle
 10
164.9414450518037
 20
38.90163909777288
 30
0.0
 40
3.0
100
AcDbArc
 50
226.8135047225718
 51
313.1864952774282
  0
ARC
  5
7E
330
2
100
AcDbEntity
  8
KIJUN
 62
     7
100
AcDbCircle
 10
182.866032139751
 20
29.5492376900495
 30
0.0
 40
3.0
100
AcDbArc
 50
45.21059548000587
 51
134.789404519994
  0
ARC
  5
7F
330
2
100
AcDbEntity
  8
KIJUN
 62
     7
100
AcDbCircle
 10
173.8383235311743
 20
38.90163909777288
 30
0.0
 40
3.0
100
AcDbArc
 50
226.8135047225718
 51
313.1864952774282
  0
ARC
  5
80
330
2
100
AcDbEntity
  8
KIJUN
 62
     7
100
AcDbCircle
 10
182.866032139751
 20
38.77535107481459
 30
0.0
 40
3.0
100
AcDbArc
 50
225.2105954800058
 51
314.7894045199941
  0
ARC
  5
81
330
2
100
AcDbEntity
  8
KIJUN
 62
     7
100
AcDbCircle
 10
201.9681364291258
 20
29.82463928277298
 30
0.0
 40
3.0
100
AcDbArc
 50
41.86144541760937
 51
138.1385545823906
  0
ARC
  5
82
330
2
100
AcDbEntity
  8
KIJUN
 62
     7
100
AcDbCircle
 10
201.9681364291258
 20
38.4999494820911
 30
0.0
 40
3.0
100
AcDbArc
 50
221.8614454176094
 51
318.1385545823906
  0
ARC
  5
83
330
2
100
AcDbEntity
  8
KIJUN
 62
     7
100
AcDbCircle
 10
146.4935221008412
 20
29.82463928277298
 30
0.0
 40
3.0
100
AcDbArc
 50
41.86144541760937
 51
66.26024190173516
  0
ARC
  5
84
330
2
100
AcDbEntity
  8
KIJUN
 62
     7
100
AcDbCircle
 10
146.4935221008412
 20
38.4999494820911
 30
0.0
 40
3.0
100
AcDbArc
 50
293.7397580982649
 51
318.1385545823906
  0
ARC
  5
85
330
2
100
AcDbEntity
  8
KIJUN
 62
     7
100
AcDbCircle
 10
151.3344670743358
 20
34.16229438243204
 30
0.0
 40
3.5
100
AcDbArc
 50
45.2105954800094
 51
138.1385545823905
  0
ARC
  5
86
330
2
100
AcDbEntity
  8
KIJUN
 62
     7
100
AcDbCircle
 10
151.3344670743358
 20
34.16229438243204
 30
0.0
 40
3.5
100
AcDbArc
 50
221.8614454176095
 51
314.7894045199906
  0
ARC
  5
87
330
2
100
AcDbEntity
  8
KIJUN
 62
     7
100
AcDbCircle
 10
160.4930058121185
 20
34.16229438243204
 30
0.0
 40
3.5
100
AcDbArc
 50
225.2105954800094
 51
313.1864952774153
  0
ARC
  5
88
330
2
100
AcDbEntity
  8
KIJUN
 62
     7
100
AcDbCircle
 10
160.4930058121185
 20
34.16229438243204
 30
0.0
 40
3.5
100
AcDbArc
 50
46.81350472258464
 51
134.7894045199903
  0
ARC
  5
89
330
2
100
AcDbEntity
  8
KIJUN
 62
     7
100
AcDbCircle
 10
164.9414450518037
 20
29.42294966709119
 30
0.0
 40
3.0
100
AcDbArc
 50
46.81350472257181
 51
133.1864952774278
  0
ARC
  5
8A
330
2
100
AcDbEntity
  8
KIJUN
 62
     7
100
AcDbCircle
 10
173.8383235311743
 20
29.42294966709119
 30
0.0
 40
3.0
100
AcDbArc
 50
46.81350472257181
 51
133.1864952774278
  0
ARC
  5
8B
330
2
100
AcDbEntity
  8
KIJUN
 62
     7
100
AcDbCircle
 10
178.2867627708595
 20
34.16229438243204
 30
0.0
 40
3.5
100
AcDbArc
 50
45.2105954800094
 51
133.1864952774153
  0
ARC
  5
8C
330
2
100
AcDbEntity
  8
KIJUN
 62
     7
100
AcDbCircle
 10
178.2867627708595
 20
34.16229438243204
 30
0.0
 40
3.5
100
AcDbArc
 50
226.8135047225846
 51
314.7894045199906
  0
ARC
  5
8D
330
2
100
AcDbEntity
  8
KIJUN
 62
     7
100
AcDbCircle
 10
169.389884291489
 20
34.16229438243204
 30
0.0
 40
3.5
100
AcDbArc
 50
226.8135047225846
 51
313.1864952774153
  0
ARC
  5
8E
330
2
100
AcDbEntity
  8
KIJUN
 62
     7
100
AcDbCircle
 10
169.389884291489
 20
34.16229438243204
 30
0.0
 40
3.5
100
AcDbArc
 50
46.81350472258464
 51
133.1864952774153
  0
ARC
  5
8F
330
2
100
AcDbEntity
  8
KIJUN
 62
     7
100
AcDbCircle
 10
187.4453015086422
 20
34.16229438243204
 30
0.0
 40
3.5
100
AcDbArc
 50
225.2105954800094
 51
318.1385545823904
  0
ARC
  5
90
330
2
100
AcDbEntity
  8
KIJUN
 62
     7
100
AcDbCircle
 10
187.4453015086422
 20
34.16229438243204
 30
0.0
 40
3.5
100
AcDbArc
 50
41.8614454176095
 51
134.7894045199903
  0
ARC
  5
91
330
2
100
AcDbEntity
  8
KIJUN
 62
     7
100
AcDbCircle
 10
197.1271914556313
 20
34.16229438243204
 30
0.0
 40
3.5
100
AcDbArc
 50
41.8614454176095
 51
138.1385545823905
  0
ARC
  5
92
330
2
100
AcDbEntity
  8
KIJUN
 62
     7
100
AcDbCircle
 10
197.1271914556313
 20
34.16229438243204
 30
0.0
 40
3.5
100
AcDbArc
 50
221.8614454176095
 51
318.1385545823904
  0
ARC
  5
93
330
2
100
AcDbEntity
  8
KIJUN
 62
     7
100
AcDbCircle
 10
160.5880833615664
 20
127.6904353826423
 30
0.0
 40
7.319559518041962
100
AcDbArc
 50
154.1024000153694
 51
238.6802529246605
  0
ARC
  5
94
330
2
100
AcDbEntity
  8
KIJUN
 62
     7
100
AcDbCircle
 10
158.7424622645896
 20
120.8081494773729
 30
0.0
 40
15.7294499384014
100
AcDbArc
 50
64.23590943784005
 51
118.5922411704889
  0
ARC
  5
95
330
2
100
AcDbEntity
  8
KIJUN
 62
     7
100
AcDbCircle
 10
166.4815697463693
 20
114.0786362054906
 30
0.0
 40
12.17413341898781
100
AcDbArc
 50
164.6523311925041
 51
169.8054813610707
  0
ARC
  5
96
330
2
100
AcDbEntity
  8
KIJUN
 62
     7
100
AcDbCircle
 10
155.4838474584389
 20
116.056352601464
 30
0.0
 40
1.0
100
AcDbArc
 50
169.8054813610612
 51
251.6247099390849
  0
ARC
  5
97
330
2
100
AcDbEntity
  8
KIJUN
 62
     7
100
AcDbCircle
 10
152.3839332506313
 20
121.0366467175896
 30
0.0
 40
4.417566739525923
100
AcDbArc
 50
248.0357044355556
 51
5.206015507681165
  0
ARC
  5
98
330
2
100
AcDbEntity
  8
KIJUN
 62
     7
100
AcDbCircle
 10
147.4024109297185
 20
116.9012248263836
 30
0.0
 40
18.12364078034088
100
AcDbArc
 50
77.85696117774789
 51
89.05514491638227
  0
ARC
  5
99
330
2
100
AcDbEntity
  8
KIJUN
 62
     7
100
AcDbCircle
 10
165.7922812864171
 20
125.3745738558801
 30
0.0
 40
17.26180148223639
100
AcDbArc
 50
147.617890617474
 51
209.25141241
  0
ARC
  5
9A
330
2
100
AcDbEntity
  8
KIJUN
 62
     7
100
AcDbCircle
 10
197.2384784754069
 20
174.2251089711329
 30
0.0
 40
41.65093968815511
100
AcDbArc
 50
256.7077157004144
 51
267.8190360875232
  0
ARC
  5
9B
330
2
100
AcDbEntity
  8
KIJUN
 62
     7
100
AcDbCircle
 10
191.7186150885401
 20
121.8505089723032
 30
0.0
 40
14.43067592024489
100
AcDbArc
 50
63.59498334698074
 51
107.1436843013402
  0
LINE
  5
9C
330
2
100
AcDbEntity
  8
KIJUN
 62
     7
100
AcDbLine
 10
196.8208916299251
 20
125.6891955986771
 30
0.0
 11
185.258466784124
 21
125.6891955986771
 31
0.0
  0
LINE
  5
9D
330
2
100
AcDbEntity
  8
KIJUN
 62
     7
100
AcDbLine
 10
185.1212329818642
 20
123.1767951860754
 30
0.0
 11
196.6496266332273
 21
123.1767951860762
 31
0.0
  0
ARC
  5
9E
330
2
100
AcDbEntity
  8
KIJUN
 62
     7
100
AcDbCircle
 10
189.8490213349442
 20
120.770328685786
 30
0.0
 40
8.495412982371481
100
AcDbArc
 50
252.6083417380519
 51
309.6112089164015
  0
ARC
  5
9F
330
2
100
AcDbEntity
  8
KIJUN
 62
     7
100
AcDbCircle
 10
182.7216870077837
 20
132.0532951648475
 30
0.0
 40
16.720559088529
100
AcDbArc
 50
256.7701001691792
 51
320.2429444148837
  0
ARC
  5
A0
330
2
100
AcDbEntity
  8
KIJUN
 62
     7
100
AcDbCircle
 10
165.3128818357272
 20
133.7864662495731
 30
0.0
 40
3.446890786464648
100
AcDbArc
 50
216.686427312358
 51
274.7707595607719
  0
ARC
  5
A1
330
2
100
AcDbEntity
  8
KIJUN
 62
     7
100
AcDbCircle
 10
169.4372947501228
 20
125.9510554117515
 30
0.0
 40
9.813005727040293
100
AcDbArc
 50
74.42254836687969
 51
133.6808136108276
  0
ARC
  5
A2
330
2
100
AcDbEntity
  8
KIJUN
 62
     7
100
AcDbCircle
 10
163.3506780470549
 20
132.3246075653611
 30
0.0
 40
1.0
100
AcDbArc
 50
133.6808136108273
 51
216.6864273123562
  0
ARC
  5
A3
330
2
100
AcDbEntity
  8
KIJUN
 62
     7
100
AcDbCircle
 10
173.3091372746789
 20
126.0548604309916
 30
0.0
 40
9.453205756517071
100
AcDbArc
 50
52.71586012013337
 51
108.1421424112397
  0
ARC
  5
A4
330
2
100
AcDbEntity
  8
KIJUN
 62
     7
100
AcDbCircle
 10
179.8971728821336
 20
134.0838347792765
 30
0.0
 40
1.0
100
AcDbArc
 50
107.3916582619514
 51
226.0597974067574
  0
ARC
  5
A5
330
2
100
AcDbEntity
  8
KIJUN
 62
     7
100
AcDbCircle
 10
180.9007543416511
 20
135.1252467021319
 30
0.0
 40
2.446276093611705
100
AcDbArc
 50
226.059797406758
 51
268.5429130808547
  0
ARC
  5
A6
330
2
100
AcDbEntity
  8
KIJUN
 62
     7
100
AcDbCircle
 10
181.8773248386617
 20
115.3517387599659
 30
0.0
 40
16.78683040343319
100
AcDbArc
 50
88.89338319228901
 51
99.00627298898292
  0
ARC
  5
A7
330
2
100
AcDbEntity
  8
KIJUN
 62
     7
100
AcDbCircle
 10
178.5376002088145
 20
125.0958419763616
 30
0.0
 40
6.872732664720181
100
AcDbArc
 50
84.05469909865081
 51
181.3895416542813
  0
ARC
  5
A8
330
2
100
AcDbEntity
  8
KIJUN
 62
     7
100
AcDbCircle
 10
200.4431598761247
 20
179.7908061107146
 30
0.0
 40
51.02735782587056
100
AcDbArc
 50
247.4060384353289
 51
258.8010373784094
  0
ARC
  5
A9
330
2
100
AcDbEntity
  8
KIJUN
 62
     7
100
AcDbCircle
 10
177.3172714444296
 20
123.0383911266883
 30
0.0
 40
5.45618292187305
100
AcDbArc
 50
182.0532537040376
 51
279.6170939252515
  0
ARC
  5
AA
330
2
100
AcDbEntity
  8
KIJUN
 62
     7
100
AcDbCircle
 10
182.4047283779956
 20
127.6335309897632
 30
0.0
 40
10.8135055293789
100
AcDbArc
 50
247.2831475282666
 51
317.1614875984693
  0
ARC
  5
AB
330
2
100
AcDbEntity
  8
KIJUN
 62
     7
100
AcDbCircle
 10
170.6645427260584
 20
134.0838347792765
 30
0.0
 40
1.0
100
AcDbArc
 50
107.3916582619514
 51
226.0597974067574
  0
ARC
  5
AC
330
2
100
AcDbEntity
  8
KIJUN
 62
     7
100
AcDbCircle
 10
171.668124185576
 20
135.1252467021319
 30
0.0
 40
2.446276093611705
100
AcDbArc
 50
226.059797406758
 51
290.7057657661603
  0
ARC
  5
AD
330
2
100
AcDbEntity
  8
KIJUN
 62
     7
100
AcDbCircle
 10
182.5202121080958
 20
127.724498352905
 30
0.0
 40
7.875708307650747
100
AcDbArc
 50
49.24047511140974
 51
111.7777206855944
  0
ARC
  5
AE
330
2
100
AcDbEntity
  8
KIJUN
 62
     7
100
AcDbCircle
 10
187.7339112907558
 20
134.7811535724941
 30
0.0
 40
0.9
100
AcDbArc
 50
107.3916582619514
 51
226.0597974067574
  0
ARC
  5
AF
330
2
100
AcDbEntity
  8
KIJUN
 62
     7
100
AcDbCircle
 10
188.6371346043217
 20
135.7184243030638
 30
0.0
 40
2.201648484250534
100
AcDbArc
 50
226.059797406758
 51
237.7778291626387
  0
ARC
  5
B0
330
2
100
AcDbEntity
  8
KIJUN
 62
     7
100
AcDbCircle
 10
172.6814276024928
 20
108.0672085983756
 30
0.0
 40
8.875744423320865
100
AcDbArc
 50
88.45342293228441
 51
129.1594084058411
  0
ARC
  5
B1
330
2
100
AcDbEntity
  8
KIJUN
 62
     7
100
AcDbCircle
 10
161.3713193677196
 20
133.7802632647591
 30
0.0
 40
19.67617023597296
100
AcDbArc
 50
251.6247099390815
 51
286.8554081818544
  0
ARC
  5
B2
330
2
100
AcDbEntity
  8
KIJUN
 62
     7
100
AcDbCircle
 10
160.8304562143602
 20
136.3272171643512
 30
0.0
 40
20.22579259963039
100
AcDbArc
 50
261.5818275840422
 51
300.3787999076869
  0
LINE
  5
B3
330
2
100
AcDbEntity
  8
KIJUN
 62
     7
100
AcDbLine
 10
157.6398508306021
 20
123.1767951860754
 30
0.0
 11
168.951751511195
 21
123.1767951860762
 31
0.0
  0
LINE
  5
B4
330
2
100
AcDbEntity
  8
KIJUN
 62
     7
100
AcDbLine
 10
169.1230165078929
 20
125.6891955986771
 30
0.0
 11
158.2993647406046
 21
125.6891955986771
 31
0.0
  0
ARC
  5
B5
330
2
100
AcDbEntity
  8
KIJUN
 62
     7
100
AcDbCircle
 10
144.75874727604
 20
206.4863154109326
 30
0.0
 40
81.91961160323582
100
AcDbArc
 50
280.4400601159104
 51
286.3360795786631
  0
ARC
  5
B6
330
2
100
AcDbEntity
  8
KIJUN
 62
     7
100
AcDbCircle
 10
153.9312546626042
 20
128.2212477156086
 30
0.0
 40
4.584595732755333
100
AcDbArc
 50
347.8146658411333
 51
55.15774551494153
  0
ARC
  5
B7
330
2
100
AcDbEntity
  8
KIJUN
 62
     7
100
AcDbCircle
 10
147.1024566366981
 20
127.2856606398641
 30
0.0
 40
11.31014817387736
100
AcDbArc
 50
328.8638563519705
 51
359.8373616923252
  0
ARC
  5
B8
330
2
100
AcDbEntity
  8
KIJUN
 62
     7
100
AcDbCircle
 10
173.0319064448628
 20
122.2730008110757
 30
0.0
 40
9.439347758190537
100
AcDbArc
 50
230.8830501506033
 51
309.6112089164015
  0
ARC
  5
B9
330
2
100
AcDbEntity
  8
KIJUN
 62
     7
100
AcDbCircle
 10
165.2108006952748
 20
126.6889095215653
 30
0.0
 40
6.821650273490255
100
AcDbArc
 50
112.482854299298
 51
175.2520409522292
  0
ARC
  5
BA
330
2
100
AcDbEntity
  8
KIJUN
 62
     7
100
AcDbCircle
 10
190.9156991889973
 20
141.3898157675481
 30
0.0
 40
14.6993210851798
100
AcDbArc
 50
241.316632716773
 51
266.9940796181872
  0
ARC
  5
BB
330
2
100
AcDbEntity
  8
KIJUN
 62
     7
100
AcDbCircle
 10
182.6937848674794
 20
124.5693369130383
 30
0.0
 40
2.798513321276789
100
AcDbArc
 50
329.370303368148
 51
119.6126507132602
  0
ARC
  5
BC
330
2
100
AcDbEntity
  8
KIJUN
 62
     7
100
AcDbCircle
 10
181.5533319694597
 20
125.2445969616498
 30
0.0
 40
4.123884569588327
100
AcDbArc
 50
256.295863491485
 51
329.3703033681438
  0
ARC
  5
BD
330
2
100
AcDbEntity
  8
KIJUN
 62
     7
100
AcDbCircle
 10
179.8987060999147
 20
142.3008920655348
 30
0.0
 40
21.07367894541674
100
AcDbArc
 50
246.4775596511076
 51
271.8427159011838
  0
ARC
  5
BE
330
2
100
AcDbEntity
  8
KIJUN
 62
     7
100
AcDbCircle
 10
181.2087543588156
 20
103.8970091707384
 30
0.0
 40
23.10554160136256
100
AcDbArc
 50
89.74659339258636
 51
114.9795156928596
  0
ARC
  5
BF
330
2
100
AcDbEntity
  8
KIJUN
 62
     7
100
AcDbCircle
 10
187.5787382634009
 20
113.5221486971379
 30
0.0
 40
0.9
100
AcDbArc
 50
133.9402025932425
 51
252.6083417380485
  0
ARC
  5
C0
330
2
100
AcDbEntity
  8
KIJUN
 62
     7
100
AcDbCircle
 10
188.4819615769666
 20
112.584877966568
 30
0.0
 40
2.201648484250534
100
AcDbArc
 50
122.2221708373609
 51
133.9402025932419
  0
ARC
  5
C1
330
2
100
AcDbEntity
  8
KIJUN
 62
     7
100
AcDbCircle
 10
193.1278594770273
 20
101.0349991176682
 30
0.0
 40
14.69573145367693
100
AcDbArc
 50
93.7680902668205
 51
112.4876369308762
  0
ARC
  5
C2
330
2
100
AcDbEntity
  8
KIJUN
 62
     7
100
AcDbCircle
 10
182.3650390807407
 20
120.5788039167269
 30
0.0
 40
7.875708307650747
100
AcDbArc
 50
248.2222793144056
 51
310.7595248885902
  0
ARC
  5
C3
330
2
100
AcDbEntity
  8
KIJUN
 62
     7
100
AcDbCircle
 10
179.7419998547786
 20
114.2194674903554
 30
0.0
 40
1.0
100
AcDbArc
 50
133.9402025932425
 51
252.6083417380485
  0
ARC
  5
C4
330
2
100
AcDbEntity
  8
KIJUN
 62
     7
100
AcDbCircle
 10
179.595842918281
 20
120.4453396798628
 30
0.0
 40
9.108959502469156
100
AcDbArc
 50
62.08372592470459
 51
150.5117480352401
  0
ARC
  5
C5
330
2
100
AcDbEntity
  8
KIJUN
 62
     7
100
AcDbCircle
 10
171.8330918944063
 20
123.9169342241139
 30
0.0
 40
1.0
100
AcDbArc
 50
112.4374150629141
 51
249.8142898568517
  0
ARC
  5
C6
330
2
100
AcDbEntity
  8
KIJUN
 62
     7
100
AcDbCircle
 10
204.2787672982766
 20
146.6460197359625
 30
0.0
 40
13.3655183979464
100
AcDbArc
 50
242.6394630727162
 51
263.517605823178
  0
ARC
  5
C7
330
2
100
AcDbEntity
  8
KIJUN
 62
     7
100
AcDbCircle
 10
210.8746870046797
 20
115.9384091452485
 30
0.0
 40
5.484328245193591
100
AcDbArc
 50
142.6434666143504
 51
211.6288520600667
  0
ARC
  5
C8
330
2
100
AcDbEntity
  8
KIJUN
 62
     7
100
AcDbCircle
 10
198.4686076336527
 20
125.3314992236961
 30
0.0
 40
4.913395568789728
100
AcDbArc
 50
233.9314951927971
 51
347.0355719162374
  0
ARC
  5
C9
330
2
100
AcDbEntity
  8
KIJUN
 62
     7
100
AcDbCircle
 10
199.3812729714283
 20
126.6551331146898
 30
0.0
 40
4.572149173956802
100
AcDbArc
 50
238.872439864741
 51
327.954698041567
  0
ARC
  5
CA
330
2
100
AcDbEntity
  8
KIJUN
 62
     7
100
AcDbCircle
 10
202.8563728582477
 20
132.0379107758491
 30
0.0
 40
1.0
100
AcDbArc
 50
138.4869192817192
 51
218.3904959070756
  0
ARC
  5
CB
330
2
100
AcDbEntity
  8
KIJUN
 62
     7
100
AcDbCircle
 10
203.0209391540632
 20
130.5417393103731
 30
0.0
 40
3.333237149453593
100
AcDbArc
 50
204.6910957751034
 51
309.0042214434022
  0
ARC
  5
CC
330
2
100
AcDbEntity
  8
KIJUN
 62
     7
100
AcDbCircle
 10
200.9010226290783
 20
129.5670857705518
 30
0.0
 40
1.0
100
AcDbArc
 50
128.1916161963108
 51
204.6910957751101
  0
ARC
  5
CD
330
2
100
AcDbEntity
  8
KIJUN
 62
     7
100
AcDbCircle
 10
203.5268863987918
 20
122.2393986404546
 30
0.0
 40
7.541317185547331
100
AcDbArc
 50
117.1044699671501
 51
155.4985855593988
  0
ARC
  5
CE
330
2
100
AcDbEntity
  8
KIJUN
 62
     7
100
AcDbCircle
 10
198.3729668750949
 20
124.2600727811715
 30
0.0
 40
2.035532347391157
100
AcDbArc
 50
147.0604530754157
 51
228.2567697836013
  0
ARC
  5
CF
330
2
100
AcDbEntity
  8
KIJUN
 62
     7
100
AcDbCircle
 10
389.468136429126
 20
38.49994948209064
 30
0.0
 40
3.0
100
AcDbArc
 50
221.8614454176094
 51
318.1385545823906
  0
ARC
  5
D0
330
2
100
AcDbEntity
  8
KIJUN
 62
     7
100
AcDbCircle
 10
389.468136429126
 20
29.82463928277253
 30
0.0
 40
3.0
100
AcDbArc
 50
41.86144541760937
 51
138.1385545823906
  0
ARC
  5
D1
330
2
100
AcDbEntity
  8
KIJUN
 62
     7
100
AcDbCircle
 10
391.7787672982769
 20
146.6460197359621
 30
0.0
 40
13.3655183979464
100
AcDbArc
 50
242.6394630727162
 51
263.517605823178
  0
ARC
  5
D2
330
2
100
AcDbEntity
  8
KIJUN
 62
     7
100
AcDbCircle
 10
383.4330060323263
 20
127.2332544572738
 30
0.0
 40
13.17970829986046
100
AcDbArc
 50
267.0968819594845
 51
355.7016354246842
  0
ARC
  5
D3
330
2
100
AcDbEntity
  8
KIJUN
 62
     7
100
AcDbCircle
 10
385.9686076336532
 20
125.3314992236956
 30
0.0
 40
4.913395568789728
100
AcDbArc
 50
233.9314951927971
 51
347.0355719162374
  0
ARC
  5
D4
330
2
100
AcDbEntity
  8
KIJUN
 62
     7
100
AcDbCircle
 10
386.8812729714285
 20
126.6551331146894
 30
0.0
 40
4.572149173956802
100
AcDbArc
 50
238.872439864741
 51
327.954698041567
  0
ARC
  5
D5
330
2
100
AcDbEntity
  8
KIJUN
 62
     7
100
AcDbCircle
 10
392.7372425114416
 20
124.0550737767035
 30
0.0
 40
8.013207475080267
100
AcDbArc
 50
74.85629356148513
 51
128.191616196307
  0
ARC
  5
D6
330
2
100
AcDbEntity
  8
KIJUN
 62
     7
100
AcDbCircle
 10
390.5209391540635
 20
130.5417393103726
 30
0.0
 40
3.333237149453593
100
AcDbArc
 50
204.6910957751034
 51
309.0042214434022
  0
ARC
  5
D7
330
2
100
AcDbEntity
  8
KIJUN
 62
     7
100
AcDbCircle
 10
395.60789364239
 20
127.3896198488257
 30
0.0
 40
8.013207475080267
100
AcDbArc
 50
74.85629356148513
 51
138.4869192817196
  0
ARC
  5
D8
330
2
100
AcDbEntity
  8
KIJUN
 62
     7
100
AcDbCircle
 10
378.8920095957739
 20
132.5728934067811
 30
0.0
 40
17.33691485514848
100
AcDbArc
 50
280.8140948409666
 51
3.95128060146229
  0
LWPOLYLINE
  5
D9
330
2
100
AcDbEntity
  8
KIJUN
 62
     7
100
AcDbPolyline
 90
        6
 70
     1
 43
0.0
 10
238.229344635306
 20
47.69817956935934
 10
241.1011627330912
 20
47.69817956935934
 10
241.9338865464218
 20
100.6216710037284
 42
0.4188292494842841
 10
240.9340103104306
 20
101.637403540066
 10
238.396504586571
 20
101.637403540066
 42
0.4188292076925493
 10
237.3966283483422
 20
100.6216711459303
  0
LWPOLYLINE
  5
DA
330
2
100
AcDbEntity
  8
KIJUN
 62
     7
100
AcDbPolyline
 90
        6
 70
     1
 43
0.0
 10
229.0708058975232
 20
47.69817956935934
 10
231.9426239953085
 20
47.69817956935934
 10
232.7753478086391
 20
100.6216710037284
 42
0.4188292494843214
 10
231.7754715726477
 20
101.637403540066
 10
229.2379658487879
 20
101.637403540065
 42
0.4188292076925117
 10
228.2380896105593
 20
100.6216711459293
  0
LWPOLYLINE
  5
DB
330
2
100
AcDbEntity
  8
KIJUN
 62
     7
100
AcDbPolyline
 90
        6
 70
     1
 43
0.0
 10
247.3878833730886
 20
47.69817956935934
 10
250.2597014708739
 20
47.69817956935934
 10
251.0924252842045
 20
100.6216710037284
 42
0.4188292494842841
 10
250.0925490482133
 20
101.637403540066
 10
247.5550433243539
 20
101.637403540066
 42
0.4188292076925493
 10
246.5551670861251
 20
100.6216711459303
  0
LWPOLYLINE
  5
DC
330
2
100
AcDbEntity
  8
KIJUN
 62
     7
100
AcDbPolyline
 90
        6
 70
     1
 43
0.0
 10
257.0697733200776
 20
47.69817956935934
 10
259.9415914178629
 20
47.69817956935934
 10
260.7743152311932
 20
100.6216710037279
 42
0.4188292494842841
 10
259.7744389952021
 20
101.6374035400655
 10
257.2369332713428
 20
101.637403540066
 42
0.4188292076925493
 10
256.237057033114
 20
100.6216711459303
  0
LWPOLYLINE
  5
DD
330
2
100
AcDbEntity
  8
KIJUN
 62
     7
100
AcDbPolyline
 90
        6
 70
     1
 43
0.0
 10
266.7516632670666
 20
47.69817956935934
 10
269.623481364852
 20
47.69817956935934
 10
270.4562051781823
 20
100.6216710037284
 42
0.4188292494842841
 10
269.4563289421911
 20
101.637403540066
 10
266.9188232183318
 20
101.637403540066
 42
0.4188292076925493
 10
265.918946980103
 20
100.6216711459303
  0
LWPOLYLINE
  5
DE
330
2
100
AcDbEntity
  8
KIJUN
 62
     7
100
AcDbPolyline
 90
        6
 70
     1
 43
0.0
 10
212.237048938782
 20
47.69817956935934
 10
215.1088670365674
 20
47.69817956935934
 10
215.9415908498978
 20
100.6216710037284
 42
0.4188292494843214
 10
214.9417146139063
 20
101.637403540066
 10
212.4042088900468
 20
101.637403540065
 42
0.4188292076925117
 10
211.4043326518182
 20
100.6216711459293
  0
LWPOLYLINE
  5
DF
330
2
100
AcDbEntity
  8
KIJUN
 62
     7
100
AcDbPolyline
 90
        6
 70
     1
 43
0.0
 10
221.3955876765648
 20
47.69817956935934
 10
224.2674057743501
 20
47.69817956935934
 10
225.1001295876807
 20
100.6216710037284
 42
0.4188292494843214
 10
224.1002533516893
 20
101.637403540066
 10
221.5627476278295
 20
101.637403540065
 42
0.4188292076925117
 10
220.562871389601
 20
100.6216711459293
  0
LWPOLYLINE
  5
E0
330
2
100
AcDbEntity
  8
KIJUN
 62
     7
100
AcDbPolyline
 90
        6
 70
     1
 43
0.0
 10
283.895587676565
 20
47.6981795693589
 10
286.7674057743503
 20
47.6981795693589
 10
287.600129587681
 20
100.6216710037279
 42
0.4188292494843214
 10
286.6002533516895
 20
101.6374035400655
 10
284.0627476278297
 20
101.6374035400645
 42
0.4188292076925117
 10
283.0628713896011
 20
100.6216711459289
  0
LWPOLYLINE
  5
E1
330
2
100
AcDbEntity
  8
KIJUN
 62
     7
100
AcDbPolyline
 90
        6
 70
     1
 43
0.0
 10
291.5708058975234
 20
47.6981795693589
 10
294.4426239953088
 20
47.6981795693589
 10
295.2753478086394
 20
100.6216710037279
 42
0.4188292494843214
 10
294.2754715726479
 20
101.6374035400655
 10
291.7379658487881
 20
101.6374035400645
 42
0.4188292076925117
 10
290.7380896105595
 20
100.6216711459289
  0
LWPOLYLINE
  5
E2
330
2
100
AcDbEntity
  8
KIJUN
 62
     7
100
AcDbPolyline
 90
        6
 70
     1
 43
0.0
 10
300.7293446353061
 20
47.6981795693589
 10
303.6011627330915
 20
47.6981795693589
 10
304.433886546422
 20
100.6216710037279
 42
0.4188292494842841
 10
303.4340103104308
 20
101.6374035400655
 10
300.8965045865713
 20
101.6374035400655
 42
0.4188292076925493
 10
299.8966283483425
 20
100.6216711459297
  0
LWPOLYLINE
  5
E3
330
2
100
AcDbEntity
  8
KIJUN
 62
     7
100
AcDbPolyline
 90
        6
 70
     1
 43
0.0
 10
309.8878833730888
 20
47.6981795693589
 10
312.759701470874
 20
47.6981795693589
 10
313.5924252842047
 20
100.6216710037279
 42
0.4188292494842841
 10
312.5925490482135
 20
101.6374035400655
 10
310.0550433243542
 20
101.6374035400655
 42
0.4188292076925493
 10
309.0551670861255
 20
100.6216711459297
  0
LWPOLYLINE
  5
E4
330
2
100
AcDbEntity
  8
KIJUN
 62
     7
100
AcDbPolyline
 90
        6
 70
     1
 43
0.0
 10
319.569773320078
 20
47.6981795693589
 10
322.4415914178631
 20
47.6981795693589
 10
323.2743152311935
 20
100.6216710037275
 42
0.4188292494842841
 10
322.2744389952023
 20
101.637403540065
 10
319.736933271343
 20
101.6374035400655
 42
0.4188292076925493
 10
318.7370570331143
 20
100.6216711459297
  0
LWPOLYLINE
  5
E5
330
2
100
AcDbEntity
  8
KIJUN
 62
     7
100
AcDbPolyline
 90
        6
 70
     1
 43
0.0
 10
329.2516632670669
 20
47.6981795693589
 10
332.1234813648522
 20
47.6981795693589
 10
332.9562051781826
 20
100.6216710037279
 42
0.4188292494842841
 10
331.9563289421913
 20
101.6374035400655
 10
329.418823218332
 20
101.6374035400655
 42
0.4188292076925493
 10
328.4189469801032
 20
100.6216711459297
  0
LWPOLYLINE
  5
E6
330
2
100
AcDbEntity
  8
KIJUN
 62
     7
100
AcDbPolyline
 90
        6
 70
     1
 43
0.0
 10
274.7370489387823
 20
47.6981795693589
 10
277.6088670365676
 20
47.6981795693589
 10
278.4415908498981
 20
100.6216710037279
 42
0.4188292494843214
 10
277.4417146139066
 20
101.6374035400655
 10
274.904208890047
 20
101.6374035400645
 42
0.4188292076925117
 10
273.9043326518185
 20
100.6216711459289
  0
LWPOLYLINE
  5
E7
330
2
100
AcDbEntity
  8
KIJUN
 62
     7
100
AcDbPolyline
 90
        6
 70
     1
 43
0.0
 10
382.069773320078
 20
47.6981795693589
 10
384.9415914178633
 20
47.6981795693589
 10
385.7743152311935
 20
100.6216710037275
 42
0.4188292494842841
 10
384.7744389952023
 20
101.637403540065
 10
382.2369332713429
 20
101.6374035400655
 42
0.4188292076925493
 10
381.2370570331142
 20
100.6216711459297
  0
LWPOLYLINE
  5
E8
330
2
100
AcDbEntity
  8
KIJUN
 62
     7
100
AcDbPolyline
 90
        6
 70
     1
 43
0.0
 10
372.3878833730888
 20
47.6981795693589
 10
375.2597014708741
 20
47.6981795693589
 10
376.0924252842047
 20
100.6216710037279
 42
0.4188292494842841
 10
375.0925490482135
 20
101.6374035400655
 10
372.5550433243542
 20
101.6374035400655
 42
0.4188292076925493
 10
371.5551670861255
 20
100.6216711459297
  0
LWPOLYLINE
  5
E9
330
2
100
AcDbEntity
  8
KIJUN
 62
     7
100
AcDbPolyline
 90
        6
 70
     1
 43
0.0
 10
354.0708058975234
 20
47.6981795693589
 10
356.9426239953088
 20
47.6981795693589
 10
357.7753478086394
 20
100.6216710037279
 42
0.4188292494843214
 10
356.7754715726479
 20
101.6374035400655
 10
354.2379658487881
 20
101.6374035400645
 42
0.4188292076925117
 10
353.2380896105595
 20
100.6216711459289
  0
LWPOLYLINE
  5
EA
330
2
100
AcDbEntity
  8
KIJUN
 62
     7
100
AcDbPolyline
 90
        6
 70
     1
 43
0.0
 10
363.2293446353061
 20
47.6981795693589
 10
366.1011627330915
 20
47.6981795693589
 10
366.933886546422
 20
100.6216710037279
 42
0.4188292494842841
 10
365.9340103104308
 20
101.6374035400655
 10
363.3965045865713
 20
101.6374035400655
 42
0.4188292076925493
 10
362.3966283483424
 20
100.6216711459297
  0
LWPOLYLINE
  5
EB
330
2
100
AcDbEntity
  8
KIJUN
 62
     7
100
AcDbPolyline
 90
        6
 70
     1
 43
0.0
 10
346.395587676565
 20
47.6981795693589
 10
349.2674057743503
 20
47.6981795693589
 10
350.100129587681
 20
100.6216710037279
 42
0.4188292494843214
 10
349.1002533516896
 20
101.6374035400655
 10
346.5627476278298
 20
101.6374035400645
 42
0.4188292076925117
 10
345.5628713896011
 20
100.6216711459289
  0
LWPOLYLINE
  5
EC
330
2
100
AcDbEntity
  8
KIJUN
 62
     7
100
AcDbPolyline
 90
        6
 70
     1
 43
0.0
 10
337.2370489387823
 20
47.6981795693589
 10
340.1088670365676
 20
47.6981795693589
 10
340.941590849898
 20
100.6216710037279
 42
0.4188292494843214
 10
339.9417146139066
 20
101.6374035400655
 10
337.404208890047
 20
101.6374035400645
 42
0.4188292076925117
 10
336.4043326518185
 20
100.6216711459289
  0
ARC
  5
ED
330
2
100
AcDbEntity
  8
KIJUN
 62
     7
100
AcDbCircle
 10
298.8383235311745
 20
38.90163909777243
 30
0.0
 40
3.0
100
AcDbArc
 50
226.8135047225718
 51
313.1864952774282
  0
ARC
  5
EE
330
2
100
AcDbEntity
  8
KIJUN
 62
     7
100
AcDbCircle
 10
298.8383235311745
 20
29.42294966709074
 30
0.0
 40
3.0
100
AcDbArc
 50
46.81350472257181
 51
133.1864952774278
  0
ARC
  5
EF
330
2
100
AcDbEntity
  8
KIJUN
 62
     7
100
AcDbCircle
 10
269.3090814026203
 20
34.16229438243204
 30
0.0
 40
3.5
100
AcDbArc
 50
221.8614454176095
 51
302.7118453001375
  0
ARC
  5
F0
330
2
100
AcDbEntity
  8
KIJUN
 62
     7
100
AcDbCircle
 10
276.334467074336
 20
34.16229438243159
 30
0.0
 40
3.5
100
AcDbArc
 50
237.2881546998542
 51
314.7894045199906
  0
ARC
  5
F1
330
2
100
AcDbEntity
  8
KIJUN
 62
     7
100
AcDbCircle
 10
272.8217742384777
 20
28.69320039522404
 30
0.0
 40
3.0
100
AcDbArc
 50
57.28815469985475
 51
122.7118453001414
  0
ARC
  5
F2
330
2
100
AcDbEntity
  8
KIJUN
 62
     7
100
AcDbCircle
 10
269.3090814026203
 20
34.16229438243204
 30
0.0
 40
3.5
100
AcDbArc
 50
57.28815469985423
 51
138.1385545823905
  0
ARC
  5
F3
330
2
100
AcDbEntity
  8
KIJUN
 62
     7
100
AcDbCircle
 10
276.334467074336
 20
34.16229438243159
 30
0.0
 40
3.5
100
AcDbArc
 50
45.2105954800094
 51
122.7118453001371
  0
ARC
  5
F4
330
2
100
AcDbEntity
  8
KIJUN
 62
     7
100
AcDbCircle
 10
272.8217742384785
 20
39.63138836963956
 30
0.0
 40
3.0
100
AcDbArc
 50
237.2881546998547
 51
302.7118453001414
  0
ARC
  5
F5
330
2
100
AcDbEntity
  8
KIJUN
 62
     7
100
AcDbCircle
 10
213.8344670743357
 20
34.16229438243204
 30
0.0
 40
3.5
100
AcDbArc
 50
45.2105954800094
 51
122.7118453001448
  0
ARC
  5
F6
330
2
100
AcDbEntity
  8
KIJUN
 62
     7
100
AcDbCircle
 10
210.321774238478
 20
39.63138836964004
 30
0.0
 40
3.0
100
AcDbArc
 50
237.2881546998625
 51
302.7118453001371
  0
ARC
  5
F7
330
2
100
AcDbEntity
  8
KIJUN
 62
     7
100
AcDbCircle
 10
213.8344670743357
 20
34.16229438243204
 30
0.0
 40
3.5
100
AcDbArc
 50
237.2881546998552
 51
314.7894045199906
  0
ARC
  5
F8
330
2
100
AcDbEntity
  8
KIJUN
 62
     7
100
AcDbCircle
 10
210.321774238478
 20
28.69320039522404
 30
0.0
 40
3.0
100
AcDbArc
 50
57.28815469986288
 51
122.7118453001371
  0
ARC
  5
F9
330
2
100
AcDbEntity
  8
KIJUN
 62
     7
100
AcDbCircle
 10
227.4414450518037
 20
38.90163909777288
 30
0.0
 40
3.0
100
AcDbArc
 50
226.8135047225718
 51
313.1864952774282
  0
ARC
  5
FA
330
2
100
AcDbEntity
  8
KIJUN
 62
     7
100
AcDbCircle
 10
254.7862464821368
 20
38.4999494820911
 30
0.0
 40
3.0
100
AcDbArc
 50
221.8614454176094
 51
318.1385545823906
  0
ARC
  5
FB
330
2
100
AcDbEntity
  8
KIJUN
 62
     7
100
AcDbCircle
 10
254.7862464821368
 20
29.82463928277298
 30
0.0
 40
3.0
100
AcDbArc
 50
41.86144541760937
 51
138.1385545823906
  0
ARC
  5
FC
330
2
100
AcDbEntity
  8
KIJUN
 62
     7
100
AcDbCircle
 10
245.3660321397509
 20
29.5492376900495
 30
0.0
 40
3.0
100
AcDbArc
 50
45.21059548000587
 51
134.789404519994
  0
ARC
  5
FD
330
2
100
AcDbEntity
  8
KIJUN
 62
     7
100
AcDbCircle
 10
236.3383235311743
 20
38.90163909777288
 30
0.0
 40
3.0
100
AcDbArc
 50
226.8135047225718
 51
313.1864952774282
  0
ARC
  5
FE
330
2
100
AcDbEntity
  8
KIJUN
 62
     7
100
AcDbCircle
 10
245.3660321397509
 20
38.77535107481459
 30
0.0
 40
3.0
100
AcDbArc
 50
225.2105954800058
 51
314.7894045199941
  0
ARC
  5
FF
330
2
100
AcDbEntity
  8
KIJUN
 62
     7
100
AcDbCircle
 10
264.4681364291258
 20
29.82463928277298
 30
0.0
 40
3.0
100
AcDbArc
 50
41.86144541760937
 51
138.1385545823906
  0
ARC
  5
100
330
2
100
AcDbEntity
  8
KIJUN
 62
     7
100
AcDbCircle
 10
264.4681364291258
 20
38.4999494820911
 30
0.0
 40
3.0
100
AcDbArc
 50
221.8614454176094
 51
318.1385545823906
  0
ARC
  5
101
330
2
100
AcDbEntity
  8
KIJUN
 62
     7
100
AcDbCircle
 10
218.413736443227
 20
38.77535107481459
 30
0.0
 40
3.0
100
AcDbArc
 50
225.2105954800058
 51
314.7894045199941
  0
ARC
  5
102
330
2
100
AcDbEntity
  8
KIJUN
 62
     7
100
AcDbCircle
 10
218.413736443227
 20
29.5492376900495
 30
0.0
 40
3.0
100
AcDbArc
 50
45.21059548000587
 51
134.789404519994
  0
ARC
  5
103
330
2
100
AcDbEntity
  8
KIJUN
 62
     7
100
AcDbCircle
 10
289.941445051804
 20
38.90163909777243
 30
0.0
 40
3.0
100
AcDbArc
 50
226.8135047225718
 51
313.1864952774282
  0
ARC
  5
104
330
2
100
AcDbEntity
  8
KIJUN
 62
     7
100
AcDbCircle
 10
280.9137364432273
 20
29.54923769004904
 30
0.0
 40
3.0
100
AcDbArc
 50
45.21059548000587
 51
134.789404519994
  0
ARC
  5
105
330
2
100
AcDbEntity
  8
KIJUN
 62
     7
100
AcDbCircle
 10
280.9137364432273
 20
38.77535107481413
 30
0.0
 40
3.0
100
AcDbArc
 50
225.2105954800058
 51
314.7894045199941
  0
ARC
  5
106
330
2
100
AcDbEntity
  8
KIJUN
 62
     7
100
AcDbCircle
 10
227.4414450518037
 20
29.42294966709119
 30
0.0
 40
3.0
100
AcDbArc
 50
46.81350472257181
 51
133.1864952774278
  0
ARC
  5
107
330
2
100
AcDbEntity
  8
KIJUN
 62
     7
100
AcDbCircle
 10
259.6271914556313
 20
34.16229438243204
 30
0.0
 40
3.5
100
AcDbArc
 50
221.8614454176095
 51
318.1385545823904
  0
ARC
  5
108
330
2
100
AcDbEntity
  8
KIJUN
 62
     7
100
AcDbCircle
 10
236.3383235311743
 20
29.42294966709119
 30
0.0
 40
3.0
100
AcDbArc
 50
46.81350472257181
 51
133.1864952774278
  0
ARC
  5
109
330
2
100
AcDbEntity
  8
KIJUN
 62
     7
100
AcDbCircle
 10
249.9453015086423
 20
34.16229438243204
 30
0.0
 40
3.5
100
AcDbArc
 50
225.2105954800094
 51
318.1385545823904
  0
ARC
  5
10A
330
2
100
AcDbEntity
  8
KIJUN
 62
     7
100
AcDbCircle
 10
249.9453015086423
 20
34.16229438243204
 30
0.0
 40
3.5
100
AcDbArc
 50
41.8614454176095
 51
134.7894045199903
  0
ARC
  5
10B
330
2
100
AcDbEntity
  8
KIJUN
 62
     7
100
AcDbCircle
 10
240.7867627708596
 20
34.16229438243204
 30
0.0
 40
3.5
100
AcDbArc
 50
45.2105954800094
 51
133.1864952774153
  0
ARC
  5
10C
330
2
100
AcDbEntity
  8
KIJUN
 62
     7
100
AcDbCircle
 10
240.7867627708596
 20
34.16229438243204
 30
0.0
 40
3.5
100
AcDbArc
 50
226.8135047225846
 51
314.7894045199906
  0
ARC
  5
10D
330
2
100
AcDbEntity
  8
KIJUN
 62
     7
100
AcDbCircle
 10
231.889884291489
 20
34.16229438243204
 30
0.0
 40
3.5
100
AcDbArc
 50
46.81350472258464
 51
133.1864952774153
  0
ARC
  5
10E
330
2
100
AcDbEntity
  8
KIJUN
 62
     7
100
AcDbCircle
 10
231.889884291489
 20
34.16229438243204
 30
0.0
 40
3.5
100
AcDbArc
 50
226.8135047225846
 51
313.1864952774153
  0
ARC
  5
10F
330
2
100
AcDbEntity
  8
KIJUN
 62
     7
100
AcDbCircle
 10
259.6271914556313
 20
34.16229438243204
 30
0.0
 40
3.5
100
AcDbArc
 50
41.8614454176095
 51
138.1385545823905
  0
ARC
  5
110
330
2
100
AcDbEntity
  8
KIJUN
 62
     7
100
AcDbCircle
 10
222.9930058121184
 20
34.16229438243204
 30
0.0
 40
3.5
100
AcDbArc
 50
46.81350472258464
 51
134.7894045199903
  0
ARC
  5
111
330
2
100
AcDbEntity
  8
KIJUN
 62
     7
100
AcDbCircle
 10
222.9930058121184
 20
34.16229438243204
 30
0.0
 40
3.5
100
AcDbArc
 50
225.2105954800094
 51
313.1864952774153
  0
ARC
  5
112
330
2
100
AcDbEntity
  8
KIJUN
 62
     7
100
AcDbCircle
 10
294.3898842914892
 20
34.16229438243159
 30
0.0
 40
3.5
100
AcDbArc
 50
46.81350472258464
 51
133.1864952774153
  0
ARC
  5
113
330
2
100
AcDbEntity
  8
KIJUN
 62
     7
100
AcDbCircle
 10
294.3898842914892
 20
34.16229438243159
 30
0.0
 40
3.5
100
AcDbArc
 50
226.8135047225846
 51
313.1864952774153
  0
ARC
  5
114
330
2
100
AcDbEntity
  8
KIJUN
 62
     7
100
AcDbCircle
 10
289.941445051804
 20
29.42294966709074
 30
0.0
 40
3.0
100
AcDbArc
 50
46.81350472257181
 51
133.1864952774278
  0
ARC
  5
115
330
2
100
AcDbEntity
  8
KIJUN
 62
     7
100
AcDbCircle
 10
285.4930058121186
 20
34.16229438243159
 30
0.0
 40
3.5
100
AcDbArc
 50
46.81350472258464
 51
134.7894045199903
  0
ARC
  5
116
330
2
100
AcDbEntity
  8
KIJUN
 62
     7
100
AcDbCircle
 10
285.4930058121186
 20
34.16229438243159
 30
0.0
 40
3.5
100
AcDbArc
 50
225.2105954800094
 51
313.1864952774153
  0
ARC
  5
117
330
2
100
AcDbEntity
  8
KIJUN
 62
     7
100
AcDbCircle
 10
331.8090814026206
 20
34.16229438243159
 30
0.0
 40
3.5
100
AcDbArc
 50
221.8614454176095
 51
302.7118453001448
  0
ARC
  5
118
330
2
100
AcDbEntity
  8
KIJUN
 62
     7
100
AcDbCircle
 10
338.834467074336
 20
34.16229438243159
 30
0.0
 40
3.5
100
AcDbArc
 50
237.2881546998552
 51
314.7894045199906
  0
ARC
  5
119
330
2
100
AcDbEntity
  8
KIJUN
 62
     7
100
AcDbCircle
 10
335.3217742384783
 20
28.69320039522359
 30
0.0
 40
3.0
100
AcDbArc
 50
57.28815469986288
 51
122.7118453001371
  0
ARC
  5
11A
330
2
100
AcDbEntity
  8
KIJUN
 62
     7
100
AcDbCircle
 10
331.8090814026206
 20
34.16229438243159
 30
0.0
 40
3.5
100
AcDbArc
 50
57.28815469985518
 51
138.1385545823905
  0
ARC
  5
11B
330
2
100
AcDbEntity
  8
KIJUN
 62
     7
100
AcDbCircle
 10
338.834467074336
 20
34.16229438243159
 30
0.0
 40
3.5
100
AcDbArc
 50
45.2105954800094
 51
122.7118453001448
  0
ARC
  5
11C
330
2
100
AcDbEntity
  8
KIJUN
 62
     7
100
AcDbCircle
 10
335.3217742384783
 20
39.63138836963956
 30
0.0
 40
3.0
100
AcDbArc
 50
237.2881546998625
 51
302.7118453001371
  0
ARC
  5
11D
330
2
100
AcDbEntity
  8
KIJUN
 62
     7
100
AcDbCircle
 10
326.968136429126
 20
38.49994948209064
 30
0.0
 40
3.0
100
AcDbArc
 50
221.8614454176094
 51
318.1385545823906
  0
ARC
  5
11E
330
2
100
AcDbEntity
  8
KIJUN
 62
     7
100
AcDbCircle
 10
326.968136429126
 20
29.82463928277253
 30
0.0
 40
3.0
100
AcDbArc
 50
41.86144541760937
 51
138.1385545823906
  0
ARC
  5
11F
330
2
100
AcDbEntity
  8
KIJUN
 62
     7
100
AcDbCircle
 10
307.8660321397511
 20
38.77535107481413
 30
0.0
 40
3.0
100
AcDbArc
 50
225.2105954800058
 51
314.7894045199941
  0
ARC
  5
120
330
2
100
AcDbEntity
  8
KIJUN
 62
     7
100
AcDbCircle
 10
307.8660321397511
 20
29.54923769004904
 30
0.0
 40
3.0
100
AcDbArc
 50
45.21059548000587
 51
134.789404519994
  0
ARC
  5
121
330
2
100
AcDbEntity
  8
KIJUN
 62
     7
100
AcDbCircle
 10
317.2862464821371
 20
29.82463928277253
 30
0.0
 40
3.0
100
AcDbArc
 50
41.86144541760937
 51
138.1385545823906
  0
ARC
  5
122
330
2
100
AcDbEntity
  8
KIJUN
 62
     7
100
AcDbCircle
 10
317.2862464821371
 20
38.49994948209064
 30
0.0
 40
3.0
100
AcDbArc
 50
221.8614454176094
 51
318.1385545823906
  0
ARC
  5
123
330
2
100
AcDbEntity
  8
KIJUN
 62
     7
100
AcDbCircle
 10
370.3660321397513
 20
38.77535107481413
 30
0.0
 40
3.0
100
AcDbArc
 50
225.2105954800058
 51
314.7894045199941
  0
ARC
  5
124
330
2
100
AcDbEntity
  8
KIJUN
 62
     7
100
AcDbCircle
 10
361.3383235311745
 20
38.90163909777243
 30
0.0
 40
3.0
100
AcDbArc
 50
226.8135047225718
 51
313.1864952774282
  0
ARC
  5
125
330
2
100
AcDbEntity
  8
KIJUN
 62
     7
100
AcDbCircle
 10
370.3660321397513
 20
29.54923769004904
 30
0.0
 40
3.0
100
AcDbArc
 50
45.21059548000587
 51
134.789404519994
  0
ARC
  5
126
330
2
100
AcDbEntity
  8
KIJUN
 62
     7
100
AcDbCircle
 10
379.786246482137
 20
29.82463928277253
 30
0.0
 40
3.0
100
AcDbArc
 50
41.86144541760937
 51
138.1385545823906
  0
ARC
  5
127
330
2
100
AcDbEntity
  8
KIJUN
 62
     7
100
AcDbCircle
 10
379.786246482137
 20
38.49994948209064
 30
0.0
 40
3.0
100
AcDbArc
 50
221.8614454176094
 51
318.1385545823906
  0
ARC
  5
128
330
2
100
AcDbEntity
  8
KIJUN
 62
     7
100
AcDbCircle
 10
343.4137364432273
 20
29.54923769004904
 30
0.0
 40
3.0
100
AcDbArc
 50
45.21059548000587
 51
134.789404519994
  0
ARC
  5
129
330
2
100
AcDbEntity
  8
KIJUN
 62
     7
100
AcDbCircle
 10
352.4414450518039
 20
38.90163909777243
 30
0.0
 40
3.0
100
AcDbArc
 50
226.8135047225718
 51
313.1864952774282
  0
ARC
  5
12A
330
2
100
AcDbEntity
  8
KIJUN
 62
     7
100
AcDbCircle
 10
343.4137364432273
 20
38.77535107481413
 30
0.0
 40
3.0
100
AcDbArc
 50
225.2105954800058
 51
314.7894045199941
  0
ARC
  5
12B
330
2
100
AcDbEntity
  8
KIJUN
 62
     7
100
AcDbCircle
 10
322.1271914556315
 20
34.16229438243159
 30
0.0
 40
3.5
100
AcDbArc
 50
221.8614454176095
 51
318.1385545823904
  0
ARC
  5
12C
330
2
100
AcDbEntity
  8
KIJUN
 62
     7
100
AcDbCircle
 10
322.1271914556315
 20
34.16229438243159
 30
0.0
 40
3.5
100
AcDbArc
 50
41.8614454176095
 51
138.1385545823905
  0
ARC
  5
12D
330
2
100
AcDbEntity
  8
KIJUN
 62
     7
100
AcDbCircle
 10
312.4453015086425
 20
34.16229438243159
 30
0.0
 40
3.5
100
AcDbArc
 50
41.8614454176095
 51
134.7894045199903
  0
ARC
  5
12E
330
2
100
AcDbEntity
  8
KIJUN
 62
     7
100
AcDbCircle
 10
312.4453015086425
 20
34.16229438243159
 30
0.0
 40
3.5
100
AcDbArc
 50
225.2105954800094
 51
318.1385545823904
  0
ARC
  5
12F
330
2
100
AcDbEntity
  8
KIJUN
 62
     7
100
AcDbCircle
 10
303.2867627708599
 20
34.16229438243159
 30
0.0
 40
3.5
100
AcDbArc
 50
226.8135047225846
 51
314.7894045199906
  0
ARC
  5
130
330
2
100
AcDbEntity
  8
KIJUN
 62
     7
100
AcDbCircle
 10
303.2867627708599
 20
34.16229438243159
 30
0.0
 40
3.5
100
AcDbArc
 50
45.2105954800094
 51
133.1864952774153
  0
ARC
  5
131
330
2
100
AcDbEntity
  8
KIJUN
 62
     7
100
AcDbCircle
 10
384.6271914556315
 20
34.16229438243159
 30
0.0
 40
3.5
100
AcDbArc
 50
41.8614454176095
 51
138.1385545823905
  0
ARC
  5
132
330
2
100
AcDbEntity
  8
KIJUN
 62
     7
100
AcDbCircle
 10
356.8898842914892
 20
34.16229438243159
 30
0.0
 40
3.5
100
AcDbArc
 50
226.8135047225846
 51
313.1864952774153
  0
ARC
  5
133
330
2
100
AcDbEntity
  8
KIJUN
 62
     7
100
AcDbCircle
 10
356.8898842914892
 20
34.16229438243159
 30
0.0
 40
3.5
100
AcDbArc
 50
46.81350472258464
 51
133.1864952774153
  0
ARC
  5
134
330
2
100
AcDbEntity
  8
KIJUN
 62
     7
100
AcDbCircle
 10
365.7867627708598
 20
34.16229438243159
 30
0.0
 40
3.5
100
AcDbArc
 50
226.8135047225846
 51
314.7894045199906
  0
ARC
  5
135
330
2
100
AcDbEntity
  8
KIJUN
 62
     7
100
AcDbCircle
 10
365.7867627708598
 20
34.16229438243159
 30
0.0
 40
3.5
100
AcDbArc
 50
45.2105954800094
 51
133.1864952774153
  0
ARC
  5
136
330
2
100
AcDbEntity
  8
KIJUN
 62
     7
100
AcDbCircle
 10
374.9453015086425
 20
34.16229438243159
 30
0.0
 40
3.5
100
AcDbArc
 50
41.8614454176095
 51
134.7894045199903
  0
ARC
  5
137
330
2
100
AcDbEntity
  8
KIJUN
 62
     7
100
AcDbCircle
 10
374.9453015086425
 20
34.16229438243159
 30
0.0
 40
3.5
100
AcDbArc
 50
225.2105954800094
 51
318.1385545823904
  0
ARC
  5
138
330
2
100
AcDbEntity
  8
KIJUN
 62
     7
100
AcDbCircle
 10
361.3383235311745
 20
29.42294966709074
 30
0.0
 40
3.0
100
AcDbArc
 50
46.81350472257181
 51
133.1864952774278
  0
ARC
  5
139
330
2
100
AcDbEntity
  8
KIJUN
 62
     7
100
AcDbCircle
 10
384.6271914556315
 20
34.16229438243159
 30
0.0
 40
3.5
100
AcDbArc
 50
221.8614454176095
 51
318.1385545823904
  0
ARC
  5
13A
330
2
100
AcDbEntity
  8
KIJUN
 62
     7
100
AcDbCircle
 10
352.4414450518039
 20
29.42294966709074
 30
0.0
 40
3.0
100
AcDbArc
 50
46.81350472257181
 51
133.1864952774278
  0
ARC
  5
13B
330
2
100
AcDbEntity
  8
KIJUN
 62
     7
100
AcDbCircle
 10
347.9930058121187
 20
34.16229438243159
 30
0.0
 40
3.5
100
AcDbArc
 50
225.2105954800094
 51
313.1864952774153
  0
ARC
  5
13C
330
2
100
AcDbEntity
  8
KIJUN
 62
     7
100
AcDbCircle
 10
347.9930058121187
 20
34.16229438243159
 30
0.0
 40
3.5
100
AcDbArc
 50
46.81350472258464
 51
134.7894045199903
  0
ARC
  5
13D
330
2
100
AcDbEntity
  8
KIJUN
 62
     7
100
AcDbCircle
 10
304.5958429182812
 20
120.4453396798623
 30
0.0
 40
9.108959502469156
100
AcDbArc
 50
62.08372592470459
 51
150.5117480352401
  0
ARC
  5
13E
330
2
100
AcDbEntity
  8
KIJUN
 62
     7
100
AcDbCircle
 10
306.2087543588158
 20
103.897009170738
 30
0.0
 40
23.10554160136256
100
AcDbArc
 50
89.74659339258636
 51
114.9795156928596
  0
ARC
  5
13F
330
2
100
AcDbEntity
  8
KIJUN
 62
     7
100
AcDbCircle
 10
304.8987060999149
 20
142.3008920655344
 30
0.0
 40
21.07367894541674
100
AcDbArc
 50
246.4775596511076
 51
271.8427159011838
  0
ARC
  5
140
330
2
100
AcDbEntity
  8
KIJUN
 62
     7
100
AcDbCircle
 10
298.031906444863
 20
122.2730008110753
 30
0.0
 40
9.439347758190537
100
AcDbArc
 50
230.8830501506033
 51
309.6112089164015
  0
ARC
  5
141
330
2
100
AcDbEntity
  8
KIJUN
 62
     7
100
AcDbCircle
 10
302.3172714444298
 20
123.0383911266877
 30
0.0
 40
5.45618292187305
100
AcDbArc
 50
182.0532537040376
 51
279.6170939252515
  0
ARC
  5
142
330
2
100
AcDbEntity
  8
KIJUN
 62
     7
100
AcDbCircle
 10
303.5376002088148
 20
125.0958419763611
 30
0.0
 40
6.872732664720181
100
AcDbArc
 50
84.05469909865081
 51
181.3895416542813
  0
ARC
  5
143
330
2
100
AcDbEntity
  8
KIJUN
 62
     7
100
AcDbCircle
 10
298.3091372746791
 20
126.0548604309911
 30
0.0
 40
9.453205756517071
100
AcDbArc
 50
52.71586012013337
 51
108.1421424112397
  0
ARC
  5
144
330
2
100
AcDbEntity
  8
KIJUN
 62
     7
100
AcDbCircle
 10
239.8172714444296
 20
123.0383911266883
 30
0.0
 40
5.45618292187305
100
AcDbArc
 50
182.0532537040376
 51
279.6170939252515
  0
ARC
  5
145
330
2
100
AcDbEntity
  8
KIJUN
 62
     7
100
AcDbCircle
 10
231.9372947501228
 20
125.9510554117515
 30
0.0
 40
9.813005727040293
100
AcDbArc
 50
74.42254836687969
 51
133.6808136108276
  0
ARC
  5
146
330
2
100
AcDbEntity
  8
KIJUN
 62
     7
100
AcDbCircle
 10
235.8091372746788
 20
126.0548604309916
 30
0.0
 40
9.453205756517071
100
AcDbArc
 50
52.71586012013337
 51
108.1421424112397
  0
ARC
  5
147
330
2
100
AcDbEntity
  8
KIJUN
 62
     7
100
AcDbCircle
 10
227.8128818357271
 20
133.7864662495731
 30
0.0
 40
3.446890786464648
100
AcDbArc
 50
216.686427312358
 51
274.7707595607719
  0
ARC
  5
148
330
2
100
AcDbEntity
  8
KIJUN
 62
     7
100
AcDbCircle
 10
234.1681241855759
 20
135.1252467021319
 30
0.0
 40
2.446276093611705
100
AcDbArc
 50
226.059797406758
 51
290.7057657661603
  0
ARC
  5
149
330
2
100
AcDbEntity
  8
KIJUN
 62
     7
100
AcDbCircle
 10
233.1645427260584
 20
134.0838347792765
 30
0.0
 40
1.0
100
AcDbArc
 50
107.3916582619514
 51
226.0597974067574
  0
ARC
  5
14A
330
2
100
AcDbEntity
  8
KIJUN
 62
     7
100
AcDbCircle
 10
242.3987060999146
 20
142.3008920655348
 30
0.0
 40
21.07367894541674
100
AcDbArc
 50
246.4775596511076
 51
271.8427159011838
  0
ARC
  5
14B
330
2
100
AcDbEntity
  8
KIJUN
 62
     7
100
AcDbCircle
 10
234.3330918944063
 20
123.9169342241139
 30
0.0
 40
1.0
100
AcDbArc
 50
112.4374150629141
 51
249.8142898568517
  0
ARC
  5
14C
330
2
100
AcDbEntity
  8
KIJUN
 62
     7
100
AcDbCircle
 10
242.0958429182809
 20
120.4453396798628
 30
0.0
 40
9.108959502469156
100
AcDbArc
 50
62.08372592470459
 51
150.5117480352401
  0
ARC
  5
14D
330
2
100
AcDbEntity
  8
KIJUN
 62
     7
100
AcDbCircle
 10
241.0376002088145
 20
125.0958419763616
 30
0.0
 40
6.872732664720181
100
AcDbArc
 50
84.05469909865081
 51
181.3895416542813
  0
ARC
  5
14E
330
2
100
AcDbEntity
  8
KIJUN
 62
     7
100
AcDbCircle
 10
243.7087543588155
 20
103.8970091707384
 30
0.0
 40
23.10554160136256
100
AcDbArc
 50
89.74659339258636
 51
114.9795156928596
  0
ARC
  5
14F
330
2
100
AcDbEntity
  8
KIJUN
 62
     7
100
AcDbCircle
 10
243.4007543416511
 20
135.1252467021319
 30
0.0
 40
2.446276093611705
100
AcDbArc
 50
226.059797406758
 51
268.5429130808547
  0
ARC
  5
150
330
2
100
AcDbEntity
  8
KIJUN
 62
     7
100
AcDbCircle
 10
242.3971728821335
 20
134.0838347792765
 30
0.0
 40
1.0
100
AcDbArc
 50
107.3916582619514
 51
226.0597974067574
  0
ARC
  5
151
330
2
100
AcDbEntity
  8
KIJUN
 62
     7
100
AcDbCircle
 10
245.0202121080957
 20
127.724498352905
 30
0.0
 40
7.875708307650747
100
AcDbArc
 50
49.24047511140974
 51
111.7777206855944
  0
ARC
  5
152
330
2
100
AcDbEntity
  8
KIJUN
 62
     7
100
AcDbCircle
 10
254.2186150885401
 20
121.8505089723032
 30
0.0
 40
14.43067592024489
100
AcDbArc
 50
63.59498334698074
 51
107.1436843013402
  0
ARC
  5
153
330
2
100
AcDbEntity
  8
KIJUN
 62
     7
100
AcDbCircle
 10
250.2339112907558
 20
134.7811535724941
 30
0.0
 40
0.9
100
AcDbArc
 50
107.3916582619514
 51
226.0597974067574
  0
ARC
  5
154
330
2
100
AcDbEntity
  8
KIJUN
 62
     7
100
AcDbCircle
 10
251.1371346043217
 20
135.7184243030638
 30
0.0
 40
2.201648484250534
100
AcDbArc
 50
226.059797406758
 51
237.7778291626387
  0
ARC
  5
155
330
2
100
AcDbEntity
  8
KIJUN
 62
     7
100
AcDbCircle
 10
262.9431598761247
 20
179.7908061107146
 30
0.0
 40
51.02735782587056
100
AcDbArc
 50
247.4060384353289
 51
258.8010373784094
  0
ARC
  5
156
330
2
100
AcDbEntity
  8
KIJUN
 62
     7
100
AcDbCircle
 10
259.7384784754068
 20
174.2251089711329
 30
0.0
 40
41.65093968815511
100
AcDbArc
 50
256.7077157004144
 51
267.8190360875232
  0
ARC
  5
157
330
2
100
AcDbEntity
  8
KIJUN
 62
     7
100
AcDbCircle
 10
253.8920095957736
 20
132.5728934067816
 30
0.0
 40
17.33691485514848
100
AcDbArc
 50
280.8140948409666
 51
3.95128060146229
  0
ARC
  5
158
330
2
100
AcDbEntity
  8
KIJUN
 62
     7
100
AcDbCircle
 10
266.0268863987919
 20
122.2393986404546
 30
0.0
 40
7.541317185547331
100
AcDbArc
 50
117.1044699671501
 51
155.4985855593988
  0
ARC
  5
159
330
2
100
AcDbEntity
  8
KIJUN
 62
     7
100
AcDbCircle
 10
260.8729668750949
 20
124.2600727811715
 30
0.0
 40
2.035532347391157
100
AcDbArc
 50
147.0604530754157
 51
228.2567697836013
  0
ARC
  5
15A
330
2
100
AcDbEntity
  8
KIJUN
 62
     7
100
AcDbCircle
 10
270.6078936423897
 20
127.3896198488261
 30
0.0
 40
8.013207475080267
100
AcDbArc
 50
74.85629356148513
 51
138.4869192817196
  0
ARC
  5
15B
330
2
100
AcDbEntity
  8
KIJUN
 62
     7
100
AcDbCircle
 10
265.3563728582477
 20
132.0379107758491
 30
0.0
 40
1.0
100
AcDbArc
 50
138.4869192817192
 51
218.3904959070756
  0
ARC
  5
15C
330
2
100
AcDbEntity
  8
KIJUN
 62
     7
100
AcDbCircle
 10
265.5209391540633
 20
130.5417393103731
 30
0.0
 40
3.333237149453593
100
AcDbArc
 50
204.6910957751034
 51
309.0042214434022
  0
ARC
  5
15D
330
2
100
AcDbEntity
  8
KIJUN
 62
     7
100
AcDbCircle
 10
267.7372425114414
 20
124.055073776704
 30
0.0
 40
8.013207475080267
100
AcDbArc
 50
74.85629356148513
 51
128.191616196307
  0
ARC
  5
15E
330
2
100
AcDbEntity
  8
KIJUN
 62
     7
100
AcDbCircle
 10
263.4010226290783
 20
129.5670857705518
 30
0.0
 40
1.0
100
AcDbArc
 50
128.1916161963108
 51
204.6910957751101
  0
ARC
  5
15F
330
2
100
AcDbEntity
  8
KIJUN
 62
     7
100
AcDbCircle
 10
261.8812729714283
 20
126.6551331146898
 30
0.0
 40
4.572149173956802
100
AcDbArc
 50
238.872439864741
 51
327.954698041567
  0
ARC
  5
160
330
2
100
AcDbEntity
  8
KIJUN
 62
     7
100
AcDbCircle
 10
245.2216870077838
 20
132.0532951648475
 30
0.0
 40
16.720559088529
100
AcDbArc
 50
256.7701001691792
 51
320.2429444148837
  0
ARC
  5
161
330
2
100
AcDbEntity
  8
KIJUN
 62
     7
100
AcDbCircle
 10
260.9686076336528
 20
125.3314992236961
 30
0.0
 40
4.913395568789728
100
AcDbArc
 50
233.9314951927971
 51
347.0355719162374
  0
ARC
  5
162
330
2
100
AcDbEntity
  8
KIJUN
 62
     7
100
AcDbCircle
 10
258.433006032326
 20
127.2332544572743
 30
0.0
 40
13.17970829986046
100
AcDbArc
 50
267.0968819594845
 51
355.7016354246842
  0
ARC
  5
163
330
2
100
AcDbEntity
  8
KIJUN
 62
     7
100
AcDbCircle
 10
266.3360230245956
 20
119.9695808832013
 30
0.0
 40
5.408317591263967
100
AcDbArc
 50
293.2651449982468
 51
4.052774638057027
  0
ARC
  5
164
330
2
100
AcDbEntity
  8
KIJUN
 62
     7
100
AcDbCircle
 10
252.3490213349443
 20
120.770328685786
 30
0.0
 40
8.495412982371481
100
AcDbArc
 50
252.6083417380519
 51
309.6112089164015
  0
ARC
  5
165
330
2
100
AcDbEntity
  8
KIJUN
 62
     7
100
AcDbCircle
 10
250.9819615769667
 20
112.584877966568
 30
0.0
 40
2.201648484250534
100
AcDbArc
 50
122.2221708373609
 51
133.9402025932419
  0
ARC
  5
166
330
2
100
AcDbEntity
  8
KIJUN
 62
     7
100
AcDbCircle
 10
250.0787382634008
 20
113.5221486971379
 30
0.0
 40
0.9
100
AcDbArc
 50
133.9402025932425
 51
252.6083417380485
  0
ARC
  5
167
330
2
100
AcDbEntity
  8
KIJUN
 62
     7
100
AcDbCircle
 10
255.6278594770272
 20
101.0349991176682
 30
0.0
 40
14.69573145367693
100
AcDbArc
 50
93.7680902668205
 51
112.4876369308762
  0
ARC
  5
168
330
2
100
AcDbEntity
  8
KIJUN
 62
     7
100
AcDbCircle
 10
244.8650390807408
 20
120.5788039167269
 30
0.0
 40
7.875708307650747
100
AcDbArc
 50
248.2222793144056
 51
310.7595248885902
  0
ARC
  5
169
330
2
100
AcDbEntity
  8
KIJUN
 62
     7
100
AcDbCircle
 10
242.2419998547785
 20
114.2194674903554
 30
0.0
 40
1.0
100
AcDbArc
 50
133.9402025932425
 51
252.6083417380485
  0
ARC
  5
16A
330
2
100
AcDbEntity
  8
KIJUN
 62
     7
100
AcDbCircle
 10
235.5319064448628
 20
122.2730008110757
 30
0.0
 40
9.439347758190537
100
AcDbArc
 50
230.8830501506033
 51
309.6112089164015
  0
ARC
  5
16B
330
2
100
AcDbEntity
  8
KIJUN
 62
     7
100
AcDbCircle
 10
244.0533319694597
 20
125.2445969616498
 30
0.0
 40
4.123884569588327
100
AcDbArc
 50
256.295863491485
 51
329.3703033681438
  0
ARC
  5
16C
330
2
100
AcDbEntity
  8
KIJUN
 62
     7
100
AcDbCircle
 10
245.1937848674794
 20
124.5693369130383
 30
0.0
 40
2.798513321276789
100
AcDbArc
 50
329.370303368148
 51
119.6126507132602
  0
LINE
  5
16D
330
2
100
AcDbEntity
  8
KIJUN
 62
     7
100
AcDbLine
 10
247.6212329818642
 20
123.1767951860754
 30
0.0
 11
259.1496266332273
 21
123.1767951860762
 31
0.0
  0
LINE
  5
16E
330
2
100
AcDbEntity
  8
KIJUN
 62
     7
100
AcDbLine
 10
259.3208916299251
 20
125.6891955986771
 30
0.0
 11
247.7584667841239
 21
125.6891955986771
 31
0.0
  0
ARC
  5
16F
330
2
100
AcDbEntity
  8
KIJUN
 62
     7
100
AcDbCircle
 10
253.4156991889973
 20
141.3898157675481
 30
0.0
 40
14.6993210851798
100
AcDbArc
 50
241.316632716773
 51
266.9940796181872
  0
ARC
  5
170
330
2
100
AcDbEntity
  8
KIJUN
 62
     7
100
AcDbCircle
 10
244.9047283779956
 20
127.6335309897632
 30
0.0
 40
10.8135055293789
100
AcDbArc
 50
247.2831475282666
 51
317.1614875984693
  0
ARC
  5
171
330
2
100
AcDbEntity
  8
KIJUN
 62
     7
100
AcDbCircle
 10
273.3746870046797
 20
115.9384091452485
 30
0.0
 40
5.484328245193591
100
AcDbArc
 50
142.6434666143504
 51
211.6288520600667
  0
ARC
  5
172
330
2
100
AcDbEntity
  8
KIJUN
 62
     7
100
AcDbCircle
 10
267.2695924142932
 20
118.3555030672151
 30
0.0
 40
5.484328245193591
100
AcDbArc
 50
285.1725113175716
 51
354.1578967632868
  0
ARC
  5
173
330
2
100
AcDbEntity
  8
KIJUN
 62
     7
100
AcDbCircle
 10
235.1814276024928
 20
108.0672085983756
 30
0.0
 40
8.875744423320865
100
AcDbArc
 50
88.45342293228441
 51
129.1594084058411
  0
ARC
  5
174
330
2
100
AcDbEntity
  8
KIJUN
 62
     7
100
AcDbCircle
 10
266.7787672982766
 20
146.6460197359625
 30
0.0
 40
13.3655183979464
100
AcDbArc
 50
242.6394630727162
 51
263.517605823178
  0
ARC
  5
175
330
2
100
AcDbEntity
  8
KIJUN
 62
     7
100
AcDbCircle
 10
244.3773248386618
 20
115.3517387599659
 30
0.0
 40
16.78683040343319
100
AcDbArc
 50
88.89338319228901
 51
99.00627298898292
  0
ARC
  5
176
330
2
100
AcDbEntity
  8
KIJUN
 62
     7
100
AcDbCircle
 10
225.850678047055
 20
132.3246075653611
 30
0.0
 40
1.0
100
AcDbArc
 50
133.6808136108273
 51
216.6864273123562
  0
ARC
  5
177
330
2
100
AcDbEntity
  8
KIJUN
 62
     7
100
AcDbCircle
 10
228.2922812864169
 20
125.3745738558801
 30
0.0
 40
17.26180148223639
100
AcDbArc
 50
147.617890617474
 51
209.25141241
  0
ARC
  5
178
330
2
100
AcDbEntity
  8
KIJUN
 62
     7
100
AcDbCircle
 10
214.8839332506312
 20
121.0366467175896
 30
0.0
 40
4.417566739525923
100
AcDbArc
 50
248.0357044355556
 51
5.206015507681165
  0
ARC
  5
179
330
2
100
AcDbEntity
  8
KIJUN
 62
     7
100
AcDbCircle
 10
228.9815697463692
 20
114.0786362054906
 30
0.0
 40
12.17413341898781
100
AcDbArc
 50
164.6523311925041
 51
169.8054813610707
  0
ARC
  5
17A
330
2
100
AcDbEntity
  8
KIJUN
 62
     7
100
AcDbCircle
 10
217.9838474584388
 20
116.056352601464
 30
0.0
 40
1.0
100
AcDbArc
 50
169.8054813610612
 51
251.6247099390849
  0
ARC
  5
17B
330
2
100
AcDbEntity
  8
KIJUN
 62
     7
100
AcDbCircle
 10
223.0880833615664
 20
127.6904353826423
 30
0.0
 40
7.319559518041962
100
AcDbArc
 50
154.1024000153694
 51
238.6802529246605
  0
ARC
  5
17C
330
2
100
AcDbEntity
  8
KIJUN
 62
     7
100
AcDbCircle
 10
209.6024566366981
 20
127.2856606398641
 30
0.0
 40
11.31014817387736
100
AcDbArc
 50
328.8638563519705
 51
359.8373616923252
  0
ARC
  5
17D
330
2
100
AcDbEntity
  8
KIJUN
 62
     7
100
AcDbCircle
 10
216.4312546626041
 20
128.2212477156086
 30
0.0
 40
4.584595732755333
100
AcDbArc
 50
347.8146658411333
 51
55.15774551494153
  0
ARC
  5
17E
330
2
100
AcDbEntity
  8
KIJUN
 62
     7
100
AcDbCircle
 10
209.9024109297185
 20
116.9012248263836
 30
0.0
 40
18.12364078034088
100
AcDbArc
 50
77.85696117774789
 51
89.05514491638227
  0
ARC
  5
17F
330
2
100
AcDbEntity
  8
KIJUN
 62
     7
100
AcDbCircle
 10
227.7108006952748
 20
126.6889095215653
 30
0.0
 40
6.821650273490255
100
AcDbArc
 50
112.482854299298
 51
175.2520409522292
  0
ARC
  5
180
330
2
100
AcDbEntity
  8
KIJUN
 62
     7
100
AcDbCircle
 10
223.8713193677196
 20
133.7802632647591
 30
0.0
 40
19.67617023597296
100
AcDbArc
 50
251.6247099390815
 51
286.8554081818544
  0
LINE
  5
181
330
2
100
AcDbEntity
  8
KIJUN
 62
     7
100
AcDbLine
 10
231.6230165078929
 20
125.6891955986771
 30
0.0
 11
220.7993647406046
 21
125.6891955986771
 31
0.0
  0
LINE
  5
182
330
2
100
AcDbEntity
  8
KIJUN
 62
     7
100
AcDbLine
 10
220.1398508306021
 20
123.1767951860754
 30
0.0
 11
231.4517515111951
 21
123.1767951860762
 31
0.0
  0
ARC
  5
183
330
2
100
AcDbEntity
  8
KIJUN
 62
     7
100
AcDbCircle
 10
207.25874727604
 20
206.4863154109326
 30
0.0
 40
81.91961160323582
100
AcDbArc
 50
280.4400601159104
 51
286.3360795786631
  0
ARC
  5
184
330
2
100
AcDbEntity
  8
KIJUN
 62
     7
100
AcDbCircle
 10
223.3304562143602
 20
136.3272171643512
 30
0.0
 40
20.22579259963039
100
AcDbArc
 50
261.5818275840422
 51
300.3787999076869
  0
ARC
  5
185
330
2
100
AcDbEntity
  8
KIJUN
 62
     7
100
AcDbCircle
 10
221.2424622645896
 20
120.8081494773729
 30
0.0
 40
15.7294499384014
100
AcDbArc
 50
64.23590943784005
 51
118.5922411704889
  0
ARC
  5
186
330
2
100
AcDbEntity
  8
KIJUN
 62
     7
100
AcDbCircle
 10
296.8330918944065
 20
123.9169342241135
 30
0.0
 40
1.0
100
AcDbArc
 50
112.4374150629141
 51
249.8142898568517
  0
ARC
  5
187
330
2
100
AcDbEntity
  8
KIJUN
 62
     7
100
AcDbCircle
 10
290.210800695275
 20
126.6889095215649
 30
0.0
 40
6.821650273490255
100
AcDbArc
 50
112.482854299298
 51
175.2520409522292
  0
ARC
  5
188
330
2
100
AcDbEntity
  8
KIJUN
 62
     7
100
AcDbCircle
 10
272.1024566366982
 20
127.2856606398637
 30
0.0
 40
11.31014817387736
100
AcDbArc
 50
328.8638563519705
 51
359.8373616923252
  0
ARC
  5
189
330
2
100
AcDbEntity
  8
KIJUN
 62
     7
100
AcDbCircle
 10
278.9312546626044
 20
128.2212477156082
 30
0.0
 40
4.584595732755333
100
AcDbArc
 50
347.8146658411333
 51
55.15774551494153
  0
ARC
  5
18A
330
2
100
AcDbEntity
  8
KIJUN
 62
     7
100
AcDbCircle
 10
269.7587472760402
 20
206.4863154109322
 30
0.0
 40
81.91961160323582
100
AcDbArc
 50
280.4400601159104
 51
286.3360795786631
  0
LINE
  5
18B
330
2
100
AcDbEntity
  8
KIJUN
 62
     7
100
AcDbLine
 10
294.1230165078931
 20
125.6891955986767
 30
0.0
 11
283.2993647406047
 21
125.6891955986767
 31
0.0
  0
LINE
  5
18C
330
2
100
AcDbEntity
  8
KIJUN
 62
     7
100
AcDbLine
 10
282.6398508306023
 20
123.1767951860748
 30
0.0
 11
293.9517515111953
 21
123.1767951860758
 31
0.0
  0
ARC
  5
18D
330
2
100
AcDbEntity
  8
KIJUN
 62
     7
100
AcDbCircle
 10
285.8304562143604
 20
136.3272171643509
 30
0.0
 40
20.22579259963039
100
AcDbArc
 50
261.5818275840422
 51
300.3787999076869
  0
ARC
  5
18E
330
2
100
AcDbEntity
  8
KIJUN
 62
     7
100
AcDbCircle
 10
286.3713193677199
 20
133.7802632647586
 30
0.0
 40
19.67617023597296
100
AcDbArc
 50
251.6247099390815
 51
286.8554081818544
  0
ARC
  5
18F
330
2
100
AcDbEntity
  8
KIJUN
 62
     7
100
AcDbCircle
 10
297.681427602493
 20
108.0672085983752
 30
0.0
 40
8.875744423320865
100
AcDbArc
 50
88.45342293228441
 51
129.1594084058411
  0
ARC
  5
190
330
2
100
AcDbEntity
  8
KIJUN
 62
     7
100
AcDbCircle
 10
296.6681241855762
 20
135.1252467021315
 30
0.0
 40
2.446276093611705
100
AcDbArc
 50
226.059797406758
 51
290.7057657661603
  0
ARC
  5
191
330
2
100
AcDbEntity
  8
KIJUN
 62
     7
100
AcDbCircle
 10
295.6645427260586
 20
134.0838347792761
 30
0.0
 40
1.0
100
AcDbArc
 50
107.3916582619514
 51
226.0597974067574
  0
ARC
  5
192
330
2
100
AcDbEntity
  8
KIJUN
 62
     7
100
AcDbCircle
 10
288.3506780470551
 20
132.3246075653606
 30
0.0
 40
1.0
100
AcDbArc
 50
133.6808136108273
 51
216.6864273123562
  0
ARC
  5
193
330
2
100
AcDbEntity
  8
KIJUN
 62
     7
100
AcDbCircle
 10
294.437294750123
 20
125.951055411751
 30
0.0
 40
9.813005727040293
100
AcDbArc
 50
74.42254836687969
 51
133.6808136108276
  0
ARC
  5
194
330
2
100
AcDbEntity
  8
KIJUN
 62
     7
100
AcDbCircle
 10
290.3128818357274
 20
133.7864662495727
 30
0.0
 40
3.446890786464648
100
AcDbArc
 50
216.686427312358
 51
274.7707595607719
  0
ARC
  5
195
330
2
100
AcDbEntity
  8
KIJUN
 62
     7
100
AcDbCircle
 10
290.7922812864173
 20
125.3745738558798
 30
0.0
 40
17.26180148223639
100
AcDbArc
 50
147.617890617474
 51
209.25141241
  0
ARC
  5
196
330
2
100
AcDbEntity
  8
KIJUN
 62
     7
100
AcDbCircle
 10
272.4024109297187
 20
116.901224826383
 30
0.0
 40
18.12364078034088
100
AcDbArc
 50
77.85696117774789
 51
89.05514491638227
  0
ARC
  5
197
330
2
100
AcDbEntity
  8
KIJUN
 62
     7
100
AcDbCircle
 10
277.3839332506314
 20
121.0366467175891
 30
0.0
 40
4.417566739525923
100
AcDbArc
 50
248.0357044355556
 51
5.206015507681165
  0
ARC
  5
198
330
2
100
AcDbEntity
  8
KIJUN
 62
     7
100
AcDbCircle
 10
280.4838474584391
 20
116.0563526014636
 30
0.0
 40
1.0
100
AcDbArc
 50
169.8054813610612
 51
251.6247099390849
  0
ARC
  5
199
330
2
100
AcDbEntity
  8
KIJUN
 62
     7
100
AcDbCircle
 10
291.4815697463695
 20
114.0786362054901
 30
0.0
 40
12.17413341898781
100
AcDbArc
 50
164.6523311925041
 51
169.8054813610707
  0
ARC
  5
19A
330
2
100
AcDbEntity
  8
KIJUN
 62
     7
100
AcDbCircle
 10
283.7424622645898
 20
120.8081494773724
 30
0.0
 40
15.7294499384014
100
AcDbArc
 50
64.23590943784005
 51
118.5922411704889
  0
ARC
  5
19B
330
2
100
AcDbEntity
  8
KIJUN
 62
     7
100
AcDbCircle
 10
285.5880833615666
 20
127.6904353826417
 30
0.0
 40
7.319559518041962
100
AcDbArc
 50
154.1024000153694
 51
238.6802529246605
  0
ARC
  5
19C
330
2
100
AcDbEntity
  8
KIJUN
 62
     7
100
AcDbCircle
 10
316.3920095957739
 20
132.5728934067811
 30
0.0
 40
17.33691485514848
100
AcDbArc
 50
280.8140948409666
 51
3.95128060146229
  0
ARC
  5
19D
330
2
100
AcDbEntity
  8
KIJUN
 62
     7
100
AcDbCircle
 10
323.3729668750951
 20
124.260072781171
 30
0.0
 40
2.035532347391157
100
AcDbArc
 50
147.0604530754157
 51
228.2567697836013
  0
ARC
  5
19E
330
2
100
AcDbEntity
  8
KIJUN
 62
     7
100
AcDbCircle
 10
333.10789364239
 20
127.3896198488257
 30
0.0
 40
8.013207475080267
100
AcDbArc
 50
74.85629356148513
 51
138.4869192817196
  0
ARC
  5
19F
330
2
100
AcDbEntity
  8
KIJUN
 62
     7
100
AcDbCircle
 10
328.526886398792
 20
122.2393986404541
 30
0.0
 40
7.541317185547331
100
AcDbArc
 50
117.1044699671501
 51
155.4985855593988
  0
ARC
  5
1A0
330
2
100
AcDbEntity
  8
KIJUN
 62
     7
100
AcDbCircle
 10
325.9010226290786
 20
129.5670857705514
 30
0.0
 40
1.0
100
AcDbArc
 50
128.1916161963108
 51
204.6910957751101
  0
ARC
  5
1A1
330
2
100
AcDbEntity
  8
KIJUN
 62
     7
100
AcDbCircle
 10
328.0209391540636
 20
130.5417393103726
 30
0.0
 40
3.333237149453593
100
AcDbArc
 50
204.6910957751034
 51
309.0042214434022
  0
ARC
  5
1A2
330
2
100
AcDbEntity
  8
KIJUN
 62
     7
100
AcDbCircle
 10
330.2372425114416
 20
124.0550737767035
 30
0.0
 40
8.013207475080267
100
AcDbArc
 50
74.85629356148513
 51
128.191616196307
  0
ARC
  5
1A3
330
2
100
AcDbEntity
  8
KIJUN
 62
     7
100
AcDbCircle
 10
327.8563728582479
 20
132.0379107758486
 30
0.0
 40
1.0
100
AcDbArc
 50
138.4869192817192
 51
218.3904959070756
  0
ARC
  5
1A4
330
2
100
AcDbEntity
  8
KIJUN
 62
     7
100
AcDbCircle
 10
324.3812729714285
 20
126.6551331146894
 30
0.0
 40
4.572149173956802
100
AcDbArc
 50
238.872439864741
 51
327.954698041567
  0
ARC
  5
1A5
330
2
100
AcDbEntity
  8
KIJUN
 62
     7
100
AcDbCircle
 10
323.4686076336531
 20
125.3314992236956
 30
0.0
 40
4.913395568789728
100
AcDbArc
 50
233.9314951927971
 51
347.0355719162374
  0
ARC
  5
1A6
330
2
100
AcDbEntity
  8
KIJUN
 62
     7
100
AcDbCircle
 10
320.9330060323263
 20
127.2332544572738
 30
0.0
 40
13.17970829986046
100
AcDbArc
 50
267.0968819594845
 51
355.7016354246842
  0
ARC
  5
1A7
330
2
100
AcDbEntity
  8
KIJUN
 62
     7
100
AcDbCircle
 10
328.836023024596
 20
119.9695808832009
 30
0.0
 40
5.408317591263967
100
AcDbArc
 50
293.2651449982468
 51
4.052774638057027
  0
ARC
  5
1A8
330
2
100
AcDbEntity
  8
KIJUN
 62
     7
100
AcDbCircle
 10
335.8746870046799
 20
115.9384091452481
 30
0.0
 40
5.484328245193591
100
AcDbArc
 50
142.6434666143504
 51
211.6288520600667
  0
ARC
  5
1A9
330
2
100
AcDbEntity
  8
KIJUN
 62
     7
100
AcDbCircle
 10
329.7695924142934
 20
118.3555030672148
 30
0.0
 40
5.484328245193591
100
AcDbArc
 50
285.1725113175716
 51
354.1578967632868
  0
ARC
  5
1AA
330
2
100
AcDbEntity
  8
KIJUN
 62
     7
100
AcDbCircle
 10
329.2787672982769
 20
146.6460197359621
 30
0.0
 40
13.3655183979464
100
AcDbArc
 50
242.6394630727162
 51
263.517605823178
  0
ARC
  5
1AB
330
2
100
AcDbEntity
  8
KIJUN
 62
     7
100
AcDbCircle
 10
304.7419998547788
 20
114.219467490355
 30
0.0
 40
1.0
100
AcDbArc
 50
133.9402025932425
 51
252.6083417380485
  0
ARC
  5
1AC
330
2
100
AcDbEntity
  8
KIJUN
 62
     7
100
AcDbCircle
 10
307.365039080741
 20
120.5788039167265
 30
0.0
 40
7.875708307650747
100
AcDbArc
 50
248.2222793144056
 51
310.7595248885902
  0
ARC
  5
1AD
330
2
100
AcDbEntity
  8
KIJUN
 62
     7
100
AcDbCircle
 10
318.1278594770275
 20
101.0349991176678
 30
0.0
 40
14.69573145367693
100
AcDbArc
 50
93.7680902668205
 51
112.4876369308762
  0
ARC
  5
1AE
330
2
100
AcDbEntity
  8
KIJUN
 62
     7
100
AcDbCircle
 10
313.4819615769669
 20
112.5848779665676
 30
0.0
 40
2.201648484250534
100
AcDbArc
 50
122.2221708373609
 51
133.9402025932419
  0
ARC
  5
1AF
330
2
100
AcDbEntity
  8
KIJUN
 62
     7
100
AcDbCircle
 10
312.5787382634011
 20
113.5221486971373
 30
0.0
 40
0.9
100
AcDbArc
 50
133.9402025932425
 51
252.6083417380485
  0
ARC
  5
1B0
330
2
100
AcDbEntity
  8
KIJUN
 62
     7
100
AcDbCircle
 10
306.5533319694599
 20
125.2445969616494
 30
0.0
 40
4.123884569588327
100
AcDbArc
 50
256.295863491485
 51
329.3703033681438
  0
ARC
  5
1B1
330
2
100
AcDbEntity
  8
KIJUN
 62
     7
100
AcDbCircle
 10
307.6937848674795
 20
124.5693369130377
 30
0.0
 40
2.798513321276789
100
AcDbArc
 50
329.370303368148
 51
119.6126507132602
  0
ARC
  5
1B2
330
2
100
AcDbEntity
  8
KIJUN
 62
     7
100
AcDbCircle
 10
315.9156991889976
 20
141.3898157675476
 30
0.0
 40
14.6993210851798
100
AcDbArc
 50
241.316632716773
 51
266.9940796181872
  0
ARC
  5
1B3
330
2
100
AcDbEntity
  8
KIJUN
 62
     7
100
AcDbCircle
 10
313.6371346043219
 20
135.7184243030634
 30
0.0
 40
2.201648484250534
100
AcDbArc
 50
226.059797406758
 51
237.7778291626387
  0
ARC
  5
1B4
330
2
100
AcDbEntity
  8
KIJUN
 62
     7
100
AcDbCircle
 10
312.7339112907561
 20
134.7811535724938
 30
0.0
 40
0.9
100
AcDbArc
 50
107.3916582619514
 51
226.0597974067574
  0
ARC
  5
1B5
330
2
100
AcDbEntity
  8
KIJUN
 62
     7
100
AcDbCircle
 10
307.520212108096
 20
127.7244983529045
 30
0.0
 40
7.875708307650747
100
AcDbArc
 50
49.24047511140974
 51
111.7777206855944
  0
ARC
  5
1B6
330
2
100
AcDbEntity
  8
KIJUN
 62
     7
100
AcDbCircle
 10
307.4047283779959
 20
127.6335309897628
 30
0.0
 40
10.8135055293789
100
AcDbArc
 50
247.2831475282666
 51
317.1614875984693
  0
ARC
  5
1B7
330
2
100
AcDbEntity
  8
KIJUN
 62
     7
100
AcDbCircle
 10
325.4431598761249
 20
179.7908061107142
 30
0.0
 40
51.02735782587056
100
AcDbArc
 50
247.4060384353289
 51
258.8010373784094
  0
ARC
  5
1B8
330
2
100
AcDbEntity
  8
KIJUN
 62
     7
100
AcDbCircle
 10
306.8773248386621
 20
115.3517387599655
 30
0.0
 40
16.78683040343319
100
AcDbArc
 50
88.89338319228901
 51
99.00627298898292
  0
ARC
  5
1B9
330
2
100
AcDbEntity
  8
KIJUN
 62
     7
100
AcDbCircle
 10
305.9007543416514
 20
135.1252467021315
 30
0.0
 40
2.446276093611705
100
AcDbArc
 50
226.059797406758
 51
268.5429130808547
  0
ARC
  5
1BA
330
2
100
AcDbEntity
  8
KIJUN
 62
     7
100
AcDbCircle
 10
304.8971728821338
 20
134.0838347792761
 30
0.0
 40
1.0
100
AcDbArc
 50
107.3916582619514
 51
226.0597974067574
  0
ARC
  5
1BB
330
2
100
AcDbEntity
  8
KIJUN
 62
     7
100
AcDbCircle
 10
307.721687007784
 20
132.053295164847
 30
0.0
 40
16.720559088529
100
AcDbArc
 50
256.7701001691792
 51
320.2429444148837
  0
ARC
  5
1BC
330
2
100
AcDbEntity
  8
KIJUN
 62
     7
100
AcDbCircle
 10
314.8490213349445
 20
120.7703286857855
 30
0.0
 40
8.495412982371481
100
AcDbArc
 50
252.6083417380519
 51
309.6112089164015
  0
LINE
  5
1BD
330
2
100
AcDbEntity
  8
KIJUN
 62
     7
100
AcDbLine
 10
310.1212329818644
 20
123.1767951860748
 30
0.0
 11
321.6496266332275
 21
123.1767951860758
 31
0.0
  0
LINE
  5
1BE
330
2
100
AcDbEntity
  8
KIJUN
 62
     7
100
AcDbLine
 10
321.8208916299253
 20
125.6891955986767
 30
0.0
 11
310.2584667841241
 21
125.6891955986767
 31
0.0
  0
ARC
  5
1BF
330
2
100
AcDbEntity
  8
KIJUN
 62
     7
100
AcDbCircle
 10
316.7186150885405
 20
121.8505089723026
 30
0.0
 40
14.43067592024489
100
AcDbArc
 50
63.59498334698074
 51
107.1436843013402
  0
ARC
  5
1C0
330
2
100
AcDbEntity
  8
KIJUN
 62
     7
100
AcDbCircle
 10
322.2384784754071
 20
174.2251089711324
 30
0.0
 40
41.65093968815511
100
AcDbArc
 50
256.7077157004144
 51
267.8190360875232
  0
ARC
  5
1C1
330
2
100
AcDbEntity
  8
KIJUN
 62
     7
100
AcDbCircle
 10
350.8506780470551
 20
132.3246075653606
 30
0.0
 40
1.0
100
AcDbArc
 50
133.6808136108273
 51
216.6864273123562
  0
ARC
  5
1C2
330
2
100
AcDbEntity
  8
KIJUN
 62
     7
100
AcDbCircle
 10
334.9024109297188
 20
116.901224826383
 30
0.0
 40
18.12364078034088
100
AcDbArc
 50
77.85696117774789
 51
89.05514491638227
  0
ARC
  5
1C3
330
2
100
AcDbEntity
  8
KIJUN
 62
     7
100
AcDbCircle
 10
346.2424622645898
 20
120.8081494773724
 30
0.0
 40
15.7294499384014
100
AcDbArc
 50
64.23590943784005
 51
118.5922411704889
  0
ARC
  5
1C4
330
2
100
AcDbEntity
  8
KIJUN
 62
     7
100
AcDbCircle
 10
369.3773248386621
 20
115.3517387599655
 30
0.0
 40
16.78683040343319
100
AcDbArc
 50
88.89338319228901
 51
99.00627298898292
  0
ARC
  5
1C5
330
2
100
AcDbEntity
  8
KIJUN
 62
     7
100
AcDbCircle
 10
360.181427602493
 20
108.0672085983752
 30
0.0
 40
8.875744423320865
100
AcDbArc
 50
88.45342293228441
 51
129.1594084058411
  0
ARC
  5
1C6
330
2
100
AcDbEntity
  8
KIJUN
 62
     7
100
AcDbCircle
 10
348.3304562143604
 20
136.3272171643509
 30
0.0
 40
20.22579259963039
100
AcDbArc
 50
261.5818275840422
 51
300.3787999076869
  0
ARC
  5
1C7
330
2
100
AcDbEntity
  8
KIJUN
 62
     7
100
AcDbCircle
 10
332.2587472760403
 20
206.4863154109322
 30
0.0
 40
81.91961160323582
100
AcDbArc
 50
280.4400601159104
 51
286.3360795786631
  0
ARC
  5
1C8
330
2
100
AcDbEntity
  8
KIJUN
 62
     7
100
AcDbCircle
 10
341.4312546626044
 20
128.2212477156082
 30
0.0
 40
4.584595732755333
100
AcDbArc
 50
347.8146658411333
 51
55.15774551494153
  0
ARC
  5
1C9
330
2
100
AcDbEntity
  8
KIJUN
 62
     7
100
AcDbCircle
 10
334.6024566366984
 20
127.2856606398637
 30
0.0
 40
11.31014817387736
100
AcDbArc
 50
328.8638563519705
 51
359.8373616923252
  0
ARC
  5
1CA
330
2
100
AcDbEntity
  8
KIJUN
 62
     7
100
AcDbCircle
 10
348.0880833615668
 20
127.6904353826417
 30
0.0
 40
7.319559518041962
100
AcDbArc
 50
154.1024000153694
 51
238.6802529246605
  0
LINE
  5
1CB
330
2
100
AcDbEntity
  8
KIJUN
 62
     7
100
AcDbLine
 10
345.1398508306024
 20
123.1767951860748
 30
0.0
 11
356.4517515111954
 21
123.1767951860758
 31
0.0
  0
LINE
  5
1CC
330
2
100
AcDbEntity
  8
KIJUN
 62
     7
100
AcDbLine
 10
356.6230165078931
 20
125.6891955986767
 30
0.0
 11
345.7993647406049
 21
125.6891955986767
 31
0.0
  0
ARC
  5
1CD
330
2
100
AcDbEntity
  8
KIJUN
 62
     7
100
AcDbCircle
 10
342.9838474584391
 20
116.0563526014636
 30
0.0
 40
1.0
100
AcDbArc
 50
169.8054813610612
 51
251.6247099390849
  0
ARC
  5
1CE
330
2
100
AcDbEntity
  8
KIJUN
 62
     7
100
AcDbCircle
 10
353.9815697463695
 20
114.0786362054901
 30
0.0
 40
12.17413341898781
100
AcDbArc
 50
164.6523311925041
 51
169.8054813610707
  0
ARC
  5
1CF
330
2
100
AcDbEntity
  8
KIJUN
 62
     7
100
AcDbCircle
 10
348.8713193677199
 20
133.7802632647586
 30
0.0
 40
19.67617023597296
100
AcDbArc
 50
251.6247099390815
 51
286.8554081818544
  0
ARC
  5
1D0
330
2
100
AcDbEntity
  8
KIJUN
 62
     7
100
AcDbCircle
 10
339.8839332506314
 20
121.0366467175891
 30
0.0
 40
4.417566739525923
100
AcDbArc
 50
248.0357044355556
 51
5.206015507681165
  0
ARC
  5
1D1
330
2
100
AcDbEntity
  8
KIJUN
 62
     7
100
AcDbCircle
 10
353.2922812864173
 20
125.3745738558798
 30
0.0
 40
17.26180148223639
100
AcDbArc
 50
147.617890617474
 51
209.25141241
  0
ARC
  5
1D2
330
2
100
AcDbEntity
  8
KIJUN
 62
     7
100
AcDbCircle
 10
369.9047283779959
 20
127.6335309897628
 30
0.0
 40
10.8135055293789
100
AcDbArc
 50
247.2831475282666
 51
317.1614875984693
  0
ARC
  5
1D3
330
2
100
AcDbEntity
  8
KIJUN
 62
     7
100
AcDbCircle
 10
378.4156991889976
 20
141.3898157675476
 30
0.0
 40
14.6993210851798
100
AcDbArc
 50
241.316632716773
 51
266.9940796181872
  0
LINE
  5
1D4
330
2
100
AcDbEntity
  8
KIJUN
 62
     7
100
AcDbLine
 10
384.3208916299253
 20
125.6891955986767
 30
0.0
 11
372.7584667841241
 21
125.6891955986767
 31
0.0
  0
LINE
  5
1D5
330
2
100
AcDbEntity
  8
KIJUN
 62
     7
100
AcDbLine
 10
372.6212329818644
 20
123.1767951860748
 30
0.0
 11
384.1496266332275
 21
123.1767951860758
 31
0.0
  0
ARC
  5
1D6
330
2
100
AcDbEntity
  8
KIJUN
 62
     7
100
AcDbCircle
 10
370.1937848674796
 20
124.5693369130377
 30
0.0
 40
2.798513321276789
100
AcDbArc
 50
329.370303368148
 51
119.6126507132602
  0
ARC
  5
1D7
330
2
100
AcDbEntity
  8
KIJUN
 62
     7
100
AcDbCircle
 10
369.0533319694599
 20
125.2445969616494
 30
0.0
 40
4.123884569588327
100
AcDbArc
 50
256.295863491485
 51
329.3703033681438
  0
ARC
  5
1D8
330
2
100
AcDbEntity
  8
KIJUN
 62
     7
100
AcDbCircle
 10
360.531906444863
 20
122.2730008110753
 30
0.0
 40
9.439347758190537
100
AcDbArc
 50
230.8830501506033
 51
309.6112089164015
  0
ARC
  5
1D9
330
2
100
AcDbEntity
  8
KIJUN
 62
     7
100
AcDbCircle
 10
367.2419998547788
 20
114.219467490355
 30
0.0
 40
1.0
100
AcDbArc
 50
133.9402025932425
 51
252.6083417380485
  0
ARC
  5
1DA
330
2
100
AcDbEntity
  8
KIJUN
 62
     7
100
AcDbCircle
 10
369.865039080741
 20
120.5788039167265
 30
0.0
 40
7.875708307650747
100
AcDbArc
 50
248.2222793144056
 51
310.7595248885902
  0
ARC
  5
1DB
330
2
100
AcDbEntity
  8
KIJUN
 62
     7
100
AcDbCircle
 10
380.6278594770274
 20
101.0349991176678
 30
0.0
 40
14.69573145367693
100
AcDbArc
 50
93.7680902668205
 51
112.4876369308762
  0
ARC
  5
1DC
330
2
100
AcDbEntity
  8
KIJUN
 62
     7
100
AcDbCircle
 10
375.0787382634011
 20
113.5221486971373
 30
0.0
 40
0.9
100
AcDbArc
 50
133.9402025932425
 51
252.6083417380485
  0
ARC
  5
1DD
330
2
100
AcDbEntity
  8
KIJUN
 62
     7
100
AcDbCircle
 10
375.9819615769669
 20
112.5848779665676
 30
0.0
 40
2.201648484250534
100
AcDbArc
 50
122.2221708373609
 51
133.9402025932419
  0
ARC
  5
1DE
330
2
100
AcDbEntity
  8
KIJUN
 62
     7
100
AcDbCircle
 10
377.3490213349445
 20
120.7703286857855
 30
0.0
 40
8.495412982371481
100
AcDbArc
 50
252.6083417380519
 51
309.6112089164015
  0
ARC
  5
1DF
330
2
100
AcDbEntity
  8
KIJUN
 62
     7
100
AcDbCircle
 10
370.221687007784
 20
132.053295164847
 30
0.0
 40
16.720559088529
100
AcDbArc
 50
256.7701001691792
 51
320.2429444148837
  0
ARC
  5
1E0
330
2
100
AcDbEntity
  8
KIJUN
 62
     7
100
AcDbCircle
 10
388.4010226290785
 20
129.5670857705514
 30
0.0
 40
1.0
100
AcDbArc
 50
128.1916161963108
 51
204.6910957751101
  0
ARC
  5
1E1
330
2
100
AcDbEntity
  8
KIJUN
 62
     7
100
AcDbCircle
 10
390.3563728582479
 20
132.0379107758486
 30
0.0
 40
1.0
100
AcDbArc
 50
138.4869192817192
 51
218.3904959070756
  0
ARC
  5
1E2
330
2
100
AcDbEntity
  8
KIJUN
 62
     7
100
AcDbCircle
 10
385.8729668750951
 20
124.260072781171
 30
0.0
 40
2.035532347391157
100
AcDbArc
 50
147.0604530754157
 51
228.2567697836013
  0
ARC
  5
1E3
330
2
100
AcDbEntity
  8
KIJUN
 62
     7
100
AcDbCircle
 10
391.026886398792
 20
122.2393986404541
 30
0.0
 40
7.541317185547331
100
AcDbArc
 50
117.1044699671501
 51
155.4985855593988
  0
ARC
  5
1E4
330
2
100
AcDbEntity
  8
KIJUN
 62
     7
100
AcDbCircle
 10
384.7384784754071
 20
174.2251089711324
 30
0.0
 40
41.65093968815511
100
AcDbArc
 50
256.7077157004144
 51
267.8190360875232
  0
ARC
  5
1E5
330
2
100
AcDbEntity
  8
KIJUN
 62
     7
100
AcDbCircle
 10
387.9431598761249
 20
179.7908061107142
 30
0.0
 40
51.02735782587056
100
AcDbArc
 50
247.4060384353289
 51
258.8010373784094
  0
ARC
  5
1E6
330
2
100
AcDbEntity
  8
KIJUN
 62
     7
100
AcDbCircle
 10
376.1371346043219
 20
135.7184243030634
 30
0.0
 40
2.201648484250534
100
AcDbArc
 50
226.059797406758
 51
237.7778291626387
  0
ARC
  5
1E7
330
2
100
AcDbEntity
  8
KIJUN
 62
     7
100
AcDbCircle
 10
375.2339112907561
 20
134.7811535724938
 30
0.0
 40
0.9
100
AcDbArc
 50
107.3916582619514
 51
226.0597974067574
  0
ARC
  5
1E8
330
2
100
AcDbEntity
  8
KIJUN
 62
     7
100
AcDbCircle
 10
379.2186150885403
 20
121.8505089723026
 30
0.0
 40
14.43067592024489
100
AcDbArc
 50
63.59498334698074
 51
107.1436843013402
  0
ARC
  5
1E9
330
2
100
AcDbEntity
  8
KIJUN
 62
     7
100
AcDbCircle
 10
370.0202121080959
 20
127.7244983529045
 30
0.0
 40
7.875708307650747
100
AcDbArc
 50
49.24047511140974
 51
111.7777206855944
  0
ARC
  5
1EA
330
2
100
AcDbEntity
  8
KIJUN
 62
     7
100
AcDbCircle
 10
367.3971728821338
 20
134.0838347792761
 30
0.0
 40
1.0
100
AcDbArc
 50
107.3916582619514
 51
226.0597974067574
  0
ARC
  5
1EB
330
2
100
AcDbEntity
  8
KIJUN
 62
     7
100
AcDbCircle
 10
368.4007543416514
 20
135.1252467021315
 30
0.0
 40
2.446276093611705
100
AcDbArc
 50
226.059797406758
 51
268.5429130808547
  0
ARC
  5
1EC
330
2
100
AcDbEntity
  8
KIJUN
 62
     7
100
AcDbCircle
 10
368.7087543588158
 20
103.897009170738
 30
0.0
 40
23.10554160136256
100
AcDbArc
 50
89.74659339258636
 51
114.9795156928596
  0
ARC
  5
1ED
330
2
100
AcDbEntity
  8
KIJUN
 62
     7
100
AcDbCircle
 10
366.0376002088148
 20
125.0958419763611
 30
0.0
 40
6.872732664720181
100
AcDbArc
 50
84.05469909865081
 51
181.3895416542813
  0
ARC
  5
1EE
330
2
100
AcDbEntity
  8
KIJUN
 62
     7
100
AcDbCircle
 10
367.0958429182812
 20
120.4453396798623
 30
0.0
 40
9.108959502469156
100
AcDbArc
 50
62.08372592470459
 51
150.5117480352401
  0
ARC
  5
1EF
330
2
100
AcDbEntity
  8
KIJUN
 62
     7
100
AcDbCircle
 10
359.3330918944065
 20
123.9169342241135
 30
0.0
 40
1.0
100
AcDbArc
 50
112.4374150629141
 51
249.8142898568517
  0
ARC
  5
1F0
330
2
100
AcDbEntity
  8
KIJUN
 62
     7
100
AcDbCircle
 10
367.3987060999149
 20
142.3008920655344
 30
0.0
 40
21.07367894541674
100
AcDbArc
 50
246.4775596511076
 51
271.8427159011838
  0
ARC
  5
1F1
330
2
100
AcDbEntity
  8
KIJUN
 62
     7
100
AcDbCircle
 10
358.1645427260586
 20
134.0838347792761
 30
0.0
 40
1.0
100
AcDbArc
 50
107.3916582619514
 51
226.0597974067574
  0
ARC
  5
1F2
330
2
100
AcDbEntity
  8
KIJUN
 62
     7
100
AcDbCircle
 10
352.710800695275
 20
126.6889095215649
 30
0.0
 40
6.821650273490255
100
AcDbArc
 50
112.482854299298
 51
175.2520409522292
  0
ARC
  5
1F3
330
2
100
AcDbEntity
  8
KIJUN
 62
     7
100
AcDbCircle
 10
359.1681241855762
 20
135.1252467021315
 30
0.0
 40
2.446276093611705
100
AcDbArc
 50
226.059797406758
 51
290.7057657661603
  0
ARC
  5
1F4
330
2
100
AcDbEntity
  8
KIJUN
 62
     7
100
AcDbCircle
 10
352.8128818357273
 20
133.7864662495727
 30
0.0
 40
3.446890786464648
100
AcDbArc
 50
216.686427312358
 51
274.7707595607719
  0
ARC
  5
1F5
330
2
100
AcDbEntity
  8
KIJUN
 62
     7
100
AcDbCircle
 10
360.8091372746792
 20
126.0548604309911
 30
0.0
 40
9.453205756517071
100
AcDbArc
 50
52.71586012013337
 51
108.1421424112397
  0
ARC
  5
1F6
330
2
100
AcDbEntity
  8
KIJUN
 62
     7
100
AcDbCircle
 10
356.937294750123
 20
125.951055411751
 30
0.0
 40
9.813005727040293
100
AcDbArc
 50
74.42254836687969
 51
133.6808136108276
  0
ARC
  5
1F7
330
2
100
AcDbEntity
  8
KIJUN
 62
     7
100
AcDbCircle
 10
364.8172714444298
 20
123.0383911266877
 30
0.0
 40
5.45618292187305
100
AcDbArc
 50
182.0532537040376
 51
279.6170939252515
  0
LWPOLYLINE
  5
1F8
330
2
100
AcDbEntity
  8
KIJUN
 62
     7
100
AcDbPolyline
 90
        6
 70
     1
 43
0.0
 10
391.7516632670668
 20
47.6981795693589
 10
394.6234813648522
 20
47.6981795693589
 10
395.4562051781826
 20
100.6216710037279
 42
0.4188292494842841
 10
394.4563289421913
 20
101.6374035400655
 10
391.918823218332
 20
101.6374035400655
 42
0.4188292076925493
 10
390.9189469801033
 20
100.6216711459297
  0
DIMENSION
  5
1F9
330
2
100
AcDbEntity
  8
SUNPOU
100
AcDbDimension
  2
*D3
 10
12.01267622202571
 20
28.42999679866738
 30
0.0
 11
7.012676222025715
 21
84.92999679866732
 31
0.0
 71
     5
 42
112.9999999999998
  3
STANDARD$0
100
AcDbAlignedDimension
 13
26.922548529315
 23
141.4299967986672
 33
0.0
 14
26.922548529315
 24
28.42999679866738
 34
0.0
 50
90.0
100
AcDbRotatedDimension
1001
ACAD
1000
DSTYLE
1002
{
1070
    41
1040
0.5
1070
    42
1040
1.0
1070
    44
1040
0.0
1070
    77
1070
     1
1070
    78
1070
     0
1070
   140
1040
3.0
1070
   141
1040
1.0
1070
   146
1040
0.0642857142857143
1070
   172
1070
     0
1070
   176
1070
    60
1070
   177
1070
    70
1070
   178
1070
    60
1070
   271
1070
     0
1070
   272
1070
     0
1070
   341
1005
0
1002
}
  0
ARC
  5
20F
330
2
100
AcDbEntity
  8
KIJUN
 62
     7
100
AcDbCircle
 10
394.3090814026206
 20
34.16229438243159
 30
0.0
 40
3.5
100
AcDbArc
 50
221.8614454176095
 51
314.7894045199906
  0
ARC
  5
210
330
2
100
AcDbEntity
  8
KIJUN
 62
     7
100
AcDbCircle
 10
394.3090814026206
 20
34.16229438243159
 30
0.0
 40
3.5
100
AcDbArc
 50
45.2105954800094
 51
138.1385545823905
  0
ARC
  5
211
330
2
100
AcDbEntity
  8
KIJUN
 62
     7
100
AcDbCircle
 10
398.888350771512
 20
29.54923769004904
 30
0.0
 40
3.0
100
AcDbArc
 50
113.3092114720964
 51
134.789404519994
  0
ARC
  5
212
330
2
100
AcDbEntity
  8
KIJUN
 62
     7
100
AcDbCircle
 10
398.888350771512
 20
38.77535107481413
 30
0.0
 40
3.0
100
AcDbArc
 50
225.2105954800058
 51
246.6907885279035
  0
DIMENSION
  5
213
330
2
100
AcDbEntity
  8
SUNPOU
100
AcDbDimension
  2
*D2
 10
109.922548529315
 20
169.2522099629369
 30
0.0
 11
68.422548529315
 21
174.2522099629369
 31
0.0
 71
     5
 42
83.0
  3
STANDARD$0
100
AcDbAlignedDimension
 13
26.922548529315
 23
141.4299967986674
 33
0.0
 14
109.922548529315
 24
141.4299967986674
 34
0.0
 50
0.000000000000007
100
AcDbRotatedDimension
1001
ACAD
1000
DSTYLE
1002
{
1070
    41
1040
0.5
1070
    42
1040
1.0
1070
    44
1040
0.0
1070
    77
1070
     1
1070
    78
1070
     0
1070
   140
1040
3.0
1070
   141
1040
1.0
1070
   146
1040
0.0642857142857143
1070
   172
1070
     0
1070
   176
1070
    60
1070
   177
1070
    70
1070
   178
1070
    60
1070
   271
1070
     0
1070
   272
1070
     0
1070
   341
1005
0
1002
}
  0
ARC
  5
220
330
2
100
AcDbEntity
  8
KIJUN
 62
     7
100
AcDbCircle
 10
392.2695924142934
 20
118.3555030672148
 30
0.0
 40
5.484328245193591
100
AcDbArc
 50
285.1725113175716
 51
354.1578967632868
  0
ARC
  5
221
330
2
100
AcDbEntity
  8
KIJUN
 62
     7
100
AcDbCircle
 10
398.3746870046799
 20
115.9384091452481
 30
0.0
 40
5.484328245193591
100
AcDbArc
 50
142.6434666143504
 51
211.6288520600667
  0
ARC
  5
222
330
2
100
AcDbEntity
  8
KIJUN
 62
     7
100
AcDbCircle
 10
391.3360230245958
 20
119.9695808832009
 30
0.0
 40
5.408317591263967
100
AcDbArc
 50
293.2651449982468
 51
4.052774638057027
  0
TEXT
  5
223
330
2
100
AcDbEntity
  8
HOJO
100
AcDbText
 10
0.7213576849545689
 20
1.183313000000011
 30
0.0
 40
4.5
  1
PM820
  7
SUNPOU
100
AcDbText
  0
LINE
  5
225
330
2
100
AcDbEntity
  8
WAKU
100
AcDbLine
 10
0.0
 20
0.0
 30
0.0
 11
44.67747103027142
 21
0.0
 31
0.0
  0
LINE
  5
227
330
2
100
AcDbEntity
  8
WAKU
100
AcDbLine
 10
0.0
 20
7.0
 30
0.0
 11
44.67747103027142
 21
7.0
 31
0.0
  0
TEXT
  5
228
330
2
100
AcDbEntity
  8
HOJO
100
AcDbText
 10
29.13870561920476
 20
2.522193000000015
 30
0.0
 40
3.0
  1
113\U+00D783
  7
SUNPOU
100
AcDbText
  0
LWPOLYLINE
  5
229
330
2
100
AcDbEntity
  8
KIJUN
100
AcDbPolyline
 90
       39
 70
     1
 43
0.0
 10
96.22441065378183
 20
108.8652111651667
 42
0.3805616336312714
 10
97.92254852931748
 20
111.929996798667
 42
0.0324591609418578
 10
104.1090039273587
 20
112.3026762811452
 42
0.1027107765616816
 10
104.8783000047406
 20
112.5659797006632
 42
0.0856109038848429
 10
107.2878246565608
 20
114.6173265036257
 42
0.2421197195877012
 10
109.4520655493849
 20
125.4299967986669
 42
0.3012777484910704
 10
107.2878246565604
 20
134.0235408761252
 42
0.1679812884213864
 10
97.92254852931501
 20
137.3707587209611
 10
96.69696538824469
 20
138.7184493785786
 42
0.2826978305001425
 10
95.8048369973414
 20
139.2666674243748
 10
95.10774130355928
 20
139.2666674243748
 42
-0.2826978305001425
 10
94.21561291265616
 20
139.8148854701709
 10
93.6753284232263
 20
140.8817787528711
 42
0.2826978305001425
 10
92.783200032323
 20
141.4299967986672
 10
83.28484002505232
 20
141.4299967986672
 42
0.1736140684261396
 10
82.65015380363545
 20
141.2027667517217
 42
-0.3580195051973714
 10
53.19494325499785
 20
141.2027667517189
 42
0.1736140684260943
 10
52.56025703357771
 20
141.4299967986672
 10
28.92254852931517
 20
141.4299967986672
 42
0.4142135623730951
 10
26.922548529315
 20
139.4299967986673
 10
26.922548529315
 20
39.42999679866738
 42
0.4142135623730951
 10
27.922548529315
 20
38.42999679866738
 10
41.92254852931516
 20
38.42999679866738
 10
41.92254852931516
 20
29.42999679866738
 42
0.4142135623730951
 10
42.92254852931499
 20
28.42999679866738
 10
49.69189298104496
 20
28.42999679866738
 42
0.4759427833981712
 10
50.67073501515371
 20
29.6346141788233
 10
50.51272248922906
 20
30.39050941202845
 42
0.2174634623798164
 10
52.71762012723813
 20
32.93633443422076
 42
0.0887903838524768
 10
52.75573750694539
 20
33.28665022497468
 42
0.170308247679479
 10
50.92254852931459
 20
37.54969882609141
 10
54.45874311054335
 20
38.63148188841956
 42
0.2949438145746877
 10
55.92254852931507
 20
41.08136368306377
 10
55.922548529315
 20
46.15843543805361
 42
0.1324738609369943
 10
55.78695485329565
 20
46.66122933923252
 42
-0.5317770980122607
 10
83.22441065378598
 20
103.3652111651663
 42
0.3805616336312714
 10
84.92254852932189
 20
106.4299967986673
 10
93.15957750068182
 20
106.4299967986672
 42
0.3091531275628154
 10
95.02317074537737
 20
107.7040352168151
 42
-0.2188417687772184
  0
ENDSEC
  0
SECTION
  2
OBJECTS
  0
DICTIONARY
  5
9
330
0
100
AcDbDictionary
281
     1
  3
ACAD_COLOR
350
47
  3
ACAD_GROUP
350
3C
  3
ACAD_LAYOUT
350
1F
  3
ACAD_MATERIAL
350
C
  3
ACAD_MLEADERSTYLE
350
4A
  3
ACAD_MLINESTYLE
350
3D
  3
ACAD_PLOTSETTINGS
350
3E
  3
ACAD_PLOTSTYLENAME
350
8
  3
ACAD_SCALELIST
350
48
  3
ACAD_TABLESTYLE
350
49
  3
ACAD_VISUALSTYLE
350
32
  3
ACDB_RECOMPOSE_DATA
350
23B
  3
AcDbVariableDictionary
350
22E
  0
DICTIONARY
  5
3
330
2
100
AcDbDictionary
280
     1
281
     1
  3
ACAD_LAYOUTSELFREF
360
4
  0
DICTIONARY
  5
21
330
20
100
AcDbDictionary
280
     1
281
     1
  3
ACAD_LAYOUTSELFREF
360
22
  0
DICTIONARY
  5
47
102
{ACAD_REACTORS
330
9
102
}
330
9
100
AcDbDictionary
281
     1
  0
DICTIONARY
  5
3C
102
{ACAD_REACTORS
330
9
102
}
330
9
100
AcDbDictionary
281
     1
  0
DICTIONARY
  5
1F
102
{ACAD_REACTORS
330
9
102
}
330
9
100
AcDbDictionary
281
     1
  3
Model
350
1E
  3
ﾚｲｱｳﾄ1
350
25
  0
DICTIONARY
  5
C
102
{ACAD_REACTORS
330
9
102
}
330
9
100
AcDbDictionary
281
     1
  3
ByBlock
350
3F
  3
ByLayer
350
15
  3
Global
350
B
  0
DICTIONARY
  5
4A
102
{ACAD_REACTORS
330
9
102
}
330
9
100
AcDbDictionary
281
     1
  0
DICTIONARY
  5
3D
102
{ACAD_REACTORS
330
9
102
}
330
9
100
AcDbDictionary
281
     1
  3
STANDARD
350
4C
  0
DICTIONARY
  5
3E
102
{ACAD_REACTORS
330
9
102
}
330
9
100
AcDbDictionary
281
     1
  0
ACDBDICTIONARYWDFLT
  5
8
102
{ACAD_REACTORS
330
9
102
}
330
9
100
AcDbDictionary
281
     1
  3
Normal
350
7
100
AcDbDictionaryWithDefault
340
7
  0
DICTIONARY
  5
48
102
{ACAD_REACTORS
330
9
102
}
330
9
100
AcDbDictionary
281
     1
  3
A0
350
50
  3
A1
350
51
  3
A2
350
52
  3
A3
350
53
  3
A4
350
54
  3
A5
350
55
  3
A6
350
56
  3
A7
350
57
  3
A8
350
58
  3
A9
350
59
  3
B0
350
5A
  3
B1
350
5B
  3
B2
350
5C
  3
B3
350
5D
  3
B4
350
5E
  3
B5
350
5F
  3
B6
350
60
  0
DICTIONARY
  5
49
102
{ACAD_REACTORS
330
9
102
}
330
9
100
AcDbDictionary
281
     1
  3
Standard
350
4D
  0
DICTIONARY
  5
32
102
{ACAD_REACTORS
330
9
102
}
330
9
100
AcDbDictionary
281
     1
  3
2dWireframe
350
31
  3
Realistic
350
4E
  3
Wireframe
350
4F
  0
XRECORD
  5
23B
102
{ACAD_REACTORS
330
9
102
}
330
9
100
AcDbXrecord
280
     1
 90
        1
330
4D
  0
DICTIONARY
  5
22E
102
{ACAD_REACTORS
330
9
102
}
330
9
100
AcDbDictionary
281
     1
  3
CANNOSCALE
350
233
  3
CMLEADERSTYLE
350
230
  3
CTABLESTYLE
350
22F
  3
CVIEWDETAILSTYLE
350
231
  3
CVIEWSECTIONSTYLE
350
232
  3
DIMASSOC
350
237
  3
HIDETEXT
350
236
  3
INDEXCTL
350
235
  3
SORTENTS
350
234
  3
XCLIPFRAME
350
238
  0
XRECORD
  5
4
102
{ACAD_REACTORS
330
3
102
}
330
3
100
AcDbXrecord
280
     1
340
2
  0
XRECORD
  5
22
102
{ACAD_REACTORS
330
21
102
}
330
21
100
AcDbXrecord
280
     1
340
20
  0
LAYOUT
  5
1E
102
{ACAD_XDICTIONARY
360
23E
102
}
102
{ACAD_REACTORS
330
1F
102
}
330
1F
100
AcDbPlotSettings
  1

  2
なし
  4

  6

 40
0.0
 41
0.0
 42
0.0
 43
0.0
 44
0.0
 45
0.0
 46
0.0
 47
0.0
 48
0.0
 49
0.0
140
0.0
141
0.0
142
1.0
143
1.0
 70
  1712
 72
     0
 73
     0
 74
     0
  7
monochrome.ctb
 75
     0
147
1.0
148
0.0
149
0.0
100
AcDbLayout
  1
Model
 70
     1
 71
     0
 10
0.0
 20
0.0
 11
12.0
 21
9.0
 12
0.0
 22
0.0
 32
0.0
 14
0.0
 24
0.0
 34
0.0
 15
0.0
 25
0.0
 35
0.0
146
0.0
 13
0.0
 23
0.0
 33
0.0
 16
1.0
 26
0.0
 36
0.0
 17
0.0
 27
1.0
 37
0.0
 76
     0
330
2
  0
LAYOUT
  5
25
102
{ACAD_XDICTIONARY
360
240
102
}
102
{ACAD_REACTORS
330
1F
102
}
330
1F
100
AcDbPlotSettings
  1

  2
なし
  4

  6

 40
0.0
 41
0.0
 42
0.0
 43
0.0
 44
0.0
 45
0.0
 46
0.0
 47
0.0
 48
0.0
 49
0.0
140
0.0
141
0.0
142
1.0
143
1.0
 70
   688
 72
     0
 73
     0
 74
     5
  7
monochrome.ctb
 75
    16
147
1.0
148
0.0
149
0.0
100
AcDbLayout
  1
ﾚｲｱｳﾄ1
 70
     1
 71
     1
 10
0.0
 20
0.0
 11
12.0
 21
9.0
 12
0.0
 22
0.0
 32
0.0
 14
1.000000000000000E+20
 24
1.000000000000000E+20
 34
1.000000000000000E+20
 15
-1.000000000000000E+20
 25
-1.000000000000000E+20
 35
-1.000000000000000E+20
146
0.0
 13
0.0
 23
0.0
 33
0.0
 16
1.0
 26
0.0
 36
0.0
 17
0.0
 27
1.0
 37
0.0
 76
     0
330
20
  0
MATERIAL
  5
3F
102
{ACAD_XDICTIONARY
360
40
102
}
102
{ACAD_REACTORS
330
C
102
}
330
C
100
AcDbMaterial
  1
ByBlock
 72
     0
 43
0.0208333333333333
 43
0.0
 43
0.0
 43
0.0
 43
0.0
 43
0.0208333333333333
 43
0.0
 43
0.0
 43
0.0
 43
0.0
 43
1.0
 43
0.0
 43
0.0
 43
0.0
 43
0.0
 43
1.0
 77
     0
 47
0.0208333333333333
 47
0.0
 47
0.0
 47
0.0
 47
0.0
 47
0.0208333333333333
 47
0.0
 47
0.0
 47
0.0
 47
0.0
 47
1.0
 47
0.0
 47
0.0
 47
0.0
 47
0.0
 47
1.0
171
     0
 49
0.0208333333333333
 49
0.0
 49
0.0
 49
0.0
 49
0.0
 49
0.0208333333333333
 49
0.0
 49
0.0
 49
0.0
 49
0.0
 49
1.0
 49
0.0
 49
0.0
 49
0.0
 49
0.0
 49
1.0
175
     0
142
0.0208333333333333
142
0.0
142
0.0
142
0.0
142
0.0
142
0.0208333333333333
142
0.0
142
0.0
142
0.0
142
0.0
142
1.0
142
0.0
142
0.0
142
0.0
142
0.0
142
1.0
179
     0
144
0.0208333333333333
144
0.0
144
0.0
144
0.0
144
0.0
144
0.0208333333333333
144
0.0
144
0.0
144
0.0
144
0.0
144
1.0
144
0.0
144
0.0
144
0.0
144
0.0
144
1.0
147
0.0208333333333333
147
0.0
147
0.0
147
0.0
147
0.0
147
0.0208333333333333
147
0.0
147
0.0
147
0.0
147
0.0
147
1.0
147
0.0
147
0.0
147
0.0
147
0.0
147
1.0
  0
MATERIAL
  5
15
102
{ACAD_XDICTIONARY
360
16
102
}
102
{ACAD_REACTORS
330
C
102
}
330
C
100
AcDbMaterial
  1
ByLayer
 72
     0
 43
0.0208333333333333
 43
0.0
 43
0.0
 43
0.0
 43
0.0
 43
0.0208333333333333
 43
0.0
 43
0.0
 43
0.0
 43
0.0
 43
1.0
 43
0.0
 43
0.0
 43
0.0
 43
0.0
 43
1.0
 77
     0
 47
0.0208333333333333
 47
0.0
 47
0.0
 47
0.0
 47
0.0
 47
0.0208333333333333
 47
0.0
 47
0.0
 47
0.0
 47
0.0
 47
1.0
 47
0.0
 47
0.0
 47
0.0
 47
0.0
 47
1.0
171
     0
 49
0.0208333333333333
 49
0.0
 49
0.0
 49
0.0
 49
0.0
 49
0.0208333333333333
 49
0.0
 49
0.0
 49
0.0
 49
0.0
 49
1.0
 49
0.0
 49
0.0
 49
0.0
 49
0.0
 49
1.0
175
     0
142
0.0208333333333333
142
0.0
142
0.0
142
0.0
142
0.0
142
0.0208333333333333
142
0.0
142
0.0
142
0.0
142
0.0
142
1.0
142
0.0
142
0.0
142
0.0
142
0.0
142
1.0
179
     0
144
0.0208333333333333
144
0.0
144
0.0
144
0.0
144
0.0
144
0.0208333333333333
144
0.0
144
0.0
144
0.0
144
0.0
144
1.0
144
0.0
144
0.0
144
0.0
144
0.0
144
1.0
147
0.0208333333333333
147
0.0
147
0.0
147
0.0
147
0.0
147
0.0208333333333333
147
0.0
147
0.0
147
0.0
147
0.0
147
1.0
147
0.0
147
0.0
147
0.0
147
0.0
147
1.0
  0
MATERIAL
  5
B
102
{ACAD_XDICTIONARY
360
D
102
}
102
{ACAD_REACTORS
330
C
102
}
330
C
100
AcDbMaterial
  1
Global
 72
     0
 43
0.0208333333333333
 43
0.0
 43
0.0
 43
0.0
 43
0.0
 43
0.0208333333333333
 43
0.0
 43
0.0
 43
0.0
 43
0.0
 43
1.0
 43
0.0
 43
0.0
 43
0.0
 43
0.0
 43
1.0
 77
     0
 47
0.0208333333333333
 47
0.0
 47
0.0
 47
0.0
 47
0.0
 47
0.0208333333333333
 47
0.0
 47
0.0
 47
0.0
 47
0.0
 47
1.0
 47
0.0
 47
0.0
 47
0.0
 47
0.0
 47
1.0
171
     0
 49
0.0208333333333333
 49
0.0
 49
0.0
 49
0.0
 49
0.0
 49
0.0208333333333333
 49
0.0
 49
0.0
 49
0.0
 49
0.0
 49
1.0
 49
0.0
 49
0.0
 49
0.0
 49
0.0
 49
1.0
175
     0
142
0.0208333333333333
142
0.0
142
0.0
142
0.0
142
0.0
142
0.0208333333333333
142
0.0
142
0.0
142
0.0
142
0.0
142
1.0
142
0.0
142
0.0
142
0.0
142
0.0
142
1.0
179
     0
144
0.0208333333333333
144
0.0
144
0.0
144
0.0
144
0.0
144
0.0208333333333333
144
0.0
144
0.0
144
0.0
144
0.0
144
1.0
144
0.0
144
0.0
144
0.0
144
0.0
144
1.0
147
0.0208333333333333
147
0.0
147
0.0
147
0.0
147
0.0
147
0.0208333333333333
147
0.0
147
0.0
147
0.0
147
0.0
147
1.0
147
0.0
147
0.0
147
0.0
147
0.0
147
1.0
  0
MLINESTYLE
  5
4C
102
{ACAD_REACTORS
330
3D
102
}
330
3D
100
AcDbMlineStyle
  2
STANDARD
 70
     0
  3

 62
   256
 51
90.0
 52
90.0
 71
     2
 49
0.5
 62
   256
  6
BYLAYER
 49
-0.5
 62
   256
  6
BYLAYER
  0
ACDBPLACEHOLDER
  5
7
102
{ACAD_REACTORS
330
8
102
}
330
8
  0
SCALE
  5
50
102
{ACAD_REACTORS
330
48
102
}
330
48
100
AcDbScale
 70
     0
300
1:1
140
1.0
141
1.0
290
     1
  0
SCALE
  5
51
102
{ACAD_REACTORS
330
48
102
}
330
48
100
AcDbScale
 70
     0
300
1/128" = 1'-0"
140
0.0078125
141
12.0
290
     0
  0
SCALE
  5
52
102
{ACAD_REACTORS
330
48
102
}
330
48
100
AcDbScale
 70
     0
300
1/64" = 1'-0"
140
0.015625
141
12.0
290
     0
  0
SCALE
  5
53
102
{ACAD_REACTORS
330
48
102
}
330
48
100
AcDbScale
 70
     0
300
1/32" = 1'-0"
140
0.03125
141
12.0
290
     0
  0
SCALE
  5
54
102
{ACAD_REACTORS
330
48
102
}
330
48
100
AcDbScale
 70
     0
300
1/16" = 1'-0"
140
0.0625
141
12.0
290
     0
  0
SCALE
  5
55
102
{ACAD_REACTORS
330
48
102
}
330
48
100
AcDbScale
 70
     0
300
3/32" = 1'-0"
140
0.09375
141
12.0
290
     0
  0
SCALE
  5
56
102
{ACAD_REACTORS
330
48
102
}
330
48
100
AcDbScale
 70
     0
300
1/8" = 1'-0"
140
0.125
141
12.0
290
     0
  0
SCALE
  5
57
102
{ACAD_REACTORS
330
48
102
}
330
48
100
AcDbScale
 70
     0
300
3/16" = 1'-0"
140
0.1875
141
12.0
290
     0
  0
SCALE
  5
58
102
{ACAD_REACTORS
330
48
102
}
330
48
100
AcDbScale
 70
     0
300
1/4" = 1'-0"
140
0.25
141
12.0
290
     0
  0
SCALE
  5
59
102
{ACAD_REACTORS
330
48
102
}
330
48
100
AcDbScale
 70
     0
300
3/8" = 1'-0"
140
0.375
141
12.0
290
     0
  0
SCALE
  5
5A
102
{ACAD_REACTORS
330
48
102
}
330
48
100
AcDbScale
 70
     0
300
1/2" = 1'-0"
140
0.5
141
12.0
290
     0
  0
SCALE
  5
5B
102
{ACAD_REACTORS
330
48
102
}
330
48
100
AcDbScale
 70
     0
300
3/4" = 1'-0"
140
0.75
141
12.0
290
     0
  0
SCALE
  5
5C
102
{ACAD_REACTORS
330
48
102
}
330
48
100
AcDbScale
 70
     0
300
1" = 1'-0"
140
1.0
141
12.0
290
     0
  0
SCALE
  5
5D
102
{ACAD_REACTORS
330
48
102
}
330
48
100
AcDbScale
 70
     0
300
1-1/2" = 1'-0"
140
1.5
141
12.0
290
     0
  0
SCALE
  5
5E
102
{ACAD_REACTORS
330
48
102
}
330
48
100
AcDbScale
 70
     0
300
3" = 1'-0"
140
3.0
141
12.0
290
     0
  0
SCALE
  5
5F
102
{ACAD_REACTORS
330
48
102
}
330
48
100
AcDbScale
 70
     0
300
6" = 1'-0"
140
6.0
141
12.0
290
     0
  0
SCALE
  5
60
102
{ACAD_REACTORS
330
48
102
}
330
48
100
AcDbScale
 70
     0
300
1'-0" = 1'-0"
140
12.0
141
12.0
290
     0
  0
TABLESTYLE
  5
4D
102
{ACAD_XDICTIONARY
360
239
102
}
102
{ACAD_REACTORS
330
49
102
}
330
49
100
AcDbTableStyle
  3
Standard
 70
     0
 71
     0
 40
0.06
 41
0.06
280
     0
281
     0
  7
STANDARD
140
0.18
170
     2
 62
     0
 63
     7
283
     0
274
    -2
284
     1
 64
     0
275
    -2
285
     1
 65
     0
276
    -2
286
     1
 66
     0
277
    -2
287
     1
 67
     0
278
    -2
288
     1
 68
     0
279
    -2
289
     1
 69
     0
  7
STANDARD
140
0.25
170
     5
 62
     0
 63
     7
283
     0
274
    -2
284
     1
 64
     0
275
    -2
285
     1
 65
     0
276
    -2
286
     1
 66
     0
277
    -2
287
     1
 67
     0
278
    -2
288
     1
 68
     0
279
    -2
289
     1
 69
     0
  7
STANDARD
140
0.18
170
     5
 62
     0
 63
     7
283
     0
274
    -2
284
     1
 64
     0
275
    -2
285
     1
 65
     0
276
    -2
286
     1
 66
     0
277
    -2
287
     1
 67
     0
278
    -2
288
     1
 68
     0
279
    -2
289
     1
 69
     0
  0
VISUALSTYLE
  5
31
102
{ACAD_XDICTIONARY
360
242
102
}
102
{ACAD_REACTORS
330
32
102
}
330
32
100
AcDbVisualStyle
  2
2dWireframe
 70
     4
 71
     0
 72
     2
 73
     0
 90
        0
 40
-0.6
 41
-30.0
 62
     5
 63
     7
 74
     1
 91
        4
 64
     7
 65
   257
 75
     1
175
     1
 42
1.0
 92
        0
 66
   257
 43
1.0
 76
     1
 77
     6
 78
     2
 67
     7
 79
     5
170
     0
171
     0
290
     0
174
     0
 93
        1
 44
0.0
173
     0
291
     0
 45
0.0
1001
ACAD
1000
AcDbSavedByObjectVersion
1070
     0
  0
VISUALSTYLE
  5
4E
102
{ACAD_XDICTIONARY
360
246
102
}
102
{ACAD_REACTORS
330
32
102
}
330
32
100
AcDbVisualStyle
  2
Realistic
 70
     8
 71
     2
 72
     3
 73
     0
 90
        2
 40
-0.6
 41
30.0
 62
     5
 63
     7
 74
     0
 91
        0
 64
     7
 65
   257
 75
     1
175
     1
 42
1.0
 92
        8
 66
   257
 43
1.0
 76
     1
 77
     6
 78
     2
 67
     7
 79
     3
170
     0
171
     0
290
     0
174
     0
 93
       13
 44
0.0
173
     0
291
     0
 45
0.0
1001
ACAD
1000
AcDbSavedByObjectVersion
1070
     0
  0
VISUALSTYLE
  5
4F
102
{ACAD_XDICTIONARY
360
248
102
}
102
{ACAD_REACTORS
330
32
102
}
330
32
100
AcDbVisualStyle
  2
Wireframe
 70
     5
 71
     0
 72
     2
 73
     0
 90
        0
 40
-0.6
 41
-30.0
 62
     5
 63
     7
 74
     1
 91
        4
 64
     7
 65
   257
 75
     1
175
     1
 42
1.0
 92
        0
 66
   257
 43
1.0
 76
     1
 77
     6
 78
     2
 67
     7
 79
     3
170
     0
171
     0
290
     0
174
     0
 93
        1
 44
0.0
173
     0
291
     0
 45
0.0
1001
ACAD
1000
AcDbSavedByObjectVersion
1070
     0
  0
DICTIONARYVAR
  5
233
102
{ACAD_REACTORS
330
22E
102
}
330
22E
100
DictionaryVariables
280
     0
  1
1:1
  0
DICTIONARYVAR
  5
230
102
{ACAD_REACTORS
330
22E
102
}
330
22E
100
DictionaryVariables
280
     0
  1
STANDARD
  0
DICTIONARYVAR
  5
22F
102
{ACAD_REACTORS
330
22E
102
}
330
22E
100
DictionaryVariables
280
     0
  1
STANDARD
  0
DICTIONARYVAR
  5
231
102
{ACAD_REACTORS
330
22E
102
}
330
22E
100
DictionaryVariables
280
     0
  1

  0
DICTIONARYVAR
  5
232
102
{ACAD_REACTORS
330
22E
102
}
330
22E
100
DictionaryVariables
280
     0
  1

  0
DICTIONARYVAR
  5
237
102
{ACAD_REACTORS
330
22E
102
}
330
22E
100
DictionaryVariables
280
     0
  1
1
  0
DICTIONARYVAR
  5
236
102
{ACAD_REACTORS
330
22E
102
}
330
22E
100
DictionaryVariables
280
     0
  1
1
  0
DICTIONARYVAR
  5
235
102
{ACAD_REACTORS
330
22E
102
}
330
22E
100
DictionaryVariables
280
     0
  1
0
  0
DICTIONARYVAR
  5
234
102
{ACAD_REACTORS
330
22E
102
}
330
22E
100
DictionaryVariables
280
     0
  1
127
  0
DICTIONARYVAR
  5
238
102
{ACAD_REACTORS
330
22E
102
}
330
22E
100
DictionaryVariables
280
     0
  1
2
  0
DICTIONARY
  5
23E
330
1E
100
AcDbDictionary
280
     1
281
     1
  3
ACAD_XREC_ROUNDTRIP
360
23F
  0
DICTIONARY
  5
240
330
25
100
AcDbDictionary
280
     1
281
     1
  3
ACAD_XREC_ROUNDTRIP
360
241
  0
DICTIONARY
  5
40
330
3F
100
AcDbDictionary
280
     1
281
     1
  3
ACAD_XREC_ROUNDTRIP
360
244
  3
BUMPTILE
360
41
  3
DIFFUSETILE
360
42
  3
OPACITYTILE
360
43
  3
REFLECTIONTILE
360
44
  3
REFRACTIONTILE
360
45
  3
SPECULARTILE
360
46
  0
DICTIONARY
  5
16
330
15
100
AcDbDictionary
280
     1
281
     1
  3
ACAD_XREC_ROUNDTRIP
360
23D
  3
BUMPTILE
360
17
  3
DIFFUSETILE
360
18
  3
OPACITYTILE
360
19
  3
REFLECTIONTILE
360
1A
  3
REFRACTIONTILE
360
1B
  3
SPECULARTILE
360
1C
  0
DICTIONARY
  5
D
330
B
100
AcDbDictionary
280
     1
281
     1
  3
ACAD_XREC_ROUNDTRIP
360
23C
  3
BUMPTILE
360
E
  3
DIFFUSETILE
360
F
  3
OPACITYTILE
360
10
  3
REFLECTIONTILE
360
11
  3
REFRACTIONTILE
360
12
  3
SPECULARTILE
360
13
  0
DICTIONARY
  5
239
330
4D
100
AcDbDictionary
280
     1
281
     1
  3
ACAD_ROUNDTRIP_2008_TABLESTYLE_CELLSTYLEMAP
360
23A
  3
ACAD_XREC_ROUNDTRIP
360
245
  0
DICTIONARY
  5
242
330
31
100
AcDbDictionary
280
     1
281
     1
  3
ACAD_XREC_ROUNDTRIP
360
243
  0
DICTIONARY
  5
246
330
4E
100
AcDbDictionary
280
     1
281
     1
  3
ACAD_XREC_ROUNDTRIP
360
247
  0
DICTIONARY
  5
248
330
4F
100
AcDbDictionary
280
     1
281
     1
  3
ACAD_XREC_ROUNDTRIP
360
249
  0
XRECORD
  5
23F
102
{ACAD_REACTORS
330
23E
102
}
330
23E
100
AcDbXrecord
280
     1
102
SHADEPLOT
 70
     0
102
SHADEPLOTRESLEVEL
 70
     2
102
SHADEPLOTCUSTOMDPI
 70
   300
  0
XRECORD
  5
241
102
{ACAD_REACTORS
330
240
102
}
330
240
100
AcDbXrecord
280
     1
102
SHADEPLOT
 70
     0
102
SHADEPLOTRESLEVEL
 70
     2
102
SHADEPLOTCUSTOMDPI
 70
   300
  0
XRECORD
  5
244
102
{ACAD_REACTORS
330
40
102
}
330
40
100
AcDbXrecord
280
     1
102
MATERIAL
148
0.0
149
0.0
149
0.0
 93
        0
 94
      127
282
     0
 72
     0
 77
     0
171
     0
175
     0
179
     0
273
     0
  0
XRECORD
  5
41
102
{ACAD_REACTORS
330
40
102
}
330
40
100
AcDbXrecord
280
     1
270
     1
271
     1
  0
XRECORD
  5
42
102
{ACAD_REACTORS
330
40
102
}
330
40
100
AcDbXrecord
280
     1
270
     1
271
     1
  0
XRECORD
  5
43
102
{ACAD_REACTORS
330
40
102
}
330
40
100
AcDbXrecord
280
     1
270
     1
271
     1
  0
XRECORD
  5
44
102
{ACAD_REACTORS
330
40
102
}
330
40
100
AcDbXrecord
280
     1
270
     1
271
     1
  0
XRECORD
  5
45
102
{ACAD_REACTORS
330
40
102
}
330
40
100
AcDbXrecord
280
     1
270
     1
271
     1
  0
XRECORD
  5
46
102
{ACAD_REACTORS
330
40
102
}
330
40
100
AcDbXrecord
280
     1
270
     1
271
     1
  0
XRECORD
  5
23D
102
{ACAD_REACTORS
330
16
102
}
330
16
100
AcDbXrecord
280
     1
102
MATERIAL
148
0.0
149
0.0
149
0.0
 93
        0
 94
      127
282
     0
 72
     0
 77
     0
171
     0
175
     0
179
     0
273
     0
  0
XRECORD
  5
17
102
{ACAD_REACTORS
330
16
102
}
330
16
100
AcDbXrecord
280
     1
270
     1
271
     1
  0
XRECORD
  5
18
102
{ACAD_REACTORS
330
16
102
}
330
16
100
AcDbXrecord
280
     1
270
     1
271
     1
  0
XRECORD
  5
19
102
{ACAD_REACTORS
330
16
102
}
330
16
100
AcDbXrecord
280
     1
270
     1
271
     1
  0
XRECORD
  5
1A
102
{ACAD_REACTORS
330
16
102
}
330
16
100
AcDbXrecord
280
     1
270
     1
271
     1
  0
XRECORD
  5
1B
102
{ACAD_REACTORS
330
16
102
}
330
16
100
AcDbXrecord
280
     1
270
     1
271
     1
  0
XRECORD
  5
1C
102
{ACAD_REACTORS
330
16
102
}
330
16
100
AcDbXrecord
280
     1
270
     1
271
     1
  0
XRECORD
  5
23C
102
{ACAD_REACTORS
330
D
102
}
330
D
100
AcDbXrecord
280
     1
102
MATERIAL
148
0.0
149
0.0
149
0.0
 93
        0
 94
      127
282
     0
 72
     0
 77
     0
171
     0
175
     0
179
     0
273
     0
  0
XRECORD
  5
E
102
{ACAD_REACTORS
330
D
102
}
330
D
100
AcDbXrecord
280
     1
270
     1
271
     1
  0
XRECORD
  5
F
102
{ACAD_REACTORS
330
D
102
}
330
D
100
AcDbXrecord
280
     1
270
     1
271
     1
  0
XRECORD
  5
10
102
{ACAD_REACTORS
330
D
102
}
330
D
100
AcDbXrecord
280
     1
270
     1
271
     1
  0
XRECORD
  5
11
102
{ACAD_REACTORS
330
D
102
}
330
D
100
AcDbXrecord
280
     1
270
     1
271
     1
  0
XRECORD
  5
12
102
{ACAD_REACTORS
330
D
102
}
330
D
100
AcDbXrecord
280
     1
270
     1
271
     1
  0
XRECORD
  5
13
102
{ACAD_REACTORS
330
D
102
}
330
D
100
AcDbXrecord
280
     1
270
     1
271
     1
  0
CELLSTYLEMAP
  5
23A
102
{ACAD_REACTORS
330
239
102
}
330
239
100
AcDbCellStyleMap
 90
        3
300
CELLSTYLE
  1
TABLEFORMAT_BEGIN
 90
        5
170
     1
 91
        0
 92
    32768
 62
   257
 93
        1
300
CONTENTFORMAT
  1
CONTENTFORMAT_BEGIN
 90
        0
 91
        0
 92
        4
 93
        0
300

 40
0.0
140
1.0
 94
        5
 62
     0
340
28
144
0.25
309
CONTENTFORMAT_END
171
     0
 94
        6
 95
        1
302
GRIDFORMAT
  1
GRIDFORMAT_BEGIN
 90
        0
 91
        1
 62
     0
 92
       -2
340
0
 93
        0
 40
0.045
309
GRIDFORMAT_END
 95
        2
302
GRIDFORMAT
  1
GRIDFORMAT_BEGIN
 90
        0
 91
        1
 62
     0
 92
       -2
340
0
 93
        0
 40
0.045
309
GRIDFORMAT_END
 95
        4
302
GRIDFORMAT
  1
GRIDFORMAT_BEGIN
 90
        0
 91
        1
 62
     0
 92
       -2
340
0
 93
        0
 40
0.045
309
GRIDFORMAT_END
 95
        8
302
GRIDFORMAT
  1
GRIDFORMAT_BEGIN
 90
        0
 91
        1
 62
     0
 92
       -2
340
0
 93
        0
 40
0.045
309
GRIDFORMAT_END
 95
       16
302
GRIDFORMAT
  1
GRIDFORMAT_BEGIN
 90
        0
 91
        1
 62
     0
 92
       -2
340
0
 93
        0
 40
0.045
309
GRIDFORMAT_END
 95
       32
302
GRIDFORMAT
  1
GRIDFORMAT_BEGIN
 90
        0
 91
        1
 62
     0
 92
       -2
340
0
 93
        0
 40
0.045
309
GRIDFORMAT_END
309
TABLEFORMAT_END
  1
CELLSTYLE_BEGIN
 90
        1
 91
        1
300
_TITLE
309
CELLSTYLE_END
300
CELLSTYLE
  1
TABLEFORMAT_BEGIN
 90
        5
170
     1
 91
        0
 92
        0
 62
   257
 93
        1
300
CONTENTFORMAT
  1
CONTENTFORMAT_BEGIN
 90
        0
 91
        0
 92
        4
 93
        0
300

 40
0.0
140
1.0
 94
        5
 62
     0
340
28
144
0.18
309
CONTENTFORMAT_END
171
     0
 94
        6
 95
        1
302
GRIDFORMAT
  1
GRIDFORMAT_BEGIN
 90
        0
 91
        1
 62
     0
 92
       -2
340
0
 93
        0
 40
0.045
309
GRIDFORMAT_END
 95
        2
302
GRIDFORMAT
  1
GRIDFORMAT_BEGIN
 90
        0
 91
        1
 62
     0
 92
       -2
340
0
 93
        0
 40
0.045
309
GRIDFORMAT_END
 95
        4
302
GRIDFORMAT
  1
GRIDFORMAT_BEGIN
 90
        0
 91
        1
 62
     0
 92
       -2
340
0
 93
        0
 40
0.045
309
GRIDFORMAT_END
 95
        8
302
GRIDFORMAT
  1
GRIDFORMAT_BEGIN
 90
        0
 91
        1
 62
     0
 92
       -2
340
0
 93
        0
 40
0.045
309
GRIDFORMAT_END
 95
       16
302
GRIDFORMAT
  1
GRIDFORMAT_BEGIN
 90
        0
 91
        1
 62
     0
 92
       -2
340
0
 93
        0
 40
0.045
309
GRIDFORMAT_END
 95
       32
302
GRIDFORMAT
  1
GRIDFORMAT_BEGIN
 90
        0
 91
        1
 62
     0
 92
       -2
340
0
 93
        0
 40
0.045
309
GRIDFORMAT_END
309
TABLEFORMAT_END
  1
CELLSTYLE_BEGIN
 90
        2
 91
        1
300
_HEADER
309
CELLSTYLE_END
300
CELLSTYLE
  1
TABLEFORMAT_BEGIN
 90
        5
170
     1
 91
        0
 92
        0
 62
   257
 93
        1
300
CONTENTFORMAT
  1
CONTENTFORMAT_BEGIN
 90
        0
 91
        0
 92
        4
 93
        0
300

 40
0.0
140
1.0
 94
        2
 62
     0
340
28
144
0.18
309
CONTENTFORMAT_END
171
     0
 94
        6
 95
        1
302
GRIDFORMAT
  1
GRIDFORMAT_BEGIN
 90
        0
 91
        1
 62
     0
 92
       -2
340
0
 93
        0
 40
0.045
309
GRIDFORMAT_END
 95
        2
302
GRIDFORMAT
  1
GRIDFORMAT_BEGIN
 90
        0
 91
        1
 62
     0
 92
       -2
340
0
 93
        0
 40
0.045
309
GRIDFORMAT_END
 95
        4
302
GRIDFORMAT
  1
GRIDFORMAT_BEGIN
 90
        0
 91
        1
 62
     0
 92
       -2
340
0
 93
        0
 40
0.045
309
GRIDFORMAT_END
 95
        8
302
GRIDFORMAT
  1
GRIDFORMAT_BEGIN
 90
        0
 91
        1
 62
     0
 92
       -2
340
0
 93
        0
 40
0.045
309
GRIDFORMAT_END
 95
       16
302
GRIDFORMAT
  1
GRIDFORMAT_BEGIN
 90
        0
 91
        1
 62
     0
 92
       -2
340
0
 93
        0
 40
0.045
309
GRIDFORMAT_END
 95
       32
302
GRIDFORMAT
  1
GRIDFORMAT_BEGIN
 90
        0
 91
        1
 62
     0
 92
       -2
340
0
 93
        0
 40
0.045
309
GRIDFORMAT_END
309
TABLEFORMAT_END
  1
CELLSTYLE_BEGIN
 90
        3
 91
        2
300
_DATA
309
CELLSTYLE_END
  0
XRECORD
  5
245
102
{ACAD_REACTORS
330
239
102
}
330
239
100
AcDbXrecord
280
     1
102
ACAD_ROUNDTRIP_PRE2007_TABLESTYLE
 90
        4
 91
        0
  1

 92
        4
 93
        0
  2

 94
        4
 95
        0
  3

  0
XRECORD
  5
243
102
{ACAD_REACTORS
330
242
102
}
330
242
100
AcDbXrecord
280
     1
102
RTVSPost2010Prop28
280
     1
102
RTVSPost2010PropOp28
 70
     1
102
RTVSPost2010Prop29
280
     1
102
RTVSPost2010PropOp29
 70
     1
102
RTVSPost2010Prop30
280
     0
102
RTVSPost2010PropOp30
 70
     1
102
RTVSPost2010Prop31
280
     0
102
RTVSPost2010PropOp31
 70
     1
102
RTVSPost2010Prop32
280
     0
102
RTVSPost2010PropOp32
 70
     1
102
RTVSPost2010Prop33
280
     0
102
RTVSPost2010PropOp33
 70
     1
102
RTVSPost2010Prop34
280
     0
102
RTVSPost2010PropOp34
 70
     1
102
RTVSPost2010Prop35
280
     0
102
RTVSPost2010PropOp35
 70
     1
102
RTVSPost2010Prop36
280
     0
102
RTVSPost2010PropOp36
 70
     1
102
RTVSPost2010Prop37
 90
       50
102
RTVSPost2010PropOp37
 70
     1
102
RTVSPost2010Prop38
140
0.0
102
RTVSPost2010PropOp38
 70
     1
102
RTVSPost2010Prop39
140
1.0
102
RTVSPost2010PropOp39
 70
     1
102
RTVSPost2010Prop40
 90
        0
102
RTVSPost2010PropOp40
 70
     1
102
RTVSPost2010Prop41ColorIndex
 90
       18
102
RTVSPost2010Prop41ColorRGB
 90
        0
102
RTVSPost2010PropOp41
 70
     1
102
RTVSPost2010Prop42
 90
       50
102
RTVSPost2010PropOp42
 70
     1
102
RTVSPost2010Prop43
 90
        3
102
RTVSPost2010PropOp43
 70
     1
102
RTVSPost2010Prop44ColorIndex
 90
        5
102
RTVSPost2010Prop44ColorRGB
 90
      255
102
RTVSPost2010PropOp44
 70
     1
102
RTVSPost2010Prop45
280
     0
102
RTVSPost2010PropOp45
 70
     1
102
RTVSPost2010Prop46
 90
       50
102
RTVSPost2010PropOp46
 70
     1
102
RTVSPost2010Prop47
 90
       50
102
RTVSPost2010PropOp47
 70
     1
102
RTVSPost2010Prop48
 90
       50
102
RTVSPost2010PropOp48
 70
     1
102
RTVSPost2010Prop49
280
     0
102
RTVSPost2010PropOp49
 70
     1
102
RTVSPost2010Prop50
 90
       50
102
RTVSPost2010PropOp50
 70
     1
102
RTVSPost2010Prop51ColorIndex
 90
      256
102
RTVSPost2010Prop51ColorRGB
 90
-16777216
102
RTVSPost2010PropOp51
 70
     0
102
RTVSPost2010Prop52
140
1.0
102
RTVSPost2010PropOp52
 70
     0
102
RTVSPost2010Prop53
 90
        2
102
RTVSPost2010PropOp53
 70
     1
102
RTVSPost2010Prop54
  1
strokes_ogs.tif
102
RTVSPost2010PropOp54
 70
     1
102
RTVSPost2010Prop55
280
     0
102
RTVSPost2010PropOp55
 70
     1
102
RTVSPost2010Prop56
140
1.0
102
RTVSPost2010PropOp56
 70
     1
102
RTVSPost2010Prop57
140
1.0
102
RTVSPost2010PropOp57
 70
     1
102
RTVSPropertyOp0
 70
     1
102
RTVSPropertyOp1
 70
     1
102
RTVSPropertyOp2
 70
     1
102
RTVSPropertyOp3
 70
     1
102
RTVSPropertyOp4
 70
     1
102
RTVSPropertyOp5
 70
     1
102
RTVSPropertyOp6
 70
     1
102
RTVSPropertyOp7
 70
     1
102
RTVSPropertyOp8
 70
     1
102
RTVSPropertyOp9
 70
     1
102
RTVSPropertyOp10
 70
     1
102
RTVSPropertyOp11
 70
     1
102
RTVSPropertyOp12
 70
     1
102
RTVSPropertyOp13
 70
     1
102
RTVSPropertyOp14
 70
     1
102
RTVSPropertyOp15
 70
     1
102
RTVSPropertyOp16
 70
     1
102
RTVSPropertyOp17
 70
     1
102
RTVSPropertyOp18
 70
     1
102
RTVSPropertyOp19
 70
     1
102
RTVSPropertyOp20
 70
     1
102
RTVSPropertyOp21
 70
     1
102
RTVSPropertyOp22
 70
     1
102
RTVSPropertyOp23
 70
     1
102
RTVSPropertyOp24
 70
     1
102
RTVSPropertyOp25
 70
     1
102
RTVSPropertyOp26
 70
     1
102
RTVSPropertyOp27
 70
     1
102
RTVSPropertyOp28
 70
     1
102
RTVSPropertyOp29
 70
     1
102
RTVSPropertyOp30
 70
     1
102
RTVSPropertyOp31
 70
     1
102
RTVSPropertyOp32
 70
     1
102
RTVSPropertyOp33
 70
     1
102
RTVSPropertyOp34
 70
     1
102
RTVSPropertyOp35
 70
     1
102
RTVSPropertyOp36
 70
     1
102
RTVSPropertyOp37
 70
     1
102
RTVSPropertyOp38
 70
     1
102
RTVSPropertyOp39
 70
     1
102
RTVSPropertyOp40
 70
     1
102
RTVSPropertyOp41
 70
     1
102
RTVSPropertyOp42
 70
     1
102
RTVSPropertyOp43
 70
     1
102
RTVSPropertyOp44
 70
     1
102
RTVSPropertyOp45
 70
     1
102
RTVSPropertyOp46
 70
     1
102
RTVSPropertyOp47
 70
     1
102
RTVSPropertyOp48
 70
     1
102
RTVSPropertyOp49
 70
     1
102
RTVSPropertyOp50
 70
     1
102
RTVSPropertyOp51
 70
     0
102
RTVSPropertyOp52
 70
     0
102
RTVSPropertyOp53
 70
     1
102
RTVSPropertyOp54
 70
     1
102
RTVSPropertyOp55
 70
     1
102
RTVSPropertyOp56
 70
     1
102
RTVSPropertyOp57
 70
     1
102
RTVSPropertyOp58
 70
     1
102
RTVSPropertyOp59
 70
     1
102
RTVSPropertyOp60
 70
     1
102
RTVSPropertyOp61
 70
     1
102
RTVSPropertyOp62
 70
     1
  0
XRECORD
  5
247
102
{ACAD_REACTORS
330
246
102
}
330
246
100
AcDbXrecord
280
     1
102
RTVSPost2010Prop28
280
     0
102
RTVSPost2010PropOp28
 70
     1
102
RTVSPost2010Prop29
280
     1
102
RTVSPost2010PropOp29
 70
     1
102
RTVSPost2010Prop30
280
     1
102
RTVSPost2010PropOp30
 70
     1
102
RTVSPost2010Prop31
280
     0
102
RTVSPost2010PropOp31
 70
     1
102
RTVSPost2010Prop32
280
     0
102
RTVSPost2010PropOp32
 70
     1
102
RTVSPost2010Prop33
280
     0
102
RTVSPost2010PropOp33
 70
     1
102
RTVSPost2010Prop34
280
     0
102
RTVSPost2010PropOp34
 70
     1
102
RTVSPost2010Prop35
280
     0
102
RTVSPost2010PropOp35
 70
     1
102
RTVSPost2010Prop36
280
     0
102
RTVSPost2010PropOp36
 70
     1
102
RTVSPost2010Prop37
 90
       50
102
RTVSPost2010PropOp37
 70
     1
102
RTVSPost2010Prop38
140
0.0
102
RTVSPost2010PropOp38
 70
     1
102
RTVSPost2010Prop39
140
1.0
102
RTVSPost2010PropOp39
 70
     1
102
RTVSPost2010Prop40
 90
        0
102
RTVSPost2010PropOp40
 70
     1
102
RTVSPost2010Prop41ColorIndex
 90
       18
102
RTVSPost2010Prop41ColorRGB
 90
        0
102
RTVSPost2010PropOp41
 70
     1
102
RTVSPost2010Prop42
 90
       50
102
RTVSPost2010PropOp42
 70
     1
102
RTVSPost2010Prop43
 90
        3
102
RTVSPost2010PropOp43
 70
     1
102
RTVSPost2010Prop44ColorIndex
 90
        5
102
RTVSPost2010Prop44ColorRGB
 90
      255
102
RTVSPost2010PropOp44
 70
     1
102
RTVSPost2010Prop45
280
     0
102
RTVSPost2010PropOp45
 70
     1
102
RTVSPost2010Prop46
 90
       50
102
RTVSPost2010PropOp46
 70
     1
102
RTVSPost2010Prop47
 90
       50
102
RTVSPost2010PropOp47
 70
     1
102
RTVSPost2010Prop48
 90
       50
102
RTVSPost2010PropOp48
 70
     1
102
RTVSPost2010Prop49
280
     0
102
RTVSPost2010PropOp49
 70
     1
102
RTVSPost2010Prop50
 90
       50
102
RTVSPost2010PropOp50
 70
     1
102
RTVSPost2010Prop51ColorIndex
 90
      256
102
RTVSPost2010Prop51ColorRGB
 90
-16777216
102
RTVSPost2010PropOp51
 70
     0
102
RTVSPost2010Prop52
140
1.0
102
RTVSPost2010PropOp52
 70
     0
102
RTVSPost2010Prop53
 90
        2
102
RTVSPost2010PropOp53
 70
     1
102
RTVSPost2010Prop54
  1
strokes_ogs.tif
102
RTVSPost2010PropOp54
 70
     1
102
RTVSPost2010Prop55
280
     0
102
RTVSPost2010PropOp55
 70
     1
102
RTVSPost2010Prop56
140
1.0
102
RTVSPost2010PropOp56
 70
     1
102
RTVSPost2010Prop57
140
1.0
102
RTVSPost2010PropOp57
 70
     1
102
RTVSPropertyOp0
 70
     1
102
RTVSPropertyOp1
 70
     1
102
RTVSPropertyOp2
 70
     1
102
RTVSPropertyOp3
 70
     1
102
RTVSPropertyOp4
 70
     1
102
RTVSPropertyOp5
 70
     1
102
RTVSPropertyOp6
 70
     1
102
RTVSPropertyOp7
 70
     1
102
RTVSPropertyOp8
 70
     1
102
RTVSPropertyOp9
 70
     1
102
RTVSPropertyOp10
 70
     1
102
RTVSPropertyOp11
 70
     1
102
RTVSPropertyOp12
 70
     1
102
RTVSPropertyOp13
 70
     1
102
RTVSPropertyOp14
 70
     1
102
RTVSPropertyOp15
 70
     1
102
RTVSPropertyOp16
 70
     1
102
RTVSPropertyOp17
 70
     1
102
RTVSPropertyOp18
 70
     1
102
RTVSPropertyOp19
 70
     1
102
RTVSPropertyOp20
 70
     1
102
RTVSPropertyOp21
 70
     1
102
RTVSPropertyOp22
 70
     1
102
RTVSPropertyOp23
 70
     1
102
RTVSPropertyOp24
 70
     1
102
RTVSPropertyOp25
 70
     1
102
RTVSPropertyOp26
 70
     1
102
RTVSPropertyOp27
 70
     1
102
RTVSPropertyOp28
 70
     1
102
RTVSPropertyOp29
 70
     1
102
RTVSPropertyOp30
 70
     1
102
RTVSPropertyOp31
 70
     1
102
RTVSPropertyOp32
 70
     1
102
RTVSPropertyOp33
 70
     1
102
RTVSPropertyOp34
 70
     1
102
RTVSPropertyOp35
 70
     1
102
RTVSPropertyOp36
 70
     1
102
RTVSPropertyOp37
 70
     1
102
RTVSPropertyOp38
 70
     1
102
RTVSPropertyOp39
 70
     1
102
RTVSPropertyOp40
 70
     1
102
RTVSPropertyOp41
 70
     1
102
RTVSPropertyOp42
 70
     1
102
RTVSPropertyOp43
 70
     1
102
RTVSPropertyOp44
 70
     1
102
RTVSPropertyOp45
 70
     1
102
RTVSPropertyOp46
 70
     1
102
RTVSPropertyOp47
 70
     1
102
RTVSPropertyOp48
 70
     1
102
RTVSPropertyOp49
 70
     1
102
RTVSPropertyOp50
 70
     1
102
RTVSPropertyOp51
 70
     0
102
RTVSPropertyOp52
 70
     0
102
RTVSPropertyOp53
 70
     1
102
RTVSPropertyOp54
 70
     1
102
RTVSPropertyOp55
 70
     1
102
RTVSPropertyOp56
 70
     1
102
RTVSPropertyOp57
 70
     1
102
RTVSPropertyOp58
 70
     1
102
RTVSPropertyOp59
 70
     1
102
RTVSPropertyOp60
 70
     1
102
RTVSPropertyOp61
 70
     1
102
RTVSPropertyOp62
 70
     1
  0
XRECORD
  5
249
102
{ACAD_REACTORS
330
248
102
}
330
248
100
AcDbXrecord
280
     1
102
RTVSPost2010Prop28
280
     0
102
RTVSPost2010PropOp28
 70
     1
102
RTVSPost2010Prop29
280
     1
102
RTVSPost2010PropOp29
 70
     1
102
RTVSPost2010Prop30
280
     1
102
RTVSPost2010PropOp30
 70
     1
102
RTVSPost2010Prop31
280
     0
102
RTVSPost2010PropOp31
 70
     1
102
RTVSPost2010Prop32
280
     0
102
RTVSPost2010PropOp32
 70
     1
102
RTVSPost2010Prop33
280
     0
102
RTVSPost2010PropOp33
 70
     1
102
RTVSPost2010Prop34
280
     0
102
RTVSPost2010PropOp34
 70
     1
102
RTVSPost2010Prop35
280
     0
102
RTVSPost2010PropOp35
 70
     1
102
RTVSPost2010Prop36
280
     0
102
RTVSPost2010PropOp36
 70
     1
102
RTVSPost2010Prop37
 90
       50
102
RTVSPost2010PropOp37
 70
     1
102
RTVSPost2010Prop38
140
0.0
102
RTVSPost2010PropOp38
 70
     1
102
RTVSPost2010Prop39
140
1.0
102
RTVSPost2010PropOp39
 70
     1
102
RTVSPost2010Prop40
 90
        0
102
RTVSPost2010PropOp40
 70
     1
102
RTVSPost2010Prop41ColorIndex
 90
       18
102
RTVSPost2010Prop41ColorRGB
 90
        0
102
RTVSPost2010PropOp41
 70
     1
102
RTVSPost2010Prop42
 90
       50
102
RTVSPost2010PropOp42
 70
     1
102
RTVSPost2010Prop43
 90
        3
102
RTVSPost2010PropOp43
 70
     1
102
RTVSPost2010Prop44ColorIndex
 90
        5
102
RTVSPost2010Prop44ColorRGB
 90
      255
102
RTVSPost2010PropOp44
 70
     1
102
RTVSPost2010Prop45
280
     0
102
RTVSPost2010PropOp45
 70
     1
102
RTVSPost2010Prop46
 90
       50
102
RTVSPost2010PropOp46
 70
     1
102
RTVSPost2010Prop47
 90
       50
102
RTVSPost2010PropOp47
 70
     1
102
RTVSPost2010Prop48
 90
       50
102
RTVSPost2010PropOp48
 70
     1
102
RTVSPost2010Prop49
280
     0
102
RTVSPost2010PropOp49
 70
     1
102
RTVSPost2010Prop50
 90
       50
102
RTVSPost2010PropOp50
 70
     1
102
RTVSPost2010Prop51ColorIndex
 90
      256
102
RTVSPost2010Prop51ColorRGB
 90
-16777216
102
RTVSPost2010PropOp51
 70
     0
102
RTVSPost2010Prop52
140
1.0
102
RTVSPost2010PropOp52
 70
     0
102
RTVSPost2010Prop53
 90
        2
102
RTVSPost2010PropOp53
 70
     1
102
RTVSPost2010Prop54
  1
strokes_ogs.tif
102
RTVSPost2010PropOp54
 70
     1
102
RTVSPost2010Prop55
280
     0
102
RTVSPost2010PropOp55
 70
     1
102
RTVSPost2010Prop56
140
1.0
102
RTVSPost2010PropOp56
 70
     1
102
RTVSPost2010Prop57
140
1.0
102
RTVSPost2010PropOp57
 70
     1
102
RTVSPropertyOp0
 70
     1
102
RTVSPropertyOp1
 70
     1
102
RTVSPropertyOp2
 70
     1
102
RTVSPropertyOp3
 70
     1
102
RTVSPropertyOp4
 70
     1
102
RTVSPropertyOp5
 70
     1
102
RTVSPropertyOp6
 70
     1
102
RTVSPropertyOp7
 70
     1
102
RTVSPropertyOp8
 70
     1
102
RTVSPropertyOp9
 70
     1
102
RTVSPropertyOp10
 70
     1
102
RTVSPropertyOp11
 70
     1
102
RTVSPropertyOp12
 70
     1
102
RTVSPropertyOp13
 70
     1
102
RTVSPropertyOp14
 70
     1
102
RTVSPropertyOp15
 70
     1
102
RTVSPropertyOp16
 70
     1
102
RTVSPropertyOp17
 70
     1
102
RTVSPropertyOp18
 70
     1
102
RTVSPropertyOp19
 70
     1
102
RTVSPropertyOp20
 70
     1
102
RTVSPropertyOp21
 70
     1
102
RTVSPropertyOp22
 70
     1
102
RTVSPropertyOp23
 70
     1
102
RTVSPropertyOp24
 70
     1
102
RTVSPropertyOp25
 70
     1
102
RTVSPropertyOp26
 70
     1
102
RTVSPropertyOp27
 70
     1
102
RTVSPropertyOp28
 70
     1
102
RTVSPropertyOp29
 70
     1
102
RTVSPropertyOp30
 70
     1
102
RTVSPropertyOp31
 70
     1
102
RTVSPropertyOp32
 70
     1
102
RTVSPropertyOp33
 70
     1
102
RTVSPropertyOp34
 70
     1
102
RTVSPropertyOp35
 70
     1
102
RTVSPropertyOp36
 70
     1
102
RTVSPropertyOp37
 70
     1
102
RTVSPropertyOp38
 70
     1
102
RTVSPropertyOp39
 70
     1
102
RTVSPropertyOp40
 70
     1
102
RTVSPropertyOp41
 70
     1
102
RTVSPropertyOp42
 70
     1
102
RTVSPropertyOp43
 70
     1
102
RTVSPropertyOp44
 70
     1
102
RTVSPropertyOp45
 70
     1
102
RTVSPropertyOp46
 70
     1
102
RTVSPropertyOp47
 70
     1
102
RTVSPropertyOp48
 70
     1
102
RTVSPropertyOp49
 70
     1
102
RTVSPropertyOp50
 70
     1
102
RTVSPropertyOp51
 70
     0
102
RTVSPropertyOp52
 70
     0
102
RTVSPropertyOp53
 70
     1
102
RTVSPropertyOp54
 70
     1
102
RTVSPropertyOp55
 70
     1
102
RTVSPropertyOp56
 70
     1
102
RTVSPropertyOp57
 70
     1
102
RTVSPropertyOp58
 70
     1
102
RTVSPropertyOp59
 70
     1
102
RTVSPropertyOp60
 70
     1
102
RTVSPropertyOp61
 70
     1
102
RTVSPropertyOp62
 70
     1
  0
ENDSEC
  0
EOF
