  0
SECTION
  2
HEADER
  9
$ACADVER
  1
AC1015
  9
$ACADMAINTVER
 70
    18
  9
$DWGCODEPAGE
  3
ANSI_932
  9
$INSBASE
 10
0.0
 20
0.0
 30
0.0
  9
$EXTMIN
 10
-11.45494056446974
 20
0.0
 30
0.0
  9
$EXTMAX
 10
350.0123317108684
 20
159.6859826957656
 30
0.0
  9
$LIMMIN
 10
0.0
 20
0.0
  9
$LIMMAX
 10
420.0
 20
297.0
  9
$ORTHOMODE
 70
     1
  9
$REGENMODE
 70
     1
  9
$FILLMODE
 70
     1
  9
$QTEXTMODE
 70
     0
  9
$MIRRTEXT
 70
     1
  9
$LTSCALE
 40
1.0
  9
$ATTMODE
 70
     1
  9
$TEXTSIZE
 40
30.0
  9
$TRACEWID
 40
0.05
  9
$TEXTSTYLE
  7
SUNPOU
  9
$CLAYER
  8
0
  9
$CELTYPE
  6
BYLAYER
  9
$CECOLOR
 62
     7
  9
$CELTSCALE
 40
1.0
  9
$DISPSILH
 70
     0
  9
$DIMSCALE
 40
1.0
  9
$DIMASZ
 40
3.0
  9
$DIMEXO
 40
2.0
  9
$DIMDLI
 40
0.38
  9
$DIMRND
 40
0.0
  9
$DIMDLE
 40
0.0
  9
$DIMEXE
 40
0.0
  9
$DIMTP
 40
0.0
  9
$DIMTM
 40
0.0
  9
$DIMTXT
 40
7.0
  9
$DIMCEN
 40
1.0
  9
$DIMTSZ
 40
0.0
  9
$DIMTOL
 70
     0
  9
$DIMLIM
 70
     0
  9
$DIMTIH
 70
     0
  9
$DIMTOH
 70
     0
  9
$DIMSE1
 70
     0
  9
$DIMSE2
 70
     0
  9
$DIMTAD
 70
     1
  9
$DIMZIN
 70
     0
  9
$DIMBLK
  1

  9
$DIMASO
 70
     1
  9
$DIMSHO
 70
     1
  9
$DIMPOST
  1

  9
$DIMAPOST
  1

  9
$DIMALT
 70
     0
  9
$DIMALTD
 70
     2
  9
$DIMALTF
 40
25.4
  9
$DIMLFAC
 40
1.0
  9
$DIMTOFL
 70
     0
  9
$DIMTVP
 40
0.0
  9
$DIMTIX
 70
     1
  9
$DIMSOXD
 70
     0
  9
$DIMSAH
 70
     1
  9
$DIMBLK1
  1
DOTSMALL
  9
$DIMBLK2
  1
DOTSMALL
  9
$DIMSTYLE
  2
1
  9
$DIMCLRD
 70
    60
  9
$DIMCLRE
 70
    70
  9
$DIMCLRT
 70
    60
  9
$DIMTFAC
 40
0.0642857142857143
  9
$DIMGAP
 40
1.0
  9
$DIMJUST
 70
     0
  9
$DIMSD1
 70
     0
  9
$DIMSD2
 70
     0
  9
$DIMTOLJ
 70
     1
  9
$DIMTZIN
 70
     0
  9
$DIMALTZ
 70
     0
  9
$DIMALTTZ
 70
     0
  9
$DIMUPT
 70
     0
  9
$DIMDEC
 70
     0
  9
$DIMTDEC
 70
     4
  9
$DIMALTU
 70
     2
  9
$DIMALTTD
 70
     2
  9
$DIMTXSTY
  7
STANDARD
  9
$DIMAUNIT
 70
     0
  9
$DIMADEC
 70
     0
  9
$DIMALTRND
 40
0.0
  9
$DIMAZIN
 70
     0
  9
$DIMDSEP
 70
    46
  9
$DIMATFIT
 70
     3
  9
$DIMFRAC
 70
     0
  9
$DIMLDRBLK
  1
DOTSMALL
  9
$DIMLUNIT
 70
     2
  9
$DIMLWD
 70
    -2
  9
$DIMLWE
 70
    -2
  9
$DIMTMOVE
 70
     0
  9
$LUNITS
 70
     4
  9
$LUPREC
 70
     4
  9
$SKETCHINC
 40
0.1
  9
$FILLETRAD
 40
0.0
  9
$AUNITS
 70
     0
  9
$AUPREC
 70
     2
  9
$MENU
  1
acad
  9
$ELEVATION
 40
0.0
  9
$PELEVATION
 40
0.0
  9
$THICKNESS
 40
0.0
  9
$LIMCHECK
 70
     0
  9
$CHAMFERA
 40
0.0
  9
$CHAMFERB
 40
0.0
  9
$CHAMFERC
 40
0.0
  9
$CHAMFERD
 40
0.0
  9
$SKPOLY
 70
     0
  9
$TDCREATE
 40
2450623.676023380
  9
$TDUCREATE
 40
2450623.301023380
  9
$TDUPDATE
 40
2453882.366753634
  9
$TDUUPDATE
 40
2453881.991753634
  9
$TDINDWG
 40
5.3796510880
  9
$TDUSRTIMER
 40
5.3796507176
  9
$USRTIMER
 70
     1
  9
$ANGBASE
 50
0.0
  9
$ANGDIR
 70
     0
  9
$PDMODE
 70
     0
  9
$PDSIZE
 40
0.0
  9
$PLINEWID
 40
0.0
  9
$SPLFRAME
 70
     0
  9
$SPLINETYPE
 70
     6
  9
$SPLINESEGS
 70
     8
  9
$HANDSEED
  5
1E2
  9
$SURFTAB1
 70
     6
  9
$SURFTAB2
 70
     6
  9
$SURFTYPE
 70
     6
  9
$SURFU
 70
     6
  9
$SURFV
 70
     6
  9
$UCSBASE
  2

  9
$UCSNAME
  2

  9
$UCSORG
 10
0.0
 20
0.0
 30
0.0
  9
$UCSXDIR
 10
1.0
 20
0.0
 30
0.0
  9
$UCSYDIR
 10
0.0
 20
1.0
 30
0.0
  9
$UCSORTHOREF
  2

  9
$UCSORTHOVIEW
 70
     0
  9
$UCSORGTOP
 10
0.0
 20
0.0
 30
0.0
  9
$UCSORGBOTTOM
 10
0.0
 20
0.0
 30
0.0
  9
$UCSORGLEFT
 10
0.0
 20
0.0
 30
0.0
  9
$UCSORGRIGHT
 10
0.0
 20
0.0
 30
0.0
  9
$UCSORGFRONT
 10
0.0
 20
0.0
 30
0.0
  9
$UCSORGBACK
 10
0.0
 20
0.0
 30
0.0
  9
$PUCSBASE
  2

  9
$PUCSNAME
  2

  9
$PUCSORG
 10
0.0
 20
0.0
 30
0.0
  9
$PUCSXDIR
 10
1.0
 20
0.0
 30
0.0
  9
$PUCSYDIR
 10
0.0
 20
1.0
 30
0.0
  9
$PUCSORTHOREF
  2

  9
$PUCSORTHOVIEW
 70
     0
  9
$PUCSORGTOP
 10
0.0
 20
0.0
 30
0.0
  9
$PUCSORGBOTTOM
 10
0.0
 20
0.0
 30
0.0
  9
$PUCSORGLEFT
 10
0.0
 20
0.0
 30
0.0
  9
$PUCSORGRIGHT
 10
0.0
 20
0.0
 30
0.0
  9
$PUCSORGFRONT
 10
0.0
 20
0.0
 30
0.0
  9
$PUCSORGBACK
 10
0.0
 20
0.0
 30
0.0
  9
$USERI1
 70
     0
  9
$USERI2
 70
     0
  9
$USERI3
 70
     0
  9
$USERI4
 70
     0
  9
$USERI5
 70
     0
  9
$USERR1
 40
0.0
  9
$USERR2
 40
0.0
  9
$USERR3
 40
0.0
  9
$USERR4
 40
0.0
  9
$USERR5
 40
0.0
  9
$WORLDVIEW
 70
     1
  9
$SHADEDGE
 70
     3
  9
$SHADEDIF
 70
    70
  9
$TILEMODE
 70
     1
  9
$MAXACTVP
 70
    16
  9
$PINSBASE
 10
0.0
 20
0.0
 30
0.0
  9
$PLIMCHECK
 70
     0
  9
$PEXTMIN
 10
1.000000000000000E+20
 20
1.000000000000000E+20
 30
1.000000000000000E+20
  9
$PEXTMAX
 10
-1.000000000000000E+20
 20
-1.000000000000000E+20
 30
-1.000000000000000E+20
  9
$PLIMMIN
 10
0.0
 20
0.0
  9
$PLIMMAX
 10
12.0
 20
9.0
  9
$UNITMODE
 70
     0
  9
$VISRETAIN
 70
     0
  9
$PLINEGEN
 70
     0
  9
$PSLTSCALE
 70
     1
  9
$TREEDEPTH
 70
  3020
  9
$CMLSTYLE
  2
STANDARD
  9
$CMLJUST
 70
     0
  9
$CMLSCALE
 40
1.0
  9
$PROXYGRAPHICS
 70
     1
  9
$MEASUREMENT
 70
     0
  9
$CELWEIGHT
370
    -1
  9
$ENDCAPS
280
     0
  9
$JOINSTYLE
280
     0
  9
$LWDISPLAY
290
     0
  9
$INSUNITS
 70
     0
  9
$HYPERLINKBASE
  1

  9
$STYLESHEET
  1

  9
$XEDIT
290
     1
  9
$CEPSNTYPE
380
     0
  9
$PSTYLEMODE
290
     1
  9
$FINGERPRINTGUID
  2
{5C506F65-CCD9-4E52-9DFB-4481B26F3706}
  9
$VERSIONGUID
  2
{9B0DA614-3941-4DB7-BE8C-19D25F5801E7}
  9
$EXTNAMES
290
     1
  9
$PSVPSCALE
 40
0.0
  9
$OLESTARTUP
290
     0
  0
ENDSEC
  0
SECTION
  2
CLASSES
  0
CLASS
  1
DICTIONARYVAR
  2
AcDbDictionaryVar
  3
ObjectDBX Classes
 90
        0
280
     0
281
     0
  0
CLASS
  1
RASTERVARIABLES
  2
AcDbRasterVariables
  3
ISM
 90
    32768
280
     0
281
     0
  0
CLASS
  1
ACDBDICTIONARYWDFLT
  2
AcDbDictionaryWithDefault
  3
ObjectDBX Classes
 90
        0
280
     0
281
     0
  0
CLASS
  1
ACDBPLACEHOLDER
  2
AcDbPlaceHolder
  3
ObjectDBX Classes
 90
        0
280
     0
281
     0
  0
CLASS
  1
LAYOUT
  2
AcDbLayout
  3
ObjectDBX Classes
 90
        0
280
     0
281
     0
  0
CLASS
  1
AEC_VARS_DWG_SETUP
  2
AecDbVarsDwgSetup
  3
AecBase40|Product Desc: Autodesk Architectural Desktop 2005 |Company: Autodesk,Inc. |WEB Address: www.autodesk.com
 90
    32897
280
     1
281
     0
  0
CLASS
  1
AEC_DISP_REP_MASS_ELEM_MODEL
  2
AecDbDispRepMassElemModel
  3
AecBase40|Product Desc: Autodesk Architectural Desktop 2005 |Company: Autodesk,Inc. |WEB Address: www.autodesk.com
 90
    32897
280
     1
281
     0
  0
CLASS
  1
AEC_DISP_PROPS_MASS_ELEM_MODEL
  2
AecDbDispPropsMassElem
  3
AecBase40|Product Desc: Autodesk Architectural Desktop 2005 |Company: Autodesk,Inc. |WEB Address: www.autodesk.com
 90
    32897
280
     1
281
     0
  0
CLASS
  1
AEC_DISP_REP_MASS_ELEM_SCHEM
  2
AecDbDispRepMassElemSchem
  3
AecBase40|Product Desc: Autodesk Architectural Desktop 2005 |Company: Autodesk,Inc. |WEB Address: www.autodesk.com
 90
    32897
280
     1
281
     0
  0
CLASS
  1
AEC_DISP_REP_DOOR_ELEV
  2
AecDbDispRepDoorElev
  3
AecArchBase40|Product Desc: Autodesk Architectural Desktop 2005 |Company: Autodesk,Inc. |WEB Address: www.autodesk.com
 90
    32897
280
     1
281
     0
  0
CLASS
  1
AEC_DISP_PROPS_DOOR
  2
AecDbDispPropsDoor
  3
AecArchBase40|Product Desc: Autodesk Architectural Desktop 2005 |Company: Autodesk,Inc. |WEB Address: www.autodesk.com
 90
    32897
280
     1
281
     0
  0
CLASS
  1
AEC_DISP_REP_MASKBLOCK_REF
  2
AecDbDispRepMaskBlockRef
  3
AecBase40|Product Desc: Autodesk Architectural Desktop 2005 |Company: Autodesk,Inc. |WEB Address: www.autodesk.com
 90
    32897
280
     1
281
     0
  0
CLASS
  1
AEC_DISP_PROPS_MASKBLOCK
  2
AecDbDispPropsMaskBlock
  3
AecBase40|Product Desc: Autodesk Architectural Desktop 2005 |Company: Autodesk,Inc. |WEB Address: www.autodesk.com
 90
    32897
280
     1
281
     0
  0
CLASS
  1
AEC_DISP_REP_LAYOUT_GRID3D
  2
AecDbDispRepLayoutGrid3d
  3
AecBase40|Product Desc: Autodesk Architectural Desktop 2005 |Company: Autodesk,Inc. |WEB Address: www.autodesk.com
 90
    32897
280
     1
281
     0
  0
CLASS
  1
AEC_DISP_PROPS_LAYOUT_GRID3D
  2
AecDbDispPropsLayoutGrid3d
  3
AecBase40|Product Desc: Autodesk Architectural Desktop 2005 |Company: Autodesk,Inc. |WEB Address: www.autodesk.com
 90
    32897
280
     1
281
     0
  0
CLASS
  1
AEC_DISP_REP_ENT_REF
  2
AecDbDispRepEntRef
  3
AecBase40|Product Desc: Autodesk Architectural Desktop 2005 |Company: Autodesk,Inc. |WEB Address: www.autodesk.com
 90
    32897
280
     1
281
     0
  0
CLASS
  1
AEC_DISP_PROPS_ENT_REF
  2
AecDbDispPropsEntRef
  3
AecBase40|Product Desc: Autodesk Architectural Desktop 2005 |Company: Autodesk,Inc. |WEB Address: www.autodesk.com
 90
    32897
280
     1
281
     0
  0
CLASS
  1
AEC_DISP_REP_CLIP_VOLUME_RESULT_SUBDIV
  2
AecDbDispRepClipVolResSubDiv
  3
AecBase40|Product Desc: Autodesk Architectural Desktop 2005 |Company: Autodesk,Inc. |WEB Address: www.autodesk.com
 90
    32897
280
     1
281
     0
  0
CLASS
  1
AEC_DISP_PROPS_CLIP_VOLUME_RESULT
  2
AecDbDispPropsClipVolResSubDiv
  3
AecBase40|Product Desc: Autodesk Architectural Desktop 2005 |Company: Autodesk,Inc. |WEB Address: www.autodesk.com
 90
    32897
280
     1
281
     0
  0
CLASS
  1
AEC_DISP_REP_CLIP_VOLUME_RESULT
  2
AecDbDispRepClipVolResult
  3
AecBase40|Product Desc: Autodesk Architectural Desktop 2005 |Company: Autodesk,Inc. |WEB Address: www.autodesk.com
 90
    32897
280
     1
281
     0
  0
CLASS
  1
AEC_DISP_REP_CLIP_VOLUME_PLAN
  2
AecDbDispRepClipVolPlan
  3
AecBase40|Product Desc: Autodesk Architectural Desktop 2005 |Company: Autodesk,Inc. |WEB Address: www.autodesk.com
 90
    32897
280
     1
281
     0
  0
CLASS
  1
AEC_DISP_PROPS_CLIP_VOLUME
  2
AecDbDispPropsClipVol
  3
AecBase40|Product Desc: Autodesk Architectural Desktop 2005 |Company: Autodesk,Inc. |WEB Address: www.autodesk.com
 90
    32897
280
     1
281
     0
  0
CLASS
  1
AEC_DISP_REP_CLIP_VOLUME_MODEL
  2
AecDbDispRepClipVolModel
  3
AecBase40|Product Desc: Autodesk Architectural Desktop 2005 |Company: Autodesk,Inc. |WEB Address: www.autodesk.com
 90
    32897
280
     1
281
     0
  0
CLASS
  1
AEC_DISP_REP_ANCHOR_ENT_TO_NODE
  2
AecDbDispRepAnchorEntToNode
  3
AecBase40|Product Desc: Autodesk Architectural Desktop 2005 |Company: Autodesk,Inc. |WEB Address: www.autodesk.com
 90
    32897
280
     1
281
     0
  0
CLASS
  1
AEC_DISP_PROPS_ENT
  2
AecDbDispPropsEnt
  3
AecBase40|Product Desc: Autodesk Architectural Desktop 2005 |Company: Autodesk,Inc. |WEB Address: www.autodesk.com
 90
    32897
280
     1
281
     0
  0
CLASS
  1
AEC_DISP_REP_LAYOUT_GRID2D
  2
AecDbDispRepLayoutGrid2d
  3
AecBase40|Product Desc: Autodesk Architectural Desktop 2005 |Company: Autodesk,Inc. |WEB Address: www.autodesk.com
 90
    32897
280
     1
281
     0
  0
CLASS
  1
AEC_DISP_PROPS_LAYOUT_GRID2D
  2
AecDbDispPropsLayoutGrid2d
  3
AecBase40|Product Desc: Autodesk Architectural Desktop 2005 |Company: Autodesk,Inc. |WEB Address: www.autodesk.com
 90
    32897
280
     1
281
     0
  0
CLASS
  1
AEC_DISP_REP_LAYOUT_CURVE
  2
AecDbDispRepLayoutCurve
  3
AecBase40|Product Desc: Autodesk Architectural Desktop 2005 |Company: Autodesk,Inc. |WEB Address: www.autodesk.com
 90
    32897
280
     1
281
     0
  0
CLASS
  1
AEC_DISP_PROPS_LAYOUT_CURVE
  2
AecDbDispPropsLayoutCurve
  3
AecBase40|Product Desc: Autodesk Architectural Desktop 2005 |Company: Autodesk,Inc. |WEB Address: www.autodesk.com
 90
    32897
280
     1
281
     0
  0
CLASS
  1
AEC_DISP_REP_ANCHOR
  2
AecDbDispRepAnchor
  3
AecBase40|Product Desc: Autodesk Architectural Desktop 2005 |Company: Autodesk,Inc. |WEB Address: www.autodesk.com
 90
    32897
280
     1
281
     0
  0
CLASS
  1
AEC_DISP_REP_CAMERA
  2
AecDbDispRepCamera
  3
AecBase40|Product Desc: Autodesk Architectural Desktop 2005 |Company: Autodesk,Inc. |WEB Address: www.autodesk.com
 90
    32897
280
     1
281
     0
  0
CLASS
  1
AEC_DISP_PROPS_CAMERA
  2
AecDbDispPropsCamera
  3
AecBase40|Product Desc: Autodesk Architectural Desktop 2005 |Company: Autodesk,Inc. |WEB Address: www.autodesk.com
 90
    32897
280
     1
281
     0
  0
CLASS
  1
AEC_DISP_REP_SLICE
  2
AecDbDispRepSlice
  3
AecBase40|Product Desc: Autodesk Architectural Desktop 2005 |Company: Autodesk,Inc. |WEB Address: www.autodesk.com
 90
    32897
280
     1
281
     0
  0
CLASS
  1
AEC_DISP_PROPS_SLICE
  2
AecDbDispPropsSlice
  3
AecBase40|Product Desc: Autodesk Architectural Desktop 2005 |Company: Autodesk,Inc. |WEB Address: www.autodesk.com
 90
    32897
280
     1
281
     0
  0
CLASS
  1
AEC_DISP_REP_MVBLOCK_REF
  2
AecDbDispRepMvBlockRef
  3
AecBase40|Product Desc: Autodesk Architectural Desktop 2005 |Company: Autodesk,Inc. |WEB Address: www.autodesk.com
 90
    32897
280
     1
281
     0
  0
CLASS
  1
AEC_DISP_REP_MVBLOCK_REF_MODEL
  2
AecDbDispRepMvBlockRefModel
  3
AecBase40|Product Desc: Autodesk Architectural Desktop 2005 |Company: Autodesk,Inc. |WEB Address: www.autodesk.com
 90
    32897
280
     1
281
     0
  0
CLASS
  1
AEC_DISP_REP_MASS_GROUP_MODEL
  2
AecDbDispRepMassGroupModel
  3
AecBase40|Product Desc: Autodesk Architectural Desktop 2005 |Company: Autodesk,Inc. |WEB Address: www.autodesk.com
 90
    32897
280
     1
281
     0
  0
CLASS
  1
AEC_DISP_PROPS_MASS_GROUP
  2
AecDbDispPropsMassGroup
  3
AecBase40|Product Desc: Autodesk Architectural Desktop 2005 |Company: Autodesk,Inc. |WEB Address: www.autodesk.com
 90
    32897
280
     1
281
     0
  0
CLASS
  1
AEC_DISP_REP_MASS_GROUP_PLAN
  2
AecDbDispRepMassGroupPlan
  3
AecBase40|Product Desc: Autodesk Architectural Desktop 2005 |Company: Autodesk,Inc. |WEB Address: www.autodesk.com
 90
    32897
280
     1
281
     0
  0
CLASS
  1
AEC_DISP_REP_DOOR_RCP
  2
AecDbDispRepDoorRcp
  3
AecArchBase40|Product Desc: Autodesk Architectural Desktop 2005 |Company: Autodesk,Inc. |WEB Address: www.autodesk.com
 90
    32897
280
     1
281
     0
  0
CLASS
  1
AEC_DISP_REP_DOOR_NOMINAL
  2
AecDbDispRepDoorNominal
  3
AecArchBase40|Product Desc: Autodesk Architectural Desktop 2005 |Company: Autodesk,Inc. |WEB Address: www.autodesk.com
 90
    32897
280
     1
281
     0
  0
CLASS
  1
AEC_DISP_PROPS_DOOR_NOMINAL
  2
AecDbDispPropsDoorNominal
  3
AecArchBase40|Product Desc: Autodesk Architectural Desktop 2005 |Company: Autodesk,Inc. |WEB Address: www.autodesk.com
 90
    32897
280
     1
281
     0
  0
CLASS
  1
AEC_DISP_REP_DOOR_PLAN
  2
AecDbDispRepDoorPlan
  3
AecArchBase40|Product Desc: Autodesk Architectural Desktop 2005 |Company: Autodesk,Inc. |WEB Address: www.autodesk.com
 90
    32897
280
     1
281
     0
  0
CLASS
  1
AEC_DISP_REP_DOOR_MODEL
  2
AecDbDispRepDoorModel
  3
AecArchBase40|Product Desc: Autodesk Architectural Desktop 2005 |Company: Autodesk,Inc. |WEB Address: www.autodesk.com
 90
    32897
280
     1
281
     0
  0
CLASS
  1
AEC_DISP_REP_MVBLOCK_REF_RCP
  2
AecDbDispRepMvBlockRefRcp
  3
AecArchBase40|Product Desc: Autodesk Architectural Desktop 2005 |Company: Autodesk,Inc. |WEB Address: www.autodesk.com
 90
    32897
280
     1
281
     0
  0
CLASS
  1
AEC_DISP_REP_MASS_GROUP_RCP
  2
AecDbDispRepMassGroupRcp
  3
AecArchBase40|Product Desc: Autodesk Architectural Desktop 2005 |Company: Autodesk,Inc. |WEB Address: www.autodesk.com
 90
    32897
280
     1
281
     0
  0
CLASS
  1
AEC_DISP_REP_MASS_ELEM_RCP
  2
AecDbDispRepMassElemRcp
  3
AecArchBase40|Product Desc: Autodesk Architectural Desktop 2005 |Company: Autodesk,Inc. |WEB Address: www.autodesk.com
 90
    32897
280
     1
281
     0
  0
CLASS
  1
AEC_DISP_REP_MASKBLOCK_REF_RCP
  2
AecDbDispRepMaskBlockRefRcp
  3
AecArchBase40|Product Desc: Autodesk Architectural Desktop 2005 |Company: Autodesk,Inc. |WEB Address: www.autodesk.com
 90
    32897
280
     1
281
     0
  0
CLASS
  1
AEC_DISP_REP_COLUMN_GRID_RCP
  2
AecDbDispRepColumnGridRcp
  3
AecArchBase
 90
    32897
280
     1
281
     0
  0
CLASS
  1
AEC_DISP_REP_COLUMN_GRID_MODEL
  2
AecDbDispRepColumnGridModel
  3
AecArchBase
 90
    32897
280
     1
281
     0
  0
CLASS
  1
AEC_DISP_REP_COLUMN_GRID
  2
AecDbDispRepColumnGrid
  3
AecArchBase
 90
    32897
280
     1
281
     0
  0
CLASS
  1
AEC_DISP_REP_CEILING_GRID_RCP
  2
AecDbDispRepCeilingGridRcp
  3
AecArchBase40|Product Desc: Autodesk Architectural Desktop 2005 |Company: Autodesk,Inc. |WEB Address: www.autodesk.com
 90
    32897
280
     1
281
     0
  0
CLASS
  1
AEC_DISP_REP_CEILING_GRID_MODEL
  2
AecDbDispRepCeilingGridModel
  3
AecArchBase40|Product Desc: Autodesk Architectural Desktop 2005 |Company: Autodesk,Inc. |WEB Address: www.autodesk.com
 90
    32897
280
     1
281
     0
  0
CLASS
  1
AEC_DISP_REP_CEILING_GRID
  2
AecDbDispRepCeilingGrid
  3
AecArchBase40|Product Desc: Autodesk Architectural Desktop 2005 |Company: Autodesk,Inc. |WEB Address: www.autodesk.com
 90
    33661
280
     1
281
     0
  0
CLASS
  1
AEC_DISP_REP_BDG_SECTION_SUBDIV
  2
AecDbDispRepBdgSectionSubDiv
  3
AecArchBase40|Product Desc: Autodesk Architectural Desktop 2005 |Company: Autodesk,Inc. |WEB Address: www.autodesk.com
 90
    32897
280
     1
281
     0
  0
CLASS
  1
AEC_DISP_REP_BDG_SECTION_MODEL
  2
AecDbDispRepBdgSectionModel
  3
AecArchBase40|Product Desc: Autodesk Architectural Desktop 2005 |Company: Autodesk,Inc. |WEB Address: www.autodesk.com
 90
    32897
280
     1
281
     0
  0
CLASS
  1
AEC_DISP_REP_BDG_SECTIONLINE_RCP
  2
AecDbDispRepBdgSectionLineRcp
  3
AecArchBase40|Product Desc: Autodesk Architectural Desktop 2005 |Company: Autodesk,Inc. |WEB Address: www.autodesk.com
 90
    32897
280
     1
281
     0
  0
CLASS
  1
AEC_DISP_REP_BDG_SECTIONLINE_PLAN
  2
AecDbDispRepBdgSectionLinePlan
  3
AecArchBase40|Product Desc: Autodesk Architectural Desktop 2005 |Company: Autodesk,Inc. |WEB Address: www.autodesk.com
 90
    32897
280
     1
281
     0
  0
CLASS
  1
AEC_DISP_REP_BDG_ELEVLINE_RCP
  2
AecDbDispRepBdgElevLineRcp
  3
AecArchBase40|Product Desc: Autodesk Architectural Desktop 2005 |Company: Autodesk,Inc. |WEB Address: www.autodesk.com
 90
    32897
280
     1
281
     0
  0
CLASS
  1
AEC_DISP_REP_BDG_SECTIONLINE_PLAN
  2
AecDbDispRepBdgElevLinePlan
  3
AecArchBase40|Product Desc: Autodesk Architectural Desktop 2005 |Company: Autodesk,Inc. |WEB Address: www.autodesk.com
 90
    32897
280
     1
281
     0
  0
CLASS
  1
AEC_DISP_REP_BDG_SECTIONLINE_MODEL
  2
AecDbDispRepBdgSectionLineModel
  3
AecArchBase40|Product Desc: Autodesk Architectural Desktop 2005 |Company: Autodesk,Inc. |WEB Address: www.autodesk.com
 90
    32897
280
     1
281
     0
  0
CLASS
  1
AEC_DISP_REP_BDG_ELEVLINE_MODEL
  2
AecDbDispRepBdgElevLineModel
  3
AecArchBase40|Product Desc: Autodesk Architectural Desktop 2005 |Company: Autodesk,Inc. |WEB Address: www.autodesk.com
 90
    32897
280
     1
281
     0
  0
CLASS
  1
AEC_DISP_REP_ANCHOR_BUB_TO_GRID_RCP
  2
AecDbDispRepAnchorBubToGridRcp
  3
AecArchBase
 90
    32897
280
     1
281
     0
  0
CLASS
  1
AEC_DISP_REP_ANCHOR_BUB_TO_GRID_MODEL
  2
AecDbDispRepAnchorBubToGridMdl
  3
AecArchBase
 90
    32897
280
     1
281
     0
  0
CLASS
  1
AEC_DISP_REP_ANCHOR_BUB_TO_GRID
  2
AecDbDispRepAnchorBubToGrid
  3
AecArchBase
 90
    32897
280
     1
281
     0
  0
CLASS
  1
AEC_DISP_REP_WINDOW_RCP
  2
AecDbDispRepWindowRcp
  3
AecArchBase40|Product Desc: Autodesk Architectural Desktop 2005 |Company: Autodesk,Inc. |WEB Address: www.autodesk.com
 90
    32897
280
     1
281
     0
  0
CLASS
  1
AEC_DISP_PROPS_WINDOW
  2
AecDbDispPropsWindow
  3
AecArchBase40|Product Desc: Autodesk Architectural Desktop 2005 |Company: Autodesk,Inc. |WEB Address: www.autodesk.com
 90
    32897
280
     1
281
     0
  0
CLASS
  1
AEC_DISP_REP_ROOF_RCP
  2
AecDbDispRepRoofRcp
  3
AecArchBase40|Product Desc: Autodesk Architectural Desktop 2005 |Company: Autodesk,Inc. |WEB Address: www.autodesk.com
 90
    32897
280
     1
281
     0
  0
CLASS
  1
AEC_DISP_PROPS_ROOF
  2
AecDbDispPropsRoof
  3
AecArchBase40|Product Desc: Autodesk Architectural Desktop 2005 |Company: Autodesk,Inc. |WEB Address: www.autodesk.com
 90
    32897
280
     1
281
     0
  0
CLASS
  1
AEC_DISP_REP_ROOF_PLAN
  2
AecDbDispRepRoofPlan
  3
AecArchBase40|Product Desc: Autodesk Architectural Desktop 2005 |Company: Autodesk,Inc. |WEB Address: www.autodesk.com
 90
    32897
280
     1
281
     0
  0
CLASS
  1
AEC_DISP_REP_WINDOW_SILL_PLAN
  2
AecDbDispRepWindowSillPlan
  3
AecArchBase40|Product Desc: Autodesk Architectural Desktop 2005 |Company: Autodesk,Inc. |WEB Address: www.autodesk.com
 90
    32897
280
     1
281
     0
  0
CLASS
  1
AEC_DISP_PROPS_WINDOW_SILL_PLAN
  2
AecDbDispPropsWindowSillPlan
  3
AecArchBase40|Product Desc: Autodesk Architectural Desktop 2005 |Company: Autodesk,Inc. |WEB Address: www.autodesk.com
 90
    32897
280
     1
281
     0
  0
CLASS
  1
AEC_DISP_REP_SPACE_PLAN
  2
AecDbDispRepSpacePlan
  3
AecArchBase40|Product Desc: Autodesk Architectural Desktop 2005 |Company: Autodesk,Inc. |WEB Address: www.autodesk.com
 90
    32897
280
     1
281
     0
  0
CLASS
  1
AEC_DISP_PROPS_SPACE_PLAN
  2
AecDbDispPropsSpacePlan
  3
AecArchBase40|Product Desc: Autodesk Architectural Desktop 2005 |Company: Autodesk,Inc. |WEB Address: www.autodesk.com
 90
    32897
280
     1
281
     0
  0
CLASS
  1
AEC_DISP_REP_SPACE_MODEL
  2
AecDbDispRepSpaceModel
  3
AecArchBase40|Product Desc: Autodesk Architectural Desktop 2005 |Company: Autodesk,Inc. |WEB Address: www.autodesk.com
 90
    32897
280
     1
281
     0
  0
CLASS
  1
AEC_DISP_PROPS_SPACE_MODEL
  2
AecDbDispPropsSpaceModel
  3
AecArchBase40|Product Desc: Autodesk Architectural Desktop 2005 |Company: Autodesk,Inc. |WEB Address: www.autodesk.com
 90
    32897
280
     1
281
     0
  0
CLASS
  1
AEC_DISP_REP_WINDOW_MODEL
  2
AecDbDispRepWindowModel
  3
AecArchBase40|Product Desc: Autodesk Architectural Desktop 2005 |Company: Autodesk,Inc. |WEB Address: www.autodesk.com
 90
    32897
280
     1
281
     0
  0
CLASS
  1
AEC_DISP_REP_WINDOW_NOMINAL
  2
AecDbDispRepWindowNominal
  3
AecArchBase40|Product Desc: Autodesk Architectural Desktop 2005 |Company: Autodesk,Inc. |WEB Address: www.autodesk.com
 90
    32897
280
     1
281
     0
  0
CLASS
  1
AEC_DISP_PROPS_WINDOW_NOMINAL
  2
AecDbDispPropsWindowNominal
  3
AecArchBase40|Product Desc: Autodesk Architectural Desktop 2005 |Company: Autodesk,Inc. |WEB Address: www.autodesk.com
 90
    32897
280
     1
281
     0
  0
CLASS
  1
AEC_DISP_REP_OPENING
  2
AecDbDispRepOpening
  3
AecArchBase40|Product Desc: Autodesk Architectural Desktop 2005 |Company: Autodesk,Inc. |WEB Address: www.autodesk.com
 90
    32897
280
     1
281
     0
  0
CLASS
  1
AEC_DISP_PROPS_OPENING
  2
AecDbDispPropsOpening
  3
AecArchBase40|Product Desc: Autodesk Architectural Desktop 2005 |Company: Autodesk,Inc. |WEB Address: www.autodesk.com
 90
    32897
280
     1
281
     0
  0
CLASS
  1
AEC_DISP_REP_OPENING_MODEL
  2
AecDbDispRepOpeningModel
  3
AecArchBase40|Product Desc: Autodesk Architectural Desktop 2005 |Company: Autodesk,Inc. |WEB Address: www.autodesk.com
 90
    32897
280
     1
281
     0
  0
CLASS
  1
AEC_DISP_REP_RAILING_PLAN
  2
AecDbDispRepRailingPlan
  3
AecArchBase40|Product Desc: Autodesk Architectural Desktop 2005 |Company: Autodesk,Inc. |WEB Address: www.autodesk.com
 90
    32897
280
     1
281
     0
  0
CLASS
  1
AEC_DISP_PROPS_RAILING_PLAN
  2
AecDbDispPropsRailingPlan
  3
AecArchBase40|Product Desc: Autodesk Architectural Desktop 2005 |Company: Autodesk,Inc. |WEB Address: www.autodesk.com
 90
    32897
280
     1
281
     0
  0
CLASS
  1
AEC_DISP_REP_RAILING_MODEL
  2
AecDbDispRepRailingModel
  3
AecArchBase40|Product Desc: Autodesk Architectural Desktop 2005 |Company: Autodesk,Inc. |WEB Address: www.autodesk.com
 90
    32897
280
     1
281
     0
  0
CLASS
  1
AEC_DISP_PROPS_RAILING_MODEL
  2
AecDbDispPropsRailingModel
  3
AecArchBase40|Product Desc: Autodesk Architectural Desktop 2005 |Company: Autodesk,Inc. |WEB Address: www.autodesk.com
 90
    32897
280
     1
281
     0
  0
CLASS
  1
AEC_DISP_REP_WINDOW_ELEV
  2
AecDbDispRepWindowElev
  3
AecArchBase40|Product Desc: Autodesk Architectural Desktop 2005 |Company: Autodesk,Inc. |WEB Address: www.autodesk.com
 90
    32897
280
     1
281
     0
  0
CLASS
  1
AEC_DISP_REP_DOOR_THRESHOLD_PLAN
  2
AecDbDispRepDoorThresholdPlan
  3
AecArchBase40|Product Desc: Autodesk Architectural Desktop 2005 |Company: Autodesk,Inc. |WEB Address: www.autodesk.com
 90
    32897
280
     1
281
     0
  0
CLASS
  1
AEC_DISP_PROPS_DOOR_THRESHOLD_PLAN
  2
AecDbDispPropsDoorThresholdPlan
  3
AecArchBase40|Product Desc: Autodesk Architectural Desktop 2005 |Company: Autodesk,Inc. |WEB Address: www.autodesk.com
 90
    32897
280
     1
281
     0
  0
CLASS
  1
AEC_DISP_REP_ROOF_MODEL
  2
AecDbDispRepRoofModel
  3
AecArchBase40|Product Desc: Autodesk Architectural Desktop 2005 |Company: Autodesk,Inc. |WEB Address: www.autodesk.com
 90
    32897
280
     1
281
     0
  0
CLASS
  1
AEC_DISP_REP_WINDOW_PLAN
  2
AecDbDispRepWindowPlan
  3
AecArchBase40|Product Desc: Autodesk Architectural Desktop 2005 |Company: Autodesk,Inc. |WEB Address: www.autodesk.com
 90
    32897
280
     1
281
     0
  0
CLASS
  1
AEC_DISP_REP_WALL_SCHEM
  2
AecDbDispRepWallSchem
  3
AecArchBase40|Product Desc: Autodesk Architectural Desktop 2005 |Company: Autodesk,Inc. |WEB Address: www.autodesk.com
 90
    32897
280
     1
281
     0
  0
CLASS
  1
AEC_DISP_PROPS_WALL_SCHEM
  2
AecDbDispPropsWallSchem
  3
AecArchBase40|Product Desc: Autodesk Architectural Desktop 2005 |Company: Autodesk,Inc. |WEB Address: www.autodesk.com
 90
    32897
280
     1
281
     0
  0
CLASS
  1
AEC_DISP_REP_WALL_RCP
  2
AecDbDispRepWallRcp
  3
AecArchBase40|Product Desc: Autodesk Architectural Desktop 2005 |Company: Autodesk,Inc. |WEB Address: www.autodesk.com
 90
    32897
280
     1
281
     0
  0
CLASS
  1
AEC_DISP_PROPS_WALL_PLAN
  2
AecDbDispPropsWallPlan
  3
AecArchBase40|Product Desc: Autodesk Architectural Desktop 2005 |Company: Autodesk,Inc. |WEB Address: www.autodesk.com
 90
    32897
280
     1
281
     0
  0
CLASS
  1
AEC_DISP_REP_WALL_PLAN
  2
AecDbDispRepWallPlan
  3
AecArchBase40|Product Desc: Autodesk Architectural Desktop 2005 |Company: Autodesk,Inc. |WEB Address: www.autodesk.com
 90
    32897
280
     1
281
     0
  0
CLASS
  1
AEC_DISP_REP_WALL_MODEL
  2
AecDbDispRepWallModel
  3
AecArchBase40|Product Desc: Autodesk Architectural Desktop 2005 |Company: Autodesk,Inc. |WEB Address: www.autodesk.com
 90
    32897
280
     1
281
     0
  0
CLASS
  1
AEC_DISP_PROPS_WALL
  2
AecDbDispPropsWall
  3
AecArchBase40|Product Desc: Autodesk Architectural Desktop 2005 |Company: Autodesk,Inc. |WEB Address: www.autodesk.com
 90
    32897
280
     1
281
     0
  0
CLASS
  1
AEC_DISP_REP_WALL_GRAPH
  2
AecDbDispRepWallGraph
  3
AecArchBase40|Product Desc: Autodesk Architectural Desktop 2005 |Company: Autodesk,Inc. |WEB Address: www.autodesk.com
 90
    32897
280
     1
281
     0
  0
CLASS
  1
AEC_DISP_REP_STAIR_RCP
  2
AecDbDispRepStairRcp
  3
AecArchBase40|Product Desc: Autodesk Architectural Desktop 2005 |Company: Autodesk,Inc. |WEB Address: www.autodesk.com
 90
    32897
280
     1
281
     0
  0
CLASS
  1
AEC_DISP_PROPS_STAIR_PLAN
  2
AecDbDispPropsStairPlan
  3
AecArchBase40|Product Desc: Autodesk Architectural Desktop 2005 |Company: Autodesk,Inc. |WEB Address: www.autodesk.com
 90
    32897
280
     1
281
     0
  0
CLASS
  1
AEC_DISP_REP_STAIR_PLAN
  2
AecDbDispRepStairPlan
  3
AecArchBase40|Product Desc: Autodesk Architectural Desktop 2005 |Company: Autodesk,Inc. |WEB Address: www.autodesk.com
 90
    32897
280
     1
281
     0
  0
CLASS
  1
AEC_DISP_REP_STAIR_MODEL
  2
AecDbDispRepStairModel
  3
AecArchBase40|Product Desc: Autodesk Architectural Desktop 2005 |Company: Autodesk,Inc. |WEB Address: www.autodesk.com
 90
    32897
280
     1
281
     0
  0
CLASS
  1
AEC_DISP_PROPS_STAIR_MODEL
  2
AecDbDispPropsStairModel
  3
AecArchBase40|Product Desc: Autodesk Architectural Desktop 2005 |Company: Autodesk,Inc. |WEB Address: www.autodesk.com
 90
    32897
280
     1
281
     0
  0
CLASS
  1
AEC_DISP_REP_SPACE_BOUNDARY_SCHEM
  2
AecDbDispRepSpaceBoundarySketch
  3
AecArchBase40|Product Desc: Autodesk Architectural Desktop 2005 |Company: Autodesk,Inc. |WEB Address: www.autodesk.com
 90
    32897
280
     1
281
     0
  0
CLASS
  1
AEC_DISP_REP_SPACE_BOUNDARY_PLAN
  2
AecDbDispRepSpaceBoundaryPlan
  3
AecArchBase40|Product Desc: Autodesk Architectural Desktop 2005 |Company: Autodesk,Inc. |WEB Address: www.autodesk.com
 90
    32897
280
     1
281
     0
  0
CLASS
  1
AEC_DISP_REP_SPACE_BOUNDARY_MODEL
  2
AecDbDispRepSpaceBoundaryModel
  3
AecArchBase40|Product Desc: Autodesk Architectural Desktop 2005 |Company: Autodesk,Inc. |WEB Address: www.autodesk.com
 90
    32897
280
     1
281
     0
  0
CLASS
  1
AEC_DISP_REP_SPACE_BOUNDARY_DIAGRAM
  2
AecDbDispRepSpaceBoundaryDgrm
  3
AecArchBase40|Product Desc: Autodesk Architectural Desktop 2005 |Company: Autodesk,Inc. |WEB Address: www.autodesk.com
 90
    32897
280
     1
281
     0
  0
CLASS
  1
AEC_DISP_REP_SPACE_VOLUME
  2
AecDbDispRepSpaceVolume
  3
AecArchBase40|Product Desc: Autodesk Architectural Desktop 2005 |Company: Autodesk,Inc. |WEB Address: www.autodesk.com
 90
    32897
280
     1
281
     0
  0
CLASS
  1
AEC_DISP_REP_SPACE_RCP
  2
AecDbDispRepSpaceRcp
  3
AecArchBase40|Product Desc: Autodesk Architectural Desktop 2005 |Company: Autodesk,Inc. |WEB Address: www.autodesk.com
 90
    32897
280
     1
281
     0
  0
CLASS
  1
AEC_DISP_REP_ANCHOR_TAG_TO_ENT
  2
AecDbDispRepAnchorTagToEnt
  3
AecScheduleData40|Product Desc: Autodesk Architectural Desktop 2005 |Company: Autodesk,Inc. |WEB Address: www.autodesk.com
 90
    32897
280
     1
281
     0
  0
CLASS
  1
AEC_DISP_REP_SCHEDULE_TABLE
  2
AecDbDispRepScheduleTable
  3
AecSchedule40|Product Desc: Autodesk Architectural Desktop 2004 |Company: Autodesk,Inc. |WEB Address: www.autodesk.com
 90
    32897
280
     1
281
     0
  0
CLASS
  1
AEC_DISP_PROPS_SCHEDULE_TABLE
  2
AecDbDispPropsScheduleTable
  3
AecSchedule40|Product Desc: Autodesk Architectural Desktop 2004 |Company: Autodesk,Inc. |WEB Address: www.autodesk.com
 90
    32897
280
     1
281
     0
  0
CLASS
  1
AEC_DISP_REP_SET
  2
AecDbDispRepSet
  3
AecBase40|Product Desc: Autodesk Architectural Desktop 2005 |Company: Autodesk,Inc. |WEB Address: www.autodesk.com
 90
    32897
280
     1
281
     0
  0
CLASS
  1
AEC_DISP_REP_CONFIG
  2
AecDbDispRepConfig
  3
AecBase40|Product Desc: Autodesk Architectural Desktop 2005 |Company: Autodesk,Inc. |WEB Address: www.autodesk.com
 90
    32897
280
     1
281
     0
  0
CLASS
  1
TABLESTYLE
  2
AcDbTableStyle
  3
ObjectDBX Classes
 90
     4095
280
     0
281
     0
  0
CLASS
  1
MATERIAL
  2
AcDbMaterial
  3
ObjectDBX Classes
 90
     1153
280
     0
281
     0
  0
CLASS
  1
VISUALSTYLE
  2
AcDbVisualStyle
  3
ObjectDBX Classes
 90
     4095
280
     0
281
     0
  0
CLASS
  1
SCALE
  2
AcDbScale
  3
ObjectDBX Classes
 90
     1153
280
     0
281
     0
  0
CLASS
  1
MLEADERSTYLE
  2
AcDbMLeaderStyle
  3
ACDB_MLEADERSTYLE_CLASS
 90
    36863
280
     0
281
     0
  0
CLASS
  1
ACDBSECTIONVIEWSTYLE
  2
AcDbSectionViewStyle
  3
ObjectDBX Classes
 90
    33793
280
     0
281
     0
  0
CLASS
  1
ACDBDETAILVIEWSTYLE
  2
AcDbDetailViewStyle
  3
ObjectDBX Classes
 90
    33793
280
     0
281
     0
  0
CLASS
  1
EXACXREFPANELOBJECT
  2
ExAcXREFPanelObject
  3
EXAC_ESW
 90
    33793
280
     0
281
     0
  0
CLASS
  1
NPOCOLLECTION
  2
AcDbImpNonPersistentObjectsCollection
  3
ObjectDBX Classes
 90
    33921
280
     0
281
     0
  0
CLASS
  1
CELLSTYLEMAP
  2
AcDbCellStyleMap
  3
ObjectDBX Classes
 90
     1152
280
     0
281
     0
  0
ENDSEC
  0
SECTION
  2
TABLES
  0
TABLE
  2
VPORT
  5
2F
330
0
100
AcDbSymbolTable
 70
     1
  0
VPORT
  5
30
330
2F
100
AcDbSymbolTableRecord
100
AcDbViewportTableRecord
  2
*Active
 70
     0
 10
0.0
 20
0.0
 11
1.0
 21
1.0
 12
160.7675387108756
 22
78.51790296463409
 13
0.0
 23
0.0
 14
1.0
 24
1.0
 15
0.0
 25
0.0
 16
0.0
 26
0.0
 36
1.0
 17
0.0
 27
0.0
 37
0.0
 40
208.5977589429699
 41
2.095558546433378
 42
50.0
 43
0.0
 44
0.0
 50
0.0
 51
0.0
 71
     0
 72
 20000
 73
     1
 74
     1
 75
     0
 76
     0
 77
     0
 78
     0
281
     0
 65
     1
110
0.0
120
0.0
130
0.0
111
1.0
121
0.0
131
0.0
112
0.0
122
1.0
132
0.0
 79
     0
146
0.0
1001
ACAD_NAV_VCDISPLAY
1070
     3
  0
ENDTAB
  0
TABLE
  2
LTYPE
  5
2A
330
0
100
AcDbSymbolTable
 70
     1
  0
LTYPE
  5
2B
330
2A
100
AcDbSymbolTableRecord
100
AcDbLinetypeTableRecord
  2
BYBLOCK
 70
     0
  3

 72
    65
 73
     0
 40
0.0
  0
LTYPE
  5
2C
330
2A
100
AcDbSymbolTableRecord
100
AcDbLinetypeTableRecord
  2
BYLAYER
 70
     0
  3

 72
    65
 73
     0
 40
0.0
  0
LTYPE
  5
14
330
2A
100
AcDbSymbolTableRecord
100
AcDbLinetypeTableRecord
  2
CONTINUOUS
 70
     0
  3
Solid line
 72
    65
 73
     0
 40
0.0
  0
ENDTAB
  0
TABLE
  2
LAYER
  5
26
330
0
100
AcDbSymbolTable
 70
     6
  0
LAYER
  5
7
330
26
100
AcDbSymbolTableRecord
100
AcDbLayerTableRecord
  2
0
 70
     0
 62
     7
  6
CONTINUOUS
370
    -3
390
8
  0
LAYER
  5
96
330
26
100
AcDbSymbolTableRecord
100
AcDbLayerTableRecord
  2
DEFPOINTS
 70
     0
 62
     7
  6
CONTINUOUS
290
     0
370
    -3
390
8
  0
LAYER
  5
63
330
26
100
AcDbSymbolTableRecord
100
AcDbLayerTableRecord
  2
KIJUN
 70
     0
 62
     7
  6
CONTINUOUS
370
    -3
390
8
  0
LAYER
  5
1BC
330
26
100
AcDbSymbolTableRecord
100
AcDbLayerTableRecord
  2
HOJO
 70
     0
 62
     3
  6
CONTINUOUS
370
    -3
390
8
  0
LAYER
  5
1BE
330
26
100
AcDbSymbolTableRecord
100
AcDbLayerTableRecord
  2
WAKU
 70
     0
 62
     1
  6
CONTINUOUS
370
    -3
390
8
  0
LAYER
  5
86
330
26
100
AcDbSymbolTableRecord
100
AcDbLayerTableRecord
  2
SUNPOU
 70
     0
 62
    70
  6
CONTINUOUS
370
    -3
390
8
  0
ENDTAB
  0
TABLE
  2
STYLE
  5
27
330
0
100
AcDbSymbolTable
 70
     3
  0
STYLE
  5
28
330
27
100
AcDbSymbolTableRecord
100
AcDbTextStyleTableRecord
  2
STANDARD
 70
     0
 40
0.0
 41
1.0
 50
0.0
 71
     0
 42
0.2
  3
txt
  4

  0
STYLE
  5
4B
330
27
100
AcDbSymbolTableRecord
100
AcDbTextStyleTableRecord
  2
SUNPOU
 70
     0
 40
0.0
 41
1.0
 50
0.0
 71
     0
 42
30.0
  3
txt
  4
bigfont
  0
STYLE
  5
94
330
27
100
AcDbSymbolTableRecord
100
AcDbTextStyleTableRecord
  2
LIFE
 70
     0
 40
0.0
 41
0.7
 50
0.0
 71
     0
 42
10.0
  3
romans
  4
extfont
  0
ENDTAB
  0
TABLE
  2
VIEW
  5
2D
330
0
100
AcDbSymbolTable
 70
     0
  0
ENDTAB
  0
TABLE
  2
UCS
  5
2E
330
0
100
AcDbSymbolTable
 70
     0
  0
ENDTAB
  0
TABLE
  2
APPID
  5
34
330
0
100
AcDbSymbolTable
 70
     2
  0
APPID
  5
5
330
34
100
AcDbSymbolTableRecord
100
AcDbRegAppTableRecord
  2
ACAD
 70
     0
  0
APPID
  5
33
330
34
100
AcDbSymbolTableRecord
100
AcDbRegAppTableRecord
  2
ACAD_NAV_VCDISPLAY
 70
     0
  0
ENDTAB
  0
TABLE
  2
DIMSTYLE
  5
35
330
0
100
AcDbSymbolTable
 70
     3
100
AcDbDimStyleTable
 71
     1
340
36
  0
DIMSTYLE
105
36
330
35
100
AcDbSymbolTableRecord
100
AcDbDimStyleTableRecord
  2
STANDARD
 70
     0
 41
3.0
 42
2.0
 44
0.0
 73
     0
 74
     0
 77
     1
140
2.799999999999998
141
1.0
146
0.0642857142857143
147
1.0
173
     1
174
     1
176
    60
177
    70
178
    60
271
     0
340
28
341
37
343
37
344
37
  0
DIMSTYLE
105
9A
102
{ACAD_REACTORS
330
1AE
330
85
102
}
330
35
100
AcDbSymbolTableRecord
100
AcDbDimStyleTableRecord
  2
STANDARD$0
 70
     0
 40
2.0
 41
1.0
 42
2.0
 43
0.0
 44
1.0
 73
     0
 74
     0
 77
     3
 78
     9
140
4.5
141
0.0
147
1.0
172
     1
173
     1
178
     3
271
     2
340
94
341
8D
343
8D
344
8D
  0
DIMSTYLE
105
50
330
35
100
AcDbSymbolTableRecord
100
AcDbDimStyleTableRecord
  2
1
 70
     0
 41
3.0
 42
2.0
 44
0.0
 73
     0
 74
     0
 77
     1
140
7.0
141
1.0
146
0.0642857142857143
147
1.0
173
     1
174
     1
176
    60
177
    70
178
    60
271
     0
340
28
341
37
343
37
344
37
  0
ENDTAB
  0
TABLE
  2
BLOCK_RECORD
  5
1
330
0
100
AcDbSymbolTable
 70
     4
  0
BLOCK_RECORD
  5
2
102
{ACAD_XDICTIONARY
360
3
102
}
330
1
100
AcDbSymbolTableRecord
100
AcDbBlockTableRecord
  2
*MODEL_SPACE
340
1E
  0
BLOCK_RECORD
  5
20
102
{ACAD_XDICTIONARY
360
21
102
}
330
1
100
AcDbSymbolTableRecord
100
AcDbBlockTableRecord
  2
*PAPER_SPACE
340
25
  0
BLOCK_RECORD
  5
37
330
1
100
AcDbSymbolTableRecord
100
AcDbBlockTableRecord
  2
_DOTSMALL
340
0
  0
BLOCK_RECORD
  5
8D
330
1
100
AcDbSymbolTableRecord
100
AcDbBlockTableRecord
  2
_DOT
340
0
102
{BLKREFS
331
8C
331
92
331
1B4
331
1B5
102
}
  0
BLOCK_RECORD
  5
87
330
1
100
AcDbSymbolTableRecord
100
AcDbBlockTableRecord
  2
*D2
340
0
  0
BLOCK_RECORD
  5
1AF
330
1
100
AcDbSymbolTableRecord
100
AcDbBlockTableRecord
  2
*D3
340
0
  0
ENDTAB
  0
ENDSEC
  0
SECTION
  2
BLOCKS
  0
BLOCK
  5
6
330
2
100
AcDbEntity
  8
0
100
AcDbBlockBegin
  2
*MODEL_SPACE
 70
     0
 10
0.0
 20
0.0
 30
0.0
  3
*MODEL_SPACE
  1

  0
ENDBLK
  5
1D
330
2
100
AcDbEntity
  8
0
100
AcDbBlockEnd
  0
BLOCK
  5
23
330
20
100
AcDbEntity
 67
     1
  8
0
100
AcDbBlockBegin
  2
*PAPER_SPACE
 70
     0
 10
0.0
 20
0.0
 30
0.0
  3
*PAPER_SPACE
  1

  0
ENDBLK
  5
24
330
20
100
AcDbEntity
 67
     1
  8
0
100
AcDbBlockEnd
  0
BLOCK
  5
38
330
37
100
AcDbEntity
  8
0
100
AcDbBlockBegin
  2
_DOTSMALL
 70
     0
 10
0.0
 20
0.0
 30
0.0
  3
_DOTSMALL
  1

  0
LWPOLYLINE
  5
39
330
37
100
AcDbEntity
  8
0
  6
ByBlock
 62
     0
100
AcDbPolyline
 90
        2
 70
     1
 43
0.5
 10
-0.0625
 20
0.0
 42
1.0
 10
0.0625
 20
0.0
 42
1.0
  0
ENDBLK
  5
3A
330
37
100
AcDbEntity
  8
0
100
AcDbBlockEnd
  0
BLOCK
  5
8E
330
8D
100
AcDbEntity
  8
0
100
AcDbBlockBegin
  2
_DOT
 70
     0
 10
0.0
 20
0.0
 30
0.0
  3
_DOT
  1

  0
LWPOLYLINE
  5
8F
330
8D
100
AcDbEntity
  8
0
  6
ByBlock
 62
     0
100
AcDbPolyline
 90
        2
 70
     1
 43
0.5
 10
-0.25
 20
0.0
 42
1.0
 10
0.25
 20
0.0
 42
1.0
  0
LINE
  5
90
330
8D
100
AcDbEntity
  8
0
  6
ByBlock
 62
     0
100
AcDbLine
 10
-0.5
 20
0.0
 30
0.0
 11
-1.0
 21
0.0
 31
0.0
  0
ENDBLK
  5
91
330
8D
100
AcDbEntity
  8
0
100
AcDbBlockEnd
  0
BLOCK
  5
88
330
87
100
AcDbEntity
  8
0
 62
     7
100
AcDbBlockBegin
  2
*D2
 70
     1
 10
0.0
 20
0.0
 30
0.0
  3
*D2
  1

  0
LINE
  5
89
330
87
100
AcDbEntity
  8
SUNPOU
 62
    70
370
    -2
100
AcDbLine
 10
19.03030634040004
 20
20.01626802832781
 30
0.0
 11
8.201334944708754
 21
20.01626802832781
 31
0.0
  0
LINE
  5
8A
330
87
100
AcDbEntity
  8
SUNPOU
 62
    70
370
    -2
100
AcDbLine
 10
19.03030634040004
 20
120.0162680283278
 30
0.0
 11
8.201334944708776
 21
120.0162680283278
 31
0.0
  0
LINE
  5
8B
330
87
100
AcDbEntity
  8
SUNPOU
 62
    60
370
    -2
100
AcDbLine
 10
8.201334944708754
 20
21.01626802832781
 30
0.0
 11
8.201334944708776
 21
119.0162680283278
 31
0.0
  0
INSERT
  5
8C
330
87
100
AcDbEntity
  8
SUNPOU
 62
    60
370
    -2
100
AcDbBlockReference
  2
_DOT
 10
8.201334944708754
 20
20.01626802832781
 30
0.0
 50
270.0
  0
INSERT
  5
92
330
87
100
AcDbEntity
  8
SUNPOU
 62
    60
370
    -2
100
AcDbBlockReference
  2
_DOT
 10
8.201334944708776
 20
120.0162680283278
 30
0.0
 50
90.0
  0
MTEXT
  5
93
330
87
100
AcDbEntity
  8
SUNPOU
 62
    60
100
AcDbMText
 10
4.201334944708754
 20
70.0162680283278
 30
0.0
 40
4.0
 41
0.0
 71
     5
 72
     1
  1
\A1;100
  7
LIFE
 11
0.0000000000000001
 21
1.0
 31
0.0
 73
     1
 44
1.0
1001
ACAD
1000
MTEXTBEGIN
1070
    73
1070
     1
1070
    44
1040
1.0
1070
    74
1070
     0
1000
MTEXTEND
  0
POINT
  5
95
330
87
100
AcDbEntity
  8
DEFPOINTS
 62
     0
100
AcDbPoint
 10
21.03030634040004
 20
20.01626802832781
 30
0.0
  0
POINT
  5
97
330
87
100
AcDbEntity
  8
DEFPOINTS
 62
     0
100
AcDbPoint
 10
21.03030634040004
 20
120.0162680283278
 30
0.0
  0
POINT
  5
98
330
87
100
AcDbEntity
  8
DEFPOINTS
 62
     0
100
AcDbPoint
 10
8.201334944708776
 20
120.0162680283278
 30
0.0
  0
ENDBLK
  5
99
330
87
100
AcDbEntity
  8
0
 62
     7
100
AcDbBlockEnd
  0
BLOCK
  5
1B0
330
1AF
100
AcDbEntity
  8
0
 62
     7
100
AcDbBlockBegin
  2
*D3
 70
     1
 10
0.0
 20
0.0
 30
0.0
  3
*D3
  1

  0
LINE
  5
1B1
330
1AF
100
AcDbEntity
  8
SUNPOU
 62
    70
370
    -2
100
AcDbLine
 10
39.03030634040001
 20
122.0162680283277
 30
0.0
 11
39.03030634040001
 21
130.6757248275492
 31
0.0
  0
LINE
  5
1B2
330
1AF
100
AcDbEntity
  8
SUNPOU
 62
    70
370
    -2
100
AcDbLine
 10
21.03030634040004
 20
122.0162680283278
 30
0.0
 11
21.03030634040004
 21
130.6757248275492
 31
0.0
  0
LINE
  5
1B3
330
1AF
100
AcDbEntity
  8
SUNPOU
 62
    60
370
    -2
100
AcDbLine
 10
38.03030634040001
 20
130.6757248275492
 30
0.0
 11
22.03030634040004
 21
130.6757248275492
 31
0.0
  0
INSERT
  5
1B4
330
1AF
100
AcDbEntity
  8
SUNPOU
 62
    60
370
    -2
100
AcDbBlockReference
  2
_DOT
 10
39.03030634040001
 20
130.6757248275492
 30
0.0
  0
INSERT
  5
1B5
330
1AF
100
AcDbEntity
  8
SUNPOU
 62
    60
370
    -2
100
AcDbBlockReference
  2
_DOT
 10
21.03030634040004
 20
130.6757248275492
 30
0.0
 50
180.0
  0
MTEXT
  5
1B6
330
1AF
100
AcDbEntity
  8
SUNPOU
 62
    60
100
AcDbMText
 10
30.03030634040003
 20
134.6757248275492
 30
0.0
 40
4.0
 41
0.0
 71
     5
 72
     1
  1
\A1;18
  7
LIFE
 73
     1
 44
1.0
1001
ACAD
1000
MTEXTBEGIN
1070
    73
1070
     1
1070
    44
1040
1.0
1070
    74
1070
     0
1000
MTEXTEND
  0
POINT
  5
1B7
330
1AF
100
AcDbEntity
  8
DEFPOINTS
 62
     0
100
AcDbPoint
 10
39.03030634040001
 20
120.0162680283277
 30
0.0
  0
POINT
  5
1B8
330
1AF
100
AcDbEntity
  8
DEFPOINTS
 62
     0
100
AcDbPoint
 10
21.03030634040004
 20
120.0162680283278
 30
0.0
  0
POINT
  5
1B9
330
1AF
100
AcDbEntity
  8
DEFPOINTS
 62
     0
100
AcDbPoint
 10
21.03030634040004
 20
130.6757248275492
 30
0.0
  0
ENDBLK
  5
1BA
330
1AF
100
AcDbEntity
  8
0
 62
     7
100
AcDbBlockEnd
  0
ENDSEC
  0
SECTION
  2
ENTITIES
  0
SPLINE
  5
62
330
2
100
AcDbEntity
  8
KIJUN
 62
     7
100
AcDbSpline
210
0.0
220
0.0
230
1.0
 70
     8
 71
     3
 72
    34
 73
    30
 74
     0
 42
0.000000001
 43
0.0000000001
 40
0.4553690538741935
 40
0.4553690538741935
 40
0.4553690538741935
 40
0.4553690538741935
 40
0.4987609726723746
 40
0.4987609726723746
 40
0.6213244047107676
 40
0.6213244047107676
 40
0.7438878367491605
 40
0.7438878367491605
 40
0.8664512687875532
 40
0.8664512687875532
 40
1.084017131451554
 40
1.084017131451554
 40
1.301582994115557
 40
1.301582994115557
 40
1.519148856779561
 40
1.519148856779561
 40
1.736714719443563
 40
1.736714719443563
 40
1.954280582107566
 40
1.954280582107566
 40
2.188695221665954
 40
2.188695221665954
 40
2.381976236096857
 40
2.381976236096857
 40
2.524043218796634
 40
2.524043218796634
 40
2.666110201496415
 40
2.666110201496415
 40
2.686225668335985
 40
2.686225668335985
 40
2.686225668335985
 40
2.686225668335985
 10
238.3556080746126
 20
54.08050710566243
 30
0.0
 10
238.4309892632978
 20
54.1616221812523
 30
0.0
 10
238.5103487978536
 20
54.25146845571856
 30
0.0
 10
238.8249756168494
 20
54.62913324924232
 30
0.0
 10
239.0864249952779
 20
54.98545634128544
 30
0.0
 10
239.6254435047428
 20
55.8333791845493
 30
0.0
 10
239.9023122289241
 20
56.32376122309864
 30
0.0
 10
240.4514233680707
 20
57.43642210754928
 30
0.0
 10
240.7237171479743
 20
58.05717805975969
 30
0.0
 10
241.4474061765819
 20
59.92934646824863
 30
0.0
 10
241.8721036788352
 20
61.29828612879504
 30
0.0
 10
242.5900344829801
 20
64.28130978405845
 30
0.0
 10
242.8822361062716
 20
65.89299018450439
 30
0.0
 10
243.3038044161463
 20
69.2533779764821
 30
0.0
 10
243.4326296051117
 20
70.99991817716766
 30
0.0
 10
243.5149935468886
 20
74.52171243615016
 30
0.0
 10
243.4694997179108
 20
76.29548101539505
 30
0.0
 10
243.2055143119937
 20
79.75765313382495
 30
0.0
 10
242.9874874592256
 20
81.4488377537244
 30
0.0
 10
242.3808838606006
 20
84.76112157777777
 30
0.0
 10
241.9779223873216
 20
86.36604502944448
 30
0.0
 10
241.1355074343971
 20
88.9747984768732
 30
0.0
 10
240.7154238516574
 20
90.0303433797028
 30
0.0
 10
239.9646701180877
 20
91.59826842838347
 30
0.0
 10
239.6415237220878
 20
92.17886294164449
 30
0.0
 10
239.0213677634297
 20
93.14712869828628
 30
0.0
 10
238.720587897929
 20
93.54122592479038
 30
0.0
 10
238.4260131245378
 20
93.87532501235618
 30
0.0
 10
238.3903134290464
 20
93.91475239310578
 30
0.0
 10
238.3555094692979
 20
93.95223998516479
 30
0.0
  0
SPLINE
  5
64
330
2
100
AcDbEntity
  8
KIJUN
 62
     7
100
AcDbSpline
210
0.0
220
0.0
230
1.0
 70
     8
 71
     3
 72
    32
 73
    28
 74
     0
 42
0.000000001
 43
0.0000000001
 40
3.59686693970718
 40
3.59686693970718
 40
3.59686693970718
 40
3.59686693970718
 40
3.641326552340912
 40
3.641326552340912
 40
3.764859472407392
 40
3.764859472407392
 40
3.888392392473873
 40
3.888392392473873
 40
4.082074365743073
 40
4.082074365743073
 40
4.275756339012271
 40
4.275756339012271
 40
4.469438312281471
 40
4.469438312281471
 40
4.776376511980708
 40
4.776376511980708
 40
5.083314711679943
 40
5.083314711679943
 40
5.31553407762223
 40
5.31553407762223
 40
5.51698530541886
 40
5.51698530541886
 40
5.663849435721973
 40
5.663849435721973
 40
5.771488857099341
 40
5.771488857099341
 40
5.828201186204997
 40
5.828201186204997
 40
5.828201186204997
 40
5.828201186204997
 10
266.3553058612664
 20
93.95245916128329
 30
0.0
 10
266.4326104478437
 20
93.86929369041748
 30
0.0
 10
266.5142340325797
 20
93.7768332624241
 30
0.0
 10
266.8352731744731
 20
93.39106174548479
 30
0.0
 10
267.09803721264
 20
93.03319892443258
 30
0.0
 10
267.6382491239851
 20
92.17773968992009
 30
0.0
 10
267.9189538342876
 20
91.67590086698536
 30
0.0
 10
268.6314918119327
 20
90.22579948969839
 30
0.0
 10
269.0563224153661
 20
89.18721292582489
 30
0.0
 10
269.8288273792108
 20
86.85607000379269
 30
0.0
 10
270.1773601041709
 20
85.56748278941169
 30
0.0
 10
270.7601635158157
 20
82.81917021738108
 30
0.0
 10
270.9957597579627
 20
81.35721623407958
 30
0.0
 10
271.4357670261811
 20
77.45613338637342
 30
0.0
 10
271.5387264082687
 20
74.94220030758644
 30
0.0
 10
271.394378150982
 20
69.98087866022202
 30
0.0
 10
271.1465308058246
 20
67.53097628208696
 30
0.0
 10
270.4428515085597
 20
63.55423484814942
 30
0.0
 10
270.0531214695097
 20
61.94470913775326
 30
0.0
 10
269.2132972835275
 20
59.26347538312342
 30
0.0
 10
268.7757392783246
 20
58.14206637673709
 30
0.0
 10
267.9991677297772
 20
56.49595665997633
 30
0.0
 10
267.6649630375063
 20
55.8930547244708
 30
0.0
 10
267.1064892868031
 20
55.01712921934853
 30
0.0
 10
266.8781611461204
 20
54.70100490760657
 30
0.0
 10
266.5594557588633
 20
54.30763787837936
 30
0.0
 10
266.4538307953093
 20
54.18664787189704
 30
0.0
 10
266.3548925443278
 20
54.08030287185233
 30
0.0
  0
SPLINE
  5
65
330
2
100
AcDbEntity
  8
KIJUN
 62
     7
100
AcDbSpline
210
0.0
220
0.0
230
1.0
 70
     8
 71
     3
 72
    34
 73
    30
 74
     0
 42
0.000000001
 43
0.0000000001
 40
0.4553690538741935
 40
0.4553690538741935
 40
0.4553690538741935
 40
0.4553690538741935
 40
0.4987609726723746
 40
0.4987609726723746
 40
0.6213244047107676
 40
0.6213244047107676
 40
0.7438878367491605
 40
0.7438878367491605
 40
0.8664512687875532
 40
0.8664512687875532
 40
1.084017131451554
 40
1.084017131451554
 40
1.301582994115557
 40
1.301582994115557
 40
1.519148856779561
 40
1.519148856779561
 40
1.736714719443563
 40
1.736714719443563
 40
1.954280582107566
 40
1.954280582107566
 40
2.188695221665954
 40
2.188695221665954
 40
2.381976236096857
 40
2.381976236096857
 40
2.524043218796634
 40
2.524043218796634
 40
2.666110201496415
 40
2.666110201496415
 40
2.686225668335985
 40
2.686225668335985
 40
2.686225668335985
 40
2.686225668335985
 10
293.6229099109401
 20
54.08050710566243
 30
0.0
 10
293.5475287222548
 20
54.1616221812523
 30
0.0
 10
293.4681691876991
 20
54.25146845571856
 30
0.0
 10
293.1535423687033
 20
54.62913324924232
 30
0.0
 10
292.8920929902748
 20
54.98545634128544
 30
0.0
 10
292.35307448081
 20
55.8333791845493
 30
0.0
 10
292.0762057566285
 20
56.32376122309864
 30
0.0
 10
291.527094617482
 20
57.43642210754928
 30
0.0
 10
291.2548008375785
 20
58.05717805975969
 30
0.0
 10
290.5311118089707
 20
59.92934646824863
 30
0.0
 10
290.1064143067174
 20
61.29828612879504
 30
0.0
 10
289.3884835025724
 20
64.28130978405845
 30
0.0
 10
289.0962818792809
 20
65.89299018450439
 30
0.0
 10
288.6747135694063
 20
69.2533779764821
 30
0.0
 10
288.5458883804408
 20
70.99991817716766
 30
0.0
 10
288.4635244386641
 20
74.52171243615016
 30
0.0
 10
288.5090182676417
 20
76.29548101539505
 30
0.0
 10
288.7730036735588
 20
79.75765313382495
 30
0.0
 10
288.9910305263269
 20
81.4488377537244
 30
0.0
 10
289.5976341249521
 20
84.76112157777777
 30
0.0
 10
290.0005955982311
 20
86.36604502944448
 30
0.0
 10
290.8430105511556
 20
88.9747984768732
 30
0.0
 10
291.2630941338953
 20
90.0303433797028
 30
0.0
 10
292.0138478674649
 20
91.59826842838347
 30
0.0
 10
292.336994263465
 20
92.17886294164449
 30
0.0
 10
292.9571502221228
 20
93.14712869828628
 30
0.0
 10
293.2579300876236
 20
93.54122592479038
 30
0.0
 10
293.5525048610148
 20
93.87532501235618
 30
0.0
 10
293.5882045565062
 20
93.91475239310578
 30
0.0
 10
293.6230085162547
 20
93.95223998516479
 30
0.0
  0
ELLIPSE
  5
66
330
2
100
AcDbEntity
  8
KIJUN
 62
     7
100
AcDbEllipse
 10
293.9895218735706
 20
74.01626802832783
 30
0.0
 11
0.0
 21
-27.5
 31
0.0
210
0.0
220
0.0
230
-1.0
 40
0.4545454545454545
 41
0.0
 42
6.283185307179584
  0
SPLINE
  5
67
330
2
100
AcDbEntity
  8
KIJUN
 62
     7
100
AcDbSpline
210
0.0
220
0.0
230
1.0
 70
     9
 71
     3
 72
    72
 73
    68
 74
     0
 42
0.000000001
 43
0.0000000001
 40
0.0
 40
0.0
 40
0.0
 40
0.0
 40
0.1196710697449102
 40
0.1196710697449102
 40
0.2393421394898205
 40
0.2393421394898205
 40
0.3590132092347307
 40
0.3590132092347307
 40
0.478684278979641
 40
0.478684278979641
 40
0.7085148400919517
 40
0.7085148400919517
 40
0.9383454012042619
 40
0.9383454012042619
 40
1.168175962316572
 40
1.168175962316572
 40
1.398006523428882
 40
1.398006523428882
 40
1.714616041963529
 40
1.714616041963529
 40
2.031225560498175
 40
2.031225560498175
 40
2.290880207193985
 40
2.290880207193985
 40
2.508092960176158
 40
2.508092960176158
 40
2.689640137284416
 40
2.689640137284416
 40
2.842223396824904
 40
2.842223396824904
 40
2.994806656365392
 40
2.994806656365392
 40
3.119449299308273
 40
3.119449299308273
 40
3.244091942251153
 40
3.244091942251153
 40
3.368734585194035
 40
3.368734585194035
 40
3.493377228136916
 40
3.493377228136916
 40
3.618019871079797
 40
3.618019871079797
 40
3.742662514022678
 40
3.742662514022678
 40
4.003042741597477
 40
4.003042741597477
 40
4.263422969172276
 40
4.263422969172276
 40
4.523803196747079
 40
4.523803196747079
 40
4.784183424321879
 40
4.784183424321879
 40
5.044563651896677
 40
5.044563651896677
 40
5.30494387947148
 40
5.30494387947148
 40
5.565324107046278
 40
5.565324107046278
 40
5.758075355330146
 40
5.758075355330146
 40
5.950826603614013
 40
5.950826603614013
 40
6.085372828640495
 40
6.085372828640495
 40
6.219919053666977
 40
6.219919053666977
 40
6.283185307179584
 40
6.283185307179584
 40
6.283185307179584
 40
6.283185307179584
 10
293.9895218735706
 20
51.51626802832784
 30
0.0
 10
293.9296863386976
 20
51.51626802832784
 30
0.0
 10
293.8687905355441
 20
51.52210422256796
 30
0.0
 10
293.6830428749276
 20
51.57124198356854
 30
0.0
 10
293.5576287890759
 20
51.61615980996106
 30
0.0
 10
293.2247653089094
 20
51.79485524808518
 30
0.0
 10
293.0182349980309
 20
51.92936891729317
 30
0.0
 10
292.5436675599354
 20
52.3211759118098
 30
0.0
 10
292.2763230689621
 20
52.57829166225151
 30
0.0
 10
291.4490428436861
 20
53.52277040300117
 30
0.0
 10
290.8495553869911
 20
54.39025286799
 30
0.0
 10
289.696002897163
 20
56.56503276330333
 30
0.0
 10
289.1409102920657
 20
57.8698861854604
 30
0.0
 10
288.1610305039553
 20
60.81136270948622
 30
0.0
 10
287.7354668200955
 20
62.44754252003207
 30
0.0
 10
287.0603743091792
 20
65.93487377124933
 30
0.0
 10
286.8105458960222
 20
67.78590442038508
 30
0.0
 10
286.452611379716
 20
72.29776468714357
 30
0.0
 10
286.4347183858913
 20
75.00027788394065
 30
0.0
 10
286.7808355253615
 20
80.2582526134442
 30
0.0
 10
287.1452119207657
 20
82.81320347856558
 30
0.0
 10
288.0982545033362
 20
87.04054927685898
 30
0.0
 10
288.6348305289197
 20
88.78887124075509
 30
0.0
 10
289.7408313296432
 20
91.56264746575958
 30
0.0
 10
290.2908363190777
 20
92.65903939806987
 30
0.0
 10
291.3019166438139
 20
94.2928187882252
 30
0.0
 10
291.7624722069636
 20
94.89147615026869
 30
0.0
 10
292.5315441344969
 20
95.71286344065079
 30
0.0
 10
292.8513111705019
 20
95.97972847817608
 30
0.0
 10
293.3723460113256
 20
96.33352136254899
 30
0.0
 10
293.5705861909842
 20
96.4210933053441
 30
0.0
 10
293.8200045507816
 20
96.50222127847241
 30
0.0
 10
293.8924873733672
 20
96.51235218039698
 30
0.0
 10
294.0196738771296
 20
96.51854913206427
 30
0.0
 10
294.0768721059181
 20
96.51517409736641
 30
0.0
 10
294.2530597001709
 20
96.4753043474451
 30
0.0
 10
294.3731417501054
 20
96.4369127420308
 30
0.0
 10
294.7031895377973
 20
96.2690876170717
 30
0.0
 10
294.9121064123296
 20
96.13858828143907
 30
0.0
 10
295.3987431672826
 20
95.74562190489807
 30
0.0
 10
295.6755739296036
 20
95.48333318309628
 30
0.0
 10
296.2643760752767
 20
94.8148237909012
 30
0.0
 10
296.5760850212232
 20
94.40897250200057
 30
0.0
 10
297.5490897700606
 20
92.94113759315299
 30
0.0
 10
298.2178101437471
 20
91.64470032807388
 30
0.0
 10
299.4149473008861
 20
88.5765216204089
 30
0.0
 10
299.9451940023087
 20
86.8063253725016
 30
0.0
 10
300.7877507780863
 20
82.9588779595805
 30
0.0
 10
301.1007582076704
 20
80.88190076145279
 30
0.0
 10
301.4724622534446
 20
76.59721122404238
 30
0.0
 10
301.5313427233055
 20
74.38968878289816
 30
0.0
 10
301.3886370767354
 20
70.02426991091891
 30
0.0
 10
301.1869876011011
 20
67.86656883990456
 30
0.0
 10
300.5461490889116
 20
63.77954699115065
 30
0.0
 10
300.1065543828541
 20
61.85042549084887
 30
0.0
 10
299.0481509315819
 20
58.39191057473036
 30
0.0
 10
298.4280829570456
 20
56.86316202775963
 30
0.0
 10
297.2942073855771
 20
54.68471491841632
 30
0.0
 10
296.7949851978923
 20
53.91044683386048
 30
0.0
 10
295.8491514188722
 20
52.70488024168337
 30
0.0
 10
295.4037869168574
 20
52.27633314838107
 30
0.0
 10
294.793108020524
 20
51.81260963196604
 30
0.0
 10
294.5853122702705
 20
51.69655865886483
 30
0.0
 10
294.2721570141861
 20
51.55847159934177
 30
0.0
 10
294.1678956893151
 20
51.53432801633829
 30
0.0
 10
294.0528350448354
 20
51.51829181203577
 30
0.0
 10
294.0211550003264
 20
51.51626802832784
 30
0.0
 10
293.9895218735706
 20
51.51626802832784
 30
0.0
  0
SPLINE
  5
68
330
2
100
AcDbEntity
  8
KIJUN
 62
     7
100
AcDbSpline
210
0.0
220
0.0
230
1.0
 70
     8
 71
     3
 72
    32
 73
    28
 74
     0
 42
0.000000001
 43
0.0000000001
 40
3.59686693970718
 40
3.59686693970718
 40
3.59686693970718
 40
3.59686693970718
 40
3.641326552340912
 40
3.641326552340912
 40
3.764859472407392
 40
3.764859472407392
 40
3.888392392473873
 40
3.888392392473873
 40
4.082074365743073
 40
4.082074365743073
 40
4.275756339012271
 40
4.275756339012271
 40
4.469438312281471
 40
4.469438312281471
 40
4.776376511980708
 40
4.776376511980708
 40
5.083314711679943
 40
5.083314711679943
 40
5.31553407762223
 40
5.31553407762223
 40
5.51698530541886
 40
5.51698530541886
 40
5.663849435721973
 40
5.663849435721973
 40
5.771488857099341
 40
5.771488857099341
 40
5.828201186204997
 40
5.828201186204997
 40
5.828201186204997
 40
5.828201186204997
 10
294.3556563689922
 20
93.95245916128329
 30
0.0
 10
294.4329609555694
 20
93.86929369041748
 30
0.0
 10
294.5145845403054
 20
93.7768332624241
 30
0.0
 10
294.8356236821987
 20
93.39106174548479
 30
0.0
 10
295.0983877203658
 20
93.03319892443258
 30
0.0
 10
295.6385996317109
 20
92.17773968992009
 30
0.0
 10
295.9193043420133
 20
91.67590086698536
 30
0.0
 10
296.6318423196586
 20
90.22579948969839
 30
0.0
 10
297.0566729230919
 20
89.18721292582489
 30
0.0
 10
297.8291778869366
 20
86.85607000379269
 30
0.0
 10
298.1777106118966
 20
85.56748278941169
 30
0.0
 10
298.7605140235414
 20
82.81917021738108
 30
0.0
 10
298.9961102656884
 20
81.35721623407958
 30
0.0
 10
299.4361175339068
 20
77.45613338637342
 30
0.0
 10
299.5390769159944
 20
74.94220030758644
 30
0.0
 10
299.3947286587077
 20
69.98087866022202
 30
0.0
 10
299.1468813135502
 20
67.53097628208696
 30
0.0
 10
298.4432020162854
 20
63.55423484814942
 30
0.0
 10
298.0534719772354
 20
61.94470913775326
 30
0.0
 10
297.2136477912531
 20
59.26347538312342
 30
0.0
 10
296.7760897860504
 20
58.14206637673709
 30
0.0
 10
295.9995182375028
 20
56.49595665997633
 30
0.0
 10
295.6653135452321
 20
55.8930547244708
 30
0.0
 10
295.1068397945286
 20
55.01712921934853
 30
0.0
 10
294.8785116538461
 20
54.70100490760657
 30
0.0
 10
294.559806266589
 20
54.30763787837936
 30
0.0
 10
294.4541813030351
 20
54.18664787189704
 30
0.0
 10
294.3552430520536
 20
54.08030287185233
 30
0.0
  0
SPLINE
  5
69
330
2
100
AcDbEntity
  8
KIJUN
 62
     7
100
AcDbSpline
210
0.0
220
0.0
230
1.0
 70
     8
 71
     3
 72
    34
 73
    30
 74
     0
 42
0.000000001
 43
0.0000000001
 40
0.4553690538741935
 40
0.4553690538741935
 40
0.4553690538741935
 40
0.4553690538741935
 40
0.4987609726723746
 40
0.4987609726723746
 40
0.6213244047107676
 40
0.6213244047107676
 40
0.7438878367491605
 40
0.7438878367491605
 40
0.8664512687875532
 40
0.8664512687875532
 40
1.084017131451554
 40
1.084017131451554
 40
1.301582994115557
 40
1.301582994115557
 40
1.519148856779561
 40
1.519148856779561
 40
1.736714719443563
 40
1.736714719443563
 40
1.954280582107566
 40
1.954280582107566
 40
2.188695221665954
 40
2.188695221665954
 40
2.381976236096857
 40
2.381976236096857
 40
2.524043218796634
 40
2.524043218796634
 40
2.666110201496415
 40
2.666110201496415
 40
2.686225668335985
 40
2.686225668335985
 40
2.686225668335985
 40
2.686225668335985
 10
321.62290991094
 20
54.08050710566243
 30
0.0
 10
321.5475287222549
 20
54.1616221812523
 30
0.0
 10
321.468169187699
 20
54.25146845571856
 30
0.0
 10
321.1535423687033
 20
54.62913324924232
 30
0.0
 10
320.8920929902746
 20
54.98545634128544
 30
0.0
 10
320.3530744808099
 20
55.8333791845493
 30
0.0
 10
320.0762057566284
 20
56.32376122309864
 30
0.0
 10
319.5270946174819
 20
57.43642210754928
 30
0.0
 10
319.2548008375784
 20
58.05717805975969
 30
0.0
 10
318.5311118089708
 20
59.92934646824863
 30
0.0
 10
318.1064143067173
 20
61.29828612879504
 30
0.0
 10
317.3884835025724
 20
64.28130978405845
 30
0.0
 10
317.0962818792809
 20
65.89299018450439
 30
0.0
 10
316.6747135694064
 20
69.2533779764821
 30
0.0
 10
316.5458883804409
 20
70.99991817716766
 30
0.0
 10
316.4635244386641
 20
74.52171243615016
 30
0.0
 10
316.5090182676418
 20
76.29548101539505
 30
0.0
 10
316.7730036735589
 20
79.75765313382495
 30
0.0
 10
316.991030526327
 20
81.4488377537244
 30
0.0
 10
317.5976341249521
 20
84.76112157777777
 30
0.0
 10
318.0005955982311
 20
86.36604502944448
 30
0.0
 10
318.8430105511556
 20
88.9747984768732
 30
0.0
 10
319.2630941338953
 20
90.0303433797028
 30
0.0
 10
320.0138478674649
 20
91.59826842838347
 30
0.0
 10
320.3369942634649
 20
92.17886294164449
 30
0.0
 10
320.9571502221229
 20
93.14712869828628
 30
0.0
 10
321.2579300876236
 20
93.54122592479038
 30
0.0
 10
321.5525048610148
 20
93.87532501235618
 30
0.0
 10
321.5882045565063
 20
93.91475239310578
 30
0.0
 10
321.6230085162546
 20
93.95223998516479
 30
0.0
  0
SPLINE
  5
6A
330
2
100
AcDbEntity
  8
KIJUN
 62
     7
100
AcDbSpline
210
0.0
220
0.0
230
1.0
 70
     8
 71
     3
 72
    40
 73
    36
 74
     0
 42
0.000000001
 43
0.0000000001
 40
0.0001168338677411
 40
0.0001168338677411
 40
0.0001168338677411
 40
0.0001168338677411
 40
0.1196710697449102
 40
0.1196710697449102
 40
0.2393421394898205
 40
0.2393421394898205
 40
0.3590132092347307
 40
0.3590132092347307
 40
0.478684278979641
 40
0.478684278979641
 40
0.7085148400919517
 40
0.7085148400919517
 40
0.9383454012042619
 40
0.9383454012042619
 40
1.168175962316572
 40
1.168175962316572
 40
1.398006523428882
 40
1.398006523428882
 40
1.714616041963529
 40
1.714616041963529
 40
2.031225560498175
 40
2.031225560498175
 40
2.290880207193985
 40
2.290880207193985
 40
2.508092960176158
 40
2.508092960176158
 40
2.689640137284416
 40
2.689640137284416
 40
2.842223396824904
 40
2.842223396824904
 40
2.994806656365392
 40
2.994806656365392
 40
3.119449299308273
 40
3.119449299308273
 40
3.141439410860441
 40
3.141439410860441
 40
3.141439410860441
 40
3.141439410860441
 10
321.9893466197081
 20
51.51626804502818
 30
0.0
 10
321.9295674040877
 20
51.51627944183832
 30
0.0
 10
321.8686998635981
 20
51.52212820896119
 30
0.0
 10
321.6830428749276
 20
51.57124198356854
 30
0.0
 10
321.5576287890759
 20
51.61615980996106
 30
0.0
 10
321.2247653089093
 20
51.79485524808518
 30
0.0
 10
321.018234998031
 20
51.92936891729317
 30
0.0
 10
320.5436675599354
 20
52.3211759118098
 30
0.0
 10
320.2763230689621
 20
52.57829166225151
 30
0.0
 10
319.4490428436861
 20
53.52277040300117
 30
0.0
 10
318.8495553869911
 20
54.39025286799
 30
0.0
 10
317.6960028971629
 20
56.56503276330333
 30
0.0
 10
317.1409102920657
 20
57.8698861854604
 30
0.0
 10
316.1610305039554
 20
60.81136270948622
 30
0.0
 10
315.7354668200956
 20
62.44754252003207
 30
0.0
 10
315.0603743091792
 20
65.93487377124933
 30
0.0
 10
314.8105458960221
 20
67.78590442038508
 30
0.0
 10
314.4526113797161
 20
72.29776468714357
 30
0.0
 10
314.4347183858912
 20
75.00027788394065
 30
0.0
 10
314.7808355253614
 20
80.2582526134442
 30
0.0
 10
315.1452119207656
 20
82.81320347856558
 30
0.0
 10
316.0982545033361
 20
87.04054927685898
 30
0.0
 10
316.6348305289198
 20
88.78887124075509
 30
0.0
 10
317.7408313296433
 20
91.56264746575958
 30
0.0
 10
318.2908363190778
 20
92.65903939806987
 30
0.0
 10
319.301916643814
 20
94.2928187882252
 30
0.0
 10
319.7624722069637
 20
94.89147615026869
 30
0.0
 10
320.5315441344969
 20
95.71286344065079
 30
0.0
 10
320.8513111705019
 20
95.97972847817608
 30
0.0
 10
321.3723460113255
 20
96.33352136254899
 30
0.0
 10
321.5705861909841
 20
96.4210933053441
 30
0.0
 10
321.8200045507814
 20
96.50222127847241
 30
0.0
 10
321.8924873733673
 20
96.51235218039698
 30
0.0
 10
321.9673000816866
 20
96.51599730565669
 30
0.0
 10
321.9783204874365
 20
96.51634246140408
 30
0.0
 10
321.9893466197076
 20
96.5164307354955
 30
0.0
  0
ELLIPSE
  5
6B
330
2
100
AcDbEntity
  8
KIJUN
 62
     7
100
AcDbEllipse
 10
321.9895218735706
 20
74.01626802832783
 30
0.0
 11
0.0
 21
-27.5
 31
0.0
210
0.0
220
0.0
230
-1.0
 40
0.4545454545454545
 41
0.0000140203089909
 42
3.141578633280766
  0
SPLINE
  5
6C
330
2
100
AcDbEntity
  8
KIJUN
 62
     7
100
AcDbSpline
210
0.0
220
0.0
230
1.0
 70
     8
 71
     3
 72
    34
 73
    30
 74
     0
 42
0.000000001
 43
0.0000000001
 40
0.4553690538741935
 40
0.4553690538741935
 40
0.4553690538741935
 40
0.4553690538741935
 40
0.4987609726723746
 40
0.4987609726723746
 40
0.6213244047107676
 40
0.6213244047107676
 40
0.7438878367491605
 40
0.7438878367491605
 40
0.8664512687875532
 40
0.8664512687875532
 40
1.084017131451554
 40
1.084017131451554
 40
1.301582994115557
 40
1.301582994115557
 40
1.519148856779561
 40
1.519148856779561
 40
1.736714719443563
 40
1.736714719443563
 40
1.954280582107566
 40
1.954280582107566
 40
2.188695221665954
 40
2.188695221665954
 40
2.381976236096857
 40
2.381976236096857
 40
2.524043218796634
 40
2.524043218796634
 40
2.666110201496415
 40
2.666110201496415
 40
2.686225668335985
 40
2.686225668335985
 40
2.686225668335985
 40
2.686225668335985
 10
265.6225594032144
 20
54.08050710566243
 30
0.0
 10
265.5471782145292
 20
54.1616221812523
 30
0.0
 10
265.4678186799733
 20
54.25146845571856
 30
0.0
 10
265.1531918609776
 20
54.62913324924232
 30
0.0
 10
264.8917424825491
 20
54.98545634128544
 30
0.0
 10
264.3527239730843
 20
55.8333791845493
 30
0.0
 10
264.0758552489028
 20
56.32376122309864
 30
0.0
 10
263.5267441097562
 20
57.43642210754928
 30
0.0
 10
263.2544503298527
 20
58.05717805975969
 30
0.0
 10
262.5307613012452
 20
59.92934646824863
 30
0.0
 10
262.1060637989917
 20
61.29828612879504
 30
0.0
 10
261.3881329948467
 20
64.28130978405845
 30
0.0
 10
261.0959313715552
 20
65.89299018450439
 30
0.0
 10
260.6743630616807
 20
69.2533779764821
 30
0.0
 10
260.5455378727151
 20
70.99991817716766
 30
0.0
 10
260.4631739309384
 20
74.52171243615016
 30
0.0
 10
260.5086677599161
 20
76.29548101539505
 30
0.0
 10
260.7726531658332
 20
79.75765313382495
 30
0.0
 10
260.9906800186013
 20
81.4488377537244
 30
0.0
 10
261.5972836172264
 20
84.76112157777777
 30
0.0
 10
262.0002450905054
 20
86.36604502944448
 30
0.0
 10
262.8426600434299
 20
88.9747984768732
 30
0.0
 10
263.2627436261696
 20
90.0303433797028
 30
0.0
 10
264.0134973597392
 20
91.59826842838347
 30
0.0
 10
264.3366437557393
 20
92.17886294164449
 30
0.0
 10
264.9567997143972
 20
93.14712869828628
 30
0.0
 10
265.2575795798979
 20
93.54122592479038
 30
0.0
 10
265.5521543532891
 20
93.87532501235618
 30
0.0
 10
265.5878540487806
 20
93.91475239310578
 30
0.0
 10
265.6226580085289
 20
93.95223998516479
 30
0.0
  0
SPLINE
  5
6D
330
2
100
AcDbEntity
  8
KIJUN
 62
     7
100
AcDbSpline
210
0.0
220
0.0
230
1.0
 70
     9
 71
     3
 72
    72
 73
    68
 74
     0
 42
0.000000001
 43
0.0000000001
 40
0.0
 40
0.0
 40
0.0
 40
0.0
 40
0.1196710697449102
 40
0.1196710697449102
 40
0.2393421394898205
 40
0.2393421394898205
 40
0.3590132092347307
 40
0.3590132092347307
 40
0.478684278979641
 40
0.478684278979641
 40
0.7085148400919517
 40
0.7085148400919517
 40
0.9383454012042619
 40
0.9383454012042619
 40
1.168175962316572
 40
1.168175962316572
 40
1.398006523428882
 40
1.398006523428882
 40
1.714616041963529
 40
1.714616041963529
 40
2.031225560498175
 40
2.031225560498175
 40
2.290880207193985
 40
2.290880207193985
 40
2.508092960176158
 40
2.508092960176158
 40
2.689640137284416
 40
2.689640137284416
 40
2.842223396824904
 40
2.842223396824904
 40
2.994806656365392
 40
2.994806656365392
 40
3.119449299308273
 40
3.119449299308273
 40
3.244091942251153
 40
3.244091942251153
 40
3.368734585194035
 40
3.368734585194035
 40
3.493377228136916
 40
3.493377228136916
 40
3.618019871079797
 40
3.618019871079797
 40
3.742662514022678
 40
3.742662514022678
 40
4.003042741597477
 40
4.003042741597477
 40
4.263422969172276
 40
4.263422969172276
 40
4.523803196747079
 40
4.523803196747079
 40
4.784183424321879
 40
4.784183424321879
 40
5.044563651896677
 40
5.044563651896677
 40
5.30494387947148
 40
5.30494387947148
 40
5.565324107046278
 40
5.565324107046278
 40
5.758075355330146
 40
5.758075355330146
 40
5.950826603614013
 40
5.950826603614013
 40
6.085372828640495
 40
6.085372828640495
 40
6.219919053666977
 40
6.219919053666977
 40
6.283185307179584
 40
6.283185307179584
 40
6.283185307179584
 40
6.283185307179584
 10
265.9891713658449
 20
51.51626802832784
 30
0.0
 10
265.9293358309719
 20
51.51626802832784
 30
0.0
 10
265.8684400278184
 20
51.52210422256796
 30
0.0
 10
265.6826923672019
 20
51.57124198356854
 30
0.0
 10
265.5572782813501
 20
51.61615980996106
 30
0.0
 10
265.2244148011836
 20
51.79485524808518
 30
0.0
 10
265.0178844903052
 20
51.92936891729317
 30
0.0
 10
264.5433170522097
 20
52.3211759118098
 30
0.0
 10
264.2759725612364
 20
52.57829166225151
 30
0.0
 10
263.4486923359605
 20
53.52277040300117
 30
0.0
 10
262.8492048792654
 20
54.39025286799
 30
0.0
 10
261.6956523894373
 20
56.56503276330333
 30
0.0
 10
261.1405597843399
 20
57.8698861854604
 30
0.0
 10
260.1606799962297
 20
60.81136270948622
 30
0.0
 10
259.7351163123698
 20
62.44754252003207
 30
0.0
 10
259.0600238014537
 20
65.93487377124933
 30
0.0
 10
258.8101953882966
 20
67.78590442038508
 30
0.0
 10
258.4522608719906
 20
72.29776468714357
 30
0.0
 10
258.4343678781656
 20
75.00027788394065
 30
0.0
 10
258.7804850176358
 20
80.2582526134442
 30
0.0
 10
259.14486141304
 20
82.81320347856558
 30
0.0
 10
260.0979039956105
 20
87.04054927685898
 30
0.0
 10
260.6344800211942
 20
88.78887124075509
 30
0.0
 10
261.7404808219176
 20
91.56264746575958
 30
0.0
 10
262.290485811352
 20
92.65903939806987
 30
0.0
 10
263.3015661360882
 20
94.2928187882252
 30
0.0
 10
263.7621216992379
 20
94.89147615026869
 30
0.0
 10
264.5311936267713
 20
95.71286344065079
 30
0.0
 10
264.8509606627763
 20
95.97972847817608
 30
0.0
 10
265.3719955036
 20
96.33352136254899
 30
0.0
 10
265.5702356832584
 20
96.4210933053441
 30
0.0
 10
265.8196540430558
 20
96.50222127847241
 30
0.0
 10
265.8921368656416
 20
96.51235218039698
 30
0.0
 10
266.0193233694039
 20
96.51854913206427
 30
0.0
 10
266.0765215981923
 20
96.51517409736641
 30
0.0
 10
266.2527091924452
 20
96.4753043474451
 30
0.0
 10
266.3727912423797
 20
96.4369127420308
 30
0.0
 10
266.7028390300716
 20
96.2690876170717
 30
0.0
 10
266.9117559046039
 20
96.13858828143907
 30
0.0
 10
267.3983926595569
 20
95.74562190489807
 30
0.0
 10
267.6752234218779
 20
95.48333318309628
 30
0.0
 10
268.264025567551
 20
94.8148237909012
 30
0.0
 10
268.5757345134975
 20
94.40897250200057
 30
0.0
 10
269.5487392623349
 20
92.94113759315299
 30
0.0
 10
270.2174596360214
 20
91.64470032807388
 30
0.0
 10
271.4145967931604
 20
88.5765216204089
 30
0.0
 10
271.9448434945831
 20
86.8063253725016
 30
0.0
 10
272.7874002703607
 20
82.9588779595805
 30
0.0
 10
273.1004076999448
 20
80.88190076145279
 30
0.0
 10
273.4721117457188
 20
76.59721122404238
 30
0.0
 10
273.5309922155797
 20
74.38968878289816
 30
0.0
 10
273.3882865690098
 20
70.02426991091891
 30
0.0
 10
273.1866370933754
 20
67.86656883990456
 30
0.0
 10
272.5457985811859
 20
63.77954699115065
 30
0.0
 10
272.1062038751284
 20
61.85042549084887
 30
0.0
 10
271.0478004238561
 20
58.39191057473036
 30
0.0
 10
270.4277324493201
 20
56.86316202775963
 30
0.0
 10
269.2938568778513
 20
54.68471491841632
 30
0.0
 10
268.7946346901668
 20
53.91044683386048
 30
0.0
 10
267.8488009111466
 20
52.70488024168337
 30
0.0
 10
267.4034364091318
 20
52.27633314838107
 30
0.0
 10
266.7927575127982
 20
51.81260963196604
 30
0.0
 10
266.584961762545
 20
51.69655865886483
 30
0.0
 10
266.2718065064605
 20
51.55847159934177
 30
0.0
 10
266.1675451815895
 20
51.53432801633829
 30
0.0
 10
266.0524845371096
 20
51.51829181203577
 30
0.0
 10
266.0208044926008
 20
51.51626802832784
 30
0.0
 10
265.9891713658449
 20
51.51626802832784
 30
0.0
  0
ELLIPSE
  5
6E
330
2
100
AcDbEntity
  8
KIJUN
 62
     7
100
AcDbEllipse
 10
265.9891713658449
 20
74.01626802832783
 30
0.0
 11
0.0
 21
-27.5
 31
0.0
210
0.0
220
0.0
230
-1.0
 40
0.4545454545454545
 41
0.0
 42
6.283185307179584
  0
ELLIPSE
  5
6F
330
2
100
AcDbEntity
  8
KIJUN
 62
     7
100
AcDbEllipse
 10
237.988996111982
 20
74.01626802832783
 30
0.0
 11
0.0
 21
-27.5
 31
0.0
210
0.0
220
0.0
230
1.0
 40
0.4545454545454545
 41
0.0
 42
6.283185307179584
  0
SPLINE
  5
70
330
2
100
AcDbEntity
  8
KIJUN
 62
     7
100
AcDbSpline
210
0.0
220
0.0
230
1.0
 70
     9
 71
     3
 72
    72
 73
    68
 74
     0
 42
0.000000001
 43
0.0000000001
 40
0.0
 40
0.0
 40
0.0
 40
0.0
 40
0.1196710697449102
 40
0.1196710697449102
 40
0.2393421394898205
 40
0.2393421394898205
 40
0.3590132092347307
 40
0.3590132092347307
 40
0.478684278979641
 40
0.478684278979641
 40
0.7085148400919517
 40
0.7085148400919517
 40
0.9383454012042619
 40
0.9383454012042619
 40
1.168175962316572
 40
1.168175962316572
 40
1.398006523428882
 40
1.398006523428882
 40
1.714616041963529
 40
1.714616041963529
 40
2.031225560498175
 40
2.031225560498175
 40
2.290880207193985
 40
2.290880207193985
 40
2.508092960176158
 40
2.508092960176158
 40
2.689640137284416
 40
2.689640137284416
 40
2.842223396824904
 40
2.842223396824904
 40
2.994806656365392
 40
2.994806656365392
 40
3.119449299308273
 40
3.119449299308273
 40
3.244091942251153
 40
3.244091942251153
 40
3.368734585194035
 40
3.368734585194035
 40
3.493377228136916
 40
3.493377228136916
 40
3.618019871079797
 40
3.618019871079797
 40
3.742662514022678
 40
3.742662514022678
 40
4.003042741597477
 40
4.003042741597477
 40
4.263422969172276
 40
4.263422969172276
 40
4.523803196747079
 40
4.523803196747079
 40
4.784183424321879
 40
4.784183424321879
 40
5.044563651896677
 40
5.044563651896677
 40
5.30494387947148
 40
5.30494387947148
 40
5.565324107046278
 40
5.565324107046278
 40
5.758075355330146
 40
5.758075355330146
 40
5.950826603614013
 40
5.950826603614013
 40
6.085372828640495
 40
6.085372828640495
 40
6.219919053666977
 40
6.219919053666977
 40
6.283185307179584
 40
6.283185307179584
 40
6.283185307179584
 40
6.283185307179584
 10
237.988996111982
 20
51.51626802832784
 30
0.0
 10
238.0488316468551
 20
51.51626802832784
 30
0.0
 10
238.1097274500086
 20
51.52210422256796
 30
0.0
 10
238.2954751106251
 20
51.57124198356854
 30
0.0
 10
238.4208891964768
 20
51.61615980996106
 30
0.0
 10
238.7537526766433
 20
51.79485524808518
 30
0.0
 10
238.9602829875216
 20
51.92936891729317
 30
0.0
 10
239.4348504256172
 20
52.3211759118098
 30
0.0
 10
239.7021949165907
 20
52.57829166225151
 30
0.0
 10
240.5294751418665
 20
53.52277040300117
 30
0.0
 10
241.1289625985616
 20
54.39025286799
 30
0.0
 10
242.2825150883896
 20
56.56503276330333
 30
0.0
 10
242.8376076934869
 20
57.8698861854604
 30
0.0
 10
243.8174874815972
 20
60.81136270948622
 30
0.0
 10
244.2430511654572
 20
62.44754252003207
 30
0.0
 10
244.9181436763733
 20
65.93487377124933
 30
0.0
 10
245.1679720895304
 20
67.78590442038508
 30
0.0
 10
245.5259066058366
 20
72.29776468714357
 30
0.0
 10
245.5437995996613
 20
75.00027788394065
 30
0.0
 10
245.1976824601913
 20
80.2582526134442
 30
0.0
 10
244.8333060647872
 20
82.81320347856558
 30
0.0
 10
243.8802634822165
 20
87.04054927685898
 30
0.0
 10
243.3436874566328
 20
88.78887124075509
 30
0.0
 10
242.2376866559093
 20
91.56264746575958
 30
0.0
 10
241.6876816664749
 20
92.65903939806987
 30
0.0
 10
240.6766013417386
 20
94.2928187882252
 30
0.0
 10
240.2160457785889
 20
94.89147615026869
 30
0.0
 10
239.4469738510557
 20
95.71286344065079
 30
0.0
 10
239.1272068150506
 20
95.97972847817608
 30
0.0
 10
238.6061719742269
 20
96.33352136254899
 30
0.0
 10
238.4079317945687
 20
96.4210933053441
 30
0.0
 10
238.1585134347711
 20
96.50222127847241
 30
0.0
 10
238.0860306121854
 20
96.51235218039698
 30
0.0
 10
237.958844108423
 20
96.51854913206427
 30
0.0
 10
237.9016458796347
 20
96.51517409736641
 30
0.0
 10
237.7254582853818
 20
96.4753043474451
 30
0.0
 10
237.6053762354473
 20
96.4369127420308
 30
0.0
 10
237.2753284477554
 20
96.2690876170717
 30
0.0
 10
237.0664115732231
 20
96.13858828143907
 30
0.0
 10
236.5797748182699
 20
95.74562190489807
 30
0.0
 10
236.3029440559491
 20
95.48333318309628
 30
0.0
 10
235.7141419102759
 20
94.8148237909012
 30
0.0
 10
235.4024329643294
 20
94.40897250200057
 30
0.0
 10
234.4294282154921
 20
92.94113759315299
 30
0.0
 10
233.7607078418054
 20
91.64470032807388
 30
0.0
 10
232.5635706846666
 20
88.5765216204089
 30
0.0
 10
232.0333239832441
 20
86.8063253725016
 30
0.0
 10
231.1907672074664
 20
82.9588779595805
 30
0.0
 10
230.8777597778822
 20
80.88190076145279
 30
0.0
 10
230.5060557321082
 20
76.59721122404238
 30
0.0
 10
230.4471752622472
 20
74.38968878289816
 30
0.0
 10
230.5898809088172
 20
70.02426991091891
 30
0.0
 10
230.7915303844517
 20
67.86656883990456
 30
0.0
 10
231.4323688966411
 20
63.77954699115065
 30
0.0
 10
231.8719636026987
 20
61.85042549084887
 30
0.0
 10
232.9303670539708
 20
58.39191057473036
 30
0.0
 10
233.5504350285068
 20
56.86316202775963
 30
0.0
 10
234.6843105999756
 20
54.68471491841632
 30
0.0
 10
235.1835327876602
 20
53.91044683386048
 30
0.0
 10
236.1293665666803
 20
52.70488024168337
 30
0.0
 10
236.5747310686952
 20
52.27633314838107
 30
0.0
 10
237.1854099650287
 20
51.81260963196604
 30
0.0
 10
237.3932057152819
 20
51.69655865886483
 30
0.0
 10
237.7063609713663
 20
51.55847159934177
 30
0.0
 10
237.8106222962376
 20
51.53432801633829
 30
0.0
 10
237.9256829407173
 20
51.51829181203577
 30
0.0
 10
237.9573629852262
 20
51.51626802832784
 30
0.0
 10
237.988996111982
 20
51.51626802832784
 30
0.0
  0
SPLINE
  5
71
330
2
100
AcDbEntity
  8
KIJUN
 62
     7
100
AcDbSpline
210
0.0
220
0.0
230
1.0
 70
     8
 71
     3
 72
    32
 73
    28
 74
     0
 42
0.000000001
 43
0.0000000001
 40
3.59686693970718
 40
3.59686693970718
 40
3.59686693970718
 40
3.59686693970718
 40
3.641326552340912
 40
3.641326552340912
 40
3.764859472407392
 40
3.764859472407392
 40
3.888392392473873
 40
3.888392392473873
 40
4.082074365743073
 40
4.082074365743073
 40
4.275756339012271
 40
4.275756339012271
 40
4.469438312281471
 40
4.469438312281471
 40
4.776376511980708
 40
4.776376511980708
 40
5.083314711679943
 40
5.083314711679943
 40
5.31553407762223
 40
5.31553407762223
 40
5.51698530541886
 40
5.51698530541886
 40
5.663849435721973
 40
5.663849435721973
 40
5.771488857099341
 40
5.771488857099341
 40
5.828201186204997
 40
5.828201186204997
 40
5.828201186204997
 40
5.828201186204997
 10
237.6228616165606
 20
93.95245916128329
 30
0.0
 10
237.5455570299834
 20
93.86929369041748
 30
0.0
 10
237.4639334452474
 20
93.7768332624241
 30
0.0
 10
237.1428943033539
 20
93.39106174548479
 30
0.0
 10
236.880130265187
 20
93.03319892443258
 30
0.0
 10
236.3399183538418
 20
92.17773968992009
 30
0.0
 10
236.0592136435393
 20
91.67590086698536
 30
0.0
 10
235.3466756658941
 20
90.22579948969839
 30
0.0
 10
234.9218450624608
 20
89.18721292582489
 30
0.0
 10
234.1493400986162
 20
86.85607000379269
 30
0.0
 10
233.8008073736561
 20
85.56748278941169
 30
0.0
 10
233.2180039620112
 20
82.81917021738108
 30
0.0
 10
232.9824077198642
 20
81.35721623407958
 30
0.0
 10
232.5424004516459
 20
77.45613338637342
 30
0.0
 10
232.4394410695582
 20
74.94220030758644
 30
0.0
 10
232.5837893268451
 20
69.98087866022202
 30
0.0
 10
232.8316366720024
 20
67.53097628208696
 30
0.0
 10
233.5353159692673
 20
63.55423484814942
 30
0.0
 10
233.9250460083172
 20
61.94470913775326
 30
0.0
 10
234.7648701942996
 20
59.26347538312342
 30
0.0
 10
235.2024281995023
 20
58.14206637673709
 30
0.0
 10
235.9789997480497
 20
56.49595665997633
 30
0.0
 10
236.3132044403206
 20
55.8930547244708
 30
0.0
 10
236.8716781910238
 20
55.01712921934853
 30
0.0
 10
237.1000063317066
 20
54.70100490760657
 30
0.0
 10
237.4187117189636
 20
54.30763787837936
 30
0.0
 10
237.5243366825177
 20
54.18664787189704
 30
0.0
 10
237.6232749334992
 20
54.08030287185233
 30
0.0
  0
ELLIPSE
  5
72
330
2
100
AcDbEntity
  8
KIJUN
 62
     7
100
AcDbEllipse
 10
97.98847035039363
 20
74.01626802832783
 30
0.0
 11
0.0
 21
-27.5
 31
0.0
210
0.0
220
0.0
230
1.0
 40
0.4545454545454545
 41
0.0000140203090273
 42
3.141578633280766
  0
SPLINE
  5
73
330
2
100
AcDbEntity
  8
KIJUN
 62
     7
100
AcDbSpline
210
0.0
220
0.0
230
1.0
 70
     8
 71
     3
 72
    40
 73
    36
 74
     0
 42
0.000000001
 43
0.0000000001
 40
0.0001168338680443
 40
0.0001168338680443
 40
0.0001168338680443
 40
0.0001168338680443
 40
0.1196710697449102
 40
0.1196710697449102
 40
0.2393421394898205
 40
0.2393421394898205
 40
0.3590132092347307
 40
0.3590132092347307
 40
0.478684278979641
 40
0.478684278979641
 40
0.7085148400919517
 40
0.7085148400919517
 40
0.9383454012042619
 40
0.9383454012042619
 40
1.168175962316572
 40
1.168175962316572
 40
1.398006523428882
 40
1.398006523428882
 40
1.714616041963529
 40
1.714616041963529
 40
2.031225560498175
 40
2.031225560498175
 40
2.290880207193985
 40
2.290880207193985
 40
2.508092960176158
 40
2.508092960176158
 40
2.689640137284416
 40
2.689640137284416
 40
2.842223396824904
 40
2.842223396824904
 40
2.994806656365392
 40
2.994806656365392
 40
3.119449299308273
 40
3.119449299308273
 40
3.141439410860441
 40
3.141439410860441
 40
3.141439410860441
 40
3.141439410860441
 10
97.98864560425652
 20
51.51626804502797
 30
0.0
 10
98.04842481987702
 20
51.51627944183832
 30
0.0
 10
98.10929236036667
 20
51.52212820896119
 30
0.0
 10
98.29494934903653
 20
51.57124198356854
 30
0.0
 10
98.42036343488828
 20
51.61615980996106
 30
0.0
 10
98.75322691505482
 20
51.79485524808518
 30
0.0
 10
98.95975722593322
 20
51.92936891729317
 30
0.0
 10
99.43432466402896
 20
52.3211759118098
 30
0.0
 10
99.70166915500213
 20
52.57829166225151
 30
0.0
 10
100.5289493802781
 20
53.52277040300117
 30
0.0
 10
101.1284368369731
 20
54.39025286799
 30
0.0
 10
102.2819893268011
 20
56.56503276330333
 30
0.0
 10
102.8370819318986
 20
57.8698861854604
 30
0.0
 10
103.8169617200089
 20
60.81136270948622
 30
0.0
 10
104.2425254038687
 20
62.44754252003207
 30
0.0
 10
104.9176179147849
 20
65.93487377124933
 30
0.0
 10
105.167446327942
 20
67.78590442038508
 30
0.0
 10
105.5253808442482
 20
72.29776468714357
 30
0.0
 10
105.5432738380729
 20
75.00027788394065
 30
0.0
 10
105.1971566986028
 20
80.2582526134442
 30
0.0
 10
104.8327803031986
 20
82.81320347856558
 30
0.0
 10
103.879737720628
 20
87.04054927685898
 30
0.0
 10
103.3431616950443
 20
88.78887124075509
 30
0.0
 10
102.237160894321
 20
91.56264746575958
 30
0.0
 10
101.6871559048865
 20
92.65903939806987
 30
0.0
 10
100.6760755801503
 20
94.2928187882252
 30
0.0
 10
100.2155200170005
 20
94.89147615026869
 30
0.0
 10
99.44644808946733
 20
95.71286344065079
 30
0.0
 10
99.1266810534621
 20
95.97972847817608
 30
0.0
 10
98.60564621263852
 20
96.33352136254899
 30
0.0
 10
98.40740603298002
 20
96.4210933053441
 30
0.0
 10
98.15798767318259
 20
96.50222127847241
 30
0.0
 10
98.08550485059708
 20
96.51235218039698
 30
0.0
 10
98.01069214227759
 20
96.51599730565669
 30
0.0
 10
97.99967173652754
 20
96.51634246140408
 30
0.0
 10
97.98864560425618
 20
96.5164307354955
 30
0.0
  0
SPLINE
  5
74
330
2
100
AcDbEntity
  8
KIJUN
 62
     7
100
AcDbSpline
210
0.0
220
0.0
230
1.0
 70
     8
 71
     3
 72
    34
 73
    30
 74
     0
 42
0.000000001
 43
0.0000000001
 40
0.4553690538741935
 40
0.4553690538741935
 40
0.4553690538741935
 40
0.4553690538741935
 40
0.4987609726723746
 40
0.4987609726723746
 40
0.6213244047107676
 40
0.6213244047107676
 40
0.7438878367491605
 40
0.7438878367491605
 40
0.8664512687875532
 40
0.8664512687875532
 40
1.084017131451554
 40
1.084017131451554
 40
1.301582994115557
 40
1.301582994115557
 40
1.519148856779561
 40
1.519148856779561
 40
1.736714719443563
 40
1.736714719443563
 40
1.954280582107566
 40
1.954280582107566
 40
2.188695221665954
 40
2.188695221665954
 40
2.381976236096857
 40
2.381976236096857
 40
2.524043218796634
 40
2.524043218796634
 40
2.666110201496415
 40
2.666110201496415
 40
2.686225668335985
 40
2.686225668335985
 40
2.686225668335985
 40
2.686225668335985
 10
98.3550823130241
 20
54.08050710566243
 30
0.0
 10
98.43046350170929
 20
54.1616221812523
 30
0.0
 10
98.5098230362651
 20
54.25146845571856
 30
0.0
 10
98.82444985526108
 20
54.62913324924232
 30
0.0
 10
99.08589923368957
 20
54.98545634128544
 30
0.0
 10
99.62491774315424
 20
55.8333791845493
 30
0.0
 10
99.9017864673357
 20
56.32376122309864
 30
0.0
 10
100.4508976064822
 20
57.43642210754928
 30
0.0
 10
100.7231913863857
 20
58.05717805975969
 30
0.0
 10
101.4468804149935
 20
59.92934646824863
 30
0.0
 10
101.8715779172467
 20
61.29828612879504
 30
0.0
 10
102.5895087213917
 20
64.28130978405845
 30
0.0
 10
102.8817103446832
 20
65.89299018450439
 30
0.0
 10
103.3032786545578
 20
69.2533779764821
 30
0.0
 10
103.4321038435233
 20
70.99991817716766
 30
0.0
 10
103.5144677853001
 20
74.52171243615016
 30
0.0
 10
103.4689739563224
 20
76.29548101539505
 30
0.0
 10
103.2049885504053
 20
79.75765313382495
 30
0.0
 10
102.9869616976371
 20
81.4488377537244
 30
0.0
 10
102.3803580990121
 20
84.76112157777777
 30
0.0
 10
101.9773966257332
 20
86.36604502944448
 30
0.0
 10
101.1349816728086
 20
88.9747984768732
 30
0.0
 10
100.7148980900688
 20
90.0303433797028
 30
0.0
 10
99.96414435649931
 20
91.59826842838347
 30
0.0
 10
99.64099796049923
 20
92.17886294164449
 30
0.0
 10
99.02084200184122
 20
93.14712869828628
 30
0.0
 10
98.72006213634062
 20
93.54122592479038
 30
0.0
 10
98.42548736294929
 20
93.87532501235618
 30
0.0
 10
98.3897876674578
 20
93.91475239310578
 30
0.0
 10
98.35498370770942
 20
93.95223998516479
 30
0.0
  0
SPLINE
  5
75
330
2
100
AcDbEntity
  8
KIJUN
 62
     7
100
AcDbSpline
210
0.0
220
0.0
230
1.0
 70
     8
 71
     3
 72
    32
 73
    28
 74
     0
 42
0.000000001
 43
0.0000000001
 40
3.59686693970718
 40
3.59686693970718
 40
3.59686693970718
 40
3.59686693970718
 40
3.641326552340912
 40
3.641326552340912
 40
3.764859472407392
 40
3.764859472407392
 40
3.888392392473873
 40
3.888392392473873
 40
4.082074365743073
 40
4.082074365743073
 40
4.275756339012271
 40
4.275756339012271
 40
4.469438312281471
 40
4.469438312281471
 40
4.776376511980708
 40
4.776376511980708
 40
5.083314711679943
 40
5.083314711679943
 40
5.31553407762223
 40
5.31553407762223
 40
5.51698530541886
 40
5.51698530541886
 40
5.663849435721973
 40
5.663849435721973
 40
5.771488857099341
 40
5.771488857099341
 40
5.828201186204997
 40
5.828201186204997
 40
5.828201186204997
 40
5.828201186204997
 10
125.622335854972
 20
93.95245916128329
 30
0.0
 10
125.5450312683949
 20
93.86929369041748
 30
0.0
 10
125.4634076836587
 20
93.7768332624241
 30
0.0
 10
125.1423685417654
 20
93.39106174548479
 30
0.0
 10
124.8796045035985
 20
93.03319892443258
 30
0.0
 10
124.3393925922532
 20
92.17773968992009
 30
0.0
 10
124.0586878819508
 20
91.67590086698536
 30
0.0
 10
123.3461499043055
 20
90.22579948969839
 30
0.0
 10
122.9213193008724
 20
89.18721292582489
 30
0.0
 10
122.1488143370275
 20
86.85607000379269
 30
0.0
 10
121.8002816120675
 20
85.56748278941169
 30
0.0
 10
121.2174782004228
 20
82.81917021738108
 30
0.0
 10
120.9818819582755
 20
81.35721623407958
 30
0.0
 10
120.5418746900574
 20
77.45613338637342
 30
0.0
 10
120.4389153079696
 20
74.94220030758644
 30
0.0
 10
120.5832635652566
 20
69.98087866022202
 30
0.0
 10
120.8311109104139
 20
67.53097628208696
 30
0.0
 10
121.5347902076788
 20
63.55423484814942
 30
0.0
 10
121.9245202467288
 20
61.94470913775326
 30
0.0
 10
122.7643444327112
 20
59.26347538312342
 30
0.0
 10
123.2019024379137
 20
58.14206637673709
 30
0.0
 10
123.9784739864612
 20
56.49595665997633
 30
0.0
 10
124.3126786787322
 20
55.8930547244708
 30
0.0
 10
124.8711524294355
 20
55.01712921934853
 30
0.0
 10
125.099480570118
 20
54.70100490760657
 30
0.0
 10
125.418185957375
 20
54.30763787837936
 30
0.0
 10
125.5238109209292
 20
54.18664787189704
 30
0.0
 10
125.6227491719106
 20
54.08030287185233
 30
0.0
  0
SPLINE
  5
76
330
2
100
AcDbEntity
  8
KIJUN
 62
     7
100
AcDbSpline
210
0.0
220
0.0
230
1.0
 70
     9
 71
     3
 72
    72
 73
    68
 74
     0
 42
0.000000001
 43
0.0000000001
 40
0.0
 40
0.0
 40
0.0
 40
0.0
 40
0.1196710697449102
 40
0.1196710697449102
 40
0.2393421394898205
 40
0.2393421394898205
 40
0.3590132092347307
 40
0.3590132092347307
 40
0.478684278979641
 40
0.478684278979641
 40
0.7085148400919517
 40
0.7085148400919517
 40
0.9383454012042619
 40
0.9383454012042619
 40
1.168175962316572
 40
1.168175962316572
 40
1.398006523428882
 40
1.398006523428882
 40
1.714616041963529
 40
1.714616041963529
 40
2.031225560498175
 40
2.031225560498175
 40
2.290880207193985
 40
2.290880207193985
 40
2.508092960176158
 40
2.508092960176158
 40
2.689640137284416
 40
2.689640137284416
 40
2.842223396824904
 40
2.842223396824904
 40
2.994806656365392
 40
2.994806656365392
 40
3.119449299308273
 40
3.119449299308273
 40
3.244091942251153
 40
3.244091942251153
 40
3.368734585194035
 40
3.368734585194035
 40
3.493377228136916
 40
3.493377228136916
 40
3.618019871079797
 40
3.618019871079797
 40
3.742662514022678
 40
3.742662514022678
 40
4.003042741597477
 40
4.003042741597477
 40
4.263422969172276
 40
4.263422969172276
 40
4.523803196747079
 40
4.523803196747079
 40
4.784183424321879
 40
4.784183424321879
 40
5.044563651896677
 40
5.044563651896677
 40
5.30494387947148
 40
5.30494387947148
 40
5.565324107046278
 40
5.565324107046278
 40
5.758075355330146
 40
5.758075355330146
 40
5.950826603614013
 40
5.950826603614013
 40
6.085372828640495
 40
6.085372828640495
 40
6.219919053666977
 40
6.219919053666977
 40
6.283185307179584
 40
6.283185307179584
 40
6.283185307179584
 40
6.283185307179584
 10
125.9884703503935
 20
51.51626802832784
 30
0.0
 10
126.0483058852665
 20
51.51626802832784
 30
0.0
 10
126.10920168842
 20
51.52210422256796
 30
0.0
 10
126.2949493490365
 20
51.57124198356854
 30
0.0
 10
126.4203634348883
 20
51.61615980996106
 30
0.0
 10
126.7532269150548
 20
51.79485524808518
 30
0.0
 10
126.9597572259333
 20
51.92936891729317
 30
0.0
 10
127.4343246640288
 20
52.3211759118098
 30
0.0
 10
127.701669155002
 20
52.57829166225151
 30
0.0
 10
128.528949380278
 20
53.52277040300117
 30
0.0
 10
129.1284368369731
 20
54.39025286799
 30
0.0
 10
130.2819893268011
 20
56.56503276330333
 30
0.0
 10
130.8370819318985
 20
57.8698861854604
 30
0.0
 10
131.8169617200088
 20
60.81136270948622
 30
0.0
 10
132.2425254038686
 20
62.44754252003207
 30
0.0
 10
132.9176179147849
 20
65.93487377124933
 30
0.0
 10
133.1674463279419
 20
67.78590442038508
 30
0.0
 10
133.5253808442481
 20
72.29776468714357
 30
0.0
 10
133.5432738380728
 20
75.00027788394065
 30
0.0
 10
133.1971566986027
 20
80.2582526134442
 30
0.0
 10
132.8327803031985
 20
82.81320347856558
 30
0.0
 10
131.8797377206279
 20
87.04054927685898
 30
0.0
 10
131.3431616950442
 20
88.78887124075509
 30
0.0
 10
130.237160894321
 20
91.56264746575958
 30
0.0
 10
129.6871559048865
 20
92.65903939806987
 30
0.0
 10
128.6760755801502
 20
94.2928187882252
 30
0.0
 10
128.2155200170004
 20
94.89147615026869
 30
0.0
 10
127.4464480894671
 20
95.71286344065079
 30
0.0
 10
127.1266810534622
 20
95.97972847817608
 30
0.0
 10
126.6056462126384
 20
96.33352136254899
 30
0.0
 10
126.4074060329799
 20
96.4210933053441
 30
0.0
 10
126.1579876731825
 20
96.50222127847241
 30
0.0
 10
126.085504850597
 20
96.51235218039698
 30
0.0
 10
125.9583183468343
 20
96.51854913206427
 30
0.0
 10
125.9011201180462
 20
96.51517409736641
 30
0.0
 10
125.7249325237931
 20
96.4753043474451
 30
0.0
 10
125.6048504738587
 20
96.4369127420308
 30
0.0
 10
125.2748026861669
 20
96.2690876170717
 30
0.0
 10
125.0658858116345
 20
96.13858828143907
 30
0.0
 10
124.5792490566816
 20
95.74562190489807
 30
0.0
 10
124.3024182943606
 20
95.48333318309628
 30
0.0
 10
123.7136161486875
 20
94.8148237909012
 30
0.0
 10
123.4019072027409
 20
94.40897250200057
 30
0.0
 10
122.4289024539034
 20
92.94113759315299
 30
0.0
 10
121.7601820802171
 20
91.64470032807388
 30
0.0
 10
120.563044923078
 20
88.5765216204089
 30
0.0
 10
120.0327982216554
 20
86.8063253725016
 30
0.0
 10
119.1902414458777
 20
82.9588779595805
 30
0.0
 10
118.8772340162937
 20
80.88190076145279
 30
0.0
 10
118.5055299705195
 20
76.59721122404238
 30
0.0
 10
118.4466495006587
 20
74.38968878289816
 30
0.0
 10
118.5893551472286
 20
70.02426991091891
 30
0.0
 10
118.7910046228631
 20
67.86656883990456
 30
0.0
 10
119.4318431350526
 20
63.77954699115065
 30
0.0
 10
119.8714378411101
 20
61.85042549084887
 30
0.0
 10
120.9298412923823
 20
58.39191057473036
 30
0.0
 10
121.5499092669183
 20
56.86316202775963
 30
0.0
 10
122.6837848383872
 20
54.68471491841632
 30
0.0
 10
123.1830070260716
 20
53.91044683386048
 30
0.0
 10
124.1288408050919
 20
52.70488024168337
 30
0.0
 10
124.5742053071068
 20
52.27633314838107
 30
0.0
 10
125.1848842034401
 20
51.81260963196604
 30
0.0
 10
125.3926799536935
 20
51.69655865886483
 30
0.0
 10
125.705835209778
 20
51.55847159934177
 30
0.0
 10
125.810096534649
 20
51.53432801633829
 30
0.0
 10
125.9251571791287
 20
51.51829181203577
 30
0.0
 10
125.9568372236377
 20
51.51626802832784
 30
0.0
 10
125.9884703503935
 20
51.51626802832784
 30
0.0
  0
ELLIPSE
  5
77
330
2
100
AcDbEntity
  8
KIJUN
 62
     7
100
AcDbEllipse
 10
125.9884703503935
 20
74.01626802832783
 30
0.0
 11
0.0
 21
-27.5
 31
0.0
210
0.0
220
0.0
230
1.0
 40
0.4545454545454545
 41
0.0
 42
6.283185307179584
  0
SPLINE
  5
78
330
2
100
AcDbEntity
  8
KIJUN
 62
     7
100
AcDbSpline
210
0.0
220
0.0
230
1.0
 70
     8
 71
     3
 72
    34
 73
    30
 74
     0
 42
0.000000001
 43
0.0000000001
 40
0.4553690538741935
 40
0.4553690538741935
 40
0.4553690538741935
 40
0.4553690538741935
 40
0.4987609726723746
 40
0.4987609726723746
 40
0.6213244047107676
 40
0.6213244047107676
 40
0.7438878367491605
 40
0.7438878367491605
 40
0.8664512687875532
 40
0.8664512687875532
 40
1.084017131451554
 40
1.084017131451554
 40
1.301582994115557
 40
1.301582994115557
 40
1.519148856779561
 40
1.519148856779561
 40
1.736714719443563
 40
1.736714719443563
 40
1.954280582107566
 40
1.954280582107566
 40
2.188695221665954
 40
2.188695221665954
 40
2.381976236096857
 40
2.381976236096857
 40
2.524043218796634
 40
2.524043218796634
 40
2.666110201496415
 40
2.666110201496415
 40
2.686225668335985
 40
2.686225668335985
 40
2.686225668335985
 40
2.686225668335985
 10
126.355082313024
 20
54.08050710566243
 30
0.0
 10
126.4304635017092
 20
54.1616221812523
 30
0.0
 10
126.5098230362652
 20
54.25146845571856
 30
0.0
 10
126.8244498552609
 20
54.62913324924232
 30
0.0
 10
127.0858992336893
 20
54.98545634128544
 30
0.0
 10
127.6249177431542
 20
55.8333791845493
 30
0.0
 10
127.9017864673356
 20
56.32376122309864
 30
0.0
 10
128.4508976064822
 20
57.43642210754928
 30
0.0
 10
128.7231913863857
 20
58.05717805975969
 30
0.0
 10
129.4468804149935
 20
59.92934646824863
 30
0.0
 10
129.8715779172466
 20
61.29828612879504
 30
0.0
 10
130.5895087213917
 20
64.28130978405845
 30
0.0
 10
130.8817103446832
 20
65.89299018450439
 30
0.0
 10
131.3032786545577
 20
69.2533779764821
 30
0.0
 10
131.4321038435232
 20
70.99991817716766
 30
0.0
 10
131.5144677853
 20
74.52171243615016
 30
0.0
 10
131.4689739563225
 20
76.29548101539505
 30
0.0
 10
131.2049885504053
 20
79.75765313382495
 30
0.0
 10
130.986961697637
 20
81.4488377537244
 30
0.0
 10
130.3803580990121
 20
84.76112157777777
 30
0.0
 10
129.9773966257331
 20
86.36604502944448
 30
0.0
 10
129.1349816728085
 20
88.9747984768732
 30
0.0
 10
128.7148980900689
 20
90.0303433797028
 30
0.0
 10
127.9641443564992
 20
91.59826842838347
 30
0.0
 10
127.6409979604991
 20
92.17886294164449
 30
0.0
 10
127.0208420018411
 20
93.14712869828628
 30
0.0
 10
126.7200621363404
 20
93.54122592479038
 30
0.0
 10
126.4254873629495
 20
93.87532501235618
 30
0.0
 10
126.3897876674579
 20
93.91475239310578
 30
0.0
 10
126.3549837077094
 20
93.95223998516479
 30
0.0
  0
ELLIPSE
  5
79
330
2
100
AcDbEntity
  8
KIJUN
 62
     7
100
AcDbEllipse
 10
153.9888208581192
 20
74.01626802832783
 30
0.0
 11
0.0
 21
-27.5
 31
0.0
210
0.0
220
0.0
230
1.0
 40
0.4545454545454545
 41
0.0
 42
6.283185307179584
  0
SPLINE
  5
7A
330
2
100
AcDbEntity
  8
KIJUN
 62
     7
100
AcDbSpline
210
0.0
220
0.0
230
1.0
 70
     9
 71
     3
 72
    72
 73
    68
 74
     0
 42
0.000000001
 43
0.0000000001
 40
0.0
 40
0.0
 40
0.0
 40
0.0
 40
0.1196710697449102
 40
0.1196710697449102
 40
0.2393421394898205
 40
0.2393421394898205
 40
0.3590132092347307
 40
0.3590132092347307
 40
0.478684278979641
 40
0.478684278979641
 40
0.7085148400919517
 40
0.7085148400919517
 40
0.9383454012042619
 40
0.9383454012042619
 40
1.168175962316572
 40
1.168175962316572
 40
1.398006523428882
 40
1.398006523428882
 40
1.714616041963529
 40
1.714616041963529
 40
2.031225560498175
 40
2.031225560498175
 40
2.290880207193985
 40
2.290880207193985
 40
2.508092960176158
 40
2.508092960176158
 40
2.689640137284416
 40
2.689640137284416
 40
2.842223396824904
 40
2.842223396824904
 40
2.994806656365392
 40
2.994806656365392
 40
3.119449299308273
 40
3.119449299308273
 40
3.244091942251153
 40
3.244091942251153
 40
3.368734585194035
 40
3.368734585194035
 40
3.493377228136916
 40
3.493377228136916
 40
3.618019871079797
 40
3.618019871079797
 40
3.742662514022678
 40
3.742662514022678
 40
4.003042741597477
 40
4.003042741597477
 40
4.263422969172276
 40
4.263422969172276
 40
4.523803196747079
 40
4.523803196747079
 40
4.784183424321879
 40
4.784183424321879
 40
5.044563651896677
 40
5.044563651896677
 40
5.30494387947148
 40
5.30494387947148
 40
5.565324107046278
 40
5.565324107046278
 40
5.758075355330146
 40
5.758075355330146
 40
5.950826603614013
 40
5.950826603614013
 40
6.085372828640495
 40
6.085372828640495
 40
6.219919053666977
 40
6.219919053666977
 40
6.283185307179584
 40
6.283185307179584
 40
6.283185307179584
 40
6.283185307179584
 10
153.9888208581192
 20
51.51626802832784
 30
0.0
 10
154.0486563929921
 20
51.51626802832784
 30
0.0
 10
154.1095521961456
 20
51.52210422256796
 30
0.0
 10
154.295299856762
 20
51.57124198356854
 30
0.0
 10
154.4207139426139
 20
51.61615980996106
 30
0.0
 10
154.7535774227803
 20
51.79485524808518
 30
0.0
 10
154.960107733659
 20
51.92936891729317
 30
0.0
 10
155.4346751717545
 20
52.3211759118098
 30
0.0
 10
155.7020196627276
 20
52.57829166225151
 30
0.0
 10
156.5292998880036
 20
53.52277040300117
 30
0.0
 10
157.1287873446985
 20
54.39025286799
 30
0.0
 10
158.2823398345267
 20
56.56503276330333
 30
0.0
 10
158.837432439624
 20
57.8698861854604
 30
0.0
 10
159.8173122277346
 20
60.81136270948622
 30
0.0
 10
160.2428759115941
 20
62.44754252003207
 30
0.0
 10
160.9179684225106
 20
65.93487377124933
 30
0.0
 10
161.1677968356677
 20
67.78590442038508
 30
0.0
 10
161.5257313519737
 20
72.29776468714357
 30
0.0
 10
161.5436243457984
 20
75.00027788394065
 30
0.0
 10
161.1975072063282
 20
80.2582526134442
 30
0.0
 10
160.8331308109242
 20
82.81320347856558
 30
0.0
 10
159.8800882283536
 20
87.04054927685898
 30
0.0
 10
159.3435122027699
 20
88.78887124075509
 30
0.0
 10
158.2375114020466
 20
91.56264746575958
 30
0.0
 10
157.6875064126121
 20
92.65903939806987
 30
0.0
 10
156.6764260878759
 20
94.2928187882252
 30
0.0
 10
156.2158705247262
 20
94.89147615026869
 30
0.0
 10
155.446798597193
 20
95.71286344065079
 30
0.0
 10
155.1270315611879
 20
95.97972847817608
 30
0.0
 10
154.6059967203642
 20
96.33352136254899
 30
0.0
 10
154.4077565407055
 20
96.4210933053441
 30
0.0
 10
154.1583381809082
 20
96.50222127847241
 30
0.0
 10
154.0858553583225
 20
96.51235218039698
 30
0.0
 10
153.9586688545601
 20
96.51854913206427
 30
0.0
 10
153.9014706257717
 20
96.51517409736641
 30
0.0
 10
153.7252830315187
 20
96.4753043474451
 30
0.0
 10
153.6052009815844
 20
96.4369127420308
 30
0.0
 10
153.2751531938924
 20
96.2690876170717
 30
0.0
 10
153.0662363193602
 20
96.13858828143907
 30
0.0
 10
152.579599564407
 20
95.74562190489807
 30
0.0
 10
152.3027688020862
 20
95.48333318309628
 30
0.0
 10
151.7139666564131
 20
94.8148237909012
 30
0.0
 10
151.4022577104665
 20
94.40897250200057
 30
0.0
 10
150.4292529616292
 20
92.94113759315299
 30
0.0
 10
149.7605325879426
 20
91.64470032807388
 30
0.0
 10
148.5633954308037
 20
88.5765216204089
 30
0.0
 10
148.033148729381
 20
86.8063253725016
 30
0.0
 10
147.1905919536036
 20
82.9588779595805
 30
0.0
 10
146.8775845240193
 20
80.88190076145279
 30
0.0
 10
146.5058804782454
 20
76.59721122404238
 30
0.0
 10
146.4470000083842
 20
74.38968878289816
 30
0.0
 10
146.5897056549544
 20
70.02426991091891
 30
0.0
 10
146.7913551305888
 20
67.86656883990456
 30
0.0
 10
147.4321936427781
 20
63.77954699115065
 30
0.0
 10
147.8717883488356
 20
61.85042549084887
 30
0.0
 10
148.9301918001078
 20
58.39191057473036
 30
0.0
 10
149.5502597746441
 20
56.86316202775963
 30
0.0
 10
150.6841353461127
 20
54.68471491841632
 30
0.0
 10
151.1833575337975
 20
53.91044683386048
 30
0.0
 10
152.1291913128177
 20
52.70488024168337
 30
0.0
 10
152.5745558148324
 20
52.27633314838107
 30
0.0
 10
153.1852347111657
 20
51.81260963196604
 30
0.0
 10
153.3930304614192
 20
51.69655865886483
 30
0.0
 10
153.7061857175037
 20
51.55847159934177
 30
0.0
 10
153.8104470423747
 20
51.53432801633829
 30
0.0
 10
153.9255076868545
 20
51.51829181203577
 30
0.0
 10
153.9571877313633
 20
51.51626802832784
 30
0.0
 10
153.9888208581192
 20
51.51626802832784
 30
0.0
  0
SPLINE
  5
7B
330
2
100
AcDbEntity
  8
KIJUN
 62
     7
100
AcDbSpline
210
0.0
220
0.0
230
1.0
 70
     8
 71
     3
 72
    34
 73
    30
 74
     0
 42
0.000000001
 43
0.0000000001
 40
0.4553690538741935
 40
0.4553690538741935
 40
0.4553690538741935
 40
0.4553690538741935
 40
0.4987609726723746
 40
0.4987609726723746
 40
0.6213244047107676
 40
0.6213244047107676
 40
0.7438878367491605
 40
0.7438878367491605
 40
0.8664512687875532
 40
0.8664512687875532
 40
1.084017131451554
 40
1.084017131451554
 40
1.301582994115557
 40
1.301582994115557
 40
1.519148856779561
 40
1.519148856779561
 40
1.736714719443563
 40
1.736714719443563
 40
1.954280582107566
 40
1.954280582107566
 40
2.188695221665954
 40
2.188695221665954
 40
2.381976236096857
 40
2.381976236096857
 40
2.524043218796634
 40
2.524043218796634
 40
2.666110201496415
 40
2.666110201496415
 40
2.686225668335985
 40
2.686225668335985
 40
2.686225668335985
 40
2.686225668335985
 10
154.3554328207496
 20
54.08050710566243
 30
0.0
 10
154.4308140094349
 20
54.1616221812523
 30
0.0
 10
154.5101735439907
 20
54.25146845571856
 30
0.0
 10
154.8248003629865
 20
54.62913324924232
 30
0.0
 10
155.086249741415
 20
54.98545634128544
 30
0.0
 10
155.6252682508797
 20
55.8333791845493
 30
0.0
 10
155.9021369750612
 20
56.32376122309864
 30
0.0
 10
156.4512481142078
 20
57.43642210754928
 30
0.0
 10
156.7235418941114
 20
58.05717805975969
 30
0.0
 10
157.447230922719
 20
59.92934646824863
 30
0.0
 10
157.8719284249723
 20
61.29828612879504
 30
0.0
 10
158.5898592291174
 20
64.28130978405845
 30
0.0
 10
158.8820608524089
 20
65.89299018450439
 30
0.0
 10
159.3036291622836
 20
69.2533779764821
 30
0.0
 10
159.4324543512489
 20
70.99991817716766
 30
0.0
 10
159.5148182930256
 20
74.52171243615016
 30
0.0
 10
159.4693244640481
 20
76.29548101539505
 30
0.0
 10
159.2053390581308
 20
79.75765313382495
 30
0.0
 10
158.9873122053629
 20
81.4488377537244
 30
0.0
 10
158.3807086067377
 20
84.76112157777777
 30
0.0
 10
157.9777471334587
 20
86.36604502944448
 30
0.0
 10
157.1353321805341
 20
88.9747984768732
 30
0.0
 10
156.7152485977944
 20
90.0303433797028
 30
0.0
 10
155.9644948642249
 20
91.59826842838347
 30
0.0
 10
155.6413484682247
 20
92.17886294164449
 30
0.0
 10
155.0211925095671
 20
93.14712869828628
 30
0.0
 10
154.7204126440661
 20
93.54122592479038
 30
0.0
 10
154.425837870675
 20
93.87532501235618
 30
0.0
 10
154.3901381751835
 20
93.91475239310578
 30
0.0
 10
154.3553342154351
 20
93.95223998516479
 30
0.0
  0
SPLINE
  5
7C
330
2
100
AcDbEntity
  8
KIJUN
 62
     7
100
AcDbSpline
210
0.0
220
0.0
230
1.0
 70
     8
 71
     3
 72
    32
 73
    28
 74
     0
 42
0.000000001
 43
0.0000000001
 40
3.59686693970718
 40
3.59686693970718
 40
3.59686693970718
 40
3.59686693970718
 40
3.641326552340912
 40
3.641326552340912
 40
3.764859472407392
 40
3.764859472407392
 40
3.888392392473873
 40
3.888392392473873
 40
4.082074365743073
 40
4.082074365743073
 40
4.275756339012271
 40
4.275756339012271
 40
4.469438312281471
 40
4.469438312281471
 40
4.776376511980708
 40
4.776376511980708
 40
5.083314711679943
 40
5.083314711679943
 40
5.31553407762223
 40
5.31553407762223
 40
5.51698530541886
 40
5.51698530541886
 40
5.663849435721973
 40
5.663849435721973
 40
5.771488857099341
 40
5.771488857099341
 40
5.828201186204997
 40
5.828201186204997
 40
5.828201186204997
 40
5.828201186204997
 10
153.6226863626976
 20
93.95245916128329
 30
0.0
 10
153.5453817761203
 20
93.86929369041748
 30
0.0
 10
153.4637581913844
 20
93.7768332624241
 30
0.0
 10
153.1427190494911
 20
93.39106174548479
 30
0.0
 10
152.8799550113239
 20
93.03319892443258
 30
0.0
 10
152.3397430999789
 20
92.17773968992009
 30
0.0
 10
152.0590383896766
 20
91.67590086698536
 30
0.0
 10
151.3465004120312
 20
90.22579948969839
 30
0.0
 10
150.921669808598
 20
89.18721292582489
 30
0.0
 10
150.1491648447532
 20
86.85607000379269
 30
0.0
 10
149.8006321197933
 20
85.56748278941169
 30
0.0
 10
149.2178287081485
 20
82.81917021738108
 30
0.0
 10
148.9822324660014
 20
81.35721623407958
 30
0.0
 10
148.5422251977829
 20
77.45613338637342
 30
0.0
 10
148.4392658156956
 20
74.94220030758644
 30
0.0
 10
148.583614072982
 20
69.98087866022202
 30
0.0
 10
148.8314614181396
 20
67.53097628208696
 30
0.0
 10
149.5351407154044
 20
63.55423484814942
 30
0.0
 10
149.9248707544543
 20
61.94470913775326
 30
0.0
 10
150.7646949404366
 20
59.26347538312342
 30
0.0
 10
151.2022529456395
 20
58.14206637673709
 30
0.0
 10
151.9788244941871
 20
56.49595665997633
 30
0.0
 10
152.3130291864577
 20
55.8930547244708
 30
0.0
 10
152.871502937161
 20
55.01712921934853
 30
0.0
 10
153.0998310778436
 20
54.70100490760657
 30
0.0
 10
153.4185364651007
 20
54.30763787837936
 30
0.0
 10
153.5241614286546
 20
54.18664787189704
 30
0.0
 10
153.6230996796361
 20
54.08030287185233
 30
0.0
  0
ELLIPSE
  5
7D
330
2
100
AcDbEntity
  8
KIJUN
 62
     7
100
AcDbEllipse
 10
209.9889961119822
 20
74.01626802832783
 30
0.0
 11
0.0
 21
-27.5
 31
0.0
210
0.0
220
0.0
230
-1.0
 40
0.4545454545454545
 41
0.0
 42
6.283185307179584
  0
SPLINE
  5
7E
330
2
100
AcDbEntity
  8
KIJUN
 62
     7
100
AcDbSpline
210
0.0
220
0.0
230
1.0
 70
     9
 71
     3
 72
    72
 73
    68
 74
     0
 42
0.000000001
 43
0.0000000001
 40
0.0
 40
0.0
 40
0.0
 40
0.0
 40
0.1196710697449102
 40
0.1196710697449102
 40
0.2393421394898205
 40
0.2393421394898205
 40
0.3590132092347307
 40
0.3590132092347307
 40
0.478684278979641
 40
0.478684278979641
 40
0.7085148400919517
 40
0.7085148400919517
 40
0.9383454012042619
 40
0.9383454012042619
 40
1.168175962316572
 40
1.168175962316572
 40
1.398006523428882
 40
1.398006523428882
 40
1.714616041963529
 40
1.714616041963529
 40
2.031225560498175
 40
2.031225560498175
 40
2.290880207193985
 40
2.290880207193985
 40
2.508092960176158
 40
2.508092960176158
 40
2.689640137284416
 40
2.689640137284416
 40
2.842223396824904
 40
2.842223396824904
 40
2.994806656365392
 40
2.994806656365392
 40
3.119449299308273
 40
3.119449299308273
 40
3.244091942251153
 40
3.244091942251153
 40
3.368734585194035
 40
3.368734585194035
 40
3.493377228136916
 40
3.493377228136916
 40
3.618019871079797
 40
3.618019871079797
 40
3.742662514022678
 40
3.742662514022678
 40
4.003042741597477
 40
4.003042741597477
 40
4.263422969172276
 40
4.263422969172276
 40
4.523803196747079
 40
4.523803196747079
 40
4.784183424321879
 40
4.784183424321879
 40
5.044563651896677
 40
5.044563651896677
 40
5.30494387947148
 40
5.30494387947148
 40
5.565324107046278
 40
5.565324107046278
 40
5.758075355330146
 40
5.758075355330146
 40
5.950826603614013
 40
5.950826603614013
 40
6.085372828640495
 40
6.085372828640495
 40
6.219919053666977
 40
6.219919053666977
 40
6.283185307179584
 40
6.283185307179584
 40
6.283185307179584
 40
6.283185307179584
 10
209.9889961119822
 20
51.51626802832784
 30
0.0
 10
209.9291605771092
 20
51.51626802832784
 30
0.0
 10
209.8682647739557
 20
51.52210422256796
 30
0.0
 10
209.6825171133394
 20
51.57124198356854
 30
0.0
 10
209.5571030274876
 20
51.61615980996106
 30
0.0
 10
209.2242395473211
 20
51.79485524808518
 30
0.0
 10
209.0177092364426
 20
51.92936891729317
 30
0.0
 10
208.5431417983469
 20
52.3211759118098
 30
0.0
 10
208.2757973073735
 20
52.57829166225151
 30
0.0
 10
207.4485170820977
 20
53.52277040300117
 30
0.0
 10
206.8490296254028
 20
54.39025286799
 30
0.0
 10
205.6954771355746
 20
56.56503276330333
 30
0.0
 10
205.1403845304772
 20
57.8698861854604
 30
0.0
 10
204.1605047423669
 20
60.81136270948622
 30
0.0
 10
203.7349410585072
 20
62.44754252003207
 30
0.0
 10
203.0598485475907
 20
65.93487377124933
 30
0.0
 10
202.8100201344336
 20
67.78590442038508
 30
0.0
 10
202.4520856181276
 20
72.29776468714357
 30
0.0
 10
202.4341926243027
 20
75.00027788394065
 30
0.0
 10
202.7803097637731
 20
80.2582526134442
 30
0.0
 10
203.1446861591773
 20
82.81320347856558
 30
0.0
 10
204.0977287417477
 20
87.04054927685898
 30
0.0
 10
204.6343047673313
 20
88.78887124075509
 30
0.0
 10
205.7403055680548
 20
91.56264746575958
 30
0.0
 10
206.2903105574893
 20
92.65903939806987
 30
0.0
 10
207.3013908822256
 20
94.2928187882252
 30
0.0
 10
207.761946445375
 20
94.89147615026869
 30
0.0
 10
208.5310183729084
 20
95.71286344065079
 30
0.0
 10
208.8507854089134
 20
95.97972847817608
 30
0.0
 10
209.3718202497371
 20
96.33352136254899
 30
0.0
 10
209.5700604293959
 20
96.4210933053441
 30
0.0
 10
209.8194787891932
 20
96.50222127847241
 30
0.0
 10
209.8919616117787
 20
96.51235218039698
 30
0.0
 10
210.0191481155412
 20
96.51854913206427
 30
0.0
 10
210.0763463443297
 20
96.51517409736641
 30
0.0
 10
210.2525339385827
 20
96.4753043474451
 30
0.0
 10
210.3726159885169
 20
96.4369127420308
 30
0.0
 10
210.7026637762089
 20
96.2690876170717
 30
0.0
 10
210.9115806507413
 20
96.13858828143907
 30
0.0
 10
211.3982174056943
 20
95.74562190489807
 30
0.0
 10
211.6750481680152
 20
95.48333318309628
 30
0.0
 10
212.2638503136882
 20
94.8148237909012
 30
0.0
 10
212.575559259635
 20
94.40897250200057
 30
0.0
 10
213.5485640084722
 20
92.94113759315299
 30
0.0
 10
214.2172843821587
 20
91.64470032807388
 30
0.0
 10
215.4144215392977
 20
88.5765216204089
 30
0.0
 10
215.9446682407201
 20
86.8063253725016
 30
0.0
 10
216.7872250164979
 20
82.9588779595805
 30
0.0
 10
217.1002324460822
 20
80.88190076145279
 30
0.0
 10
217.4719364918561
 20
76.59721122404238
 30
0.0
 10
217.5308169617171
 20
74.38968878289816
 30
0.0
 10
217.3881113151471
 20
70.02426991091891
 30
0.0
 10
217.1864618395126
 20
67.86656883990456
 30
0.0
 10
216.5456233273231
 20
63.77954699115065
 30
0.0
 10
216.1060286212657
 20
61.85042549084887
 30
0.0
 10
215.0476251699934
 20
58.39191057473036
 30
0.0
 10
214.4275571954573
 20
56.86316202775963
 30
0.0
 10
213.2936816239887
 20
54.68471491841632
 30
0.0
 10
212.7944594363041
 20
53.91044683386048
 30
0.0
 10
211.8486256572838
 20
52.70488024168337
 30
0.0
 10
211.4032611552689
 20
52.27633314838107
 30
0.0
 10
210.7925822589356
 20
51.81260963196604
 30
0.0
 10
210.5847865086822
 20
51.69655865886483
 30
0.0
 10
210.2716312525978
 20
51.55847159934177
 30
0.0
 10
210.1673699277266
 20
51.53432801633829
 30
0.0
 10
210.052309283247
 20
51.51829181203577
 30
0.0
 10
210.0206292387382
 20
51.51626802832784
 30
0.0
 10
209.9889961119822
 20
51.51626802832784
 30
0.0
  0
SPLINE
  5
7F
330
2
100
AcDbEntity
  8
KIJUN
 62
     7
100
AcDbSpline
210
0.0
220
0.0
230
1.0
 70
     8
 71
     3
 72
    32
 73
    28
 74
     0
 42
0.000000001
 43
0.0000000001
 40
3.59686693970718
 40
3.59686693970718
 40
3.59686693970718
 40
3.59686693970718
 40
3.641326552340912
 40
3.641326552340912
 40
3.764859472407392
 40
3.764859472407392
 40
3.888392392473873
 40
3.888392392473873
 40
4.082074365743073
 40
4.082074365743073
 40
4.275756339012271
 40
4.275756339012271
 40
4.469438312281471
 40
4.469438312281471
 40
4.776376511980708
 40
4.776376511980708
 40
5.083314711679943
 40
5.083314711679943
 40
5.31553407762223
 40
5.31553407762223
 40
5.51698530541886
 40
5.51698530541886
 40
5.663849435721973
 40
5.663849435721973
 40
5.771488857099341
 40
5.771488857099341
 40
5.828201186204997
 40
5.828201186204997
 40
5.828201186204997
 40
5.828201186204997
 10
210.3551306074037
 20
93.95245916128329
 30
0.0
 10
210.4324351939809
 20
93.86929369041748
 30
0.0
 10
210.5140587787171
 20
93.7768332624241
 30
0.0
 10
210.8350979206103
 20
93.39106174548479
 30
0.0
 10
211.0978619587773
 20
93.03319892443258
 30
0.0
 10
211.6380738701225
 20
92.17773968992009
 30
0.0
 10
211.9187785804248
 20
91.67590086698536
 30
0.0
 10
212.63131655807
 20
90.22579948969839
 30
0.0
 10
213.0561471615036
 20
89.18721292582489
 30
0.0
 10
213.8286521253481
 20
86.85607000379269
 30
0.0
 10
214.1771848503082
 20
85.56748278941169
 30
0.0
 10
214.7599882619531
 20
82.81917021738108
 30
0.0
 10
214.9955845041001
 20
81.35721623407958
 30
0.0
 10
215.4355917723183
 20
77.45613338637342
 30
0.0
 10
215.5385511544061
 20
74.94220030758644
 30
0.0
 10
215.3942028971192
 20
69.98087866022202
 30
0.0
 10
215.1463555519618
 20
67.53097628208696
 30
0.0
 10
214.4426762546971
 20
63.55423484814942
 30
0.0
 10
214.0529462156469
 20
61.94470913775326
 30
0.0
 10
213.2131220296648
 20
59.26347538312342
 30
0.0
 10
212.7755640244621
 20
58.14206637673709
 30
0.0
 10
211.9989924759143
 20
56.49595665997633
 30
0.0
 10
211.6647877836437
 20
55.8930547244708
 30
0.0
 10
211.1063140329404
 20
55.01712921934853
 30
0.0
 10
210.8779858922577
 20
54.70100490760657
 30
0.0
 10
210.5592805050007
 20
54.30763787837936
 30
0.0
 10
210.4536555414467
 20
54.18664787189704
 30
0.0
 10
210.3547172904651
 20
54.08030287185233
 30
0.0
  0
SPLINE
  5
80
330
2
100
AcDbEntity
  8
KIJUN
 62
     7
100
AcDbSpline
210
0.0
220
0.0
230
1.0
 70
     8
 71
     3
 72
    34
 73
    30
 74
     0
 42
0.000000001
 43
0.0000000001
 40
0.4553690538741935
 40
0.4553690538741935
 40
0.4553690538741935
 40
0.4553690538741935
 40
0.4987609726723746
 40
0.4987609726723746
 40
0.6213244047107676
 40
0.6213244047107676
 40
0.7438878367491605
 40
0.7438878367491605
 40
0.8664512687875532
 40
0.8664512687875532
 40
1.084017131451554
 40
1.084017131451554
 40
1.301582994115557
 40
1.301582994115557
 40
1.519148856779561
 40
1.519148856779561
 40
1.736714719443563
 40
1.736714719443563
 40
1.954280582107566
 40
1.954280582107566
 40
2.188695221665954
 40
2.188695221665954
 40
2.381976236096857
 40
2.381976236096857
 40
2.524043218796634
 40
2.524043218796634
 40
2.666110201496415
 40
2.666110201496415
 40
2.686225668335985
 40
2.686225668335985
 40
2.686225668335985
 40
2.686225668335985
 10
209.6223841493517
 20
54.08050710566243
 30
0.0
 10
209.5470029606664
 20
54.1616221812523
 30
0.0
 10
209.4676434261107
 20
54.25146845571856
 30
0.0
 10
209.1530166071148
 20
54.62913324924232
 30
0.0
 10
208.8915672286862
 20
54.98545634128544
 30
0.0
 10
208.3525487192215
 20
55.8333791845493
 30
0.0
 10
208.0756799950399
 20
56.32376122309864
 30
0.0
 10
207.5265688558934
 20
57.43642210754928
 30
0.0
 10
207.25427507599
 20
58.05717805975969
 30
0.0
 10
206.5305860473823
 20
59.92934646824863
 30
0.0
 10
206.1058885451289
 20
61.29828612879504
 30
0.0
 10
205.3879577409841
 20
64.28130978405845
 30
0.0
 10
205.0957561176926
 20
65.89299018450439
 30
0.0
 10
204.6741878078179
 20
69.2533779764821
 30
0.0
 10
204.5453626188524
 20
70.99991817716766
 30
0.0
 10
204.4629986770755
 20
74.52171243615016
 30
0.0
 10
204.5084925060533
 20
76.29548101539505
 30
0.0
 10
204.7724779119706
 20
79.75765313382495
 30
0.0
 10
204.9905047647385
 20
81.4488377537244
 30
0.0
 10
205.5971083633636
 20
84.76112157777777
 30
0.0
 10
206.0000698366426
 20
86.36604502944448
 30
0.0
 10
206.8424847895672
 20
88.9747984768732
 30
0.0
 10
207.2625683723067
 20
90.0303433797028
 30
0.0
 10
208.0133221058765
 20
91.59826842838347
 30
0.0
 10
208.3364685018767
 20
92.17886294164449
 30
0.0
 10
208.9566244605344
 20
93.14712869828628
 30
0.0
 10
209.2574043260353
 20
93.54122592479038
 30
0.0
 10
209.5519790994263
 20
93.87532501235618
 30
0.0
 10
209.5876787949177
 20
93.91475239310578
 30
0.0
 10
209.6224827546662
 20
93.95223998516479
 30
0.0
  0
SPLINE
  5
81
330
2
100
AcDbEntity
  8
KIJUN
 62
     7
100
AcDbSpline
210
0.0
220
0.0
230
1.0
 70
     8
 71
     3
 72
    34
 73
    30
 74
     0
 42
0.000000001
 43
0.0000000001
 40
0.4553690538741935
 40
0.4553690538741935
 40
0.4553690538741935
 40
0.4553690538741935
 40
0.4987609726723746
 40
0.4987609726723746
 40
0.6213244047107676
 40
0.6213244047107676
 40
0.7438878367491605
 40
0.7438878367491605
 40
0.8664512687875532
 40
0.8664512687875532
 40
1.084017131451554
 40
1.084017131451554
 40
1.301582994115557
 40
1.301582994115557
 40
1.519148856779561
 40
1.519148856779561
 40
1.736714719443563
 40
1.736714719443563
 40
1.954280582107566
 40
1.954280582107566
 40
2.188695221665954
 40
2.188695221665954
 40
2.381976236096857
 40
2.381976236096857
 40
2.524043218796634
 40
2.524043218796634
 40
2.666110201496415
 40
2.666110201496415
 40
2.686225668335985
 40
2.686225668335985
 40
2.686225668335985
 40
2.686225668335985
 10
181.6223841493517
 20
54.08050710566243
 30
0.0
 10
181.5470029606663
 20
54.1616221812523
 30
0.0
 10
181.4676434261105
 20
54.25146845571856
 30
0.0
 10
181.1530166071147
 20
54.62913324924232
 30
0.0
 10
180.8915672286861
 20
54.98545634128544
 30
0.0
 10
180.3525487192215
 20
55.8333791845493
 30
0.0
 10
180.0756799950399
 20
56.32376122309864
 30
0.0
 10
179.5265688558934
 20
57.43642210754928
 30
0.0
 10
179.2542750759898
 20
58.05717805975969
 30
0.0
 10
178.5305860473824
 20
59.92934646824863
 30
0.0
 10
178.1058885451289
 20
61.29828612879504
 30
0.0
 10
177.387957740984
 20
64.28130978405845
 30
0.0
 10
177.0957561176925
 20
65.89299018450439
 30
0.0
 10
176.674187807818
 20
69.2533779764821
 30
0.0
 10
176.5453626188525
 20
70.99991817716766
 30
0.0
 10
176.4629986770755
 20
74.52171243615016
 30
0.0
 10
176.5084925060534
 20
76.29548101539505
 30
0.0
 10
176.7724779119704
 20
79.75765313382495
 30
0.0
 10
176.9905047647386
 20
81.4488377537244
 30
0.0
 10
177.5971083633636
 20
84.76112157777777
 30
0.0
 10
178.0000698366425
 20
86.36604502944448
 30
0.0
 10
178.8424847895672
 20
88.9747984768732
 30
0.0
 10
179.2625683723067
 20
90.0303433797028
 30
0.0
 10
180.0133221058764
 20
91.59826842838347
 30
0.0
 10
180.3364685018765
 20
92.17886294164449
 30
0.0
 10
180.9566244605344
 20
93.14712869828628
 30
0.0
 10
181.2574043260351
 20
93.54122592479038
 30
0.0
 10
181.5519790994264
 20
93.87532501235618
 30
0.0
 10
181.5876787949177
 20
93.91475239310578
 30
0.0
 10
181.6224827546661
 20
93.95223998516479
 30
0.0
  0
SPLINE
  5
82
330
2
100
AcDbEntity
  8
KIJUN
 62
     7
100
AcDbSpline
210
0.0
220
0.0
230
1.0
 70
     8
 71
     3
 72
    32
 73
    28
 74
     0
 42
0.000000001
 43
0.0000000001
 40
3.59686693970718
 40
3.59686693970718
 40
3.59686693970718
 40
3.59686693970718
 40
3.641326552340912
 40
3.641326552340912
 40
3.764859472407392
 40
3.764859472407392
 40
3.888392392473873
 40
3.888392392473873
 40
4.082074365743073
 40
4.082074365743073
 40
4.275756339012271
 40
4.275756339012271
 40
4.469438312281471
 40
4.469438312281471
 40
4.776376511980708
 40
4.776376511980708
 40
5.083314711679943
 40
5.083314711679943
 40
5.31553407762223
 40
5.31553407762223
 40
5.51698530541886
 40
5.51698530541886
 40
5.663849435721973
 40
5.663849435721973
 40
5.771488857099341
 40
5.771488857099341
 40
5.828201186204997
 40
5.828201186204997
 40
5.828201186204997
 40
5.828201186204997
 10
182.3551306074036
 20
93.95245916128329
 30
0.0
 10
182.4324351939809
 20
93.86929369041748
 30
0.0
 10
182.5140587787169
 20
93.7768332624241
 30
0.0
 10
182.8350979206102
 20
93.39106174548479
 30
0.0
 10
183.0978619587772
 20
93.03319892443258
 30
0.0
 10
183.6380738701223
 20
92.17773968992009
 30
0.0
 10
183.9187785804247
 20
91.67590086698536
 30
0.0
 10
184.63131655807
 20
90.22579948969839
 30
0.0
 10
185.0561471615035
 20
89.18721292582489
 30
0.0
 10
185.8286521253481
 20
86.85607000379269
 30
0.0
 10
186.1771848503081
 20
85.56748278941169
 30
0.0
 10
186.7599882619531
 20
82.81917021738108
 30
0.0
 10
186.9955845041
 20
81.35721623407958
 30
0.0
 10
187.4355917723182
 20
77.45613338637342
 30
0.0
 10
187.5385511544059
 20
74.94220030758644
 30
0.0
 10
187.3942028971191
 20
69.98087866022202
 30
0.0
 10
187.1463555519618
 20
67.53097628208696
 30
0.0
 10
186.4426762546969
 20
63.55423484814942
 30
0.0
 10
186.0529462156469
 20
61.94470913775326
 30
0.0
 10
185.2131220296647
 20
59.26347538312342
 30
0.0
 10
184.7755640244617
 20
58.14206637673709
 30
0.0
 10
183.9989924759143
 20
56.49595665997633
 30
0.0
 10
183.6647877836435
 20
55.8930547244708
 30
0.0
 10
183.1063140329401
 20
55.01712921934853
 30
0.0
 10
182.8779858922575
 20
54.70100490760657
 30
0.0
 10
182.5592805050005
 20
54.30763787837936
 30
0.0
 10
182.4536555414465
 20
54.18664787189704
 30
0.0
 10
182.3547172904651
 20
54.08030287185233
 30
0.0
  0
SPLINE
  5
83
330
2
100
AcDbEntity
  8
KIJUN
 62
     7
100
AcDbSpline
210
0.0
220
0.0
230
1.0
 70
     9
 71
     3
 72
    72
 73
    68
 74
     0
 42
0.000000001
 43
0.0000000001
 40
0.0
 40
0.0
 40
0.0
 40
0.0
 40
0.1196710697449102
 40
0.1196710697449102
 40
0.2393421394898205
 40
0.2393421394898205
 40
0.3590132092347307
 40
0.3590132092347307
 40
0.478684278979641
 40
0.478684278979641
 40
0.7085148400919517
 40
0.7085148400919517
 40
0.9383454012042619
 40
0.9383454012042619
 40
1.168175962316572
 40
1.168175962316572
 40
1.398006523428882
 40
1.398006523428882
 40
1.714616041963529
 40
1.714616041963529
 40
2.031225560498175
 40
2.031225560498175
 40
2.290880207193985
 40
2.290880207193985
 40
2.508092960176158
 40
2.508092960176158
 40
2.689640137284416
 40
2.689640137284416
 40
2.842223396824904
 40
2.842223396824904
 40
2.994806656365392
 40
2.994806656365392
 40
3.119449299308273
 40
3.119449299308273
 40
3.244091942251153
 40
3.244091942251153
 40
3.368734585194035
 40
3.368734585194035
 40
3.493377228136916
 40
3.493377228136916
 40
3.618019871079797
 40
3.618019871079797
 40
3.742662514022678
 40
3.742662514022678
 40
4.003042741597477
 40
4.003042741597477
 40
4.263422969172276
 40
4.263422969172276
 40
4.523803196747079
 40
4.523803196747079
 40
4.784183424321879
 40
4.784183424321879
 40
5.044563651896677
 40
5.044563651896677
 40
5.30494387947148
 40
5.30494387947148
 40
5.565324107046278
 40
5.565324107046278
 40
5.758075355330146
 40
5.758075355330146
 40
5.950826603614013
 40
5.950826603614013
 40
6.085372828640495
 40
6.085372828640495
 40
6.219919053666977
 40
6.219919053666977
 40
6.283185307179584
 40
6.283185307179584
 40
6.283185307179584
 40
6.283185307179584
 10
181.988996111982
 20
51.51626802832784
 30
0.0
 10
181.9291605771093
 20
51.51626802832784
 30
0.0
 10
181.8682647739557
 20
51.52210422256796
 30
0.0
 10
181.6825171133391
 20
51.57124198356854
 30
0.0
 10
181.5571030274873
 20
51.61615980996106
 30
0.0
 10
181.2242395473209
 20
51.79485524808518
 30
0.0
 10
181.0177092364425
 20
51.92936891729317
 30
0.0
 10
180.543141798347
 20
52.3211759118098
 30
0.0
 10
180.2757973073736
 20
52.57829166225151
 30
0.0
 10
179.4485170820976
 20
53.52277040300117
 30
0.0
 10
178.8490296254027
 20
54.39025286799
 30
0.0
 10
177.6954771355744
 20
56.56503276330333
 30
0.0
 10
177.1403845304772
 20
57.8698861854604
 30
0.0
 10
176.1605047423669
 20
60.81136270948622
 30
0.0
 10
175.7349410585071
 20
62.44754252003207
 30
0.0
 10
175.0598485475907
 20
65.93487377124933
 30
0.0
 10
174.8100201344336
 20
67.78590442038508
 30
0.0
 10
174.4520856181276
 20
72.29776468714357
 30
0.0
 10
174.4341926243027
 20
75.00027788394065
 30
0.0
 10
174.7803097637729
 20
80.2582526134442
 30
0.0
 10
175.1446861591771
 20
82.81320347856558
 30
0.0
 10
176.0977287417476
 20
87.04054927685898
 30
0.0
 10
176.6343047673313
 20
88.78887124075509
 30
0.0
 10
177.7403055680549
 20
91.56264746575958
 30
0.0
 10
178.2903105574894
 20
92.65903939806987
 30
0.0
 10
179.3013908822255
 20
94.2928187882252
 30
0.0
 10
179.761946445375
 20
94.89147615026869
 30
0.0
 10
180.5310183729084
 20
95.71286344065079
 30
0.0
 10
180.8507854089135
 20
95.97972847817608
 30
0.0
 10
181.3718202497371
 20
96.33352136254899
 30
0.0
 10
181.5700604293956
 20
96.4210933053441
 30
0.0
 10
181.8194787891929
 20
96.50222127847241
 30
0.0
 10
181.8919616117787
 20
96.51235218039698
 30
0.0
 10
182.0191481155412
 20
96.51854913206427
 30
0.0
 10
182.0763463443295
 20
96.51517409736641
 30
0.0
 10
182.2525339385825
 20
96.4753043474451
 30
0.0
 10
182.3726159885168
 20
96.4369127420308
 30
0.0
 10
182.7026637762087
 20
96.2690876170717
 30
0.0
 10
182.9115806507411
 20
96.13858828143907
 30
0.0
 10
183.3982174056941
 20
95.74562190489807
 30
0.0
 10
183.6750481680152
 20
95.48333318309628
 30
0.0
 10
184.2638503136881
 20
94.8148237909012
 30
0.0
 10
184.5755592596348
 20
94.40897250200057
 30
0.0
 10
185.5485640084722
 20
92.94113759315299
 30
0.0
 10
186.2172843821588
 20
91.64470032807388
 30
0.0
 10
187.4144215392975
 20
88.5765216204089
 30
0.0
 10
187.9446682407201
 20
86.8063253725016
 30
0.0
 10
188.7872250164979
 20
82.9588779595805
 30
0.0
 10
189.100232446082
 20
80.88190076145279
 30
0.0
 10
189.4719364918561
 20
76.59721122404238
 30
0.0
 10
189.530816961717
 20
74.38968878289816
 30
0.0
 10
189.388111315147
 20
70.02426991091891
 30
0.0
 10
189.1864618395126
 20
67.86656883990456
 30
0.0
 10
188.545623327323
 20
63.77954699115065
 30
0.0
 10
188.1060286212657
 20
61.85042549084887
 30
0.0
 10
187.0476251699935
 20
58.39191057473036
 30
0.0
 10
186.4275571954572
 20
56.86316202775963
 30
0.0
 10
185.2936816239887
 20
54.68471491841632
 30
0.0
 10
184.7944594363039
 20
53.91044683386048
 30
0.0
 10
183.8486256572839
 20
52.70488024168337
 30
0.0
 10
183.4032611552689
 20
52.27633314838107
 30
0.0
 10
182.7925822589354
 20
51.81260963196604
 30
0.0
 10
182.5847865086821
 20
51.69655865886483
 30
0.0
 10
182.2716312525976
 20
51.55847159934177
 30
0.0
 10
182.1673699277266
 20
51.53432801633829
 30
0.0
 10
182.052309283247
 20
51.51829181203577
 30
0.0
 10
182.020629238738
 20
51.51626802832784
 30
0.0
 10
181.988996111982
 20
51.51626802832784
 30
0.0
  0
ELLIPSE
  5
84
330
2
100
AcDbEntity
  8
KIJUN
 62
     7
100
AcDbEllipse
 10
181.988996111982
 20
74.01626802832783
 30
0.0
 11
0.0
 21
-27.5
 31
0.0
210
0.0
220
0.0
230
-1.0
 40
0.4545454545454545
 41
0.0
 42
6.283185307179584
  0
DIMENSION
  5
85
330
2
100
AcDbEntity
  8
SUNPOU
100
AcDbDimension
  2
*D2
 10
8.201334944708776
 20
120.0162680283278
 30
0.0
 11
4.201334944708754
 21
70.0162680283278
 31
0.0
 71
     5
 42
99.99999999999998
  3
STANDARD$0
100
AcDbAlignedDimension
 13
21.03030634040004
 23
20.01626802832781
 33
0.0
 14
21.03030634040004
 24
120.0162680283278
 34
0.0
 50
90.0
100
AcDbRotatedDimension
1001
ACAD
1000
DSTYLE
1002
{
1070
    41
1040
0.5
1070
    42
1040
1.0
1070
    44
1040
0.0
1070
    77
1070
     1
1070
    78
1070
     0
1070
   140
1040
2.0
1070
   141
1040
1.0
1070
   146
1040
0.0642857142857143
1070
   172
1070
     0
1070
   176
1070
    60
1070
   177
1070
    70
1070
   178
1070
    60
1070
   271
1070
     0
1070
   272
1070
     0
1070
   341
1005
0
1002
}
  0
LINE
  5
9B
330
2
100
AcDbEntity
  8
KIJUN
 62
     7
100
AcDbLine
 10
97.98864560425618
 20
39.81626802832824
 30
0.0
 11
321.9893466197086
 21
39.81626802832754
 31
0.0
  0
LINE
  5
9C
330
2
100
AcDbEntity
  8
KIJUN
 62
     7
100
AcDbLine
 10
97.98864560425618
 20
43.2162680283274
 30
0.0
 11
321.9893466197086
 21
43.21626802832695
 31
0.0
  0
LINE
  5
9D
330
2
100
AcDbEntity
  8
KIJUN
 62
     7
100
AcDbLine
 10
97.98864560425618
 20
20.0162680283276
 30
0.0
 11
321.9893466197086
 21
20.0162680283276
 31
0.0
  0
CIRCLE
  5
9E
330
2
100
AcDbEntity
  8
KIJUN
 62
     7
100
AcDbCircle
 10
167.9888208581192
 20
53.21821626685363
 30
0.0
 40
2.499999999999999
  0
CIRCLE
  5
9F
330
2
100
AcDbEntity
  8
KIJUN
 62
     7
100
AcDbCircle
 10
164.5936954433505
 20
48.3303683208391
 30
0.0
 40
2.499999999999999
  0
LINE
  5
A0
330
2
100
AcDbEntity
  8
KIJUN
 62
     7
100
AcDbLine
 10
97.98864560425652
 20
45.01626802832805
 30
0.0
 11
321.9893466197086
 21
45.0162680283276
 31
0.0
  0
LINE
  5
A1
330
2
100
AcDbEntity
  8
KIJUN
 62
     7
100
AcDbLine
 10
321.9893466197086
 20
38.01626802832828
 30
0.0
 11
97.98864560425652
 21
38.01626802832737
 31
0.0
  0
CIRCLE
  5
A2
330
2
100
AcDbEntity
  8
KIJUN
 62
     7
100
AcDbCircle
 10
255.3842967806136
 20
48.3303683208391
 30
0.0
 40
2.499999999999999
  0
ARC
  5
A3
330
2
100
AcDbEntity
  8
KIJUN
 62
     7
100
AcDbCircle
 10
293.9891714330146
 20
54.42087822289518
 30
0.0
 40
0.5
100
AcDbArc
 50
222.9016711240767
 51
317.0663714669591
  0
CIRCLE
  5
A4
330
2
100
AcDbEntity
  8
KIJUN
 62
     7
100
AcDbCircle
 10
304.5943964588019
 20
48.3303683208391
 30
0.0
 40
2.499999999999999
  0
CIRCLE
  5
A5
330
2
100
AcDbEntity
  8
KIJUN
 62
     7
100
AcDbCircle
 10
311.3846472883393
 20
48.3303683208391
 30
0.0
 40
2.499999999999999
  0
CIRCLE
  5
A6
330
2
100
AcDbEntity
  8
KIJUN
 62
     7
100
AcDbCircle
 10
307.9895218735706
 20
53.21821626685363
 30
0.0
 40
2.499999999999999
  0
ARC
  5
A7
330
2
100
AcDbEntity
  8
KIJUN
 62
     7
100
AcDbCircle
 10
265.9888209252891
 20
54.42087822289518
 30
0.0
 40
0.5
100
AcDbArc
 50
222.9016711240767
 51
317.0663714669591
  0
CIRCLE
  5
A8
330
2
100
AcDbEntity
  8
KIJUN
 62
     7
100
AcDbCircle
 10
283.3844720344765
 20
48.3303683208391
 30
0.0
 40
2.499999999999999
  0
CIRCLE
  5
A9
330
2
100
AcDbEntity
  8
KIJUN
 62
     7
100
AcDbCircle
 10
279.9893466197078
 20
53.21821626685363
 30
0.0
 40
2.499999999999999
  0
CIRCLE
  5
AA
330
2
100
AcDbEntity
  8
KIJUN
 62
     7
100
AcDbCircle
 10
276.5942212049391
 20
48.3303683208391
 30
0.0
 40
2.499999999999999
  0
ARC
  5
AB
330
2
100
AcDbEntity
  8
KIJUN
 62
     7
100
AcDbCircle
 10
265.9896970602635
 20
54.42087822289518
 30
0.0
 40
0.5
100
AcDbArc
 50
222.9336285330408
 51
317.0983288759233
  0
LINE
  5
AC
330
2
100
AcDbEntity
  8
KIJUN
 62
     7
100
AcDbLine
 10
297.2389961119821
 20
39.81626802833484
 30
0.0
 11
297.2389961119821
 21
43.216268028334
 31
0.0
  0
LINE
  5
AD
330
2
100
AcDbEntity
  8
KIJUN
 62
     7
100
AcDbLine
 10
299.2389961119821
 20
39.81626802833484
 30
0.0
 11
299.2389961119821
 21
43.216268028334
 31
0.0
  0
LINE
  5
AE
330
2
100
AcDbEntity
  8
KIJUN
 62
     7
100
AcDbLine
 10
301.2389961119821
 20
39.81626802833484
 30
0.0
 11
301.2389961119821
 21
43.216268028334
 31
0.0
  0
LINE
  5
AF
330
2
100
AcDbEntity
  8
KIJUN
 62
     7
100
AcDbLine
 10
290.7389961119821
 20
39.81626802833437
 30
0.0
 11
290.7389961119821
 21
43.21626802833355
 31
0.0
  0
LINE
  5
B0
330
2
100
AcDbEntity
  8
KIJUN
 62
     7
100
AcDbLine
 10
292.7389961119821
 20
39.81626802833437
 30
0.0
 11
292.7389961119821
 21
43.21626802833355
 31
0.0
  0
LINE
  5
B1
330
2
100
AcDbEntity
  8
KIJUN
 62
     7
100
AcDbLine
 10
294.7389961119821
 20
39.81626802833437
 30
0.0
 11
294.7389961119821
 21
43.21626802833355
 31
0.0
  0
LINE
  5
B2
330
2
100
AcDbEntity
  8
KIJUN
 62
     7
100
AcDbLine
 10
258.238996111982
 20
39.8162680283321
 30
0.0
 11
258.238996111982
 21
43.21626802833127
 31
0.0
  0
LINE
  5
B3
330
2
100
AcDbEntity
  8
KIJUN
 62
     7
100
AcDbLine
 10
260.238996111982
 20
39.8162680283321
 30
0.0
 11
260.238996111982
 21
43.21626802833127
 31
0.0
  0
LINE
  5
B4
330
2
100
AcDbEntity
  8
KIJUN
 62
     7
100
AcDbLine
 10
262.238996111982
 20
39.8162680283321
 30
0.0
 11
262.238996111982
 21
43.21626802833127
 31
0.0
  0
LINE
  5
B5
330
2
100
AcDbEntity
  8
KIJUN
 62
     7
100
AcDbLine
 10
268.7389961119821
 20
39.81626802833257
 30
0.0
 11
268.7389961119821
 21
43.21626802833174
 31
0.0
  0
LINE
  5
B6
330
2
100
AcDbEntity
  8
KIJUN
 62
     7
100
AcDbLine
 10
266.7389961119821
 20
39.81626802833257
 30
0.0
 11
266.7389961119821
 21
43.21626802833174
 31
0.0
  0
LINE
  5
B7
330
2
100
AcDbEntity
  8
KIJUN
 62
     7
100
AcDbLine
 10
264.738996111982
 20
39.81626802833257
 30
0.0
 11
264.738996111982
 21
43.21626802833174
 31
0.0
  0
LINE
  5
B8
330
2
100
AcDbEntity
  8
KIJUN
 62
     7
100
AcDbLine
 10
277.7389961119821
 20
39.81626802833348
 30
0.0
 11
277.7389961119821
 21
43.21626802833264
 31
0.0
  0
LINE
  5
B9
330
2
100
AcDbEntity
  8
KIJUN
 62
     7
100
AcDbLine
 10
279.7389961119821
 20
39.81626802833348
 30
0.0
 11
279.7389961119821
 21
43.21626802833264
 31
0.0
  0
LINE
  5
BA
330
2
100
AcDbEntity
  8
KIJUN
 62
     7
100
AcDbLine
 10
281.7389961119821
 20
39.81626802833348
 30
0.0
 11
281.7389961119821
 21
43.21626802833264
 31
0.0
  0
LINE
  5
BB
330
2
100
AcDbEntity
  8
KIJUN
 62
     7
100
AcDbLine
 10
275.2389961119821
 20
39.81626802833303
 30
0.0
 11
275.2389961119821
 21
43.2162680283322
 31
0.0
  0
LINE
  5
BC
330
2
100
AcDbEntity
  8
KIJUN
 62
     7
100
AcDbLine
 10
273.2389961119821
 20
39.81626802833303
 30
0.0
 11
273.2389961119821
 21
43.2162680283322
 31
0.0
  0
LINE
  5
BD
330
2
100
AcDbEntity
  8
KIJUN
 62
     7
100
AcDbLine
 10
271.2389961119821
 20
39.81626802833303
 30
0.0
 11
271.2389961119821
 21
43.2162680283322
 31
0.0
  0
LINE
  5
BE
330
2
100
AcDbEntity
  8
KIJUN
 62
     7
100
AcDbLine
 10
288.2389961119821
 20
39.81626802833392
 30
0.0
 11
288.2389961119821
 21
43.2162680283331
 31
0.0
  0
LINE
  5
BF
330
2
100
AcDbEntity
  8
KIJUN
 62
     7
100
AcDbLine
 10
286.2389961119821
 20
39.81626802833392
 30
0.0
 11
286.2389961119821
 21
43.2162680283331
 31
0.0
  0
LINE
  5
C0
330
2
100
AcDbEntity
  8
KIJUN
 62
     7
100
AcDbLine
 10
284.2389961119821
 20
39.81626802833392
 30
0.0
 11
284.2389961119821
 21
43.2162680283331
 31
0.0
  0
ARC
  5
C1
330
2
100
AcDbEntity
  8
KIJUN
 62
     7
100
AcDbCircle
 10
237.9893465525379
 20
54.42087822289518
 30
0.0
 40
0.5
100
AcDbArc
 50
222.9336285330408
 51
317.0983288759233
  0
CIRCLE
  5
C2
330
2
100
AcDbEntity
  8
KIJUN
 62
     7
100
AcDbCircle
 10
223.9889961119821
 20
53.21821626685363
 30
0.0
 40
2.499999999999999
  0
CIRCLE
  5
C3
330
2
100
AcDbEntity
  8
KIJUN
 62
     7
100
AcDbCircle
 10
220.5938706972134
 20
48.3303683208391
 30
0.0
 40
2.499999999999999
  0
CIRCLE
  5
C4
330
2
100
AcDbEntity
  8
KIJUN
 62
     7
100
AcDbCircle
 10
227.3841215267509
 20
48.3303683208391
 30
0.0
 40
2.499999999999999
  0
CIRCLE
  5
C5
330
2
100
AcDbEntity
  8
KIJUN
 62
     7
100
AcDbCircle
 10
251.9891713658449
 20
53.21821626685363
 30
0.0
 40
2.499999999999999
  0
CIRCLE
  5
C6
330
2
100
AcDbEntity
  8
KIJUN
 62
     7
100
AcDbCircle
 10
248.5940459510761
 20
48.3303683208391
 30
0.0
 40
2.499999999999999
  0
LINE
  5
C7
330
2
100
AcDbEntity
  8
KIJUN
 62
     7
100
AcDbLine
 10
236.2389961119821
 20
39.81626802833029
 30
0.0
 11
236.2389961119821
 21
43.21626802832946
 31
0.0
  0
LINE
  5
C8
330
2
100
AcDbEntity
  8
KIJUN
 62
     7
100
AcDbLine
 10
238.7389961119822
 20
39.81626802833073
 30
0.0
 11
238.7389961119822
 21
43.2162680283299
 31
0.0
  0
LINE
  5
C9
330
2
100
AcDbEntity
  8
KIJUN
 62
     7
100
AcDbLine
 10
229.7389961119821
 20
39.81626802832983
 30
0.0
 11
229.7389961119821
 21
43.21626802832901
 31
0.0
  0
LINE
  5
CA
330
2
100
AcDbEntity
  8
KIJUN
 62
     7
100
AcDbLine
 10
232.2389961119821
 20
39.81626802833029
 30
0.0
 11
232.2389961119821
 21
43.21626802832946
 31
0.0
  0
LINE
  5
CB
330
2
100
AcDbEntity
  8
KIJUN
 62
     7
100
AcDbLine
 10
223.2389961119823
 20
39.81626802832938
 30
0.0
 11
223.2389961119823
 21
43.21626802832854
 31
0.0
  0
LINE
  5
CC
330
2
100
AcDbEntity
  8
KIJUN
 62
     7
100
AcDbLine
 10
225.7389961119821
 20
39.81626802832983
 30
0.0
 11
225.7389961119821
 21
43.21626802832901
 31
0.0
  0
LINE
  5
CD
330
2
100
AcDbEntity
  8
KIJUN
 62
     7
100
AcDbLine
 10
219.2389961119821
 20
39.81626802832938
 30
0.0
 11
219.2389961119821
 21
43.21626802832854
 31
0.0
  0
LINE
  5
CE
330
2
100
AcDbEntity
  8
KIJUN
 62
     7
100
AcDbLine
 10
234.2389961119821
 20
39.81626802833029
 30
0.0
 11
234.2389961119821
 21
43.21626802832946
 31
0.0
  0
LINE
  5
CF
330
2
100
AcDbEntity
  8
KIJUN
 62
     7
100
AcDbLine
 10
242.7389961119821
 20
39.81626802833073
 30
0.0
 11
242.7389961119821
 21
43.2162680283299
 31
0.0
  0
LINE
  5
D0
330
2
100
AcDbEntity
  8
KIJUN
 62
     7
100
AcDbLine
 10
240.7389961119822
 20
39.81626802833073
 30
0.0
 11
240.7389961119822
 21
43.2162680283299
 31
0.0
  0
LINE
  5
D1
330
2
100
AcDbEntity
  8
KIJUN
 62
     7
100
AcDbLine
 10
251.7389961119821
 20
39.81626802833165
 30
0.0
 11
251.7389961119821
 21
43.21626802833082
 31
0.0
  0
LINE
  5
D2
330
2
100
AcDbEntity
  8
KIJUN
 62
     7
100
AcDbLine
 10
253.7389961119821
 20
39.81626802833165
 30
0.0
 11
253.7389961119821
 21
43.21626802833082
 31
0.0
  0
LINE
  5
D3
330
2
100
AcDbEntity
  8
KIJUN
 62
     7
100
AcDbLine
 10
255.7389961119821
 20
39.81626802833165
 30
0.0
 11
255.7389961119821
 21
43.21626802833082
 31
0.0
  0
LINE
  5
D4
330
2
100
AcDbEntity
  8
KIJUN
 62
     7
100
AcDbLine
 10
249.2389961119822
 20
39.81626802833119
 30
0.0
 11
249.2389961119822
 21
43.21626802833036
 31
0.0
  0
LINE
  5
D5
330
2
100
AcDbEntity
  8
KIJUN
 62
     7
100
AcDbLine
 10
247.2389961119822
 20
39.81626802833119
 30
0.0
 11
247.2389961119822
 21
43.21626802833036
 31
0.0
  0
LINE
  5
D6
330
2
100
AcDbEntity
  8
KIJUN
 62
     7
100
AcDbLine
 10
245.2389961119821
 20
39.81626802833119
 30
0.0
 11
245.2389961119821
 21
43.21626802833036
 31
0.0
  0
LINE
  5
D7
330
2
100
AcDbEntity
  8
KIJUN
 62
     7
100
AcDbLine
 10
221.2389961119823
 20
39.81626802832938
 30
0.0
 11
221.2389961119823
 21
43.21626802832854
 31
0.0
  0
LINE
  5
D8
330
2
100
AcDbEntity
  8
KIJUN
 62
     7
100
AcDbLine
 10
227.7389961119821
 20
39.81626802832983
 30
0.0
 11
227.7389961119821
 21
43.21626802832901
 31
0.0
  0
LINE
  5
D9
330
2
100
AcDbEntity
  8
KIJUN
 62
     7
100
AcDbLine
 10
216.7389961119823
 20
39.81626802832893
 30
0.0
 11
216.7389961119823
 21
43.2162680283281
 31
0.0
  0
LINE
  5
DA
330
2
100
AcDbEntity
  8
KIJUN
 62
     7
100
AcDbLine
 10
214.7389961119823
 20
39.81626802832893
 30
0.0
 11
214.7389961119823
 21
43.2162680283281
 31
0.0
  0
CIRCLE
  5
DB
330
2
100
AcDbEntity
  8
KIJUN
 62
     7
100
AcDbCircle
 10
171.383946272888
 20
48.3303683208391
 30
0.0
 40
2.499999999999999
  0
LINE
  5
DC
330
2
100
AcDbEntity
  8
KIJUN
 62
     7
100
AcDbLine
 10
212.2389961119822
 20
39.81626802832847
 30
0.0
 11
212.2389961119822
 21
43.21626802832764
 31
0.0
  0
LINE
  5
DD
330
2
100
AcDbEntity
  8
KIJUN
 62
     7
100
AcDbLine
 10
205.7389961119821
 20
39.81626802832893
 30
0.0
 11
205.7389961119821
 21
43.2162680283281
 31
0.0
  0
LINE
  5
DE
330
2
100
AcDbEntity
  8
KIJUN
 62
     7
100
AcDbLine
 10
192.7389961119821
 20
39.81626802832983
 30
0.0
 11
192.7389961119821
 21
43.21626802832901
 31
0.0
  0
LINE
  5
DF
330
2
100
AcDbEntity
  8
KIJUN
 62
     7
100
AcDbLine
 10
199.2389961119821
 20
39.81626802832938
 30
0.0
 11
199.2389961119821
 21
43.21626802832854
 31
0.0
  0
LINE
  5
E0
330
2
100
AcDbEntity
  8
KIJUN
 62
     7
100
AcDbLine
 10
175.2389961119821
 20
39.81626802833119
 30
0.0
 11
175.2389961119821
 21
43.21626802833036
 31
0.0
  0
LINE
  5
E1
330
2
100
AcDbEntity
  8
KIJUN
 62
     7
100
AcDbLine
 10
173.238996111982
 20
39.81626802833119
 30
0.0
 11
173.238996111982
 21
43.21626802833036
 31
0.0
  0
LINE
  5
E2
330
2
100
AcDbEntity
  8
KIJUN
 62
     7
100
AcDbLine
 10
171.2389961119821
 20
39.81626802833119
 30
0.0
 11
171.2389961119821
 21
43.21626802833036
 31
0.0
  0
LINE
  5
E3
330
2
100
AcDbEntity
  8
KIJUN
 62
     7
100
AcDbLine
 10
166.7389961119821
 20
39.81626802833165
 30
0.0
 11
166.7389961119821
 21
43.21626802833082
 31
0.0
  0
LINE
  5
E4
330
2
100
AcDbEntity
  8
KIJUN
 62
     7
100
AcDbLine
 10
168.7389961119821
 20
39.81626802833165
 30
0.0
 11
168.7389961119821
 21
43.21626802833082
 31
0.0
  0
LINE
  5
E5
330
2
100
AcDbEntity
  8
KIJUN
 62
     7
100
AcDbLine
 10
179.7389961119821
 20
39.81626802833073
 30
0.0
 11
179.7389961119821
 21
43.2162680283299
 31
0.0
  0
LINE
  5
E6
330
2
100
AcDbEntity
  8
KIJUN
 62
     7
100
AcDbLine
 10
177.738996111982
 20
39.81626802833073
 30
0.0
 11
177.738996111982
 21
43.2162680283299
 31
0.0
  0
LINE
  5
E7
330
2
100
AcDbEntity
  8
KIJUN
 62
     7
100
AcDbLine
 10
186.238996111982
 20
39.81626802833029
 30
0.0
 11
186.238996111982
 21
43.21626802832946
 31
0.0
  0
LINE
  5
E8
330
2
100
AcDbEntity
  8
KIJUN
 62
     7
100
AcDbLine
 10
207.7389961119821
 20
39.81626802832893
 30
0.0
 11
207.7389961119821
 21
43.2162680283281
 31
0.0
  0
LINE
  5
E9
330
2
100
AcDbEntity
  8
KIJUN
 62
     7
100
AcDbLine
 10
210.2389961119822
 20
39.81626802832847
 30
0.0
 11
210.2389961119822
 21
43.21626802832764
 31
0.0
  0
LINE
  5
EA
330
2
100
AcDbEntity
  8
KIJUN
 62
     7
100
AcDbLine
 10
201.2389961119822
 20
39.81626802832938
 30
0.0
 11
201.2389961119822
 21
43.21626802832854
 31
0.0
  0
LINE
  5
EB
330
2
100
AcDbEntity
  8
KIJUN
 62
     7
100
AcDbLine
 10
203.7389961119821
 20
39.81626802832893
 30
0.0
 11
203.7389961119821
 21
43.2162680283281
 31
0.0
  0
LINE
  5
EC
330
2
100
AcDbEntity
  8
KIJUN
 62
     7
100
AcDbLine
 10
194.7389961119821
 20
39.81626802832983
 30
0.0
 11
194.7389961119821
 21
43.21626802832901
 31
0.0
  0
LINE
  5
ED
330
2
100
AcDbEntity
  8
KIJUN
 62
     7
100
AcDbLine
 10
197.2389961119821
 20
39.81626802832938
 30
0.0
 11
197.2389961119821
 21
43.21626802832854
 31
0.0
  0
LINE
  5
EE
330
2
100
AcDbEntity
  8
KIJUN
 62
     7
100
AcDbLine
 10
188.238996111982
 20
39.81626802833029
 30
0.0
 11
188.238996111982
 21
43.21626802832946
 31
0.0
  0
LINE
  5
EF
330
2
100
AcDbEntity
  8
KIJUN
 62
     7
100
AcDbLine
 10
190.7389961119821
 20
39.81626802832983
 30
0.0
 11
190.7389961119821
 21
43.21626802832901
 31
0.0
  0
LINE
  5
F0
330
2
100
AcDbEntity
  8
KIJUN
 62
     7
100
AcDbLine
 10
181.738996111982
 20
39.81626802833073
 30
0.0
 11
181.738996111982
 21
43.2162680283299
 31
0.0
  0
LINE
  5
F1
330
2
100
AcDbEntity
  8
KIJUN
 62
     7
100
AcDbLine
 10
184.238996111982
 20
39.81626802833029
 30
0.0
 11
184.238996111982
 21
43.21626802832946
 31
0.0
  0
CIRCLE
  5
F2
330
2
100
AcDbEntity
  8
KIJUN
 62
     7
100
AcDbCircle
 10
192.5938706972134
 20
48.3303683208391
 30
0.0
 40
2.499999999999999
  0
CIRCLE
  5
F3
330
2
100
AcDbEntity
  8
KIJUN
 62
     7
100
AcDbCircle
 10
199.3841215267507
 20
48.3303683208391
 30
0.0
 40
2.499999999999999
  0
CIRCLE
  5
F4
330
2
100
AcDbEntity
  8
KIJUN
 62
     7
100
AcDbCircle
 10
195.9889961119821
 20
53.21821626685363
 30
0.0
 40
2.499999999999999
  0
ARC
  5
F5
330
2
100
AcDbEntity
  8
KIJUN
 62
     7
100
AcDbCircle
 10
209.9886456714262
 20
54.42087822289518
 30
0.0
 40
0.5
100
AcDbArc
 50
222.9016711240767
 51
317.0663714669593
  0
ARC
  5
F6
330
2
100
AcDbEntity
  8
KIJUN
 62
     7
100
AcDbCircle
 10
181.9886456714261
 20
54.42087822289518
 30
0.0
 40
0.5
100
AcDbArc
 50
222.9016711240767
 51
317.0663714669593
  0
LINE
  5
F7
330
2
100
AcDbEntity
  8
KIJUN
 62
     7
100
AcDbLine
 10
103.7389961119821
 20
39.81626802833437
 30
0.0
 11
103.7389961119821
 21
43.21626802833355
 31
0.0
  0
LINE
  5
F8
330
2
100
AcDbEntity
  8
KIJUN
 62
     7
100
AcDbLine
 10
101.7389961119821
 20
39.81626802833437
 30
0.0
 11
101.7389961119821
 21
43.21626802833355
 31
0.0
  0
LINE
  5
F9
330
2
100
AcDbEntity
  8
KIJUN
 62
     7
100
AcDbLine
 10
99.73899611198213
 20
39.81626802833437
 30
0.0
 11
99.73899611198213
 21
43.21626802833355
 31
0.0
  0
LINE
  5
FA
330
2
100
AcDbEntity
  8
KIJUN
 62
     7
100
AcDbLine
 10
116.7389961119821
 20
39.81626802833348
 30
0.0
 11
116.7389961119821
 21
43.21626802833264
 31
0.0
  0
LINE
  5
FB
330
2
100
AcDbEntity
  8
KIJUN
 62
     7
100
AcDbLine
 10
114.738996111982
 20
39.81626802833348
 30
0.0
 11
114.738996111982
 21
43.21626802833264
 31
0.0
  0
LINE
  5
FC
330
2
100
AcDbEntity
  8
KIJUN
 62
     7
100
AcDbLine
 10
112.738996111982
 20
39.81626802833348
 30
0.0
 11
112.738996111982
 21
43.21626802833264
 31
0.0
  0
LINE
  5
FD
330
2
100
AcDbEntity
  8
KIJUN
 62
     7
100
AcDbLine
 10
106.2389961119821
 20
39.81626802833392
 30
0.0
 11
106.2389961119821
 21
43.2162680283331
 31
0.0
  0
LINE
  5
FE
330
2
100
AcDbEntity
  8
KIJUN
 62
     7
100
AcDbLine
 10
108.2389961119821
 20
39.81626802833392
 30
0.0
 11
108.2389961119821
 21
43.2162680283331
 31
0.0
  0
LINE
  5
FF
330
2
100
AcDbEntity
  8
KIJUN
 62
     7
100
AcDbLine
 10
110.2389961119821
 20
39.81626802833392
 30
0.0
 11
110.2389961119821
 21
43.2162680283331
 31
0.0
  0
CIRCLE
  5
100
330
2
100
AcDbEntity
  8
KIJUN
 62
     7
100
AcDbCircle
 10
111.9884703503937
 20
53.21821626685363
 30
0.0
 40
2.499999999999999
  0
CIRCLE
  5
101
330
2
100
AcDbEntity
  8
KIJUN
 62
     7
100
AcDbCircle
 10
108.5933449356249
 20
48.3303683208391
 30
0.0
 40
2.499999999999999
  0
CIRCLE
  5
102
330
2
100
AcDbEntity
  8
KIJUN
 62
     7
100
AcDbCircle
 10
115.3835957651624
 20
48.3303683208391
 30
0.0
 40
2.499999999999999
  0
ARC
  5
103
330
2
100
AcDbEntity
  8
KIJUN
 62
     7
100
AcDbCircle
 10
125.9888207909494
 20
54.42087822289518
 30
0.0
 40
0.5
100
AcDbArc
 50
222.9336285330408
 51
317.0983288759233
  0
ARC
  5
104
330
2
100
AcDbEntity
  8
KIJUN
 62
     7
100
AcDbCircle
 10
153.9882951637006
 20
54.42087822289518
 30
0.0
 40
0.5
100
AcDbArc
 50
222.9016711240767
 51
317.0663714669591
  0
CIRCLE
  5
105
330
2
100
AcDbEntity
  8
KIJUN
 62
     7
100
AcDbCircle
 10
143.3837710190251
 20
48.3303683208391
 30
0.0
 40
2.499999999999999
  0
CIRCLE
  5
106
330
2
100
AcDbEntity
  8
KIJUN
 62
     7
100
AcDbCircle
 10
139.9886456042564
 20
53.21821626685363
 30
0.0
 40
2.499999999999999
  0
CIRCLE
  5
107
330
2
100
AcDbEntity
  8
KIJUN
 62
     7
100
AcDbCircle
 10
136.5935201894876
 20
48.3303683208391
 30
0.0
 40
2.499999999999999
  0
ARC
  5
108
330
2
100
AcDbEntity
  8
KIJUN
 62
     7
100
AcDbCircle
 10
97.98882079094953
 20
54.42087822289518
 30
0.0
 40
0.5
100
AcDbArc
 50
269.9799250832644
 51
317.0983288759233
  0
ARC
  5
109
330
2
100
AcDbEntity
  8
KIJUN
 62
     7
100
AcDbCircle
 10
153.9891712986751
 20
54.42087822289518
 30
0.0
 40
0.5
100
AcDbArc
 50
222.9336285330408
 51
317.0983288759233
  0
LINE
  5
10A
330
2
100
AcDbEntity
  8
KIJUN
 62
     7
100
AcDbLine
 10
164.7389961119821
 20
39.81626802833165
 30
0.0
 11
164.7389961119821
 21
43.21626802833082
 31
0.0
  0
LINE
  5
10B
330
2
100
AcDbEntity
  8
KIJUN
 62
     7
100
AcDbLine
 10
136.2389961119821
 20
39.81626802833392
 30
0.0
 11
136.2389961119821
 21
43.2162680283331
 31
0.0
  0
LINE
  5
10C
330
2
100
AcDbEntity
  8
KIJUN
 62
     7
100
AcDbLine
 10
134.2389961119821
 20
39.81626802833392
 30
0.0
 11
134.2389961119821
 21
43.2162680283331
 31
0.0
  0
LINE
  5
10D
330
2
100
AcDbEntity
  8
KIJUN
 62
     7
100
AcDbLine
 10
132.2389961119821
 20
39.81626802833392
 30
0.0
 11
132.2389961119821
 21
43.2162680283331
 31
0.0
  0
LINE
  5
10E
330
2
100
AcDbEntity
  8
KIJUN
 62
     7
100
AcDbLine
 10
125.7389961119821
 20
39.81626802833437
 30
0.0
 11
125.7389961119821
 21
43.21626802833355
 31
0.0
  0
LINE
  5
10F
330
2
100
AcDbEntity
  8
KIJUN
 62
     7
100
AcDbLine
 10
127.7389961119821
 20
39.81626802833437
 30
0.0
 11
127.7389961119821
 21
43.21626802833355
 31
0.0
  0
LINE
  5
110
330
2
100
AcDbEntity
  8
KIJUN
 62
     7
100
AcDbLine
 10
129.7389961119821
 20
39.81626802833437
 30
0.0
 11
129.7389961119821
 21
43.21626802833355
 31
0.0
  0
LINE
  5
111
330
2
100
AcDbEntity
  8
KIJUN
 62
     7
100
AcDbLine
 10
119.2389961119821
 20
39.81626802833484
 30
0.0
 11
119.2389961119821
 21
43.216268028334
 31
0.0
  0
LINE
  5
112
330
2
100
AcDbEntity
  8
KIJUN
 62
     7
100
AcDbLine
 10
121.2389961119821
 20
39.81626802833484
 30
0.0
 11
121.2389961119821
 21
43.216268028334
 31
0.0
  0
LINE
  5
113
330
2
100
AcDbEntity
  8
KIJUN
 62
     7
100
AcDbLine
 10
123.2389961119821
 20
39.81626802833484
 30
0.0
 11
123.2389961119821
 21
43.216268028334
 31
0.0
  0
LINE
  5
114
330
2
100
AcDbEntity
  8
KIJUN
 62
     7
100
AcDbLine
 10
149.2389961119821
 20
39.81626802833303
 30
0.0
 11
149.2389961119821
 21
43.2162680283322
 31
0.0
  0
LINE
  5
115
330
2
100
AcDbEntity
  8
KIJUN
 62
     7
100
AcDbLine
 10
147.2389961119821
 20
39.81626802833303
 30
0.0
 11
147.2389961119821
 21
43.2162680283322
 31
0.0
  0
LINE
  5
116
330
2
100
AcDbEntity
  8
KIJUN
 62
     7
100
AcDbLine
 10
145.238996111982
 20
39.81626802833303
 30
0.0
 11
145.238996111982
 21
43.2162680283322
 31
0.0
  0
LINE
  5
117
330
2
100
AcDbEntity
  8
KIJUN
 62
     7
100
AcDbLine
 10
138.7389961119821
 20
39.81626802833348
 30
0.0
 11
138.7389961119821
 21
43.21626802833264
 31
0.0
  0
LINE
  5
118
330
2
100
AcDbEntity
  8
KIJUN
 62
     7
100
AcDbLine
 10
140.7389961119821
 20
39.81626802833348
 30
0.0
 11
140.7389961119821
 21
43.21626802833264
 31
0.0
  0
LINE
  5
119
330
2
100
AcDbEntity
  8
KIJUN
 62
     7
100
AcDbLine
 10
142.7389961119821
 20
39.81626802833348
 30
0.0
 11
142.7389961119821
 21
43.21626802833264
 31
0.0
  0
LINE
  5
11A
330
2
100
AcDbEntity
  8
KIJUN
 62
     7
100
AcDbLine
 10
155.738996111982
 20
39.81626802833257
 30
0.0
 11
155.738996111982
 21
43.21626802833174
 31
0.0
  0
LINE
  5
11B
330
2
100
AcDbEntity
  8
KIJUN
 62
     7
100
AcDbLine
 10
153.7389961119821
 20
39.81626802833257
 30
0.0
 11
153.7389961119821
 21
43.21626802833174
 31
0.0
  0
LINE
  5
11C
330
2
100
AcDbEntity
  8
KIJUN
 62
     7
100
AcDbLine
 10
151.738996111982
 20
39.81626802833257
 30
0.0
 11
151.738996111982
 21
43.21626802833174
 31
0.0
  0
LINE
  5
11D
330
2
100
AcDbEntity
  8
KIJUN
 62
     7
100
AcDbLine
 10
158.238996111982
 20
39.8162680283321
 30
0.0
 11
158.238996111982
 21
43.21626802833127
 31
0.0
  0
LINE
  5
11E
330
2
100
AcDbEntity
  8
KIJUN
 62
     7
100
AcDbLine
 10
160.238996111982
 20
39.8162680283321
 30
0.0
 11
160.238996111982
 21
43.21626802833127
 31
0.0
  0
LINE
  5
11F
330
2
100
AcDbEntity
  8
KIJUN
 62
     7
100
AcDbLine
 10
162.2389961119821
 20
39.8162680283321
 30
0.0
 11
162.2389961119821
 21
43.21626802833127
 31
0.0
  0
LINE
  5
120
330
2
100
AcDbEntity
  8
KIJUN
 62
     7
100
AcDbLine
 10
97.98864560425618
 20
120.0162680283278
 30
0.0
 11
321.9893466197072
 21
120.0162680283278
 31
0.0
  0
CIRCLE
  5
121
330
2
100
AcDbEntity
  8
KIJUN
 62
     7
100
AcDbCircle
 10
167.9888208581192
 20
94.81431978980188
 30
0.0
 40
2.499999999999999
  0
CIRCLE
  5
122
330
2
100
AcDbEntity
  8
KIJUN
 62
     7
100
AcDbCircle
 10
164.5936954433505
 20
99.7021677358164
 30
0.0
 40
2.499999999999999
  0
LINE
  5
123
330
2
100
AcDbEntity
  8
KIJUN
 62
     7
100
AcDbLine
 10
97.98864560425618
 20
108.2162680283278
 30
0.0
 11
321.9893466197072
 21
108.2162680283278
 31
0.0
  0
LINE
  5
124
330
2
100
AcDbEntity
  8
KIJUN
 62
     7
100
AcDbLine
 10
97.98864560425618
 20
104.8162680283277
 30
0.0
 11
321.9893466197072
 21
104.8162680283286
 31
0.0
  0
LINE
  5
125
330
2
100
AcDbEntity
  8
KIJUN
 62
     7
100
AcDbLine
 10
97.98864560425618
 20
103.016268028328
 30
0.0
 11
321.9893466197072
 21
103.016268028328
 31
0.0
  0
LINE
  5
126
330
2
100
AcDbEntity
  8
KIJUN
 62
     7
100
AcDbLine
 10
97.98864560425618
 20
110.0162680283279
 30
0.0
 11
321.9893466197072
 21
110.0162680283281
 31
0.0
  0
CIRCLE
  5
127
330
2
100
AcDbEntity
  8
KIJUN
 62
     7
100
AcDbCircle
 10
255.3842967806136
 20
99.7021677358164
 30
0.0
 40
2.499999999999999
  0
LINE
  5
128
330
2
100
AcDbEntity
  8
KIJUN
 62
     7
100
AcDbLine
 10
316.2389961119821
 20
108.2162680283198
 30
0.0
 11
316.2389961119821
 21
104.8162680283206
 31
0.0
  0
LINE
  5
129
330
2
100
AcDbEntity
  8
KIJUN
 62
     7
100
AcDbLine
 10
318.2389961119821
 20
108.2162680283198
 30
0.0
 11
318.2389961119821
 21
104.8162680283206
 31
0.0
  0
LINE
  5
12A
330
2
100
AcDbEntity
  8
KIJUN
 62
     7
100
AcDbLine
 10
320.2389961119821
 20
108.2162680283198
 30
0.0
 11
320.2389961119821
 21
104.8162680283206
 31
0.0
  0
LINE
  5
12B
330
2
100
AcDbEntity
  8
KIJUN
 62
     7
100
AcDbLine
 10
313.7389961119821
 20
108.2162680283203
 30
0.0
 11
313.7389961119821
 21
104.816268028321
 31
0.0
  0
ARC
  5
12C
330
2
100
AcDbEntity
  8
KIJUN
 62
     7
100
AcDbCircle
 10
265.9890837389134
 20
93.61204565229948
 30
0.0
 40
0.5
100
AcDbArc
 50
42.90830299466908
 51
137.1259777753463
  0
CIRCLE
  5
12D
330
2
100
AcDbEntity
  8
KIJUN
 62
     7
100
AcDbCircle
 10
307.9895218735706
 20
94.81431978980188
 30
0.0
 40
2.499999999999999
  0
ARC
  5
12E
330
2
100
AcDbEntity
  8
KIJUN
 62
     7
100
AcDbCircle
 10
293.9894342466391
 20
93.61204565229748
 30
0.0
 40
0.5
100
AcDbArc
 50
42.90830299474939
 51
137.1259777750448
  0
CIRCLE
  5
12F
330
2
100
AcDbEntity
  8
KIJUN
 62
     7
100
AcDbCircle
 10
311.3846472883393
 20
99.7021677358164
 30
0.0
 40
2.499999999999999
  0
CIRCLE
  5
130
330
2
100
AcDbEntity
  8
KIJUN
 62
     7
100
AcDbCircle
 10
304.5943964588019
 20
99.7021677358164
 30
0.0
 40
2.499999999999999
  0
CIRCLE
  5
131
330
2
100
AcDbEntity
  8
KIJUN
 62
     7
100
AcDbCircle
 10
279.9893466197078
 20
94.81431978980188
 30
0.0
 40
2.499999999999999
  0
CIRCLE
  5
132
330
2
100
AcDbEntity
  8
KIJUN
 62
     7
100
AcDbCircle
 10
283.3844720344765
 20
99.7021677358164
 30
0.0
 40
2.499999999999999
  0
CIRCLE
  5
133
330
2
100
AcDbEntity
  8
KIJUN
 62
     7
100
AcDbCircle
 10
276.5942212049391
 20
99.7021677358164
 30
0.0
 40
2.499999999999999
  0
LINE
  5
134
330
2
100
AcDbEntity
  8
KIJUN
 62
     7
100
AcDbLine
 10
302.7389961119821
 20
108.2162680283213
 30
0.0
 11
302.7389961119821
 21
104.816268028322
 31
0.0
  0
LINE
  5
135
330
2
100
AcDbEntity
  8
KIJUN
 62
     7
100
AcDbLine
 10
300.7389961119821
 20
108.2162680283213
 30
0.0
 11
300.7389961119821
 21
104.816268028322
 31
0.0
  0
LINE
  5
136
330
2
100
AcDbEntity
  8
KIJUN
 62
     7
100
AcDbLine
 10
298.7389961119821
 20
108.2162680283213
 30
0.0
 11
298.7389961119821
 21
104.816268028322
 31
0.0
  0
LINE
  5
137
330
2
100
AcDbEntity
  8
KIJUN
 62
     7
100
AcDbLine
 10
311.7389961119821
 20
108.2162680283203
 30
0.0
 11
311.7389961119821
 21
104.816268028321
 31
0.0
  0
LINE
  5
138
330
2
100
AcDbEntity
  8
KIJUN
 62
     7
100
AcDbLine
 10
309.2389961119821
 20
108.2162680283208
 30
0.0
 11
309.2389961119821
 21
104.8162680283216
 31
0.0
  0
LINE
  5
139
330
2
100
AcDbEntity
  8
KIJUN
 62
     7
100
AcDbLine
 10
307.2389961119821
 20
108.2162680283208
 30
0.0
 11
307.2389961119821
 21
104.8162680283216
 31
0.0
  0
LINE
  5
13A
330
2
100
AcDbEntity
  8
KIJUN
 62
     7
100
AcDbLine
 10
305.2389961119821
 20
108.2162680283208
 30
0.0
 11
305.2389961119821
 21
104.8162680283216
 31
0.0
  0
LINE
  5
13B
330
2
100
AcDbEntity
  8
KIJUN
 62
     7
100
AcDbLine
 10
263.738996111982
 20
108.216268028324
 30
0.0
 11
263.738996111982
 21
104.8162680283248
 31
0.0
  0
LINE
  5
13C
330
2
100
AcDbEntity
  8
KIJUN
 62
     7
100
AcDbLine
 10
261.738996111982
 20
108.216268028324
 30
0.0
 11
261.738996111982
 21
104.8162680283248
 31
0.0
  0
LINE
  5
13D
330
2
100
AcDbEntity
  8
KIJUN
 62
     7
100
AcDbLine
 10
259.738996111982
 20
108.216268028324
 30
0.0
 11
259.738996111982
 21
104.8162680283248
 31
0.0
  0
LINE
  5
13E
330
2
100
AcDbEntity
  8
KIJUN
 62
     7
100
AcDbLine
 10
292.2389961119821
 20
108.2162680283216
 30
0.0
 11
292.2389961119821
 21
104.8162680283224
 31
0.0
  0
LINE
  5
13F
330
2
100
AcDbEntity
  8
KIJUN
 62
     7
100
AcDbLine
 10
294.2389961119821
 20
108.2162680283216
 30
0.0
 11
294.2389961119821
 21
104.8162680283224
 31
0.0
  0
LINE
  5
140
330
2
100
AcDbEntity
  8
KIJUN
 62
     7
100
AcDbLine
 10
296.2389961119821
 20
108.2162680283216
 30
0.0
 11
296.2389961119821
 21
104.8162680283224
 31
0.0
  0
LINE
  5
141
330
2
100
AcDbEntity
  8
KIJUN
 62
     7
100
AcDbLine
 10
279.2389961119821
 20
108.2162680283226
 30
0.0
 11
279.2389961119821
 21
104.8162680283234
 31
0.0
  0
LINE
  5
142
330
2
100
AcDbEntity
  8
KIJUN
 62
     7
100
AcDbLine
 10
281.2389961119821
 20
108.2162680283226
 30
0.0
 11
281.2389961119821
 21
104.8162680283234
 31
0.0
  0
LINE
  5
143
330
2
100
AcDbEntity
  8
KIJUN
 62
     7
100
AcDbLine
 10
283.2389961119821
 20
108.2162680283226
 30
0.0
 11
283.2389961119821
 21
104.8162680283234
 31
0.0
  0
LINE
  5
144
330
2
100
AcDbEntity
  8
KIJUN
 62
     7
100
AcDbLine
 10
289.7389961119821
 20
108.2162680283221
 30
0.0
 11
289.7389961119821
 21
104.816268028323
 31
0.0
  0
LINE
  5
145
330
2
100
AcDbEntity
  8
KIJUN
 62
     7
100
AcDbLine
 10
287.7389961119821
 20
108.2162680283221
 30
0.0
 11
287.7389961119821
 21
104.816268028323
 31
0.0
  0
LINE
  5
146
330
2
100
AcDbEntity
  8
KIJUN
 62
     7
100
AcDbLine
 10
285.7389961119821
 20
108.2162680283221
 30
0.0
 11
285.7389961119821
 21
104.816268028323
 31
0.0
  0
LINE
  5
147
330
2
100
AcDbEntity
  8
KIJUN
 62
     7
100
AcDbLine
 10
272.7389961119821
 20
108.216268028323
 30
0.0
 11
272.7389961119821
 21
104.8162680283238
 31
0.0
  0
LINE
  5
148
330
2
100
AcDbEntity
  8
KIJUN
 62
     7
100
AcDbLine
 10
274.7389961119821
 20
108.216268028323
 30
0.0
 11
274.7389961119821
 21
104.8162680283238
 31
0.0
  0
LINE
  5
149
330
2
100
AcDbEntity
  8
KIJUN
 62
     7
100
AcDbLine
 10
276.7389961119821
 20
108.216268028323
 30
0.0
 11
276.7389961119821
 21
104.8162680283238
 31
0.0
  0
LINE
  5
14A
330
2
100
AcDbEntity
  8
KIJUN
 62
     7
100
AcDbLine
 10
270.2389961119821
 20
108.2162680283234
 30
0.0
 11
270.2389961119821
 21
104.8162680283242
 31
0.0
  0
LINE
  5
14B
330
2
100
AcDbEntity
  8
KIJUN
 62
     7
100
AcDbLine
 10
268.2389961119821
 20
108.2162680283234
 30
0.0
 11
268.2389961119821
 21
104.8162680283242
 31
0.0
  0
LINE
  5
14C
330
2
100
AcDbEntity
  8
KIJUN
 62
     7
100
AcDbLine
 10
266.2389961119821
 20
108.2162680283234
 30
0.0
 11
266.2389961119821
 21
104.8162680283242
 31
0.0
  0
ARC
  5
14D
330
2
100
AcDbEntity
  8
KIJUN
 62
     7
100
AcDbCircle
 10
237.989083738914
 20
93.61204565229929
 30
0.0
 40
0.5
100
AcDbArc
 50
42.87402222426371
 51
137.0916970053365
  0
CIRCLE
  5
14E
330
2
100
AcDbEntity
  8
KIJUN
 62
     7
100
AcDbCircle
 10
251.9891713658449
 20
94.81431978980188
 30
0.0
 40
2.499999999999999
  0
CIRCLE
  5
14F
330
2
100
AcDbEntity
  8
KIJUN
 62
     7
100
AcDbCircle
 10
248.5940459510761
 20
99.7021677358164
 30
0.0
 40
2.499999999999999
  0
CIRCLE
  5
150
330
2
100
AcDbEntity
  8
KIJUN
 62
     7
100
AcDbCircle
 10
220.5938706972134
 20
99.7021677358164
 30
0.0
 40
2.499999999999999
  0
CIRCLE
  5
151
330
2
100
AcDbEntity
  8
KIJUN
 62
     7
100
AcDbCircle
 10
227.3841215267509
 20
99.7021677358164
 30
0.0
 40
2.499999999999999
  0
CIRCLE
  5
152
330
2
100
AcDbEntity
  8
KIJUN
 62
     7
100
AcDbCircle
 10
223.9889961119821
 20
94.81431978980188
 30
0.0
 40
2.499999999999999
  0
LINE
  5
153
330
2
100
AcDbEntity
  8
KIJUN
 62
     7
100
AcDbLine
 10
233.7389961119823
 20
108.2162680283258
 30
0.0
 11
233.7389961119823
 21
104.8162680283266
 31
0.0
  0
LINE
  5
154
330
2
100
AcDbEntity
  8
KIJUN
 62
     7
100
AcDbLine
 10
235.7389961119823
 20
108.2162680283258
 30
0.0
 11
235.7389961119823
 21
104.8162680283266
 31
0.0
  0
LINE
  5
155
330
2
100
AcDbEntity
  8
KIJUN
 62
     7
100
AcDbLine
 10
237.7389961119823
 20
108.2162680283258
 30
0.0
 11
237.7389961119823
 21
104.8162680283266
 31
0.0
  0
LINE
  5
156
330
2
100
AcDbEntity
  8
KIJUN
 62
     7
100
AcDbLine
 10
231.2389961119823
 20
108.2162680283262
 30
0.0
 11
231.2389961119823
 21
104.8162680283271
 31
0.0
  0
LINE
  5
157
330
2
100
AcDbEntity
  8
KIJUN
 62
     7
100
AcDbLine
 10
229.2389961119823
 20
108.2162680283262
 30
0.0
 11
229.2389961119823
 21
104.8162680283271
 31
0.0
  0
LINE
  5
158
330
2
100
AcDbEntity
  8
KIJUN
 62
     7
100
AcDbLine
 10
227.2389961119823
 20
108.2162680283262
 30
0.0
 11
227.2389961119823
 21
104.8162680283271
 31
0.0
  0
LINE
  5
159
330
2
100
AcDbEntity
  8
KIJUN
 62
     7
100
AcDbLine
 10
253.2389961119822
 20
108.2162680283244
 30
0.0
 11
253.2389961119822
 21
104.8162680283251
 31
0.0
  0
LINE
  5
15A
330
2
100
AcDbEntity
  8
KIJUN
 62
     7
100
AcDbLine
 10
255.2389961119821
 20
108.2162680283244
 30
0.0
 11
255.2389961119821
 21
104.8162680283251
 31
0.0
  0
LINE
  5
15B
330
2
100
AcDbEntity
  8
KIJUN
 62
     7
100
AcDbLine
 10
257.2389961119821
 20
108.2162680283244
 30
0.0
 11
257.2389961119821
 21
104.8162680283251
 31
0.0
  0
LINE
  5
15C
330
2
100
AcDbEntity
  8
KIJUN
 62
     7
100
AcDbLine
 10
246.7389961119821
 20
108.2162680283249
 30
0.0
 11
246.7389961119821
 21
104.8162680283255
 31
0.0
  0
LINE
  5
15D
330
2
100
AcDbEntity
  8
KIJUN
 62
     7
100
AcDbLine
 10
248.7389961119821
 20
108.2162680283249
 30
0.0
 11
248.7389961119821
 21
104.8162680283255
 31
0.0
  0
LINE
  5
15E
330
2
100
AcDbEntity
  8
KIJUN
 62
     7
100
AcDbLine
 10
250.7389961119821
 20
108.2162680283249
 30
0.0
 11
250.7389961119821
 21
104.8162680283255
 31
0.0
  0
LINE
  5
15F
330
2
100
AcDbEntity
  8
KIJUN
 62
     7
100
AcDbLine
 10
244.238996111982
 20
108.2162680283253
 30
0.0
 11
244.238996111982
 21
104.8162680283262
 31
0.0
  0
LINE
  5
160
330
2
100
AcDbEntity
  8
KIJUN
 62
     7
100
AcDbLine
 10
242.238996111982
 20
108.2162680283253
 30
0.0
 11
242.238996111982
 21
104.8162680283262
 31
0.0
  0
LINE
  5
161
330
2
100
AcDbEntity
  8
KIJUN
 62
     7
100
AcDbLine
 10
240.2389961119821
 20
108.2162680283253
 30
0.0
 11
240.2389961119821
 21
104.8162680283262
 31
0.0
  0
LINE
  5
162
330
2
100
AcDbEntity
  8
KIJUN
 62
     7
100
AcDbLine
 10
216.2389961119822
 20
108.2162680283271
 30
0.0
 11
216.2389961119822
 21
104.8162680283279
 31
0.0
  0
LINE
  5
163
330
2
100
AcDbEntity
  8
KIJUN
 62
     7
100
AcDbLine
 10
218.2389961119822
 20
108.2162680283271
 30
0.0
 11
218.2389961119822
 21
104.8162680283279
 31
0.0
  0
LINE
  5
164
330
2
100
AcDbEntity
  8
KIJUN
 62
     7
100
AcDbLine
 10
224.7389961119822
 20
108.2162680283266
 30
0.0
 11
224.7389961119822
 21
104.8162680283275
 31
0.0
  0
LINE
  5
165
330
2
100
AcDbEntity
  8
KIJUN
 62
     7
100
AcDbLine
 10
222.7389961119822
 20
108.2162680283266
 30
0.0
 11
222.7389961119822
 21
104.8162680283275
 31
0.0
  0
LINE
  5
166
330
2
100
AcDbEntity
  8
KIJUN
 62
     7
100
AcDbLine
 10
220.7389961119821
 20
108.2162680283266
 30
0.0
 11
220.7389961119821
 21
104.8162680283275
 31
0.0
  0
CIRCLE
  5
167
330
2
100
AcDbEntity
  8
KIJUN
 62
     7
100
AcDbCircle
 10
171.383946272888
 20
99.7021677358164
 30
0.0
 40
2.499999999999999
  0
CIRCLE
  5
168
330
2
100
AcDbEntity
  8
KIJUN
 62
     7
100
AcDbCircle
 10
195.9889961119821
 20
94.81431978980188
 30
0.0
 40
2.499999999999999
  0
CIRCLE
  5
169
330
2
100
AcDbEntity
  8
KIJUN
 62
     7
100
AcDbCircle
 10
199.3841215267507
 20
99.7021677358164
 30
0.0
 40
2.499999999999999
  0
LINE
  5
16A
330
2
100
AcDbEntity
  8
KIJUN
 62
     7
100
AcDbLine
 10
182.988996111982
 20
103.0162680283278
 30
0.0
 11
209.9889961119822
 21
103.0162680283278
 31
0.0
  0
ARC
  5
16B
330
2
100
AcDbEntity
  8
KIJUN
 62
     7
100
AcDbCircle
 10
209.9889084850508
 20
93.61204565229748
 30
0.0
 40
0.5
100
AcDbArc
 50
42.90830299474939
 51
137.1259777750448
  0
CIRCLE
  5
16C
330
2
100
AcDbEntity
  8
KIJUN
 62
     7
100
AcDbCircle
 10
192.5938706972134
 20
99.7021677358164
 30
0.0
 40
2.499999999999999
  0
ARC
  5
16D
330
2
100
AcDbEntity
  8
KIJUN
 62
     7
100
AcDbCircle
 10
181.9889084850506
 20
93.61204565229748
 30
0.0
 40
0.5
100
AcDbArc
 50
42.90830299474939
 51
137.1259777750448
  0
LINE
  5
16E
330
2
100
AcDbEntity
  8
KIJUN
 62
     7
100
AcDbLine
 10
188.238996111982
 20
108.2162680283253
 30
0.0
 11
188.238996111982
 21
104.8162680283262
 31
0.0
  0
LINE
  5
16F
330
2
100
AcDbEntity
  8
KIJUN
 62
     7
100
AcDbLine
 10
186.238996111982
 20
108.2162680283253
 30
0.0
 11
186.238996111982
 21
104.8162680283262
 31
0.0
  0
LINE
  5
170
330
2
100
AcDbEntity
  8
KIJUN
 62
     7
100
AcDbLine
 10
184.238996111982
 20
108.2162680283253
 30
0.0
 11
184.238996111982
 21
104.8162680283262
 31
0.0
  0
LINE
  5
171
330
2
100
AcDbEntity
  8
KIJUN
 62
     7
100
AcDbLine
 10
177.738996111982
 20
108.2162680283249
 30
0.0
 11
177.738996111982
 21
104.8162680283255
 31
0.0
  0
LINE
  5
172
330
2
100
AcDbEntity
  8
KIJUN
 62
     7
100
AcDbLine
 10
179.7389961119821
 20
108.2162680283249
 30
0.0
 11
179.7389961119821
 21
104.8162680283255
 31
0.0
  0
LINE
  5
173
330
2
100
AcDbEntity
  8
KIJUN
 62
     7
100
AcDbLine
 10
181.738996111982
 20
108.2162680283249
 30
0.0
 11
181.738996111982
 21
104.8162680283255
 31
0.0
  0
LINE
  5
174
330
2
100
AcDbEntity
  8
KIJUN
 62
     7
100
AcDbLine
 10
168.7389961119821
 20
108.216268028324
 30
0.0
 11
168.7389961119821
 21
104.8162680283248
 31
0.0
  0
LINE
  5
175
330
2
100
AcDbEntity
  8
KIJUN
 62
     7
100
AcDbLine
 10
166.7389961119821
 20
108.216268028324
 30
0.0
 11
166.7389961119821
 21
104.8162680283248
 31
0.0
  0
LINE
  5
176
330
2
100
AcDbEntity
  8
KIJUN
 62
     7
100
AcDbLine
 10
171.2389961119821
 20
108.2162680283244
 30
0.0
 11
171.2389961119821
 21
104.8162680283251
 31
0.0
  0
LINE
  5
177
330
2
100
AcDbEntity
  8
KIJUN
 62
     7
100
AcDbLine
 10
173.238996111982
 20
108.2162680283244
 30
0.0
 11
173.238996111982
 21
104.8162680283251
 31
0.0
  0
LINE
  5
178
330
2
100
AcDbEntity
  8
KIJUN
 62
     7
100
AcDbLine
 10
175.2389961119821
 20
108.2162680283244
 30
0.0
 11
175.2389961119821
 21
104.8162680283251
 31
0.0
  0
LINE
  5
179
330
2
100
AcDbEntity
  8
KIJUN
 62
     7
100
AcDbLine
 10
201.2389961119822
 20
108.2162680283262
 30
0.0
 11
201.2389961119822
 21
104.8162680283271
 31
0.0
  0
LINE
  5
17A
330
2
100
AcDbEntity
  8
KIJUN
 62
     7
100
AcDbLine
 10
199.2389961119821
 20
108.2162680283262
 30
0.0
 11
199.2389961119821
 21
104.8162680283271
 31
0.0
  0
LINE
  5
17B
330
2
100
AcDbEntity
  8
KIJUN
 62
     7
100
AcDbLine
 10
197.2389961119821
 20
108.2162680283262
 30
0.0
 11
197.2389961119821
 21
104.8162680283271
 31
0.0
  0
LINE
  5
17C
330
2
100
AcDbEntity
  8
KIJUN
 62
     7
100
AcDbLine
 10
190.7389961119821
 20
108.2162680283258
 30
0.0
 11
190.7389961119821
 21
104.8162680283266
 31
0.0
  0
LINE
  5
17D
330
2
100
AcDbEntity
  8
KIJUN
 62
     7
100
AcDbLine
 10
192.7389961119821
 20
108.2162680283258
 30
0.0
 11
192.7389961119821
 21
104.8162680283266
 31
0.0
  0
LINE
  5
17E
330
2
100
AcDbEntity
  8
KIJUN
 62
     7
100
AcDbLine
 10
194.7389961119821
 20
108.2162680283258
 30
0.0
 11
194.7389961119821
 21
104.8162680283266
 31
0.0
  0
LINE
  5
17F
330
2
100
AcDbEntity
  8
KIJUN
 62
     7
100
AcDbLine
 10
207.7389961119821
 20
108.2162680283266
 30
0.0
 11
207.7389961119821
 21
104.8162680283275
 31
0.0
  0
LINE
  5
180
330
2
100
AcDbEntity
  8
KIJUN
 62
     7
100
AcDbLine
 10
205.7389961119821
 20
108.2162680283266
 30
0.0
 11
205.7389961119821
 21
104.8162680283275
 31
0.0
  0
LINE
  5
181
330
2
100
AcDbEntity
  8
KIJUN
 62
     7
100
AcDbLine
 10
203.7389961119821
 20
108.2162680283266
 30
0.0
 11
203.7389961119821
 21
104.8162680283275
 31
0.0
  0
LINE
  5
182
330
2
100
AcDbEntity
  8
KIJUN
 62
     7
100
AcDbLine
 10
210.2389961119822
 20
108.2162680283271
 30
0.0
 11
210.2389961119822
 21
104.8162680283279
 31
0.0
  0
LINE
  5
183
330
2
100
AcDbEntity
  8
KIJUN
 62
     7
100
AcDbLine
 10
212.2389961119822
 20
108.2162680283271
 30
0.0
 11
212.2389961119822
 21
104.8162680283279
 31
0.0
  0
LINE
  5
184
330
2
100
AcDbEntity
  8
KIJUN
 62
     7
100
AcDbLine
 10
214.2389961119822
 20
108.2162680283271
 30
0.0
 11
214.2389961119822
 21
104.8162680283279
 31
0.0
  0
LINE
  5
185
330
2
100
AcDbEntity
  8
KIJUN
 62
     7
100
AcDbLine
 10
108.2389961119821
 20
108.2162680283136
 30
0.0
 11
108.2389961119821
 21
104.8162680283146
 31
0.0
  0
LINE
  5
186
330
2
100
AcDbEntity
  8
KIJUN
 62
     7
100
AcDbLine
 10
110.2389961119821
 20
108.2162680283136
 30
0.0
 11
110.2389961119821
 21
104.8162680283146
 31
0.0
  0
LINE
  5
187
330
2
100
AcDbEntity
  8
KIJUN
 62
     7
100
AcDbLine
 10
112.2389961119821
 20
108.2162680283136
 30
0.0
 11
112.2389961119821
 21
104.8162680283146
 31
0.0
  0
LINE
  5
188
330
2
100
AcDbEntity
  8
KIJUN
 62
     7
100
AcDbLine
 10
99.23899611198219
 20
108.2162680283127
 30
0.0
 11
99.23899611198219
 21
104.8162680283136
 31
0.0
  0
LINE
  5
189
330
2
100
AcDbEntity
  8
KIJUN
 62
     7
100
AcDbLine
 10
101.7389961119821
 20
108.2162680283133
 30
0.0
 11
101.7389961119821
 21
104.816268028314
 31
0.0
  0
LINE
  5
18A
330
2
100
AcDbEntity
  8
KIJUN
 62
     7
100
AcDbLine
 10
103.7389961119821
 20
108.2162680283133
 30
0.0
 11
103.7389961119821
 21
104.816268028314
 31
0.0
  0
LINE
  5
18B
330
2
100
AcDbEntity
  8
KIJUN
 62
     7
100
AcDbLine
 10
105.7389961119821
 20
108.2162680283133
 30
0.0
 11
105.7389961119821
 21
104.816268028314
 31
0.0
  0
LINE
  5
18C
330
2
100
AcDbEntity
  8
KIJUN
 62
     7
100
AcDbLine
 10
114.738996111982
 20
108.2162680283141
 30
0.0
 11
114.738996111982
 21
104.8162680283148
 31
0.0
  0
CIRCLE
  5
18D
330
2
100
AcDbEntity
  8
KIJUN
 62
     7
100
AcDbCircle
 10
115.3835957651624
 20
99.7021677358164
 30
0.0
 40
2.499999999999999
  0
CIRCLE
  5
18E
330
2
100
AcDbEntity
  8
KIJUN
 62
     7
100
AcDbCircle
 10
108.5933449356249
 20
99.7021677358164
 30
0.0
 40
2.499999999999999
  0
CIRCLE
  5
18F
330
2
100
AcDbEntity
  8
KIJUN
 62
     7
100
AcDbCircle
 10
143.3837710190251
 20
99.7021677358164
 30
0.0
 40
2.499999999999999
  0
CIRCLE
  5
190
330
2
100
AcDbEntity
  8
KIJUN
 62
     7
100
AcDbCircle
 10
136.5935201894876
 20
99.7021677358164
 30
0.0
 40
2.499999999999999
  0
ARC
  5
191
330
2
100
AcDbEntity
  8
KIJUN
 62
     7
100
AcDbCircle
 10
125.988557977325
 20
93.61204565229748
 30
0.0
 40
0.5
100
AcDbArc
 50
42.87402222495527
 51
137.0916970052505
  0
ARC
  5
192
330
2
100
AcDbEntity
  8
KIJUN
 62
     7
100
AcDbCircle
 10
153.988557977325
 20
93.61204565229748
 30
0.0
 40
0.5
100
AcDbArc
 50
42.90830299474939
 51
137.1259777750448
  0
ARC
  5
193
330
2
100
AcDbEntity
  8
KIJUN
 62
     7
100
AcDbCircle
 10
97.98855797732505
 20
93.61204565229748
 30
0.0
 40
0.5
100
AcDbArc
 50
42.87402222495527
 51
89.98995869326478
  0
CIRCLE
  5
194
330
2
100
AcDbEntity
  8
KIJUN
 62
     7
100
AcDbCircle
 10
111.9884703503937
 20
94.81431978980188
 30
0.0
 40
2.499999999999999
  0
CIRCLE
  5
195
330
2
100
AcDbEntity
  8
KIJUN
 62
     7
100
AcDbCircle
 10
139.9886456042564
 20
94.81431978980188
 30
0.0
 40
2.499999999999999
  0
ARC
  5
196
330
2
100
AcDbEntity
  8
KIJUN
 62
     7
100
AcDbCircle
 10
153.9889084850506
 20
93.61204565229748
 30
0.0
 40
0.5
100
AcDbArc
 50
42.87402222495527
 51
137.0916970052505
  0
LINE
  5
197
330
2
100
AcDbEntity
  8
KIJUN
 62
     7
100
AcDbLine
 10
162.2389961119821
 20
108.2162680283234
 30
0.0
 11
162.2389961119821
 21
104.8162680283242
 31
0.0
  0
LINE
  5
198
330
2
100
AcDbEntity
  8
KIJUN
 62
     7
100
AcDbLine
 10
160.238996111982
 20
108.2162680283234
 30
0.0
 11
160.238996111982
 21
104.8162680283242
 31
0.0
  0
LINE
  5
199
330
2
100
AcDbEntity
  8
KIJUN
 62
     7
100
AcDbLine
 10
158.238996111982
 20
108.2162680283234
 30
0.0
 11
158.238996111982
 21
104.8162680283242
 31
0.0
  0
LINE
  5
19A
330
2
100
AcDbEntity
  8
KIJUN
 62
     7
100
AcDbLine
 10
151.738996111982
 20
108.216268028323
 30
0.0
 11
151.738996111982
 21
104.8162680283238
 31
0.0
  0
LINE
  5
19B
330
2
100
AcDbEntity
  8
KIJUN
 62
     7
100
AcDbLine
 10
153.7389961119821
 20
108.216268028323
 30
0.0
 11
153.7389961119821
 21
104.8162680283238
 31
0.0
  0
LINE
  5
19C
330
2
100
AcDbEntity
  8
KIJUN
 62
     7
100
AcDbLine
 10
155.738996111982
 20
108.216268028323
 30
0.0
 11
155.738996111982
 21
104.8162680283238
 31
0.0
  0
LINE
  5
19D
330
2
100
AcDbEntity
  8
KIJUN
 62
     7
100
AcDbLine
 10
142.7389961119821
 20
108.2162680283221
 30
0.0
 11
142.7389961119821
 21
104.816268028323
 31
0.0
  0
LINE
  5
19E
330
2
100
AcDbEntity
  8
KIJUN
 62
     7
100
AcDbLine
 10
140.7389961119821
 20
108.2162680283221
 30
0.0
 11
140.7389961119821
 21
104.816268028323
 31
0.0
  0
LINE
  5
19F
330
2
100
AcDbEntity
  8
KIJUN
 62
     7
100
AcDbLine
 10
138.7389961119821
 20
108.2162680283221
 30
0.0
 11
138.7389961119821
 21
104.816268028323
 31
0.0
  0
LINE
  5
1A0
330
2
100
AcDbEntity
  8
KIJUN
 62
     7
100
AcDbLine
 10
145.238996111982
 20
108.2162680283226
 30
0.0
 11
145.238996111982
 21
104.8162680283234
 31
0.0
  0
LINE
  5
1A1
330
2
100
AcDbEntity
  8
KIJUN
 62
     7
100
AcDbLine
 10
147.2389961119821
 20
108.2162680283226
 30
0.0
 11
147.2389961119821
 21
104.8162680283234
 31
0.0
  0
LINE
  5
1A2
330
2
100
AcDbEntity
  8
KIJUN
 62
     7
100
AcDbLine
 10
149.2389961119821
 20
108.2162680283226
 30
0.0
 11
149.2389961119821
 21
104.8162680283234
 31
0.0
  0
LINE
  5
1A3
330
2
100
AcDbEntity
  8
KIJUN
 62
     7
100
AcDbLine
 10
123.2389961119821
 20
108.2162680283208
 30
0.0
 11
123.2389961119821
 21
104.8162680283216
 31
0.0
  0
LINE
  5
1A4
330
2
100
AcDbEntity
  8
KIJUN
 62
     7
100
AcDbLine
 10
121.2389961119821
 20
108.2162680283208
 30
0.0
 11
121.2389961119821
 21
104.8162680283216
 31
0.0
  0
LINE
  5
1A5
330
2
100
AcDbEntity
  8
KIJUN
 62
     7
100
AcDbLine
 10
119.2389961119821
 20
108.2162680283208
 30
0.0
 11
119.2389961119821
 21
104.8162680283216
 31
0.0
  0
LINE
  5
1A6
330
2
100
AcDbEntity
  8
KIJUN
 62
     7
100
AcDbLine
 10
116.7389961119821
 20
108.2162680283203
 30
0.0
 11
116.7389961119821
 21
104.816268028321
 31
0.0
  0
LINE
  5
1A7
330
2
100
AcDbEntity
  8
KIJUN
 62
     7
100
AcDbLine
 10
129.7389961119821
 20
108.2162680283213
 30
0.0
 11
129.7389961119821
 21
104.816268028322
 31
0.0
  0
LINE
  5
1A8
330
2
100
AcDbEntity
  8
KIJUN
 62
     7
100
AcDbLine
 10
127.7389961119821
 20
108.2162680283213
 30
0.0
 11
127.7389961119821
 21
104.816268028322
 31
0.0
  0
LINE
  5
1A9
330
2
100
AcDbEntity
  8
KIJUN
 62
     7
100
AcDbLine
 10
125.7389961119821
 20
108.2162680283213
 30
0.0
 11
125.7389961119821
 21
104.816268028322
 31
0.0
  0
LINE
  5
1AA
330
2
100
AcDbEntity
  8
KIJUN
 62
     7
100
AcDbLine
 10
132.2389961119821
 20
108.2162680283216
 30
0.0
 11
132.2389961119821
 21
104.8162680283224
 31
0.0
  0
LINE
  5
1AB
330
2
100
AcDbEntity
  8
KIJUN
 62
     7
100
AcDbLine
 10
134.2389961119821
 20
108.2162680283216
 30
0.0
 11
134.2389961119821
 21
104.8162680283224
 31
0.0
  0
LINE
  5
1AC
330
2
100
AcDbEntity
  8
KIJUN
 62
     7
100
AcDbLine
 10
136.2389961119821
 20
108.2162680283216
 30
0.0
 11
136.2389961119821
 21
104.8162680283224
 31
0.0
  0
LINE
  5
1AD
330
2
100
AcDbEntity
  8
KIJUN
 62
     7
100
AcDbLine
 10
164.7389961119821
 20
108.216268028324
 30
0.0
 11
164.7389961119821
 21
104.8162680283248
 31
0.0
  0
DIMENSION
  5
1AE
330
2
100
AcDbEntity
  8
SUNPOU
100
AcDbDimension
  2
*D3
 10
21.03030634040004
 20
130.6757248275492
 30
0.0
 11
30.03030634040003
 21
134.6757248275492
 31
0.0
 71
     5
 42
17.99999999999997
  3
STANDARD$0
100
AcDbAlignedDimension
 13
39.03030634040001
 23
120.0162680283277
 33
0.0
 14
21.03030634040004
 24
120.0162680283278
 34
0.0
 50
180.0
100
AcDbRotatedDimension
1001
ACAD
1000
DSTYLE
1002
{
1070
    41
1040
0.5
1070
    42
1040
1.0
1070
    44
1040
0.0
1070
    77
1070
     1
1070
    78
1070
     0
1070
   140
1040
2.0
1070
   141
1040
1.0
1070
   146
1040
0.0642857142857143
1070
   172
1070
     0
1070
   176
1070
    60
1070
   177
1070
    70
1070
   178
1070
    60
1070
   271
1070
     0
1070
   272
1070
     0
1070
   341
1005
0
1002
}
  0
TEXT
  5
1BB
330
2
100
AcDbEntity
  8
HOJO
100
AcDbText
 10
0.4427172809124614
 20
1.183313000000011
 30
0.0
 40
4.5
  1
PM819
  7
SUNPOU
100
AcDbText
  0
LINE
  5
1BD
330
2
100
AcDbEntity
  8
WAKU
100
AcDbLine
 10
0.0
 20
0.0
 30
0.0
 11
44.67747103027142
 21
0.0
 31
0.0
  0
LINE
  5
1BF
330
2
100
AcDbEntity
  8
WAKU
100
AcDbLine
 10
0.0
 20
7.0
 30
0.0
 11
44.67747103027142
 21
7.0
 31
0.0
  0
TEXT
  5
1C0
330
2
100
AcDbEntity
  8
HOJO
100
AcDbText
 10
29.39232349561724
 20
2.522193000000015
 30
0.0
 40
3.0
  1
100\U+00D718
  7
SUNPOU
100
AcDbText
  0
LWPOLYLINE
  5
1C1
330
2
100
AcDbEntity
  8
KIJUN
100
AcDbPolyline
 90
       38
 70
     1
 43
0.0
 10
34.26898612529702
 20
50.95811007076957
 42
-0.008417452682656
 10
33.69225801705784
 20
50.66612305297025
 10
32.93065638101004
 20
45.92890491585439
 42
-0.0202797965600766
 10
32.32247805632602
 20
44.89426495533865
 10
35.03030634040004
 20
44.63859973088566
 10
35.03030634040004
 20
43.75029421829997
 10
33.68944035463761
 20
43.67262321762376
 10
33.68944035463761
 20
39.04131522552138
 10
35.03030634040004
 20
38.85490119792251
 10
35.03030634040004
 20
37.96659568533679
 10
31.03030634040005
 20
37.73489169254111
 10
31.03030634040005
 20
31.01626802832785
 10
29.53030634040004
 20
31.01626802832785
 10
29.53030634040004
 20
29.84951760903862
 42
-0.2781792779261383
 10
27.93030634040198
 20
27.19621777675514
 42
0.2781792779261393
 10
25.53030634040004
 20
23.21626802832764
 10
25.53030634040004
 20
20.01626802832781
 10
21.03030634040004
 20
20.01626802832781
 10
21.03030634040004
 20
120.0162680283278
 10
31.03030634040005
 20
120.0162680283278
 10
31.03030634040005
 20
110.0162680283278
 10
35.03030634040004
 20
109.6385997308857
 10
35.03030634040004
 20
108.7502942183
 10
33.68944035463761
 20
108.6726232176236
 10
33.68944035463761
 20
104.0413152255212
 10
35.03030634040004
 20
103.8549011979224
 10
35.03030634040004
 20
102.9665956853367
 10
33.68944035463761
 20
102.8889246846605
 10
32.40598792599502
 20
102.3423790768251
 42
-0.034720619608395
 10
33.66750456145269
 20
99.99669020228363
 42
-0.000593138998605
 10
33.73968378471733
 20
99.58076471869638
 10
33.69225801705784
 20
95.10175868912428
 42
-0.0121673447810982
 10
34.52266024798881
 20
94.67348775716278
 10
34.51206892918992
 20
93.3221576823178
 10
34.62959664736632
 20
93.32215768231741
 42
-0.2339885854738574
 10
36.610669995656
 20
89.61407634735095
 42
-0.0734986348360003
 10
37.40817164800307
 20
59.87471229469292
 42
-0.1137785802410012
 10
35.31203595257265
 20
51.99987049692435
 42
-0.1507694029068246
  0
ENDSEC
  0
SECTION
  2
OBJECTS
  0
DICTIONARY
  5
A
330
0
100
AcDbDictionary
281
     1
  3
ACAD_COLOR
350
47
  3
ACAD_GROUP
350
3C
  3
ACAD_LAYOUT
350
1F
  3
ACAD_MATERIAL
350
C
  3
ACAD_MLEADERSTYLE
350
4A
  3
ACAD_MLINESTYLE
350
3D
  3
ACAD_PLOTSETTINGS
350
3E
  3
ACAD_PLOTSTYLENAME
350
9
  3
ACAD_SCALELIST
350
48
  3
ACAD_TABLESTYLE
350
49
  3
ACAD_VISUALSTYLE
350
32
  3
ACDB_RECOMPOSE_DATA
350
1D3
  3
AcDbVariableDictionary
350
1C6
  0
DICTIONARY
  5
3
330
2
100
AcDbDictionary
280
     1
281
     1
  3
ACAD_LAYOUTSELFREF
360
4
  0
DICTIONARY
  5
21
330
20
100
AcDbDictionary
280
     1
281
     1
  3
ACAD_LAYOUTSELFREF
360
22
  0
DICTIONARY
  5
47
102
{ACAD_REACTORS
330
A
102
}
330
A
100
AcDbDictionary
281
     1
  0
DICTIONARY
  5
3C
102
{ACAD_REACTORS
330
A
102
}
330
A
100
AcDbDictionary
281
     1
  0
DICTIONARY
  5
1F
102
{ACAD_REACTORS
330
A
102
}
330
A
100
AcDbDictionary
281
     1
  3
Model
350
1E
  3
ﾚｲｱｳﾄ1
350
25
  0
DICTIONARY
  5
C
102
{ACAD_REACTORS
330
A
102
}
330
A
100
AcDbDictionary
281
     1
  3
ByBlock
350
3F
  3
ByLayer
350
15
  3
Global
350
B
  0
DICTIONARY
  5
4A
102
{ACAD_REACTORS
330
A
102
}
330
A
100
AcDbDictionary
281
     1
  0
DICTIONARY
  5
3D
102
{ACAD_REACTORS
330
A
102
}
330
A
100
AcDbDictionary
281
     1
  3
STANDARD
350
4C
  0
DICTIONARY
  5
3E
102
{ACAD_REACTORS
330
A
102
}
330
A
100
AcDbDictionary
281
     1
  0
ACDBDICTIONARYWDFLT
  5
9
102
{ACAD_REACTORS
330
A
102
}
330
A
100
AcDbDictionary
281
     1
  3
Normal
350
8
100
AcDbDictionaryWithDefault
340
8
  0
DICTIONARY
  5
48
102
{ACAD_REACTORS
330
A
102
}
330
A
100
AcDbDictionary
281
     1
  3
A0
350
51
  3
A1
350
52
  3
A2
350
53
  3
A3
350
54
  3
A4
350
55
  3
A5
350
56
  3
A6
350
57
  3
A7
350
58
  3
A8
350
59
  3
A9
350
5A
  3
B0
350
5B
  3
B1
350
5C
  3
B2
350
5D
  3
B3
350
5E
  3
B4
350
5F
  3
B5
350
60
  3
B6
350
61
  0
DICTIONARY
  5
49
102
{ACAD_REACTORS
330
A
102
}
330
A
100
AcDbDictionary
281
     1
  3
Standard
350
4D
  0
DICTIONARY
  5
32
102
{ACAD_REACTORS
330
A
102
}
330
A
100
AcDbDictionary
281
     1
  3
2dWireframe
350
31
  3
Realistic
350
4E
  3
Wireframe
350
4F
  0
XRECORD
  5
1D3
102
{ACAD_REACTORS
330
A
102
}
330
A
100
AcDbXrecord
280
     1
 90
        1
330
4D
  0
DICTIONARY
  5
1C6
102
{ACAD_REACTORS
330
A
102
}
330
A
100
AcDbDictionary
281
     1
  3
CANNOSCALE
350
1CB
  3
CMLEADERSTYLE
350
1C8
  3
CTABLESTYLE
350
1C7
  3
CVIEWDETAILSTYLE
350
1C9
  3
CVIEWSECTIONSTYLE
350
1CA
  3
DIMASSOC
350
1CF
  3
HIDETEXT
350
1CE
  3
INDEXCTL
350
1CD
  3
SORTENTS
350
1CC
  3
XCLIPFRAME
350
1D0
  0
XRECORD
  5
4
102
{ACAD_REACTORS
330
3
102
}
330
3
100
AcDbXrecord
280
     1
340
2
  0
XRECORD
  5
22
102
{ACAD_REACTORS
330
21
102
}
330
21
100
AcDbXrecord
280
     1
340
20
  0
LAYOUT
  5
1E
102
{ACAD_XDICTIONARY
360
1D6
102
}
102
{ACAD_REACTORS
330
1F
102
}
330
1F
100
AcDbPlotSettings
  1

  2
なし
  4

  6

 40
0.0
 41
0.0
 42
0.0
 43
0.0
 44
0.0
 45
0.0
 46
0.0
 47
0.0
 48
0.0
 49
0.0
140
0.0
141
0.0
142
1.0
143
1.0
 70
  1712
 72
     0
 73
     0
 74
     0
  7
monochrome.ctb
 75
     0
147
1.0
148
0.0
149
0.0
100
AcDbLayout
  1
Model
 70
     1
 71
     0
 10
0.0
 20
0.0
 11
12.0
 21
9.0
 12
0.0
 22
0.0
 32
0.0
 14
0.0
 24
0.0
 34
0.0
 15
0.0
 25
0.0
 35
0.0
146
0.0
 13
0.0
 23
0.0
 33
0.0
 16
1.0
 26
0.0
 36
0.0
 17
0.0
 27
1.0
 37
0.0
 76
     0
330
2
  0
LAYOUT
  5
25
102
{ACAD_XDICTIONARY
360
1D8
102
}
102
{ACAD_REACTORS
330
1F
102
}
330
1F
100
AcDbPlotSettings
  1

  2
なし
  4

  6

 40
0.0
 41
0.0
 42
0.0
 43
0.0
 44
0.0
 45
0.0
 46
0.0
 47
0.0
 48
0.0
 49
0.0
140
0.0
141
0.0
142
1.0
143
1.0
 70
   688
 72
     0
 73
     0
 74
     5
  7
monochrome.ctb
 75
    16
147
1.0
148
0.0
149
0.0
100
AcDbLayout
  1
ﾚｲｱｳﾄ1
 70
     1
 71
     1
 10
0.0
 20
0.0
 11
12.0
 21
9.0
 12
0.0
 22
0.0
 32
0.0
 14
1.000000000000000E+20
 24
1.000000000000000E+20
 34
1.000000000000000E+20
 15
-1.000000000000000E+20
 25
-1.000000000000000E+20
 35
-1.000000000000000E+20
146
0.0
 13
0.0
 23
0.0
 33
0.0
 16
1.0
 26
0.0
 36
0.0
 17
0.0
 27
1.0
 37
0.0
 76
     0
330
20
  0
MATERIAL
  5
3F
102
{ACAD_XDICTIONARY
360
40
102
}
102
{ACAD_REACTORS
330
C
102
}
330
C
100
AcDbMaterial
  1
ByBlock
 72
     0
 43
0.0208333333333333
 43
0.0
 43
0.0
 43
0.0
 43
0.0
 43
0.0208333333333333
 43
0.0
 43
0.0
 43
0.0
 43
0.0
 43
1.0
 43
0.0
 43
0.0
 43
0.0
 43
0.0
 43
1.0
 77
     0
 47
0.0208333333333333
 47
0.0
 47
0.0
 47
0.0
 47
0.0
 47
0.0208333333333333
 47
0.0
 47
0.0
 47
0.0
 47
0.0
 47
1.0
 47
0.0
 47
0.0
 47
0.0
 47
0.0
 47
1.0
171
     0
 49
0.0208333333333333
 49
0.0
 49
0.0
 49
0.0
 49
0.0
 49
0.0208333333333333
 49
0.0
 49
0.0
 49
0.0
 49
0.0
 49
1.0
 49
0.0
 49
0.0
 49
0.0
 49
0.0
 49
1.0
175
     0
142
0.0208333333333333
142
0.0
142
0.0
142
0.0
142
0.0
142
0.0208333333333333
142
0.0
142
0.0
142
0.0
142
0.0
142
1.0
142
0.0
142
0.0
142
0.0
142
0.0
142
1.0
179
     0
144
0.0208333333333333
144
0.0
144
0.0
144
0.0
144
0.0
144
0.0208333333333333
144
0.0
144
0.0
144
0.0
144
0.0
144
1.0
144
0.0
144
0.0
144
0.0
144
0.0
144
1.0
147
0.0208333333333333
147
0.0
147
0.0
147
0.0
147
0.0
147
0.0208333333333333
147
0.0
147
0.0
147
0.0
147
0.0
147
1.0
147
0.0
147
0.0
147
0.0
147
0.0
147
1.0
  0
MATERIAL
  5
15
102
{ACAD_XDICTIONARY
360
16
102
}
102
{ACAD_REACTORS
330
C
102
}
330
C
100
AcDbMaterial
  1
ByLayer
 72
     0
 43
0.0208333333333333
 43
0.0
 43
0.0
 43
0.0
 43
0.0
 43
0.0208333333333333
 43
0.0
 43
0.0
 43
0.0
 43
0.0
 43
1.0
 43
0.0
 43
0.0
 43
0.0
 43
0.0
 43
1.0
 77
     0
 47
0.0208333333333333
 47
0.0
 47
0.0
 47
0.0
 47
0.0
 47
0.0208333333333333
 47
0.0
 47
0.0
 47
0.0
 47
0.0
 47
1.0
 47
0.0
 47
0.0
 47
0.0
 47
0.0
 47
1.0
171
     0
 49
0.0208333333333333
 49
0.0
 49
0.0
 49
0.0
 49
0.0
 49
0.0208333333333333
 49
0.0
 49
0.0
 49
0.0
 49
0.0
 49
1.0
 49
0.0
 49
0.0
 49
0.0
 49
0.0
 49
1.0
175
     0
142
0.0208333333333333
142
0.0
142
0.0
142
0.0
142
0.0
142
0.0208333333333333
142
0.0
142
0.0
142
0.0
142
0.0
142
1.0
142
0.0
142
0.0
142
0.0
142
0.0
142
1.0
179
     0
144
0.0208333333333333
144
0.0
144
0.0
144
0.0
144
0.0
144
0.0208333333333333
144
0.0
144
0.0
144
0.0
144
0.0
144
1.0
144
0.0
144
0.0
144
0.0
144
0.0
144
1.0
147
0.0208333333333333
147
0.0
147
0.0
147
0.0
147
0.0
147
0.0208333333333333
147
0.0
147
0.0
147
0.0
147
0.0
147
1.0
147
0.0
147
0.0
147
0.0
147
0.0
147
1.0
  0
MATERIAL
  5
B
102
{ACAD_XDICTIONARY
360
D
102
}
102
{ACAD_REACTORS
330
C
102
}
330
C
100
AcDbMaterial
  1
Global
 72
     0
 43
0.0208333333333333
 43
0.0
 43
0.0
 43
0.0
 43
0.0
 43
0.0208333333333333
 43
0.0
 43
0.0
 43
0.0
 43
0.0
 43
1.0
 43
0.0
 43
0.0
 43
0.0
 43
0.0
 43
1.0
 77
     0
 47
0.0208333333333333
 47
0.0
 47
0.0
 47
0.0
 47
0.0
 47
0.0208333333333333
 47
0.0
 47
0.0
 47
0.0
 47
0.0
 47
1.0
 47
0.0
 47
0.0
 47
0.0
 47
0.0
 47
1.0
171
     0
 49
0.0208333333333333
 49
0.0
 49
0.0
 49
0.0
 49
0.0
 49
0.0208333333333333
 49
0.0
 49
0.0
 49
0.0
 49
0.0
 49
1.0
 49
0.0
 49
0.0
 49
0.0
 49
0.0
 49
1.0
175
     0
142
0.0208333333333333
142
0.0
142
0.0
142
0.0
142
0.0
142
0.0208333333333333
142
0.0
142
0.0
142
0.0
142
0.0
142
1.0
142
0.0
142
0.0
142
0.0
142
0.0
142
1.0
179
     0
144
0.0208333333333333
144
0.0
144
0.0
144
0.0
144
0.0
144
0.0208333333333333
144
0.0
144
0.0
144
0.0
144
0.0
144
1.0
144
0.0
144
0.0
144
0.0
144
0.0
144
1.0
147
0.0208333333333333
147
0.0
147
0.0
147
0.0
147
0.0
147
0.0208333333333333
147
0.0
147
0.0
147
0.0
147
0.0
147
1.0
147
0.0
147
0.0
147
0.0
147
0.0
147
1.0
  0
MLINESTYLE
  5
4C
102
{ACAD_REACTORS
330
3D
102
}
330
3D
100
AcDbMlineStyle
  2
STANDARD
 70
     0
  3

 62
   256
 51
90.0
 52
90.0
 71
     2
 49
0.5
 62
   256
  6
BYLAYER
 49
-0.5
 62
   256
  6
BYLAYER
  0
ACDBPLACEHOLDER
  5
8
102
{ACAD_REACTORS
330
9
102
}
330
9
  0
SCALE
  5
51
102
{ACAD_REACTORS
330
48
102
}
330
48
100
AcDbScale
 70
     0
300
1:1
140
1.0
141
1.0
290
     1
  0
SCALE
  5
52
102
{ACAD_REACTORS
330
48
102
}
330
48
100
AcDbScale
 70
     0
300
1/128" = 1'-0"
140
0.0078125
141
12.0
290
     0
  0
SCALE
  5
53
102
{ACAD_REACTORS
330
48
102
}
330
48
100
AcDbScale
 70
     0
300
1/64" = 1'-0"
140
0.015625
141
12.0
290
     0
  0
SCALE
  5
54
102
{ACAD_REACTORS
330
48
102
}
330
48
100
AcDbScale
 70
     0
300
1/32" = 1'-0"
140
0.03125
141
12.0
290
     0
  0
SCALE
  5
55
102
{ACAD_REACTORS
330
48
102
}
330
48
100
AcDbScale
 70
     0
300
1/16" = 1'-0"
140
0.0625
141
12.0
290
     0
  0
SCALE
  5
56
102
{ACAD_REACTORS
330
48
102
}
330
48
100
AcDbScale
 70
     0
300
3/32" = 1'-0"
140
0.09375
141
12.0
290
     0
  0
SCALE
  5
57
102
{ACAD_REACTORS
330
48
102
}
330
48
100
AcDbScale
 70
     0
300
1/8" = 1'-0"
140
0.125
141
12.0
290
     0
  0
SCALE
  5
58
102
{ACAD_REACTORS
330
48
102
}
330
48
100
AcDbScale
 70
     0
300
3/16" = 1'-0"
140
0.1875
141
12.0
290
     0
  0
SCALE
  5
59
102
{ACAD_REACTORS
330
48
102
}
330
48
100
AcDbScale
 70
     0
300
1/4" = 1'-0"
140
0.25
141
12.0
290
     0
  0
SCALE
  5
5A
102
{ACAD_REACTORS
330
48
102
}
330
48
100
AcDbScale
 70
     0
300
3/8" = 1'-0"
140
0.375
141
12.0
290
     0
  0
SCALE
  5
5B
102
{ACAD_REACTORS
330
48
102
}
330
48
100
AcDbScale
 70
     0
300
1/2" = 1'-0"
140
0.5
141
12.0
290
     0
  0
SCALE
  5
5C
102
{ACAD_REACTORS
330
48
102
}
330
48
100
AcDbScale
 70
     0
300
3/4" = 1'-0"
140
0.75
141
12.0
290
     0
  0
SCALE
  5
5D
102
{ACAD_REACTORS
330
48
102
}
330
48
100
AcDbScale
 70
     0
300
1" = 1'-0"
140
1.0
141
12.0
290
     0
  0
SCALE
  5
5E
102
{ACAD_REACTORS
330
48
102
}
330
48
100
AcDbScale
 70
     0
300
1-1/2" = 1'-0"
140
1.5
141
12.0
290
     0
  0
SCALE
  5
5F
102
{ACAD_REACTORS
330
48
102
}
330
48
100
AcDbScale
 70
     0
300
3" = 1'-0"
140
3.0
141
12.0
290
     0
  0
SCALE
  5
60
102
{ACAD_REACTORS
330
48
102
}
330
48
100
AcDbScale
 70
     0
300
6" = 1'-0"
140
6.0
141
12.0
290
     0
  0
SCALE
  5
61
102
{ACAD_REACTORS
330
48
102
}
330
48
100
AcDbScale
 70
     0
300
1'-0" = 1'-0"
140
12.0
141
12.0
290
     0
  0
TABLESTYLE
  5
4D
102
{ACAD_XDICTIONARY
360
1D1
102
}
102
{ACAD_REACTORS
330
49
102
}
330
49
100
AcDbTableStyle
  3
Standard
 70
     0
 71
     0
 40
0.06
 41
0.06
280
     0
281
     0
  7
STANDARD
140
0.18
170
     2
 62
     0
 63
     7
283
     0
274
    -2
284
     1
 64
     0
275
    -2
285
     1
 65
     0
276
    -2
286
     1
 66
     0
277
    -2
287
     1
 67
     0
278
    -2
288
     1
 68
     0
279
    -2
289
     1
 69
     0
  7
STANDARD
140
0.25
170
     5
 62
     0
 63
     7
283
     0
274
    -2
284
     1
 64
     0
275
    -2
285
     1
 65
     0
276
    -2
286
     1
 66
     0
277
    -2
287
     1
 67
     0
278
    -2
288
     1
 68
     0
279
    -2
289
     1
 69
     0
  7
STANDARD
140
0.18
170
     5
 62
     0
 63
     7
283
     0
274
    -2
284
     1
 64
     0
275
    -2
285
     1
 65
     0
276
    -2
286
     1
 66
     0
277
    -2
287
     1
 67
     0
278
    -2
288
     1
 68
     0
279
    -2
289
     1
 69
     0
  0
VISUALSTYLE
  5
31
102
{ACAD_XDICTIONARY
360
1DA
102
}
102
{ACAD_REACTORS
330
32
102
}
330
32
100
AcDbVisualStyle
  2
2dWireframe
 70
     4
 71
     0
 72
     2
 73
     0
 90
        0
 40
-0.6
 41
-30.0
 62
     5
 63
     7
 74
     1
 91
        4
 64
     7
 65
   257
 75
     1
175
     1
 42
1.0
 92
        0
 66
   257
 43
1.0
 76
     1
 77
     6
 78
     2
 67
     7
 79
     5
170
     0
171
     0
290
     0
174
     0
 93
        1
 44
0.0
173
     0
291
     0
 45
0.0
1001
ACAD
1000
AcDbSavedByObjectVersion
1070
     0
  0
VISUALSTYLE
  5
4E
102
{ACAD_XDICTIONARY
360
1DE
102
}
102
{ACAD_REACTORS
330
32
102
}
330
32
100
AcDbVisualStyle
  2
Realistic
 70
     8
 71
     2
 72
     3
 73
     0
 90
        2
 40
-0.6
 41
30.0
 62
     5
 63
     7
 74
     0
 91
        0
 64
     7
 65
   257
 75
     1
175
     1
 42
1.0
 92
        8
 66
   257
 43
1.0
 76
     1
 77
     6
 78
     2
 67
     7
 79
     3
170
     0
171
     0
290
     0
174
     0
 93
       13
 44
0.0
173
     0
291
     0
 45
0.0
1001
ACAD
1000
AcDbSavedByObjectVersion
1070
     0
  0
VISUALSTYLE
  5
4F
102
{ACAD_XDICTIONARY
360
1E0
102
}
102
{ACAD_REACTORS
330
32
102
}
330
32
100
AcDbVisualStyle
  2
Wireframe
 70
     5
 71
     0
 72
     2
 73
     0
 90
        0
 40
-0.6
 41
-30.0
 62
     5
 63
     7
 74
     1
 91
        4
 64
     7
 65
   257
 75
     1
175
     1
 42
1.0
 92
        0
 66
   257
 43
1.0
 76
     1
 77
     6
 78
     2
 67
     7
 79
     3
170
     0
171
     0
290
     0
174
     0
 93
        1
 44
0.0
173
     0
291
     0
 45
0.0
1001
ACAD
1000
AcDbSavedByObjectVersion
1070
     0
  0
DICTIONARYVAR
  5
1CB
102
{ACAD_REACTORS
330
1C6
102
}
330
1C6
100
DictionaryVariables
280
     0
  1
1:1
  0
DICTIONARYVAR
  5
1C8
102
{ACAD_REACTORS
330
1C6
102
}
330
1C6
100
DictionaryVariables
280
     0
  1
STANDARD
  0
DICTIONARYVAR
  5
1C7
102
{ACAD_REACTORS
330
1C6
102
}
330
1C6
100
DictionaryVariables
280
     0
  1
STANDARD
  0
DICTIONARYVAR
  5
1C9
102
{ACAD_REACTORS
330
1C6
102
}
330
1C6
100
DictionaryVariables
280
     0
  1

  0
DICTIONARYVAR
  5
1CA
102
{ACAD_REACTORS
330
1C6
102
}
330
1C6
100
DictionaryVariables
280
     0
  1

  0
DICTIONARYVAR
  5
1CF
102
{ACAD_REACTORS
330
1C6
102
}
330
1C6
100
DictionaryVariables
280
     0
  1
1
  0
DICTIONARYVAR
  5
1CE
102
{ACAD_REACTORS
330
1C6
102
}
330
1C6
100
DictionaryVariables
280
     0
  1
1
  0
DICTIONARYVAR
  5
1CD
102
{ACAD_REACTORS
330
1C6
102
}
330
1C6
100
DictionaryVariables
280
     0
  1
0
  0
DICTIONARYVAR
  5
1CC
102
{ACAD_REACTORS
330
1C6
102
}
330
1C6
100
DictionaryVariables
280
     0
  1
127
  0
DICTIONARYVAR
  5
1D0
102
{ACAD_REACTORS
330
1C6
102
}
330
1C6
100
DictionaryVariables
280
     0
  1
2
  0
DICTIONARY
  5
1D6
330
1E
100
AcDbDictionary
280
     1
281
     1
  3
ACAD_XREC_ROUNDTRIP
360
1D7
  0
DICTIONARY
  5
1D8
330
25
100
AcDbDictionary
280
     1
281
     1
  3
ACAD_XREC_ROUNDTRIP
360
1D9
  0
DICTIONARY
  5
40
330
3F
100
AcDbDictionary
280
     1
281
     1
  3
ACAD_XREC_ROUNDTRIP
360
1DC
  3
BUMPTILE
360
41
  3
DIFFUSETILE
360
42
  3
OPACITYTILE
360
43
  3
REFLECTIONTILE
360
44
  3
REFRACTIONTILE
360
45
  3
SPECULARTILE
360
46
  0
DICTIONARY
  5
16
330
15
100
AcDbDictionary
280
     1
281
     1
  3
ACAD_XREC_ROUNDTRIP
360
1D5
  3
BUMPTILE
360
17
  3
DIFFUSETILE
360
18
  3
OPACITYTILE
360
19
  3
REFLECTIONTILE
360
1A
  3
REFRACTIONTILE
360
1B
  3
SPECULARTILE
360
1C
  0
DICTIONARY
  5
D
330
B
100
AcDbDictionary
280
     1
281
     1
  3
ACAD_XREC_ROUNDTRIP
360
1D4
  3
BUMPTILE
360
E
  3
DIFFUSETILE
360
F
  3
OPACITYTILE
360
10
  3
REFLECTIONTILE
360
11
  3
REFRACTIONTILE
360
12
  3
SPECULARTILE
360
13
  0
DICTIONARY
  5
1D1
330
4D
100
AcDbDictionary
280
     1
281
     1
  3
ACAD_ROUNDTRIP_2008_TABLESTYLE_CELLSTYLEMAP
360
1D2
  3
ACAD_XREC_ROUNDTRIP
360
1DD
  0
DICTIONARY
  5
1DA
330
31
100
AcDbDictionary
280
     1
281
     1
  3
ACAD_XREC_ROUNDTRIP
360
1DB
  0
DICTIONARY
  5
1DE
330
4E
100
AcDbDictionary
280
     1
281
     1
  3
ACAD_XREC_ROUNDTRIP
360
1DF
  0
DICTIONARY
  5
1E0
330
4F
100
AcDbDictionary
280
     1
281
     1
  3
ACAD_XREC_ROUNDTRIP
360
1E1
  0
XRECORD
  5
1D7
102
{ACAD_REACTORS
330
1D6
102
}
330
1D6
100
AcDbXrecord
280
     1
102
SHADEPLOT
 70
     0
102
SHADEPLOTRESLEVEL
 70
     2
102
SHADEPLOTCUSTOMDPI
 70
   300
  0
XRECORD
  5
1D9
102
{ACAD_REACTORS
330
1D8
102
}
330
1D8
100
AcDbXrecord
280
     1
102
SHADEPLOT
 70
     0
102
SHADEPLOTRESLEVEL
 70
     2
102
SHADEPLOTCUSTOMDPI
 70
   300
  0
XRECORD
  5
1DC
102
{ACAD_REACTORS
330
40
102
}
330
40
100
AcDbXrecord
280
     1
102
MATERIAL
148
0.0
149
0.0
149
0.0
 93
        0
 94
      127
282
     0
 72
     0
 77
     0
171
     0
175
     0
179
     0
273
     0
  0
XRECORD
  5
41
102
{ACAD_REACTORS
330
40
102
}
330
40
100
AcDbXrecord
280
     1
270
     1
271
     1
  0
XRECORD
  5
42
102
{ACAD_REACTORS
330
40
102
}
330
40
100
AcDbXrecord
280
     1
270
     1
271
     1
  0
XRECORD
  5
43
102
{ACAD_REACTORS
330
40
102
}
330
40
100
AcDbXrecord
280
     1
270
     1
271
     1
  0
XRECORD
  5
44
102
{ACAD_REACTORS
330
40
102
}
330
40
100
AcDbXrecord
280
     1
270
     1
271
     1
  0
XRECORD
  5
45
102
{ACAD_REACTORS
330
40
102
}
330
40
100
AcDbXrecord
280
     1
270
     1
271
     1
  0
XRECORD
  5
46
102
{ACAD_REACTORS
330
40
102
}
330
40
100
AcDbXrecord
280
     1
270
     1
271
     1
  0
XRECORD
  5
1D5
102
{ACAD_REACTORS
330
16
102
}
330
16
100
AcDbXrecord
280
     1
102
MATERIAL
148
0.0
149
0.0
149
0.0
 93
        0
 94
      127
282
     0
 72
     0
 77
     0
171
     0
175
     0
179
     0
273
     0
  0
XRECORD
  5
17
102
{ACAD_REACTORS
330
16
102
}
330
16
100
AcDbXrecord
280
     1
270
     1
271
     1
  0
XRECORD
  5
18
102
{ACAD_REACTORS
330
16
102
}
330
16
100
AcDbXrecord
280
     1
270
     1
271
     1
  0
XRECORD
  5
19
102
{ACAD_REACTORS
330
16
102
}
330
16
100
AcDbXrecord
280
     1
270
     1
271
     1
  0
XRECORD
  5
1A
102
{ACAD_REACTORS
330
16
102
}
330
16
100
AcDbXrecord
280
     1
270
     1
271
     1
  0
XRECORD
  5
1B
102
{ACAD_REACTORS
330
16
102
}
330
16
100
AcDbXrecord
280
     1
270
     1
271
     1
  0
XRECORD
  5
1C
102
{ACAD_REACTORS
330
16
102
}
330
16
100
AcDbXrecord
280
     1
270
     1
271
     1
  0
XRECORD
  5
1D4
102
{ACAD_REACTORS
330
D
102
}
330
D
100
AcDbXrecord
280
     1
102
MATERIAL
148
0.0
149
0.0
149
0.0
 93
        0
 94
      127
282
     0
 72
     0
 77
     0
171
     0
175
     0
179
     0
273
     0
  0
XRECORD
  5
E
102
{ACAD_REACTORS
330
D
102
}
330
D
100
AcDbXrecord
280
     1
270
     1
271
     1
  0
XRECORD
  5
F
102
{ACAD_REACTORS
330
D
102
}
330
D
100
AcDbXrecord
280
     1
270
     1
271
     1
  0
XRECORD
  5
10
102
{ACAD_REACTORS
330
D
102
}
330
D
100
AcDbXrecord
280
     1
270
     1
271
     1
  0
XRECORD
  5
11
102
{ACAD_REACTORS
330
D
102
}
330
D
100
AcDbXrecord
280
     1
270
     1
271
     1
  0
XRECORD
  5
12
102
{ACAD_REACTORS
330
D
102
}
330
D
100
AcDbXrecord
280
     1
270
     1
271
     1
  0
XRECORD
  5
13
102
{ACAD_REACTORS
330
D
102
}
330
D
100
AcDbXrecord
280
     1
270
     1
271
     1
  0
CELLSTYLEMAP
  5
1D2
102
{ACAD_REACTORS
330
1D1
102
}
330
1D1
100
AcDbCellStyleMap
 90
        3
300
CELLSTYLE
  1
TABLEFORMAT_BEGIN
 90
        5
170
     1
 91
        0
 92
    32768
 62
   257
 93
        1
300
CONTENTFORMAT
  1
CONTENTFORMAT_BEGIN
 90
        0
 91
        0
 92
        4
 93
        0
300

 40
0.0
140
1.0
 94
        5
 62
     0
340
28
144
0.25
309
CONTENTFORMAT_END
171
     0
 94
        6
 95
        1
302
GRIDFORMAT
  1
GRIDFORMAT_BEGIN
 90
        0
 91
        1
 62
     0
 92
       -2
340
0
 93
        0
 40
0.045
309
GRIDFORMAT_END
 95
        2
302
GRIDFORMAT
  1
GRIDFORMAT_BEGIN
 90
        0
 91
        1
 62
     0
 92
       -2
340
0
 93
        0
 40
0.045
309
GRIDFORMAT_END
 95
        4
302
GRIDFORMAT
  1
GRIDFORMAT_BEGIN
 90
        0
 91
        1
 62
     0
 92
       -2
340
0
 93
        0
 40
0.045
309
GRIDFORMAT_END
 95
        8
302
GRIDFORMAT
  1
GRIDFORMAT_BEGIN
 90
        0
 91
        1
 62
     0
 92
       -2
340
0
 93
        0
 40
0.045
309
GRIDFORMAT_END
 95
       16
302
GRIDFORMAT
  1
GRIDFORMAT_BEGIN
 90
        0
 91
        1
 62
     0
 92
       -2
340
0
 93
        0
 40
0.045
309
GRIDFORMAT_END
 95
       32
302
GRIDFORMAT
  1
GRIDFORMAT_BEGIN
 90
        0
 91
        1
 62
     0
 92
       -2
340
0
 93
        0
 40
0.045
309
GRIDFORMAT_END
309
TABLEFORMAT_END
  1
CELLSTYLE_BEGIN
 90
        1
 91
        1
300
_TITLE
309
CELLSTYLE_END
300
CELLSTYLE
  1
TABLEFORMAT_BEGIN
 90
        5
170
     1
 91
        0
 92
        0
 62
   257
 93
        1
300
CONTENTFORMAT
  1
CONTENTFORMAT_BEGIN
 90
        0
 91
        0
 92
        4
 93
        0
300

 40
0.0
140
1.0
 94
        5
 62
     0
340
28
144
0.18
309
CONTENTFORMAT_END
171
     0
 94
        6
 95
        1
302
GRIDFORMAT
  1
GRIDFORMAT_BEGIN
 90
        0
 91
        1
 62
     0
 92
       -2
340
0
 93
        0
 40
0.045
309
GRIDFORMAT_END
 95
        2
302
GRIDFORMAT
  1
GRIDFORMAT_BEGIN
 90
        0
 91
        1
 62
     0
 92
       -2
340
0
 93
        0
 40
0.045
309
GRIDFORMAT_END
 95
        4
302
GRIDFORMAT
  1
GRIDFORMAT_BEGIN
 90
        0
 91
        1
 62
     0
 92
       -2
340
0
 93
        0
 40
0.045
309
GRIDFORMAT_END
 95
        8
302
GRIDFORMAT
  1
GRIDFORMAT_BEGIN
 90
        0
 91
        1
 62
     0
 92
       -2
340
0
 93
        0
 40
0.045
309
GRIDFORMAT_END
 95
       16
302
GRIDFORMAT
  1
GRIDFORMAT_BEGIN
 90
        0
 91
        1
 62
     0
 92
       -2
340
0
 93
        0
 40
0.045
309
GRIDFORMAT_END
 95
       32
302
GRIDFORMAT
  1
GRIDFORMAT_BEGIN
 90
        0
 91
        1
 62
     0
 92
       -2
340
0
 93
        0
 40
0.045
309
GRIDFORMAT_END
309
TABLEFORMAT_END
  1
CELLSTYLE_BEGIN
 90
        2
 91
        1
300
_HEADER
309
CELLSTYLE_END
300
CELLSTYLE
  1
TABLEFORMAT_BEGIN
 90
        5
170
     1
 91
        0
 92
        0
 62
   257
 93
        1
300
CONTENTFORMAT
  1
CONTENTFORMAT_BEGIN
 90
        0
 91
        0
 92
        4
 93
        0
300

 40
0.0
140
1.0
 94
        2
 62
     0
340
28
144
0.18
309
CONTENTFORMAT_END
171
     0
 94
        6
 95
        1
302
GRIDFORMAT
  1
GRIDFORMAT_BEGIN
 90
        0
 91
        1
 62
     0
 92
       -2
340
0
 93
        0
 40
0.045
309
GRIDFORMAT_END
 95
        2
302
GRIDFORMAT
  1
GRIDFORMAT_BEGIN
 90
        0
 91
        1
 62
     0
 92
       -2
340
0
 93
        0
 40
0.045
309
GRIDFORMAT_END
 95
        4
302
GRIDFORMAT
  1
GRIDFORMAT_BEGIN
 90
        0
 91
        1
 62
     0
 92
       -2
340
0
 93
        0
 40
0.045
309
GRIDFORMAT_END
 95
        8
302
GRIDFORMAT
  1
GRIDFORMAT_BEGIN
 90
        0
 91
        1
 62
     0
 92
       -2
340
0
 93
        0
 40
0.045
309
GRIDFORMAT_END
 95
       16
302
GRIDFORMAT
  1
GRIDFORMAT_BEGIN
 90
        0
 91
        1
 62
     0
 92
       -2
340
0
 93
        0
 40
0.045
309
GRIDFORMAT_END
 95
       32
302
GRIDFORMAT
  1
GRIDFORMAT_BEGIN
 90
        0
 91
        1
 62
     0
 92
       -2
340
0
 93
        0
 40
0.045
309
GRIDFORMAT_END
309
TABLEFORMAT_END
  1
CELLSTYLE_BEGIN
 90
        3
 91
        2
300
_DATA
309
CELLSTYLE_END
  0
XRECORD
  5
1DD
102
{ACAD_REACTORS
330
1D1
102
}
330
1D1
100
AcDbXrecord
280
     1
102
ACAD_ROUNDTRIP_PRE2007_TABLESTYLE
 90
        4
 91
        0
  1

 92
        4
 93
        0
  2

 94
        4
 95
        0
  3

  0
XRECORD
  5
1DB
102
{ACAD_REACTORS
330
1DA
102
}
330
1DA
100
AcDbXrecord
280
     1
102
RTVSPost2010Prop28
280
     1
102
RTVSPost2010PropOp28
 70
     1
102
RTVSPost2010Prop29
280
     1
102
RTVSPost2010PropOp29
 70
     1
102
RTVSPost2010Prop30
280
     0
102
RTVSPost2010PropOp30
 70
     1
102
RTVSPost2010Prop31
280
     0
102
RTVSPost2010PropOp31
 70
     1
102
RTVSPost2010Prop32
280
     0
102
RTVSPost2010PropOp32
 70
     1
102
RTVSPost2010Prop33
280
     0
102
RTVSPost2010PropOp33
 70
     1
102
RTVSPost2010Prop34
280
     0
102
RTVSPost2010PropOp34
 70
     1
102
RTVSPost2010Prop35
280
     0
102
RTVSPost2010PropOp35
 70
     1
102
RTVSPost2010Prop36
280
     0
102
RTVSPost2010PropOp36
 70
     1
102
RTVSPost2010Prop37
 90
       50
102
RTVSPost2010PropOp37
 70
     1
102
RTVSPost2010Prop38
140
0.0
102
RTVSPost2010PropOp38
 70
     1
102
RTVSPost2010Prop39
140
1.0
102
RTVSPost2010PropOp39
 70
     1
102
RTVSPost2010Prop40
 90
        0
102
RTVSPost2010PropOp40
 70
     1
102
RTVSPost2010Prop41ColorIndex
 90
       18
102
RTVSPost2010Prop41ColorRGB
 90
        0
102
RTVSPost2010PropOp41
 70
     1
102
RTVSPost2010Prop42
 90
       50
102
RTVSPost2010PropOp42
 70
     1
102
RTVSPost2010Prop43
 90
        3
102
RTVSPost2010PropOp43
 70
     1
102
RTVSPost2010Prop44ColorIndex
 90
        5
102
RTVSPost2010Prop44ColorRGB
 90
      255
102
RTVSPost2010PropOp44
 70
     1
102
RTVSPost2010Prop45
280
     0
102
RTVSPost2010PropOp45
 70
     1
102
RTVSPost2010Prop46
 90
       50
102
RTVSPost2010PropOp46
 70
     1
102
RTVSPost2010Prop47
 90
       50
102
RTVSPost2010PropOp47
 70
     1
102
RTVSPost2010Prop48
 90
       50
102
RTVSPost2010PropOp48
 70
     1
102
RTVSPost2010Prop49
280
     0
102
RTVSPost2010PropOp49
 70
     1
102
RTVSPost2010Prop50
 90
       50
102
RTVSPost2010PropOp50
 70
     1
102
RTVSPost2010Prop51ColorIndex
 90
      256
102
RTVSPost2010Prop51ColorRGB
 90
-16777216
102
RTVSPost2010PropOp51
 70
     0
102
RTVSPost2010Prop52
140
1.0
102
RTVSPost2010PropOp52
 70
     0
102
RTVSPost2010Prop53
 90
        2
102
RTVSPost2010PropOp53
 70
     1
102
RTVSPost2010Prop54
  1
strokes_ogs.tif
102
RTVSPost2010PropOp54
 70
     1
102
RTVSPost2010Prop55
280
     0
102
RTVSPost2010PropOp55
 70
     1
102
RTVSPost2010Prop56
140
1.0
102
RTVSPost2010PropOp56
 70
     1
102
RTVSPost2010Prop57
140
1.0
102
RTVSPost2010PropOp57
 70
     1
102
RTVSPropertyOp0
 70
     1
102
RTVSPropertyOp1
 70
     1
102
RTVSPropertyOp2
 70
     1
102
RTVSPropertyOp3
 70
     1
102
RTVSPropertyOp4
 70
     1
102
RTVSPropertyOp5
 70
     1
102
RTVSPropertyOp6
 70
     1
102
RTVSPropertyOp7
 70
     1
102
RTVSPropertyOp8
 70
     1
102
RTVSPropertyOp9
 70
     1
102
RTVSPropertyOp10
 70
     1
102
RTVSPropertyOp11
 70
     1
102
RTVSPropertyOp12
 70
     1
102
RTVSPropertyOp13
 70
     1
102
RTVSPropertyOp14
 70
     1
102
RTVSPropertyOp15
 70
     1
102
RTVSPropertyOp16
 70
     1
102
RTVSPropertyOp17
 70
     1
102
RTVSPropertyOp18
 70
     1
102
RTVSPropertyOp19
 70
     1
102
RTVSPropertyOp20
 70
     1
102
RTVSPropertyOp21
 70
     1
102
RTVSPropertyOp22
 70
     1
102
RTVSPropertyOp23
 70
     1
102
RTVSPropertyOp24
 70
     1
102
RTVSPropertyOp25
 70
     1
102
RTVSPropertyOp26
 70
     1
102
RTVSPropertyOp27
 70
     1
102
RTVSPropertyOp28
 70
     1
102
RTVSPropertyOp29
 70
     1
102
RTVSPropertyOp30
 70
     1
102
RTVSPropertyOp31
 70
     1
102
RTVSPropertyOp32
 70
     1
102
RTVSPropertyOp33
 70
     1
102
RTVSPropertyOp34
 70
     1
102
RTVSPropertyOp35
 70
     1
102
RTVSPropertyOp36
 70
     1
102
RTVSPropertyOp37
 70
     1
102
RTVSPropertyOp38
 70
     1
102
RTVSPropertyOp39
 70
     1
102
RTVSPropertyOp40
 70
     1
102
RTVSPropertyOp41
 70
     1
102
RTVSPropertyOp42
 70
     1
102
RTVSPropertyOp43
 70
     1
102
RTVSPropertyOp44
 70
     1
102
RTVSPropertyOp45
 70
     1
102
RTVSPropertyOp46
 70
     1
102
RTVSPropertyOp47
 70
     1
102
RTVSPropertyOp48
 70
     1
102
RTVSPropertyOp49
 70
     1
102
RTVSPropertyOp50
 70
     1
102
RTVSPropertyOp51
 70
     0
102
RTVSPropertyOp52
 70
     0
102
RTVSPropertyOp53
 70
     1
102
RTVSPropertyOp54
 70
     1
102
RTVSPropertyOp55
 70
     1
102
RTVSPropertyOp56
 70
     1
102
RTVSPropertyOp57
 70
     1
102
RTVSPropertyOp58
 70
     1
102
RTVSPropertyOp59
 70
     1
102
RTVSPropertyOp60
 70
     1
102
RTVSPropertyOp61
 70
     1
102
RTVSPropertyOp62
 70
     1
  0
XRECORD
  5
1DF
102
{ACAD_REACTORS
330
1DE
102
}
330
1DE
100
AcDbXrecord
280
     1
102
RTVSPost2010Prop28
280
     0
102
RTVSPost2010PropOp28
 70
     1
102
RTVSPost2010Prop29
280
     1
102
RTVSPost2010PropOp29
 70
     1
102
RTVSPost2010Prop30
280
     1
102
RTVSPost2010PropOp30
 70
     1
102
RTVSPost2010Prop31
280
     0
102
RTVSPost2010PropOp31
 70
     1
102
RTVSPost2010Prop32
280
     0
102
RTVSPost2010PropOp32
 70
     1
102
RTVSPost2010Prop33
280
     0
102
RTVSPost2010PropOp33
 70
     1
102
RTVSPost2010Prop34
280
     0
102
RTVSPost2010PropOp34
 70
     1
102
RTVSPost2010Prop35
280
     0
102
RTVSPost2010PropOp35
 70
     1
102
RTVSPost2010Prop36
280
     0
102
RTVSPost2010PropOp36
 70
     1
102
RTVSPost2010Prop37
 90
       50
102
RTVSPost2010PropOp37
 70
     1
102
RTVSPost2010Prop38
140
0.0
102
RTVSPost2010PropOp38
 70
     1
102
RTVSPost2010Prop39
140
1.0
102
RTVSPost2010PropOp39
 70
     1
102
RTVSPost2010Prop40
 90
        0
102
RTVSPost2010PropOp40
 70
     1
102
RTVSPost2010Prop41ColorIndex
 90
       18
102
RTVSPost2010Prop41ColorRGB
 90
        0
102
RTVSPost2010PropOp41
 70
     1
102
RTVSPost2010Prop42
 90
       50
102
RTVSPost2010PropOp42
 70
     1
102
RTVSPost2010Prop43
 90
        3
102
RTVSPost2010PropOp43
 70
     1
102
RTVSPost2010Prop44ColorIndex
 90
        5
102
RTVSPost2010Prop44ColorRGB
 90
      255
102
RTVSPost2010PropOp44
 70
     1
102
RTVSPost2010Prop45
280
     0
102
RTVSPost2010PropOp45
 70
     1
102
RTVSPost2010Prop46
 90
       50
102
RTVSPost2010PropOp46
 70
     1
102
RTVSPost2010Prop47
 90
       50
102
RTVSPost2010PropOp47
 70
     1
102
RTVSPost2010Prop48
 90
       50
102
RTVSPost2010PropOp48
 70
     1
102
RTVSPost2010Prop49
280
     0
102
RTVSPost2010PropOp49
 70
     1
102
RTVSPost2010Prop50
 90
       50
102
RTVSPost2010PropOp50
 70
     1
102
RTVSPost2010Prop51ColorIndex
 90
      256
102
RTVSPost2010Prop51ColorRGB
 90
-16777216
102
RTVSPost2010PropOp51
 70
     0
102
RTVSPost2010Prop52
140
1.0
102
RTVSPost2010PropOp52
 70
     0
102
RTVSPost2010Prop53
 90
        2
102
RTVSPost2010PropOp53
 70
     1
102
RTVSPost2010Prop54
  1
strokes_ogs.tif
102
RTVSPost2010PropOp54
 70
     1
102
RTVSPost2010Prop55
280
     0
102
RTVSPost2010PropOp55
 70
     1
102
RTVSPost2010Prop56
140
1.0
102
RTVSPost2010PropOp56
 70
     1
102
RTVSPost2010Prop57
140
1.0
102
RTVSPost2010PropOp57
 70
     1
102
RTVSPropertyOp0
 70
     1
102
RTVSPropertyOp1
 70
     1
102
RTVSPropertyOp2
 70
     1
102
RTVSPropertyOp3
 70
     1
102
RTVSPropertyOp4
 70
     1
102
RTVSPropertyOp5
 70
     1
102
RTVSPropertyOp6
 70
     1
102
RTVSPropertyOp7
 70
     1
102
RTVSPropertyOp8
 70
     1
102
RTVSPropertyOp9
 70
     1
102
RTVSPropertyOp10
 70
     1
102
RTVSPropertyOp11
 70
     1
102
RTVSPropertyOp12
 70
     1
102
RTVSPropertyOp13
 70
     1
102
RTVSPropertyOp14
 70
     1
102
RTVSPropertyOp15
 70
     1
102
RTVSPropertyOp16
 70
     1
102
RTVSPropertyOp17
 70
     1
102
RTVSPropertyOp18
 70
     1
102
RTVSPropertyOp19
 70
     1
102
RTVSPropertyOp20
 70
     1
102
RTVSPropertyOp21
 70
     1
102
RTVSPropertyOp22
 70
     1
102
RTVSPropertyOp23
 70
     1
102
RTVSPropertyOp24
 70
     1
102
RTVSPropertyOp25
 70
     1
102
RTVSPropertyOp26
 70
     1
102
RTVSPropertyOp27
 70
     1
102
RTVSPropertyOp28
 70
     1
102
RTVSPropertyOp29
 70
     1
102
RTVSPropertyOp30
 70
     1
102
RTVSPropertyOp31
 70
     1
102
RTVSPropertyOp32
 70
     1
102
RTVSPropertyOp33
 70
     1
102
RTVSPropertyOp34
 70
     1
102
RTVSPropertyOp35
 70
     1
102
RTVSPropertyOp36
 70
     1
102
RTVSPropertyOp37
 70
     1
102
RTVSPropertyOp38
 70
     1
102
RTVSPropertyOp39
 70
     1
102
RTVSPropertyOp40
 70
     1
102
RTVSPropertyOp41
 70
     1
102
RTVSPropertyOp42
 70
     1
102
RTVSPropertyOp43
 70
     1
102
RTVSPropertyOp44
 70
     1
102
RTVSPropertyOp45
 70
     1
102
RTVSPropertyOp46
 70
     1
102
RTVSPropertyOp47
 70
     1
102
RTVSPropertyOp48
 70
     1
102
RTVSPropertyOp49
 70
     1
102
RTVSPropertyOp50
 70
     1
102
RTVSPropertyOp51
 70
     0
102
RTVSPropertyOp52
 70
     0
102
RTVSPropertyOp53
 70
     1
102
RTVSPropertyOp54
 70
     1
102
RTVSPropertyOp55
 70
     1
102
RTVSPropertyOp56
 70
     1
102
RTVSPropertyOp57
 70
     1
102
RTVSPropertyOp58
 70
     1
102
RTVSPropertyOp59
 70
     1
102
RTVSPropertyOp60
 70
     1
102
RTVSPropertyOp61
 70
     1
102
RTVSPropertyOp62
 70
     1
  0
XRECORD
  5
1E1
102
{ACAD_REACTORS
330
1E0
102
}
330
1E0
100
AcDbXrecord
280
     1
102
RTVSPost2010Prop28
280
     0
102
RTVSPost2010PropOp28
 70
     1
102
RTVSPost2010Prop29
280
     1
102
RTVSPost2010PropOp29
 70
     1
102
RTVSPost2010Prop30
280
     1
102
RTVSPost2010PropOp30
 70
     1
102
RTVSPost2010Prop31
280
     0
102
RTVSPost2010PropOp31
 70
     1
102
RTVSPost2010Prop32
280
     0
102
RTVSPost2010PropOp32
 70
     1
102
RTVSPost2010Prop33
280
     0
102
RTVSPost2010PropOp33
 70
     1
102
RTVSPost2010Prop34
280
     0
102
RTVSPost2010PropOp34
 70
     1
102
RTVSPost2010Prop35
280
     0
102
RTVSPost2010PropOp35
 70
     1
102
RTVSPost2010Prop36
280
     0
102
RTVSPost2010PropOp36
 70
     1
102
RTVSPost2010Prop37
 90
       50
102
RTVSPost2010PropOp37
 70
     1
102
RTVSPost2010Prop38
140
0.0
102
RTVSPost2010PropOp38
 70
     1
102
RTVSPost2010Prop39
140
1.0
102
RTVSPost2010PropOp39
 70
     1
102
RTVSPost2010Prop40
 90
        0
102
RTVSPost2010PropOp40
 70
     1
102
RTVSPost2010Prop41ColorIndex
 90
       18
102
RTVSPost2010Prop41ColorRGB
 90
        0
102
RTVSPost2010PropOp41
 70
     1
102
RTVSPost2010Prop42
 90
       50
102
RTVSPost2010PropOp42
 70
     1
102
RTVSPost2010Prop43
 90
        3
102
RTVSPost2010PropOp43
 70
     1
102
RTVSPost2010Prop44ColorIndex
 90
        5
102
RTVSPost2010Prop44ColorRGB
 90
      255
102
RTVSPost2010PropOp44
 70
     1
102
RTVSPost2010Prop45
280
     0
102
RTVSPost2010PropOp45
 70
     1
102
RTVSPost2010Prop46
 90
       50
102
RTVSPost2010PropOp46
 70
     1
102
RTVSPost2010Prop47
 90
       50
102
RTVSPost2010PropOp47
 70
     1
102
RTVSPost2010Prop48
 90
       50
102
RTVSPost2010PropOp48
 70
     1
102
RTVSPost2010Prop49
280
     0
102
RTVSPost2010PropOp49
 70
     1
102
RTVSPost2010Prop50
 90
       50
102
RTVSPost2010PropOp50
 70
     1
102
RTVSPost2010Prop51ColorIndex
 90
      256
102
RTVSPost2010Prop51ColorRGB
 90
-16777216
102
RTVSPost2010PropOp51
 70
     0
102
RTVSPost2010Prop52
140
1.0
102
RTVSPost2010PropOp52
 70
     0
102
RTVSPost2010Prop53
 90
        2
102
RTVSPost2010PropOp53
 70
     1
102
RTVSPost2010Prop54
  1
strokes_ogs.tif
102
RTVSPost2010PropOp54
 70
     1
102
RTVSPost2010Prop55
280
     0
102
RTVSPost2010PropOp55
 70
     1
102
RTVSPost2010Prop56
140
1.0
102
RTVSPost2010PropOp56
 70
     1
102
RTVSPost2010Prop57
140
1.0
102
RTVSPost2010PropOp57
 70
     1
102
RTVSPropertyOp0
 70
     1
102
RTVSPropertyOp1
 70
     1
102
RTVSPropertyOp2
 70
     1
102
RTVSPropertyOp3
 70
     1
102
RTVSPropertyOp4
 70
     1
102
RTVSPropertyOp5
 70
     1
102
RTVSPropertyOp6
 70
     1
102
RTVSPropertyOp7
 70
     1
102
RTVSPropertyOp8
 70
     1
102
RTVSPropertyOp9
 70
     1
102
RTVSPropertyOp10
 70
     1
102
RTVSPropertyOp11
 70
     1
102
RTVSPropertyOp12
 70
     1
102
RTVSPropertyOp13
 70
     1
102
RTVSPropertyOp14
 70
     1
102
RTVSPropertyOp15
 70
     1
102
RTVSPropertyOp16
 70
     1
102
RTVSPropertyOp17
 70
     1
102
RTVSPropertyOp18
 70
     1
102
RTVSPropertyOp19
 70
     1
102
RTVSPropertyOp20
 70
     1
102
RTVSPropertyOp21
 70
     1
102
RTVSPropertyOp22
 70
     1
102
RTVSPropertyOp23
 70
     1
102
RTVSPropertyOp24
 70
     1
102
RTVSPropertyOp25
 70
     1
102
RTVSPropertyOp26
 70
     1
102
RTVSPropertyOp27
 70
     1
102
RTVSPropertyOp28
 70
     1
102
RTVSPropertyOp29
 70
     1
102
RTVSPropertyOp30
 70
     1
102
RTVSPropertyOp31
 70
     1
102
RTVSPropertyOp32
 70
     1
102
RTVSPropertyOp33
 70
     1
102
RTVSPropertyOp34
 70
     1
102
RTVSPropertyOp35
 70
     1
102
RTVSPropertyOp36
 70
     1
102
RTVSPropertyOp37
 70
     1
102
RTVSPropertyOp38
 70
     1
102
RTVSPropertyOp39
 70
     1
102
RTVSPropertyOp40
 70
     1
102
RTVSPropertyOp41
 70
     1
102
RTVSPropertyOp42
 70
     1
102
RTVSPropertyOp43
 70
     1
102
RTVSPropertyOp44
 70
     1
102
RTVSPropertyOp45
 70
     1
102
RTVSPropertyOp46
 70
     1
102
RTVSPropertyOp47
 70
     1
102
RTVSPropertyOp48
 70
     1
102
RTVSPropertyOp49
 70
     1
102
RTVSPropertyOp50
 70
     1
102
RTVSPropertyOp51
 70
     0
102
RTVSPropertyOp52
 70
     0
102
RTVSPropertyOp53
 70
     1
102
RTVSPropertyOp54
 70
     1
102
RTVSPropertyOp55
 70
     1
102
RTVSPropertyOp56
 70
     1
102
RTVSPropertyOp57
 70
     1
102
RTVSPropertyOp58
 70
     1
102
RTVSPropertyOp59
 70
     1
102
RTVSPropertyOp60
 70
     1
102
RTVSPropertyOp61
 70
     1
102
RTVSPropertyOp62
 70
     1
  0
ENDSEC
  0
EOF
