  0
SECTION
  2
HEADER
  9
$ACADVER
  1
AC1015
  9
$ACADMAINTVER
 70
    18
  9
$DWGCODEPAGE
  3
ANSI_932
  9
$INSBASE
 10
0.0
 20
0.0
 30
0.0
  9
$EXTMIN
 10
-8.174404388749987
 20
0.0
 30
0.0
  9
$EXTMAX
 10
602.4030843567889
 20
180.7285631293996
 30
0.0
  9
$LIMMIN
 10
0.0
 20
0.0
  9
$LIMMAX
 10
420.0
 20
297.0
  9
$ORTHOMODE
 70
     1
  9
$REGENMODE
 70
     1
  9
$FILLMODE
 70
     1
  9
$QTEXTMODE
 70
     0
  9
$MIRRTEXT
 70
     1
  9
$LTSCALE
 40
1.0
  9
$ATTMODE
 70
     1
  9
$TEXTSIZE
 40
30.0
  9
$TRACEWID
 40
0.05
  9
$TEXTSTYLE
  7
SUNPOU
  9
$CLAYER
  8
0
  9
$CELTYPE
  6
BYLAYER
  9
$CECOLOR
 62
     7
  9
$CELTSCALE
 40
1.0
  9
$DISPSILH
 70
     0
  9
$DIMSCALE
 40
1.0
  9
$DIMASZ
 40
3.0
  9
$DIMEXO
 40
2.0
  9
$DIMDLI
 40
0.38
  9
$DIMRND
 40
0.0
  9
$DIMDLE
 40
0.0
  9
$DIMEXE
 40
0.0
  9
$DIMTP
 40
0.0
  9
$DIMTM
 40
0.0
  9
$DIMTXT
 40
7.0
  9
$DIMCEN
 40
1.0
  9
$DIMTSZ
 40
0.0
  9
$DIMTOL
 70
     0
  9
$DIMLIM
 70
     0
  9
$DIMTIH
 70
     0
  9
$DIMTOH
 70
     0
  9
$DIMSE1
 70
     0
  9
$DIMSE2
 70
     0
  9
$DIMTAD
 70
     1
  9
$DIMZIN
 70
     0
  9
$DIMBLK
  1

  9
$DIMASO
 70
     1
  9
$DIMSHO
 70
     1
  9
$DIMPOST
  1

  9
$DIMAPOST
  1

  9
$DIMALT
 70
     0
  9
$DIMALTD
 70
     2
  9
$DIMALTF
 40
25.4
  9
$DIMLFAC
 40
1.0
  9
$DIMTOFL
 70
     0
  9
$DIMTVP
 40
0.0
  9
$DIMTIX
 70
     1
  9
$DIMSOXD
 70
     0
  9
$DIMSAH
 70
     1
  9
$DIMBLK1
  1
DOTSMALL
  9
$DIMBLK2
  1
DOTSMALL
  9
$DIMSTYLE
  2
1
  9
$DIMCLRD
 70
    60
  9
$DIMCLRE
 70
    70
  9
$DIMCLRT
 70
    60
  9
$DIMTFAC
 40
0.0642857142857143
  9
$DIMGAP
 40
1.0
  9
$DIMJUST
 70
     0
  9
$DIMSD1
 70
     0
  9
$DIMSD2
 70
     0
  9
$DIMTOLJ
 70
     1
  9
$DIMTZIN
 70
     0
  9
$DIMALTZ
 70
     0
  9
$DIMALTTZ
 70
     0
  9
$DIMUPT
 70
     0
  9
$DIMDEC
 70
     0
  9
$DIMTDEC
 70
     4
  9
$DIMALTU
 70
     2
  9
$DIMALTTD
 70
     2
  9
$DIMTXSTY
  7
STANDARD
  9
$DIMAUNIT
 70
     0
  9
$DIMADEC
 70
     0
  9
$DIMALTRND
 40
0.0
  9
$DIMAZIN
 70
     0
  9
$DIMDSEP
 70
    46
  9
$DIMATFIT
 70
     3
  9
$DIMFRAC
 70
     0
  9
$DIMLDRBLK
  1
DOTSMALL
  9
$DIMLUNIT
 70
     2
  9
$DIMLWD
 70
    -2
  9
$DIMLWE
 70
    -2
  9
$DIMTMOVE
 70
     0
  9
$LUNITS
 70
     4
  9
$LUPREC
 70
     4
  9
$SKETCHINC
 40
0.1
  9
$FILLETRAD
 40
3.0
  9
$AUNITS
 70
     0
  9
$AUPREC
 70
     2
  9
$MENU
  1
acad
  9
$ELEVATION
 40
0.0
  9
$PELEVATION
 40
0.0
  9
$THICKNESS
 40
0.0
  9
$LIMCHECK
 70
     0
  9
$CHAMFERA
 40
0.0
  9
$CHAMFERB
 40
0.0
  9
$CHAMFERC
 40
0.0
  9
$CHAMFERD
 40
0.0
  9
$SKPOLY
 70
     0
  9
$TDCREATE
 40
2450623.676023380
  9
$TDUCREATE
 40
2450623.301023380
  9
$TDUPDATE
 40
2453882.366311794
  9
$TDUUPDATE
 40
2453881.991311794
  9
$TDINDWG
 40
5.3793053472
  9
$TDUSRTIMER
 40
5.3793051620
  9
$USRTIMER
 70
     1
  9
$ANGBASE
 50
0.0
  9
$ANGDIR
 70
     0
  9
$PDMODE
 70
     0
  9
$PDSIZE
 40
0.0
  9
$PLINEWID
 40
0.0
  9
$SPLFRAME
 70
     0
  9
$SPLINETYPE
 70
     6
  9
$SPLINESEGS
 70
     8
  9
$HANDSEED
  5
384
  9
$SURFTAB1
 70
     6
  9
$SURFTAB2
 70
     6
  9
$SURFTYPE
 70
     6
  9
$SURFU
 70
     6
  9
$SURFV
 70
     6
  9
$UCSBASE
  2

  9
$UCSNAME
  2

  9
$UCSORG
 10
0.0
 20
0.0
 30
0.0
  9
$UCSXDIR
 10
1.0
 20
0.0
 30
0.0
  9
$UCSYDIR
 10
0.0
 20
1.0
 30
0.0
  9
$UCSORTHOREF
  2

  9
$UCSORTHOVIEW
 70
     0
  9
$UCSORGTOP
 10
0.0
 20
0.0
 30
0.0
  9
$UCSORGBOTTOM
 10
0.0
 20
0.0
 30
0.0
  9
$UCSORGLEFT
 10
0.0
 20
0.0
 30
0.0
  9
$UCSORGRIGHT
 10
0.0
 20
0.0
 30
0.0
  9
$UCSORGFRONT
 10
0.0
 20
0.0
 30
0.0
  9
$UCSORGBACK
 10
0.0
 20
0.0
 30
0.0
  9
$PUCSBASE
  2

  9
$PUCSNAME
  2

  9
$PUCSORG
 10
0.0
 20
0.0
 30
0.0
  9
$PUCSXDIR
 10
1.0
 20
0.0
 30
0.0
  9
$PUCSYDIR
 10
0.0
 20
1.0
 30
0.0
  9
$PUCSORTHOREF
  2

  9
$PUCSORTHOVIEW
 70
     0
  9
$PUCSORGTOP
 10
0.0
 20
0.0
 30
0.0
  9
$PUCSORGBOTTOM
 10
0.0
 20
0.0
 30
0.0
  9
$PUCSORGLEFT
 10
0.0
 20
0.0
 30
0.0
  9
$PUCSORGRIGHT
 10
0.0
 20
0.0
 30
0.0
  9
$PUCSORGFRONT
 10
0.0
 20
0.0
 30
0.0
  9
$PUCSORGBACK
 10
0.0
 20
0.0
 30
0.0
  9
$USERI1
 70
     0
  9
$USERI2
 70
     0
  9
$USERI3
 70
     0
  9
$USERI4
 70
     0
  9
$USERI5
 70
     0
  9
$USERR1
 40
0.0
  9
$USERR2
 40
0.0
  9
$USERR3
 40
0.0
  9
$USERR4
 40
0.0
  9
$USERR5
 40
0.0
  9
$WORLDVIEW
 70
     1
  9
$SHADEDGE
 70
     3
  9
$SHADEDIF
 70
    70
  9
$TILEMODE
 70
     1
  9
$MAXACTVP
 70
    16
  9
$PINSBASE
 10
0.0
 20
0.0
 30
0.0
  9
$PLIMCHECK
 70
     0
  9
$PEXTMIN
 10
1.000000000000000E+20
 20
1.000000000000000E+20
 30
1.000000000000000E+20
  9
$PEXTMAX
 10
-1.000000000000000E+20
 20
-1.000000000000000E+20
 30
-1.000000000000000E+20
  9
$PLIMMIN
 10
0.0
 20
0.0
  9
$PLIMMAX
 10
12.0
 20
9.0
  9
$UNITMODE
 70
     0
  9
$VISRETAIN
 70
     0
  9
$PLINEGEN
 70
     0
  9
$PSLTSCALE
 70
     1
  9
$TREEDEPTH
 70
  3020
  9
$CMLSTYLE
  2
STANDARD
  9
$CMLJUST
 70
     0
  9
$CMLSCALE
 40
1.0
  9
$PROXYGRAPHICS
 70
     1
  9
$MEASUREMENT
 70
     0
  9
$CELWEIGHT
370
    -1
  9
$ENDCAPS
280
     0
  9
$JOINSTYLE
280
     0
  9
$LWDISPLAY
290
     0
  9
$INSUNITS
 70
     0
  9
$HYPERLINKBASE
  1

  9
$STYLESHEET
  1

  9
$XEDIT
290
     1
  9
$CEPSNTYPE
380
     0
  9
$PSTYLEMODE
290
     1
  9
$FINGERPRINTGUID
  2
{CD845B41-A5E1-4DBA-B225-9830E6080135}
  9
$VERSIONGUID
  2
{247D92E5-CF30-47CB-BD25-27E653D9E4BD}
  9
$EXTNAMES
290
     1
  9
$PSVPSCALE
 40
0.0
  9
$OLESTARTUP
290
     0
  0
ENDSEC
  0
SECTION
  2
CLASSES
  0
CLASS
  1
DICTIONARYVAR
  2
AcDbDictionaryVar
  3
ObjectDBX Classes
 90
        0
280
     0
281
     0
  0
CLASS
  1
RASTERVARIABLES
  2
AcDbRasterVariables
  3
ISM
 90
    32768
280
     0
281
     0
  0
CLASS
  1
ACDBDICTIONARYWDFLT
  2
AcDbDictionaryWithDefault
  3
ObjectDBX Classes
 90
        0
280
     0
281
     0
  0
CLASS
  1
ACDBPLACEHOLDER
  2
AcDbPlaceHolder
  3
ObjectDBX Classes
 90
        0
280
     0
281
     0
  0
CLASS
  1
LAYOUT
  2
AcDbLayout
  3
ObjectDBX Classes
 90
        0
280
     0
281
     0
  0
CLASS
  1
AEC_VARS_DWG_SETUP
  2
AecDbVarsDwgSetup
  3
AecBase
 90
    32897
280
     1
281
     0
  0
CLASS
  1
AEC_DISP_REP_MASS_ELEM_MODEL
  2
AecDbDispRepMassElemModel
  3
AecBase
 90
    32897
280
     1
281
     0
  0
CLASS
  1
AEC_DISP_PROPS_MASS_ELEM_MODEL
  2
AecDbDispPropsMassElem
  3
AecBase
 90
    32897
280
     1
281
     0
  0
CLASS
  1
AEC_DISP_REP_MASS_ELEM_SCHEM
  2
AecDbDispRepMassElemSchem
  3
AecBase
 90
    32897
280
     1
281
     0
  0
CLASS
  1
AEC_DISP_REP_DOOR_ELEV
  2
AecDbDispRepDoorElev
  3
AecArchBase
 90
    32897
280
     1
281
     0
  0
CLASS
  1
AEC_DISP_PROPS_DOOR
  2
AecDbDispPropsDoor
  3
AecArchBase
 90
    32897
280
     1
281
     0
  0
CLASS
  1
AEC_DISP_REP_MASKBLOCK_REF
  2
AecDbDispRepMaskBlockRef
  3
AecBase
 90
    32897
280
     1
281
     0
  0
CLASS
  1
AEC_DISP_PROPS_MASKBLOCK
  2
AecDbDispPropsMaskBlock
  3
AecBase
 90
    32897
280
     1
281
     0
  0
CLASS
  1
AEC_DISP_REP_LAYOUT_GRID3D
  2
AecDbDispRepLayoutGrid3d
  3
AecBase
 90
    32897
280
     1
281
     0
  0
CLASS
  1
AEC_DISP_PROPS_LAYOUT_GRID3D
  2
AecDbDispPropsLayoutGrid3d
  3
AecBase
 90
    32897
280
     1
281
     0
  0
CLASS
  1
AEC_DISP_REP_ENT_REF
  2
AecDbDispRepEntRef
  3
AecBase
 90
    32897
280
     1
281
     0
  0
CLASS
  1
AEC_DISP_PROPS_ENT_REF
  2
AecDbDispPropsEntRef
  3
AecBase
 90
    32897
280
     1
281
     0
  0
CLASS
  1
AEC_DISP_REP_CLIP_VOLUME_RESULT_SUBDIV
  2
AecDbDispRepClipVolResSubDiv
  3
AecBase
 90
    32897
280
     1
281
     0
  0
CLASS
  1
AEC_DISP_PROPS_CLIP_VOLUME_RESULT
  2
AecDbDispPropsClipVolResSubDiv
  3
AecBase
 90
    32897
280
     1
281
     0
  0
CLASS
  1
AEC_DISP_REP_CLIP_VOLUME_RESULT
  2
AecDbDispRepClipVolResult
  3
AecBase
 90
    32897
280
     1
281
     0
  0
CLASS
  1
AEC_DISP_REP_CLIP_VOLUME_PLAN
  2
AecDbDispRepClipVolPlan
  3
AecBase
 90
    32897
280
     1
281
     0
  0
CLASS
  1
AEC_DISP_PROPS_CLIP_VOLUME
  2
AecDbDispPropsClipVol
  3
AecBase
 90
    32897
280
     1
281
     0
  0
CLASS
  1
AEC_DISP_REP_CLIP_VOLUME_MODEL
  2
AecDbDispRepClipVolModel
  3
AecBase
 90
    32897
280
     1
281
     0
  0
CLASS
  1
AEC_DISP_REP_ANCHOR_ENT_TO_NODE
  2
AecDbDispRepAnchorEntToNode
  3
AecBase
 90
    32897
280
     1
281
     0
  0
CLASS
  1
AEC_DISP_PROPS_ENT
  2
AecDbDispPropsEnt
  3
AecBase
 90
    32897
280
     1
281
     0
  0
CLASS
  1
AEC_DISP_REP_LAYOUT_GRID2D
  2
AecDbDispRepLayoutGrid2d
  3
AecBase
 90
    32897
280
     1
281
     0
  0
CLASS
  1
AEC_DISP_PROPS_LAYOUT_GRID2D
  2
AecDbDispPropsLayoutGrid2d
  3
AecBase
 90
    32897
280
     1
281
     0
  0
CLASS
  1
AEC_DISP_REP_LAYOUT_CURVE
  2
AecDbDispRepLayoutCurve
  3
AecBase
 90
    32897
280
     1
281
     0
  0
CLASS
  1
AEC_DISP_PROPS_LAYOUT_CURVE
  2
AecDbDispPropsLayoutCurve
  3
AecBase
 90
    32897
280
     1
281
     0
  0
CLASS
  1
AEC_DISP_REP_ANCHOR
  2
AecDbDispRepAnchor
  3
AecBase
 90
    32897
280
     1
281
     0
  0
CLASS
  1
AEC_DISP_REP_CAMERA
  2
AecDbDispRepCamera
  3
AecBase
 90
    32897
280
     1
281
     0
  0
CLASS
  1
AEC_DISP_PROPS_CAMERA
  2
AecDbDispPropsCamera
  3
AecBase
 90
    32897
280
     1
281
     0
  0
CLASS
  1
AEC_DISP_REP_SLICE
  2
AecDbDispRepSlice
  3
AecBase
 90
    32897
280
     1
281
     0
  0
CLASS
  1
AEC_DISP_PROPS_SLICE
  2
AecDbDispPropsSlice
  3
AecBase
 90
    32897
280
     1
281
     0
  0
CLASS
  1
AEC_DISP_REP_MVBLOCK_REF
  2
AecDbDispRepMvBlockRef
  3
AecBase
 90
    32897
280
     1
281
     0
  0
CLASS
  1
AEC_DISP_REP_MVBLOCK_REF_MODEL
  2
AecDbDispRepMvBlockRefModel
  3
AecBase
 90
    32897
280
     1
281
     0
  0
CLASS
  1
AEC_DISP_REP_MASS_GROUP_MODEL
  2
AecDbDispRepMassGroupModel
  3
AecBase
 90
    32897
280
     1
281
     0
  0
CLASS
  1
AEC_DISP_PROPS_MASS_GROUP
  2
AecDbDispPropsMassGroup
  3
AecBase
 90
    32897
280
     1
281
     0
  0
CLASS
  1
AEC_DISP_REP_MASS_GROUP_PLAN
  2
AecDbDispRepMassGroupPlan
  3
AecBase
 90
    32897
280
     1
281
     0
  0
CLASS
  1
AEC_DISP_REP_DOOR_RCP
  2
AecDbDispRepDoorRcp
  3
AecArchBase
 90
    32897
280
     1
281
     0
  0
CLASS
  1
AEC_DISP_REP_DOOR_NOMINAL
  2
AecDbDispRepDoorNominal
  3
AecArchBase
 90
    32897
280
     1
281
     0
  0
CLASS
  1
AEC_DISP_PROPS_DOOR_NOMINAL
  2
AecDbDispPropsDoorNominal
  3
AecArchBase
 90
    32897
280
     1
281
     0
  0
CLASS
  1
AEC_DISP_REP_DOOR_PLAN
  2
AecDbDispRepDoorPlan
  3
AecArchBase
 90
    32897
280
     1
281
     0
  0
CLASS
  1
AEC_DISP_REP_DOOR_MODEL
  2
AecDbDispRepDoorModel
  3
AecArchBase
 90
    32897
280
     1
281
     0
  0
CLASS
  1
AEC_DISP_REP_MVBLOCK_REF_RCP
  2
AecDbDispRepMvBlockRefRcp
  3
AecArchBase
 90
    32897
280
     1
281
     0
  0
CLASS
  1
AEC_DISP_REP_MASS_GROUP_RCP
  2
AecDbDispRepMassGroupRcp
  3
AecArchBase
 90
    32897
280
     1
281
     0
  0
CLASS
  1
AEC_DISP_REP_MASS_ELEM_RCP
  2
AecDbDispRepMassElemRcp
  3
AecArchBase
 90
    32897
280
     1
281
     0
  0
CLASS
  1
AEC_DISP_REP_MASKBLOCK_REF_RCP
  2
AecDbDispRepMaskBlockRefRcp
  3
AecArchBase
 90
    32897
280
     1
281
     0
  0
CLASS
  1
AEC_DISP_REP_COLUMN_GRID_RCP
  2
AecDbDispRepColumnGridRcp
  3
AecArchBase
 90
    32897
280
     1
281
     0
  0
CLASS
  1
AEC_DISP_REP_COLUMN_GRID_MODEL
  2
AecDbDispRepColumnGridModel
  3
AecArchBase
 90
    32897
280
     1
281
     0
  0
CLASS
  1
AEC_DISP_REP_COLUMN_GRID
  2
AecDbDispRepColumnGrid
  3
AecArchBase
 90
    32897
280
     1
281
     0
  0
CLASS
  1
AEC_DISP_REP_CEILING_GRID_RCP
  2
AecDbDispRepCeilingGridRcp
  3
AecArchBase
 90
    32897
280
     1
281
     0
  0
CLASS
  1
AEC_DISP_REP_CEILING_GRID_MODEL
  2
AecDbDispRepCeilingGridModel
  3
AecArchBase
 90
    32897
280
     1
281
     0
  0
CLASS
  1
AEC_DISP_REP_CEILING_GRID
  2
AecDbDispRepCeilingGrid
  3
AecArchBase
 90
    33661
280
     1
281
     0
  0
CLASS
  1
AEC_DISP_REP_BDG_SECTION_SUBDIV
  2
AecDbDispRepBdgSectionSubDiv
  3
AecArchBase
 90
    32897
280
     1
281
     0
  0
CLASS
  1
AEC_DISP_REP_BDG_SECTION_MODEL
  2
AecDbDispRepBdgSectionModel
  3
AecArchBase
 90
    32897
280
     1
281
     0
  0
CLASS
  1
AEC_DISP_REP_BDG_SECTIONLINE_RCP
  2
AecDbDispRepBdgSectionLineRcp
  3
AecArchBase
 90
    32897
280
     1
281
     0
  0
CLASS
  1
AEC_DISP_REP_BDG_SECTIONLINE_PLAN
  2
AecDbDispRepBdgSectionLinePlan
  3
AecArchBase
 90
    32897
280
     1
281
     0
  0
CLASS
  1
AEC_DISP_REP_BDG_ELEVLINE_RCP
  2
AecDbDispRepBdgElevLineRcp
  3
AecArchBase
 90
    32897
280
     1
281
     0
  0
CLASS
  1
AEC_DISP_REP_BDG_ELEVLINE_PLAN
  2
AecDbDispRepBdgElevLinePlan
  3
AecArchBase
 90
    32897
280
     1
281
     0
  0
CLASS
  1
AEC_DISP_REP_BDG_SECTIONLINE_MODEL
  2
AecDbDispRepBdgSectionLineModel
  3
AecArchBase
 90
    32897
280
     1
281
     0
  0
CLASS
  1
AEC_DISP_REP_BDG_ELEVLINE_MODEL
  2
AecDbDispRepBdgElevLineModel
  3
AecArchBase
 90
    32897
280
     1
281
     0
  0
CLASS
  1
AEC_DISP_REP_ANCHOR_BUB_TO_GRID_RCP
  2
AecDbDispRepAnchorBubToGridRcp
  3
AecArchBase
 90
    32897
280
     1
281
     0
  0
CLASS
  1
AEC_DISP_REP_ANCHOR_BUB_TO_GRID_MODEL
  2
AecDbDispRepAnchorBubToGridMdl
  3
AecArchBase
 90
    32897
280
     1
281
     0
  0
CLASS
  1
AEC_DISP_REP_ANCHOR_BUB_TO_GRID
  2
AecDbDispRepAnchorBubToGrid
  3
AecArchBase
 90
    32897
280
     1
281
     0
  0
CLASS
  1
AEC_DISP_REP_WINDOW_RCP
  2
AecDbDispRepWindowRcp
  3
AecArchBase
 90
    32897
280
     1
281
     0
  0
CLASS
  1
AEC_DISP_PROPS_WINDOW
  2
AecDbDispPropsWindow
  3
AecArchBase
 90
    32897
280
     1
281
     0
  0
CLASS
  1
AEC_DISP_REP_ROOF_RCP
  2
AecDbDispRepRoofRcp
  3
AecArchBase
 90
    32897
280
     1
281
     0
  0
CLASS
  1
AEC_DISP_PROPS_ROOF
  2
AecDbDispPropsRoof
  3
AecArchBase
 90
    32897
280
     1
281
     0
  0
CLASS
  1
AEC_DISP_REP_ROOF_PLAN
  2
AecDbDispRepRoofPlan
  3
AecArchBase
 90
    32897
280
     1
281
     0
  0
CLASS
  1
AEC_DISP_REP_WINDOW_SILL_PLAN
  2
AecDbDispRepWindowSillPlan
  3
AecArchBase
 90
    32897
280
     1
281
     0
  0
CLASS
  1
AEC_DISP_PROPS_WINDOW_SILL_PLAN
  2
AecDbDispPropsWindowSillPlan
  3
AecArchBase
 90
    32897
280
     1
281
     0
  0
CLASS
  1
AEC_DISP_REP_SPACE_PLAN
  2
AecDbDispRepSpacePlan
  3
AecArchBase
 90
    32897
280
     1
281
     0
  0
CLASS
  1
AEC_DISP_PROPS_SPACE_PLAN
  2
AecDbDispPropsSpacePlan
  3
AecArchBase
 90
    32897
280
     1
281
     0
  0
CLASS
  1
AEC_DISP_REP_SPACE_MODEL
  2
AecDbDispRepSpaceModel
  3
AecArchBase
 90
    32897
280
     1
281
     0
  0
CLASS
  1
AEC_DISP_PROPS_SPACE_MODEL
  2
AecDbDispPropsSpaceModel
  3
AecArchBase
 90
    32897
280
     1
281
     0
  0
CLASS
  1
AEC_DISP_REP_WINDOW_MODEL
  2
AecDbDispRepWindowModel
  3
AecArchBase
 90
    32897
280
     1
281
     0
  0
CLASS
  1
AEC_DISP_REP_WINDOW_NOMINAL
  2
AecDbDispRepWindowNominal
  3
AecArchBase
 90
    32897
280
     1
281
     0
  0
CLASS
  1
AEC_DISP_PROPS_WINDOW_NOMINAL
  2
AecDbDispPropsWindowNominal
  3
AecArchBase
 90
    32897
280
     1
281
     0
  0
CLASS
  1
AEC_DISP_REP_OPENING
  2
AecDbDispRepOpening
  3
AecArchBase
 90
    32897
280
     1
281
     0
  0
CLASS
  1
AEC_DISP_PROPS_OPENING
  2
AecDbDispPropsOpening
  3
AecArchBase
 90
    32897
280
     1
281
     0
  0
CLASS
  1
AEC_DISP_REP_OPENING_MODEL
  2
AecDbDispRepOpeningModel
  3
AecArchBase
 90
    32897
280
     1
281
     0
  0
CLASS
  1
AEC_DISP_REP_RAILING_PLAN
  2
AecDbDispRepRailingPlan
  3
AecArchBase
 90
    32897
280
     1
281
     0
  0
CLASS
  1
AEC_DISP_PROPS_RAILING_PLAN
  2
AecDbDispPropsRailingPlan
  3
AecArchBase
 90
    32897
280
     1
281
     0
  0
CLASS
  1
AEC_DISP_REP_RAILING_MODEL
  2
AecDbDispRepRailingModel
  3
AecArchBase
 90
    32897
280
     1
281
     0
  0
CLASS
  1
AEC_DISP_PROPS_RAILING_MODEL
  2
AecDbDispPropsRailingModel
  3
AecArchBase
 90
    32897
280
     1
281
     0
  0
CLASS
  1
AEC_DISP_REP_WINDOW_ELEV
  2
AecDbDispRepWindowElev
  3
AecArchBase
 90
    32897
280
     1
281
     0
  0
CLASS
  1
AEC_DISP_REP_DOOR_THRESHOLD_PLAN
  2
AecDbDispRepDoorThresholdPlan
  3
AecArchBase
 90
    32897
280
     1
281
     0
  0
CLASS
  1
AEC_DISP_PROPS_DOOR_THRESHOLD_PLAN
  2
AecDbDispPropsDoorThresholdPlan
  3
AecArchBase
 90
    32897
280
     1
281
     0
  0
CLASS
  1
AEC_DISP_REP_ROOF_MODEL
  2
AecDbDispRepRoofModel
  3
AecArchBase
 90
    32897
280
     1
281
     0
  0
CLASS
  1
AEC_DISP_REP_WINDOW_PLAN
  2
AecDbDispRepWindowPlan
  3
AecArchBase
 90
    32897
280
     1
281
     0
  0
CLASS
  1
AEC_DISP_REP_WALL_SCHEM
  2
AecDbDispRepWallSchem
  3
AecArchBase
 90
    32897
280
     1
281
     0
  0
CLASS
  1
AEC_DISP_PROPS_WALL_SCHEM
  2
AecDbDispPropsWallSchem
  3
AecArchBase
 90
    32897
280
     1
281
     0
  0
CLASS
  1
AEC_DISP_REP_WALL_RCP
  2
AecDbDispRepWallRcp
  3
AecArchBase
 90
    32897
280
     1
281
     0
  0
CLASS
  1
AEC_DISP_PROPS_WALL_PLAN
  2
AecDbDispPropsWallPlan
  3
AecArchBase
 90
    32897
280
     1
281
     0
  0
CLASS
  1
AEC_DISP_REP_WALL_PLAN
  2
AecDbDispRepWallPlan
  3
AecArchBase
 90
    32897
280
     1
281
     0
  0
CLASS
  1
AEC_DISP_REP_WALL_MODEL
  2
AecDbDispRepWallModel
  3
AecArchBase
 90
    32897
280
     1
281
     0
  0
CLASS
  1
AEC_DISP_PROPS_WALL
  2
AecDbDispPropsWall
  3
AecArchBase
 90
    32897
280
     1
281
     0
  0
CLASS
  1
AEC_DISP_REP_WALL_GRAPH
  2
AecDbDispRepWallGraph
  3
AecArchBase
 90
    32897
280
     1
281
     0
  0
CLASS
  1
AEC_DISP_REP_STAIR_RCP
  2
AecDbDispRepStairRcp
  3
AecArchBase
 90
    32897
280
     1
281
     0
  0
CLASS
  1
AEC_DISP_PROPS_STAIR_PLAN
  2
AecDbDispPropsStairPlan
  3
AecArchBase
 90
    32897
280
     1
281
     0
  0
CLASS
  1
AEC_DISP_REP_STAIR_PLAN
  2
AecDbDispRepStairPlan
  3
AecArchBase
 90
    32897
280
     1
281
     0
  0
CLASS
  1
AEC_DISP_REP_STAIR_MODEL
  2
AecDbDispRepStairModel
  3
AecArchBase
 90
    32897
280
     1
281
     0
  0
CLASS
  1
AEC_DISP_PROPS_STAIR_MODEL
  2
AecDbDispPropsStairModel
  3
AecArchBase
 90
    32897
280
     1
281
     0
  0
CLASS
  1
AEC_DISP_REP_SPACE_BOUNDARY_SCHEM
  2
AecDbDispRepSpaceBoundarySketch
  3
AecArchBase
 90
    32897
280
     1
281
     0
  0
CLASS
  1
AEC_DISP_REP_SPACE_BOUNDARY_PLAN
  2
AecDbDispRepSpaceBoundaryPlan
  3
AecArchBase
 90
    32897
280
     1
281
     0
  0
CLASS
  1
AEC_DISP_REP_SPACE_BOUNDARY_MODEL
  2
AecDbDispRepSpaceBoundaryModel
  3
AecArchBase
 90
    32897
280
     1
281
     0
  0
CLASS
  1
AEC_DISP_REP_SPACE_BOUNDARY_DIAGRAM
  2
AecDbDispRepSpaceBoundaryDgrm
  3
AecArchBase
 90
    32897
280
     1
281
     0
  0
CLASS
  1
AEC_DISP_REP_SPACE_VOLUME
  2
AecDbDispRepSpaceVolume
  3
AecArchBase
 90
    32897
280
     1
281
     0
  0
CLASS
  1
AEC_DISP_REP_SPACE_RCP
  2
AecDbDispRepSpaceRcp
  3
AecArchBase
 90
    32897
280
     1
281
     0
  0
CLASS
  1
AEC_DISP_REP_ANCHOR_TAG_TO_ENT
  2
AecDbDispRepAnchorTagToEnt
  3
AecScheduleData
 90
    32897
280
     1
281
     0
  0
CLASS
  1
AEC_DISP_REP_SCHEDULE_TABLE
  2
AecDbDispRepScheduleTable
  3
AecSchedule
 90
    32897
280
     1
281
     0
  0
CLASS
  1
AEC_DISP_PROPS_SCHEDULE_TABLE
  2
AecDbDispPropsScheduleTable
  3
AecSchedule
 90
    32897
280
     1
281
     0
  0
CLASS
  1
AEC_DISP_REP_SET
  2
AecDbDispRepSet
  3
AecBase
 90
    32897
280
     1
281
     0
  0
CLASS
  1
AEC_DISP_REP_CONFIG
  2
AecDbDispRepConfig
  3
AecBase
 90
    32897
280
     1
281
     0
  0
CLASS
  1
TABLESTYLE
  2
AcDbTableStyle
  3
ObjectDBX Classes
 90
     4095
280
     0
281
     0
  0
CLASS
  1
MATERIAL
  2
AcDbMaterial
  3
ObjectDBX Classes
 90
     1153
280
     0
281
     0
  0
CLASS
  1
VISUALSTYLE
  2
AcDbVisualStyle
  3
ObjectDBX Classes
 90
     4095
280
     0
281
     0
  0
CLASS
  1
SCALE
  2
AcDbScale
  3
ObjectDBX Classes
 90
     1153
280
     0
281
     0
  0
CLASS
  1
MLEADERSTYLE
  2
AcDbMLeaderStyle
  3
ACDB_MLEADERSTYLE_CLASS
 90
    36863
280
     0
281
     0
  0
CLASS
  1
ACDBSECTIONVIEWSTYLE
  2
AcDbSectionViewStyle
  3
ObjectDBX Classes
 90
    33793
280
     0
281
     0
  0
CLASS
  1
ACDBDETAILVIEWSTYLE
  2
AcDbDetailViewStyle
  3
ObjectDBX Classes
 90
    33793
280
     0
281
     0
  0
CLASS
  1
EXACXREFPANELOBJECT
  2
ExAcXREFPanelObject
  3
EXAC_ESW
 90
    33793
280
     0
281
     0
  0
CLASS
  1
NPOCOLLECTION
  2
AcDbImpNonPersistentObjectsCollection
  3
ObjectDBX Classes
 90
    33921
280
     0
281
     0
  0
CLASS
  1
CELLSTYLEMAP
  2
AcDbCellStyleMap
  3
ObjectDBX Classes
 90
     1152
280
     0
281
     0
  0
ENDSEC
  0
SECTION
  2
TABLES
  0
TABLE
  2
VPORT
  5
2F
330
0
100
AcDbSymbolTable
 70
     1
  0
VPORT
  5
30
330
2F
100
AcDbSymbolTableRecord
100
AcDbViewportTableRecord
  2
*Active
 70
     0
 10
0.0
 20
0.0
 11
1.0
 21
1.0
 12
309.1043396873013
 22
54.73241386242984
 13
0.0
 23
0.0
 14
1.0
 24
1.0
 15
0.0
 25
0.0
 16
0.0
 26
0.0
 36
1.0
 17
0.0
 27
0.0
 37
0.0
 40
334.1929940004196
 41
2.095558546433378
 42
50.0
 43
0.0
 44
0.0
 50
0.0
 51
0.0
 71
     0
 72
 20000
 73
     1
 74
     1
 75
     0
 76
     0
 77
     0
 78
     0
281
     0
 65
     1
110
0.0
120
0.0
130
0.0
111
1.0
121
0.0
131
0.0
112
0.0
122
1.0
132
0.0
 79
     0
146
0.0
1001
ACAD_NAV_VCDISPLAY
1070
     3
  0
ENDTAB
  0
TABLE
  2
LTYPE
  5
2A
330
0
100
AcDbSymbolTable
 70
     1
  0
LTYPE
  5
2B
330
2A
100
AcDbSymbolTableRecord
100
AcDbLinetypeTableRecord
  2
BYBLOCK
 70
     0
  3

 72
    65
 73
     0
 40
0.0
  0
LTYPE
  5
2C
330
2A
100
AcDbSymbolTableRecord
100
AcDbLinetypeTableRecord
  2
BYLAYER
 70
     0
  3

 72
    65
 73
     0
 40
0.0
  0
LTYPE
  5
14
330
2A
100
AcDbSymbolTableRecord
100
AcDbLinetypeTableRecord
  2
CONTINUOUS
 70
     0
  3
Solid line
 72
    65
 73
     0
 40
0.0
  0
ENDTAB
  0
TABLE
  2
LAYER
  5
26
330
0
100
AcDbSymbolTable
 70
     6
  0
LAYER
  5
6
330
26
100
AcDbSymbolTableRecord
100
AcDbLayerTableRecord
  2
0
 70
     0
 62
     7
  6
CONTINUOUS
370
    -3
390
7
  0
LAYER
  5
191
330
26
100
AcDbSymbolTableRecord
100
AcDbLayerTableRecord
  2
DEFPOINTS
 70
     0
 62
     7
  6
CONTINUOUS
290
     0
370
    -3
390
7
  0
LAYER
  5
181
330
26
100
AcDbSymbolTableRecord
100
AcDbLayerTableRecord
  2
SUNPOU
 70
     0
 62
    70
  6
CONTINUOUS
370
    -3
390
7
  0
LAYER
  5
63
330
26
100
AcDbSymbolTableRecord
100
AcDbLayerTableRecord
  2
KIJUN
 70
     0
 62
     7
  6
CONTINUOUS
370
    -3
390
7
  0
LAYER
  5
35E
330
26
100
AcDbSymbolTableRecord
100
AcDbLayerTableRecord
  2
HOJO
 70
     0
 62
     3
  6
CONTINUOUS
370
    -3
390
7
  0
LAYER
  5
360
330
26
100
AcDbSymbolTableRecord
100
AcDbLayerTableRecord
  2
WAKU
 70
     0
 62
     1
  6
CONTINUOUS
370
    -3
390
7
  0
ENDTAB
  0
TABLE
  2
STYLE
  5
27
330
0
100
AcDbSymbolTable
 70
     3
  0
STYLE
  5
28
330
27
100
AcDbSymbolTableRecord
100
AcDbTextStyleTableRecord
  2
STANDARD
 70
     0
 40
0.0
 41
1.0
 50
0.0
 71
     0
 42
0.2
  3
txt
  4

  0
STYLE
  5
4B
330
27
100
AcDbSymbolTableRecord
100
AcDbTextStyleTableRecord
  2
SUNPOU
 70
     0
 40
0.0
 41
1.0
 50
0.0
 71
     0
 42
30.0
  3
txt
  4
bigfont
  0
STYLE
  5
18F
330
27
100
AcDbSymbolTableRecord
100
AcDbTextStyleTableRecord
  2
LIFE
 70
     0
 40
0.0
 41
0.7
 50
0.0
 71
     0
 42
10.0
  3
romans
  4
extfont
  0
ENDTAB
  0
TABLE
  2
VIEW
  5
2D
330
0
100
AcDbSymbolTable
 70
     0
  0
ENDTAB
  0
TABLE
  2
UCS
  5
2E
330
0
100
AcDbSymbolTable
 70
     0
  0
ENDTAB
  0
TABLE
  2
APPID
  5
34
330
0
100
AcDbSymbolTable
 70
     2
  0
APPID
  5
A
330
34
100
AcDbSymbolTableRecord
100
AcDbRegAppTableRecord
  2
ACAD
 70
     0
  0
APPID
  5
33
330
34
100
AcDbSymbolTableRecord
100
AcDbRegAppTableRecord
  2
ACAD_NAV_VCDISPLAY
 70
     0
  0
ENDTAB
  0
TABLE
  2
DIMSTYLE
  5
35
330
0
100
AcDbSymbolTable
 70
     3
100
AcDbDimStyleTable
 71
     1
340
36
  0
DIMSTYLE
105
36
330
35
100
AcDbSymbolTableRecord
100
AcDbDimStyleTableRecord
  2
STANDARD
 70
     0
 41
3.0
 42
2.0
 44
0.0
 73
     0
 74
     0
 77
     1
140
2.799999999999998
141
1.0
146
0.0642857142857143
147
1.0
173
     1
174
     1
176
    60
177
    70
178
    60
271
     0
340
28
341
37
343
37
344
37
  0
DIMSTYLE
105
195
102
{ACAD_REACTORS
330
180
330
350
102
}
330
35
100
AcDbSymbolTableRecord
100
AcDbDimStyleTableRecord
  2
STANDARD$0
 70
     0
 40
2.0
 41
1.0
 42
2.0
 43
0.0
 44
1.0
 73
     0
 74
     0
 77
     3
 78
     9
140
4.5
141
0.0
147
1.0
172
     1
173
     1
178
     3
271
     2
340
18F
341
188
343
188
344
188
  0
DIMSTYLE
105
50
330
35
100
AcDbSymbolTableRecord
100
AcDbDimStyleTableRecord
  2
1
 70
     0
 41
3.0
 42
2.0
 44
0.0
 73
     0
 74
     0
 77
     1
140
7.0
141
1.0
146
0.0642857142857143
147
1.0
173
     1
174
     1
176
    60
177
    70
178
    60
271
     0
340
28
341
37
343
37
344
37
  0
ENDTAB
  0
TABLE
  2
BLOCK_RECORD
  5
1
330
0
100
AcDbSymbolTable
 70
     4
  0
BLOCK_RECORD
  5
2
102
{ACAD_XDICTIONARY
360
3
102
}
330
1
100
AcDbSymbolTableRecord
100
AcDbBlockTableRecord
  2
*MODEL_SPACE
340
1E
  0
BLOCK_RECORD
  5
20
102
{ACAD_XDICTIONARY
360
21
102
}
330
1
100
AcDbSymbolTableRecord
100
AcDbBlockTableRecord
  2
*PAPER_SPACE
340
25
  0
BLOCK_RECORD
  5
37
330
1
100
AcDbSymbolTableRecord
100
AcDbBlockTableRecord
  2
_DOTSMALL
340
0
  0
BLOCK_RECORD
  5
188
330
1
100
AcDbSymbolTableRecord
100
AcDbBlockTableRecord
  2
_DOT
340
0
102
{BLKREFS
331
187
331
18D
331
356
331
357
102
}
  0
BLOCK_RECORD
  5
182
330
1
100
AcDbSymbolTableRecord
100
AcDbBlockTableRecord
  2
*D2
340
0
  0
BLOCK_RECORD
  5
351
330
1
100
AcDbSymbolTableRecord
100
AcDbBlockTableRecord
  2
*D3
340
0
  0
ENDTAB
  0
ENDSEC
  0
SECTION
  2
BLOCKS
  0
BLOCK
  5
5
330
2
100
AcDbEntity
  8
0
100
AcDbBlockBegin
  2
*MODEL_SPACE
 70
     0
 10
0.0
 20
0.0
 30
0.0
  3
*MODEL_SPACE
  1

  0
ENDBLK
  5
1D
330
2
100
AcDbEntity
  8
0
100
AcDbBlockEnd
  0
BLOCK
  5
23
330
20
100
AcDbEntity
 67
     1
  8
0
100
AcDbBlockBegin
  2
*PAPER_SPACE
 70
     0
 10
0.0
 20
0.0
 30
0.0
  3
*PAPER_SPACE
  1

  0
ENDBLK
  5
24
330
20
100
AcDbEntity
 67
     1
  8
0
100
AcDbBlockEnd
  0
BLOCK
  5
38
330
37
100
AcDbEntity
  8
0
100
AcDbBlockBegin
  2
_DOTSMALL
 70
     0
 10
0.0
 20
0.0
 30
0.0
  3
_DOTSMALL
  1

  0
LWPOLYLINE
  5
39
330
37
100
AcDbEntity
  8
0
  6
ByBlock
 62
     0
100
AcDbPolyline
 90
        2
 70
     1
 43
0.5
 10
-0.0625
 20
0.0
 42
1.0
 10
0.0625
 20
0.0
 42
1.0
  0
ENDBLK
  5
3A
330
37
100
AcDbEntity
  8
0
100
AcDbBlockEnd
  0
BLOCK
  5
189
330
188
100
AcDbEntity
  8
0
100
AcDbBlockBegin
  2
_DOT
 70
     0
 10
0.0
 20
0.0
 30
0.0
  3
_DOT
  1

  0
LWPOLYLINE
  5
18A
330
188
100
AcDbEntity
  8
0
  6
ByBlock
 62
     0
100
AcDbPolyline
 90
        2
 70
     1
 43
0.5
 10
-0.25
 20
0.0
 42
1.0
 10
0.25
 20
0.0
 42
1.0
  0
LINE
  5
18B
330
188
100
AcDbEntity
  8
0
  6
ByBlock
 62
     0
100
AcDbLine
 10
-0.5
 20
0.0
 30
0.0
 11
-1.0
 21
0.0
 31
0.0
  0
ENDBLK
  5
18C
330
188
100
AcDbEntity
  8
0
100
AcDbBlockEnd
  0
BLOCK
  5
183
330
182
100
AcDbEntity
  8
0
 62
     7
100
AcDbBlockBegin
  2
*D2
 70
     1
 10
0.0
 20
0.0
 30
0.0
  3
*D2
  1

  0
LINE
  5
184
330
182
100
AcDbEntity
  8
SUNPOU
 62
    70
370
    -2
100
AcDbLine
 10
18.31238044814888
 20
25.97788892082036
 30
0.0
 11
9.295482126832594
 21
25.97788892082036
 31
0.0
  0
LINE
  5
185
330
182
100
AcDbEntity
  8
SUNPOU
 62
    70
370
    -2
100
AcDbLine
 10
18.31238044814888
 20
125.9778889208203
 30
0.0
 11
9.295482126832617
 21
125.9778889208203
 31
0.0
  0
LINE
  5
186
330
182
100
AcDbEntity
  8
SUNPOU
 62
    60
370
    -2
100
AcDbLine
 10
9.295482126832594
 20
26.97788892082036
 30
0.0
 11
9.295482126832617
 21
124.9778889208203
 31
0.0
  0
INSERT
  5
187
330
182
100
AcDbEntity
  8
SUNPOU
 62
    60
370
    -2
100
AcDbBlockReference
  2
_DOT
 10
9.295482126832594
 20
25.97788892082036
 30
0.0
 50
270.0
  0
INSERT
  5
18D
330
182
100
AcDbEntity
  8
SUNPOU
 62
    60
370
    -2
100
AcDbBlockReference
  2
_DOT
 10
9.295482126832617
 20
125.9778889208203
 30
0.0
 50
90.0
  0
MTEXT
  5
18E
330
182
100
AcDbEntity
  8
SUNPOU
 62
    60
100
AcDbMText
 10
4.295482126832593
 20
75.97788892082033
 30
0.0
 40
6.0
 41
0.0
 71
     5
 72
     1
  1
\A1;100
  7
LIFE
 11
0.0000000000000001
 21
1.0
 31
0.0
 73
     1
 44
1.0
1001
ACAD
1000
MTEXTBEGIN
1070
    73
1070
     1
1070
    44
1040
1.0
1070
    74
1070
     0
1000
MTEXTEND
  0
POINT
  5
190
330
182
100
AcDbEntity
  8
DEFPOINTS
 62
     0
100
AcDbPoint
 10
20.31238044814888
 20
25.97788892082036
 30
0.0
  0
POINT
  5
192
330
182
100
AcDbEntity
  8
DEFPOINTS
 62
     0
100
AcDbPoint
 10
20.31238044814888
 20
125.9778889208203
 30
0.0
  0
POINT
  5
193
330
182
100
AcDbEntity
  8
DEFPOINTS
 62
     0
100
AcDbPoint
 10
9.295482126832617
 20
125.9778889208203
 30
0.0
  0
ENDBLK
  5
194
330
182
100
AcDbEntity
  8
0
 62
     7
100
AcDbBlockEnd
  0
BLOCK
  5
352
330
351
100
AcDbEntity
  8
0
 62
     7
100
AcDbBlockBegin
  2
*D3
 70
     1
 10
0.0
 20
0.0
 30
0.0
  3
*D3
  1

  0
LINE
  5
353
330
351
100
AcDbEntity
  8
SUNPOU
 62
    70
370
    -2
100
AcDbLine
 10
44.31238044814889
 20
127.9778889208203
 30
0.0
 11
44.31238044814889
 21
136.8527118775278
 31
0.0
  0
LINE
  5
354
330
351
100
AcDbEntity
  8
SUNPOU
 62
    70
370
    -2
100
AcDbLine
 10
20.31238044814888
 20
127.9778889208203
 30
0.0
 11
20.31238044814888
 21
136.8527118775278
 31
0.0
  0
LINE
  5
355
330
351
100
AcDbEntity
  8
SUNPOU
 62
    60
370
    -2
100
AcDbLine
 10
43.31238044814888
 20
136.8527118775278
 30
0.0
 11
21.31238044814888
 21
136.8527118775278
 31
0.0
  0
INSERT
  5
356
330
351
100
AcDbEntity
  8
SUNPOU
 62
    60
370
    -2
100
AcDbBlockReference
  2
_DOT
 10
44.31238044814889
 20
136.8527118775278
 30
0.0
  0
INSERT
  5
357
330
351
100
AcDbEntity
  8
SUNPOU
 62
    60
370
    -2
100
AcDbBlockReference
  2
_DOT
 10
20.31238044814888
 20
136.8527118775278
 30
0.0
 50
180.0
  0
MTEXT
  5
358
330
351
100
AcDbEntity
  8
SUNPOU
 62
    60
100
AcDbMText
 10
32.31238044814889
 20
141.8527118775278
 30
0.0
 40
6.0
 41
0.0
 71
     5
 72
     1
  1
\A1;24
  7
LIFE
 73
     1
 44
1.0
1001
ACAD
1000
MTEXTBEGIN
1070
    73
1070
     1
1070
    44
1040
1.0
1070
    74
1070
     0
1000
MTEXTEND
  0
POINT
  5
359
330
351
100
AcDbEntity
  8
DEFPOINTS
 62
     0
100
AcDbPoint
 10
44.31238044814889
 20
125.9778889208203
 30
0.0
  0
POINT
  5
35A
330
351
100
AcDbEntity
  8
DEFPOINTS
 62
     0
100
AcDbPoint
 10
20.31238044814888
 20
125.9778889208203
 30
0.0
  0
POINT
  5
35B
330
351
100
AcDbEntity
  8
DEFPOINTS
 62
     0
100
AcDbPoint
 10
20.31238044814888
 20
136.8527118775278
 30
0.0
  0
ENDBLK
  5
35C
330
351
100
AcDbEntity
  8
0
 62
     7
100
AcDbBlockEnd
  0
ENDSEC
  0
SECTION
  2
ENTITIES
  0
ARC
  5
62
330
2
100
AcDbEntity
  8
KIJUN
 62
     7
100
AcDbCircle
 10
353.382295008247
 20
91.60371679768179
 30
0.0
 40
23.53692364877673
100
AcDbArc
 50
51.55183022313834
 51
128.4481697768601
  0
ARC
  5
64
330
2
100
AcDbEntity
  8
KIJUN
 62
     7
100
AcDbCircle
 10
353.382295008247
 20
128.4705873679856
 30
0.0
 40
23.53692364877673
100
AcDbArc
 50
231.5518302231399
 51
308.4481697768617
  0
ARC
  5
65
330
2
100
AcDbEntity
  8
KIJUN
 62
     7
100
AcDbCircle
 10
353.8707047774793
 20
53.23671350851447
 30
0.0
 40
17.03215996919061
100
AcDbArc
 50
180.0
 51
359.9999999999984
  0
ARC
  5
66
330
2
100
AcDbEntity
  8
KIJUN
 62
     7
100
AcDbCircle
 10
353.8707047774793
 20
53.23671350851447
 30
0.0
 40
13.70715996919061
100
AcDbArc
 50
180.0
 51
0.000000000000007
  0
ARC
  5
67
330
2
100
AcDbEntity
  8
KIJUN
 62
     7
100
AcDbCircle
 10
345.9820409499831
 20
57.82012752012935
 30
0.0
 40
3.831174005384781
100
AcDbArc
 50
161.7292786828073
 51
340.9080929325938
  0
ARC
  5
68
330
2
100
AcDbEntity
  8
KIJUN
 62
     7
100
AcDbCircle
 10
348.4634822050554
 20
74.91872675017322
 30
0.0
 40
3.831174005384781
100
AcDbArc
 50
358.4016962262747
 51
151.7425690047065
  0
CIRCLE
  5
69
330
2
100
AcDbEntity
  8
KIJUN
 62
     7
100
AcDbCircle
 10
346.128543458093
 20
67.26648480565819
 30
0.0
 40
3.615131519999998
  0
LINE
  5
6A
330
2
100
AcDbEntity
  8
KIJUN
 62
     7
100
AcDbLine
 10
79.04651374740485
 20
101.9891625502362
 30
0.0
 11
519.0465137474052
 21
101.9891625502362
 31
0.0
  0
LINE
  5
6B
330
2
100
AcDbEntity
  8
KIJUN
 62
     7
100
AcDbLine
 10
79.04651374740542
 20
118.9891625502357
 30
0.0
 11
519.0465137474056
 21
118.9891625502361
 31
0.0
  0
LINE
  5
6C
330
2
100
AcDbEntity
  8
KIJUN
 62
     7
100
AcDbLine
 10
79.04651374740542
 20
30.97788892082036
 30
0.0
 11
519.0465137474052
 21
30.97788892082036
 31
0.0
  0
LINE
  5
6D
330
2
100
AcDbEntity
  8
KIJUN
 62
     7
100
AcDbLine
 10
79.04651374740542
 20
25.97788892082036
 30
0.0
 11
519.0465137474052
 21
25.97788892082036
 31
0.0
  0
LINE
  5
6E
330
2
100
AcDbEntity
  8
KIJUN
 62
     7
100
AcDbLine
 10
79.04651374740542
 20
125.9778889208203
 30
0.0
 11
519.0465137474052
 21
125.9778889208208
 31
0.0
  0
ARC
  5
6F
330
2
100
AcDbEntity
  8
KIJUN
 62
     7
100
AcDbCircle
 10
386.6101571529768
 20
74.39430748397426
 30
0.0
 40
3.565938881935066
100
AcDbArc
 50
275.7551644540328
 51
95.90995651508773
  0
ARC
  5
70
330
2
100
AcDbEntity
  8
KIJUN
 62
     7
100
AcDbCircle
 10
386.6101571529768
 20
74.39430748397426
 30
0.0
 40
3.565938881935066
100
AcDbArc
 50
95.90995651510125
 51
135.4955109801178
  0
ARC
  5
71
330
2
100
AcDbEntity
  8
KIJUN
 62
     7
100
AcDbCircle
 10
380.5589200315294
 20
75.00909871627008
 30
0.0
 40
3.565938881935066
100
AcDbArc
 50
32.90207148237064
 51
251.6695523084532
  0
ARC
  5
72
330
2
100
AcDbEntity
  8
KIJUN
 62
     7
100
AcDbCircle
 10
358.2653635567722
 20
74.17648616098706
 30
0.0
 40
3.831174005384781
100
AcDbArc
 50
358.4016962262747
 51
146.8539988740731
  0
ARC
  5
73
330
2
100
AcDbEntity
  8
KIJUN
 62
     7
100
AcDbCircle
 10
431.4828703418339
 20
74.39430748397426
 30
0.0
 40
3.565938881935066
100
AcDbArc
 50
84.09004348491228
 51
264.244835545967
  0
LINE
  5
74
330
2
100
AcDbEntity
  8
KIJUN
 62
     7
100
AcDbLine
 10
428.0340175338078
 20
75.30058250750136
 30
0.0
 11
419.6510308296006
 21
84.50827937027979
 31
0.0
  0
ARC
  5
75
330
2
100
AcDbEntity
  8
KIJUN
 62
     7
100
AcDbCircle
 10
437.5341074632811
 20
75.00909871627008
 30
0.0
 40
3.565938881935066
100
AcDbArc
 50
288.3304476915468
 51
147.0979285176294
  0
ARC
  5
76
330
2
100
AcDbEntity
  8
KIJUN
 62
     7
100
AcDbCircle
 10
431.4828703418339
 20
74.39430748397426
 30
0.0
 40
3.565938881935066
100
AcDbArc
 50
44.50448901988244
 51
84.09004348489878
  0
ARC
  5
77
330
2
100
AcDbEntity
  8
KIJUN
 62
     7
100
AcDbCircle
 10
459.8276639380384
 20
74.17648616098706
 30
0.0
 40
3.831174005384781
100
AcDbArc
 50
33.14600112592687
 51
181.5983037737253
  0
LINE
  5
78
330
2
100
AcDbEntity
  8
KIJUN
 62
     7
100
AcDbLine
 10
390.0590099610028
 20
75.30058250750136
 30
0.0
 11
398.44199666521
 21
84.50827937027979
 31
0.0
  0
ARC
  5
79
330
2
100
AcDbEntity
  8
KIJUN
 62
     7
100
AcDbCircle
 10
420.3078317373424
 20
64.78971736792829
 30
0.0
 40
32.248522022745
100
AcDbArc
 50
127.4005434470825
 51
160.3079070745816
  0
ARC
  5
7A
330
2
100
AcDbEntity
  8
KIJUN
 62
     7
100
AcDbCircle
 10
386.4047183164977
 20
88.90161791157273
 30
0.0
 40
14.3949571726329
100
AcDbArc
 50
284.9777839792182
 51
6.007717510823676
  0
LINE
  5
7B
330
2
100
AcDbEntity
  8
KIJUN
 62
     7
100
AcDbLine
 10
402.596513747405
 20
92.14218324003271
 30
0.0
 11
402.5965137474059
 21
51.92982255495536
 31
0.0
  0
LINE
  5
7C
330
2
100
AcDbEntity
  8
KIJUN
 62
     7
100
AcDbLine
 10
405.9215137474053
 20
98.43628821989732
 30
0.0
 11
405.9215137474053
 21
51.92982255495536
 31
0.0
  0
LINE
  5
7D
330
2
100
AcDbEntity
  8
KIJUN
 62
     7
100
AcDbLine
 10
367.57786474667
 20
101.9891625502362
 30
0.0
 11
367.5778647466706
 21
71.57029280394119
 31
0.0
  0
LINE
  5
7E
330
2
100
AcDbEntity
  8
KIJUN
 62
     7
100
AcDbLine
 10
370.9028647466698
 20
101.9891625502362
 30
0.0
 11
370.9028647466685
 21
72.26637065509959
 31
0.0
  0
LINE
  5
7F
330
2
100
AcDbEntity
  8
KIJUN
 62
     7
100
AcDbLine
 10
374.5944469578814
 20
101.9891625502358
 30
0.0
 11
374.5944469578814
 21
72.71536058497514
 31
0.0
  0
ARC
  5
80
330
2
100
AcDbEntity
  8
KIJUN
 62
     7
100
AcDbCircle
 10
383.3266748159631
 20
88.96279451756464
 30
0.0
 40
11.40080608072528
100
AcDbArc
 50
284.8209309523054
 51
343.4905845447781
  0
LINE
  5
81
330
2
100
AcDbEntity
  8
KIJUN
 62
     7
100
AcDbLine
 10
415.4965137474055
 20
92.14218324003271
 30
0.0
 11
415.4965137474046
 21
51.92982255495536
 31
0.0
  0
LINE
  5
82
330
2
100
AcDbEntity
  8
KIJUN
 62
     7
100
AcDbLine
 10
412.1715137474053
 20
98.43628821989732
 30
0.0
 11
412.1715137474053
 21
51.92982255495536
 31
0.0
  0
ARC
  5
83
330
2
100
AcDbEntity
  8
KIJUN
 62
     7
100
AcDbCircle
 10
431.688309178313
 20
88.90161791157273
 30
0.0
 40
14.3949571726329
100
AcDbArc
 50
173.9922824891763
 51
255.0222160207817
  0
ARC
  5
84
330
2
100
AcDbEntity
  8
KIJUN
 62
     7
100
AcDbCircle
 10
434.7663526788474
 20
88.96279451756464
 30
0.0
 40
11.40080608072528
100
AcDbArc
 50
196.5094154552217
 51
255.1790690476946
  0
ARC
  5
85
330
2
100
AcDbEntity
  8
KIJUN
 62
     7
100
AcDbCircle
 10
397.7851957574682
 20
64.78971736792829
 30
0.0
 40
32.248522022745
100
AcDbArc
 50
19.69209292541841
 51
52.59945655291748
  0
LINE
  5
86
330
2
100
AcDbEntity
  8
KIJUN
 62
     7
100
AcDbLine
 10
450.5151627481405
 20
101.9891625502362
 30
0.0
 11
450.5151627481401
 21
71.57029280394119
 31
0.0
  0
LINE
  5
87
330
2
100
AcDbEntity
  8
KIJUN
 62
     7
100
AcDbLine
 10
447.1901627481406
 20
101.9891625502362
 30
0.0
 11
447.1901627481419
 21
72.26637065509959
 31
0.0
  0
LINE
  5
88
330
2
100
AcDbEntity
  8
KIJUN
 62
     7
100
AcDbLine
 10
443.4985805369292
 20
101.9891625502358
 30
0.0
 11
443.4985805369292
 21
72.71536058497514
 31
0.0
  0
ARC
  5
89
330
2
100
AcDbEntity
  8
KIJUN
 62
     7
100
AcDbCircle
 10
469.6295452897551
 20
74.91872675017322
 30
0.0
 40
3.831174005384781
100
AcDbArc
 50
28.25743099529348
 51
181.5983037737253
  0
LINE
  5
8A
330
2
100
AcDbEntity
  8
KIJUN
 62
     7
100
AcDbLine
 10
502.6777733729673
 20
74.50691161321294
 30
0.0
 11
511.2546495557417
 21
83.53427792599251
 31
0.0
  0
ARC
  5
8B
330
2
100
AcDbEntity
  8
KIJUN
 62
     7
100
AcDbCircle
 10
499.2104300307941
 20
73.67417500588572
 30
0.0
 40
3.565938881935066
100
AcDbArc
 50
274.5367831315434
 51
94.69157519263658
  0
ARC
  5
8C
330
2
100
AcDbEntity
  8
KIJUN
 62
     7
100
AcDbCircle
 10
499.2104300307941
 20
73.67417500588572
 30
0.0
 40
3.565938881935066
100
AcDbArc
 50
94.69157519261207
 51
134.2771296576284
  0
ARC
  5
8D
330
2
100
AcDbEntity
  8
KIJUN
 62
     7
100
AcDbCircle
 10
493.1736334192337
 20
74.41749568361484
 30
0.0
 40
3.565938881935066
100
AcDbArc
 50
31.68369015988123
 51
250.4511709859639
  0
LINE
  5
8E
330
2
100
AcDbEntity
  8
KIJUN
 62
     7
100
AcDbLine
 10
513.3465137474055
 20
84.9748381066559
 30
0.0
 11
513.3465137474055
 21
51.41250555243214
 31
0.0
  0
LINE
  5
8F
330
2
100
AcDbEntity
  8
KIJUN
 62
     7
100
AcDbLine
 10
516.6715137474053
 20
92.39175473412144
 30
0.0
 11
516.6715137474053
 21
51.41250555243214
 31
0.0
  0
ARC
  5
90
330
2
100
AcDbEntity
  8
KIJUN
 62
     7
100
AcDbCircle
 10
499.313508948157
 20
88.1825738043415
 30
0.0
 40
14.3949571726329
100
AcDbArc
 50
283.7594026567292
 51
4.789336188334312
  0
ARC
  5
91
330
2
100
AcDbEntity
  8
KIJUN
 62
     7
100
AcDbCircle
 10
532.6962620566336
 20
63.35523721034252
 30
0.0
 40
32.248522022745
100
AcDbArc
 50
126.1821621245934
 51
159.0895257520918
  0
ARC
  5
92
330
2
100
AcDbEntity
  8
KIJUN
 62
     7
100
AcDbCircle
 10
496.2374621601866
 20
88.30918551991389
 30
0.0
 40
11.40080608072528
100
AcDbArc
 50
267.3662032634396
 51
342.2722032222889
  0
LINE
  5
93
330
2
100
AcDbEntity
  8
KIJUN
 62
     7
100
AcDbLine
 10
477.9294826865224
 20
101.9891625502358
 30
0.0
 11
477.929482686522
 21
76.39580525534739
 31
0.0
  0
LINE
  5
94
330
2
100
AcDbEntity
  8
KIJUN
 62
     7
100
AcDbLine
 10
488.2710648977331
 20
101.9891625502358
 30
0.0
 11
488.2710648977326
 21
73.27263109612187
 31
0.0
  0
LINE
  5
95
330
2
100
AcDbEntity
  8
KIJUN
 62
     7
100
AcDbLine
 10
484.9460648977338
 20
101.9891625502358
 30
0.0
 11
484.9460648977323
 21
72.97294913334491
 31
0.0
  0
LINE
  5
96
330
2
100
AcDbEntity
  8
KIJUN
 62
     7
100
AcDbLine
 10
481.2544826865219
 20
101.9891625502362
 30
0.0
 11
481.2544826865219
 21
72.28433760919306
 31
0.0
  0
ARC
  5
97
330
2
100
AcDbEntity
  8
KIJUN
 62
     7
100
AcDbCircle
 10
412.2881571401886
 20
21.77813278991636
 30
0.0
 40
53.16384213274378
100
AcDbArc
 50
41.27344010435908
 51
60.49539580980697
  0
ARC
  5
98
330
2
100
AcDbEntity
  8
KIJUN
 62
     7
100
AcDbCircle
 10
452.7158215873624
 20
71.49673007474331
 30
0.0
 40
14.65647122937278
100
AcDbArc
 50
193.6116428722238
 51
268.1571930419449
  0
ARC
  5
99
330
2
100
AcDbEntity
  8
KIJUN
 62
     7
100
AcDbCircle
 10
427.8350471421667
 20
51.92982255495536
 30
0.0
 40
15.66353339476172
100
AcDbArc
 50
180.0
 51
1.199030581076893
  0
ARC
  5
9A
330
2
100
AcDbEntity
  8
KIJUN
 62
     7
100
AcDbCircle
 10
448.2145344594137
 20
46.11110996285725
 30
0.0
 40
10.0255512752962
100
AcDbArc
 50
208.3254204943443
 51
258.1466610390176
  0
ARC
  5
9B
330
2
100
AcDbEntity
  8
KIJUN
 62
     7
100
AcDbCircle
 10
427.8350471421667
 20
51.92982255495536
 30
0.0
 40
12.33853339476172
100
AcDbArc
 50
180.0
 51
0.000000000000007
  0
ARC
  5
9C
330
2
100
AcDbEntity
  8
KIJUN
 62
     7
100
AcDbCircle
 10
448.0277721636562
 20
80.53277269554092
 30
0.0
 40
11.65991530983267
100
AcDbArc
 50
225.1766978471051
 51
300.8659647066959
  0
ARC
  5
9D
330
2
100
AcDbEntity
  8
KIJUN
 62
     7
100
AcDbCircle
 10
422.9451223760966
 20
34.34641170352444
 30
0.0
 40
40.77937217609114
100
AcDbArc
 50
45.95404551613755
 51
66.54621180209929
  0
ARC
  5
9E
330
2
100
AcDbEntity
  8
KIJUN
 62
     7
100
AcDbCircle
 10
450.1064768021238
 20
74.99644886202151
 30
0.0
 40
11.40080608072528
100
AcDbArc
 50
196.5094154552217
 51
275.9908418630147
  0
LINE
  5
9F
330
2
100
AcDbEntity
  8
KIJUN
 62
     7
100
AcDbLine
 10
440.1735805369285
 20
63.91356857506234
 30
0.0
 11
440.1735805369285
 21
51.92982255495536
 31
0.0
  0
LINE
  5
A0
330
2
100
AcDbEntity
  8
KIJUN
 62
     7
100
AcDbLine
 10
443.4985805369288
 20
60.10135310354853
 30
0.0
 11
443.4985805369282
 21
51.92982255495491
 31
0.0
  0
ARC
  5
A1
330
2
100
AcDbEntity
  8
KIJUN
 62
     7
100
AcDbCircle
 10
457.5510031254703
 20
59.96874093981052
 30
0.0
 40
3.831174005384781
100
AcDbArc
 50
150.3885731915711
 51
246.2027383971651
  0
LINE
  5
A2
330
2
100
AcDbEntity
  8
KIJUN
 62
     7
100
AcDbLine
 10
452.2445060560126
 20
56.84783897106701
 30
0.0
 11
441.9543901199826
 21
64.44121828818817
 31
0.0
  0
LINE
  5
A3
330
2
100
AcDbEntity
  8
KIJUN
 62
     7
100
AcDbLine
 10
447.1901627481419
 20
57.92178096655225
 30
0.0
 11
447.1901627481419
 21
53.23671350851402
 31
0.0
  0
LINE
  5
A4
330
2
100
AcDbEntity
  8
KIJUN
 62
     7
100
AcDbLine
 10
450.5151627481401
 20
57.0064143580037
 30
0.0
 11
450.5151627481401
 21
53.23671350851447
 31
0.0
  0
ARC
  5
A5
330
2
100
AcDbEntity
  8
KIJUN
 62
     7
100
AcDbCircle
 10
455.2875312282107
 20
54.83609878472115
 30
0.0
 40
1.778399999999999
100
AcDbArc
 50
18.66133234488513
 51
66.20273839716951
  0
ARC
  5
A6
330
2
100
AcDbEntity
  8
KIJUN
 62
     7
100
AcDbCircle
 10
448.2145344594137
 20
45.77455518391461
 30
0.0
 40
6.2255512752962
100
AcDbArc
 50
184.6953102292245
 51
250.683554300175
  0
ARC
  5
A7
330
2
100
AcDbEntity
  8
KIJUN
 62
     7
100
AcDbCircle
 10
444.095893018387
 20
45.77455518391461
 30
0.0
 40
6.2255512752962
100
AcDbArc
 50
289.3164456998249
 51
341.9310172300291
  0
ARC
  5
A8
330
2
100
AcDbEntity
  8
KIJUN
 62
     7
100
AcDbCircle
 10
444.095893018387
 20
46.11110996285725
 30
0.0
 40
10.0255512752962
100
AcDbArc
 50
281.8533389609823
 51
327.9558251903436
  0
ARC
  5
A9
330
2
100
AcDbEntity
  8
KIJUN
 62
     7
100
AcDbCircle
 10
454.3993178139239
 20
67.4445781004195
 30
0.0
 40
4.836564623070778
100
AcDbArc
 50
161.0901755314447
 51
261.8313528293431
  0
ARC
  5
AA
330
2
100
AcDbEntity
  8
KIJUN
 62
     7
100
AcDbCircle
 10
454.3993178139239
 20
67.4445781004195
 30
0.0
 40
4.836564623070778
100
AcDbArc
 50
95.23020019797042
 51
126.9285993212114
  0
ARC
  5
AB
330
2
100
AcDbEntity
  8
KIJUN
 62
     7
100
AcDbCircle
 10
440.3139578299347
 20
31.13094881570606
 30
0.0
 40
41.70617608918413
100
AcDbArc
 50
70.82916835981873
 51
89.93367138728425
  0
ARC
  5
AC
330
2
100
AcDbEntity
  8
KIJUN
 62
     7
100
AcDbCircle
 10
453.7563538582794
 20
62.125402874294
 30
0.0
 40
0.5335200000000003
100
AcDbArc
 50
330.3885731915333
 51
94.7576083377619
  0
LINE
  5
AD
330
2
100
AcDbEntity
  8
KIJUN
 62
     7
100
AcDbLine
 10
454.0096753865141
 20
70.5242533812346
 30
0.0
 11
443.4889103373089
 21
71.19849667321322
 31
0.0
  0
LINE
  5
AE
330
2
100
AcDbEntity
  8
KIJUN
 62
     7
100
AcDbLine
 10
451.2963732085122
 20
63.65790725243261
 30
0.0
 11
442.2410711848056
 21
68.58313684015849
 31
0.0
  0
ARC
  5
AF
330
2
100
AcDbEntity
  8
KIJUN
 62
     7
100
AcDbCircle
 10
454.2202723866993
 20
74.02002366747803
 30
0.0
 40
1.778399999999999
100
AcDbArc
 50
261.533244605165
 51
1.598303773742683
  0
ARC
  5
B0
330
2
100
AcDbEntity
  8
KIJUN
 62
     7
100
AcDbCircle
 10
458.8143650170618
 20
67.03453198094513
 30
0.0
 40
3.615131519999998
100
AcDbArc
 50
77.29005448065532
 51
335.5963597081723
  0
ARC
  5
B1
330
2
100
AcDbEntity
  8
KIJUN
 62
     7
100
AcDbCircle
 10
472.1109865448275
 20
57.82012752012935
 30
0.0
 40
3.831174005384781
100
AcDbArc
 50
199.0919070674063
 51
18.27072131719276
  0
CIRCLE
  5
B2
330
2
100
AcDbEntity
  8
KIJUN
 62
     7
100
AcDbCircle
 10
471.9644840367177
 20
67.26648480565819
 30
0.0
 40
3.615131519999998
  0
ARC
  5
B3
330
2
100
AcDbEntity
  8
KIJUN
 62
     7
100
AcDbCircle
 10
465.9532048383976
 20
54.94757776437364
 30
0.0
 40
1.778399999999999
100
AcDbArc
 50
79.78425779506268
 51
162.536349618833
  0
ARC
  5
B4
330
2
100
AcDbEntity
  8
KIJUN
 62
     7
100
AcDbCircle
 10
467.9863720019839
 20
56.39250409863172
 30
0.0
 40
0.5335200000000003
100
AcDbArc
 50
19.09190706737356
 51
98.34533112566731
  0
ARC
  5
B5
330
2
100
AcDbEntity
  8
KIJUN
 62
     7
100
AcDbCircle
 10
466.9480916474404
 20
60.46822272298896
 30
0.0
 40
3.831174005384781
100
AcDbArc
 50
259.7842577950656
 51
289.7147415956087
  0
ARC
  5
B6
330
2
100
AcDbEntity
  8
KIJUN
 62
     7
100
AcDbCircle
 10
464.0221537384178
 20
74.76226425666419
 30
0.0
 40
1.778399999999999
100
AcDbArc
 50
261.533244605165
 51
1.598303773742683
  0
LINE
  5
B7
330
2
100
AcDbEntity
  8
KIJUN
 62
     7
100
AcDbLine
 10
477.9294826865216
 20
60.73458749787943
 30
0.0
 11
477.9294826865216
 21
57.73917506930438
 31
0.0
  0
ARC
  5
B8
330
2
100
AcDbEntity
  8
KIJUN
 62
     7
100
AcDbCircle
 10
474.4216160632971
 20
64.71482366435049
 30
0.0
 40
5.30541310240938
100
AcDbArc
 50
289.705281901447
 51
53.07937056348164
  0
LINE
  5
B9
330
2
100
AcDbEntity
  8
KIJUN
 62
     7
100
AcDbLine
 10
488.2710648977326
 20
62.59276919897756
 30
0.0
 11
488.2710648977321
 21
51.41250555243214
 31
0.0
  0
CIRCLE
  5
BA
330
2
100
AcDbEntity
  8
KIJUN
 62
     7
100
AcDbCircle
 10
502.5389405743721
 20
58.62160793622553
 30
0.0
 40
3.313870560000001
  0
LINE
  5
BB
330
2
100
AcDbEntity
  8
KIJUN
 62
     7
100
AcDbLine
 10
476.9729495140173
 20
56.67844418829901
 30
0.0
 11
487.2630654500476
 21
64.27182350542017
 31
0.0
  0
ARC
  5
BC
330
2
100
AcDbEntity
  8
KIJUN
 62
     7
100
AcDbCircle
 10
476.501633982667
 20
71.3273352919753
 30
0.0
 40
14.65647122937325
100
AcDbArc
 50
271.8428069580568
 51
346.3883571277765
  0
ARC
  5
BD
330
2
100
AcDbEntity
  8
KIJUN
 62
     7
100
AcDbCircle
 10
516.9292984298409
 20
21.60873800714836
 30
0.0
 40
53.16384213274347
100
AcDbArc
 50
119.5046041901925
 51
138.7265598956405
  0
ARC
  5
BE
330
2
100
AcDbEntity
  8
KIJUN
 62
     7
100
AcDbCircle
 10
476.2556380232537
 20
59.188490733249
 30
0.0
 40
0.5335200000000003
100
AcDbArc
 50
94.85260476872932
 51
198.2707213172286
  0
ARC
  5
BF
330
2
100
AcDbEntity
  8
KIJUN
 62
     7
100
AcDbCircle
 10
500.8087893225693
 20
51.41250555243214
 30
0.0
 40
15.86272442483586
100
AcDbArc
 50
176.8524157850469
 51
0.000000000000007
  0
LINE
  5
C0
330
2
100
AcDbEntity
  8
KIJUN
 62
     7
100
AcDbLine
 10
477.9294826865216
 20
56.74058113019036
 30
0.0
 11
477.929482686522
 21
53.23671350851447
 31
0.0
  0
LINE
  5
C1
330
2
100
AcDbEntity
  8
KIJUN
 62
     7
100
AcDbLine
 10
481.2544826865219
 20
57.4628995625374
 30
0.0
 11
481.2544826865219
 21
53.23671350851447
 31
0.0
  0
LINE
  5
C2
330
2
100
AcDbEntity
  8
KIJUN
 62
     7
100
AcDbLine
 10
484.9460648977323
 20
59.3480308289384
 30
0.0
 11
484.9460648977323
 21
51.4125055524326
 31
0.0
  0
CIRCLE
  5
C3
330
2
100
AcDbEntity
  8
KIJUN
 62
     7
100
AcDbCircle
 10
502.1892240465027
 20
42.17826594555781
 30
0.0
 40
2.651096448
  0
CIRCLE
  5
C4
330
2
100
AcDbEntity
  8
KIJUN
 62
     7
100
AcDbCircle
 10
502.3609431145546
 20
50.25233490505961
 30
0.0
 40
3.181315737599998
  0
ARC
  5
C5
330
2
100
AcDbEntity
  8
KIJUN
 62
     7
100
AcDbCircle
 10
485.5199382494951
 20
45.77455518391415
 30
0.0
 40
6.2255512752962
100
AcDbArc
 50
184.0598920615816
 51
250.683554300175
  0
ARC
  5
C6
330
2
100
AcDbEntity
  8
KIJUN
 62
     7
100
AcDbCircle
 10
485.5199382494951
 20
46.11110996285678
 30
0.0
 40
10.0255512752962
100
AcDbArc
 50
207.1517453577857
 51
258.1466610390176
  0
ARC
  5
C7
330
2
100
AcDbEntity
  8
KIJUN
 62
     7
100
AcDbCircle
 10
481.4012968084685
 20
45.77455518391415
 30
0.0
 40
6.2255512752962
100
AcDbArc
 50
289.3164456998249
 51
337.2030670281447
  0
ARC
  5
C8
330
2
100
AcDbEntity
  8
KIJUN
 62
     7
100
AcDbCircle
 10
481.4012968084685
 20
46.11110996285678
 30
0.0
 40
10.0255512752962
100
AcDbArc
 50
281.8533389609823
 51
324.2370395605874
  0
ARC
  5
C9
330
2
100
AcDbEntity
  8
KIJUN
 62
     7
100
AcDbCircle
 10
500.8087893225693
 20
51.41250555243214
 30
0.0
 40
12.53772442483586
100
AcDbArc
 50
180.0
 51
0.000000000000007
  0
LINE
  5
CA
330
2
100
AcDbEntity
  8
KIJUN
 62
     7
100
AcDbLine
 10
477.9294826865216
 20
61.49840605781839
 30
0.0
 11
477.9294826865216
 21
61.49240632376432
 31
0.0
  0
ARC
  5
CB
330
2
100
AcDbEntity
  8
KIJUN
 62
     7
100
AcDbCircle
 10
489.9746502234938
 20
35.7757519264722
 30
0.0
 40
37.53555848026572
100
AcDbArc
 50
90.2913743706626
 51
106.5830839635321
  0
ARC
  5
CC
330
2
100
AcDbEntity
  8
KIJUN
 62
     7
100
AcDbCircle
 10
483.0322173231447
 20
80.23739341832362
 30
0.0
 40
10.4939237788494
100
AcDbArc
 50
245.0873718495385
 51
312.71123974715
  0
LINE
  5
CD
330
2
100
AcDbEntity
  8
KIJUN
 62
     7
100
AcDbLine
 10
477.929482686522
 20
70.11097219845016
 30
0.0
 11
477.929482686522
 21
68.69505983082155
 31
0.0
  0
ARC
  5
CE
330
2
100
AcDbEntity
  8
KIJUN
 62
     7
100
AcDbCircle
 10
477.2677731505545
 20
74.60022880465095
 30
0.0
 40
13.1245140748307
100
AcDbArc
 50
272.8532360007227
 51
272.8899541831311
  0
ARC
  5
CF
330
2
100
AcDbEntity
  8
KIJUN
 62
     7
100
AcDbCircle
 10
477.2677731505545
 20
74.60022880465095
 30
0.0
 40
13.1245140748307
100
AcDbArc
 50
276.182485697172
 51
346.7283316054843
  0
LINE
  5
D0
330
2
100
AcDbEntity
  8
KIJUN
 62
     7
100
AcDbLine
 10
477.9210823615176
 20
61.49198495677757
 30
0.0
 11
477.9294826865216
 21
61.49840605781792
 31
0.0
  0
LINE
  5
D1
330
2
100
AcDbEntity
  8
KIJUN
 62
     7
100
AcDbLine
 10
479.2441229155151
 20
62.50330024201668
 30
0.0
 11
486.9763843852243
 21
68.41374205739048
 31
0.0
  0
ARC
  5
D2
330
2
100
AcDbEntity
  8
KIJUN
 62
     7
100
AcDbCircle
 10
514.0847146874595
 20
30.39670697113598
 30
0.0
 40
47.69407317487315
100
AcDbArc
 50
120.2721384778012
 51
136.4361129954192
  0
ARC
  5
D3
330
2
100
AcDbEntity
  8
KIJUN
 62
     7
100
AcDbCircle
 10
514.0847146874595
 20
30.39670697113598
 30
0.0
 40
47.69407317487315
100
AcDbArc
 50
139.293953222673
 51
139.3094291284036
  0
LINE
  5
D4
330
2
100
AcDbEntity
  8
KIJUN
 62
     7
100
AcDbLine
 10
479.0449795203549
 20
71.31922180526027
 30
0.0
 11
487.1171929668567
 21
71.83654499822825
 31
0.0
  0
CIRCLE
  5
D5
330
2
100
AcDbEntity
  8
KIJUN
 62
     7
100
AcDbCircle
 10
502.7107512563506
 20
66.69998449635324
 30
0.0
 40
3.313870560000001
  0
ARC
  5
D6
330
2
100
AcDbEntity
  8
KIJUN
 62
     7
100
AcDbCircle
 10
495.6228009369655
 20
69.69608960892429
 30
0.0
 40
3.565938881935066
100
AcDbArc
 50
164.3836996455219
 51
1.371890306384299
  0
ARC
  5
D7
330
2
100
AcDbEntity
  8
KIJUN
 62
     7
100
AcDbCircle
 10
491.8696596402559
 20
70.74513656534083
 30
0.0
 40
0.331056
100
AcDbArc
 50
344.3836996454789
 51
70.4511709859117
  0
ARC
  5
D8
330
2
100
AcDbEntity
  8
KIJUN
 62
     7
100
AcDbCircle
 10
496.4898227401086
 20
76.46431211357304
 30
0.0
 40
0.331056
100
AcDbArc
 50
211.6836901598723
 51
314.2771296576409
  0
CIRCLE
  5
D9
330
2
100
AcDbEntity
  8
KIJUN
 62
     7
100
AcDbCircle
 10
496.3508447853114
 20
72.90152405645978
 30
0.0
 40
1.686851022990754
  0
ARC
  5
DA
330
2
100
AcDbEntity
  8
KIJUN
 62
     7
100
AcDbCircle
 10
499.5186787689322
 20
69.78939034965725
 30
0.0
 40
0.331056
100
AcDbArc
 50
94.53678313159121
 51
181.371890306386
  0
ARC
  5
DB
330
2
100
AcDbEntity
  8
KIJUN
 62
     7
100
AcDbCircle
 10
473.4740958448541
 20
76.98512090181413
 30
0.0
 40
0.5335200000000003
100
AcDbArc
 50
208.2574309953016
 51
301.2423204176398
  0
ARC
  5
DC
330
2
100
AcDbEntity
  8
KIJUN
 62
     7
100
AcDbCircle
 10
477.8484507221605
 20
69.43291043975688
 30
0.0
 40
0.5335200000000003
100
AcDbArc
 50
118.9178266947017
 51
243.2868618408833
  0
ARC
  5
DD
330
2
100
AcDbEntity
  8
KIJUN
 62
     7
100
AcDbCircle
 10
475.7378822162563
 20
73.25338872689902
 30
0.0
 40
3.831174005384781
100
AcDbArc
 50
298.9178266946688
 51
121.2423204176317
  0
ARC
  5
DE
330
2
100
AcDbEntity
  8
KIJUN
 62
     7
100
AcDbCircle
 10
519.7471581619494
 20
46.11110996285678
 30
0.0
 40
10.0255512752962
100
AcDbArc
 50
217.6635007269215
 51
265.9925677656241
  0
ARC
  5
DF
330
2
100
AcDbEntity
  8
KIJUN
 62
     7
100
AcDbCircle
 10
519.7471581619494
 20
45.77455518391415
 30
0.0
 40
6.2255512752962
100
AcDbArc
 50
207.2202316597707
 51
263.5380504053349
  0
ARC
  5
E0
330
2
100
AcDbEntity
  8
KIJUN
 62
     7
100
AcDbCircle
 10
464.2223227173313
 20
53.23671350851447
 30
0.0
 40
17.03215996919061
100
AcDbArc
 50
180.0000000000015
 51
0.000000000000007
  0
ARC
  5
E1
330
2
100
AcDbEntity
  8
KIJUN
 62
     7
100
AcDbCircle
 10
464.2223227173313
 20
53.23671350851447
 30
0.0
 40
13.70715996919061
100
AcDbArc
 50
180.0
 51
0.000000000000007
  0
ARC
  5
E2
330
2
100
AcDbEntity
  8
KIJUN
 62
     7
100
AcDbCircle
 10
467.3528844771885
 20
60.71098152899715
 30
0.0
 40
3.831174005384781
100
AcDbArc
 50
150.3885731915711
 51
278.3453311257146
  0
CIRCLE
  5
E3
330
2
100
AcDbEntity
  8
KIJUN
 62
     7
100
AcDbCircle
 10
464.9632277949836
 20
42.96885780973008
 30
0.0
 40
2.651096448
  0
CIRCLE
  5
E4
330
2
100
AcDbEntity
  8
KIJUN
 62
     7
100
AcDbCircle
 10
464.9632277949836
 20
51.04475262090254
 30
0.0
 40
3.181315737599998
  0
ARC
  5
E5
330
2
100
AcDbEntity
  8
KIJUN
 62
     7
100
AcDbCircle
 10
460.6021899392103
 20
56.63101474584101
 30
0.0
 40
3.831174005384781
100
AcDbArc
 50
198.6613323448965
 51
342.5363496188304
  0
ARC
  5
E6
330
2
100
AcDbEntity
  8
KIJUN
 62
     7
100
AcDbCircle
 10
460.4280026757683
 20
63.39207945061097
 30
0.0
 40
3.67945551185556
100
AcDbArc
 50
347.632725980102
 51
32.99625287237978
  0
ARC
  5
E7
330
2
100
AcDbEntity
  8
KIJUN
 62
     7
100
AcDbCircle
 10
464.5244480454694
 20
77.24365742618719
 30
0.0
 40
1.778399999999999
100
AcDbArc
 50
213.1460011259361
 51
335.5148352967337
  0
ARC
  5
E8
330
2
100
AcDbEntity
  8
KIJUN
 62
     7
100
AcDbCircle
 10
463.1962251267678
 20
69.21382641792553
 30
0.0
 40
3.831174005384781
100
AcDbArc
 50
81.5332446051819
 51
274.7576083377524
  0
LINE
  5
E9
330
2
100
AcDbEntity
  8
KIJUN
 62
     7
100
AcDbLine
 10
365.848521438798
 20
56.84783897106701
 30
0.0
 11
376.1386373748278
 21
64.44121828818817
 31
0.0
  0
ARC
  5
EA
330
2
100
AcDbEntity
  8
KIJUN
 62
     7
100
AcDbCircle
 10
367.9865506926868
 20
74.99644886202151
 30
0.0
 40
11.40080608072528
100
AcDbArc
 50
264.0091581369853
 51
343.4905845447781
  0
ARC
  5
EB
330
2
100
AcDbEntity
  8
KIJUN
 62
     7
100
AcDbCircle
 10
405.8048703546221
 20
21.77813278991636
 30
0.0
 40
53.16384213274378
100
AcDbArc
 50
119.5046041901929
 51
138.7265598956409
  0
ARC
  5
EC
330
2
100
AcDbEntity
  8
KIJUN
 62
     7
100
AcDbCircle
 10
365.3772059074483
 20
71.49673007474331
 30
0.0
 40
14.65647122937278
100
AcDbArc
 50
271.842806958055
 51
346.3883571277762
  0
ARC
  5
ED
330
2
100
AcDbEntity
  8
KIJUN
 62
     7
100
AcDbCircle
 10
373.9971344764237
 20
46.11110996285725
 30
0.0
 40
10.0255512752962
100
AcDbArc
 50
212.0441748096565
 51
258.1466610390176
  0
ARC
  5
EE
330
2
100
AcDbEntity
  8
KIJUN
 62
     7
100
AcDbCircle
 10
373.9971344764237
 20
45.77455518391461
 30
0.0
 40
6.2255512752962
100
AcDbArc
 50
198.0689827699712
 51
250.683554300175
  0
ARC
  5
EF
330
2
100
AcDbEntity
  8
KIJUN
 62
     7
100
AcDbCircle
 10
369.8784930353968
 20
46.11110996285725
 30
0.0
 40
10.0255512752962
100
AcDbArc
 50
281.8533389609823
 51
331.6745795056557
  0
ARC
  5
F0
330
2
100
AcDbEntity
  8
KIJUN
 62
     7
100
AcDbCircle
 10
369.8784930353968
 20
45.77455518391461
 30
0.0
 40
6.2255512752962
100
AcDbArc
 50
289.3164456998249
 51
355.3046897707755
  0
ARC
  5
F1
330
2
100
AcDbEntity
  8
KIJUN
 62
     7
100
AcDbCircle
 10
383.1079258524201
 20
70.34083713650608
 30
0.0
 40
3.565938881935066
100
AcDbArc
 50
165.6020809680113
 51
2.590271628873626
  0
ARC
  5
F2
330
2
100
AcDbEntity
  8
KIJUN
 62
     7
100
AcDbCircle
 10
379.3333270342297
 20
71.30984326215531
 30
0.0
 40
0.331056
100
AcDbArc
 50
345.6020809679683
 51
71.66955230840091
  0
ARC
  5
F3
330
2
100
AcDbEntity
  8
KIJUN
 62
     7
100
AcDbCircle
 10
383.8308378149468
 20
77.12596506263918
 30
0.0
 40
0.331056
100
AcDbArc
 50
212.9020714823618
 51
315.4955109801302
  0
CIRCLE
  5
F4
330
2
100
AcDbEntity
  8
KIJUN
 62
     7
100
AcDbCircle
 10
383.7676474245342
 20
73.56102739328372
 30
0.0
 40
1.686851022990754
  0
ARC
  5
F5
330
2
100
AcDbEntity
  8
KIJUN
 62
     7
100
AcDbCircle
 10
387.0009390097177
 20
70.5169554687098
 30
0.0
 40
0.331056
100
AcDbArc
 50
95.75516445408075
 51
182.5902716288755
  0
ARC
  5
F6
330
2
100
AcDbEntity
  8
KIJUN
 62
     7
100
AcDbCircle
 10
363.6937096808865
 20
67.4445781004195
 30
0.0
 40
4.836564623070778
100
AcDbArc
 50
53.0714006787884
 51
84.76979980202957
  0
LINE
  5
F7
330
2
100
AcDbEntity
  8
KIJUN
 62
     7
100
AcDbLine
 10
364.0833521082965
 20
70.5242533812346
 30
0.0
 11
374.6041171575016
 21
71.19849667321322
 31
0.0
  0
LINE
  5
F8
330
2
100
AcDbEntity
  8
KIJUN
 62
     7
100
AcDbLine
 10
366.7966542862984
 20
63.65790725243261
 30
0.0
 11
375.8519563100049
 21
68.58313684015849
 31
0.0
  0
ARC
  5
F9
330
2
100
AcDbEntity
  8
KIJUN
 62
     7
100
AcDbCircle
 10
370.0652553311543
 20
80.53277269554092
 30
0.0
 40
11.65991530983267
100
AcDbArc
 50
239.1340352933045
 51
314.823302152895
  0
ARC
  5
FA
330
2
100
AcDbEntity
  8
KIJUN
 62
     7
100
AcDbCircle
 10
377.779069664876
 20
31.13094881570606
 30
0.0
 40
41.70617608918413
100
AcDbArc
 50
90.06632861271574
 51
109.1708316401812
  0
ARC
  5
FB
330
2
100
AcDbEntity
  8
KIJUN
 62
     7
100
AcDbCircle
 10
395.1479051187139
 20
34.34641170352444
 30
0.0
 40
40.77937217609114
100
AcDbArc
 50
113.4537881979007
 51
134.0459544838624
  0
ARC
  5
FC
330
2
100
AcDbEntity
  8
KIJUN
 62
     7
100
AcDbCircle
 10
360.5420243693401
 20
59.96874093981052
 30
0.0
 40
3.831174005384781
100
AcDbArc
 50
293.7972616028349
 51
29.6114268084289
  0
ARC
  5
FD
330
2
100
AcDbEntity
  8
KIJUN
 62
     7
100
AcDbCircle
 10
350.740143017622
 20
60.71098152899715
 30
0.0
 40
3.831174005384781
100
AcDbArc
 50
261.6546688742854
 51
29.6114268084289
  0
ARC
  5
FE
330
2
100
AcDbEntity
  8
KIJUN
 62
     7
100
AcDbCircle
 10
352.1398226564129
 20
54.94757776437364
 30
0.0
 40
1.778399999999999
100
AcDbArc
 50
17.46365038116703
 51
100.2157422049377
  0
ARC
  5
FF
330
2
100
AcDbEntity
  8
KIJUN
 62
     7
100
AcDbCircle
 10
351.1449358473702
 20
60.46822272298896
 30
0.0
 40
3.831174005384781
100
AcDbArc
 50
250.2852584043917
 51
280.2157422049348
  0
ARC
  5
100
330
2
100
AcDbEntity
  8
KIJUN
 62
     7
100
AcDbCircle
 10
362.8054962665997
 20
54.83609878472115
 30
0.0
 40
1.778399999999999
100
AcDbArc
 50
113.7972616028305
 51
161.3386676551149
  0
ARC
  5
101
330
2
100
AcDbEntity
  8
KIJUN
 62
     7
100
AcDbCircle
 10
357.4908375556003
 20
56.63101474584101
 30
0.0
 40
3.831174005384781
100
AcDbArc
 50
197.4636503811695
 51
341.3386676551035
  0
ARC
  5
102
330
2
100
AcDbEntity
  8
KIJUN
 62
     7
100
AcDbCircle
 10
350.1066554928268
 20
56.39250409863172
 30
0.0
 40
0.5335200000000003
100
AcDbArc
 50
81.65466887433272
 51
160.9080929326264
  0
ARC
  5
103
330
2
100
AcDbEntity
  8
KIJUN
 62
     7
100
AcDbCircle
 10
363.8727551081112
 20
74.02002366747803
 30
0.0
 40
1.778399999999999
100
AcDbArc
 50
178.4016962262573
 51
278.466755394835
  0
ARC
  5
104
330
2
100
AcDbEntity
  8
KIJUN
 62
     7
100
AcDbCircle
 10
354.0708737563928
 20
74.76226425666419
 30
0.0
 40
1.778399999999999
100
AcDbArc
 50
178.4016962262573
 51
278.466755394835
  0
ARC
  5
105
330
2
100
AcDbEntity
  8
KIJUN
 62
     7
100
AcDbCircle
 10
353.5685794493411
 20
77.24365742618719
 30
0.0
 40
1.778399999999999
100
AcDbArc
 50
204.4851647032662
 51
326.853998874064
  0
ARC
  5
106
330
2
100
AcDbEntity
  8
KIJUN
 62
     7
100
AcDbCircle
 10
354.8968023680427
 20
69.21382641792553
 30
0.0
 40
3.831174005384781
100
AcDbArc
 50
265.2423916622475
 51
98.4667553948185
  0
ARC
  5
107
330
2
100
AcDbEntity
  8
KIJUN
 62
     7
100
AcDbCircle
 10
364.3366736365312
 20
62.125402874294
 30
0.0
 40
0.5335200000000003
100
AcDbArc
 50
85.24239166223811
 51
209.6114268084667
  0
ARC
  5
108
330
2
100
AcDbEntity
  8
KIJUN
 62
     7
100
AcDbCircle
 10
359.2786624777488
 20
67.03453198094513
 30
0.0
 40
3.615131519999998
100
AcDbArc
 50
204.4036402918277
 51
102.7099455193447
  0
ARC
  5
109
330
2
100
AcDbEntity
  8
KIJUN
 62
     7
100
AcDbCircle
 10
357.6650248190423
 20
63.39207945061097
 30
0.0
 40
3.67945551185556
100
AcDbArc
 50
147.0037471276202
 51
192.3672740198981
  0
CIRCLE
  5
10A
330
2
100
AcDbEntity
  8
KIJUN
 62
     7
100
AcDbCircle
 10
353.129799699827
 20
51.04475262090254
 30
0.0
 40
3.181315737599998
  0
CIRCLE
  5
10B
330
2
100
AcDbEntity
  8
KIJUN
 62
     7
100
AcDbCircle
 10
353.129799699827
 20
42.96885780973008
 30
0.0
 40
2.651096448
  0
LINE
  5
10C
330
2
100
AcDbEntity
  8
KIJUN
 62
     7
100
AcDbLine
 10
367.5778647466706
 20
57.0064143580037
 30
0.0
 11
367.5778647466706
 21
53.23671350851447
 31
0.0
  0
LINE
  5
10D
330
2
100
AcDbEntity
  8
KIJUN
 62
     7
100
AcDbLine
 10
370.9028647466685
 20
57.92178096655225
 30
0.0
 11
370.9028647466685
 21
53.23671350851402
 31
0.0
  0
LINE
  5
10E
330
2
100
AcDbEntity
  8
KIJUN
 62
     7
100
AcDbLine
 10
374.5944469578816
 20
60.10135310354853
 30
0.0
 11
374.5944469578823
 21
51.92982255495491
 31
0.0
  0
LINE
  5
10F
330
2
100
AcDbEntity
  8
KIJUN
 62
     7
100
AcDbLine
 10
377.919446957882
 20
63.91356857506234
 30
0.0
 11
377.919446957882
 21
51.92982255495536
 31
0.0
  0
ARC
  5
110
330
2
100
AcDbEntity
  8
KIJUN
 62
     7
100
AcDbCircle
 10
363.6937096808865
 20
67.4445781004195
 30
0.0
 40
4.836564623070778
100
AcDbArc
 50
278.1686471706569
 51
18.90982446855524
  0
ARC
  5
111
330
2
100
AcDbEntity
  8
KIJUN
 62
     7
100
AcDbCircle
 10
409.7471581619493
 20
46.11110996285678
 30
0.0
 40
10.0255512752962
100
AcDbArc
 50
212.1351147600661
 51
265.9925677656241
  0
ARC
  5
112
330
2
100
AcDbEntity
  8
KIJUN
 62
     7
100
AcDbCircle
 10
409.7471581619493
 20
45.77455518391415
 30
0.0
 40
6.2255512752962
100
AcDbArc
 50
196.4095268309508
 51
263.5380504053349
  0
CIRCLE
  5
113
330
2
100
AcDbEntity
  8
KIJUN
 62
     7
100
AcDbCircle
 10
427.8350471421667
 20
59.41591826051926
 30
0.0
 40
3.313870560000001
  0
ARC
  5
114
330
2
100
AcDbEntity
  8
KIJUN
 62
     7
100
AcDbCircle
 10
408.3458693328611
 20
46.11110996285678
 30
0.0
 40
10.0255512752962
100
AcDbArc
 50
274.0074322343758
 51
327.8648852399339
  0
ARC
  5
115
330
2
100
AcDbEntity
  8
KIJUN
 62
     7
100
AcDbCircle
 10
408.3458693328611
 20
45.77455518391415
 30
0.0
 40
6.2255512752962
100
AcDbArc
 50
276.4619495946651
 51
343.5904731690491
  0
CIRCLE
  5
116
330
2
100
AcDbEntity
  8
KIJUN
 62
     7
100
AcDbCircle
 10
427.8350471421667
 20
51.04475262090254
 30
0.0
 40
3.181315737599998
  0
CIRCLE
  5
117
330
2
100
AcDbEntity
  8
KIJUN
 62
     7
100
AcDbCircle
 10
427.8350471421667
 20
42.96885780973008
 30
0.0
 40
2.651096448
  0
CIRCLE
  5
118
330
2
100
AcDbEntity
  8
KIJUN
 62
     7
100
AcDbCircle
 10
427.8350471421667
 20
67.49612164642877
 30
0.0
 40
3.313870560000001
  0
ARC
  5
119
330
2
100
AcDbEntity
  8
KIJUN
 62
     7
100
AcDbCircle
 10
431.092088485093
 20
70.5169554687098
 30
0.0
 40
0.331056
100
AcDbArc
 50
357.4097283711247
 51
84.24483554591926
  0
CIRCLE
  5
11A
330
2
100
AcDbEntity
  8
KIJUN
 62
     7
100
AcDbCircle
 10
434.3253800702765
 20
73.56102739328372
 30
0.0
 40
1.686851022990754
  0
ARC
  5
11B
330
2
100
AcDbEntity
  8
KIJUN
 62
     7
100
AcDbCircle
 10
434.2621896798637
 20
77.12596506263918
 30
0.0
 40
0.331056
100
AcDbArc
 50
224.5044890198697
 51
327.0979285176383
  0
ARC
  5
11C
330
2
100
AcDbEntity
  8
KIJUN
 62
     7
100
AcDbCircle
 10
438.759700460581
 20
71.30984326215531
 30
0.0
 40
0.331056
100
AcDbArc
 50
108.3304476915991
 51
194.3979190320318
  0
ARC
  5
11D
330
2
100
AcDbEntity
  8
KIJUN
 62
     7
100
AcDbCircle
 10
434.9851016423905
 20
70.34083713650608
 30
0.0
 40
3.565938881935066
100
AcDbArc
 50
177.4097283711264
 51
14.39791903198878
  0
ARC
  5
11E
330
2
100
AcDbEntity
  8
KIJUN
 62
     7
100
AcDbCircle
 10
390.2579803526439
 20
51.92982255495536
 30
0.0
 40
15.66353339476172
100
AcDbArc
 50
178.8009694189231
 51
0.000000000000007
  0
ARC
  5
11F
330
2
100
AcDbEntity
  8
KIJUN
 62
     7
100
AcDbCircle
 10
390.2579803526439
 20
51.92982255495536
 30
0.0
 40
12.33853339476172
100
AcDbArc
 50
180.0
 51
0.000000000000007
  0
CIRCLE
  5
120
330
2
100
AcDbEntity
  8
KIJUN
 62
     7
100
AcDbCircle
 10
390.2579803526439
 20
51.04475262090254
 30
0.0
 40
3.181315737599998
  0
CIRCLE
  5
121
330
2
100
AcDbEntity
  8
KIJUN
 62
     7
100
AcDbCircle
 10
390.2579803526439
 20
42.96885780973008
 30
0.0
 40
2.651096448
  0
CIRCLE
  5
122
330
2
100
AcDbEntity
  8
KIJUN
 62
     7
100
AcDbCircle
 10
390.2579803526439
 20
59.41591826051926
 30
0.0
 40
3.313870560000001
  0
CIRCLE
  5
123
330
2
100
AcDbEntity
  8
KIJUN
 62
     7
100
AcDbCircle
 10
390.2579803526439
 20
67.49612164642877
 30
0.0
 40
3.313870560000001
  0
LINE
  5
124
330
2
100
AcDbEntity
  8
KIJUN
 62
     7
100
AcDbLine
 10
448.7502758906189
 20
104.1154078305688
 30
0.0
 11
420.9858602011176
 21
104.1154078305688
 31
0.0
  0
LINE
  5
125
330
2
100
AcDbEntity
  8
KIJUN
 62
     7
100
AcDbLine
 10
422.9430588853307
 20
116.822261906417
 30
0.0
 11
448.7502758906222
 21
116.822261906417
 31
0.0
  0
ARC
  5
126
330
2
100
AcDbEntity
  8
KIJUN
 62
     7
100
AcDbCircle
 10
455.3086177606592
 20
137.6476112177977
 30
0.0
 40
33.8547293458505
100
AcDbArc
 50
234.7882066745093
 51
247.5389773392054
  0
ARC
  5
127
330
2
100
AcDbEntity
  8
KIJUN
 62
     7
100
AcDbCircle
 10
436.2420546039366
 20
100.312611104642
 30
0.0
 40
12.95574453650668
100
AcDbArc
 50
40.95946919257317
 51
84.59055659365368
  0
ARC
  5
128
330
2
100
AcDbEntity
  8
KIJUN
 62
     7
100
AcDbCircle
 10
461.1136263498961
 20
109.7725699585797
 30
0.0
 40
5.402029614132027
100
AcDbArc
 50
125.9266943334914
 51
221.1744631931734
  0
ARC
  5
129
330
2
100
AcDbEntity
  8
KIJUN
 62
     7
100
AcDbCircle
 10
449.3373317439286
 20
119.2328021392357
 30
0.0
 40
15.1287886249566
100
AcDbArc
 50
267.7761425295548
 51
300.6394379239285
  0
ARC
  5
12A
330
2
100
AcDbEntity
  8
KIJUN
 62
     7
100
AcDbCircle
 10
449.3373317439286
 20
101.7048675977501
 30
0.0
 40
15.1287886249566
100
AcDbArc
 50
55.32696294648314
 51
92.22385747044507
  0
ARC
  5
12B
330
2
100
AcDbEntity
  8
KIJUN
 62
     7
100
AcDbCircle
 10
443.9681877442616
 20
107.9296884486219
 30
0.0
 40
2.236302990589542
100
AcDbArc
 50
224.5405882384388
 51
23.05411128276757
  0
LINE
  5
12C
330
2
100
AcDbEntity
  8
KIJUN
 62
     7
100
AcDbLine
 10
440.1735805369285
 20
101.9891625502358
 30
0.0
 11
440.1735805369285
 21
77.40682722533603
 31
0.0
  0
LINE
  5
12D
330
2
100
AcDbEntity
  8
KIJUN
 62
     7
100
AcDbLine
 10
513.3465137474055
 20
101.9891625502358
 30
0.0
 11
513.3465137474055
 21
94.87305772328257
 31
0.0
  0
LINE
  5
12E
330
2
100
AcDbEntity
  8
KIJUN
 62
     7
100
AcDbLine
 10
516.6715137474053
 20
101.9891625502358
 30
0.0
 11
516.6715137474053
 21
98.63298354733508
 31
0.0
  0
LINE
  5
12F
330
2
100
AcDbEntity
  8
KIJUN
 62
     7
100
AcDbLine
 10
479.9189785289818
 20
104.1154078305688
 30
0.0
 11
506.7008136883605
 21
104.1154078305688
 31
0.0
  0
CIRCLE
  5
130
330
2
100
AcDbEntity
  8
KIJUN
 62
     7
100
AcDbCircle
 10
503.338315337477
 20
96.2074569337968
 30
0.0
 40
4.138199999999998
  0
CIRCLE
  5
131
330
2
100
AcDbEntity
  8
KIJUN
 62
     7
100
AcDbCircle
 10
503.1799311391627
 20
88.76038099868475
 30
0.0
 40
3.310559999999998
  0
ARC
  5
132
330
2
100
AcDbEntity
  8
KIJUN
 62
     7
100
AcDbCircle
 10
505.1080203281426
 20
100.9649928589263
 30
0.0
 40
14.39495717263292
100
AcDbArc
 50
281.9330118057555
 51
359.5172157051869
  0
LINE
  5
133
330
2
100
AcDbEntity
  8
KIJUN
 62
     7
100
AcDbLine
 10
508.0844358752224
 20
86.88111049314947
 30
0.0
 11
517.0491609357291
 21
96.31669698057915
 31
0.0
  0
ARC
  5
134
330
2
100
AcDbEntity
  8
KIJUN
 62
     7
100
AcDbCircle
 10
553.5338742949339
 20
62.68448649001386
 30
0.0
 40
51.48910628294338
100
AcDbArc
 50
132.1552293193419
 51
151.9698081526325
  0
ARC
  5
135
330
2
100
AcDbEntity
  8
KIJUN
 62
     7
100
AcDbCircle
 10
505.3265397856261
 20
107.2706243854748
 30
0.0
 40
4.94572738151637
100
AcDbArc
 50
44.19898071693928
 51
140.1213112409651
  0
ARC
  5
136
330
2
100
AcDbEntity
  8
KIJUN
 62
     7
100
AcDbCircle
 10
505.3265397856261
 20
114.1664753087023
 30
0.0
 40
4.94572738151637
100
AcDbArc
 50
224.1989807169364
 51
315.8010192830607
  0
ARC
  5
137
330
2
100
AcDbEntity
  8
KIJUN
 62
     7
100
AcDbCircle
 10
492.4271998156646
 20
100.312611104642
 30
0.0
 40
12.95574453650668
100
AcDbArc
 50
95.40944340634638
 51
139.0405308074268
  0
ARC
  5
138
330
2
100
AcDbEntity
  8
KIJUN
 62
     7
100
AcDbCircle
 10
500.305391466502
 20
103.2602152967259
 30
0.0
 40
10.0186033838686
100
AcDbArc
 50
96.68732519501055
 51
146.393136213282
  0
ARC
  5
139
330
2
100
AcDbEntity
  8
KIJUN
 62
     7
100
AcDbCircle
 10
484.1315886852458
 20
128.7879467264327
 30
0.0
 40
25.28501774500679
100
AcDbArc
 50
297.0056881324286
 51
313.4828959841864
  0
ARC
  5
13A
330
2
100
AcDbEntity
  8
KIJUN
 62
     7
100
AcDbCircle
 10
494.0453772049163
 20
107.9031208289009
 30
0.0
 40
2.270975699216694
100
AcDbArc
 50
156.5892417606245
 51
313.6521649265972
  0
ARC
  5
13B
330
2
100
AcDbEntity
  8
KIJUN
 62
     7
100
AcDbCircle
 10
473.360636658942
 20
137.6476112177977
 30
0.0
 40
33.8547293458505
100
AcDbArc
 50
292.461022660795
 51
305.2117933254907
  0
ARC
  5
13C
330
2
100
AcDbEntity
  8
KIJUN
 62
     7
100
AcDbCircle
 10
484.7010666753394
 20
107.9296884486219
 30
0.0
 40
2.236302990589542
100
AcDbArc
 50
156.9458887172324
 51
315.4594117615614
  0
ARC
  5
13D
330
2
100
AcDbEntity
  8
KIJUN
 62
     7
100
AcDbCircle
 10
467.8789207479312
 20
109.7707848786293
 30
0.0
 40
5.470785008682763
100
AcDbArc
 50
317.2518812443613
 51
55.86142589452771
  0
ARC
  5
13E
330
2
100
AcDbEntity
  8
KIJUN
 62
     7
100
AcDbCircle
 10
479.3319226756721
 20
119.2328021392357
 30
0.0
 40
15.1287886249566
100
AcDbArc
 50
240.5618245122023
 51
272.2238574704451
  0
ARC
  5
13F
330
2
100
AcDbEntity
  8
KIJUN
 62
     7
100
AcDbCircle
 10
479.3319226756721
 20
101.7048675977501
 30
0.0
 40
15.1287886249566
100
AcDbArc
 50
92.22385747044425
 51
123.6485451201825
  0
LINE
  5
140
330
2
100
AcDbEntity
  8
KIJUN
 62
     7
100
AcDbLine
 10
506.7008136883605
 20
116.822261906417
 30
0.0
 11
478.7448668223629
 21
116.822261906417
 31
0.0
  0
ARC
  5
141
330
2
100
AcDbEntity
  8
KIJUN
 62
     7
100
AcDbCircle
 10
515.051879456411
 20
115.8845906178765
 30
0.0
 40
3.599999999999998
100
AcDbArc
 50
212.9638415333764
 51
307.1636341622618
  0
ARC
  5
142
330
2
100
AcDbEntity
  8
KIJUN
 62
     7
100
AcDbCircle
 10
506.7008136883605
 20
110.4688348684929
 30
0.0
 40
6.35342703792412
100
AcDbArc
 50
32.96384153337626
 51
90.0
  0
ARC
  5
143
330
2
100
AcDbEntity
  8
KIJUN
 62
     7
100
AcDbCircle
 10
506.7008136883605
 20
110.4688348684929
 30
0.0
 40
6.35342703792412
100
AcDbArc
 50
270.0
 51
324.1313182799737
  0
ARC
  5
144
330
2
100
AcDbEntity
  8
KIJUN
 62
     7
100
AcDbCircle
 10
514.7666930751743
 20
104.6368283941604
 30
0.0
 40
3.599999999999998
100
AcDbArc
 50
49.93152565108571
 51
144.131318279976
  0
ARC
  5
145
330
2
100
AcDbEntity
  8
KIJUN
 62
     7
100
AcDbCircle
 10
519.4013521718935
 20
110.1468134265531
 30
0.0
 40
3.599999999999998
100
AcDbArc
 50
95.65661354913679
 51
264.3433864508632
  0
LINE
  5
146
330
2
100
AcDbEntity
  8
KIJUN
 62
     7
100
AcDbLine
 10
495.3211352969443
 20
77.26427558289135
 30
0.0
 11
503.9647222154845
 21
81.73008006001174
 31
0.0
  0
ARC
  5
147
330
2
100
AcDbEntity
  8
KIJUN
 62
     7
100
AcDbCircle
 10
522.5283274000795
 20
47.0908024829576
 30
0.0
 40
40.77937217609114
100
AcDbArc
 50
112.2354068754112
 51
132.0864728693879
  0
ARC
  5
148
330
2
100
AcDbEntity
  8
KIJUN
 62
     7
100
AcDbCircle
 10
464.7107324865638
 20
128.4705873679856
 30
0.0
 40
23.53692364877673
100
AcDbArc
 50
231.5518302231383
 51
308.4481697768601
  0
ARC
  5
149
330
2
100
AcDbEntity
  8
KIJUN
 62
     7
100
AcDbCircle
 10
464.7107324865638
 20
91.60371679768179
 30
0.0
 40
23.53692364877673
100
AcDbArc
 50
51.55183022314023
 51
128.4481697768617
  0
CIRCLE
  5
14A
330
2
100
AcDbEntity
  8
KIJUN
 62
     7
100
AcDbCircle
 10
465.421867737386
 20
81.10835793168901
 30
0.0
 40
3.310559999999998
  0
CIRCLE
  5
14B
330
2
100
AcDbEntity
  8
KIJUN
 62
     7
100
AcDbCircle
 10
465.5909492917608
 20
88.52857183193313
 30
0.0
 40
3.972671999999998
  0
CIRCLE
  5
14C
330
2
100
AcDbEntity
  8
KIJUN
 62
     7
100
AcDbCircle
 10
465.5909492917608
 20
97.01026683686979
 30
0.0
 40
4.138199999999998
  0
CIRCLE
  5
14D
330
2
100
AcDbEntity
  8
KIJUN
 62
     7
100
AcDbCircle
 10
464.3346272098006
 20
110.1468134265531
 30
0.0
 40
3.599999999999998
  0
CIRCLE
  5
14E
330
2
100
AcDbEntity
  8
KIJUN
 62
     7
100
AcDbCircle
 10
353.7584002850099
 20
110.1468134265531
 30
0.0
 40
3.599999999999998
  0
ARC
  5
14F
330
2
100
AcDbEntity
  8
KIJUN
 62
     7
100
AcDbCircle
 10
368.755695750882
 20
101.7048675977501
 30
0.0
 40
15.1287886249566
100
AcDbArc
 50
87.77614252955492
 51
124.6730370535169
  0
ARC
  5
150
330
2
100
AcDbEntity
  8
KIJUN
 62
     7
100
AcDbCircle
 10
368.755695750882
 20
119.2328021392357
 30
0.0
 40
15.1287886249566
100
AcDbArc
 50
239.3605620760719
 51
272.2238574704451
  0
ARC
  5
151
330
2
100
AcDbEntity
  8
KIJUN
 62
     7
100
AcDbCircle
 10
373.5553617604552
 20
128.7879467264327
 30
0.0
 40
25.28501774500679
100
AcDbArc
 50
297.0056881324286
 51
313.4828959841864
  0
ARC
  5
152
330
2
100
AcDbEntity
  8
KIJUN
 62
     7
100
AcDbCircle
 10
383.4691502801259
 20
107.9031208289009
 30
0.0
 40
2.270975699216694
100
AcDbArc
 50
156.5892417606245
 51
313.6521649265972
  0
ARC
  5
153
330
2
100
AcDbEntity
  8
KIJUN
 62
     7
100
AcDbCircle
 10
389.7291645417113
 20
103.2602152967259
 30
0.0
 40
10.0186033838686
100
AcDbArc
 50
96.68732519501055
 51
146.393136213282
  0
ARC
  5
154
330
2
100
AcDbEntity
  8
KIJUN
 62
     7
100
AcDbCircle
 10
381.8509728908739
 20
100.312611104642
 30
0.0
 40
12.95574453650668
100
AcDbArc
 50
95.40944340634638
 51
139.0405308074268
  0
ARC
  5
155
330
2
100
AcDbEntity
  8
KIJUN
 62
     7
100
AcDbCircle
 10
374.124839750549
 20
107.9296884486219
 30
0.0
 40
2.236302990589542
100
AcDbArc
 50
156.9458887172324
 51
315.4594117615612
  0
ARC
  5
156
330
2
100
AcDbEntity
  8
KIJUN
 62
     7
100
AcDbCircle
 10
362.7844097341514
 20
137.6476112177977
 30
0.0
 40
33.8547293458505
100
AcDbArc
 50
292.461022660795
 51
305.2117933254907
  0
ARC
  5
157
330
2
100
AcDbEntity
  8
KIJUN
 62
     7
100
AcDbCircle
 10
356.9794011449145
 20
109.7725699585797
 30
0.0
 40
5.402029614132027
100
AcDbArc
 50
318.8255368068269
 51
54.07330566650846
  0
CIRCLE
  5
158
330
2
100
AcDbEntity
  8
KIJUN
 62
     7
100
AcDbCircle
 10
352.5020782030497
 20
97.01026683686979
 30
0.0
 40
4.138199999999998
  0
ARC
  5
159
330
2
100
AcDbEntity
  8
KIJUN
 62
     7
100
AcDbCircle
 10
397.1071672936928
 20
110.4688348684929
 30
0.0
 40
6.35342703792412
100
AcDbArc
 50
270.0
 51
324.2432015768354
  0
ARC
  5
15A
330
2
100
AcDbEntity
  8
KIJUN
 62
     7
100
AcDbCircle
 10
395.14996860948
 20
110.4688348684929
 30
0.0
 40
6.35342703792412
100
AcDbArc
 50
24.067836401185
 51
90.0
  0
CIRCLE
  5
15B
330
2
100
AcDbEntity
  8
KIJUN
 62
     7
100
AcDbCircle
 10
408.8331203125354
 20
110.1468134265531
 30
0.0
 40
3.599999999999998
  0
ARC
  5
15C
330
2
100
AcDbEntity
  8
KIJUN
 62
     7
100
AcDbCircle
 10
404.6975168488416
 20
105.0031975786226
 30
0.0
 40
3.0
100
AcDbArc
 50
51.19979605609782
 51
144.243201576834
  0
ARC
  5
15D
330
2
100
AcDbEntity
  8
KIJUN
 62
     7
100
AcDbCircle
 10
403.6902391373839
 20
114.2833304660769
 30
0.0
 40
3.0
100
AcDbArc
 50
204.0678364011809
 51
321.1896188229624
  0
ARC
  5
15E
330
2
100
AcDbEntity
  8
KIJUN
 62
     7
100
AcDbCircle
 10
394.7503128608356
 20
114.1664753087023
 30
0.0
 40
4.94572738151637
100
AcDbArc
 50
224.1989807169364
 51
315.8010192830607
  0
ARC
  5
15F
330
2
100
AcDbEntity
  8
KIJUN
 62
     7
100
AcDbCircle
 10
441.1549951524811
 20
64.56219184171168
 30
0.0
 40
51.48910628294338
100
AcDbArc
 50
133.3736106418311
 51
153.1881894751218
  0
LINE
  5
160
330
2
100
AcDbEntity
  8
KIJUN
 62
     7
100
AcDbLine
 10
395.201335481013
 20
87.78694649305572
 30
0.0
 11
403.9634033233856
 21
97.41101813129155
 31
0.0
  0
ARC
  5
161
330
2
100
AcDbEntity
  8
KIJUN
 62
     7
100
AcDbCircle
 10
391.9261249746719
 20
101.8043566725822
 30
0.0
 40
14.39495717263292
100
AcDbArc
 50
283.1513931282446
 51
0.7355970276761999
  0
LINE
  5
162
330
2
100
AcDbEntity
  8
KIJUN
 62
     7
100
AcDbLine
 10
402.5965137474056
 20
101.9891625502358
 30
0.0
 11
402.5965137474056
 21
98.68508119110114
 31
0.0
  0
ARC
  5
163
330
2
100
AcDbEntity
  8
KIJUN
 62
     7
100
AcDbCircle
 10
376.9380323423293
 20
64.56219184171168
 30
0.0
 40
51.48910628294338
100
AcDbArc
 50
26.81181052487814
 51
46.62638935816896
  0
LINE
  5
164
330
2
100
AcDbEntity
  8
KIJUN
 62
     7
100
AcDbLine
 10
422.8916920137977
 20
87.78694649305572
 30
0.0
 11
414.1296241714249
 21
97.41101813129155
 31
0.0
  0
ARC
  5
165
330
2
100
AcDbEntity
  8
KIJUN
 62
     7
100
AcDbCircle
 10
426.1669025201386
 20
101.8043566725822
 30
0.0
 40
14.39495717263292
100
AcDbArc
 50
179.2644029723239
 51
256.8486068717554
  0
ARC
  5
166
330
2
100
AcDbEntity
  8
KIJUN
 62
     7
100
AcDbCircle
 10
414.4027883574268
 20
114.2833304660769
 30
0.0
 40
3.0
100
AcDbArc
 50
218.8103811770377
 51
335.9321635988192
  0
ARC
  5
167
330
2
100
AcDbEntity
  8
KIJUN
 62
     7
100
AcDbCircle
 10
413.3955106459689
 20
105.0031975786226
 30
0.0
 40
3.0
100
AcDbArc
 50
35.75679842316603
 51
128.8002039439021
  0
CIRCLE
  5
168
330
2
100
AcDbEntity
  8
KIJUN
 62
     7
100
AcDbCircle
 10
427.8350471421667
 20
89.56150683686956
 30
0.0
 40
3.310559999999998
  0
CIRCLE
  5
169
330
2
100
AcDbEntity
  8
KIJUN
 62
     7
100
AcDbCircle
 10
427.8350471421667
 20
97.01026683686935
 30
0.0
 40
4.138199999999998
  0
LINE
  5
16A
330
2
100
AcDbEntity
  8
KIJUN
 62
     7
100
AcDbLine
 10
415.4965137474051
 20
101.9891625502358
 30
0.0
 11
415.4965137474051
 21
98.68508119110114
 31
0.0
  0
ARC
  5
16B
330
2
100
AcDbEntity
  8
KIJUN
 62
     7
100
AcDbCircle
 10
434.6238772146849
 20
107.9031208289009
 30
0.0
 40
2.270975699216694
100
AcDbArc
 50
226.3478350734029
 51
23.41075823937568
  0
ARC
  5
16C
330
2
100
AcDbEntity
  8
KIJUN
 62
     7
100
AcDbCircle
 10
444.5376657343554
 20
128.7879467264327
 30
0.0
 40
25.28501774500679
100
AcDbArc
 50
226.5171040158137
 51
242.9943118675714
  0
ARC
  5
16D
330
2
100
AcDbEntity
  8
KIJUN
 62
     7
100
AcDbCircle
 10
423.3427146339749
 20
114.1664753087023
 30
0.0
 40
4.94572738151637
100
AcDbArc
 50
224.1989807169393
 51
315.8010192830637
  0
ARC
  5
16E
330
2
100
AcDbEntity
  8
KIJUN
 62
     7
100
AcDbCircle
 10
428.3638629530993
 20
103.2602152967259
 30
0.0
 40
10.0186033838686
100
AcDbArc
 50
33.60686378671805
 51
83.31267480498944
  0
ARC
  5
16F
330
2
100
AcDbEntity
  8
KIJUN
 62
     7
100
AcDbCircle
 10
423.3427146339749
 20
107.2706243854748
 30
0.0
 40
4.94572738151637
100
AcDbArc
 50
39.87868875903485
 51
135.8010192830607
  0
ARC
  5
170
330
2
100
AcDbEntity
  8
KIJUN
 62
     7
100
AcDbCircle
 10
422.9430588853307
 20
110.4688348684929
 30
0.0
 40
6.35342703792412
100
AcDbArc
 50
90.0
 51
155.932163598815
  0
ARC
  5
171
330
2
100
AcDbEntity
  8
KIJUN
 62
     7
100
AcDbCircle
 10
420.9858602011176
 20
110.4688348684929
 30
0.0
 40
6.35342703792412
100
AcDbArc
 50
215.7567984231646
 51
270.0
  0
LINE
  5
172
330
2
100
AcDbEntity
  8
KIJUN
 62
     7
100
AcDbLine
 10
369.3427516041917
 20
104.1154078305688
 30
0.0
 11
397.1071672936928
 21
104.1154078305688
 31
0.0
  0
LINE
  5
173
330
2
100
AcDbEntity
  8
KIJUN
 62
     7
100
AcDbLine
 10
395.14996860948
 20
116.822261906417
 30
0.0
 11
369.3427516041885
 21
116.822261906417
 31
0.0
  0
ARC
  5
174
330
2
100
AcDbEntity
  8
KIJUN
 62
     7
100
AcDbCircle
 10
394.7503128608356
 20
107.2706243854748
 30
0.0
 40
4.94572738151637
100
AcDbArc
 50
44.19898071693928
 51
140.1213112409651
  0
CIRCLE
  5
175
330
2
100
AcDbEntity
  8
KIJUN
 62
     7
100
AcDbCircle
 10
390.2579803526439
 20
97.01026683686935
 30
0.0
 40
4.138199999999998
  0
CIRCLE
  5
176
330
2
100
AcDbEntity
  8
KIJUN
 62
     7
100
AcDbCircle
 10
390.2579803526439
 20
89.56150683686956
 30
0.0
 40
3.310559999999998
  0
CIRCLE
  5
177
330
2
100
AcDbEntity
  8
KIJUN
 62
     7
100
AcDbCircle
 10
352.6711597574245
 20
81.10835793168901
 30
0.0
 40
3.310559999999998
  0
ARC
  5
178
330
2
100
AcDbEntity
  8
KIJUN
 62
     7
100
AcDbCircle
 10
383.3266748159631
 20
88.96279451756464
 30
0.0
 40
11.40080608072528
100
AcDbArc
 50
268.5845845859284
 51
280.5815541541369
  0
ARC
  5
179
330
2
100
AcDbEntity
  8
KIJUN
 62
     7
100
AcDbCircle
 10
434.7663526788474
 20
88.96279451756464
 30
0.0
 40
11.40080608072528
100
AcDbArc
 50
259.4184458458633
 51
271.4154154140715
  0
LINE
  5
17A
330
2
100
AcDbEntity
  8
KIJUN
 62
     7
100
AcDbLine
 10
435.4476226521211
 20
77.90089767928503
 30
0.0
 11
426.9009470615293
 21
82.54948249570162
 31
0.0
  0
LINE
  5
17B
330
2
100
AcDbEntity
  8
KIJUN
 62
     7
100
AcDbLine
 10
382.6454048426894
 20
77.90089767928503
 30
0.0
 11
391.1920804332813
 21
82.54948249570162
 31
0.0
  0
LINE
  5
17C
330
2
100
AcDbEntity
  8
KIJUN
 62
     7
100
AcDbLine
 10
377.919446957882
 20
101.9891625502358
 30
0.0
 11
377.919446957882
 21
77.40682722533603
 31
0.0
  0
ARC
  5
17D
330
2
100
AcDbEntity
  8
KIJUN
 62
     7
100
AcDbCircle
 10
410.4880292419903
 20
48.31275735906756
 30
0.0
 40
40.77937217609114
100
AcDbArc
 50
113.4537881979007
 51
133.3048541918766
  0
CIRCLE
  5
17E
330
2
100
AcDbEntity
  8
KIJUN
 62
     7
100
AcDbCircle
 10
352.5020782030497
 20
88.52857183193313
 30
0.0
 40
3.972671999999998
  0
ARC
  5
17F
330
2
100
AcDbEntity
  8
KIJUN
 62
     7
100
AcDbCircle
 10
407.6049982528203
 20
48.31275735906756
 30
0.0
 40
40.77937217609114
100
AcDbArc
 50
46.69514580812345
 51
66.54621180209929
  0
DIMENSION
  5
180
330
2
100
AcDbEntity
  8
SUNPOU
100
AcDbDimension
  2
*D2
 10
9.295482126832617
 20
125.9778889208203
 30
0.0
 11
4.295482126832593
 21
75.97788892082033
 31
0.0
 71
     5
 42
99.99999999999992
  3
STANDARD$0
100
AcDbAlignedDimension
 13
20.31238044814888
 23
25.97788892082036
 33
0.0
 14
20.31238044814888
 24
125.9778889208203
 34
0.0
 50
90.0
100
AcDbRotatedDimension
1001
ACAD
1000
DSTYLE
1002
{
1070
    41
1040
0.5
1070
    42
1040
1.0
1070
    44
1040
0.0
1070
    77
1070
     1
1070
    78
1070
     0
1070
   140
1040
3.0
1070
   141
1040
1.0
1070
   146
1040
0.0642857142857143
1070
   172
1070
     0
1070
   176
1070
    60
1070
   177
1070
    70
1070
   178
1070
    60
1070
   271
1070
     0
1070
   272
1070
     0
1070
   341
1005
0
1002
}
  0
LINE
  5
196
330
2
100
AcDbEntity
  8
KIJUN
 62
     7
100
AcDbLine
 10
315.4152541218433
 20
74.50691161321294
 30
0.0
 11
306.8383779390688
 21
83.53427792599251
 31
0.0
  0
ARC
  5
197
330
2
100
AcDbEntity
  8
KIJUN
 62
     7
100
AcDbCircle
 10
318.7795185466535
 20
88.1825738043415
 30
0.0
 40
14.3949571726329
100
AcDbArc
 50
175.2106638116656
 51
256.2405973432708
  0
ARC
  5
198
330
2
100
AcDbEntity
  8
KIJUN
 62
     7
100
AcDbCircle
 10
285.3967654381769
 20
63.35523721034252
 30
0.0
 40
32.248522022745
100
AcDbArc
 50
20.91047424790816
 51
53.81783787540658
  0
LINE
  5
199
330
2
100
AcDbEntity
  8
KIJUN
 62
     7
100
AcDbLine
 10
301.4215137474054
 20
92.39175473412144
 30
0.0
 11
301.4215137474054
 21
51.41250555243214
 31
0.0
  0
LINE
  5
19A
330
2
100
AcDbEntity
  8
KIJUN
 62
     7
100
AcDbLine
 10
304.7465137474052
 20
84.9748381066559
 30
0.0
 11
304.7465137474052
 21
51.41250555243214
 31
0.0
  0
ARC
  5
19B
330
2
100
AcDbEntity
  8
KIJUN
 62
     7
100
AcDbCircle
 10
324.9193940755768
 20
74.41749568361484
 30
0.0
 40
3.565938881935066
100
AcDbArc
 50
289.548829014036
 51
148.3163098401188
  0
ARC
  5
19C
330
2
100
AcDbEntity
  8
KIJUN
 62
     7
100
AcDbCircle
 10
318.8825974640165
 20
73.67417500588572
 30
0.0
 40
3.565938881935066
100
AcDbArc
 50
45.72287034237161
 51
85.30842480738794
  0
LINE
  5
19D
330
2
100
AcDbEntity
  8
KIJUN
 62
     7
100
AcDbLine
 10
333.1469625970767
 20
101.9891625502358
 30
0.0
 11
333.1469625970781
 21
72.97294913334491
 31
0.0
  0
LINE
  5
19E
330
2
100
AcDbEntity
  8
KIJUN
 62
     7
100
AcDbLine
 10
336.8385448082886
 20
101.9891625502362
 30
0.0
 11
336.8385448082886
 21
72.28433760919306
 31
0.0
  0
LINE
  5
19F
330
2
100
AcDbEntity
  8
KIJUN
 62
     7
100
AcDbLine
 10
340.163544808288
 20
101.9891625502358
 30
0.0
 11
340.1635448082885
 21
76.39580525534739
 31
0.0
  0
LINE
  5
1A0
330
2
100
AcDbEntity
  8
KIJUN
 62
     7
100
AcDbLine
 10
329.8219625970775
 20
101.9891625502358
 30
0.0
 11
329.8219625970778
 21
73.27263109612187
 31
0.0
  0
ARC
  5
1A1
330
2
100
AcDbEntity
  8
KIJUN
 62
     7
100
AcDbCircle
 10
321.8555653346239
 20
88.30918551991389
 30
0.0
 40
11.40080608072528
100
AcDbArc
 50
197.7277967777111
 51
272.6337967365608
  0
ARC
  5
1A2
330
2
100
AcDbEntity
  8
KIJUN
 62
     7
100
AcDbCircle
 10
318.8825974640165
 20
73.67417500588572
 30
0.0
 40
3.565938881935066
100
AcDbArc
 50
85.30842480736344
 51
265.4632168684566
  0
ARC
  5
1A3
330
2
100
AcDbEntity
  8
KIJUN
 62
     7
100
AcDbCircle
 10
273.1736334192338
 20
74.41749568361484
 30
0.0
 40
3.565938881935066
100
AcDbArc
 50
31.68369015988123
 51
250.4511709859639
  0
ARC
  5
1A4
330
2
100
AcDbEntity
  8
KIJUN
 62
     7
100
AcDbCircle
 10
279.2104300307944
 20
73.67417500588572
 30
0.0
 40
3.565938881935066
100
AcDbArc
 50
94.69157519261207
 51
134.2771296576284
  0
LINE
  5
1A5
330
2
100
AcDbEntity
  8
KIJUN
 62
     7
100
AcDbLine
 10
261.254482686522
 20
101.9891625502362
 30
0.0
 11
261.254482686522
 21
72.28433760919306
 31
0.0
  0
LINE
  5
1A6
330
2
100
AcDbEntity
  8
KIJUN
 62
     7
100
AcDbLine
 10
264.9460648977339
 20
101.9891625502358
 30
0.0
 11
264.9460648977325
 21
72.97294913334491
 31
0.0
  0
LINE
  5
1A7
330
2
100
AcDbEntity
  8
KIJUN
 62
     7
100
AcDbLine
 10
268.2710648977332
 20
101.9891625502358
 30
0.0
 11
268.2710648977328
 21
73.27263109612187
 31
0.0
  0
LINE
  5
1A8
330
2
100
AcDbEntity
  8
KIJUN
 62
     7
100
AcDbLine
 10
257.9294826865226
 20
101.9891625502358
 30
0.0
 11
257.9294826865222
 21
76.39580525534739
 31
0.0
  0
ARC
  5
1A9
330
2
100
AcDbEntity
  8
KIJUN
 62
     7
100
AcDbCircle
 10
276.2374621601868
 20
88.30918551991389
 30
0.0
 40
11.40080608072528
100
AcDbArc
 50
267.3662032634396
 51
342.2722032222889
  0
ARC
  5
1AA
330
2
100
AcDbEntity
  8
KIJUN
 62
     7
100
AcDbCircle
 10
279.2104300307944
 20
73.67417500588572
 30
0.0
 40
3.565938881935066
100
AcDbArc
 50
274.5367831315434
 51
94.69157519263658
  0
ARC
  5
1AB
330
2
100
AcDbEntity
  8
KIJUN
 62
     7
100
AcDbCircle
 10
312.6962620566339
 20
63.35523721034252
 30
0.0
 40
32.248522022745
100
AcDbArc
 50
126.1821621245934
 51
159.0895257520918
  0
LINE
  5
1AC
330
2
100
AcDbEntity
  8
KIJUN
 62
     7
100
AcDbLine
 10
282.6777733729673
 20
74.50691161321294
 30
0.0
 11
291.2546495557419
 21
83.53427792599251
 31
0.0
  0
ARC
  5
1AD
330
2
100
AcDbEntity
  8
KIJUN
 62
     7
100
AcDbCircle
 10
279.3135089481571
 20
88.1825738043415
 30
0.0
 40
14.3949571726329
100
AcDbArc
 50
283.7594026567292
 51
4.789336188334312
  0
LINE
  5
1AE
330
2
100
AcDbEntity
  8
KIJUN
 62
     7
100
AcDbLine
 10
296.6715137474053
 20
92.39175473412144
 30
0.0
 11
296.6715137474053
 21
51.41250555243214
 31
0.0
  0
LINE
  5
1AF
330
2
100
AcDbEntity
  8
KIJUN
 62
     7
100
AcDbLine
 10
293.3465137474055
 20
84.9748381066559
 30
0.0
 11
293.3465137474055
 21
51.41250555243214
 31
0.0
  0
ARC
  5
1B0
330
2
100
AcDbEntity
  8
KIJUN
 62
     7
100
AcDbCircle
 10
239.8276639380383
 20
74.17648616098706
 30
0.0
 40
3.831174005384781
100
AcDbArc
 50
33.14600112592687
 51
181.5983037737253
  0
ARC
  5
1B1
330
2
100
AcDbEntity
  8
KIJUN
 62
     7
100
AcDbCircle
 10
211.482870341834
 20
74.39430748397426
 30
0.0
 40
3.565938881935066
100
AcDbArc
 50
44.50448901988244
 51
84.09004348489878
  0
ARC
  5
1B2
330
2
100
AcDbEntity
  8
KIJUN
 62
     7
100
AcDbCircle
 10
217.5341074632811
 20
75.00909871627008
 30
0.0
 40
3.565938881935066
100
AcDbArc
 50
288.3304476915468
 51
147.0979285176294
  0
LINE
  5
1B3
330
2
100
AcDbEntity
  8
KIJUN
 62
     7
100
AcDbLine
 10
223.4985805369293
 20
101.9891625502358
 30
0.0
 11
223.4985805369293
 21
72.71536058497514
 31
0.0
  0
LINE
  5
1B4
330
2
100
AcDbEntity
  8
KIJUN
 62
     7
100
AcDbLine
 10
227.1901627481407
 20
101.9891625502362
 30
0.0
 11
227.1901627481421
 21
72.26637065509959
 31
0.0
  0
LINE
  5
1B5
330
2
100
AcDbEntity
  8
KIJUN
 62
     7
100
AcDbLine
 10
230.5151627481405
 20
101.9891625502362
 30
0.0
 11
230.5151627481402
 21
71.57029280394119
 31
0.0
  0
ARC
  5
1B6
330
2
100
AcDbEntity
  8
KIJUN
 62
     7
100
AcDbCircle
 10
177.7851957574681
 20
64.78971736792829
 30
0.0
 40
32.248522022745
100
AcDbArc
 50
19.69209292541841
 51
52.59945655291748
  0
LINE
  5
1B7
330
2
100
AcDbEntity
  8
KIJUN
 62
     7
100
AcDbLine
 10
208.034017533808
 20
75.30058250750136
 30
0.0
 11
199.6510308296007
 21
84.50827937027979
 31
0.0
  0
ARC
  5
1B8
330
2
100
AcDbEntity
  8
KIJUN
 62
     7
100
AcDbCircle
 10
211.482870341834
 20
74.39430748397426
 30
0.0
 40
3.565938881935066
100
AcDbArc
 50
84.09004348491228
 51
264.244835545967
  0
ARC
  5
1B9
330
2
100
AcDbEntity
  8
KIJUN
 62
     7
100
AcDbCircle
 10
214.7663526788475
 20
88.96279451756464
 30
0.0
 40
11.40080608072528
100
AcDbArc
 50
196.5094154552217
 51
255.1790690476946
  0
ARC
  5
1BA
330
2
100
AcDbEntity
  8
KIJUN
 62
     7
100
AcDbCircle
 10
211.688309178313
 20
88.90161791157273
 30
0.0
 40
14.3949571726329
100
AcDbArc
 50
173.9922824891763
 51
255.0222160207817
  0
LINE
  5
1BB
330
2
100
AcDbEntity
  8
KIJUN
 62
     7
100
AcDbLine
 10
192.1715137474054
 20
98.43628821989732
 30
0.0
 11
192.1715137474054
 21
51.92982255495536
 31
0.0
  0
LINE
  5
1BC
330
2
100
AcDbEntity
  8
KIJUN
 62
     7
100
AcDbLine
 10
195.4965137474055
 20
92.14218324003271
 30
0.0
 11
195.4965137474047
 21
51.92982255495536
 31
0.0
  0
ARC
  5
1BD
330
2
100
AcDbEntity
  8
KIJUN
 62
     7
100
AcDbCircle
 10
249.6295452897554
 20
74.91872675017322
 30
0.0
 40
3.831174005384781
100
AcDbArc
 50
28.25743099529348
 51
181.5983037737253
  0
LINE
  5
1BE
330
2
100
AcDbEntity
  8
KIJUN
 62
     7
100
AcDbLine
 10
84.7465137474052
 20
84.9748381066559
 30
0.0
 11
84.7465137474052
 21
51.41250555243214
 31
0.0
  0
LINE
  5
1BF
330
2
100
AcDbEntity
  8
KIJUN
 62
     7
100
AcDbLine
 10
81.4215137474054
 20
92.39175473412144
 30
0.0
 11
81.4215137474054
 21
51.41250555243214
 31
0.0
  0
ARC
  5
1C0
330
2
100
AcDbEntity
  8
KIJUN
 62
     7
100
AcDbCircle
 10
98.88259746401633
 20
73.67417500588572
 30
0.0
 40
3.565938881935066
100
AcDbArc
 50
85.30842480736344
 51
265.4632168684566
  0
ARC
  5
1C1
330
2
100
AcDbEntity
  8
KIJUN
 62
     7
100
AcDbCircle
 10
98.88259746401633
 20
73.67417500588572
 30
0.0
 40
3.565938881935066
100
AcDbArc
 50
45.72287034237161
 51
85.30842480738794
  0
ARC
  5
1C2
330
2
100
AcDbEntity
  8
KIJUN
 62
     7
100
AcDbCircle
 10
104.9193940755768
 20
74.41749568361484
 30
0.0
 40
3.565938881935066
100
AcDbArc
 50
289.548829014036
 51
148.3163098401188
  0
ARC
  5
1C3
330
2
100
AcDbEntity
  8
KIJUN
 62
     7
100
AcDbCircle
 10
101.855565334624
 20
88.30918551991389
 30
0.0
 40
11.40080608072528
100
AcDbArc
 50
197.7277967777111
 51
272.6337967365608
  0
LINE
  5
1C4
330
2
100
AcDbEntity
  8
KIJUN
 62
     7
100
AcDbLine
 10
95.41525412184325
 20
74.50691161321294
 30
0.0
 11
86.83837793906887
 21
83.53427792599251
 31
0.0
  0
ARC
  5
1C5
330
2
100
AcDbEntity
  8
KIJUN
 62
     7
100
AcDbCircle
 10
65.39676543817688
 20
63.35523721034252
 30
0.0
 40
32.248522022745
100
AcDbArc
 50
20.91047424790816
 51
53.81783787540658
  0
ARC
  5
1C6
330
2
100
AcDbEntity
  8
KIJUN
 62
     7
100
AcDbCircle
 10
98.77951854665361
 20
88.1825738043415
 30
0.0
 40
14.3949571726329
100
AcDbArc
 50
175.2106638116656
 51
256.2405973432708
  0
ARC
  5
1C7
330
2
100
AcDbEntity
  8
KIJUN
 62
     7
100
AcDbCircle
 10
163.3266748159632
 20
88.96279451756464
 30
0.0
 40
11.40080608072528
100
AcDbArc
 50
284.8209309523054
 51
343.4905845447781
  0
LINE
  5
1C8
330
2
100
AcDbEntity
  8
KIJUN
 62
     7
100
AcDbLine
 10
109.8219625970774
 20
101.9891625502358
 30
0.0
 11
109.821962597078
 21
73.27263109612187
 31
0.0
  0
LINE
  5
1C9
330
2
100
AcDbEntity
  8
KIJUN
 62
     7
100
AcDbLine
 10
120.163544808288
 20
101.9891625502358
 30
0.0
 11
120.1635448082885
 21
76.39580525534739
 31
0.0
  0
LINE
  5
1CA
330
2
100
AcDbEntity
  8
KIJUN
 62
     7
100
AcDbLine
 10
116.8385448082886
 20
101.9891625502362
 30
0.0
 11
116.8385448082886
 21
72.28433760919306
 31
0.0
  0
LINE
  5
1CB
330
2
100
AcDbEntity
  8
KIJUN
 62
     7
100
AcDbLine
 10
113.1469625970768
 20
101.9891625502358
 30
0.0
 11
113.1469625970781
 21
72.97294913334491
 31
0.0
  0
ARC
  5
1CC
330
2
100
AcDbEntity
  8
KIJUN
 62
     7
100
AcDbCircle
 10
128.4634822050553
 20
74.91872675017322
 30
0.0
 40
3.831174005384781
100
AcDbArc
 50
358.4016962262747
 51
151.7425690047065
  0
ARC
  5
1CD
330
2
100
AcDbEntity
  8
KIJUN
 62
     7
100
AcDbCircle
 10
138.2653635567722
 20
74.17648616098706
 30
0.0
 40
3.831174005384781
100
AcDbArc
 50
358.4016962262747
 51
146.8539988740731
  0
LINE
  5
1CE
330
2
100
AcDbEntity
  8
KIJUN
 62
     7
100
AcDbLine
 10
154.5944469578814
 20
101.9891625502358
 30
0.0
 11
154.5944469578814
 21
72.71536058497514
 31
0.0
  0
LINE
  5
1CF
330
2
100
AcDbEntity
  8
KIJUN
 62
     7
100
AcDbLine
 10
150.9028647466698
 20
101.9891625502362
 30
0.0
 11
150.9028647466685
 21
72.26637065509959
 31
0.0
  0
LINE
  5
1D0
330
2
100
AcDbEntity
  8
KIJUN
 62
     7
100
AcDbLine
 10
147.57786474667
 20
101.9891625502362
 30
0.0
 11
147.5778647466705
 21
71.57029280394119
 31
0.0
  0
ARC
  5
1D1
330
2
100
AcDbEntity
  8
KIJUN
 62
     7
100
AcDbCircle
 10
160.5589200315294
 20
75.00909871627008
 30
0.0
 40
3.565938881935066
100
AcDbArc
 50
32.90207148237064
 51
251.6695523084532
  0
ARC
  5
1D2
330
2
100
AcDbEntity
  8
KIJUN
 62
     7
100
AcDbCircle
 10
166.6101571529766
 20
74.39430748397426
 30
0.0
 40
3.565938881935066
100
AcDbArc
 50
95.90995651510125
 51
135.4955109801178
  0
ARC
  5
1D3
330
2
100
AcDbEntity
  8
KIJUN
 62
     7
100
AcDbCircle
 10
166.6101571529766
 20
74.39430748397426
 30
0.0
 40
3.565938881935066
100
AcDbArc
 50
275.7551644540328
 51
95.90995651508773
  0
LINE
  5
1D4
330
2
100
AcDbEntity
  8
KIJUN
 62
     7
100
AcDbLine
 10
185.9215137474054
 20
98.43628821989732
 30
0.0
 11
185.9215137474054
 21
51.92982255495536
 31
0.0
  0
LINE
  5
1D5
330
2
100
AcDbEntity
  8
KIJUN
 62
     7
100
AcDbLine
 10
182.596513747405
 20
92.14218324003271
 30
0.0
 11
182.596513747406
 21
51.92982255495536
 31
0.0
  0
LINE
  5
1D6
330
2
100
AcDbEntity
  8
KIJUN
 62
     7
100
AcDbLine
 10
170.0590099610027
 20
75.30058250750136
 30
0.0
 11
178.4419966652099
 21
84.50827937027979
 31
0.0
  0
ARC
  5
1D7
330
2
100
AcDbEntity
  8
KIJUN
 62
     7
100
AcDbCircle
 10
166.4047183164976
 20
88.90161791157273
 30
0.0
 40
14.3949571726329
100
AcDbArc
 50
284.9777839792182
 51
6.007717510823676
  0
ARC
  5
1D8
330
2
100
AcDbEntity
  8
KIJUN
 62
     7
100
AcDbCircle
 10
200.3078317373425
 20
64.78971736792829
 30
0.0
 40
32.248522022745
100
AcDbArc
 50
127.4005434470825
 51
160.3079070745816
  0
ARC
  5
1D9
330
2
100
AcDbEntity
  8
KIJUN
 62
     7
100
AcDbCircle
 10
163.1079258524202
 20
70.34083713650608
 30
0.0
 40
3.565938881935066
100
AcDbArc
 50
165.6020809680113
 51
2.590271628873626
  0
ARC
  5
1DA
330
2
100
AcDbEntity
  8
KIJUN
 62
     7
100
AcDbCircle
 10
170.2579803526437
 20
51.92982255495536
 30
0.0
 40
12.33853339476172
100
AcDbArc
 50
180.0
 51
0.000000000000007
  0
ARC
  5
1DB
330
2
100
AcDbEntity
  8
KIJUN
 62
     7
100
AcDbCircle
 10
170.2579803526437
 20
51.92982255495536
 30
0.0
 40
15.66353339476172
100
AcDbArc
 50
178.8009694189231
 51
0.000000000000007
  0
ARC
  5
1DC
330
2
100
AcDbEntity
  8
KIJUN
 62
     7
100
AcDbCircle
 10
255.7378822162565
 20
73.25338872689902
 30
0.0
 40
3.831174005384781
100
AcDbArc
 50
298.9178266946688
 51
121.2423204176317
  0
ARC
  5
1DD
330
2
100
AcDbEntity
  8
KIJUN
 62
     7
100
AcDbCircle
 10
265.5199382494953
 20
46.11110996285678
 30
0.0
 40
10.0255512752962
100
AcDbArc
 50
207.1517453577857
 51
258.1466610390176
  0
ARC
  5
1DE
330
2
100
AcDbEntity
  8
KIJUN
 62
     7
100
AcDbCircle
 10
296.929298429841
 20
21.60873800714836
 30
0.0
 40
53.16384213274347
100
AcDbArc
 50
119.5046041901925
 51
138.7265598956405
  0
ARC
  5
1DF
330
2
100
AcDbEntity
  8
KIJUN
 62
     7
100
AcDbCircle
 10
254.4216160632974
 20
64.71482366435049
 30
0.0
 40
5.30541310240938
100
AcDbArc
 50
289.705281901447
 51
53.07937056348164
  0
ARC
  5
1E0
330
2
100
AcDbEntity
  8
KIJUN
 62
     7
100
AcDbCircle
 10
252.1109865448276
 20
57.82012752012935
 30
0.0
 40
3.831174005384781
100
AcDbArc
 50
199.0919070674063
 51
18.27072131719276
  0
ARC
  5
1E1
330
2
100
AcDbEntity
  8
KIJUN
 62
     7
100
AcDbCircle
 10
244.2223227173313
 20
53.23671350851447
 30
0.0
 40
13.70715996919061
100
AcDbArc
 50
180.0
 51
0.000000000000007
  0
ARC
  5
1E2
330
2
100
AcDbEntity
  8
KIJUN
 62
     7
100
AcDbCircle
 10
244.2223227173313
 20
53.23671350851447
 30
0.0
 40
17.03215996919061
100
AcDbArc
 50
180.0000000000015
 51
0.000000000000007
  0
CIRCLE
  5
1E3
330
2
100
AcDbEntity
  8
KIJUN
 62
     7
100
AcDbCircle
 10
315.9038034483079
 20
42.17826594555781
 30
0.0
 40
2.651096448
  0
ARC
  5
1E4
330
2
100
AcDbEntity
  8
KIJUN
 62
     7
100
AcDbCircle
 10
298.3458693328613
 20
45.77455518391415
 30
0.0
 40
6.2255512752962
100
AcDbArc
 50
276.4619495946651
 51
332.7797683402294
  0
ARC
  5
1E5
330
2
100
AcDbEntity
  8
KIJUN
 62
     7
100
AcDbCircle
 10
298.3458693328613
 20
46.11110996285678
 30
0.0
 40
10.0255512752962
100
AcDbArc
 50
274.0074322343758
 51
322.3364992730785
  0
ARC
  5
1E6
330
2
100
AcDbEntity
  8
KIJUN
 62
     7
100
AcDbCircle
 10
343.6714114315134
 20
64.71482366435049
 30
0.0
 40
5.30541310240938
100
AcDbArc
 50
126.9206294365183
 51
250.2947180985534
  0
ARC
  5
1E7
330
2
100
AcDbEntity
  8
KIJUN
 62
     7
100
AcDbCircle
 10
342.3551452785542
 20
73.25338872689902
 30
0.0
 40
3.831174005384781
100
AcDbArc
 50
58.75767958236825
 51
241.0821733053313
  0
ARC
  5
1E8
330
2
100
AcDbEntity
  8
KIJUN
 62
     7
100
AcDbCircle
 10
341.837389471557
 20
59.188490733249
 30
0.0
 40
0.5335200000000003
100
AcDbArc
 50
341.7292786827714
 51
85.14739523127067
  0
ARC
  5
1E9
330
2
100
AcDbEntity
  8
KIJUN
 62
     7
100
AcDbCircle
 10
344.6189316499563
 20
76.98512090181413
 30
0.0
 40
0.5335200000000003
100
AcDbArc
 50
238.7576795823602
 51
331.7425690046984
  0
ARC
  5
1EA
330
2
100
AcDbEntity
  8
KIJUN
 62
     7
100
AcDbCircle
 10
341.5913935121436
 20
71.3273352919753
 30
0.0
 40
14.65647122937325
100
AcDbArc
 50
193.6116428722235
 51
268.1571930419432
  0
LINE
  5
1EB
330
2
100
AcDbEntity
  8
KIJUN
 62
     7
100
AcDbLine
 10
341.1200779807932
 20
56.67844418829901
 30
0.0
 11
330.829962044763
 21
64.27182350542017
 31
0.0
  0
ARC
  5
1EC
330
2
100
AcDbEntity
  8
KIJUN
 62
     7
100
AcDbCircle
 10
301.1637290649698
 20
21.60873800714836
 30
0.0
 40
53.16384213274347
100
AcDbArc
 50
41.27344010435951
 51
60.49539580980744
  0
ARC
  5
1ED
330
2
100
AcDbEntity
  8
KIJUN
 62
     7
100
AcDbCircle
 10
340.8252543442559
 20
74.60022880465095
 30
0.0
 40
13.1245140748307
100
AcDbArc
 50
267.1100458168689
 51
267.1467639992773
  0
ARC
  5
1EE
330
2
100
AcDbEntity
  8
KIJUN
 62
     7
100
AcDbCircle
 10
336.691730686342
 20
46.11110996285678
 30
0.0
 40
10.0255512752962
100
AcDbArc
 50
215.7629604394128
 51
258.1466610390176
  0
ARC
  5
1EF
330
2
100
AcDbEntity
  8
KIJUN
 62
     7
100
AcDbCircle
 10
336.691730686342
 20
45.77455518391415
 30
0.0
 40
6.2255512752962
100
AcDbArc
 50
202.7969329718553
 51
250.683554300175
  0
ARC
  5
1F0
330
2
100
AcDbEntity
  8
KIJUN
 62
     7
100
AcDbCircle
 10
332.5730892453153
 20
46.11110996285678
 30
0.0
 40
10.0255512752962
100
AcDbArc
 50
281.8533389609823
 51
332.8482546422145
  0
ARC
  5
1F1
330
2
100
AcDbEntity
  8
KIJUN
 62
     7
100
AcDbCircle
 10
332.5730892453153
 20
45.77455518391415
 30
0.0
 40
6.2255512752962
100
AcDbArc
 50
289.3164456998249
 51
355.9401079384183
  0
ARC
  5
1F2
330
2
100
AcDbEntity
  8
KIJUN
 62
     7
100
AcDbCircle
 10
304.0083128073512
 20
30.39670697113598
 30
0.0
 40
47.69407317487315
100
AcDbArc
 50
43.56388700458087
 51
59.72786152219866
  0
LINE
  5
1F3
330
2
100
AcDbEntity
  8
KIJUN
 62
     7
100
AcDbLine
 10
340.171945133293
 20
61.49198495677757
 30
0.0
 11
340.163544808289
 21
61.49840605781792
 31
0.0
  0
ARC
  5
1F4
330
2
100
AcDbEntity
  8
KIJUN
 62
     7
100
AcDbCircle
 10
340.24457677265
 20
69.43291043975688
 30
0.0
 40
0.5335200000000003
100
AcDbArc
 50
296.7131381591167
 51
61.08217330529827
  0
ARC
  5
1F5
330
2
100
AcDbEntity
  8
KIJUN
 62
     7
100
AcDbCircle
 10
335.0608101716659
 20
80.23739341832362
 30
0.0
 40
10.4939237788494
100
AcDbArc
 50
227.28876025285
 51
294.9126281504619
  0
LINE
  5
1F6
330
2
100
AcDbEntity
  8
KIJUN
 62
     7
100
AcDbLine
 10
339.0480479744557
 20
71.31922180526027
 30
0.0
 11
330.9758345279539
 21
71.83654499822825
 31
0.0
  0
ARC
  5
1F7
330
2
100
AcDbEntity
  8
KIJUN
 62
     7
100
AcDbCircle
 10
328.1183772713167
 20
35.7757519264722
 30
0.0
 40
37.53555848026572
100
AcDbArc
 50
73.41691603646824
 51
89.70862562933739
  0
ARC
  5
1F8
330
2
100
AcDbEntity
  8
KIJUN
 62
     7
100
AcDbCircle
 10
318.5743487258783
 20
69.78939034965725
 30
0.0
 40
0.331056
100
AcDbArc
 50
358.628109693614
 51
85.4632168684088
  0
CIRCLE
  5
1F9
330
2
100
AcDbEntity
  8
KIJUN
 62
     7
100
AcDbCircle
 10
321.7421827094991
 20
72.90152405645978
 30
0.0
 40
1.686851022990754
  0
ARC
  5
1FA
330
2
100
AcDbEntity
  8
KIJUN
 62
     7
100
AcDbCircle
 10
321.6032047547019
 20
76.46431211357304
 30
0.0
 40
0.331056
100
AcDbArc
 50
225.722870342359
 51
328.3163098401275
  0
ARC
  5
1FB
330
2
100
AcDbEntity
  8
KIJUN
 62
     7
100
AcDbCircle
 10
326.2233678545546
 20
70.74513656534083
 30
0.0
 40
0.331056
100
AcDbArc
 50
109.5488290140882
 51
195.6163003545211
  0
ARC
  5
1FC
330
2
100
AcDbEntity
  8
KIJUN
 62
     7
100
AcDbCircle
 10
322.470226557845
 20
69.69608960892429
 30
0.0
 40
3.565938881935066
100
AcDbArc
 50
178.6281096936157
 51
15.61630035447804
  0
LINE
  5
1FD
330
2
100
AcDbEntity
  8
KIJUN
 62
     7
100
AcDbLine
 10
329.8219625970778
 20
62.59276919897756
 30
0.0
 11
329.8219625970784
 21
51.41250555243214
 31
0.0
  0
LINE
  5
1FE
330
2
100
AcDbEntity
  8
KIJUN
 62
     7
100
AcDbLine
 10
333.1469625970781
 20
59.3480308289384
 30
0.0
 11
333.1469625970781
 21
51.4125055524326
 31
0.0
  0
LINE
  5
1FF
330
2
100
AcDbEntity
  8
KIJUN
 62
     7
100
AcDbLine
 10
336.8385448082886
 20
57.4628995625374
 30
0.0
 11
336.8385448082886
 21
53.23671350851447
 31
0.0
  0
ARC
  5
200
330
2
100
AcDbEntity
  8
KIJUN
 62
     7
100
AcDbCircle
 10
304.0083128073512
 20
30.39670697113598
 30
0.0
 40
47.69407317487315
100
AcDbArc
 50
40.69057087159634
 51
40.70604677732688
  0
LINE
  5
201
330
2
100
AcDbEntity
  8
KIJUN
 62
     7
100
AcDbLine
 10
338.8489045792955
 20
62.50330024201668
 30
0.0
 11
331.1166431095864
 21
68.41374205739048
 31
0.0
  0
ARC
  5
202
330
2
100
AcDbEntity
  8
KIJUN
 62
     7
100
AcDbCircle
 10
340.8252543442559
 20
74.60022880465095
 30
0.0
 40
13.1245140748307
100
AcDbArc
 50
193.2716683945156
 51
263.817514302828
  0
LINE
  5
203
330
2
100
AcDbEntity
  8
KIJUN
 62
     7
100
AcDbLine
 10
340.163544808289
 20
61.49840605781839
 30
0.0
 11
340.163544808289
 21
61.49240632376432
 31
0.0
  0
LINE
  5
204
330
2
100
AcDbEntity
  8
KIJUN
 62
     7
100
AcDbLine
 10
340.1635448082885
 20
70.11097219845016
 30
0.0
 11
340.1635448082885
 21
68.69505983082155
 31
0.0
  0
LINE
  5
205
330
2
100
AcDbEntity
  8
KIJUN
 62
     7
100
AcDbLine
 10
340.163544808289
 20
56.74058113019036
 30
0.0
 11
340.1635448082885
 21
53.23671350851447
 31
0.0
  0
LINE
  5
206
330
2
100
AcDbEntity
  8
KIJUN
 62
     7
100
AcDbLine
 10
340.163544808289
 20
60.73458749787943
 30
0.0
 11
340.163544808289
 21
57.73917506930438
 31
0.0
  0
ARC
  5
207
330
2
100
AcDbEntity
  8
KIJUN
 62
     7
100
AcDbCircle
 10
317.2842381722414
 20
51.41250555243214
 30
0.0
 40
15.86272442483586
100
AcDbArc
 50
180.0
 51
3.147584214953074
  0
ARC
  5
208
330
2
100
AcDbEntity
  8
KIJUN
 62
     7
100
AcDbCircle
 10
317.2842381722414
 20
51.41250555243214
 30
0.0
 40
12.53772442483586
100
AcDbArc
 50
180.0
 51
0.000000000000007
  0
CIRCLE
  5
209
330
2
100
AcDbEntity
  8
KIJUN
 62
     7
100
AcDbCircle
 10
315.5540869204383
 20
58.62160793622553
 30
0.0
 40
3.313870560000001
  0
CIRCLE
  5
20A
330
2
100
AcDbEntity
  8
KIJUN
 62
     7
100
AcDbCircle
 10
315.732084380256
 20
50.25233490505961
 30
0.0
 40
3.181315737599998
  0
CIRCLE
  5
20B
330
2
100
AcDbEntity
  8
KIJUN
 62
     7
100
AcDbCircle
 10
315.3822762384598
 20
66.69998449635324
 30
0.0
 40
3.313870560000001
  0
ARC
  5
20C
330
2
100
AcDbEntity
  8
KIJUN
 62
     7
100
AcDbCircle
 10
299.7471581619495
 20
45.77455518391415
 30
0.0
 40
6.2255512752962
100
AcDbArc
 50
207.2202316597707
 51
263.5380504053349
  0
ARC
  5
20D
330
2
100
AcDbEntity
  8
KIJUN
 62
     7
100
AcDbCircle
 10
299.7471581619495
 20
46.11110996285678
 30
0.0
 40
10.0255512752962
100
AcDbArc
 50
217.6635007269215
 51
265.9925677656241
  0
ARC
  5
20E
330
2
100
AcDbEntity
  8
KIJUN
 62
     7
100
AcDbCircle
 10
257.8484507221607
 20
69.43291043975688
 30
0.0
 40
0.5335200000000003
100
AcDbArc
 50
118.9178266947017
 51
243.2868618408833
  0
ARC
  5
20F
330
2
100
AcDbEntity
  8
KIJUN
 62
     7
100
AcDbCircle
 10
279.5186787689322
 20
69.78939034965725
 30
0.0
 40
0.331056
100
AcDbArc
 50
94.53678313159121
 51
181.371890306386
  0
CIRCLE
  5
210
330
2
100
AcDbEntity
  8
KIJUN
 62
     7
100
AcDbCircle
 10
276.3508447853115
 20
72.90152405645978
 30
0.0
 40
1.686851022990754
  0
ARC
  5
211
330
2
100
AcDbEntity
  8
KIJUN
 62
     7
100
AcDbCircle
 10
276.4898227401087
 20
76.46431211357304
 30
0.0
 40
0.331056
100
AcDbArc
 50
211.6836901598723
 51
314.2771296576409
  0
ARC
  5
212
330
2
100
AcDbEntity
  8
KIJUN
 62
     7
100
AcDbCircle
 10
271.8696596402562
 20
70.74513656534083
 30
0.0
 40
0.331056
100
AcDbArc
 50
344.3836996454789
 51
70.4511709859117
  0
ARC
  5
213
330
2
100
AcDbEntity
  8
KIJUN
 62
     7
100
AcDbCircle
 10
275.6228009369658
 20
69.69608960892429
 30
0.0
 40
3.565938881935066
100
AcDbArc
 50
164.3836996455219
 51
1.371890306384299
  0
CIRCLE
  5
214
330
2
100
AcDbEntity
  8
KIJUN
 62
     7
100
AcDbCircle
 10
282.7107512563507
 20
66.69998449635324
 30
0.0
 40
3.313870560000001
  0
LINE
  5
215
330
2
100
AcDbEntity
  8
KIJUN
 62
     7
100
AcDbLine
 10
259.044979520355
 20
71.31922180526027
 30
0.0
 11
267.1171929668567
 21
71.83654499822825
 31
0.0
  0
ARC
  5
216
330
2
100
AcDbEntity
  8
KIJUN
 62
     7
100
AcDbCircle
 10
294.0847146874595
 20
30.39670697113598
 30
0.0
 40
47.69407317487315
100
AcDbArc
 50
139.293953222673
 51
139.3094291284036
  0
ARC
  5
217
330
2
100
AcDbEntity
  8
KIJUN
 62
     7
100
AcDbCircle
 10
294.0847146874595
 20
30.39670697113598
 30
0.0
 40
47.69407317487315
100
AcDbArc
 50
120.2721384778012
 51
136.4361129954192
  0
LINE
  5
218
330
2
100
AcDbEntity
  8
KIJUN
 62
     7
100
AcDbLine
 10
259.2441229155153
 20
62.50330024201668
 30
0.0
 11
266.9763843852244
 21
68.41374205739048
 31
0.0
  0
LINE
  5
219
330
2
100
AcDbEntity
  8
KIJUN
 62
     7
100
AcDbLine
 10
257.9210823615177
 20
61.49198495677757
 30
0.0
 11
257.9294826865218
 21
61.49840605781792
 31
0.0
  0
ARC
  5
21A
330
2
100
AcDbEntity
  8
KIJUN
 62
     7
100
AcDbCircle
 10
257.2677731505547
 20
74.60022880465095
 30
0.0
 40
13.1245140748307
100
AcDbArc
 50
276.182485697172
 51
346.7283316054843
  0
ARC
  5
21B
330
2
100
AcDbEntity
  8
KIJUN
 62
     7
100
AcDbCircle
 10
257.2677731505547
 20
74.60022880465095
 30
0.0
 40
13.1245140748307
100
AcDbArc
 50
272.8532360007227
 51
272.8899541831311
  0
LINE
  5
21C
330
2
100
AcDbEntity
  8
KIJUN
 62
     7
100
AcDbLine
 10
257.9294826865222
 20
70.11097219845016
 30
0.0
 11
257.9294826865222
 21
68.69505983082155
 31
0.0
  0
ARC
  5
21D
330
2
100
AcDbEntity
  8
KIJUN
 62
     7
100
AcDbCircle
 10
263.0322173231449
 20
80.23739341832362
 30
0.0
 40
10.4939237788494
100
AcDbArc
 50
245.0873718495385
 51
312.71123974715
  0
ARC
  5
21E
330
2
100
AcDbEntity
  8
KIJUN
 62
     7
100
AcDbCircle
 10
269.974650223494
 20
35.7757519264722
 30
0.0
 40
37.53555848026572
100
AcDbArc
 50
90.2913743706626
 51
106.5830839635321
  0
LINE
  5
21F
330
2
100
AcDbEntity
  8
KIJUN
 62
     7
100
AcDbLine
 10
257.9294826865218
 20
61.49840605781839
 30
0.0
 11
257.9294826865218
 21
61.49240632376432
 31
0.0
  0
ARC
  5
220
330
2
100
AcDbEntity
  8
KIJUN
 62
     7
100
AcDbCircle
 10
280.8087893225694
 20
51.41250555243214
 30
0.0
 40
12.53772442483586
100
AcDbArc
 50
180.0
 51
0.000000000000007
  0
ARC
  5
221
330
2
100
AcDbEntity
  8
KIJUN
 62
     7
100
AcDbCircle
 10
261.4012968084686
 20
46.11110996285678
 30
0.0
 40
10.0255512752962
100
AcDbArc
 50
281.8533389609823
 51
324.2370395605874
  0
ARC
  5
222
330
2
100
AcDbEntity
  8
KIJUN
 62
     7
100
AcDbCircle
 10
261.4012968084686
 20
45.77455518391415
 30
0.0
 40
6.2255512752962
100
AcDbArc
 50
289.3164456998249
 51
337.2030670281447
  0
ARC
  5
223
330
2
100
AcDbEntity
  8
KIJUN
 62
     7
100
AcDbCircle
 10
265.5199382494953
 20
45.77455518391415
 30
0.0
 40
6.2255512752962
100
AcDbArc
 50
184.0598920615816
 51
250.683554300175
  0
CIRCLE
  5
224
330
2
100
AcDbEntity
  8
KIJUN
 62
     7
100
AcDbCircle
 10
282.3609431145548
 20
50.25233490505961
 30
0.0
 40
3.181315737599998
  0
CIRCLE
  5
225
330
2
100
AcDbEntity
  8
KIJUN
 62
     7
100
AcDbCircle
 10
282.1892240465028
 20
42.17826594555781
 30
0.0
 40
2.651096448
  0
LINE
  5
226
330
2
100
AcDbEntity
  8
KIJUN
 62
     7
100
AcDbLine
 10
264.9460648977325
 20
59.3480308289384
 30
0.0
 11
264.9460648977325
 21
51.4125055524326
 31
0.0
  0
LINE
  5
227
330
2
100
AcDbEntity
  8
KIJUN
 62
     7
100
AcDbLine
 10
261.254482686522
 20
57.4628995625374
 30
0.0
 11
261.254482686522
 21
53.23671350851447
 31
0.0
  0
LINE
  5
228
330
2
100
AcDbEntity
  8
KIJUN
 62
     7
100
AcDbLine
 10
257.9294826865218
 20
56.74058113019036
 30
0.0
 11
257.9294826865222
 21
53.23671350851447
 31
0.0
  0
ARC
  5
229
330
2
100
AcDbEntity
  8
KIJUN
 62
     7
100
AcDbCircle
 10
280.8087893225694
 20
51.41250555243214
 30
0.0
 40
15.86272442483586
100
AcDbArc
 50
176.8524157850469
 51
0.000000000000007
  0
ARC
  5
22A
330
2
100
AcDbEntity
  8
KIJUN
 62
     7
100
AcDbCircle
 10
256.5016339826672
 20
71.3273352919753
 30
0.0
 40
14.65647122937325
100
AcDbArc
 50
271.8428069580568
 51
346.3883571277765
  0
LINE
  5
22B
330
2
100
AcDbEntity
  8
KIJUN
 62
     7
100
AcDbLine
 10
256.9729495140174
 20
56.67844418829901
 30
0.0
 11
267.2630654500477
 21
64.27182350542017
 31
0.0
  0
CIRCLE
  5
22C
330
2
100
AcDbEntity
  8
KIJUN
 62
     7
100
AcDbCircle
 10
282.5389405743723
 20
58.62160793622553
 30
0.0
 40
3.313870560000001
  0
LINE
  5
22D
330
2
100
AcDbEntity
  8
KIJUN
 62
     7
100
AcDbLine
 10
268.2710648977328
 20
62.59276919897756
 30
0.0
 11
268.2710648977323
 21
51.41250555243214
 31
0.0
  0
LINE
  5
22E
330
2
100
AcDbEntity
  8
KIJUN
 62
     7
100
AcDbLine
 10
257.9294826865218
 20
60.73458749787943
 30
0.0
 11
257.9294826865218
 21
57.73917506930438
 31
0.0
  0
ARC
  5
22F
330
2
100
AcDbEntity
  8
KIJUN
 62
     7
100
AcDbCircle
 10
253.4740958448542
 20
76.98512090181413
 30
0.0
 40
0.5335200000000003
100
AcDbArc
 50
208.2574309953016
 51
301.2423204176398
  0
ARC
  5
230
330
2
100
AcDbEntity
  8
KIJUN
 62
     7
100
AcDbCircle
 10
256.2556380232538
 20
59.188490733249
 30
0.0
 40
0.5335200000000003
100
AcDbArc
 50
94.85260476872932
 51
198.2707213172286
  0
ARC
  5
231
330
2
100
AcDbEntity
  8
KIJUN
 62
     7
100
AcDbCircle
 10
238.814365017062
 20
67.03453198094513
 30
0.0
 40
3.615131519999998
100
AcDbArc
 50
77.29005448065532
 51
335.5963597081723
  0
ARC
  5
232
330
2
100
AcDbEntity
  8
KIJUN
 62
     7
100
AcDbCircle
 10
243.1962251267679
 20
69.21382641792553
 30
0.0
 40
3.831174005384781
100
AcDbArc
 50
81.5332446051819
 51
274.7576083377524
  0
ARC
  5
233
330
2
100
AcDbEntity
  8
KIJUN
 62
     7
100
AcDbCircle
 10
244.5244480454695
 20
77.24365742618719
 30
0.0
 40
1.778399999999999
100
AcDbArc
 50
213.1460011259361
 51
335.5148352967337
  0
ARC
  5
234
330
2
100
AcDbEntity
  8
KIJUN
 62
     7
100
AcDbCircle
 10
244.0221537384178
 20
74.76226425666419
 30
0.0
 40
1.778399999999999
100
AcDbArc
 50
261.533244605165
 51
1.598303773742683
  0
ARC
  5
235
330
2
100
AcDbEntity
  8
KIJUN
 62
     7
100
AcDbCircle
 10
234.2202723866996
 20
74.02002366747803
 30
0.0
 40
1.778399999999999
100
AcDbArc
 50
261.533244605165
 51
1.598303773742683
  0
ARC
  5
236
330
2
100
AcDbEntity
  8
KIJUN
 62
     7
100
AcDbCircle
 10
214.9851016423904
 20
70.34083713650608
 30
0.0
 40
3.565938881935066
100
AcDbArc
 50
177.4097283711264
 51
14.39791903198878
  0
ARC
  5
237
330
2
100
AcDbEntity
  8
KIJUN
 62
     7
100
AcDbCircle
 10
218.759700460581
 20
71.30984326215531
 30
0.0
 40
0.331056
100
AcDbArc
 50
108.3304476915991
 51
194.3979190320318
  0
ARC
  5
238
330
2
100
AcDbEntity
  8
KIJUN
 62
     7
100
AcDbCircle
 10
214.2621896798637
 20
77.12596506263918
 30
0.0
 40
0.331056
100
AcDbArc
 50
224.5044890198697
 51
327.0979285176383
  0
CIRCLE
  5
239
330
2
100
AcDbEntity
  8
KIJUN
 62
     7
100
AcDbCircle
 10
214.3253800702765
 20
73.56102739328372
 30
0.0
 40
1.686851022990754
  0
ARC
  5
23A
330
2
100
AcDbEntity
  8
KIJUN
 62
     7
100
AcDbCircle
 10
211.092088485093
 20
70.5169554687098
 30
0.0
 40
0.331056
100
AcDbArc
 50
357.4097283711247
 51
84.24483554591926
  0
ARC
  5
23B
330
2
100
AcDbEntity
  8
KIJUN
 62
     7
100
AcDbCircle
 10
230.1064768021239
 20
74.99644886202151
 30
0.0
 40
11.40080608072528
100
AcDbArc
 50
196.5094154552217
 51
275.9908418630147
  0
LINE
  5
23C
330
2
100
AcDbEntity
  8
KIJUN
 62
     7
100
AcDbLine
 10
231.2963732085124
 20
63.65790725243261
 30
0.0
 11
222.2410711848058
 21
68.58313684015849
 31
0.0
  0
ARC
  5
23D
330
2
100
AcDbEntity
  8
KIJUN
 62
     7
100
AcDbCircle
 10
202.9451223760968
 20
34.34641170352444
 30
0.0
 40
40.77937217609114
100
AcDbArc
 50
45.95404551613755
 51
66.54621180209929
  0
LINE
  5
23E
330
2
100
AcDbEntity
  8
KIJUN
 62
     7
100
AcDbLine
 10
234.0096753865142
 20
70.5242533812346
 30
0.0
 11
223.488910337309
 21
71.19849667321322
 31
0.0
  0
CIRCLE
  5
23F
330
2
100
AcDbEntity
  8
KIJUN
 62
     7
100
AcDbCircle
 10
207.8350471421668
 20
67.49612164642877
 30
0.0
 40
3.313870560000001
  0
ARC
  5
240
330
2
100
AcDbEntity
  8
KIJUN
 62
     7
100
AcDbCircle
 10
233.7563538582796
 20
62.125402874294
 30
0.0
 40
0.5335200000000003
100
AcDbArc
 50
330.3885731915333
 51
94.7576083377619
  0
ARC
  5
241
330
2
100
AcDbEntity
  8
KIJUN
 62
     7
100
AcDbCircle
 10
240.4280026757685
 20
63.39207945061097
 30
0.0
 40
3.67945551185556
100
AcDbArc
 50
347.632725980102
 51
32.99625287237978
  0
ARC
  5
242
330
2
100
AcDbEntity
  8
KIJUN
 62
     7
100
AcDbCircle
 10
220.3139578299347
 20
31.13094881570606
 30
0.0
 40
41.70617608918413
100
AcDbArc
 50
70.82916835981873
 51
89.93367138728425
  0
ARC
  5
243
330
2
100
AcDbEntity
  8
KIJUN
 62
     7
100
AcDbCircle
 10
228.0277721636562
 20
80.53277269554092
 30
0.0
 40
11.65991530983267
100
AcDbArc
 50
225.1766978471051
 51
300.8659647066959
  0
ARC
  5
244
330
2
100
AcDbEntity
  8
KIJUN
 62
     7
100
AcDbCircle
 10
234.3993178139241
 20
67.4445781004195
 30
0.0
 40
4.836564623070778
100
AcDbArc
 50
95.23020019797042
 51
126.9285993212114
  0
ARC
  5
245
330
2
100
AcDbEntity
  8
KIJUN
 62
     7
100
AcDbCircle
 10
234.3993178139241
 20
67.4445781004195
 30
0.0
 40
4.836564623070778
100
AcDbArc
 50
161.0901755314447
 51
261.8313528293431
  0
ARC
  5
246
330
2
100
AcDbEntity
  8
KIJUN
 62
     7
100
AcDbCircle
 10
207.8350471421668
 20
51.92982255495536
 30
0.0
 40
12.33853339476172
100
AcDbArc
 50
180.0
 51
0.000000000000007
  0
ARC
  5
247
330
2
100
AcDbEntity
  8
KIJUN
 62
     7
100
AcDbCircle
 10
224.0958930183871
 20
46.11110996285725
 30
0.0
 40
10.0255512752962
100
AcDbArc
 50
281.8533389609823
 51
327.9558251903436
  0
ARC
  5
248
330
2
100
AcDbEntity
  8
KIJUN
 62
     7
100
AcDbCircle
 10
224.0958930183871
 20
45.77455518391461
 30
0.0
 40
6.2255512752962
100
AcDbArc
 50
289.3164456998249
 51
341.9310172300291
  0
ARC
  5
249
330
2
100
AcDbEntity
  8
KIJUN
 62
     7
100
AcDbCircle
 10
228.2145344594138
 20
46.11110996285725
 30
0.0
 40
10.0255512752962
100
AcDbArc
 50
208.3254204943443
 51
258.1466610390176
  0
ARC
  5
24A
330
2
100
AcDbEntity
  8
KIJUN
 62
     7
100
AcDbCircle
 10
228.2145344594138
 20
45.77455518391461
 30
0.0
 40
6.2255512752962
100
AcDbArc
 50
184.6953102292245
 51
250.683554300175
  0
CIRCLE
  5
24B
330
2
100
AcDbEntity
  8
KIJUN
 62
     7
100
AcDbCircle
 10
207.8350471421668
 20
42.96885780973008
 30
0.0
 40
2.651096448
  0
ARC
  5
24C
330
2
100
AcDbEntity
  8
KIJUN
 62
     7
100
AcDbCircle
 10
246.9480916474405
 20
60.46822272298896
 30
0.0
 40
3.831174005384781
100
AcDbArc
 50
259.7842577950656
 51
289.7147415956087
  0
ARC
  5
24D
330
2
100
AcDbEntity
  8
KIJUN
 62
     7
100
AcDbCircle
 10
247.986372001984
 20
56.39250409863172
 30
0.0
 40
0.5335200000000003
100
AcDbArc
 50
19.09190706737356
 51
98.34533112566731
  0
ARC
  5
24E
330
2
100
AcDbEntity
  8
KIJUN
 62
     7
100
AcDbCircle
 10
240.6021899392105
 20
56.63101474584101
 30
0.0
 40
3.831174005384781
100
AcDbArc
 50
198.6613323448965
 51
342.5363496188304
  0
ARC
  5
24F
330
2
100
AcDbEntity
  8
KIJUN
 62
     7
100
AcDbCircle
 10
245.9532048383976
 20
54.94757776437364
 30
0.0
 40
1.778399999999999
100
AcDbArc
 50
79.78425779506268
 51
162.536349618833
  0
ARC
  5
250
330
2
100
AcDbEntity
  8
KIJUN
 62
     7
100
AcDbCircle
 10
235.2875312282109
 20
54.83609878472115
 30
0.0
 40
1.778399999999999
100
AcDbArc
 50
18.66133234488513
 51
66.20273839716951
  0
CIRCLE
  5
251
330
2
100
AcDbEntity
  8
KIJUN
 62
     7
100
AcDbCircle
 10
207.8350471421668
 20
51.04475262090254
 30
0.0
 40
3.181315737599998
  0
CIRCLE
  5
252
330
2
100
AcDbEntity
  8
KIJUN
 62
     7
100
AcDbCircle
 10
244.9632277949836
 20
51.04475262090254
 30
0.0
 40
3.181315737599998
  0
CIRCLE
  5
253
330
2
100
AcDbEntity
  8
KIJUN
 62
     7
100
AcDbCircle
 10
244.9632277949836
 20
42.96885780973008
 30
0.0
 40
2.651096448
  0
LINE
  5
254
330
2
100
AcDbEntity
  8
KIJUN
 62
     7
100
AcDbLine
 10
230.5151627481402
 20
57.0064143580037
 30
0.0
 11
230.5151627481402
 21
53.23671350851447
 31
0.0
  0
LINE
  5
255
330
2
100
AcDbEntity
  8
KIJUN
 62
     7
100
AcDbLine
 10
227.1901627481421
 20
57.92178096655225
 30
0.0
 11
227.1901627481421
 21
53.23671350851402
 31
0.0
  0
ARC
  5
256
330
2
100
AcDbEntity
  8
KIJUN
 62
     7
100
AcDbCircle
 10
188.3458693328612
 20
45.77455518391415
 30
0.0
 40
6.2255512752962
100
AcDbArc
 50
276.4619495946651
 51
343.5904731690491
  0
ARC
  5
257
330
2
100
AcDbEntity
  8
KIJUN
 62
     7
100
AcDbCircle
 10
188.3458693328612
 20
46.11110996285678
 30
0.0
 40
10.0255512752962
100
AcDbArc
 50
274.0074322343758
 51
327.8648852399339
  0
ARC
  5
258
330
2
100
AcDbEntity
  8
KIJUN
 62
     7
100
AcDbCircle
 10
207.8350471421668
 20
51.92982255495536
 30
0.0
 40
15.66353339476172
100
AcDbArc
 50
180.0
 51
1.199030581076893
  0
CIRCLE
  5
259
330
2
100
AcDbEntity
  8
KIJUN
 62
     7
100
AcDbCircle
 10
207.8350471421668
 20
59.41591826051926
 30
0.0
 40
3.313870560000001
  0
ARC
  5
25A
330
2
100
AcDbEntity
  8
KIJUN
 62
     7
100
AcDbCircle
 10
232.7158215873625
 20
71.49673007474331
 30
0.0
 40
14.65647122937278
100
AcDbArc
 50
193.6116428722238
 51
268.1571930419449
  0
ARC
  5
25B
330
2
100
AcDbEntity
  8
KIJUN
 62
     7
100
AcDbCircle
 10
192.2881571401886
 20
21.77813278991636
 30
0.0
 40
53.16384213274378
100
AcDbArc
 50
41.27344010435908
 51
60.49539580980697
  0
LINE
  5
25C
330
2
100
AcDbEntity
  8
KIJUN
 62
     7
100
AcDbLine
 10
232.2445060560127
 20
56.84783897106701
 30
0.0
 11
221.9543901199827
 21
64.44121828818817
 31
0.0
  0
ARC
  5
25D
330
2
100
AcDbEntity
  8
KIJUN
 62
     7
100
AcDbCircle
 10
237.5510031254703
 20
59.96874093981052
 30
0.0
 40
3.831174005384781
100
AcDbArc
 50
150.3885731915711
 51
246.2027383971651
  0
ARC
  5
25E
330
2
100
AcDbEntity
  8
KIJUN
 62
     7
100
AcDbCircle
 10
247.3528844771887
 20
60.71098152899715
 30
0.0
 40
3.831174005384781
100
AcDbArc
 50
150.3885731915711
 51
278.3453311257146
  0
LINE
  5
25F
330
2
100
AcDbEntity
  8
KIJUN
 62
     7
100
AcDbLine
 10
223.4985805369288
 20
60.10135310354853
 30
0.0
 11
223.4985805369285
 21
51.92982255495491
 31
0.0
  0
LINE
  5
260
330
2
100
AcDbEntity
  8
KIJUN
 62
     7
100
AcDbLine
 10
220.1735805369286
 20
63.91356857506234
 30
0.0
 11
220.1735805369286
 21
51.92982255495536
 31
0.0
  0
CIRCLE
  5
261
330
2
100
AcDbEntity
  8
KIJUN
 62
     7
100
AcDbCircle
 10
251.9644840367179
 20
67.26648480565819
 30
0.0
 40
3.615131519999998
  0
ARC
  5
262
330
2
100
AcDbEntity
  8
KIJUN
 62
     7
100
AcDbCircle
 10
167.0009390097175
 20
70.5169554687098
 30
0.0
 40
0.331056
100
AcDbArc
 50
95.75516445408075
 51
182.5902716288755
  0
CIRCLE
  5
263
330
2
100
AcDbEntity
  8
KIJUN
 62
     7
100
AcDbCircle
 10
170.2579803526437
 20
67.49612164642877
 30
0.0
 40
3.313870560000001
  0
CIRCLE
  5
264
330
2
100
AcDbEntity
  8
KIJUN
 62
     7
100
AcDbCircle
 10
170.2579803526437
 20
59.41591826051926
 30
0.0
 40
3.313870560000001
  0
CIRCLE
  5
265
330
2
100
AcDbEntity
  8
KIJUN
 62
     7
100
AcDbCircle
 10
170.2579803526437
 20
42.96885780973008
 30
0.0
 40
2.651096448
  0
CIRCLE
  5
266
330
2
100
AcDbEntity
  8
KIJUN
 62
     7
100
AcDbCircle
 10
170.2579803526437
 20
51.04475262090254
 30
0.0
 40
3.181315737599998
  0
ARC
  5
267
330
2
100
AcDbEntity
  8
KIJUN
 62
     7
100
AcDbCircle
 10
189.7471581619493
 20
45.77455518391415
 30
0.0
 40
6.2255512752962
100
AcDbArc
 50
196.4095268309508
 51
263.5380504053349
  0
ARC
  5
268
330
2
100
AcDbEntity
  8
KIJUN
 62
     7
100
AcDbCircle
 10
189.7471581619493
 20
46.11110996285678
 30
0.0
 40
10.0255512752962
100
AcDbArc
 50
212.1351147600661
 51
265.9925677656241
  0
ARC
  5
269
330
2
100
AcDbEntity
  8
KIJUN
 62
     7
100
AcDbCircle
 10
78.34586933286127
 20
46.11110996285678
 30
0.0
 40
10.0255512752962
100
AcDbArc
 50
274.0074322343758
 51
322.3364992730785
  0
ARC
  5
26A
330
2
100
AcDbEntity
  8
KIJUN
 62
     7
100
AcDbCircle
 10
78.34586933286127
 20
45.77455518391415
 30
0.0
 40
6.2255512752962
100
AcDbArc
 50
276.4619495946651
 51
332.7797683402294
  0
ARC
  5
26B
330
2
100
AcDbEntity
  8
KIJUN
 62
     7
100
AcDbCircle
 10
143.6937096808865
 20
67.4445781004195
 30
0.0
 40
4.836564623070778
100
AcDbArc
 50
278.1686471706569
 51
18.90982446855524
  0
LINE
  5
26C
330
2
100
AcDbEntity
  8
KIJUN
 62
     7
100
AcDbLine
 10
120.163544808289
 20
60.73458749787943
 30
0.0
 11
120.163544808289
 21
57.73917506930438
 31
0.0
  0
LINE
  5
26D
330
2
100
AcDbEntity
  8
KIJUN
 62
     7
100
AcDbLine
 10
120.163544808289
 20
56.74058113019036
 30
0.0
 11
120.1635448082885
 21
53.23671350851447
 31
0.0
  0
LINE
  5
26E
330
2
100
AcDbEntity
  8
KIJUN
 62
     7
100
AcDbLine
 10
120.1635448082885
 20
70.11097219845016
 30
0.0
 11
120.1635448082885
 21
68.69505983082155
 31
0.0
  0
LINE
  5
26F
330
2
100
AcDbEntity
  8
KIJUN
 62
     7
100
AcDbLine
 10
120.163544808289
 20
61.49840605781839
 30
0.0
 11
120.163544808289
 21
61.49240632376432
 31
0.0
  0
ARC
  5
270
330
2
100
AcDbEntity
  8
KIJUN
 62
     7
100
AcDbCircle
 10
120.8252543442559
 20
74.60022880465095
 30
0.0
 40
13.1245140748307
100
AcDbArc
 50
193.2716683945156
 51
263.817514302828
  0
LINE
  5
271
330
2
100
AcDbEntity
  8
KIJUN
 62
     7
100
AcDbLine
 10
118.8489045792953
 20
62.50330024201668
 30
0.0
 11
111.1166431095863
 21
68.41374205739048
 31
0.0
  0
ARC
  5
272
330
2
100
AcDbEntity
  8
KIJUN
 62
     7
100
AcDbCircle
 10
84.00831280735122
 20
30.39670697113598
 30
0.0
 40
47.69407317487315
100
AcDbArc
 50
40.69057087159634
 51
40.70604677732688
  0
LINE
  5
273
330
2
100
AcDbEntity
  8
KIJUN
 62
     7
100
AcDbLine
 10
116.8385448082886
 20
57.4628995625374
 30
0.0
 11
116.8385448082886
 21
53.23671350851447
 31
0.0
  0
LINE
  5
274
330
2
100
AcDbEntity
  8
KIJUN
 62
     7
100
AcDbLine
 10
113.1469625970781
 20
59.3480308289384
 30
0.0
 11
113.1469625970781
 21
51.4125055524326
 31
0.0
  0
LINE
  5
275
330
2
100
AcDbEntity
  8
KIJUN
 62
     7
100
AcDbLine
 10
109.821962597078
 20
62.59276919897756
 30
0.0
 11
109.8219625970783
 21
51.41250555243214
 31
0.0
  0
LINE
  5
276
330
2
100
AcDbEntity
  8
KIJUN
 62
     7
100
AcDbLine
 10
157.919446957882
 20
63.91356857506234
 30
0.0
 11
157.919446957882
 21
51.92982255495536
 31
0.0
  0
LINE
  5
277
330
2
100
AcDbEntity
  8
KIJUN
 62
     7
100
AcDbLine
 10
154.5944469578817
 20
60.10135310354853
 30
0.0
 11
154.5944469578822
 21
51.92982255495491
 31
0.0
  0
LINE
  5
278
330
2
100
AcDbEntity
  8
KIJUN
 62
     7
100
AcDbLine
 10
150.9028647466685
 20
57.92178096655225
 30
0.0
 11
150.9028647466685
 21
53.23671350851402
 31
0.0
  0
LINE
  5
279
330
2
100
AcDbEntity
  8
KIJUN
 62
     7
100
AcDbLine
 10
147.5778647466705
 20
57.0064143580037
 30
0.0
 11
147.5778647466705
 21
53.23671350851447
 31
0.0
  0
CIRCLE
  5
27A
330
2
100
AcDbEntity
  8
KIJUN
 62
     7
100
AcDbCircle
 10
95.38227623845987
 20
66.69998449635324
 30
0.0
 40
3.313870560000001
  0
CIRCLE
  5
27B
330
2
100
AcDbEntity
  8
KIJUN
 62
     7
100
AcDbCircle
 10
95.90380344830789
 20
42.17826594555781
 30
0.0
 40
2.651096448
  0
CIRCLE
  5
27C
330
2
100
AcDbEntity
  8
KIJUN
 62
     7
100
AcDbCircle
 10
95.73208438025597
 20
50.25233490505961
 30
0.0
 40
3.181315737599998
  0
CIRCLE
  5
27D
330
2
100
AcDbEntity
  8
KIJUN
 62
     7
100
AcDbCircle
 10
95.5540869204384
 20
58.62160793622553
 30
0.0
 40
3.313870560000001
  0
ARC
  5
27E
330
2
100
AcDbEntity
  8
KIJUN
 62
     7
100
AcDbCircle
 10
102.470226557845
 20
69.69608960892429
 30
0.0
 40
3.565938881935066
100
AcDbArc
 50
178.6281096936157
 51
15.61630035447804
  0
ARC
  5
27F
330
2
100
AcDbEntity
  8
KIJUN
 62
     7
100
AcDbCircle
 10
106.2233678545545
 20
70.74513656534083
 30
0.0
 40
0.331056
100
AcDbArc
 50
109.5488290140882
 51
195.6163003545211
  0
ARC
  5
280
330
2
100
AcDbEntity
  8
KIJUN
 62
     7
100
AcDbCircle
 10
101.603204754702
 20
76.46431211357304
 30
0.0
 40
0.331056
100
AcDbArc
 50
225.722870342359
 51
328.3163098401275
  0
CIRCLE
  5
281
330
2
100
AcDbEntity
  8
KIJUN
 62
     7
100
AcDbCircle
 10
101.742182709499
 20
72.90152405645978
 30
0.0
 40
1.686851022990754
  0
ARC
  5
282
330
2
100
AcDbEntity
  8
KIJUN
 62
     7
100
AcDbCircle
 10
98.57434872587839
 20
69.78939034965725
 30
0.0
 40
0.331056
100
AcDbArc
 50
358.628109693614
 51
85.4632168684088
  0
CIRCLE
  5
283
330
2
100
AcDbEntity
  8
KIJUN
 62
     7
100
AcDbCircle
 10
133.1297996998269
 20
42.96885780973008
 30
0.0
 40
2.651096448
  0
CIRCLE
  5
284
330
2
100
AcDbEntity
  8
KIJUN
 62
     7
100
AcDbCircle
 10
133.1297996998269
 20
51.04475262090254
 30
0.0
 40
3.181315737599998
  0
ARC
  5
285
330
2
100
AcDbEntity
  8
KIJUN
 62
     7
100
AcDbCircle
 10
108.1183772713167
 20
35.7757519264722
 30
0.0
 40
37.53555848026572
100
AcDbArc
 50
73.41691603646824
 51
89.70862562933739
  0
LINE
  5
286
330
2
100
AcDbEntity
  8
KIJUN
 62
     7
100
AcDbLine
 10
119.0480479744557
 20
71.31922180526027
 30
0.0
 11
110.975834527954
 21
71.83654499822825
 31
0.0
  0
ARC
  5
287
330
2
100
AcDbEntity
  8
KIJUN
 62
     7
100
AcDbCircle
 10
115.0608101716657
 20
80.23739341832362
 30
0.0
 40
10.4939237788494
100
AcDbArc
 50
227.28876025285
 51
294.9126281504619
  0
ARC
  5
288
330
2
100
AcDbEntity
  8
KIJUN
 62
     7
100
AcDbCircle
 10
120.2445767726499
 20
69.43291043975688
 30
0.0
 40
0.5335200000000003
100
AcDbArc
 50
296.7131381591167
 51
61.08217330529827
  0
LINE
  5
289
330
2
100
AcDbEntity
  8
KIJUN
 62
     7
100
AcDbLine
 10
120.1719451332929
 20
61.49198495677757
 30
0.0
 11
120.163544808289
 21
61.49840605781792
 31
0.0
  0
ARC
  5
28A
330
2
100
AcDbEntity
  8
KIJUN
 62
     7
100
AcDbCircle
 10
84.00831280735122
 20
30.39670697113598
 30
0.0
 40
47.69407317487315
100
AcDbArc
 50
43.56388700458087
 51
59.72786152219866
  0
ARC
  5
28B
330
2
100
AcDbEntity
  8
KIJUN
 62
     7
100
AcDbCircle
 10
112.5730892453153
 20
45.77455518391415
 30
0.0
 40
6.2255512752962
100
AcDbArc
 50
289.3164456998249
 51
355.9401079384183
  0
ARC
  5
28C
330
2
100
AcDbEntity
  8
KIJUN
 62
     7
100
AcDbCircle
 10
112.5730892453153
 20
46.11110996285678
 30
0.0
 40
10.0255512752962
100
AcDbArc
 50
281.8533389609823
 51
332.8482546422145
  0
ARC
  5
28D
330
2
100
AcDbEntity
  8
KIJUN
 62
     7
100
AcDbCircle
 10
116.6917306863421
 20
45.77455518391415
 30
0.0
 40
6.2255512752962
100
AcDbArc
 50
202.7969329718553
 51
250.683554300175
  0
ARC
  5
28E
330
2
100
AcDbEntity
  8
KIJUN
 62
     7
100
AcDbCircle
 10
116.6917306863421
 20
46.11110996285678
 30
0.0
 40
10.0255512752962
100
AcDbArc
 50
215.7629604394128
 51
258.1466610390176
  0
ARC
  5
28F
330
2
100
AcDbEntity
  8
KIJUN
 62
     7
100
AcDbCircle
 10
120.8252543442559
 20
74.60022880465095
 30
0.0
 40
13.1245140748307
100
AcDbArc
 50
267.1100458168689
 51
267.1467639992773
  0
ARC
  5
290
330
2
100
AcDbEntity
  8
KIJUN
 62
     7
100
AcDbCircle
 10
81.16372906496968
 20
21.60873800714836
 30
0.0
 40
53.16384213274347
100
AcDbArc
 50
41.27344010435951
 51
60.49539580980744
  0
LINE
  5
291
330
2
100
AcDbEntity
  8
KIJUN
 62
     7
100
AcDbLine
 10
121.1200779807933
 20
56.67844418829901
 30
0.0
 11
110.829962044763
 21
64.27182350542017
 31
0.0
  0
ARC
  5
292
330
2
100
AcDbEntity
  8
KIJUN
 62
     7
100
AcDbCircle
 10
97.28423817224124
 20
51.41250555243214
 30
0.0
 40
12.53772442483586
100
AcDbArc
 50
180.0
 51
0.000000000000007
  0
ARC
  5
293
330
2
100
AcDbEntity
  8
KIJUN
 62
     7
100
AcDbCircle
 10
121.5913935121435
 20
71.3273352919753
 30
0.0
 40
14.65647122937325
100
AcDbArc
 50
193.6116428722235
 51
268.1571930419432
  0
ARC
  5
294
330
2
100
AcDbEntity
  8
KIJUN
 62
     7
100
AcDbCircle
 10
97.28423817224124
 20
51.41250555243214
 30
0.0
 40
15.86272442483586
100
AcDbArc
 50
180.0
 51
3.147584214953074
  0
ARC
  5
295
330
2
100
AcDbEntity
  8
KIJUN
 62
     7
100
AcDbCircle
 10
137.6650248190423
 20
63.39207945061097
 30
0.0
 40
3.67945551185556
100
AcDbArc
 50
147.0037471276202
 51
192.3672740198981
  0
ARC
  5
296
330
2
100
AcDbEntity
  8
KIJUN
 62
     7
100
AcDbCircle
 10
139.2786624777487
 20
67.03453198094513
 30
0.0
 40
3.615131519999998
100
AcDbArc
 50
204.4036402918277
 51
102.7099455193447
  0
CIRCLE
  5
297
330
2
100
AcDbEntity
  8
KIJUN
 62
     7
100
AcDbCircle
 10
126.1285434580928
 20
67.26648480565819
 30
0.0
 40
3.615131519999998
  0
ARC
  5
298
330
2
100
AcDbEntity
  8
KIJUN
 62
     7
100
AcDbCircle
 10
144.3366736365312
 20
62.125402874294
 30
0.0
 40
0.5335200000000003
100
AcDbArc
 50
85.24239166223811
 51
209.6114268084667
  0
ARC
  5
299
330
2
100
AcDbEntity
  8
KIJUN
 62
     7
100
AcDbCircle
 10
124.6189316499563
 20
76.98512090181413
 30
0.0
 40
0.5335200000000003
100
AcDbArc
 50
238.7576795823602
 51
331.7425690046984
  0
ARC
  5
29A
330
2
100
AcDbEntity
  8
KIJUN
 62
     7
100
AcDbCircle
 10
134.8968023680429
 20
69.21382641792553
 30
0.0
 40
3.831174005384781
100
AcDbArc
 50
265.2423916622475
 51
98.4667553948185
  0
ARC
  5
29B
330
2
100
AcDbEntity
  8
KIJUN
 62
     7
100
AcDbCircle
 10
133.5685794493412
 20
77.24365742618719
 30
0.0
 40
1.778399999999999
100
AcDbArc
 50
204.4851647032662
 51
326.853998874064
  0
ARC
  5
29C
330
2
100
AcDbEntity
  8
KIJUN
 62
     7
100
AcDbCircle
 10
134.0708737563928
 20
74.76226425666419
 30
0.0
 40
1.778399999999999
100
AcDbArc
 50
178.4016962262573
 51
278.466755394835
  0
ARC
  5
29D
330
2
100
AcDbEntity
  8
KIJUN
 62
     7
100
AcDbCircle
 10
143.8727551081111
 20
74.02002366747803
 30
0.0
 40
1.778399999999999
100
AcDbArc
 50
178.4016962262573
 51
278.466755394835
  0
ARC
  5
29E
330
2
100
AcDbEntity
  8
KIJUN
 62
     7
100
AcDbCircle
 10
121.837389471557
 20
59.188490733249
 30
0.0
 40
0.5335200000000003
100
AcDbArc
 50
341.7292786827714
 51
85.14739523127067
  0
ARC
  5
29F
330
2
100
AcDbEntity
  8
KIJUN
 62
     7
100
AcDbCircle
 10
130.1066554928267
 20
56.39250409863172
 30
0.0
 40
0.5335200000000003
100
AcDbArc
 50
81.65466887433272
 51
160.9080929326264
  0
ARC
  5
2A0
330
2
100
AcDbEntity
  8
KIJUN
 62
     7
100
AcDbCircle
 10
137.4908375556002
 20
56.63101474584101
 30
0.0
 40
3.831174005384781
100
AcDbArc
 50
197.4636503811695
 51
341.3386676551035
  0
ARC
  5
2A1
330
2
100
AcDbEntity
  8
KIJUN
 62
     7
100
AcDbCircle
 10
142.8054962665997
 20
54.83609878472115
 30
0.0
 40
1.778399999999999
100
AcDbArc
 50
113.7972616028305
 51
161.3386676551149
  0
ARC
  5
2A2
330
2
100
AcDbEntity
  8
KIJUN
 62
     7
100
AcDbCircle
 10
131.1449358473701
 20
60.46822272298896
 30
0.0
 40
3.831174005384781
100
AcDbArc
 50
250.2852584043917
 51
280.2157422049348
  0
ARC
  5
2A3
330
2
100
AcDbEntity
  8
KIJUN
 62
     7
100
AcDbCircle
 10
132.139822656413
 20
54.94757776437364
 30
0.0
 40
1.778399999999999
100
AcDbArc
 50
17.46365038116703
 51
100.2157422049377
  0
ARC
  5
2A4
330
2
100
AcDbEntity
  8
KIJUN
 62
     7
100
AcDbCircle
 10
125.982040949983
 20
57.82012752012935
 30
0.0
 40
3.831174005384781
100
AcDbArc
 50
161.7292786828073
 51
340.9080929325938
  0
ARC
  5
2A5
330
2
100
AcDbEntity
  8
KIJUN
 62
     7
100
AcDbCircle
 10
130.740143017622
 20
60.71098152899715
 30
0.0
 40
3.831174005384781
100
AcDbArc
 50
261.6546688742854
 51
29.6114268084289
  0
ARC
  5
2A6
330
2
100
AcDbEntity
  8
KIJUN
 62
     7
100
AcDbCircle
 10
140.5420243693402
 20
59.96874093981052
 30
0.0
 40
3.831174005384781
100
AcDbArc
 50
293.7972616028349
 51
29.6114268084289
  0
ARC
  5
2A7
330
2
100
AcDbEntity
  8
KIJUN
 62
     7
100
AcDbCircle
 10
122.3551452785541
 20
73.25338872689902
 30
0.0
 40
3.831174005384781
100
AcDbArc
 50
58.75767958236825
 51
241.0821733053313
  0
ARC
  5
2A8
330
2
100
AcDbEntity
  8
KIJUN
 62
     7
100
AcDbCircle
 10
123.6714114315133
 20
64.71482366435049
 30
0.0
 40
5.30541310240938
100
AcDbArc
 50
126.9206294365183
 51
250.2947180985534
  0
ARC
  5
2A9
330
2
100
AcDbEntity
  8
KIJUN
 62
     7
100
AcDbCircle
 10
175.147905118714
 20
34.34641170352444
 30
0.0
 40
40.77937217609114
100
AcDbArc
 50
113.4537881979007
 51
134.0459544838624
  0
ARC
  5
2AA
330
2
100
AcDbEntity
  8
KIJUN
 62
     7
100
AcDbCircle
 10
157.779069664876
 20
31.13094881570606
 30
0.0
 40
41.70617608918413
100
AcDbArc
 50
90.06632861271574
 51
109.1708316401812
  0
ARC
  5
2AB
330
2
100
AcDbEntity
  8
KIJUN
 62
     7
100
AcDbCircle
 10
150.0652553311544
 20
80.53277269554092
 30
0.0
 40
11.65991530983267
100
AcDbArc
 50
239.1340352933045
 51
314.823302152895
  0
LINE
  5
2AC
330
2
100
AcDbEntity
  8
KIJUN
 62
     7
100
AcDbLine
 10
146.7966542862983
 20
63.65790725243261
 30
0.0
 11
155.8519563100049
 21
68.58313684015849
 31
0.0
  0
LINE
  5
2AD
330
2
100
AcDbEntity
  8
KIJUN
 62
     7
100
AcDbLine
 10
144.0833521082964
 20
70.5242533812346
 30
0.0
 11
154.6041171575016
 21
71.19849667321322
 31
0.0
  0
ARC
  5
2AE
330
2
100
AcDbEntity
  8
KIJUN
 62
     7
100
AcDbCircle
 10
143.6937096808865
 20
67.4445781004195
 30
0.0
 40
4.836564623070778
100
AcDbArc
 50
53.0714006787884
 51
84.76979980202957
  0
CIRCLE
  5
2AF
330
2
100
AcDbEntity
  8
KIJUN
 62
     7
100
AcDbCircle
 10
163.7676474245341
 20
73.56102739328372
 30
0.0
 40
1.686851022990754
  0
ARC
  5
2B0
330
2
100
AcDbEntity
  8
KIJUN
 62
     7
100
AcDbCircle
 10
163.8308378149469
 20
77.12596506263918
 30
0.0
 40
0.331056
100
AcDbArc
 50
212.9020714823618
 51
315.4955109801302
  0
ARC
  5
2B1
330
2
100
AcDbEntity
  8
KIJUN
 62
     7
100
AcDbCircle
 10
159.3333270342296
 20
71.30984326215531
 30
0.0
 40
0.331056
100
AcDbArc
 50
345.6020809679683
 51
71.66955230840091
  0
ARC
  5
2B2
330
2
100
AcDbEntity
  8
KIJUN
 62
     7
100
AcDbCircle
 10
149.8784930353969
 20
45.77455518391461
 30
0.0
 40
6.2255512752962
100
AcDbArc
 50
289.3164456998249
 51
355.3046897707755
  0
ARC
  5
2B3
330
2
100
AcDbEntity
  8
KIJUN
 62
     7
100
AcDbCircle
 10
149.8784930353969
 20
46.11110996285725
 30
0.0
 40
10.0255512752962
100
AcDbArc
 50
281.8533389609823
 51
331.6745795056557
  0
ARC
  5
2B4
330
2
100
AcDbEntity
  8
KIJUN
 62
     7
100
AcDbCircle
 10
153.9971344764235
 20
45.77455518391461
 30
0.0
 40
6.2255512752962
100
AcDbArc
 50
198.0689827699712
 51
250.683554300175
  0
ARC
  5
2B5
330
2
100
AcDbEntity
  8
KIJUN
 62
     7
100
AcDbCircle
 10
153.9971344764235
 20
46.11110996285725
 30
0.0
 40
10.0255512752962
100
AcDbArc
 50
212.0441748096565
 51
258.1466610390176
  0
ARC
  5
2B6
330
2
100
AcDbEntity
  8
KIJUN
 62
     7
100
AcDbCircle
 10
145.3772059074482
 20
71.49673007474331
 30
0.0
 40
14.65647122937278
100
AcDbArc
 50
271.842806958055
 51
346.3883571277762
  0
ARC
  5
2B7
330
2
100
AcDbEntity
  8
KIJUN
 62
     7
100
AcDbCircle
 10
185.804870354622
 20
21.77813278991636
 30
0.0
 40
53.16384213274378
100
AcDbArc
 50
119.5046041901929
 51
138.7265598956409
  0
ARC
  5
2B8
330
2
100
AcDbEntity
  8
KIJUN
 62
     7
100
AcDbCircle
 10
147.9865506926867
 20
74.99644886202151
 30
0.0
 40
11.40080608072528
100
AcDbArc
 50
264.0091581369853
 51
343.4905845447781
  0
LINE
  5
2B9
330
2
100
AcDbEntity
  8
KIJUN
 62
     7
100
AcDbLine
 10
145.848521438798
 20
56.84783897106701
 30
0.0
 11
156.1386373748278
 21
64.44121828818817
 31
0.0
  0
ARC
  5
2BA
330
2
100
AcDbEntity
  8
KIJUN
 62
     7
100
AcDbCircle
 10
133.8707047774792
 20
53.23671350851447
 30
0.0
 40
13.70715996919061
100
AcDbArc
 50
180.0
 51
0.000000000000007
  0
ARC
  5
2BB
330
2
100
AcDbEntity
  8
KIJUN
 62
     7
100
AcDbCircle
 10
133.8707047774792
 20
53.23671350851447
 30
0.0
 40
17.03215996919061
100
AcDbArc
 50
180.0
 51
359.9999999999984
  0
LINE
  5
2BC
330
2
100
AcDbEntity
  8
KIJUN
 62
     7
100
AcDbLine
 10
162.6454048426895
 20
77.90089767928503
 30
0.0
 11
171.1920804332813
 21
82.54948249570162
 31
0.0
  0
ARC
  5
2BD
330
2
100
AcDbEntity
  8
KIJUN
 62
     7
100
AcDbCircle
 10
190.4880292419903
 20
48.31275735906756
 30
0.0
 40
40.77937217609114
100
AcDbArc
 50
113.4537881979007
 51
133.3048541918766
  0
ARC
  5
2BE
330
2
100
AcDbEntity
  8
KIJUN
 62
     7
100
AcDbCircle
 10
169.7291645417113
 20
103.2602152967259
 30
0.0
 40
10.0186033838686
100
AcDbArc
 50
96.68732519501055
 51
146.393136213282
  0
ARC
  5
2BF
330
2
100
AcDbEntity
  8
KIJUN
 62
     7
100
AcDbCircle
 10
153.5553617604551
 20
128.7879467264327
 30
0.0
 40
25.28501774500679
100
AcDbArc
 50
297.0056881324286
 51
313.4828959841864
  0
LINE
  5
2C0
330
2
100
AcDbEntity
  8
KIJUN
 62
     7
100
AcDbLine
 10
175.1499686094799
 20
116.822261906417
 30
0.0
 11
149.3427516041884
 21
116.822261906417
 31
0.0
  0
LINE
  5
2C1
330
2
100
AcDbEntity
  8
KIJUN
 62
     7
100
AcDbLine
 10
149.3427516041916
 20
104.1154078305688
 30
0.0
 11
177.1071672936928
 21
104.1154078305688
 31
0.0
  0
ARC
  5
2C2
330
2
100
AcDbEntity
  8
KIJUN
 62
     7
100
AcDbCircle
 10
259.3319226756722
 20
101.7048675977501
 30
0.0
 40
15.1287886249566
100
AcDbArc
 50
92.22385747044425
 51
123.6485451201825
  0
ARC
  5
2C3
330
2
100
AcDbEntity
  8
KIJUN
 62
     7
100
AcDbCircle
 10
259.3319226756722
 20
119.2328021392357
 30
0.0
 40
15.1287886249566
100
AcDbArc
 50
240.5618245122023
 51
272.2238574704451
  0
ARC
  5
2C4
330
2
100
AcDbEntity
  8
KIJUN
 62
     7
100
AcDbCircle
 10
244.7107324865639
 20
91.60371679768179
 30
0.0
 40
23.53692364877673
100
AcDbArc
 50
51.55183022314023
 51
128.4481697768617
  0
ARC
  5
2C5
330
2
100
AcDbEntity
  8
KIJUN
 62
     7
100
AcDbCircle
 10
244.7107324865639
 20
128.4705873679856
 30
0.0
 40
23.53692364877673
100
AcDbArc
 50
231.5518302231383
 51
308.4481697768601
  0
ARC
  5
2C6
330
2
100
AcDbEntity
  8
KIJUN
 62
     7
100
AcDbCircle
 10
303.3263344196362
 20
104.6368283941604
 30
0.0
 40
3.599999999999998
100
AcDbArc
 50
35.86868172002399
 51
130.0684743489143
  0
ARC
  5
2C7
330
2
100
AcDbEntity
  8
KIJUN
 62
     7
100
AcDbCircle
 10
311.39221380645
 20
110.4688348684929
 30
0.0
 40
6.35342703792412
100
AcDbArc
 50
215.8686817200262
 51
270.0
  0
ARC
  5
2C8
330
2
100
AcDbEntity
  8
KIJUN
 62
     7
100
AcDbCircle
 10
311.39221380645
 20
110.4688348684929
 30
0.0
 40
6.35342703792412
100
AcDbArc
 50
90.0
 51
147.0361584666236
  0
ARC
  5
2C9
330
2
100
AcDbEntity
  8
KIJUN
 62
     7
100
AcDbCircle
 10
303.0411480383997
 20
115.8845906178765
 30
0.0
 40
3.599999999999998
100
AcDbArc
 50
232.8363658377384
 51
327.0361584666237
  0
ARC
  5
2CA
330
2
100
AcDbEntity
  8
KIJUN
 62
     7
100
AcDbCircle
 10
312.7664877091843
 20
114.1664753087023
 30
0.0
 40
4.94572738151637
100
AcDbArc
 50
224.1989807169393
 51
315.8010192830637
  0
ARC
  5
2CB
330
2
100
AcDbEntity
  8
KIJUN
 62
     7
100
AcDbCircle
 10
312.7664877091843
 20
107.2706243854748
 30
0.0
 40
4.94572738151637
100
AcDbArc
 50
39.87868875903485
 51
135.8010192830607
  0
LINE
  5
2CC
330
2
100
AcDbEntity
  8
KIJUN
 62
     7
100
AcDbLine
 10
304.7465137474052
 20
101.9891625502358
 30
0.0
 11
304.7465137474052
 21
94.87305772328257
 31
0.0
  0
LINE
  5
2CD
330
2
100
AcDbEntity
  8
KIJUN
 62
     7
100
AcDbLine
 10
301.4215137474054
 20
101.9891625502358
 30
0.0
 11
301.4215137474054
 21
98.63298354733508
 31
0.0
  0
ARC
  5
2CE
330
2
100
AcDbEntity
  8
KIJUN
 62
     7
100
AcDbCircle
 10
264.5591531998767
 20
62.68448649001386
 30
0.0
 40
51.48910628294338
100
AcDbArc
 50
28.03019184736744
 51
47.84477068065834
  0
LINE
  5
2CF
330
2
100
AcDbEntity
  8
KIJUN
 62
     7
100
AcDbLine
 10
310.0085916195882
 20
86.88111049314947
 30
0.0
 11
301.0438665590815
 21
96.31669698057915
 31
0.0
  0
ARC
  5
2D0
330
2
100
AcDbEntity
  8
KIJUN
 62
     7
100
AcDbCircle
 10
312.9850071666679
 20
100.9649928589263
 30
0.0
 40
14.39495717263292
100
AcDbArc
 50
180.4827842948132
 51
258.0669881942445
  0
CIRCLE
  5
2D1
330
2
100
AcDbEntity
  8
KIJUN
 62
     7
100
AcDbCircle
 10
314.9130963556478
 20
88.76038099868475
 30
0.0
 40
3.310559999999998
  0
ARC
  5
2D2
330
2
100
AcDbEntity
  8
KIJUN
 62
     7
100
AcDbCircle
 10
298.6916753229171
 20
110.1468134265531
 30
0.0
 40
3.599999999999998
100
AcDbArc
 50
275.6566135491368
 51
84.3433864508632
  0
ARC
  5
2D3
330
2
100
AcDbEntity
  8
KIJUN
 62
     7
100
AcDbCircle
 10
338.7611048191384
 20
101.7048675977501
 30
0.0
 40
15.1287886249566
100
AcDbArc
 50
56.35145487981747
 51
87.77614252955576
  0
ARC
  5
2D4
330
2
100
AcDbEntity
  8
KIJUN
 62
     7
100
AcDbCircle
 10
338.7611048191384
 20
119.2328021392357
 30
0.0
 40
15.1287886249566
100
AcDbArc
 50
267.7761425295548
 51
299.4381754877977
  0
ARC
  5
2D5
330
2
100
AcDbEntity
  8
KIJUN
 62
     7
100
AcDbCircle
 10
350.2141067468793
 20
109.7707848786293
 30
0.0
 40
5.470785008682763
100
AcDbArc
 50
124.1385741054723
 51
222.7481187556387
  0
ARC
  5
2D6
330
2
100
AcDbEntity
  8
KIJUN
 62
     7
100
AcDbCircle
 10
333.3919608194711
 20
107.9296884486219
 30
0.0
 40
2.236302990589542
100
AcDbArc
 50
224.5405882384388
 51
23.05411128276757
  0
ARC
  5
2D7
330
2
100
AcDbEntity
  8
KIJUN
 62
     7
100
AcDbCircle
 10
344.7323908358686
 20
137.6476112177977
 30
0.0
 40
33.8547293458505
100
AcDbArc
 50
234.7882066745093
 51
247.5389773392054
  0
ARC
  5
2D8
330
2
100
AcDbEntity
  8
KIJUN
 62
     7
100
AcDbCircle
 10
324.0476502898943
 20
107.9031208289009
 30
0.0
 40
2.270975699216694
100
AcDbArc
 50
226.3478350734029
 51
23.41075823937568
  0
ARC
  5
2D9
330
2
100
AcDbEntity
  8
KIJUN
 62
     7
100
AcDbCircle
 10
317.7876360283086
 20
103.2602152967259
 30
0.0
 40
10.0186033838686
100
AcDbArc
 50
33.60686378671805
 51
83.31267480498944
  0
ARC
  5
2DA
330
2
100
AcDbEntity
  8
KIJUN
 62
     7
100
AcDbCircle
 10
325.6658276791459
 20
100.312611104642
 30
0.0
 40
12.95574453650668
100
AcDbArc
 50
40.95946919257317
 51
84.59055659365368
  0
LINE
  5
2DB
330
2
100
AcDbEntity
  8
KIJUN
 62
     7
100
AcDbLine
 10
311.39221380645
 20
116.822261906417
 30
0.0
 11
339.3481606724478
 21
116.822261906417
 31
0.0
  0
ARC
  5
2DC
330
2
100
AcDbEntity
  8
KIJUN
 62
     7
100
AcDbCircle
 10
333.9614388095647
 20
128.7879467264327
 30
0.0
 40
25.28501774500679
100
AcDbArc
 50
226.5171040158137
 51
242.9943118675714
  0
LINE
  5
2DD
330
2
100
AcDbEntity
  8
KIJUN
 62
     7
100
AcDbLine
 10
322.7718921978663
 20
77.26427558289135
 30
0.0
 11
314.128305279326
 21
81.73008006001174
 31
0.0
  0
ARC
  5
2DE
330
2
100
AcDbEntity
  8
KIJUN
 62
     7
100
AcDbCircle
 10
295.5647000947311
 20
47.0908024829576
 30
0.0
 40
40.77937217609114
100
AcDbArc
 50
47.91352713061239
 51
67.76459312458884
  0
CIRCLE
  5
2DF
330
2
100
AcDbEntity
  8
KIJUN
 62
     7
100
AcDbCircle
 10
314.7547121573335
 20
96.2074569337968
 30
0.0
 40
4.138199999999998
  0
LINE
  5
2E0
330
2
100
AcDbEntity
  8
KIJUN
 62
     7
100
AcDbLine
 10
338.1740489658287
 20
104.1154078305688
 30
0.0
 11
311.39221380645
 21
104.1154078305688
 31
0.0
  0
ARC
  5
2E1
330
2
100
AcDbEntity
  8
KIJUN
 62
     7
100
AcDbCircle
 10
299.4013521718935
 20
110.1468134265531
 30
0.0
 40
3.599999999999998
100
AcDbArc
 50
95.65661354913679
 51
264.3433864508632
  0
ARC
  5
2E2
330
2
100
AcDbEntity
  8
KIJUN
 62
     7
100
AcDbCircle
 10
294.7666930751744
 20
104.6368283941604
 30
0.0
 40
3.599999999999998
100
AcDbArc
 50
49.93152565108571
 51
144.131318279976
  0
ARC
  5
2E3
330
2
100
AcDbEntity
  8
KIJUN
 62
     7
100
AcDbCircle
 10
286.7008136883606
 20
110.4688348684929
 30
0.0
 40
6.35342703792412
100
AcDbArc
 50
270.0
 51
324.1313182799737
  0
ARC
  5
2E4
330
2
100
AcDbEntity
  8
KIJUN
 62
     7
100
AcDbCircle
 10
286.7008136883606
 20
110.4688348684929
 30
0.0
 40
6.35342703792412
100
AcDbArc
 50
32.96384153337626
 51
90.0
  0
ARC
  5
2E5
330
2
100
AcDbEntity
  8
KIJUN
 62
     7
100
AcDbCircle
 10
295.051879456411
 20
115.8845906178765
 30
0.0
 40
3.599999999999998
100
AcDbArc
 50
212.9638415333764
 51
307.1636341622618
  0
LINE
  5
2E6
330
2
100
AcDbEntity
  8
KIJUN
 62
     7
100
AcDbLine
 10
286.7008136883606
 20
116.822261906417
 30
0.0
 11
258.744866822363
 21
116.822261906417
 31
0.0
  0
ARC
  5
2E7
330
2
100
AcDbEntity
  8
KIJUN
 62
     7
100
AcDbCircle
 10
264.7010666753395
 20
107.9296884486219
 30
0.0
 40
2.236302990589542
100
AcDbArc
 50
156.9458887172324
 51
315.4594117615614
  0
ARC
  5
2E8
330
2
100
AcDbEntity
  8
KIJUN
 62
     7
100
AcDbCircle
 10
253.360636658942
 20
137.6476112177977
 30
0.0
 40
33.8547293458505
100
AcDbArc
 50
292.461022660795
 51
305.2117933254907
  0
ARC
  5
2E9
330
2
100
AcDbEntity
  8
KIJUN
 62
     7
100
AcDbCircle
 10
274.0453772049165
 20
107.9031208289009
 30
0.0
 40
2.270975699216694
100
AcDbArc
 50
156.5892417606245
 51
313.6521649265972
  0
ARC
  5
2EA
330
2
100
AcDbEntity
  8
KIJUN
 62
     7
100
AcDbCircle
 10
264.1315886852458
 20
128.7879467264327
 30
0.0
 40
25.28501774500679
100
AcDbArc
 50
297.0056881324286
 51
313.4828959841864
  0
ARC
  5
2EB
330
2
100
AcDbEntity
  8
KIJUN
 62
     7
100
AcDbCircle
 10
280.305391466502
 20
103.2602152967259
 30
0.0
 40
10.0186033838686
100
AcDbArc
 50
96.68732519501055
 51
146.393136213282
  0
ARC
  5
2EC
330
2
100
AcDbEntity
  8
KIJUN
 62
     7
100
AcDbCircle
 10
272.4271998156648
 20
100.312611104642
 30
0.0
 40
12.95574453650668
100
AcDbArc
 50
95.40944340634638
 51
139.0405308074268
  0
ARC
  5
2ED
330
2
100
AcDbEntity
  8
KIJUN
 62
     7
100
AcDbCircle
 10
285.3265397856264
 20
114.1664753087023
 30
0.0
 40
4.94572738151637
100
AcDbArc
 50
224.1989807169364
 51
315.8010192830607
  0
ARC
  5
2EE
330
2
100
AcDbEntity
  8
KIJUN
 62
     7
100
AcDbCircle
 10
285.3265397856264
 20
107.2706243854748
 30
0.0
 40
4.94572738151637
100
AcDbArc
 50
44.19898071693928
 51
140.1213112409651
  0
ARC
  5
2EF
330
2
100
AcDbEntity
  8
KIJUN
 62
     7
100
AcDbCircle
 10
333.5338742949339
 20
62.68448649001386
 30
0.0
 40
51.48910628294338
100
AcDbArc
 50
132.1552293193419
 51
151.9698081526325
  0
LINE
  5
2F0
330
2
100
AcDbEntity
  8
KIJUN
 62
     7
100
AcDbLine
 10
288.0844358752225
 20
86.88111049314947
 30
0.0
 11
297.0491609357292
 21
96.31669698057915
 31
0.0
  0
ARC
  5
2F1
330
2
100
AcDbEntity
  8
KIJUN
 62
     7
100
AcDbCircle
 10
285.1080203281427
 20
100.9649928589263
 30
0.0
 40
14.39495717263292
100
AcDbArc
 50
281.9330118057555
 51
359.5172157051869
  0
CIRCLE
  5
2F2
330
2
100
AcDbEntity
  8
KIJUN
 62
     7
100
AcDbCircle
 10
283.179931139163
 20
88.76038099868475
 30
0.0
 40
3.310559999999998
  0
CIRCLE
  5
2F3
330
2
100
AcDbEntity
  8
KIJUN
 62
     7
100
AcDbCircle
 10
283.3383153374772
 20
96.2074569337968
 30
0.0
 40
4.138199999999998
  0
ARC
  5
2F4
330
2
100
AcDbEntity
  8
KIJUN
 62
     7
100
AcDbCircle
 10
302.5283274000796
 20
47.0908024829576
 30
0.0
 40
40.77937217609114
100
AcDbArc
 50
112.2354068754112
 51
132.0864728693879
  0
LINE
  5
2F5
330
2
100
AcDbEntity
  8
KIJUN
 62
     7
100
AcDbLine
 10
275.3211352969443
 20
77.26427558289135
 30
0.0
 11
283.9647222154844
 21
81.73008006001174
 31
0.0
  0
LINE
  5
2F6
330
2
100
AcDbEntity
  8
KIJUN
 62
     7
100
AcDbLine
 10
259.9189785289818
 20
104.1154078305688
 30
0.0
 11
286.7008136883606
 21
104.1154078305688
 31
0.0
  0
LINE
  5
2F7
330
2
100
AcDbEntity
  8
KIJUN
 62
     7
100
AcDbLine
 10
296.6715137474053
 20
101.9891625502358
 30
0.0
 11
296.6715137474053
 21
98.63298354733508
 31
0.0
  0
LINE
  5
2F8
330
2
100
AcDbEntity
  8
KIJUN
 62
     7
100
AcDbLine
 10
293.3465137474055
 20
101.9891625502358
 30
0.0
 11
293.3465137474055
 21
94.87305772328257
 31
0.0
  0
ARC
  5
2F9
330
2
100
AcDbEntity
  8
KIJUN
 62
     7
100
AcDbCircle
 10
247.8789207479314
 20
109.7707848786293
 30
0.0
 40
5.470785008682763
100
AcDbArc
 50
317.2518812443613
 51
55.86142589452771
  0
CIRCLE
  5
2FA
330
2
100
AcDbEntity
  8
KIJUN
 62
     7
100
AcDbCircle
 10
244.3346272098006
 20
110.1468134265531
 30
0.0
 40
3.599999999999998
  0
ARC
  5
2FB
330
2
100
AcDbEntity
  8
KIJUN
 62
     7
100
AcDbCircle
 10
200.9858602011177
 20
110.4688348684929
 30
0.0
 40
6.35342703792412
100
AcDbArc
 50
215.7567984231646
 51
270.0
  0
ARC
  5
2FC
330
2
100
AcDbEntity
  8
KIJUN
 62
     7
100
AcDbCircle
 10
202.9430588853307
 20
110.4688348684929
 30
0.0
 40
6.35342703792412
100
AcDbArc
 50
90.0
 51
155.932163598815
  0
ARC
  5
2FD
330
2
100
AcDbEntity
  8
KIJUN
 62
     7
100
AcDbCircle
 10
216.2420546039367
 20
100.312611104642
 30
0.0
 40
12.95574453650668
100
AcDbArc
 50
40.95946919257317
 51
84.59055659365368
  0
ARC
  5
2FE
330
2
100
AcDbEntity
  8
KIJUN
 62
     7
100
AcDbCircle
 10
203.342714633975
 20
107.2706243854748
 30
0.0
 40
4.94572738151637
100
AcDbArc
 50
39.87868875903485
 51
135.8010192830607
  0
ARC
  5
2FF
330
2
100
AcDbEntity
  8
KIJUN
 62
     7
100
AcDbCircle
 10
208.3638629530993
 20
103.2602152967259
 30
0.0
 40
10.0186033838686
100
AcDbArc
 50
33.60686378671805
 51
83.31267480498944
  0
ARC
  5
300
330
2
100
AcDbEntity
  8
KIJUN
 62
     7
100
AcDbCircle
 10
203.342714633975
 20
114.1664753087023
 30
0.0
 40
4.94572738151637
100
AcDbArc
 50
224.1989807169393
 51
315.8010192830637
  0
ARC
  5
301
330
2
100
AcDbEntity
  8
KIJUN
 62
     7
100
AcDbCircle
 10
224.5376657343555
 20
128.7879467264327
 30
0.0
 40
25.28501774500679
100
AcDbArc
 50
226.5171040158137
 51
242.9943118675714
  0
ARC
  5
302
330
2
100
AcDbEntity
  8
KIJUN
 62
     7
100
AcDbCircle
 10
214.6238772146849
 20
107.9031208289009
 30
0.0
 40
2.270975699216694
100
AcDbArc
 50
226.3478350734029
 51
23.41075823937568
  0
ARC
  5
303
330
2
100
AcDbEntity
  8
KIJUN
 62
     7
100
AcDbCircle
 10
235.3086177606593
 20
137.6476112177977
 30
0.0
 40
33.8547293458505
100
AcDbArc
 50
234.7882066745093
 51
247.5389773392054
  0
ARC
  5
304
330
2
100
AcDbEntity
  8
KIJUN
 62
     7
100
AcDbCircle
 10
223.9681877442619
 20
107.9296884486219
 30
0.0
 40
2.236302990589542
100
AcDbArc
 50
224.5405882384388
 51
23.05411128276757
  0
LINE
  5
305
330
2
100
AcDbEntity
  8
KIJUN
 62
     7
100
AcDbLine
 10
202.9430588853307
 20
116.822261906417
 30
0.0
 11
228.7502758906221
 21
116.822261906417
 31
0.0
  0
ARC
  5
306
330
2
100
AcDbEntity
  8
KIJUN
 62
     7
100
AcDbCircle
 10
229.3373317439288
 20
101.7048675977501
 30
0.0
 40
15.1287886249566
100
AcDbArc
 50
55.32696294648314
 51
92.22385747044507
  0
ARC
  5
307
330
2
100
AcDbEntity
  8
KIJUN
 62
     7
100
AcDbCircle
 10
229.3373317439288
 20
119.2328021392357
 30
0.0
 40
15.1287886249566
100
AcDbArc
 50
267.7761425295548
 51
300.6394379239285
  0
ARC
  5
308
330
2
100
AcDbEntity
  8
KIJUN
 62
     7
100
AcDbCircle
 10
241.1136263498961
 20
109.7725699585797
 30
0.0
 40
5.402029614132027
100
AcDbArc
 50
125.9266943334914
 51
221.1744631931734
  0
LINE
  5
309
330
2
100
AcDbEntity
  8
KIJUN
 62
     7
100
AcDbLine
 10
195.4965137474051
 20
101.9891625502358
 30
0.0
 11
195.4965137474051
 21
98.68508119110114
 31
0.0
  0
CIRCLE
  5
30A
330
2
100
AcDbEntity
  8
KIJUN
 62
     7
100
AcDbCircle
 10
207.8350471421668
 20
97.01026683686935
 30
0.0
 40
4.138199999999998
  0
CIRCLE
  5
30B
330
2
100
AcDbEntity
  8
KIJUN
 62
     7
100
AcDbCircle
 10
245.590949291761
 20
97.01026683686979
 30
0.0
 40
4.138199999999998
  0
CIRCLE
  5
30C
330
2
100
AcDbEntity
  8
KIJUN
 62
     7
100
AcDbCircle
 10
207.8350471421668
 20
89.56150683686956
 30
0.0
 40
3.310559999999998
  0
CIRCLE
  5
30D
330
2
100
AcDbEntity
  8
KIJUN
 62
     7
100
AcDbCircle
 10
245.590949291761
 20
88.52857183193313
 30
0.0
 40
3.972671999999998
  0
CIRCLE
  5
30E
330
2
100
AcDbEntity
  8
KIJUN
 62
     7
100
AcDbCircle
 10
245.4218677373861
 20
81.10835793168901
 30
0.0
 40
3.310559999999998
  0
LINE
  5
30F
330
2
100
AcDbEntity
  8
KIJUN
 62
     7
100
AcDbLine
 10
220.1735805369286
 20
101.9891625502358
 30
0.0
 11
220.1735805369286
 21
77.40682722533603
 31
0.0
  0
LINE
  5
310
330
2
100
AcDbEntity
  8
KIJUN
 62
     7
100
AcDbLine
 10
215.4476226521212
 20
77.90089767928503
 30
0.0
 11
206.9009470615292
 21
82.54948249570162
 31
0.0
  0
ARC
  5
311
330
2
100
AcDbEntity
  8
KIJUN
 62
     7
100
AcDbCircle
 10
187.6049982528202
 20
48.31275735906756
 30
0.0
 40
40.77937217609114
100
AcDbArc
 50
46.69514580812345
 51
66.54621180209929
  0
ARC
  5
312
330
2
100
AcDbEntity
  8
KIJUN
 62
     7
100
AcDbCircle
 10
214.7663526788475
 20
88.96279451756464
 30
0.0
 40
11.40080608072528
100
AcDbArc
 50
259.4184458458633
 51
271.4154154140715
  0
LINE
  5
313
330
2
100
AcDbEntity
  8
KIJUN
 62
     7
100
AcDbLine
 10
228.750275890619
 20
104.1154078305688
 30
0.0
 11
200.9858602011177
 21
104.1154078305688
 31
0.0
  0
ARC
  5
314
330
2
100
AcDbEntity
  8
KIJUN
 62
     7
100
AcDbCircle
 10
193.395510645969
 20
105.0031975786226
 30
0.0
 40
3.0
100
AcDbArc
 50
35.75679842316603
 51
128.8002039439021
  0
ARC
  5
315
330
2
100
AcDbEntity
  8
KIJUN
 62
     7
100
AcDbCircle
 10
194.4027883574268
 20
114.2833304660769
 30
0.0
 40
3.0
100
AcDbArc
 50
218.8103811770377
 51
335.9321635988192
  0
ARC
  5
316
330
2
100
AcDbEntity
  8
KIJUN
 62
     7
100
AcDbCircle
 10
206.1669025201387
 20
101.8043566725822
 30
0.0
 40
14.39495717263292
100
AcDbArc
 50
179.2644029723239
 51
256.8486068717554
  0
LINE
  5
317
330
2
100
AcDbEntity
  8
KIJUN
 62
     7
100
AcDbLine
 10
202.8916920137977
 20
87.78694649305572
 30
0.0
 11
194.129624171425
 21
97.41101813129155
 31
0.0
  0
ARC
  5
318
330
2
100
AcDbEntity
  8
KIJUN
 62
     7
100
AcDbCircle
 10
156.9380323423293
 20
64.56219184171168
 30
0.0
 40
51.48910628294338
100
AcDbArc
 50
26.81181052487814
 51
46.62638935816896
  0
CIRCLE
  5
319
330
2
100
AcDbEntity
  8
KIJUN
 62
     7
100
AcDbCircle
 10
170.2579803526437
 20
89.56150683686956
 30
0.0
 40
3.310559999999998
  0
CIRCLE
  5
31A
330
2
100
AcDbEntity
  8
KIJUN
 62
     7
100
AcDbCircle
 10
170.2579803526437
 20
97.01026683686935
 30
0.0
 40
4.138199999999998
  0
LINE
  5
31B
330
2
100
AcDbEntity
  8
KIJUN
 62
     7
100
AcDbLine
 10
182.5965137474054
 20
101.9891625502358
 30
0.0
 11
182.5965137474054
 21
98.68508119110114
 31
0.0
  0
ARC
  5
31C
330
2
100
AcDbEntity
  8
KIJUN
 62
     7
100
AcDbCircle
 10
171.926124974672
 20
101.8043566725822
 30
0.0
 40
14.39495717263292
100
AcDbArc
 50
283.1513931282446
 51
0.7355970276761999
  0
LINE
  5
31D
330
2
100
AcDbEntity
  8
KIJUN
 62
     7
100
AcDbLine
 10
175.201335481013
 20
87.78694649305572
 30
0.0
 11
183.9634033233857
 21
97.41101813129155
 31
0.0
  0
ARC
  5
31E
330
2
100
AcDbEntity
  8
KIJUN
 62
     7
100
AcDbCircle
 10
221.1549951524814
 20
64.56219184171168
 30
0.0
 40
51.48910628294338
100
AcDbArc
 50
133.3736106418311
 51
153.1881894751218
  0
ARC
  5
31F
330
2
100
AcDbEntity
  8
KIJUN
 62
     7
100
AcDbCircle
 10
174.7503128608355
 20
114.1664753087023
 30
0.0
 40
4.94572738151637
100
AcDbArc
 50
224.1989807169364
 51
315.8010192830607
  0
ARC
  5
320
330
2
100
AcDbEntity
  8
KIJUN
 62
     7
100
AcDbCircle
 10
174.7503128608355
 20
107.2706243854748
 30
0.0
 40
4.94572738151637
100
AcDbArc
 50
44.19898071693928
 51
140.1213112409651
  0
ARC
  5
321
330
2
100
AcDbEntity
  8
KIJUN
 62
     7
100
AcDbCircle
 10
183.6902391373838
 20
114.2833304660769
 30
0.0
 40
3.0
100
AcDbArc
 50
204.0678364011809
 51
321.1896188229624
  0
ARC
  5
322
330
2
100
AcDbEntity
  8
KIJUN
 62
     7
100
AcDbCircle
 10
184.6975168488417
 20
105.0031975786226
 30
0.0
 40
3.0
100
AcDbArc
 50
51.19979605609782
 51
144.243201576834
  0
CIRCLE
  5
323
330
2
100
AcDbEntity
  8
KIJUN
 62
     7
100
AcDbCircle
 10
188.8331203125354
 20
110.1468134265531
 30
0.0
 40
3.599999999999998
  0
ARC
  5
324
330
2
100
AcDbEntity
  8
KIJUN
 62
     7
100
AcDbCircle
 10
175.1499686094799
 20
110.4688348684929
 30
0.0
 40
6.35342703792412
100
AcDbArc
 50
24.067836401185
 51
90.0
  0
ARC
  5
325
330
2
100
AcDbEntity
  8
KIJUN
 62
     7
100
AcDbCircle
 10
177.1071672936928
 20
110.4688348684929
 30
0.0
 40
6.35342703792412
100
AcDbArc
 50
270.0
 51
324.2432015768354
  0
LINE
  5
326
330
2
100
AcDbEntity
  8
KIJUN
 62
     7
100
AcDbLine
 10
118.1740489658287
 20
104.1154078305688
 30
0.0
 11
91.39221380645006
 21
104.1154078305688
 31
0.0
  0
ARC
  5
327
330
2
100
AcDbEntity
  8
KIJUN
 62
     7
100
AcDbCircle
 10
163.3266748159632
 20
88.96279451756464
 30
0.0
 40
11.40080608072528
100
AcDbArc
 50
268.5845845859284
 51
280.5815541541369
  0
CIRCLE
  5
328
330
2
100
AcDbEntity
  8
KIJUN
 62
     7
100
AcDbCircle
 10
94.75471215733353
 20
96.2074569337968
 30
0.0
 40
4.138199999999998
  0
CIRCLE
  5
329
330
2
100
AcDbEntity
  8
KIJUN
 62
     7
100
AcDbCircle
 10
94.91309635564773
 20
88.76038099868475
 30
0.0
 40
3.310559999999998
  0
ARC
  5
32A
330
2
100
AcDbEntity
  8
KIJUN
 62
     7
100
AcDbCircle
 10
75.56470009473105
 20
47.0908024829576
 30
0.0
 40
40.77937217609114
100
AcDbArc
 50
47.91352713061239
 51
67.76459312458884
  0
LINE
  5
32B
330
2
100
AcDbEntity
  8
KIJUN
 62
     7
100
AcDbLine
 10
102.7718921978661
 20
77.26427558289135
 30
0.0
 11
94.12830527932618
 21
81.73008006001174
 31
0.0
  0
ARC
  5
32C
330
2
100
AcDbEntity
  8
KIJUN
 62
     7
100
AcDbCircle
 10
92.98500716666803
 20
100.9649928589263
 30
0.0
 40
14.39495717263292
100
AcDbArc
 50
180.4827842948132
 51
258.0669881942445
  0
LINE
  5
32D
330
2
100
AcDbEntity
  8
KIJUN
 62
     7
100
AcDbLine
 10
90.00859161958818
 20
86.88111049314947
 30
0.0
 11
81.04386655908148
 21
96.31669698057915
 31
0.0
  0
ARC
  5
32E
330
2
100
AcDbEntity
  8
KIJUN
 62
     7
100
AcDbCircle
 10
44.55915319987673
 20
62.68448649001386
 30
0.0
 40
51.48910628294338
100
AcDbArc
 50
28.03019184736744
 51
47.84477068065834
  0
CIRCLE
  5
32F
330
2
100
AcDbEntity
  8
KIJUN
 62
     7
100
AcDbCircle
 10
132.6711597574245
 20
81.10835793168901
 30
0.0
 40
3.310559999999998
  0
CIRCLE
  5
330
330
2
100
AcDbEntity
  8
KIJUN
 62
     7
100
AcDbCircle
 10
132.5020782030498
 20
88.52857183193313
 30
0.0
 40
3.972671999999998
  0
CIRCLE
  5
331
330
2
100
AcDbEntity
  8
KIJUN
 62
     7
100
AcDbCircle
 10
132.5020782030498
 20
97.01026683686979
 30
0.0
 40
4.138199999999998
  0
LINE
  5
332
330
2
100
AcDbEntity
  8
KIJUN
 62
     7
100
AcDbLine
 10
81.4215137474054
 20
101.9891625502358
 30
0.0
 11
81.4215137474054
 21
98.63298354733508
 31
0.0
  0
LINE
  5
333
330
2
100
AcDbEntity
  8
KIJUN
 62
     7
100
AcDbLine
 10
84.7465137474052
 20
101.9891625502358
 30
0.0
 11
84.7465137474052
 21
94.87305772328257
 31
0.0
  0
LINE
  5
334
330
2
100
AcDbEntity
  8
KIJUN
 62
     7
100
AcDbLine
 10
157.919446957882
 20
101.9891625502358
 30
0.0
 11
157.919446957882
 21
77.40682722533603
 31
0.0
  0
ARC
  5
335
330
2
100
AcDbEntity
  8
KIJUN
 62
     7
100
AcDbCircle
 10
92.76648770918432
 20
107.2706243854748
 30
0.0
 40
4.94572738151637
100
AcDbArc
 50
39.87868875903485
 51
135.8010192830607
  0
ARC
  5
336
330
2
100
AcDbEntity
  8
KIJUN
 62
     7
100
AcDbCircle
 10
92.76648770918432
 20
114.1664753087023
 30
0.0
 40
4.94572738151637
100
AcDbArc
 50
224.1989807169393
 51
315.8010192830637
  0
ARC
  5
337
330
2
100
AcDbEntity
  8
KIJUN
 62
     7
100
AcDbCircle
 10
105.6658276791459
 20
100.312611104642
 30
0.0
 40
12.95574453650668
100
AcDbArc
 50
40.95946919257317
 51
84.59055659365368
  0
ARC
  5
338
330
2
100
AcDbEntity
  8
KIJUN
 62
     7
100
AcDbCircle
 10
97.78763602830856
 20
103.2602152967259
 30
0.0
 40
10.0186033838686
100
AcDbArc
 50
33.60686378671805
 51
83.31267480498944
  0
ARC
  5
339
330
2
100
AcDbEntity
  8
KIJUN
 62
     7
100
AcDbCircle
 10
113.9614388095647
 20
128.7879467264327
 30
0.0
 40
25.28501774500679
100
AcDbArc
 50
226.5171040158137
 51
242.9943118675714
  0
ARC
  5
33A
330
2
100
AcDbEntity
  8
KIJUN
 62
     7
100
AcDbCircle
 10
104.0476502898942
 20
107.9031208289009
 30
0.0
 40
2.270975699216694
100
AcDbArc
 50
226.3478350734029
 51
23.41075823937568
  0
ARC
  5
33B
330
2
100
AcDbEntity
  8
KIJUN
 62
     7
100
AcDbCircle
 10
124.7323908358685
 20
137.6476112177977
 30
0.0
 40
33.8547293458505
100
AcDbArc
 50
234.7882066745093
 51
247.5389773392054
  0
ARC
  5
33C
330
2
100
AcDbEntity
  8
KIJUN
 62
     7
100
AcDbCircle
 10
113.391960819471
 20
107.9296884486219
 30
0.0
 40
2.236302990589542
100
AcDbArc
 50
224.5405882384388
 51
23.05411128276757
  0
ARC
  5
33D
330
2
100
AcDbEntity
  8
KIJUN
 62
     7
100
AcDbCircle
 10
130.2141067468793
 20
109.7707848786293
 30
0.0
 40
5.470785008682763
100
AcDbArc
 50
124.1385741054723
 51
222.7481187556387
  0
ARC
  5
33E
330
2
100
AcDbEntity
  8
KIJUN
 62
     7
100
AcDbCircle
 10
136.9794011449144
 20
109.7725699585797
 30
0.0
 40
5.402029614132027
100
AcDbArc
 50
318.8255368068269
 51
54.07330566650846
  0
ARC
  5
33F
330
2
100
AcDbEntity
  8
KIJUN
 62
     7
100
AcDbCircle
 10
133.3822950082467
 20
128.4705873679856
 30
0.0
 40
23.53692364877673
100
AcDbArc
 50
231.5518302231399
 51
308.4481697768617
  0
ARC
  5
340
330
2
100
AcDbEntity
  8
KIJUN
 62
     7
100
AcDbCircle
 10
133.3822950082467
 20
91.60371679768179
 30
0.0
 40
23.53692364877673
100
AcDbArc
 50
51.55183022313834
 51
128.4481697768601
  0
ARC
  5
341
330
2
100
AcDbEntity
  8
KIJUN
 62
     7
100
AcDbCircle
 10
142.7844097341513
 20
137.6476112177977
 30
0.0
 40
33.8547293458505
100
AcDbArc
 50
292.461022660795
 51
305.2117933254907
  0
ARC
  5
342
330
2
100
AcDbEntity
  8
KIJUN
 62
     7
100
AcDbCircle
 10
154.1248397505488
 20
107.9296884486219
 30
0.0
 40
2.236302990589542
100
AcDbArc
 50
156.9458887172324
 51
315.4594117615612
  0
ARC
  5
343
330
2
100
AcDbEntity
  8
KIJUN
 62
     7
100
AcDbCircle
 10
161.850972890874
 20
100.312611104642
 30
0.0
 40
12.95574453650668
100
AcDbArc
 50
95.40944340634638
 51
139.0405308074268
  0
ARC
  5
344
330
2
100
AcDbEntity
  8
KIJUN
 62
     7
100
AcDbCircle
 10
163.4691502801257
 20
107.9031208289009
 30
0.0
 40
2.270975699216694
100
AcDbArc
 50
156.5892417606245
 51
313.6521649265972
  0
LINE
  5
345
330
2
100
AcDbEntity
  8
KIJUN
 62
     7
100
AcDbLine
 10
91.39221380645006
 20
116.822261906417
 30
0.0
 11
119.3481606724477
 21
116.822261906417
 31
0.0
  0
ARC
  5
346
330
2
100
AcDbEntity
  8
KIJUN
 62
     7
100
AcDbCircle
 10
78.69167532291704
 20
110.1468134265531
 30
0.0
 40
3.599999999999998
100
AcDbArc
 50
275.6566135491368
 51
84.3433864508632
  0
ARC
  5
347
330
2
100
AcDbEntity
  8
KIJUN
 62
     7
100
AcDbCircle
 10
83.04114803839963
 20
115.8845906178765
 30
0.0
 40
3.599999999999998
100
AcDbArc
 50
232.8363658377384
 51
327.0361584666237
  0
ARC
  5
348
330
2
100
AcDbEntity
  8
KIJUN
 62
     7
100
AcDbCircle
 10
91.39221380645006
 20
110.4688348684929
 30
0.0
 40
6.35342703792412
100
AcDbArc
 50
90.0
 51
147.0361584666236
  0
ARC
  5
349
330
2
100
AcDbEntity
  8
KIJUN
 62
     7
100
AcDbCircle
 10
91.39221380645006
 20
110.4688348684929
 30
0.0
 40
6.35342703792412
100
AcDbArc
 50
215.8686817200262
 51
270.0
  0
ARC
  5
34A
330
2
100
AcDbEntity
  8
KIJUN
 62
     7
100
AcDbCircle
 10
83.32633441963622
 20
104.6368283941604
 30
0.0
 40
3.599999999999998
100
AcDbArc
 50
35.86868172002399
 51
130.0684743489143
  0
ARC
  5
34B
330
2
100
AcDbEntity
  8
KIJUN
 62
     7
100
AcDbCircle
 10
118.7611048191385
 20
119.2328021392357
 30
0.0
 40
15.1287886249566
100
AcDbArc
 50
267.7761425295548
 51
299.4381754877977
  0
ARC
  5
34C
330
2
100
AcDbEntity
  8
KIJUN
 62
     7
100
AcDbCircle
 10
118.7611048191385
 20
101.7048675977501
 30
0.0
 40
15.1287886249566
100
AcDbArc
 50
56.35145487981747
 51
87.77614252955576
  0
ARC
  5
34D
330
2
100
AcDbEntity
  8
KIJUN
 62
     7
100
AcDbCircle
 10
148.7556957508819
 20
119.2328021392357
 30
0.0
 40
15.1287886249566
100
AcDbArc
 50
239.3605620760719
 51
272.2238574704451
  0
ARC
  5
34E
330
2
100
AcDbEntity
  8
KIJUN
 62
     7
100
AcDbCircle
 10
148.7556957508819
 20
101.7048675977501
 30
0.0
 40
15.1287886249566
100
AcDbArc
 50
87.77614252955492
 51
124.6730370535169
  0
CIRCLE
  5
34F
330
2
100
AcDbEntity
  8
KIJUN
 62
     7
100
AcDbCircle
 10
133.75840028501
 20
110.1468134265531
 30
0.0
 40
3.599999999999998
  0
DIMENSION
  5
350
330
2
100
AcDbEntity
  8
SUNPOU
100
AcDbDimension
  2
*D3
 10
20.31238044814888
 20
136.8527118775278
 30
0.0
 11
32.31238044814889
 21
141.8527118775278
 31
0.0
 71
     5
 42
24.00000000000001
  3
STANDARD$0
100
AcDbAlignedDimension
 13
44.31238044814889
 23
125.9778889208203
 33
0.0
 14
20.31238044814888
 24
125.9778889208203
 34
0.0
 50
180.0
100
AcDbRotatedDimension
1001
ACAD
1000
DSTYLE
1002
{
1070
    41
1040
0.5
1070
    42
1040
1.0
1070
    44
1040
0.0
1070
    77
1070
     1
1070
    78
1070
     0
1070
   140
1040
3.0
1070
   141
1040
1.0
1070
   146
1040
0.0642857142857143
1070
   172
1070
     0
1070
   176
1070
    60
1070
   177
1070
    70
1070
   178
1070
    60
1070
   271
1070
     0
1070
   272
1070
     0
1070
   341
1005
0
1002
}
  0
TEXT
  5
35D
330
2
100
AcDbEntity
  8
HOJO
100
AcDbText
 10
0.4447205334589626
 20
1.183313000000011
 30
0.0
 40
4.5
  1
PM818
  7
SUNPOU
100
AcDbText
  0
LINE
  5
35F
330
2
100
AcDbEntity
  8
WAKU
100
AcDbLine
 10
0.0
 20
0.0
 30
0.0
 11
44.67747103027135
 21
0.0
 31
0.0
  0
LINE
  5
361
330
2
100
AcDbEntity
  8
WAKU
100
AcDbLine
 10
0.0
 20
7.0
 30
0.0
 11
44.67747103027135
 21
7.0
 31
0.0
  0
TEXT
  5
362
330
2
100
AcDbEntity
  8
HOJO
100
AcDbText
 10
29.04054112945301
 20
2.522193000000015
 30
0.0
 40
3.0
  1
100\U+00D724
  7
SUNPOU
100
AcDbText
  0
LWPOLYLINE
  5
363
330
2
100
AcDbEntity
  8
KIJUN
100
AcDbPolyline
 90
       24
 70
     1
 43
0.0
 10
37.73074499491089
 20
90.95350617523974
 10
38.98962309773772
 20
77.86229806379633
 42
0.1869505248866936
 10
39.64903681853426
 20
75.79738579362616
 42
-0.2415357333099693
 10
40.51308785916588
 20
71.63643488528866
 42
-0.2675845357398385
 10
39.34617979456529
 20
67.13547104387778
 42
0.1966243505557369
 10
38.48610131484436
 20
65.03291643411313
 10
38.54988884675238
 20
64.45744814490379
 42
0.0449918475566057
 10
38.59827514727989
 20
63.92081366121264
 10
38.05038108584047
 20
41.38210029243356
 42
-0.3698458894206691
 10
35.3123804481544
 20
35.97788892082264
 10
35.3123804481544
 20
25.97788892082036
 10
20.31238044814888
 20
25.97788892082036
 10
20.31238044814888
 20
125.9778889208203
 10
35.31238044814905
 20
125.9778889208203
 10
35.31238044814905
 20
118.9891625502361
 10
43.03879459227091
 20
114.9596942929682
 42
-0.2440850784992233
 10
44.31238044814888
 20
112.5062285395946
 10
44.31238044814888
 20
112.1180683364612
 42
-0.0892794183414328
 10
44.12409444733043
 20
111.0719974082702
 42
0.021598603485654
 10
42.01633410021839
 20
99.32424026290636
 42
-0.1864186254771933
 10
41.72239277776232
 20
97.18242272106664
 42
-0.15987093777944
 10
38.47864964223036
 20
94.16816355787156
 42
0.1966243505557369
 10
37.61857116247627
 20
92.06560894814019
 10
37.68235869438332
 20
91.49014065893087
 42
0.0449918475566057
  0
ENDSEC
  0
SECTION
  2
OBJECTS
  0
DICTIONARY
  5
9
330
0
100
AcDbDictionary
281
     1
  3
ACAD_COLOR
350
47
  3
ACAD_GROUP
350
3C
  3
ACAD_LAYOUT
350
1F
  3
ACAD_MATERIAL
350
C
  3
ACAD_MLEADERSTYLE
350
4A
  3
ACAD_MLINESTYLE
350
3D
  3
ACAD_PLOTSETTINGS
350
3E
  3
ACAD_PLOTSTYLENAME
350
8
  3
ACAD_SCALELIST
350
48
  3
ACAD_TABLESTYLE
350
49
  3
ACAD_VISUALSTYLE
350
32
  3
ACDB_RECOMPOSE_DATA
350
375
  3
AcDbVariableDictionary
350
368
  0
DICTIONARY
  5
3
330
2
100
AcDbDictionary
280
     1
281
     1
  3
ACAD_LAYOUTSELFREF
360
4
  0
DICTIONARY
  5
21
330
20
100
AcDbDictionary
280
     1
281
     1
  3
ACAD_LAYOUTSELFREF
360
22
  0
DICTIONARY
  5
47
102
{ACAD_REACTORS
330
9
102
}
330
9
100
AcDbDictionary
281
     1
  0
DICTIONARY
  5
3C
102
{ACAD_REACTORS
330
9
102
}
330
9
100
AcDbDictionary
281
     1
  0
DICTIONARY
  5
1F
102
{ACAD_REACTORS
330
9
102
}
330
9
100
AcDbDictionary
281
     1
  3
Model
350
1E
  3
ﾚｲｱｳﾄ1
350
25
  0
DICTIONARY
  5
C
102
{ACAD_REACTORS
330
9
102
}
330
9
100
AcDbDictionary
281
     1
  3
ByBlock
350
3F
  3
ByLayer
350
15
  3
Global
350
B
  0
DICTIONARY
  5
4A
102
{ACAD_REACTORS
330
9
102
}
330
9
100
AcDbDictionary
281
     1
  0
DICTIONARY
  5
3D
102
{ACAD_REACTORS
330
9
102
}
330
9
100
AcDbDictionary
281
     1
  3
STANDARD
350
4C
  0
DICTIONARY
  5
3E
102
{ACAD_REACTORS
330
9
102
}
330
9
100
AcDbDictionary
281
     1
  0
ACDBDICTIONARYWDFLT
  5
8
102
{ACAD_REACTORS
330
9
102
}
330
9
100
AcDbDictionary
281
     1
  3
Normal
350
7
100
AcDbDictionaryWithDefault
340
7
  0
DICTIONARY
  5
48
102
{ACAD_REACTORS
330
9
102
}
330
9
100
AcDbDictionary
281
     1
  3
A0
350
51
  3
A1
350
52
  3
A2
350
53
  3
A3
350
54
  3
A4
350
55
  3
A5
350
56
  3
A6
350
57
  3
A7
350
58
  3
A8
350
59
  3
A9
350
5A
  3
B0
350
5B
  3
B1
350
5C
  3
B2
350
5D
  3
B3
350
5E
  3
B4
350
5F
  3
B5
350
60
  3
B6
350
61
  0
DICTIONARY
  5
49
102
{ACAD_REACTORS
330
9
102
}
330
9
100
AcDbDictionary
281
     1
  3
Standard
350
4D
  0
DICTIONARY
  5
32
102
{ACAD_REACTORS
330
9
102
}
330
9
100
AcDbDictionary
281
     1
  3
2dWireframe
350
31
  3
Realistic
350
4E
  3
Wireframe
350
4F
  0
XRECORD
  5
375
102
{ACAD_REACTORS
330
9
102
}
330
9
100
AcDbXrecord
280
     1
 90
        1
330
4D
  0
DICTIONARY
  5
368
102
{ACAD_REACTORS
330
9
102
}
330
9
100
AcDbDictionary
281
     1
  3
CANNOSCALE
350
36D
  3
CMLEADERSTYLE
350
36A
  3
CTABLESTYLE
350
369
  3
CVIEWDETAILSTYLE
350
36B
  3
CVIEWSECTIONSTYLE
350
36C
  3
DIMASSOC
350
371
  3
HIDETEXT
350
370
  3
INDEXCTL
350
36F
  3
SORTENTS
350
36E
  3
XCLIPFRAME
350
372
  0
XRECORD
  5
4
102
{ACAD_REACTORS
330
3
102
}
330
3
100
AcDbXrecord
280
     1
340
2
  0
XRECORD
  5
22
102
{ACAD_REACTORS
330
21
102
}
330
21
100
AcDbXrecord
280
     1
340
20
  0
LAYOUT
  5
1E
102
{ACAD_XDICTIONARY
360
378
102
}
102
{ACAD_REACTORS
330
1F
102
}
330
1F
100
AcDbPlotSettings
  1

  2
なし
  4

  6

 40
0.0
 41
0.0
 42
0.0
 43
0.0
 44
0.0
 45
0.0
 46
0.0
 47
0.0
 48
0.0
 49
0.0
140
0.0
141
0.0
142
1.0
143
1.0
 70
  1712
 72
     0
 73
     0
 74
     0
  7
monochrome.ctb
 75
     0
147
1.0
148
0.0
149
0.0
100
AcDbLayout
  1
Model
 70
     1
 71
     0
 10
0.0
 20
0.0
 11
12.0
 21
9.0
 12
0.0
 22
0.0
 32
0.0
 14
0.0
 24
0.0
 34
0.0
 15
0.0
 25
0.0
 35
0.0
146
0.0
 13
0.0
 23
0.0
 33
0.0
 16
1.0
 26
0.0
 36
0.0
 17
0.0
 27
1.0
 37
0.0
 76
     0
330
2
  0
LAYOUT
  5
25
102
{ACAD_XDICTIONARY
360
37A
102
}
102
{ACAD_REACTORS
330
1F
102
}
330
1F
100
AcDbPlotSettings
  1

  2
なし
  4

  6

 40
0.0
 41
0.0
 42
0.0
 43
0.0
 44
0.0
 45
0.0
 46
0.0
 47
0.0
 48
0.0
 49
0.0
140
0.0
141
0.0
142
1.0
143
1.0
 70
   688
 72
     0
 73
     0
 74
     5
  7
monochrome.ctb
 75
    16
147
1.0
148
0.0
149
0.0
100
AcDbLayout
  1
ﾚｲｱｳﾄ1
 70
     1
 71
     1
 10
0.0
 20
0.0
 11
12.0
 21
9.0
 12
0.0
 22
0.0
 32
0.0
 14
1.000000000000000E+20
 24
1.000000000000000E+20
 34
1.000000000000000E+20
 15
-1.000000000000000E+20
 25
-1.000000000000000E+20
 35
-1.000000000000000E+20
146
0.0
 13
0.0
 23
0.0
 33
0.0
 16
1.0
 26
0.0
 36
0.0
 17
0.0
 27
1.0
 37
0.0
 76
     0
330
20
  0
MATERIAL
  5
3F
102
{ACAD_XDICTIONARY
360
40
102
}
102
{ACAD_REACTORS
330
C
102
}
330
C
100
AcDbMaterial
  1
ByBlock
 72
     0
 43
0.0208333333333333
 43
0.0
 43
0.0
 43
0.0
 43
0.0
 43
0.0208333333333333
 43
0.0
 43
0.0
 43
0.0
 43
0.0
 43
1.0
 43
0.0
 43
0.0
 43
0.0
 43
0.0
 43
1.0
 77
     0
 47
0.0208333333333333
 47
0.0
 47
0.0
 47
0.0
 47
0.0
 47
0.0208333333333333
 47
0.0
 47
0.0
 47
0.0
 47
0.0
 47
1.0
 47
0.0
 47
0.0
 47
0.0
 47
0.0
 47
1.0
171
     0
 49
0.0208333333333333
 49
0.0
 49
0.0
 49
0.0
 49
0.0
 49
0.0208333333333333
 49
0.0
 49
0.0
 49
0.0
 49
0.0
 49
1.0
 49
0.0
 49
0.0
 49
0.0
 49
0.0
 49
1.0
175
     0
142
0.0208333333333333
142
0.0
142
0.0
142
0.0
142
0.0
142
0.0208333333333333
142
0.0
142
0.0
142
0.0
142
0.0
142
1.0
142
0.0
142
0.0
142
0.0
142
0.0
142
1.0
179
     0
144
0.0208333333333333
144
0.0
144
0.0
144
0.0
144
0.0
144
0.0208333333333333
144
0.0
144
0.0
144
0.0
144
0.0
144
1.0
144
0.0
144
0.0
144
0.0
144
0.0
144
1.0
147
0.0208333333333333
147
0.0
147
0.0
147
0.0
147
0.0
147
0.0208333333333333
147
0.0
147
0.0
147
0.0
147
0.0
147
1.0
147
0.0
147
0.0
147
0.0
147
0.0
147
1.0
  0
MATERIAL
  5
15
102
{ACAD_XDICTIONARY
360
16
102
}
102
{ACAD_REACTORS
330
C
102
}
330
C
100
AcDbMaterial
  1
ByLayer
 72
     0
 43
0.0208333333333333
 43
0.0
 43
0.0
 43
0.0
 43
0.0
 43
0.0208333333333333
 43
0.0
 43
0.0
 43
0.0
 43
0.0
 43
1.0
 43
0.0
 43
0.0
 43
0.0
 43
0.0
 43
1.0
 77
     0
 47
0.0208333333333333
 47
0.0
 47
0.0
 47
0.0
 47
0.0
 47
0.0208333333333333
 47
0.0
 47
0.0
 47
0.0
 47
0.0
 47
1.0
 47
0.0
 47
0.0
 47
0.0
 47
0.0
 47
1.0
171
     0
 49
0.0208333333333333
 49
0.0
 49
0.0
 49
0.0
 49
0.0
 49
0.0208333333333333
 49
0.0
 49
0.0
 49
0.0
 49
0.0
 49
1.0
 49
0.0
 49
0.0
 49
0.0
 49
0.0
 49
1.0
175
     0
142
0.0208333333333333
142
0.0
142
0.0
142
0.0
142
0.0
142
0.0208333333333333
142
0.0
142
0.0
142
0.0
142
0.0
142
1.0
142
0.0
142
0.0
142
0.0
142
0.0
142
1.0
179
     0
144
0.0208333333333333
144
0.0
144
0.0
144
0.0
144
0.0
144
0.0208333333333333
144
0.0
144
0.0
144
0.0
144
0.0
144
1.0
144
0.0
144
0.0
144
0.0
144
0.0
144
1.0
147
0.0208333333333333
147
0.0
147
0.0
147
0.0
147
0.0
147
0.0208333333333333
147
0.0
147
0.0
147
0.0
147
0.0
147
1.0
147
0.0
147
0.0
147
0.0
147
0.0
147
1.0
  0
MATERIAL
  5
B
102
{ACAD_XDICTIONARY
360
D
102
}
102
{ACAD_REACTORS
330
C
102
}
330
C
100
AcDbMaterial
  1
Global
 72
     0
 43
0.0208333333333333
 43
0.0
 43
0.0
 43
0.0
 43
0.0
 43
0.0208333333333333
 43
0.0
 43
0.0
 43
0.0
 43
0.0
 43
1.0
 43
0.0
 43
0.0
 43
0.0
 43
0.0
 43
1.0
 77
     0
 47
0.0208333333333333
 47
0.0
 47
0.0
 47
0.0
 47
0.0
 47
0.0208333333333333
 47
0.0
 47
0.0
 47
0.0
 47
0.0
 47
1.0
 47
0.0
 47
0.0
 47
0.0
 47
0.0
 47
1.0
171
     0
 49
0.0208333333333333
 49
0.0
 49
0.0
 49
0.0
 49
0.0
 49
0.0208333333333333
 49
0.0
 49
0.0
 49
0.0
 49
0.0
 49
1.0
 49
0.0
 49
0.0
 49
0.0
 49
0.0
 49
1.0
175
     0
142
0.0208333333333333
142
0.0
142
0.0
142
0.0
142
0.0
142
0.0208333333333333
142
0.0
142
0.0
142
0.0
142
0.0
142
1.0
142
0.0
142
0.0
142
0.0
142
0.0
142
1.0
179
     0
144
0.0208333333333333
144
0.0
144
0.0
144
0.0
144
0.0
144
0.0208333333333333
144
0.0
144
0.0
144
0.0
144
0.0
144
1.0
144
0.0
144
0.0
144
0.0
144
0.0
144
1.0
147
0.0208333333333333
147
0.0
147
0.0
147
0.0
147
0.0
147
0.0208333333333333
147
0.0
147
0.0
147
0.0
147
0.0
147
1.0
147
0.0
147
0.0
147
0.0
147
0.0
147
1.0
  0
MLINESTYLE
  5
4C
102
{ACAD_REACTORS
330
3D
102
}
330
3D
100
AcDbMlineStyle
  2
STANDARD
 70
     0
  3

 62
   256
 51
90.0
 52
90.0
 71
     2
 49
0.5
 62
   256
  6
BYLAYER
 49
-0.5
 62
   256
  6
BYLAYER
  0
ACDBPLACEHOLDER
  5
7
102
{ACAD_REACTORS
330
8
102
}
330
8
  0
SCALE
  5
51
102
{ACAD_REACTORS
330
48
102
}
330
48
100
AcDbScale
 70
     0
300
1:1
140
1.0
141
1.0
290
     1
  0
SCALE
  5
52
102
{ACAD_REACTORS
330
48
102
}
330
48
100
AcDbScale
 70
     0
300
1/128" = 1'-0"
140
0.0078125
141
12.0
290
     0
  0
SCALE
  5
53
102
{ACAD_REACTORS
330
48
102
}
330
48
100
AcDbScale
 70
     0
300
1/64" = 1'-0"
140
0.015625
141
12.0
290
     0
  0
SCALE
  5
54
102
{ACAD_REACTORS
330
48
102
}
330
48
100
AcDbScale
 70
     0
300
1/32" = 1'-0"
140
0.03125
141
12.0
290
     0
  0
SCALE
  5
55
102
{ACAD_REACTORS
330
48
102
}
330
48
100
AcDbScale
 70
     0
300
1/16" = 1'-0"
140
0.0625
141
12.0
290
     0
  0
SCALE
  5
56
102
{ACAD_REACTORS
330
48
102
}
330
48
100
AcDbScale
 70
     0
300
3/32" = 1'-0"
140
0.09375
141
12.0
290
     0
  0
SCALE
  5
57
102
{ACAD_REACTORS
330
48
102
}
330
48
100
AcDbScale
 70
     0
300
1/8" = 1'-0"
140
0.125
141
12.0
290
     0
  0
SCALE
  5
58
102
{ACAD_REACTORS
330
48
102
}
330
48
100
AcDbScale
 70
     0
300
3/16" = 1'-0"
140
0.1875
141
12.0
290
     0
  0
SCALE
  5
59
102
{ACAD_REACTORS
330
48
102
}
330
48
100
AcDbScale
 70
     0
300
1/4" = 1'-0"
140
0.25
141
12.0
290
     0
  0
SCALE
  5
5A
102
{ACAD_REACTORS
330
48
102
}
330
48
100
AcDbScale
 70
     0
300
3/8" = 1'-0"
140
0.375
141
12.0
290
     0
  0
SCALE
  5
5B
102
{ACAD_REACTORS
330
48
102
}
330
48
100
AcDbScale
 70
     0
300
1/2" = 1'-0"
140
0.5
141
12.0
290
     0
  0
SCALE
  5
5C
102
{ACAD_REACTORS
330
48
102
}
330
48
100
AcDbScale
 70
     0
300
3/4" = 1'-0"
140
0.75
141
12.0
290
     0
  0
SCALE
  5
5D
102
{ACAD_REACTORS
330
48
102
}
330
48
100
AcDbScale
 70
     0
300
1" = 1'-0"
140
1.0
141
12.0
290
     0
  0
SCALE
  5
5E
102
{ACAD_REACTORS
330
48
102
}
330
48
100
AcDbScale
 70
     0
300
1-1/2" = 1'-0"
140
1.5
141
12.0
290
     0
  0
SCALE
  5
5F
102
{ACAD_REACTORS
330
48
102
}
330
48
100
AcDbScale
 70
     0
300
3" = 1'-0"
140
3.0
141
12.0
290
     0
  0
SCALE
  5
60
102
{ACAD_REACTORS
330
48
102
}
330
48
100
AcDbScale
 70
     0
300
6" = 1'-0"
140
6.0
141
12.0
290
     0
  0
SCALE
  5
61
102
{ACAD_REACTORS
330
48
102
}
330
48
100
AcDbScale
 70
     0
300
1'-0" = 1'-0"
140
12.0
141
12.0
290
     0
  0
TABLESTYLE
  5
4D
102
{ACAD_XDICTIONARY
360
373
102
}
102
{ACAD_REACTORS
330
49
102
}
330
49
100
AcDbTableStyle
  3
Standard
 70
     0
 71
     0
 40
0.06
 41
0.06
280
     0
281
     0
  7
STANDARD
140
0.18
170
     2
 62
     0
 63
     7
283
     0
274
    -2
284
     1
 64
     0
275
    -2
285
     1
 65
     0
276
    -2
286
     1
 66
     0
277
    -2
287
     1
 67
     0
278
    -2
288
     1
 68
     0
279
    -2
289
     1
 69
     0
  7
STANDARD
140
0.25
170
     5
 62
     0
 63
     7
283
     0
274
    -2
284
     1
 64
     0
275
    -2
285
     1
 65
     0
276
    -2
286
     1
 66
     0
277
    -2
287
     1
 67
     0
278
    -2
288
     1
 68
     0
279
    -2
289
     1
 69
     0
  7
STANDARD
140
0.18
170
     5
 62
     0
 63
     7
283
     0
274
    -2
284
     1
 64
     0
275
    -2
285
     1
 65
     0
276
    -2
286
     1
 66
     0
277
    -2
287
     1
 67
     0
278
    -2
288
     1
 68
     0
279
    -2
289
     1
 69
     0
  0
VISUALSTYLE
  5
31
102
{ACAD_XDICTIONARY
360
37C
102
}
102
{ACAD_REACTORS
330
32
102
}
330
32
100
AcDbVisualStyle
  2
2dWireframe
 70
     4
 71
     0
 72
     2
 73
     0
 90
        0
 40
-0.6
 41
-30.0
 62
     5
 63
     7
 74
     1
 91
        4
 64
     7
 65
   257
 75
     1
175
     1
 42
1.0
 92
        0
 66
   257
 43
1.0
 76
     1
 77
     6
 78
     2
 67
     7
 79
     5
170
     0
171
     0
290
     0
174
     0
 93
        1
 44
0.0
173
     0
291
     0
 45
0.0
1001
ACAD
1000
AcDbSavedByObjectVersion
1070
     0
  0
VISUALSTYLE
  5
4E
102
{ACAD_XDICTIONARY
360
380
102
}
102
{ACAD_REACTORS
330
32
102
}
330
32
100
AcDbVisualStyle
  2
Realistic
 70
     8
 71
     2
 72
     3
 73
     0
 90
        2
 40
-0.6
 41
30.0
 62
     5
 63
     7
 74
     0
 91
        0
 64
     7
 65
   257
 75
     1
175
     1
 42
1.0
 92
        8
 66
   257
 43
1.0
 76
     1
 77
     6
 78
     2
 67
     7
 79
     3
170
     0
171
     0
290
     0
174
     0
 93
       13
 44
0.0
173
     0
291
     0
 45
0.0
1001
ACAD
1000
AcDbSavedByObjectVersion
1070
     0
  0
VISUALSTYLE
  5
4F
102
{ACAD_XDICTIONARY
360
382
102
}
102
{ACAD_REACTORS
330
32
102
}
330
32
100
AcDbVisualStyle
  2
Wireframe
 70
     5
 71
     0
 72
     2
 73
     0
 90
        0
 40
-0.6
 41
-30.0
 62
     5
 63
     7
 74
     1
 91
        4
 64
     7
 65
   257
 75
     1
175
     1
 42
1.0
 92
        0
 66
   257
 43
1.0
 76
     1
 77
     6
 78
     2
 67
     7
 79
     3
170
     0
171
     0
290
     0
174
     0
 93
        1
 44
0.0
173
     0
291
     0
 45
0.0
1001
ACAD
1000
AcDbSavedByObjectVersion
1070
     0
  0
DICTIONARYVAR
  5
36D
102
{ACAD_REACTORS
330
368
102
}
330
368
100
DictionaryVariables
280
     0
  1
1:1
  0
DICTIONARYVAR
  5
36A
102
{ACAD_REACTORS
330
368
102
}
330
368
100
DictionaryVariables
280
     0
  1
STANDARD
  0
DICTIONARYVAR
  5
369
102
{ACAD_REACTORS
330
368
102
}
330
368
100
DictionaryVariables
280
     0
  1
STANDARD
  0
DICTIONARYVAR
  5
36B
102
{ACAD_REACTORS
330
368
102
}
330
368
100
DictionaryVariables
280
     0
  1

  0
DICTIONARYVAR
  5
36C
102
{ACAD_REACTORS
330
368
102
}
330
368
100
DictionaryVariables
280
     0
  1

  0
DICTIONARYVAR
  5
371
102
{ACAD_REACTORS
330
368
102
}
330
368
100
DictionaryVariables
280
     0
  1
1
  0
DICTIONARYVAR
  5
370
102
{ACAD_REACTORS
330
368
102
}
330
368
100
DictionaryVariables
280
     0
  1
1
  0
DICTIONARYVAR
  5
36F
102
{ACAD_REACTORS
330
368
102
}
330
368
100
DictionaryVariables
280
     0
  1
0
  0
DICTIONARYVAR
  5
36E
102
{ACAD_REACTORS
330
368
102
}
330
368
100
DictionaryVariables
280
     0
  1
127
  0
DICTIONARYVAR
  5
372
102
{ACAD_REACTORS
330
368
102
}
330
368
100
DictionaryVariables
280
     0
  1
2
  0
DICTIONARY
  5
378
330
1E
100
AcDbDictionary
280
     1
281
     1
  3
ACAD_XREC_ROUNDTRIP
360
379
  0
DICTIONARY
  5
37A
330
25
100
AcDbDictionary
280
     1
281
     1
  3
ACAD_XREC_ROUNDTRIP
360
37B
  0
DICTIONARY
  5
40
330
3F
100
AcDbDictionary
280
     1
281
     1
  3
ACAD_XREC_ROUNDTRIP
360
37E
  3
BUMPTILE
360
41
  3
DIFFUSETILE
360
42
  3
OPACITYTILE
360
43
  3
REFLECTIONTILE
360
44
  3
REFRACTIONTILE
360
45
  3
SPECULARTILE
360
46
  0
DICTIONARY
  5
16
330
15
100
AcDbDictionary
280
     1
281
     1
  3
ACAD_XREC_ROUNDTRIP
360
377
  3
BUMPTILE
360
17
  3
DIFFUSETILE
360
18
  3
OPACITYTILE
360
19
  3
REFLECTIONTILE
360
1A
  3
REFRACTIONTILE
360
1B
  3
SPECULARTILE
360
1C
  0
DICTIONARY
  5
D
330
B
100
AcDbDictionary
280
     1
281
     1
  3
ACAD_XREC_ROUNDTRIP
360
376
  3
BUMPTILE
360
E
  3
DIFFUSETILE
360
F
  3
OPACITYTILE
360
10
  3
REFLECTIONTILE
360
11
  3
REFRACTIONTILE
360
12
  3
SPECULARTILE
360
13
  0
DICTIONARY
  5
373
330
4D
100
AcDbDictionary
280
     1
281
     1
  3
ACAD_ROUNDTRIP_2008_TABLESTYLE_CELLSTYLEMAP
360
374
  3
ACAD_XREC_ROUNDTRIP
360
37F
  0
DICTIONARY
  5
37C
330
31
100
AcDbDictionary
280
     1
281
     1
  3
ACAD_XREC_ROUNDTRIP
360
37D
  0
DICTIONARY
  5
380
330
4E
100
AcDbDictionary
280
     1
281
     1
  3
ACAD_XREC_ROUNDTRIP
360
381
  0
DICTIONARY
  5
382
330
4F
100
AcDbDictionary
280
     1
281
     1
  3
ACAD_XREC_ROUNDTRIP
360
383
  0
XRECORD
  5
379
102
{ACAD_REACTORS
330
378
102
}
330
378
100
AcDbXrecord
280
     1
102
SHADEPLOT
 70
     0
102
SHADEPLOTRESLEVEL
 70
     2
102
SHADEPLOTCUSTOMDPI
 70
   300
  0
XRECORD
  5
37B
102
{ACAD_REACTORS
330
37A
102
}
330
37A
100
AcDbXrecord
280
     1
102
SHADEPLOT
 70
     0
102
SHADEPLOTRESLEVEL
 70
     2
102
SHADEPLOTCUSTOMDPI
 70
   300
  0
XRECORD
  5
37E
102
{ACAD_REACTORS
330
40
102
}
330
40
100
AcDbXrecord
280
     1
102
MATERIAL
148
0.0
149
0.0
149
0.0
 93
        0
 94
      127
282
     0
 72
     0
 77
     0
171
     0
175
     0
179
     0
273
     0
  0
XRECORD
  5
41
102
{ACAD_REACTORS
330
40
102
}
330
40
100
AcDbXrecord
280
     1
270
     1
271
     1
  0
XRECORD
  5
42
102
{ACAD_REACTORS
330
40
102
}
330
40
100
AcDbXrecord
280
     1
270
     1
271
     1
  0
XRECORD
  5
43
102
{ACAD_REACTORS
330
40
102
}
330
40
100
AcDbXrecord
280
     1
270
     1
271
     1
  0
XRECORD
  5
44
102
{ACAD_REACTORS
330
40
102
}
330
40
100
AcDbXrecord
280
     1
270
     1
271
     1
  0
XRECORD
  5
45
102
{ACAD_REACTORS
330
40
102
}
330
40
100
AcDbXrecord
280
     1
270
     1
271
     1
  0
XRECORD
  5
46
102
{ACAD_REACTORS
330
40
102
}
330
40
100
AcDbXrecord
280
     1
270
     1
271
     1
  0
XRECORD
  5
377
102
{ACAD_REACTORS
330
16
102
}
330
16
100
AcDbXrecord
280
     1
102
MATERIAL
148
0.0
149
0.0
149
0.0
 93
        0
 94
      127
282
     0
 72
     0
 77
     0
171
     0
175
     0
179
     0
273
     0
  0
XRECORD
  5
17
102
{ACAD_REACTORS
330
16
102
}
330
16
100
AcDbXrecord
280
     1
270
     1
271
     1
  0
XRECORD
  5
18
102
{ACAD_REACTORS
330
16
102
}
330
16
100
AcDbXrecord
280
     1
270
     1
271
     1
  0
XRECORD
  5
19
102
{ACAD_REACTORS
330
16
102
}
330
16
100
AcDbXrecord
280
     1
270
     1
271
     1
  0
XRECORD
  5
1A
102
{ACAD_REACTORS
330
16
102
}
330
16
100
AcDbXrecord
280
     1
270
     1
271
     1
  0
XRECORD
  5
1B
102
{ACAD_REACTORS
330
16
102
}
330
16
100
AcDbXrecord
280
     1
270
     1
271
     1
  0
XRECORD
  5
1C
102
{ACAD_REACTORS
330
16
102
}
330
16
100
AcDbXrecord
280
     1
270
     1
271
     1
  0
XRECORD
  5
376
102
{ACAD_REACTORS
330
D
102
}
330
D
100
AcDbXrecord
280
     1
102
MATERIAL
148
0.0
149
0.0
149
0.0
 93
        0
 94
      127
282
     0
 72
     0
 77
     0
171
     0
175
     0
179
     0
273
     0
  0
XRECORD
  5
E
102
{ACAD_REACTORS
330
D
102
}
330
D
100
AcDbXrecord
280
     1
270
     1
271
     1
  0
XRECORD
  5
F
102
{ACAD_REACTORS
330
D
102
}
330
D
100
AcDbXrecord
280
     1
270
     1
271
     1
  0
XRECORD
  5
10
102
{ACAD_REACTORS
330
D
102
}
330
D
100
AcDbXrecord
280
     1
270
     1
271
     1
  0
XRECORD
  5
11
102
{ACAD_REACTORS
330
D
102
}
330
D
100
AcDbXrecord
280
     1
270
     1
271
     1
  0
XRECORD
  5
12
102
{ACAD_REACTORS
330
D
102
}
330
D
100
AcDbXrecord
280
     1
270
     1
271
     1
  0
XRECORD
  5
13
102
{ACAD_REACTORS
330
D
102
}
330
D
100
AcDbXrecord
280
     1
270
     1
271
     1
  0
CELLSTYLEMAP
  5
374
102
{ACAD_REACTORS
330
373
102
}
330
373
100
AcDbCellStyleMap
 90
        3
300
CELLSTYLE
  1
TABLEFORMAT_BEGIN
 90
        5
170
     1
 91
        0
 92
    32768
 62
   257
 93
        1
300
CONTENTFORMAT
  1
CONTENTFORMAT_BEGIN
 90
        0
 91
        0
 92
        4
 93
        0
300

 40
0.0
140
1.0
 94
        5
 62
     0
340
28
144
0.25
309
CONTENTFORMAT_END
171
     0
 94
        6
 95
        1
302
GRIDFORMAT
  1
GRIDFORMAT_BEGIN
 90
        0
 91
        1
 62
     0
 92
       -2
340
0
 93
        0
 40
0.045
309
GRIDFORMAT_END
 95
        2
302
GRIDFORMAT
  1
GRIDFORMAT_BEGIN
 90
        0
 91
        1
 62
     0
 92
       -2
340
0
 93
        0
 40
0.045
309
GRIDFORMAT_END
 95
        4
302
GRIDFORMAT
  1
GRIDFORMAT_BEGIN
 90
        0
 91
        1
 62
     0
 92
       -2
340
0
 93
        0
 40
0.045
309
GRIDFORMAT_END
 95
        8
302
GRIDFORMAT
  1
GRIDFORMAT_BEGIN
 90
        0
 91
        1
 62
     0
 92
       -2
340
0
 93
        0
 40
0.045
309
GRIDFORMAT_END
 95
       16
302
GRIDFORMAT
  1
GRIDFORMAT_BEGIN
 90
        0
 91
        1
 62
     0
 92
       -2
340
0
 93
        0
 40
0.045
309
GRIDFORMAT_END
 95
       32
302
GRIDFORMAT
  1
GRIDFORMAT_BEGIN
 90
        0
 91
        1
 62
     0
 92
       -2
340
0
 93
        0
 40
0.045
309
GRIDFORMAT_END
309
TABLEFORMAT_END
  1
CELLSTYLE_BEGIN
 90
        1
 91
        1
300
_TITLE
309
CELLSTYLE_END
300
CELLSTYLE
  1
TABLEFORMAT_BEGIN
 90
        5
170
     1
 91
        0
 92
        0
 62
   257
 93
        1
300
CONTENTFORMAT
  1
CONTENTFORMAT_BEGIN
 90
        0
 91
        0
 92
        4
 93
        0
300

 40
0.0
140
1.0
 94
        5
 62
     0
340
28
144
0.18
309
CONTENTFORMAT_END
171
     0
 94
        6
 95
        1
302
GRIDFORMAT
  1
GRIDFORMAT_BEGIN
 90
        0
 91
        1
 62
     0
 92
       -2
340
0
 93
        0
 40
0.045
309
GRIDFORMAT_END
 95
        2
302
GRIDFORMAT
  1
GRIDFORMAT_BEGIN
 90
        0
 91
        1
 62
     0
 92
       -2
340
0
 93
        0
 40
0.045
309
GRIDFORMAT_END
 95
        4
302
GRIDFORMAT
  1
GRIDFORMAT_BEGIN
 90
        0
 91
        1
 62
     0
 92
       -2
340
0
 93
        0
 40
0.045
309
GRIDFORMAT_END
 95
        8
302
GRIDFORMAT
  1
GRIDFORMAT_BEGIN
 90
        0
 91
        1
 62
     0
 92
       -2
340
0
 93
        0
 40
0.045
309
GRIDFORMAT_END
 95
       16
302
GRIDFORMAT
  1
GRIDFORMAT_BEGIN
 90
        0
 91
        1
 62
     0
 92
       -2
340
0
 93
        0
 40
0.045
309
GRIDFORMAT_END
 95
       32
302
GRIDFORMAT
  1
GRIDFORMAT_BEGIN
 90
        0
 91
        1
 62
     0
 92
       -2
340
0
 93
        0
 40
0.045
309
GRIDFORMAT_END
309
TABLEFORMAT_END
  1
CELLSTYLE_BEGIN
 90
        2
 91
        1
300
_HEADER
309
CELLSTYLE_END
300
CELLSTYLE
  1
TABLEFORMAT_BEGIN
 90
        5
170
     1
 91
        0
 92
        0
 62
   257
 93
        1
300
CONTENTFORMAT
  1
CONTENTFORMAT_BEGIN
 90
        0
 91
        0
 92
        4
 93
        0
300

 40
0.0
140
1.0
 94
        2
 62
     0
340
28
144
0.18
309
CONTENTFORMAT_END
171
     0
 94
        6
 95
        1
302
GRIDFORMAT
  1
GRIDFORMAT_BEGIN
 90
        0
 91
        1
 62
     0
 92
       -2
340
0
 93
        0
 40
0.045
309
GRIDFORMAT_END
 95
        2
302
GRIDFORMAT
  1
GRIDFORMAT_BEGIN
 90
        0
 91
        1
 62
     0
 92
       -2
340
0
 93
        0
 40
0.045
309
GRIDFORMAT_END
 95
        4
302
GRIDFORMAT
  1
GRIDFORMAT_BEGIN
 90
        0
 91
        1
 62
     0
 92
       -2
340
0
 93
        0
 40
0.045
309
GRIDFORMAT_END
 95
        8
302
GRIDFORMAT
  1
GRIDFORMAT_BEGIN
 90
        0
 91
        1
 62
     0
 92
       -2
340
0
 93
        0
 40
0.045
309
GRIDFORMAT_END
 95
       16
302
GRIDFORMAT
  1
GRIDFORMAT_BEGIN
 90
        0
 91
        1
 62
     0
 92
       -2
340
0
 93
        0
 40
0.045
309
GRIDFORMAT_END
 95
       32
302
GRIDFORMAT
  1
GRIDFORMAT_BEGIN
 90
        0
 91
        1
 62
     0
 92
       -2
340
0
 93
        0
 40
0.045
309
GRIDFORMAT_END
309
TABLEFORMAT_END
  1
CELLSTYLE_BEGIN
 90
        3
 91
        2
300
_DATA
309
CELLSTYLE_END
  0
XRECORD
  5
37F
102
{ACAD_REACTORS
330
373
102
}
330
373
100
AcDbXrecord
280
     1
102
ACAD_ROUNDTRIP_PRE2007_TABLESTYLE
 90
        4
 91
        0
  1

 92
        4
 93
        0
  2

 94
        4
 95
        0
  3

  0
XRECORD
  5
37D
102
{ACAD_REACTORS
330
37C
102
}
330
37C
100
AcDbXrecord
280
     1
102
RTVSPost2010Prop28
280
     1
102
RTVSPost2010PropOp28
 70
     1
102
RTVSPost2010Prop29
280
     1
102
RTVSPost2010PropOp29
 70
     1
102
RTVSPost2010Prop30
280
     0
102
RTVSPost2010PropOp30
 70
     1
102
RTVSPost2010Prop31
280
     0
102
RTVSPost2010PropOp31
 70
     1
102
RTVSPost2010Prop32
280
     0
102
RTVSPost2010PropOp32
 70
     1
102
RTVSPost2010Prop33
280
     0
102
RTVSPost2010PropOp33
 70
     1
102
RTVSPost2010Prop34
280
     0
102
RTVSPost2010PropOp34
 70
     1
102
RTVSPost2010Prop35
280
     0
102
RTVSPost2010PropOp35
 70
     1
102
RTVSPost2010Prop36
280
     0
102
RTVSPost2010PropOp36
 70
     1
102
RTVSPost2010Prop37
 90
       50
102
RTVSPost2010PropOp37
 70
     1
102
RTVSPost2010Prop38
140
0.0
102
RTVSPost2010PropOp38
 70
     1
102
RTVSPost2010Prop39
140
1.0
102
RTVSPost2010PropOp39
 70
     1
102
RTVSPost2010Prop40
 90
        0
102
RTVSPost2010PropOp40
 70
     1
102
RTVSPost2010Prop41ColorIndex
 90
       18
102
RTVSPost2010Prop41ColorRGB
 90
        0
102
RTVSPost2010PropOp41
 70
     1
102
RTVSPost2010Prop42
 90
       50
102
RTVSPost2010PropOp42
 70
     1
102
RTVSPost2010Prop43
 90
        3
102
RTVSPost2010PropOp43
 70
     1
102
RTVSPost2010Prop44ColorIndex
 90
        5
102
RTVSPost2010Prop44ColorRGB
 90
      255
102
RTVSPost2010PropOp44
 70
     1
102
RTVSPost2010Prop45
280
     0
102
RTVSPost2010PropOp45
 70
     1
102
RTVSPost2010Prop46
 90
       50
102
RTVSPost2010PropOp46
 70
     1
102
RTVSPost2010Prop47
 90
       50
102
RTVSPost2010PropOp47
 70
     1
102
RTVSPost2010Prop48
 90
       50
102
RTVSPost2010PropOp48
 70
     1
102
RTVSPost2010Prop49
280
     0
102
RTVSPost2010PropOp49
 70
     1
102
RTVSPost2010Prop50
 90
       50
102
RTVSPost2010PropOp50
 70
     1
102
RTVSPost2010Prop51ColorIndex
 90
      256
102
RTVSPost2010Prop51ColorRGB
 90
-16777216
102
RTVSPost2010PropOp51
 70
     0
102
RTVSPost2010Prop52
140
1.0
102
RTVSPost2010PropOp52
 70
     0
102
RTVSPost2010Prop53
 90
        2
102
RTVSPost2010PropOp53
 70
     1
102
RTVSPost2010Prop54
  1
strokes_ogs.tif
102
RTVSPost2010PropOp54
 70
     1
102
RTVSPost2010Prop55
280
     0
102
RTVSPost2010PropOp55
 70
     1
102
RTVSPost2010Prop56
140
1.0
102
RTVSPost2010PropOp56
 70
     1
102
RTVSPost2010Prop57
140
1.0
102
RTVSPost2010PropOp57
 70
     1
102
RTVSPropertyOp0
 70
     1
102
RTVSPropertyOp1
 70
     1
102
RTVSPropertyOp2
 70
     1
102
RTVSPropertyOp3
 70
     1
102
RTVSPropertyOp4
 70
     1
102
RTVSPropertyOp5
 70
     1
102
RTVSPropertyOp6
 70
     1
102
RTVSPropertyOp7
 70
     1
102
RTVSPropertyOp8
 70
     1
102
RTVSPropertyOp9
 70
     1
102
RTVSPropertyOp10
 70
     1
102
RTVSPropertyOp11
 70
     1
102
RTVSPropertyOp12
 70
     1
102
RTVSPropertyOp13
 70
     1
102
RTVSPropertyOp14
 70
     1
102
RTVSPropertyOp15
 70
     1
102
RTVSPropertyOp16
 70
     1
102
RTVSPropertyOp17
 70
     1
102
RTVSPropertyOp18
 70
     1
102
RTVSPropertyOp19
 70
     1
102
RTVSPropertyOp20
 70
     1
102
RTVSPropertyOp21
 70
     1
102
RTVSPropertyOp22
 70
     1
102
RTVSPropertyOp23
 70
     1
102
RTVSPropertyOp24
 70
     1
102
RTVSPropertyOp25
 70
     1
102
RTVSPropertyOp26
 70
     1
102
RTVSPropertyOp27
 70
     1
102
RTVSPropertyOp28
 70
     1
102
RTVSPropertyOp29
 70
     1
102
RTVSPropertyOp30
 70
     1
102
RTVSPropertyOp31
 70
     1
102
RTVSPropertyOp32
 70
     1
102
RTVSPropertyOp33
 70
     1
102
RTVSPropertyOp34
 70
     1
102
RTVSPropertyOp35
 70
     1
102
RTVSPropertyOp36
 70
     1
102
RTVSPropertyOp37
 70
     1
102
RTVSPropertyOp38
 70
     1
102
RTVSPropertyOp39
 70
     1
102
RTVSPropertyOp40
 70
     1
102
RTVSPropertyOp41
 70
     1
102
RTVSPropertyOp42
 70
     1
102
RTVSPropertyOp43
 70
     1
102
RTVSPropertyOp44
 70
     1
102
RTVSPropertyOp45
 70
     1
102
RTVSPropertyOp46
 70
     1
102
RTVSPropertyOp47
 70
     1
102
RTVSPropertyOp48
 70
     1
102
RTVSPropertyOp49
 70
     1
102
RTVSPropertyOp50
 70
     1
102
RTVSPropertyOp51
 70
     0
102
RTVSPropertyOp52
 70
     0
102
RTVSPropertyOp53
 70
     1
102
RTVSPropertyOp54
 70
     1
102
RTVSPropertyOp55
 70
     1
102
RTVSPropertyOp56
 70
     1
102
RTVSPropertyOp57
 70
     1
102
RTVSPropertyOp58
 70
     1
102
RTVSPropertyOp59
 70
     1
102
RTVSPropertyOp60
 70
     1
102
RTVSPropertyOp61
 70
     1
102
RTVSPropertyOp62
 70
     1
  0
XRECORD
  5
381
102
{ACAD_REACTORS
330
380
102
}
330
380
100
AcDbXrecord
280
     1
102
RTVSPost2010Prop28
280
     0
102
RTVSPost2010PropOp28
 70
     1
102
RTVSPost2010Prop29
280
     1
102
RTVSPost2010PropOp29
 70
     1
102
RTVSPost2010Prop30
280
     1
102
RTVSPost2010PropOp30
 70
     1
102
RTVSPost2010Prop31
280
     0
102
RTVSPost2010PropOp31
 70
     1
102
RTVSPost2010Prop32
280
     0
102
RTVSPost2010PropOp32
 70
     1
102
RTVSPost2010Prop33
280
     0
102
RTVSPost2010PropOp33
 70
     1
102
RTVSPost2010Prop34
280
     0
102
RTVSPost2010PropOp34
 70
     1
102
RTVSPost2010Prop35
280
     0
102
RTVSPost2010PropOp35
 70
     1
102
RTVSPost2010Prop36
280
     0
102
RTVSPost2010PropOp36
 70
     1
102
RTVSPost2010Prop37
 90
       50
102
RTVSPost2010PropOp37
 70
     1
102
RTVSPost2010Prop38
140
0.0
102
RTVSPost2010PropOp38
 70
     1
102
RTVSPost2010Prop39
140
1.0
102
RTVSPost2010PropOp39
 70
     1
102
RTVSPost2010Prop40
 90
        0
102
RTVSPost2010PropOp40
 70
     1
102
RTVSPost2010Prop41ColorIndex
 90
       18
102
RTVSPost2010Prop41ColorRGB
 90
        0
102
RTVSPost2010PropOp41
 70
     1
102
RTVSPost2010Prop42
 90
       50
102
RTVSPost2010PropOp42
 70
     1
102
RTVSPost2010Prop43
 90
        3
102
RTVSPost2010PropOp43
 70
     1
102
RTVSPost2010Prop44ColorIndex
 90
        5
102
RTVSPost2010Prop44ColorRGB
 90
      255
102
RTVSPost2010PropOp44
 70
     1
102
RTVSPost2010Prop45
280
     0
102
RTVSPost2010PropOp45
 70
     1
102
RTVSPost2010Prop46
 90
       50
102
RTVSPost2010PropOp46
 70
     1
102
RTVSPost2010Prop47
 90
       50
102
RTVSPost2010PropOp47
 70
     1
102
RTVSPost2010Prop48
 90
       50
102
RTVSPost2010PropOp48
 70
     1
102
RTVSPost2010Prop49
280
     0
102
RTVSPost2010PropOp49
 70
     1
102
RTVSPost2010Prop50
 90
       50
102
RTVSPost2010PropOp50
 70
     1
102
RTVSPost2010Prop51ColorIndex
 90
      256
102
RTVSPost2010Prop51ColorRGB
 90
-16777216
102
RTVSPost2010PropOp51
 70
     0
102
RTVSPost2010Prop52
140
1.0
102
RTVSPost2010PropOp52
 70
     0
102
RTVSPost2010Prop53
 90
        2
102
RTVSPost2010PropOp53
 70
     1
102
RTVSPost2010Prop54
  1
strokes_ogs.tif
102
RTVSPost2010PropOp54
 70
     1
102
RTVSPost2010Prop55
280
     0
102
RTVSPost2010PropOp55
 70
     1
102
RTVSPost2010Prop56
140
1.0
102
RTVSPost2010PropOp56
 70
     1
102
RTVSPost2010Prop57
140
1.0
102
RTVSPost2010PropOp57
 70
     1
102
RTVSPropertyOp0
 70
     1
102
RTVSPropertyOp1
 70
     1
102
RTVSPropertyOp2
 70
     1
102
RTVSPropertyOp3
 70
     1
102
RTVSPropertyOp4
 70
     1
102
RTVSPropertyOp5
 70
     1
102
RTVSPropertyOp6
 70
     1
102
RTVSPropertyOp7
 70
     1
102
RTVSPropertyOp8
 70
     1
102
RTVSPropertyOp9
 70
     1
102
RTVSPropertyOp10
 70
     1
102
RTVSPropertyOp11
 70
     1
102
RTVSPropertyOp12
 70
     1
102
RTVSPropertyOp13
 70
     1
102
RTVSPropertyOp14
 70
     1
102
RTVSPropertyOp15
 70
     1
102
RTVSPropertyOp16
 70
     1
102
RTVSPropertyOp17
 70
     1
102
RTVSPropertyOp18
 70
     1
102
RTVSPropertyOp19
 70
     1
102
RTVSPropertyOp20
 70
     1
102
RTVSPropertyOp21
 70
     1
102
RTVSPropertyOp22
 70
     1
102
RTVSPropertyOp23
 70
     1
102
RTVSPropertyOp24
 70
     1
102
RTVSPropertyOp25
 70
     1
102
RTVSPropertyOp26
 70
     1
102
RTVSPropertyOp27
 70
     1
102
RTVSPropertyOp28
 70
     1
102
RTVSPropertyOp29
 70
     1
102
RTVSPropertyOp30
 70
     1
102
RTVSPropertyOp31
 70
     1
102
RTVSPropertyOp32
 70
     1
102
RTVSPropertyOp33
 70
     1
102
RTVSPropertyOp34
 70
     1
102
RTVSPropertyOp35
 70
     1
102
RTVSPropertyOp36
 70
     1
102
RTVSPropertyOp37
 70
     1
102
RTVSPropertyOp38
 70
     1
102
RTVSPropertyOp39
 70
     1
102
RTVSPropertyOp40
 70
     1
102
RTVSPropertyOp41
 70
     1
102
RTVSPropertyOp42
 70
     1
102
RTVSPropertyOp43
 70
     1
102
RTVSPropertyOp44
 70
     1
102
RTVSPropertyOp45
 70
     1
102
RTVSPropertyOp46
 70
     1
102
RTVSPropertyOp47
 70
     1
102
RTVSPropertyOp48
 70
     1
102
RTVSPropertyOp49
 70
     1
102
RTVSPropertyOp50
 70
     1
102
RTVSPropertyOp51
 70
     0
102
RTVSPropertyOp52
 70
     0
102
RTVSPropertyOp53
 70
     1
102
RTVSPropertyOp54
 70
     1
102
RTVSPropertyOp55
 70
     1
102
RTVSPropertyOp56
 70
     1
102
RTVSPropertyOp57
 70
     1
102
RTVSPropertyOp58
 70
     1
102
RTVSPropertyOp59
 70
     1
102
RTVSPropertyOp60
 70
     1
102
RTVSPropertyOp61
 70
     1
102
RTVSPropertyOp62
 70
     1
  0
XRECORD
  5
383
102
{ACAD_REACTORS
330
382
102
}
330
382
100
AcDbXrecord
280
     1
102
RTVSPost2010Prop28
280
     0
102
RTVSPost2010PropOp28
 70
     1
102
RTVSPost2010Prop29
280
     1
102
RTVSPost2010PropOp29
 70
     1
102
RTVSPost2010Prop30
280
     1
102
RTVSPost2010PropOp30
 70
     1
102
RTVSPost2010Prop31
280
     0
102
RTVSPost2010PropOp31
 70
     1
102
RTVSPost2010Prop32
280
     0
102
RTVSPost2010PropOp32
 70
     1
102
RTVSPost2010Prop33
280
     0
102
RTVSPost2010PropOp33
 70
     1
102
RTVSPost2010Prop34
280
     0
102
RTVSPost2010PropOp34
 70
     1
102
RTVSPost2010Prop35
280
     0
102
RTVSPost2010PropOp35
 70
     1
102
RTVSPost2010Prop36
280
     0
102
RTVSPost2010PropOp36
 70
     1
102
RTVSPost2010Prop37
 90
       50
102
RTVSPost2010PropOp37
 70
     1
102
RTVSPost2010Prop38
140
0.0
102
RTVSPost2010PropOp38
 70
     1
102
RTVSPost2010Prop39
140
1.0
102
RTVSPost2010PropOp39
 70
     1
102
RTVSPost2010Prop40
 90
        0
102
RTVSPost2010PropOp40
 70
     1
102
RTVSPost2010Prop41ColorIndex
 90
       18
102
RTVSPost2010Prop41ColorRGB
 90
        0
102
RTVSPost2010PropOp41
 70
     1
102
RTVSPost2010Prop42
 90
       50
102
RTVSPost2010PropOp42
 70
     1
102
RTVSPost2010Prop43
 90
        3
102
RTVSPost2010PropOp43
 70
     1
102
RTVSPost2010Prop44ColorIndex
 90
        5
102
RTVSPost2010Prop44ColorRGB
 90
      255
102
RTVSPost2010PropOp44
 70
     1
102
RTVSPost2010Prop45
280
     0
102
RTVSPost2010PropOp45
 70
     1
102
RTVSPost2010Prop46
 90
       50
102
RTVSPost2010PropOp46
 70
     1
102
RTVSPost2010Prop47
 90
       50
102
RTVSPost2010PropOp47
 70
     1
102
RTVSPost2010Prop48
 90
       50
102
RTVSPost2010PropOp48
 70
     1
102
RTVSPost2010Prop49
280
     0
102
RTVSPost2010PropOp49
 70
     1
102
RTVSPost2010Prop50
 90
       50
102
RTVSPost2010PropOp50
 70
     1
102
RTVSPost2010Prop51ColorIndex
 90
      256
102
RTVSPost2010Prop51ColorRGB
 90
-16777216
102
RTVSPost2010PropOp51
 70
     0
102
RTVSPost2010Prop52
140
1.0
102
RTVSPost2010PropOp52
 70
     0
102
RTVSPost2010Prop53
 90
        2
102
RTVSPost2010PropOp53
 70
     1
102
RTVSPost2010Prop54
  1
strokes_ogs.tif
102
RTVSPost2010PropOp54
 70
     1
102
RTVSPost2010Prop55
280
     0
102
RTVSPost2010PropOp55
 70
     1
102
RTVSPost2010Prop56
140
1.0
102
RTVSPost2010PropOp56
 70
     1
102
RTVSPost2010Prop57
140
1.0
102
RTVSPost2010PropOp57
 70
     1
102
RTVSPropertyOp0
 70
     1
102
RTVSPropertyOp1
 70
     1
102
RTVSPropertyOp2
 70
     1
102
RTVSPropertyOp3
 70
     1
102
RTVSPropertyOp4
 70
     1
102
RTVSPropertyOp5
 70
     1
102
RTVSPropertyOp6
 70
     1
102
RTVSPropertyOp7
 70
     1
102
RTVSPropertyOp8
 70
     1
102
RTVSPropertyOp9
 70
     1
102
RTVSPropertyOp10
 70
     1
102
RTVSPropertyOp11
 70
     1
102
RTVSPropertyOp12
 70
     1
102
RTVSPropertyOp13
 70
     1
102
RTVSPropertyOp14
 70
     1
102
RTVSPropertyOp15
 70
     1
102
RTVSPropertyOp16
 70
     1
102
RTVSPropertyOp17
 70
     1
102
RTVSPropertyOp18
 70
     1
102
RTVSPropertyOp19
 70
     1
102
RTVSPropertyOp20
 70
     1
102
RTVSPropertyOp21
 70
     1
102
RTVSPropertyOp22
 70
     1
102
RTVSPropertyOp23
 70
     1
102
RTVSPropertyOp24
 70
     1
102
RTVSPropertyOp25
 70
     1
102
RTVSPropertyOp26
 70
     1
102
RTVSPropertyOp27
 70
     1
102
RTVSPropertyOp28
 70
     1
102
RTVSPropertyOp29
 70
     1
102
RTVSPropertyOp30
 70
     1
102
RTVSPropertyOp31
 70
     1
102
RTVSPropertyOp32
 70
     1
102
RTVSPropertyOp33
 70
     1
102
RTVSPropertyOp34
 70
     1
102
RTVSPropertyOp35
 70
     1
102
RTVSPropertyOp36
 70
     1
102
RTVSPropertyOp37
 70
     1
102
RTVSPropertyOp38
 70
     1
102
RTVSPropertyOp39
 70
     1
102
RTVSPropertyOp40
 70
     1
102
RTVSPropertyOp41
 70
     1
102
RTVSPropertyOp42
 70
     1
102
RTVSPropertyOp43
 70
     1
102
RTVSPropertyOp44
 70
     1
102
RTVSPropertyOp45
 70
     1
102
RTVSPropertyOp46
 70
     1
102
RTVSPropertyOp47
 70
     1
102
RTVSPropertyOp48
 70
     1
102
RTVSPropertyOp49
 70
     1
102
RTVSPropertyOp50
 70
     1
102
RTVSPropertyOp51
 70
     0
102
RTVSPropertyOp52
 70
     0
102
RTVSPropertyOp53
 70
     1
102
RTVSPropertyOp54
 70
     1
102
RTVSPropertyOp55
 70
     1
102
RTVSPropertyOp56
 70
     1
102
RTVSPropertyOp57
 70
     1
102
RTVSPropertyOp58
 70
     1
102
RTVSPropertyOp59
 70
     1
102
RTVSPropertyOp60
 70
     1
102
RTVSPropertyOp61
 70
     1
102
RTVSPropertyOp62
 70
     1
  0
ENDSEC
  0
EOF
