  0
SECTION
  2
HEADER
  9
$ACADVER
  1
AC1015
  9
$ACADMAINTVER
 70
    18
  9
$DWGCODEPAGE
  3
ANSI_932
  9
$INSBASE
 10
0.0
 20
0.0
 30
0.0
  9
$EXTMIN
 10
-28.50955502865986
 20
0.0
 30
0.0
  9
$EXTMAX
 10
1045.900388606203
 20
269.5945629103217
 30
0.0
  9
$LIMMIN
 10
0.0
 20
0.0
  9
$LIMMAX
 10
420.0
 20
297.0
  9
$ORTHOMODE
 70
     1
  9
$REGENMODE
 70
     1
  9
$FILLMODE
 70
     1
  9
$QTEXTMODE
 70
     0
  9
$MIRRTEXT
 70
     1
  9
$LTSCALE
 40
1.0
  9
$ATTMODE
 70
     1
  9
$TEXTSIZE
 40
30.0
  9
$TRACEWID
 40
0.05
  9
$TEXTSTYLE
  7
SUNPOU
  9
$CLAYER
  8
0
  9
$CELTYPE
  6
BYLAYER
  9
$CECOLOR
 62
     7
  9
$CELTSCALE
 40
1.0
  9
$DISPSILH
 70
     0
  9
$DIMSCALE
 40
96.0
  9
$DIMASZ
 40
3.0
  9
$DIMEXO
 40
2.0
  9
$DIMDLI
 40
0.38
  9
$DIMRND
 40
0.0
  9
$DIMDLE
 40
0.0
  9
$DIMEXE
 40
0.0
  9
$DIMTP
 40
0.0
  9
$DIMTM
 40
0.0
  9
$DIMTXT
 40
2.799999999999998
  9
$DIMCEN
 40
1.0
  9
$DIMTSZ
 40
0.0
  9
$DIMTOL
 70
     0
  9
$DIMLIM
 70
     0
  9
$DIMTIH
 70
     0
  9
$DIMTOH
 70
     0
  9
$DIMSE1
 70
     0
  9
$DIMSE2
 70
     0
  9
$DIMTAD
 70
     1
  9
$DIMZIN
 70
     0
  9
$DIMBLK
  1

  9
$DIMASO
 70
     1
  9
$DIMSHO
 70
     1
  9
$DIMPOST
  1

  9
$DIMAPOST
  1

  9
$DIMALT
 70
     0
  9
$DIMALTD
 70
     2
  9
$DIMALTF
 40
25.4
  9
$DIMLFAC
 40
1.0
  9
$DIMTOFL
 70
     0
  9
$DIMTVP
 40
0.0
  9
$DIMTIX
 70
     1
  9
$DIMSOXD
 70
     0
  9
$DIMSAH
 70
     1
  9
$DIMBLK1
  1
DOTSMALL
  9
$DIMBLK2
  1
DOTSMALL
  9
$DIMSTYLE
  2
STANDARD
  9
$DIMCLRD
 70
    60
  9
$DIMCLRE
 70
    70
  9
$DIMCLRT
 70
    60
  9
$DIMTFAC
 40
0.0642857142857143
  9
$DIMGAP
 40
1.0
  9
$DIMJUST
 70
     0
  9
$DIMSD1
 70
     0
  9
$DIMSD2
 70
     0
  9
$DIMTOLJ
 70
     1
  9
$DIMTZIN
 70
     0
  9
$DIMALTZ
 70
     0
  9
$DIMALTTZ
 70
     0
  9
$DIMUPT
 70
     0
  9
$DIMDEC
 70
     4
  9
$DIMTDEC
 70
     4
  9
$DIMALTU
 70
     2
  9
$DIMALTTD
 70
     2
  9
$DIMTXSTY
  7
STANDARD
  9
$DIMAUNIT
 70
     0
  9
$DIMADEC
 70
     0
  9
$DIMALTRND
 40
0.0
  9
$DIMAZIN
 70
     0
  9
$DIMDSEP
 70
    46
  9
$DIMATFIT
 70
     3
  9
$DIMFRAC
 70
     0
  9
$DIMLDRBLK
  1
DOTSMALL
  9
$DIMLUNIT
 70
     2
  9
$DIMLWD
 70
    -2
  9
$DIMLWE
 70
    -2
  9
$DIMTMOVE
 70
     0
  9
$LUNITS
 70
     4
  9
$LUPREC
 70
     4
  9
$SKETCHINC
 40
0.1
  9
$FILLETRAD
 40
100.0
  9
$AUNITS
 70
     0
  9
$AUPREC
 70
     2
  9
$MENU
  1
acad
  9
$ELEVATION
 40
0.0
  9
$PELEVATION
 40
0.0
  9
$THICKNESS
 40
0.0
  9
$LIMCHECK
 70
     0
  9
$CHAMFERA
 40
0.0
  9
$CHAMFERB
 40
0.0
  9
$CHAMFERC
 40
0.0
  9
$CHAMFERD
 40
0.0
  9
$SKPOLY
 70
     0
  9
$TDCREATE
 40
2450623.676023380
  9
$TDUCREATE
 40
2450623.301023380
  9
$TDUPDATE
 40
2453882.362235128
  9
$TDUUPDATE
 40
2453881.987235128
  9
$TDINDWG
 40
4.6228819329
  9
$TDUSRTIMER
 40
4.6228815741
  9
$USRTIMER
 70
     1
  9
$ANGBASE
 50
0.0
  9
$ANGDIR
 70
     0
  9
$PDMODE
 70
     0
  9
$PDSIZE
 40
0.0
  9
$PLINEWID
 40
0.0
  9
$SPLFRAME
 70
     0
  9
$SPLINETYPE
 70
     6
  9
$SPLINESEGS
 70
     8
  9
$HANDSEED
  5
585
  9
$SURFTAB1
 70
     6
  9
$SURFTAB2
 70
     6
  9
$SURFTYPE
 70
     6
  9
$SURFU
 70
     6
  9
$SURFV
 70
     6
  9
$UCSBASE
  2

  9
$UCSNAME
  2

  9
$UCSORG
 10
0.0
 20
0.0
 30
0.0
  9
$UCSXDIR
 10
1.0
 20
0.0
 30
0.0
  9
$UCSYDIR
 10
0.0
 20
1.0
 30
0.0
  9
$UCSORTHOREF
  2

  9
$UCSORTHOVIEW
 70
     0
  9
$UCSORGTOP
 10
0.0
 20
0.0
 30
0.0
  9
$UCSORGBOTTOM
 10
0.0
 20
0.0
 30
0.0
  9
$UCSORGLEFT
 10
0.0
 20
0.0
 30
0.0
  9
$UCSORGRIGHT
 10
0.0
 20
0.0
 30
0.0
  9
$UCSORGFRONT
 10
0.0
 20
0.0
 30
0.0
  9
$UCSORGBACK
 10
0.0
 20
0.0
 30
0.0
  9
$PUCSBASE
  2

  9
$PUCSNAME
  2

  9
$PUCSORG
 10
0.0
 20
0.0
 30
0.0
  9
$PUCSXDIR
 10
1.0
 20
0.0
 30
0.0
  9
$PUCSYDIR
 10
0.0
 20
1.0
 30
0.0
  9
$PUCSORTHOREF
  2

  9
$PUCSORTHOVIEW
 70
     0
  9
$PUCSORGTOP
 10
0.0
 20
0.0
 30
0.0
  9
$PUCSORGBOTTOM
 10
0.0
 20
0.0
 30
0.0
  9
$PUCSORGLEFT
 10
0.0
 20
0.0
 30
0.0
  9
$PUCSORGRIGHT
 10
0.0
 20
0.0
 30
0.0
  9
$PUCSORGFRONT
 10
0.0
 20
0.0
 30
0.0
  9
$PUCSORGBACK
 10
0.0
 20
0.0
 30
0.0
  9
$USERI1
 70
     0
  9
$USERI2
 70
     0
  9
$USERI3
 70
     0
  9
$USERI4
 70
     0
  9
$USERI5
 70
     0
  9
$USERR1
 40
0.0
  9
$USERR2
 40
0.0
  9
$USERR3
 40
0.0
  9
$USERR4
 40
0.0
  9
$USERR5
 40
0.0
  9
$WORLDVIEW
 70
     1
  9
$SHADEDGE
 70
     3
  9
$SHADEDIF
 70
    70
  9
$TILEMODE
 70
     1
  9
$MAXACTVP
 70
    16
  9
$PINSBASE
 10
0.0
 20
0.0
 30
0.0
  9
$PLIMCHECK
 70
     0
  9
$PEXTMIN
 10
1.000000000000000E+20
 20
1.000000000000000E+20
 30
1.000000000000000E+20
  9
$PEXTMAX
 10
-1.000000000000000E+20
 20
-1.000000000000000E+20
 30
-1.000000000000000E+20
  9
$PLIMMIN
 10
0.0
 20
0.0
  9
$PLIMMAX
 10
12.0
 20
9.0
  9
$UNITMODE
 70
     0
  9
$VISRETAIN
 70
     0
  9
$PLINEGEN
 70
     0
  9
$PSLTSCALE
 70
     1
  9
$TREEDEPTH
 70
  3020
  9
$CMLSTYLE
  2
STANDARD
  9
$CMLJUST
 70
     0
  9
$CMLSCALE
 40
1.0
  9
$PROXYGRAPHICS
 70
     1
  9
$MEASUREMENT
 70
     0
  9
$CELWEIGHT
370
    -1
  9
$ENDCAPS
280
     0
  9
$JOINSTYLE
280
     0
  9
$LWDISPLAY
290
     0
  9
$INSUNITS
 70
     0
  9
$HYPERLINKBASE
  1

  9
$STYLESHEET
  1

  9
$XEDIT
290
     1
  9
$CEPSNTYPE
380
     0
  9
$PSTYLEMODE
290
     1
  9
$FINGERPRINTGUID
  2
{A0CAD341-C41E-4877-BB40-5A0C7212F502}
  9
$VERSIONGUID
  2
{529A5610-9442-48F0-ADFC-B7A8CC638416}
  9
$EXTNAMES
290
     1
  9
$PSVPSCALE
 40
0.0
  9
$OLESTARTUP
290
     0
  0
ENDSEC
  0
SECTION
  2
CLASSES
  0
CLASS
  1
DICTIONARYVAR
  2
AcDbDictionaryVar
  3
ObjectDBX Classes
 90
        0
280
     0
281
     0
  0
CLASS
  1
RASTERVARIABLES
  2
AcDbRasterVariables
  3
ISM
 90
    32768
280
     0
281
     0
  0
CLASS
  1
ACDBDICTIONARYWDFLT
  2
AcDbDictionaryWithDefault
  3
ObjectDBX Classes
 90
        0
280
     0
281
     0
  0
CLASS
  1
ACDBPLACEHOLDER
  2
AcDbPlaceHolder
  3
ObjectDBX Classes
 90
        0
280
     0
281
     0
  0
CLASS
  1
LAYOUT
  2
AcDbLayout
  3
ObjectDBX Classes
 90
        0
280
     0
281
     0
  0
CLASS
  1
AEC_VARS_DWG_SETUP
  2
AecDbVarsDwgSetup
  3
AecBase
 90
    32897
280
     1
281
     0
  0
CLASS
  1
AEC_DISP_REP_MASS_ELEM_MODEL
  2
AecDbDispRepMassElemModel
  3
AecBase
 90
    32897
280
     1
281
     0
  0
CLASS
  1
AEC_DISP_PROPS_MASS_ELEM_MODEL
  2
AecDbDispPropsMassElem
  3
AecBase
 90
    32897
280
     1
281
     0
  0
CLASS
  1
AEC_DISP_REP_MASS_ELEM_SCHEM
  2
AecDbDispRepMassElemSchem
  3
AecBase
 90
    32897
280
     1
281
     0
  0
CLASS
  1
AEC_DISP_REP_DOOR_ELEV
  2
AecDbDispRepDoorElev
  3
AecArchBase
 90
    32897
280
     1
281
     0
  0
CLASS
  1
AEC_DISP_PROPS_DOOR
  2
AecDbDispPropsDoor
  3
AecArchBase
 90
    32897
280
     1
281
     0
  0
CLASS
  1
AEC_DISP_REP_MASKBLOCK_REF
  2
AecDbDispRepMaskBlockRef
  3
AecBase
 90
    32897
280
     1
281
     0
  0
CLASS
  1
AEC_DISP_PROPS_MASKBLOCK
  2
AecDbDispPropsMaskBlock
  3
AecBase
 90
    32897
280
     1
281
     0
  0
CLASS
  1
AEC_DISP_REP_LAYOUT_GRID3D
  2
AecDbDispRepLayoutGrid3d
  3
AecBase
 90
    32897
280
     1
281
     0
  0
CLASS
  1
AEC_DISP_PROPS_LAYOUT_GRID3D
  2
AecDbDispPropsLayoutGrid3d
  3
AecBase
 90
    32897
280
     1
281
     0
  0
CLASS
  1
AEC_DISP_REP_ENT_REF
  2
AecDbDispRepEntRef
  3
AecBase
 90
    32897
280
     1
281
     0
  0
CLASS
  1
AEC_DISP_PROPS_ENT_REF
  2
AecDbDispPropsEntRef
  3
AecBase
 90
    32897
280
     1
281
     0
  0
CLASS
  1
AEC_DISP_REP_CLIP_VOLUME_RESULT_SUBDIV
  2
AecDbDispRepClipVolResSubDiv
  3
AecBase
 90
    32897
280
     1
281
     0
  0
CLASS
  1
AEC_DISP_PROPS_CLIP_VOLUME_RESULT
  2
AecDbDispPropsClipVolResSubDiv
  3
AecBase
 90
    32897
280
     1
281
     0
  0
CLASS
  1
AEC_DISP_REP_CLIP_VOLUME_RESULT
  2
AecDbDispRepClipVolResult
  3
AecBase
 90
    32897
280
     1
281
     0
  0
CLASS
  1
AEC_DISP_REP_CLIP_VOLUME_PLAN
  2
AecDbDispRepClipVolPlan
  3
AecBase
 90
    32897
280
     1
281
     0
  0
CLASS
  1
AEC_DISP_PROPS_CLIP_VOLUME
  2
AecDbDispPropsClipVol
  3
AecBase
 90
    32897
280
     1
281
     0
  0
CLASS
  1
AEC_DISP_REP_CLIP_VOLUME_MODEL
  2
AecDbDispRepClipVolModel
  3
AecBase
 90
    32897
280
     1
281
     0
  0
CLASS
  1
AEC_DISP_REP_ANCHOR_ENT_TO_NODE
  2
AecDbDispRepAnchorEntToNode
  3
AecBase
 90
    32897
280
     1
281
     0
  0
CLASS
  1
AEC_DISP_PROPS_ENT
  2
AecDbDispPropsEnt
  3
AecBase
 90
    32897
280
     1
281
     0
  0
CLASS
  1
AEC_DISP_REP_LAYOUT_GRID2D
  2
AecDbDispRepLayoutGrid2d
  3
AecBase
 90
    32897
280
     1
281
     0
  0
CLASS
  1
AEC_DISP_PROPS_LAYOUT_GRID2D
  2
AecDbDispPropsLayoutGrid2d
  3
AecBase
 90
    32897
280
     1
281
     0
  0
CLASS
  1
AEC_DISP_REP_LAYOUT_CURVE
  2
AecDbDispRepLayoutCurve
  3
AecBase
 90
    32897
280
     1
281
     0
  0
CLASS
  1
AEC_DISP_PROPS_LAYOUT_CURVE
  2
AecDbDispPropsLayoutCurve
  3
AecBase
 90
    32897
280
     1
281
     0
  0
CLASS
  1
AEC_DISP_REP_ANCHOR
  2
AecDbDispRepAnchor
  3
AecBase
 90
    32897
280
     1
281
     0
  0
CLASS
  1
AEC_DISP_REP_CAMERA
  2
AecDbDispRepCamera
  3
AecBase
 90
    32897
280
     1
281
     0
  0
CLASS
  1
AEC_DISP_PROPS_CAMERA
  2
AecDbDispPropsCamera
  3
AecBase
 90
    32897
280
     1
281
     0
  0
CLASS
  1
AEC_DISP_REP_SLICE
  2
AecDbDispRepSlice
  3
AecBase
 90
    32897
280
     1
281
     0
  0
CLASS
  1
AEC_DISP_PROPS_SLICE
  2
AecDbDispPropsSlice
  3
AecBase
 90
    32897
280
     1
281
     0
  0
CLASS
  1
AEC_DISP_REP_MVBLOCK_REF
  2
AecDbDispRepMvBlockRef
  3
AecBase
 90
    32897
280
     1
281
     0
  0
CLASS
  1
AEC_DISP_REP_MVBLOCK_REF_MODEL
  2
AecDbDispRepMvBlockRefModel
  3
AecBase
 90
    32897
280
     1
281
     0
  0
CLASS
  1
AEC_DISP_REP_MASS_GROUP_MODEL
  2
AecDbDispRepMassGroupModel
  3
AecBase
 90
    32897
280
     1
281
     0
  0
CLASS
  1
AEC_DISP_PROPS_MASS_GROUP
  2
AecDbDispPropsMassGroup
  3
AecBase
 90
    32897
280
     1
281
     0
  0
CLASS
  1
AEC_DISP_REP_MASS_GROUP_PLAN
  2
AecDbDispRepMassGroupPlan
  3
AecBase
 90
    32897
280
     1
281
     0
  0
CLASS
  1
AEC_DISP_REP_DOOR_RCP
  2
AecDbDispRepDoorRcp
  3
AecArchBase
 90
    32897
280
     1
281
     0
  0
CLASS
  1
AEC_DISP_REP_DOOR_NOMINAL
  2
AecDbDispRepDoorNominal
  3
AecArchBase
 90
    32897
280
     1
281
     0
  0
CLASS
  1
AEC_DISP_PROPS_DOOR_NOMINAL
  2
AecDbDispPropsDoorNominal
  3
AecArchBase
 90
    32897
280
     1
281
     0
  0
CLASS
  1
AEC_DISP_REP_DOOR_PLAN
  2
AecDbDispRepDoorPlan
  3
AecArchBase
 90
    32897
280
     1
281
     0
  0
CLASS
  1
AEC_DISP_REP_DOOR_MODEL
  2
AecDbDispRepDoorModel
  3
AecArchBase
 90
    32897
280
     1
281
     0
  0
CLASS
  1
AEC_DISP_REP_MVBLOCK_REF_RCP
  2
AecDbDispRepMvBlockRefRcp
  3
AecArchBase
 90
    32897
280
     1
281
     0
  0
CLASS
  1
AEC_DISP_REP_MASS_GROUP_RCP
  2
AecDbDispRepMassGroupRcp
  3
AecArchBase
 90
    32897
280
     1
281
     0
  0
CLASS
  1
AEC_DISP_REP_MASS_ELEM_RCP
  2
AecDbDispRepMassElemRcp
  3
AecArchBase
 90
    32897
280
     1
281
     0
  0
CLASS
  1
AEC_DISP_REP_MASKBLOCK_REF_RCP
  2
AecDbDispRepMaskBlockRefRcp
  3
AecArchBase
 90
    32897
280
     1
281
     0
  0
CLASS
  1
AEC_DISP_REP_COLUMN_GRID_RCP
  2
AecDbDispRepColumnGridRcp
  3
AecArchBase
 90
    32897
280
     1
281
     0
  0
CLASS
  1
AEC_DISP_REP_COLUMN_GRID_MODEL
  2
AecDbDispRepColumnGridModel
  3
AecArchBase
 90
    32897
280
     1
281
     0
  0
CLASS
  1
AEC_DISP_REP_COLUMN_GRID
  2
AecDbDispRepColumnGrid
  3
AecArchBase
 90
    32897
280
     1
281
     0
  0
CLASS
  1
AEC_DISP_REP_CEILING_GRID_RCP
  2
AecDbDispRepCeilingGridRcp
  3
AecArchBase
 90
    32897
280
     1
281
     0
  0
CLASS
  1
AEC_DISP_REP_CEILING_GRID_MODEL
  2
AecDbDispRepCeilingGridModel
  3
AecArchBase
 90
    32897
280
     1
281
     0
  0
CLASS
  1
AEC_DISP_REP_CEILING_GRID
  2
AecDbDispRepCeilingGrid
  3
AecArchBase
 90
    33661
280
     1
281
     0
  0
CLASS
  1
AEC_DISP_REP_BDG_SECTION_SUBDIV
  2
AecDbDispRepBdgSectionSubDiv
  3
AecArchBase
 90
    32897
280
     1
281
     0
  0
CLASS
  1
AEC_DISP_REP_BDG_SECTION_MODEL
  2
AecDbDispRepBdgSectionModel
  3
AecArchBase
 90
    32897
280
     1
281
     0
  0
CLASS
  1
AEC_DISP_REP_BDG_SECTIONLINE_RCP
  2
AecDbDispRepBdgSectionLineRcp
  3
AecArchBase
 90
    32897
280
     1
281
     0
  0
CLASS
  1
AEC_DISP_REP_BDG_SECTIONLINE_PLAN
  2
AecDbDispRepBdgSectionLinePlan
  3
AecArchBase
 90
    32897
280
     1
281
     0
  0
CLASS
  1
AEC_DISP_REP_BDG_ELEVLINE_RCP
  2
AecDbDispRepBdgElevLineRcp
  3
AecArchBase
 90
    32897
280
     1
281
     0
  0
CLASS
  1
AEC_DISP_REP_BDG_ELEVLINE_PLAN
  2
AecDbDispRepBdgElevLinePlan
  3
AecArchBase
 90
    32897
280
     1
281
     0
  0
CLASS
  1
AEC_DISP_REP_BDG_SECTIONLINE_MODEL
  2
AecDbDispRepBdgSectionLineModel
  3
AecArchBase
 90
    32897
280
     1
281
     0
  0
CLASS
  1
AEC_DISP_REP_BDG_ELEVLINE_MODEL
  2
AecDbDispRepBdgElevLineModel
  3
AecArchBase
 90
    32897
280
     1
281
     0
  0
CLASS
  1
AEC_DISP_REP_ANCHOR_BUB_TO_GRID_RCP
  2
AecDbDispRepAnchorBubToGridRcp
  3
AecArchBase
 90
    32897
280
     1
281
     0
  0
CLASS
  1
AEC_DISP_REP_ANCHOR_BUB_TO_GRID_MODEL
  2
AecDbDispRepAnchorBubToGridMdl
  3
AecArchBase
 90
    32897
280
     1
281
     0
  0
CLASS
  1
AEC_DISP_REP_ANCHOR_BUB_TO_GRID
  2
AecDbDispRepAnchorBubToGrid
  3
AecArchBase
 90
    32897
280
     1
281
     0
  0
CLASS
  1
AEC_DISP_REP_WINDOW_RCP
  2
AecDbDispRepWindowRcp
  3
AecArchBase
 90
    32897
280
     1
281
     0
  0
CLASS
  1
AEC_DISP_PROPS_WINDOW
  2
AecDbDispPropsWindow
  3
AecArchBase
 90
    32897
280
     1
281
     0
  0
CLASS
  1
AEC_DISP_REP_ROOF_RCP
  2
AecDbDispRepRoofRcp
  3
AecArchBase
 90
    32897
280
     1
281
     0
  0
CLASS
  1
AEC_DISP_PROPS_ROOF
  2
AecDbDispPropsRoof
  3
AecArchBase
 90
    32897
280
     1
281
     0
  0
CLASS
  1
AEC_DISP_REP_ROOF_PLAN
  2
AecDbDispRepRoofPlan
  3
AecArchBase
 90
    32897
280
     1
281
     0
  0
CLASS
  1
AEC_DISP_REP_WINDOW_SILL_PLAN
  2
AecDbDispRepWindowSillPlan
  3
AecArchBase
 90
    32897
280
     1
281
     0
  0
CLASS
  1
AEC_DISP_PROPS_WINDOW_SILL_PLAN
  2
AecDbDispPropsWindowSillPlan
  3
AecArchBase
 90
    32897
280
     1
281
     0
  0
CLASS
  1
AEC_DISP_REP_SPACE_PLAN
  2
AecDbDispRepSpacePlan
  3
AecArchBase
 90
    32897
280
     1
281
     0
  0
CLASS
  1
AEC_DISP_PROPS_SPACE_PLAN
  2
AecDbDispPropsSpacePlan
  3
AecArchBase
 90
    32897
280
     1
281
     0
  0
CLASS
  1
AEC_DISP_REP_SPACE_MODEL
  2
AecDbDispRepSpaceModel
  3
AecArchBase
 90
    32897
280
     1
281
     0
  0
CLASS
  1
AEC_DISP_PROPS_SPACE_MODEL
  2
AecDbDispPropsSpaceModel
  3
AecArchBase
 90
    32897
280
     1
281
     0
  0
CLASS
  1
AEC_DISP_REP_WINDOW_MODEL
  2
AecDbDispRepWindowModel
  3
AecArchBase
 90
    32897
280
     1
281
     0
  0
CLASS
  1
AEC_DISP_REP_WINDOW_NOMINAL
  2
AecDbDispRepWindowNominal
  3
AecArchBase
 90
    32897
280
     1
281
     0
  0
CLASS
  1
AEC_DISP_PROPS_WINDOW_NOMINAL
  2
AecDbDispPropsWindowNominal
  3
AecArchBase
 90
    32897
280
     1
281
     0
  0
CLASS
  1
AEC_DISP_REP_OPENING
  2
AecDbDispRepOpening
  3
AecArchBase
 90
    32897
280
     1
281
     0
  0
CLASS
  1
AEC_DISP_PROPS_OPENING
  2
AecDbDispPropsOpening
  3
AecArchBase
 90
    32897
280
     1
281
     0
  0
CLASS
  1
AEC_DISP_REP_OPENING_MODEL
  2
AecDbDispRepOpeningModel
  3
AecArchBase
 90
    32897
280
     1
281
     0
  0
CLASS
  1
AEC_DISP_REP_RAILING_PLAN
  2
AecDbDispRepRailingPlan
  3
AecArchBase
 90
    32897
280
     1
281
     0
  0
CLASS
  1
AEC_DISP_PROPS_RAILING_PLAN
  2
AecDbDispPropsRailingPlan
  3
AecArchBase
 90
    32897
280
     1
281
     0
  0
CLASS
  1
AEC_DISP_REP_RAILING_MODEL
  2
AecDbDispRepRailingModel
  3
AecArchBase
 90
    32897
280
     1
281
     0
  0
CLASS
  1
AEC_DISP_PROPS_RAILING_MODEL
  2
AecDbDispPropsRailingModel
  3
AecArchBase
 90
    32897
280
     1
281
     0
  0
CLASS
  1
AEC_DISP_REP_WINDOW_ELEV
  2
AecDbDispRepWindowElev
  3
AecArchBase
 90
    32897
280
     1
281
     0
  0
CLASS
  1
AEC_DISP_REP_DOOR_THRESHOLD_PLAN
  2
AecDbDispRepDoorThresholdPlan
  3
AecArchBase
 90
    32897
280
     1
281
     0
  0
CLASS
  1
AEC_DISP_PROPS_DOOR_THRESHOLD_PLAN
  2
AecDbDispPropsDoorThresholdPlan
  3
AecArchBase
 90
    32897
280
     1
281
     0
  0
CLASS
  1
AEC_DISP_REP_ROOF_MODEL
  2
AecDbDispRepRoofModel
  3
AecArchBase
 90
    32897
280
     1
281
     0
  0
CLASS
  1
AEC_DISP_REP_WINDOW_PLAN
  2
AecDbDispRepWindowPlan
  3
AecArchBase
 90
    32897
280
     1
281
     0
  0
CLASS
  1
AEC_DISP_REP_WALL_SCHEM
  2
AecDbDispRepWallSchem
  3
AecArchBase
 90
    32897
280
     1
281
     0
  0
CLASS
  1
AEC_DISP_PROPS_WALL_SCHEM
  2
AecDbDispPropsWallSchem
  3
AecArchBase
 90
    32897
280
     1
281
     0
  0
CLASS
  1
AEC_DISP_REP_WALL_RCP
  2
AecDbDispRepWallRcp
  3
AecArchBase
 90
    32897
280
     1
281
     0
  0
CLASS
  1
AEC_DISP_PROPS_WALL_PLAN
  2
AecDbDispPropsWallPlan
  3
AecArchBase
 90
    32897
280
     1
281
     0
  0
CLASS
  1
AEC_DISP_REP_WALL_PLAN
  2
AecDbDispRepWallPlan
  3
AecArchBase
 90
    32897
280
     1
281
     0
  0
CLASS
  1
AEC_DISP_REP_WALL_MODEL
  2
AecDbDispRepWallModel
  3
AecArchBase
 90
    32897
280
     1
281
     0
  0
CLASS
  1
AEC_DISP_PROPS_WALL
  2
AecDbDispPropsWall
  3
AecArchBase
 90
    32897
280
     1
281
     0
  0
CLASS
  1
AEC_DISP_REP_WALL_GRAPH
  2
AecDbDispRepWallGraph
  3
AecArchBase
 90
    32897
280
     1
281
     0
  0
CLASS
  1
AEC_DISP_REP_STAIR_RCP
  2
AecDbDispRepStairRcp
  3
AecArchBase
 90
    32897
280
     1
281
     0
  0
CLASS
  1
AEC_DISP_PROPS_STAIR_PLAN
  2
AecDbDispPropsStairPlan
  3
AecArchBase
 90
    32897
280
     1
281
     0
  0
CLASS
  1
AEC_DISP_REP_STAIR_PLAN
  2
AecDbDispRepStairPlan
  3
AecArchBase
 90
    32897
280
     1
281
     0
  0
CLASS
  1
AEC_DISP_REP_STAIR_MODEL
  2
AecDbDispRepStairModel
  3
AecArchBase
 90
    32897
280
     1
281
     0
  0
CLASS
  1
AEC_DISP_PROPS_STAIR_MODEL
  2
AecDbDispPropsStairModel
  3
AecArchBase
 90
    32897
280
     1
281
     0
  0
CLASS
  1
AEC_DISP_REP_SPACE_BOUNDARY_SCHEM
  2
AecDbDispRepSpaceBoundarySketch
  3
AecArchBase
 90
    32897
280
     1
281
     0
  0
CLASS
  1
AEC_DISP_REP_SPACE_BOUNDARY_PLAN
  2
AecDbDispRepSpaceBoundaryPlan
  3
AecArchBase
 90
    32897
280
     1
281
     0
  0
CLASS
  1
AEC_DISP_REP_SPACE_BOUNDARY_MODEL
  2
AecDbDispRepSpaceBoundaryModel
  3
AecArchBase
 90
    32897
280
     1
281
     0
  0
CLASS
  1
AEC_DISP_REP_SPACE_BOUNDARY_DIAGRAM
  2
AecDbDispRepSpaceBoundaryDgrm
  3
AecArchBase
 90
    32897
280
     1
281
     0
  0
CLASS
  1
AEC_DISP_REP_SPACE_VOLUME
  2
AecDbDispRepSpaceVolume
  3
AecArchBase
 90
    32897
280
     1
281
     0
  0
CLASS
  1
AEC_DISP_REP_SPACE_RCP
  2
AecDbDispRepSpaceRcp
  3
AecArchBase
 90
    32897
280
     1
281
     0
  0
CLASS
  1
AEC_DISP_REP_ANCHOR_TAG_TO_ENT
  2
AecDbDispRepAnchorTagToEnt
  3
AecScheduleData
 90
    32897
280
     1
281
     0
  0
CLASS
  1
AEC_DISP_REP_SCHEDULE_TABLE
  2
AecDbDispRepScheduleTable
  3
AecSchedule
 90
    32897
280
     1
281
     0
  0
CLASS
  1
AEC_DISP_PROPS_SCHEDULE_TABLE
  2
AecDbDispPropsScheduleTable
  3
AecSchedule
 90
    32897
280
     1
281
     0
  0
CLASS
  1
AEC_DISP_REP_SET
  2
AecDbDispRepSet
  3
AecBase
 90
    32897
280
     1
281
     0
  0
CLASS
  1
AEC_DISP_REP_CONFIG
  2
AecDbDispRepConfig
  3
AecBase
 90
    32897
280
     1
281
     0
  0
CLASS
  1
TABLESTYLE
  2
AcDbTableStyle
  3
ObjectDBX Classes
 90
     4095
280
     0
281
     0
  0
CLASS
  1
MATERIAL
  2
AcDbMaterial
  3
ObjectDBX Classes
 90
     1153
280
     0
281
     0
  0
CLASS
  1
VISUALSTYLE
  2
AcDbVisualStyle
  3
ObjectDBX Classes
 90
     4095
280
     0
281
     0
  0
CLASS
  1
SCALE
  2
AcDbScale
  3
ObjectDBX Classes
 90
     1153
280
     0
281
     0
  0
CLASS
  1
MLEADERSTYLE
  2
AcDbMLeaderStyle
  3
ACDB_MLEADERSTYLE_CLASS
 90
    36863
280
     0
281
     0
  0
CLASS
  1
ACDBSECTIONVIEWSTYLE
  2
AcDbSectionViewStyle
  3
ObjectDBX Classes
 90
    33793
280
     0
281
     0
  0
CLASS
  1
ACDBDETAILVIEWSTYLE
  2
AcDbDetailViewStyle
  3
ObjectDBX Classes
 90
    33793
280
     0
281
     0
  0
CLASS
  1
EXACXREFPANELOBJECT
  2
ExAcXREFPanelObject
  3
EXAC_ESW
 90
    33793
280
     0
281
     0
  0
CLASS
  1
NPOCOLLECTION
  2
AcDbImpNonPersistentObjectsCollection
  3
ObjectDBX Classes
 90
    33921
280
     0
281
     0
  0
CLASS
  1
CELLSTYLEMAP
  2
AcDbCellStyleMap
  3
ObjectDBX Classes
 90
     1152
280
     0
281
     0
  0
ENDSEC
  0
SECTION
  2
TABLES
  0
TABLE
  2
VPORT
  5
2F
330
0
100
AcDbSymbolTable
 70
     1
  0
VPORT
  5
30
330
2F
100
AcDbSymbolTableRecord
100
AcDbViewportTableRecord
  2
*Active
 70
     0
 10
0.0
 20
0.0
 11
1.0
 21
1.0
 12
476.6506311755596
 22
140.2246982303218
 13
0.0
 23
0.0
 14
1.0
 24
1.0
 15
0.0
 25
0.0
 16
0.0
 26
0.0
 36
1.0
 17
0.0
 27
0.0
 37
0.0
 40
638.1737318104524
 41
2.095558546433378
 42
50.0
 43
0.0
 44
0.0
 50
0.0
 51
0.0
 71
     0
 72
 20000
 73
     1
 74
     1
 75
     0
 76
     0
 77
     0
 78
     0
281
     0
 65
     1
110
0.0
120
0.0
130
0.0
111
1.0
121
0.0
131
0.0
112
0.0
122
1.0
132
0.0
 79
     0
146
0.0
1001
ACAD_NAV_VCDISPLAY
1070
     3
  0
ENDTAB
  0
TABLE
  2
LTYPE
  5
2A
330
0
100
AcDbSymbolTable
 70
     1
  0
LTYPE
  5
2B
330
2A
100
AcDbSymbolTableRecord
100
AcDbLinetypeTableRecord
  2
BYBLOCK
 70
     0
  3

 72
    65
 73
     0
 40
0.0
  0
LTYPE
  5
2C
330
2A
100
AcDbSymbolTableRecord
100
AcDbLinetypeTableRecord
  2
BYLAYER
 70
     0
  3

 72
    65
 73
     0
 40
0.0
  0
LTYPE
  5
14
330
2A
100
AcDbSymbolTableRecord
100
AcDbLinetypeTableRecord
  2
CONTINUOUS
 70
     0
  3
Solid line
 72
    65
 73
     0
 40
0.0
  0
ENDTAB
  0
TABLE
  2
LAYER
  5
26
330
0
100
AcDbSymbolTable
 70
     6
  0
LAYER
  5
6
330
26
100
AcDbSymbolTableRecord
100
AcDbLayerTableRecord
  2
0
 70
     0
 62
     7
  6
CONTINUOUS
370
    -3
390
7
  0
LAYER
  5
54C
330
26
100
AcDbSymbolTableRecord
100
AcDbLayerTableRecord
  2
DEFPOINTS
 70
     0
 62
     7
  6
CONTINUOUS
290
     0
370
    -3
390
7
  0
LAYER
  5
53C
330
26
100
AcDbSymbolTableRecord
100
AcDbLayerTableRecord
  2
SUNPOU
 70
     0
 62
    70
  6
CONTINUOUS
370
    -3
390
7
  0
LAYER
  5
62
330
26
100
AcDbSymbolTableRecord
100
AcDbLayerTableRecord
  2
KIJUN
 70
     0
 62
     7
  6
CONTINUOUS
370
    -3
390
7
  0
LAYER
  5
561
330
26
100
AcDbSymbolTableRecord
100
AcDbLayerTableRecord
  2
WAKU
 70
     0
 62
     1
  6
CONTINUOUS
370
    -3
390
7
  0
LAYER
  5
55F
330
26
100
AcDbSymbolTableRecord
100
AcDbLayerTableRecord
  2
HOJO
 70
     0
 62
     3
  6
CONTINUOUS
370
    -3
390
7
  0
ENDTAB
  0
TABLE
  2
STYLE
  5
27
330
0
100
AcDbSymbolTable
 70
     3
  0
STYLE
  5
28
330
27
100
AcDbSymbolTableRecord
100
AcDbTextStyleTableRecord
  2
STANDARD
 70
     0
 40
0.0
 41
1.0
 50
0.0
 71
     0
 42
0.2
  3
txt
  4

  0
STYLE
  5
4B
330
27
100
AcDbSymbolTableRecord
100
AcDbTextStyleTableRecord
  2
SUNPOU
 70
     0
 40
0.0
 41
1.0
 50
0.0
 71
     0
 42
30.0
  3
txt
  4
bigfont
  0
STYLE
  5
54A
330
27
100
AcDbSymbolTableRecord
100
AcDbTextStyleTableRecord
  2
LIFE
 70
     0
 40
0.0
 41
0.7
 50
0.0
 71
     0
 42
10.0
  3
romans
  4
extfont
  0
ENDTAB
  0
TABLE
  2
VIEW
  5
2D
330
0
100
AcDbSymbolTable
 70
     0
  0
ENDTAB
  0
TABLE
  2
UCS
  5
2E
330
0
100
AcDbSymbolTable
 70
     0
  0
ENDTAB
  0
TABLE
  2
APPID
  5
34
330
0
100
AcDbSymbolTable
 70
     2
  0
APPID
  5
A
330
34
100
AcDbSymbolTableRecord
100
AcDbRegAppTableRecord
  2
ACAD
 70
     0
  0
APPID
  5
33
330
34
100
AcDbSymbolTableRecord
100
AcDbRegAppTableRecord
  2
ACAD_NAV_VCDISPLAY
 70
     0
  0
ENDTAB
  0
TABLE
  2
DIMSTYLE
  5
35
330
0
100
AcDbSymbolTable
 70
     2
100
AcDbDimStyleTable
 71
     1
340
36
  0
DIMSTYLE
105
36
330
35
100
AcDbSymbolTableRecord
100
AcDbDimStyleTableRecord
  2
STANDARD
 70
     0
 41
3.0
 42
2.0
 44
0.0
 73
     0
 74
     0
 77
     1
140
2.799999999999998
141
1.0
146
0.0642857142857143
147
1.0
173
     1
174
     1
176
    60
177
    70
178
    60
271
     0
340
28
341
37
343
37
344
37
  0
DIMSTYLE
105
550
102
{ACAD_REACTORS
330
53B
330
551
102
}
330
35
100
AcDbSymbolTableRecord
100
AcDbDimStyleTableRecord
  2
STANDARD$0
 70
     0
 40
2.0
 41
1.0
 42
2.0
 43
0.0
 44
1.0
 73
     0
 74
     0
 77
     3
 78
     9
140
4.5
141
0.0
147
1.0
172
     1
173
     1
178
     3
271
     2
340
54A
341
543
343
543
344
543
  0
ENDTAB
  0
TABLE
  2
BLOCK_RECORD
  5
1
330
0
100
AcDbSymbolTable
 70
     4
  0
BLOCK_RECORD
  5
2
102
{ACAD_XDICTIONARY
360
3
102
}
330
1
100
AcDbSymbolTableRecord
100
AcDbBlockTableRecord
  2
*MODEL_SPACE
340
1E
  0
BLOCK_RECORD
  5
20
102
{ACAD_XDICTIONARY
360
21
102
}
330
1
100
AcDbSymbolTableRecord
100
AcDbBlockTableRecord
  2
*PAPER_SPACE
340
25
  0
BLOCK_RECORD
  5
37
330
1
100
AcDbSymbolTableRecord
100
AcDbBlockTableRecord
  2
_DOTSMALL
340
0
  0
BLOCK_RECORD
  5
543
330
1
100
AcDbSymbolTableRecord
100
AcDbBlockTableRecord
  2
_DOT
340
0
102
{BLKREFS
331
542
331
548
331
557
331
558
102
}
  0
BLOCK_RECORD
  5
53D
330
1
100
AcDbSymbolTableRecord
100
AcDbBlockTableRecord
  2
*D2
340
0
  0
BLOCK_RECORD
  5
552
330
1
100
AcDbSymbolTableRecord
100
AcDbBlockTableRecord
  2
*D3
340
0
  0
ENDTAB
  0
ENDSEC
  0
SECTION
  2
BLOCKS
  0
BLOCK
  5
5
330
2
100
AcDbEntity
  8
0
100
AcDbBlockBegin
  2
*MODEL_SPACE
 70
     0
 10
0.0
 20
0.0
 30
0.0
  3
*MODEL_SPACE
  1

  0
ENDBLK
  5
1D
330
2
100
AcDbEntity
  8
0
100
AcDbBlockEnd
  0
BLOCK
  5
23
330
20
100
AcDbEntity
 67
     1
  8
0
100
AcDbBlockBegin
  2
*PAPER_SPACE
 70
     0
 10
0.0
 20
0.0
 30
0.0
  3
*PAPER_SPACE
  1

  0
ENDBLK
  5
24
330
20
100
AcDbEntity
 67
     1
  8
0
100
AcDbBlockEnd
  0
BLOCK
  5
38
330
37
100
AcDbEntity
  8
0
100
AcDbBlockBegin
  2
_DOTSMALL
 70
     0
 10
0.0
 20
0.0
 30
0.0
  3
_DOTSMALL
  1

  0
LWPOLYLINE
  5
39
330
37
100
AcDbEntity
  8
0
  6
ByBlock
 62
     0
100
AcDbPolyline
 90
        2
 70
     1
 43
0.5
 10
-0.0625
 20
0.0
 42
1.0
 10
0.0625
 20
0.0
 42
1.0
  0
ENDBLK
  5
3A
330
37
100
AcDbEntity
  8
0
100
AcDbBlockEnd
  0
BLOCK
  5
544
330
543
100
AcDbEntity
  8
0
100
AcDbBlockBegin
  2
_DOT
 70
     0
 10
0.0
 20
0.0
 30
0.0
  3
_DOT
  1

  0
LWPOLYLINE
  5
545
330
543
100
AcDbEntity
  8
0
  6
ByBlock
 62
     0
100
AcDbPolyline
 90
        2
 70
     1
 43
0.5
 10
-0.25
 20
0.0
 42
1.0
 10
0.25
 20
0.0
 42
1.0
  0
LINE
  5
546
330
543
100
AcDbEntity
  8
0
  6
ByBlock
 62
     0
100
AcDbLine
 10
-0.5
 20
0.0
 30
0.0
 11
-1.0
 21
0.0
 31
0.0
  0
ENDBLK
  5
547
330
543
100
AcDbEntity
  8
0
100
AcDbBlockEnd
  0
BLOCK
  5
53E
330
53D
100
AcDbEntity
  8
0
 62
     7
100
AcDbBlockBegin
  2
*D2
 70
     1
 10
0.0
 20
0.0
 30
0.0
  3
*D2
  1

  0
LINE
  5
53F
330
53D
100
AcDbEntity
  8
SUNPOU
 62
    70
370
    -2
100
AcDbLine
 10
23.85424782035516
 20
118.4546237783578
 30
0.0
 11
11.30228751162262
 21
118.4546237783578
 31
0.0
  0
LINE
  5
540
330
53D
100
AcDbEntity
  8
SUNPOU
 62
    70
370
    -2
100
AcDbLine
 10
23.85424782035516
 20
28.45462377835787
 30
0.0
 11
11.3022875116226
 21
28.45462377835787
 31
0.0
  0
LINE
  5
541
330
53D
100
AcDbEntity
  8
SUNPOU
 62
    60
370
    -2
100
AcDbLine
 10
11.30228751162262
 20
117.4546237783578
 30
0.0
 11
11.3022875116226
 21
29.45462377835788
 31
0.0
  0
INSERT
  5
542
330
53D
100
AcDbEntity
  8
SUNPOU
 62
    60
370
    -2
100
AcDbBlockReference
  2
_DOT
 10
11.30228751162262
 20
118.4546237783578
 30
0.0
 50
90.0
  0
INSERT
  5
548
330
53D
100
AcDbEntity
  8
SUNPOU
 62
    60
370
    -2
100
AcDbBlockReference
  2
_DOT
 10
11.3022875116226
 20
28.45462377835787
 30
0.0
 50
270.0
  0
MTEXT
  5
549
330
53D
100
AcDbEntity
  8
SUNPOU
 62
    60
100
AcDbMText
 10
6.302287511622597
 20
73.45462377835783
 30
0.0
 40
6.0
 41
0.0
 71
     5
 72
     1
  1
\A1;90
  7
LIFE
 11
0.0000000000000001
 21
1.0
 31
0.0
 73
     1
 44
1.0
1001
ACAD
1000
MTEXTBEGIN
1070
    73
1070
     1
1070
    44
1040
1.0
1070
    74
1070
     0
1000
MTEXTEND
  0
POINT
  5
54B
330
53D
100
AcDbEntity
  8
DEFPOINTS
 62
     0
100
AcDbPoint
 10
25.85424782035516
 20
118.4546237783578
 30
0.0
  0
POINT
  5
54D
330
53D
100
AcDbEntity
  8
DEFPOINTS
 62
     0
100
AcDbPoint
 10
25.85424782035516
 20
28.45462377835787
 30
0.0
  0
POINT
  5
54E
330
53D
100
AcDbEntity
  8
DEFPOINTS
 62
     0
100
AcDbPoint
 10
11.3022875116226
 20
28.45462377835787
 30
0.0
  0
ENDBLK
  5
54F
330
53D
100
AcDbEntity
  8
0
 62
     7
100
AcDbBlockEnd
  0
BLOCK
  5
553
330
552
100
AcDbEntity
  8
0
 62
     7
100
AcDbBlockBegin
  2
*D3
 70
     1
 10
0.0
 20
0.0
 30
0.0
  3
*D3
  1

  0
LINE
  5
554
330
552
100
AcDbEntity
  8
SUNPOU
 62
    70
370
    -2
100
AcDbLine
 10
45.85424782035401
 20
120.4546237783578
 30
0.0
 11
45.85424782035401
 21
132.8103514678084
 31
0.0
  0
LINE
  5
555
330
552
100
AcDbEntity
  8
SUNPOU
 62
    70
370
    -2
100
AcDbLine
 10
25.85424782035516
 20
120.4546237783578
 30
0.0
 11
25.85424782035516
 21
132.8103514678084
 31
0.0
  0
LINE
  5
556
330
552
100
AcDbEntity
  8
SUNPOU
 62
    60
370
    -2
100
AcDbLine
 10
44.854247820354
 20
132.8103514678084
 30
0.0
 11
26.85424782035517
 21
132.8103514678084
 31
0.0
  0
INSERT
  5
557
330
552
100
AcDbEntity
  8
SUNPOU
 62
    60
370
    -2
100
AcDbBlockReference
  2
_DOT
 10
45.85424782035401
 20
132.8103514678084
 30
0.0
  0
INSERT
  5
558
330
552
100
AcDbEntity
  8
SUNPOU
 62
    60
370
    -2
100
AcDbBlockReference
  2
_DOT
 10
25.85424782035516
 20
132.8103514678084
 30
0.0
 50
180.0
  0
MTEXT
  5
559
330
552
100
AcDbEntity
  8
SUNPOU
 62
    60
100
AcDbMText
 10
35.85424782035459
 20
137.8103514678084
 30
0.0
 40
6.0
 41
0.0
 71
     5
 72
     1
  1
\A1;20
  7
LIFE
 73
     1
 44
1.0
1001
ACAD
1000
MTEXTBEGIN
1070
    73
1070
     1
1070
    44
1040
1.0
1070
    74
1070
     0
1000
MTEXTEND
  0
POINT
  5
55A
330
552
100
AcDbEntity
  8
DEFPOINTS
 62
     0
100
AcDbPoint
 10
45.85424782035401
 20
118.4546237783578
 30
0.0
  0
POINT
  5
55B
330
552
100
AcDbEntity
  8
DEFPOINTS
 62
     0
100
AcDbPoint
 10
25.85424782035516
 20
118.4546237783578
 30
0.0
  0
POINT
  5
55C
330
552
100
AcDbEntity
  8
DEFPOINTS
 62
     0
100
AcDbPoint
 10
25.85424782035516
 20
132.8103514678084
 30
0.0
  0
ENDBLK
  5
55D
330
552
100
AcDbEntity
  8
0
 62
     7
100
AcDbBlockEnd
  0
ENDSEC
  0
SECTION
  2
ENTITIES
  0
CIRCLE
  5
61
330
2
100
AcDbEntity
  8
KIJUN
100
AcDbCircle
 10
306.0589926545375
 20
53.98290284626735
 30
0.0
 40
3.475655844438501
  0
CIRCLE
  5
63
330
2
100
AcDbEntity
  8
KIJUN
100
AcDbCircle
 10
306.0577733579646
 20
44.32963723789298
 30
0.0
 40
3.475655844438501
  0
CIRCLE
  5
64
330
2
100
AcDbEntity
  8
KIJUN
100
AcDbCircle
 10
312.8456344576082
 20
55.91756599916735
 30
0.0
 40
3.475655844438501
  0
CIRCLE
  5
65
330
2
100
AcDbEntity
  8
KIJUN
100
AcDbCircle
 10
313.2013060341649
 20
46.18440743384717
 30
0.0
 40
3.475655844438501
  0
ARC
  5
66
330
2
100
AcDbEntity
  8
KIJUN
100
AcDbCircle
 10
300.9306503513542
 20
49.39198743745834
 30
0.0
 40
3.475655844438501
100
AcDbArc
 50
293.0836019714918
 51
66.91639802850817
  0
ARC
  5
67
330
2
100
AcDbEntity
  8
KIJUN
100
AcDbCircle
 10
294.6770373405404
 20
53.22954775619514
 30
0.0
 40
9.273947881195052
100
AcDbArc
 50
19.21175933651767
 51
34.78882885033919
  0
LINE
  5
68
330
2
100
AcDbEntity
  8
KIJUN
100
AcDbLine
 10
82.29336411262584
 20
33.454623778358
 30
0.0
 11
962.2933641126254
 21
33.454623778358
 31
0.0
  0
LINE
  5
69
330
2
100
AcDbEntity
  8
KIJUN
100
AcDbLine
 10
82.29336411262584
 20
113.4546237783577
 30
0.0
 11
962.2933641126261
 21
113.4546237783577
 31
0.0
  0
LINE
  5
6A
330
2
100
AcDbEntity
  8
KIJUN
100
AcDbLine
 10
82.2933641126254
 20
109.9926667216297
 30
0.0
 11
962.2933641126254
 21
109.9926667216294
 31
0.0
  0
LINE
  5
6B
330
2
100
AcDbEntity
  8
KIJUN
100
AcDbLine
 10
82.2933641126254
 20
36.90912818370164
 30
0.0
 11
962.2933641126241
 21
36.90912818370175
 31
0.0
  0
LINE
  5
6C
330
2
100
AcDbEntity
  8
KIJUN
100
AcDbLine
 10
82.29336411262584
 20
118.4546237783578
 30
0.0
 11
962.2933641126261
 21
118.4546237783578
 31
0.0
  0
LINE
  5
6D
330
2
100
AcDbEntity
  8
KIJUN
100
AcDbLine
 10
82.29336411262584
 20
28.45462377835776
 30
0.0
 11
962.2933641126254
 21
28.45462377835787
 31
0.0
  0
ARC
  5
6E
330
2
100
AcDbEntity
  8
KIJUN
 62
     7
100
AcDbCircle
 10
341.4106784393173
 20
100.970120199266
 30
0.0
 40
27.7282115788144
100
AcDbArc
 50
258.364423435275
 51
301.5154431856784
  0
ARC
  5
6F
330
2
100
AcDbEntity
  8
KIJUN
 62
     7
100
AcDbCircle
 10
355.0947203926215
 20
88.17403901684055
 30
0.0
 40
4.553506558819737
100
AcDbArc
 50
220.5224032487025
 51
273.5117808634781
  0
ARC
  5
70
330
2
100
AcDbEntity
  8
KIJUN
 62
     7
100
AcDbCircle
 10
349.8181508627401
 20
93.85515355539414
 30
0.0
 40
13.35916818208956
100
AcDbArc
 50
245.5447711776978
 51
296.764241126619
  0
ARC
  5
71
330
2
100
AcDbEntity
  8
KIJUN
 62
     7
100
AcDbCircle
 10
355.428768226812
 20
82.73077291719385
 30
0.0
 40
0.9
100
AcDbArc
 50
296.7642411266193
 51
93.51178086347154
  0
ARC
  5
72
330
2
100
AcDbEntity
  8
KIJUN
100
AcDbCircle
 10
353.201456860143
 20
92.88450401276865
 30
0.0
 40
6.720725586808642
100
AcDbArc
 50
252.5451299735645
 51
273.4661996987865
  0
ARC
  5
73
330
2
100
AcDbEntity
  8
KIJUN
100
AcDbCircle
 10
354.3633263261198
 20
90.86703398954943
 30
0.0
 40
3.8634000186345
100
AcDbArc
 50
179.5047924496661
 51
259.5447326520098
  0
ARC
  5
74
330
2
100
AcDbEntity
  8
KIJUN
100
AcDbCircle
 10
353.580583065046
 20
86.62524984746971
 30
0.0
 40
0.45
100
AcDbArc
 50
273.4661996988061
 51
79.54473265196367
  0
ARC
  5
75
330
2
100
AcDbEntity
  8
KIJUN
100
AcDbCircle
 10
354.7951476298543
 20
87.04972691864794
 30
0.0
 40
3.655347227807721
100
AcDbArc
 50
189.0739674277416
 51
210.1201419875738
  0
ARC
  5
76
330
2
100
AcDbEntity
  8
KIJUN
100
AcDbCircle
 10
340.1917575392352
 20
76.96035653574894
 30
0.0
 40
6.260099160547156
100
AcDbArc
 50
49.13395873843278
 51
125.1427524442727
  0
ARC
  5
77
330
2
100
AcDbEntity
  8
KIJUN
100
AcDbCircle
 10
334.6861852648018
 20
77.36849832353643
 30
0.0
 40
5.080404331282784
100
AcDbArc
 50
29.31997642165696
 51
68.01205644369233
  0
ARC
  5
78
330
2
100
AcDbEntity
  8
KIJUN
 62
     7
100
AcDbCircle
 10
377.2976430389851
 20
76.16339962975573
 30
0.0
 40
7.455802730164681
100
AcDbArc
 50
141.692491269148
 51
239.7042570210016
  0
ARC
  5
79
330
2
100
AcDbEntity
  8
KIJUN
 62
     7
100
AcDbCircle
 10
385.7249772522326
 20
3.482047520812271
 30
0.0
 40
78.61057152937326
100
AcDbArc
 50
74.64337954789266
 51
100.4645898288345
  0
ARC
  5
7A
330
2
100
AcDbEntity
  8
KIJUN
 62
     7
100
AcDbCircle
 10
386.0817675030856
 20
6.244253380841136
 30
0.0
 40
75.96389578582503
100
AcDbArc
 50
102.4803115743395
 51
109.1836097133624
  0
ARC
  5
7B
330
2
100
AcDbEntity
  8
KIJUN
 62
     7
100
AcDbCircle
 10
375.7115930001699
 20
76.05016065613785
 30
0.0
 40
7.455802730164681
100
AcDbArc
 50
144.1842962484116
 51
239.7042570210016
  0
ARC
  5
7C
330
2
100
AcDbEntity
  8
KIJUN
 62
     7
100
AcDbCircle
 10
355.4389653459147
 20
49.01151918750551
 30
0.0
 40
26.40135167167686
100
AcDbArc
 50
17.14138648062381
 51
51.28833027422805
  0
ARC
  5
7D
330
2
100
AcDbEntity
  8
KIJUN
 62
     7
100
AcDbCircle
 10
357.0916230899114
 20
52.22579938672114
 30
0.0
 40
24.01422998601354
100
AcDbArc
 50
10.96324279108265
 51
46.78046308412485
  0
ARC
  5
7E
330
2
100
AcDbEntity
  8
KIJUN
 62
     7
100
AcDbCircle
 10
386.0817675030856
 20
6.244253380841136
 30
0.0
 40
75.96389578582503
100
AcDbArc
 50
110.4712984600517
 51
111.3533302691814
  0
ARC
  5
7F
330
2
100
AcDbEntity
  8
KIJUN
 62
     7
100
AcDbCircle
 10
343.2455713445436
 20
98.95564649683963
 30
0.0
 40
26.21796659464468
100
AcDbArc
 50
253.543337472891
 51
292.8844183040591
  0
ARC
  5
80
330
2
100
AcDbEntity
  8
KIJUN
 62
     7
100
AcDbCircle
 10
310.9220177511878
 20
137.342825692349
 30
0.0
 40
76.80032696145445
100
AcDbArc
 50
304.2635600969135
 51
308.2056389020956
  0
ARC
  5
81
330
2
100
AcDbEntity
  8
KIJUN
 62
     7
100
AcDbCircle
 10
424.6637709184662
 20
50.07108359868394
 30
0.0
 40
69.4062926289598
100
AcDbArc
 50
156.2809611234591
 51
171.9048731391166
  0
ARC
  5
82
330
2
100
AcDbEntity
  8
KIJUN
 62
     7
100
AcDbCircle
 10
421.5065538649213
 20
55.68400787524645
 30
0.0
 40
65.68938356066452
100
AcDbArc
 50
160.6856333979761
 51
176.3685434434267
  0
ARC
  5
83
330
2
100
AcDbEntity
  8
KIJUN
 62
     7
100
AcDbCircle
 10
337.5542566012234
 20
78.81918069391824
 30
0.0
 40
14.69908862599225
100
AcDbArc
 50
256.3749183747155
 51
314.0388617465764
  0
ARC
  5
84
330
2
100
AcDbEntity
  8
KIJUN
 62
     7
100
AcDbCircle
 10
336.0688345828733
 20
79.43669639145934
 30
0.0
 40
15.03353023038745
100
AcDbArc
 50
262.4425764693465
 51
317.1616643907751
  0
ARC
  5
85
330
2
100
AcDbEntity
  8
KIJUN
 62
     7
100
AcDbCircle
 10
410.3354211941576
 20
3.554306817656716
 30
0.0
 40
90.0
100
AcDbArc
 50
128.6208681563632
 51
134.0388617465763
  0
ARC
  5
86
330
2
100
AcDbEntity
  8
KIJUN
 62
     7
100
AcDbCircle
 10
409.6556981909408
 20
4.516754448140375
 30
0.0
 40
90.0
100
AcDbArc
 50
128.6208681563632
 51
134.0388617465763
  0
ARC
  5
87
330
2
100
AcDbEntity
  8
KIJUN
 62
     7
100
AcDbCircle
 10
308.0725644396118
 20
151.9988129405616
 30
0.0
 40
57.18682796954112
100
AcDbArc
 50
274.0556940306598
 51
288.869401686631
  0
ARC
  5
88
330
2
100
AcDbEntity
  8
KIJUN
100
AcDbCircle
 10
303.00136907197
 20
103.6506837106957
 30
0.0
 40
11.61341693107974
100
AcDbArc
 50
266.5048300134241
 51
285.7897843808391
  0
ARC
  5
89
330
2
100
AcDbEntity
  8
KIJUN
100
AcDbCircle
 10
299.5253021285278
 20
95.64081692399062
 30
0.0
 40
12.3893992381167
100
AcDbArc
 50
31.10935002809149
 51
79.83820494872043
  0
ARC
  5
8A
330
2
100
AcDbEntity
  8
KIJUN
100
AcDbCircle
 10
307.6072278004361
 20
102.9671036129365
 30
0.0
 40
3.528058563390821
100
AcDbArc
 50
347.2811031021714
 51
17.18597234714509
  0
ARC
  5
8B
330
2
100
AcDbEntity
  8
KIJUN
100
AcDbCircle
 10
310.5609838105172
 20
102.3004222075914
 30
0.0
 40
0.5
100
AcDbArc
 50
211.1093500280825
 51
347.2811031021678
  0
ARC
  5
8C
330
2
100
AcDbEntity
  8
KIJUN
 62
     7
100
AcDbCircle
 10
302.593468530209
 20
194.4056943361155
 30
0.0
 40
98.28804862199042
100
AcDbArc
 50
276.6675782710482
 51
285.4387459637588
  0
ARC
  5
8D
330
2
100
AcDbEntity
  8
KIJUN
100
AcDbCircle
 10
319.4679559626982
 20
145.5840634474626
 30
0.0
 40
49.10639967026103
100
AcDbArc
 50
249.5284378288413
 51
263.6134427777975
  0
ARC
  5
8E
330
2
100
AcDbEntity
  8
KIJUN
100
AcDbCircle
 10
306.756266775904
 20
93.91126188698645
 30
0.0
 40
4.347291083713302
100
AcDbArc
 50
231.1677722601662
 51
326.5867519975397
  0
ARC
  5
8F
330
2
100
AcDbEntity
  8
KIJUN
100
AcDbCircle
 10
302.9226381327815
 20
93.87444394997563
 30
0.0
 40
3.528058563390821
100
AcDbArc
 50
288.2984682607352
 51
336.6388963114482
  0
ARC
  5
90
330
2
100
AcDbEntity
  8
KIJUN
100
AcDbCircle
 10
309.8025997922207
 20
99.82411046125124
 30
0.0
 40
4.347291083713302
100
AcDbArc
 50
338.8976886103516
 51
74.31666834771617
  0
ARC
  5
91
330
2
100
AcDbEntity
  8
KIJUN
100
AcDbCircle
 10
419.757922504223
 20
96.04344514357114
 30
0.0
 40
36.14088264993386
100
AcDbArc
 50
247.7010011129173
 51
260.1642616230364
  0
ARC
  5
92
330
2
100
AcDbEntity
  8
KIJUN
100
AcDbCircle
 10
421.8671749871343
 20
101.170201383007
 30
0.0
 40
43.87337820097313
100
AcDbArc
 50
246.0682848147616
 51
263.4773475251563
  0
ARC
  5
93
330
2
100
AcDbEntity
  8
KIJUN
 62
     7
100
AcDbCircle
 10
385.7546157454524
 20
-14.2048754242581
 30
0.0
 40
97.42666306625825
100
AcDbArc
 50
76.59726760620731
 51
76.8000541209003
  0
ARC
  5
94
330
2
100
AcDbEntity
  8
KIJUN
 62
     7
100
AcDbCircle
 10
392.0293896847023
 20
36.7932393752937
 30
0.0
 40
46.32988994165213
100
AcDbArc
 50
61.52777757968357
 51
68.92604611502131
  0
ARC
  5
95
330
2
100
AcDbEntity
  8
KIJUN
100
AcDbCircle
 10
355.2462490335022
 20
25.75233424832737
 30
0.0
 40
76.96937156061776
100
AcDbArc
 50
47.14096412649382
 51
103.4758618919219
  0
ARC
  5
96
330
2
100
AcDbEntity
  8
KIJUN
100
AcDbCircle
 10
352.079019497602
 20
15.95403249219572
 30
0.0
 40
85.81126139240813
100
AcDbArc
 50
107.2954044246974
 51
113.4291533572856
  0
ARC
  5
97
330
2
100
AcDbEntity
  8
KIJUN
100
AcDbCircle
 10
342.475731913294
 20
67.13367830138304
 30
0.0
 40
33.86527991993106
100
AcDbArc
 50
98.77463825618251
 51
125.9924065564128
  0
ARC
  5
98
330
2
100
AcDbEntity
  8
KIJUN
100
AcDbCircle
 10
347.8862760066139
 20
76.60956923514634
 30
0.0
 40
26.22080759194027
100
AcDbArc
 50
113.7889055544139
 51
163.8184001552026
  0
ARC
  5
99
330
2
100
AcDbEntity
  8
KIJUN
100
AcDbCircle
 10
326.7165472267705
 20
88.92307986527191
 30
0.0
 40
6.97447271370665
100
AcDbArc
 50
125.312728088153
 51
160.8278054538135
  0
ARC
  5
9A
330
2
100
AcDbEntity
  8
KIJUN
100
AcDbCircle
 10
328.356267779316
 20
88.00317184462514
 30
0.0
 40
6.97447271370665
100
AcDbArc
 50
156.210060827653
 51
215.8663286992648
  0
ARC
  5
9B
330
2
100
AcDbEntity
  8
KIJUN
100
AcDbCircle
 10
321.7581534729068
 20
94.29938665341405
 30
0.0
 40
3.489527357898803
100
AcDbArc
 50
242.1670132755104
 51
273.5531088836338
  0
ARC
  5
9C
330
2
100
AcDbEntity
  8
KIJUN
 62
     7
100
AcDbCircle
 10
378.4447894378857
 20
95.12467640867644
 30
0.0
 40
15.87571883170735
100
AcDbArc
 50
182.1627423696948
 51
236.4957856143536
  0
ARC
  5
9D
330
2
100
AcDbEntity
  8
KIJUN
 62
     7
100
AcDbCircle
 10
386.5307754257049
 20
7.815111649833794
 30
0.0
 40
75.96389578582503
100
AcDbArc
 50
103.8868501839658
 51
113.716731208396
  0
ARC
  5
9E
330
2
100
AcDbEntity
  8
KIJUN
 62
     7
100
AcDbCircle
 10
378.5632523746547
 20
81.59511815526604
 30
0.0
 40
4.31404675892694
100
AcDbArc
 50
184.1526290908251
 51
272.0419340621689
  0
ARC
  5
9F
330
2
100
AcDbEntity
  8
KIJUN
100
AcDbCircle
 10
379.0014560992602
 20
69.72146546872862
 30
0.0
 40
7.567694546164952
100
AcDbArc
 50
5.828353632197377
 51
92.15441190945716
  0
ARC
  5
A0
330
2
100
AcDbEntity
  8
KIJUN
100
AcDbCircle
 10
386.4108959849184
 20
55.24682252671694
 30
0.0
 40
11.30170171512245
100
AcDbArc
 50
199.9577316663622
 51
255.8398937468377
  0
ARC
  5
A1
330
2
100
AcDbEntity
  8
KIJUN
100
AcDbCircle
 10
369.770821511962
 20
52.43284299951375
 30
0.0
 40
4.444662791441268
100
AcDbArc
 50
283.2847166799511
 51
345.3605282980634
  0
ARC
  5
A2
330
2
100
AcDbEntity
  8
KIJUN
100
AcDbCircle
 10
374.9419713622827
 20
51.08205449654708
 30
0.0
 40
0.9
100
AcDbArc
 50
19.95773166636783
 51
165.3605282980547
  0
ARC
  5
A3
330
2
100
AcDbEntity
  8
KIJUN
100
AcDbCircle
 10
384.5074893597486
 20
56.30736843695574
 30
0.0
 40
15.97980994908321
100
AcDbArc
 50
154.2897222409854
 51
210.8747576591636
  0
ARC
  5
A4
330
2
100
AcDbEntity
  8
KIJUN
 62
     7
100
AcDbCircle
 10
365.535442701271
 20
65.28559874263713
 30
0.0
 40
5.01091815570713
100
AcDbArc
 50
335.9031661022166
 51
354.4048736606775
  0
ARC
  5
A5
330
2
100
AcDbEntity
  8
KIJUN
 62
     7
100
AcDbCircle
 10
370.7489085253684
 20
61.62247922289584
 30
0.0
 40
5.710831952649967
100
AcDbArc
 50
121.0618598522863
 51
180.8705879286104
  0
ARC
  5
A6
330
2
100
AcDbEntity
  8
KIJUN
 62
     7
100
AcDbCircle
 10
368.7310630697254
 20
64.97253986100485
 30
0.0
 40
1.8
100
AcDbArc
 50
354.4048736606758
 51
121.0618598522865
  0
ARC
  5
A7
330
2
100
AcDbEntity
  8
KIJUN
100
AcDbCircle
 10
354.6767981995802
 20
59.38457855087587
 30
0.0
 40
10.58286877647421
100
AcDbArc
 50
299.2395135875373
 51
11.72797050682123
  0
ARC
  5
A8
330
2
100
AcDbEntity
  8
KIJUN
100
AcDbCircle
 10
356.2726775480222
 20
53.76135377689357
 30
0.0
 40
5.080404331282784
100
AcDbArc
 50
314.6986610668429
 51
340.2891163846275
  0
ARC
  5
A9
330
2
100
AcDbEntity
  8
KIJUN
100
AcDbCircle
 10
351.1061747879069
 20
59.92914905768355
 30
0.0
 40
11.81712291110017
100
AcDbArc
 50
267.8271343325401
 51
320.9425200808847
  0
ARC
  5
AA
330
2
100
AcDbEntity
  8
KIJUN
100
AcDbCircle
 10
360.6317702596123
 20
52.19963837294635
 30
0.0
 40
0.45
100
AcDbArc
 50
340.2891163846345
 51
140.9425200808611
  0
ARC
  5
AB
330
2
100
AcDbEntity
  8
KIJUN
100
AcDbCircle
 10
337.1921916616454
 20
61.69617648553944
 30
0.0
 40
12.17216059834232
100
AcDbArc
 50
270.9523640451299
 51
322.067928316544
  0
ARC
  5
AC
330
2
100
AcDbEntity
  8
KIJUN
100
AcDbCircle
 10
342.8906447122902
 20
55.75834370230444
 30
0.0
 40
5.080404331282784
100
AcDbArc
 50
314.6986610668429
 51
336.8371879516021
  0
ARC
  5
AD
330
2
100
AcDbEntity
  8
KIJUN
100
AcDbCircle
 10
347.1477960144915
 20
53.93699610743606
 30
0.0
 40
0.45
100
AcDbArc
 50
336.8371879515964
 51
142.0679283165156
  0
ARC
  5
AE
330
2
100
AcDbEntity
  8
KIJUN
 62
     7
100
AcDbCircle
 10
349.2124842033325
 20
51.42198404417885
 30
0.0
 40
11.96914771112834
100
AcDbArc
 50
141.5495380694626
 51
189.1158504173468
  0
ARC
  5
AF
330
2
100
AcDbEntity
  8
KIJUN
100
AcDbCircle
 10
332.3154271833726
 20
74.19893113040365
 30
0.0
 40
15.3719823889704
100
AcDbArc
 50
242.9279029316365
 51
294.7740818596076
  0
ARC
  5
B0
330
2
100
AcDbEntity
  8
KIJUN
 62
     7
100
AcDbCircle
 10
339.1340614668855
 20
59.42450601892584
 30
0.0
 40
0.9
100
AcDbArc
 50
321.5495380694628
 51
114.7740818596076
  0
ARC
  5
B1
330
2
100
AcDbEntity
  8
KIJUN
 62
     7
100
AcDbCircle
 10
354.518866536457
 20
57.57857339206184
 30
0.0
 40
0.45
100
AcDbArc
 50
294.3920632732075
 51
54.06417139811761
  0
ARC
  5
B2
330
2
100
AcDbEntity
  8
KIJUN
 62
     7
100
AcDbCircle
 10
359.1331230854414
 20
49.75927986978518
 30
0.0
 40
8.631973733383722
100
AcDbArc
 50
120.8655189116489
 51
190.9438737357556
  0
ARC
  5
B3
330
2
100
AcDbEntity
  8
KIJUN
 62
     7
100
AcDbCircle
 10
352.6300786403852
 20
55.39586977325902
 30
0.0
 40
3.335027362833223
100
AcDbArc
 50
49.79405489839169
 51
103.9727504567915
  0
ARC
  5
B4
330
2
100
AcDbEntity
  8
KIJUN
100
AcDbCircle
 10
341.2947653638487
 20
61.38156847628672
 30
0.0
 40
10.58286877647421
100
AcDbArc
 50
299.2395135875373
 51
343.1481114592268
  0
ARC
  5
B5
330
2
100
AcDbEntity
  8
KIJUN
 62
     7
100
AcDbCircle
 10
351.85385352144
 20
58.18315469456404
 30
0.0
 40
0.45
100
AcDbArc
 50
93.70158050223723
 51
163.1481114592233
  0
ARC
  5
B6
330
2
100
AcDbEntity
  8
KIJUN
100
AcDbCircle
 10
386.2054186326202
 20
56.16866378561815
 30
0.0
 40
0.45
100
AcDbArc
 50
76.05552262337752
 51
205.8170835514478
  0
ARC
  5
B7
330
2
100
AcDbEntity
  8
KIJUN
100
AcDbCircle
 10
383.5016656830423
 20
70.53423159070455
 30
0.0
 40
0.45
100
AcDbArc
 50
99.02254129268857
 51
237.0105898264855
  0
ARC
  5
B8
330
2
100
AcDbEntity
  8
KIJUN
100
AcDbCircle
 10
384.2278197159924
 20
65.96112054989304
 30
0.0
 40
5.080404331282784
100
AcDbArc
 50
63.05371745295937
 51
99.02254129266887
  0
ARC
  5
B9
330
2
100
AcDbEntity
  8
KIJUN
100
AcDbCircle
 10
371.3468344923988
 20
55.18547114347573
 30
0.0
 40
19.13070515483004
100
AcDbArc
 50
3.200462163572639
 51
51.49743816858501
  0
ARC
  5
BA
330
2
100
AcDbEntity
  8
KIJUN
100
AcDbCircle
 10
388.6822573366769
 20
59.97124996763454
 30
0.0
 40
4.115608820848867
100
AcDbArc
 50
234.867657607733
 51
295.4017753437425
  0
ARC
  5
BB
330
2
100
AcDbEntity
  8
KIJUN
100
AcDbCircle
 10
376.7595191819545
 20
51.598862464069
 30
0.0
 40
10.04324070773757
100
AcDbArc
 50
313.2904095170766
 51
25.81708355147086
  0
ARC
  5
BC
330
2
100
AcDbEntity
  8
KIJUN
100
AcDbCircle
 10
338.8315872671867
 20
57.10035505904002
 30
0.0
 40
13.9359696526032
100
AcDbArc
 50
112.1255260590503
 51
165.8329260118984
  0
ARC
  5
BD
330
2
100
AcDbEntity
  8
KIJUN
100
AcDbCircle
 10
341.9908330004935
 20
62.87073328779024
 30
0.0
 40
17.32652616955196
100
AcDbArc
 50
83.47079218074423
 51
135.2210155642737
  0
ARC
  5
BE
330
2
100
AcDbEntity
  8
KIJUN
100
AcDbCircle
 10
339.9444356099725
 20
80.88878235357636
 30
0.0
 40
11.78610727927293
100
AcDbArc
 50
209.5555307594498
 51
238.474573377456
  0
ARC
  5
BF
330
2
100
AcDbEntity
  8
KIJUN
100
AcDbCircle
 10
333.5464578112812
 20
70.45862408836594
 30
0.0
 40
0.45
100
AcDbArc
 50
274.6304067306279
 51
58.47457337741831
  0
ARC
  5
C0
330
2
100
AcDbEntity
  8
KIJUN
100
AcDbCircle
 10
370.6688918359399
 20
94.13366292029705
 30
0.0
 40
2.17100437215842
100
AcDbArc
 50
53.76422233231445
 51
153.9503521074149
  0
ARC
  5
C1
330
2
100
AcDbEntity
  8
KIJUN
100
AcDbCircle
 10
358.1125146076122
 20
91.5033176719357
 30
0.0
 40
10.42988700327627
100
AcDbArc
 50
20.33783890924336
 51
95.35731282024668
  0
ARC
  5
C2
330
2
100
AcDbEntity
  8
KIJUN
100
AcDbCircle
 10
368.3141452020961
 20
95.2846764776771
 30
0.0
 40
0.45
100
AcDbArc
 50
200.3378389092409
 51
333.9503521074397
  0
ARC
  5
C3
330
2
100
AcDbEntity
  8
KIJUN
100
AcDbCircle
 10
360.1982459846443
 20
98.33716215190037
 30
0.0
 40
4.686862084198403
100
AcDbArc
 50
130.7522452276037
 51
241.4385646877067
  0
ARC
  5
C4
330
2
100
AcDbEntity
  8
KIJUN
100
AcDbCircle
 10
357.4667337235217
 20
82.34776223790365
 30
0.0
 40
11.03097613175596
100
AcDbArc
 50
88.6246145873536
 51
129.164907424834
  0
ARC
  5
C5
330
2
100
AcDbEntity
  8
KIJUN
100
AcDbCircle
 10
357.7423081327818
 20
93.82543062843124
 30
0.0
 40
0.45
100
AcDbArc
 50
268.6246145873667
 51
61.43856468772857
  0
ARC
  5
C6
330
2
100
AcDbEntity
  8
KIJUN
 62
     7
100
AcDbCircle
 10
379.0359442973634
 20
94.03836291500272
 30
0.0
 40
16.46277545229749
100
AcDbArc
 50
178.3041548555722
 51
229.8157196736024
  0
ARC
  5
C7
330
2
100
AcDbEntity
  8
KIJUN
 62
     7
100
AcDbCircle
 10
377.2152515994852
 20
85.42142441814965
 30
0.0
 40
2.815651590337268
100
AcDbArc
 50
167.1938826433416
 51
238.8618979597604
  0
ARC
  5
C8
330
2
100
AcDbEntity
  8
KIJUN
100
AcDbCircle
 10
365.8450013182811
 20
89.08052648801353
 30
0.0
 40
9.143063270321295
100
AcDbArc
 50
340.6130525669071
 51
48.09026311091027
  0
ARC
  5
C9
330
2
100
AcDbEntity
  8
KIJUN
100
AcDbCircle
 10
418.000497775108
 20
66.62280976843534
 30
0.0
 40
17.07706532792591
100
AcDbArc
 50
132.1383098430897
 51
177.9122706041015
  0
ARC
  5
CA
330
2
100
AcDbEntity
  8
KIJUN
100
AcDbCircle
 10
468.2590615991919
 20
76.95936857619894
 30
0.0
 40
38.87977033121965
100
AcDbArc
 50
213.4563952169803
 51
241.7677250878683
  0
ARC
  5
CB
330
2
100
AcDbEntity
  8
KIJUN
100
AcDbCircle
 10
451.8669081453906
 20
58.06674009388213
 30
0.0
 40
13.65060654702707
100
AcDbArc
 50
152.7082682279796
 51
192.4693643719982
  0
ARC
  5
CC
330
2
100
AcDbEntity
  8
KIJUN
100
AcDbCircle
 10
436.2928175593766
 20
49.37928700246295
 30
0.0
 40
6.163629164415231
100
AcDbArc
 50
68.63479187992083
 51
94.38601171493914
  0
ARC
  5
CD
330
2
100
AcDbEntity
  8
KIJUN
100
AcDbCircle
 10
464.2063210176426
 20
66.10088849336834
 30
0.0
 40
24.53477595699535
100
AcDbArc
 50
184.1488887278003
 51
220.0114143247151
  0
ARC
  5
CE
330
2
100
AcDbEntity
  8
KIJUN
 62
     7
100
AcDbCircle
 10
305.6436944052978
 20
111.7818562383573
 30
0.0
 40
21.06633724395438
100
AcDbArc
 50
282.3752120472736
 51
305.7751246853275
  0
ARC
  5
CF
330
2
100
AcDbEntity
  8
KIJUN
100
AcDbCircle
 10
309.5163920763583
 20
65.16431946238245
 30
0.0
 40
25.14236171758992
100
AcDbArc
 50
100.2095220656169
 51
106.6954934386553
  0
ARC
  5
D0
330
2
100
AcDbEntity
  8
KIJUN
 62
     7
100
AcDbCircle
 10
306.6105338573446
 20
110.2314670337724
 30
0.0
 40
21.06633724395438
100
AcDbArc
 50
271.6239558017265
 51
306.7886893281545
  0
ARC
  5
D1
330
2
100
AcDbEntity
  8
KIJUN
100
AcDbCircle
 10
311.0049382261694
 20
64.17040632242503
 30
0.0
 40
25.28990786363198
100
AcDbArc
 50
98.63587954514855
 51
110.1493483496928
  0
ARC
  5
D2
330
2
100
AcDbEntity
  8
KIJUN
100
AcDbCircle
 10
361.9754960698842
 20
7.763095654681656
 30
0.0
 40
95.67861594985314
100
AcDbArc
 50
113.0804346437159
 51
116.5384619421608
  0
ARC
  5
D3
330
2
100
AcDbEntity
  8
KIJUN
 62
     7
100
AcDbCircle
 10
249.9899804608083
 20
134.1143909360713
 30
0.0
 40
83.49642882088829
100
AcDbArc
 50
316.4400283057389
 51
328.7745515721816
  0
ARC
  5
D4
330
2
100
AcDbEntity
  8
KIJUN
 62
     7
100
AcDbCircle
 10
248.8356623077305
 20
134.7625375672111
 30
0.0
 40
86.14399847020182
100
AcDbArc
 50
315.2379764208028
 51
327.3767630657829
  0
ARC
  5
D5
330
2
100
AcDbEntity
  8
KIJUN
 62
     7
100
AcDbCircle
 10
431.9088448697645
 20
47.57375301601446
 30
0.0
 40
2.900731093059361
100
AcDbArc
 50
276.5887731629301
 51
72.39298779991334
  0
ARC
  5
D6
330
2
100
AcDbEntity
  8
KIJUN
100
AcDbCircle
 10
425.0360786129842
 20
54.74750921340064
 30
0.0
 40
4.347291083713302
100
AcDbArc
 50
15.94508993483161
 51
111.3640696722004
  0
ARC
  5
D7
330
2
100
AcDbEntity
  8
KIJUN
100
AcDbCircle
 10
421.3902937473624
 20
55.93339152099054
 30
0.0
 40
3.528058563390821
100
AcDbArc
 50
5.892945620920425
 51
54.23337367163096
  0
ARC
  5
D8
330
2
100
AcDbEntity
  8
KIJUN
 62
     7
100
AcDbCircle
 10
431.5244178976375
 20
42.35797937366777
 30
0.0
 40
3.65420186349799
100
AcDbArc
 50
124.4938273600589
 51
177.6321129105743
  0
ARC
  5
D9
330
2
100
AcDbEntity
  8
KIJUN
 62
     7
100
AcDbCircle
 10
428.984517988094
 20
45.74748145731513
 30
0.0
 40
3.42385420856283
100
AcDbArc
 50
251.062218302802
 51
342.0479966452981
  0
ARC
  5
DA
330
2
100
AcDbEntity
  8
KIJUN
100
AcDbCircle
 10
421.6452948528297
 20
49.590327946016
 30
0.0
 40
7.927738568788837
100
AcDbArc
 50
232.4611839115976
 51
317.9564176674598
  0
ARC
  5
DB
330
2
100
AcDbEntity
  8
KIJUN
100
AcDbCircle
 10
425.058470662512
 20
13.50365034717589
 30
0.0
 40
38.08439562109447
100
AcDbArc
 50
93.40114483093174
 51
104.2943262593851
  0
ARC
  5
DC
330
2
100
AcDbEntity
  8
KIJUN
100
AcDbCircle
 10
426.6994083681121
 20
37.7027104101921
 30
0.0
 40
11.36126838073563
100
AcDbArc
 50
117.7259499646661
 51
150.4603917887764
  0
ARC
  5
DD
330
2
100
AcDbEntity
  8
KIJUN
100
AcDbCircle
 10
420.3615965530055
 20
43.27090199480602
 30
0.0
 40
4.610255210300308
100
AcDbArc
 50
76.80886653851729
 51
127.4140643653364
  0
LINE
  5
DE
330
2
100
AcDbEntity
  8
KIJUN
100
AcDbLine
 10
417.0943143158185
 20
46.62200910878545
 30
0.0
 11
417.5605399869594
 21
46.93266867469032
 31
0.0
  0
ARC
  5
DF
330
2
100
AcDbEntity
  8
KIJUN
100
AcDbCircle
 10
414.9040462354717
 20
46.75172499823652
 30
0.0
 40
6.97447271370665
100
AcDbArc
 50
79.60999807995134
 51
163.9966816075256
  0
ARC
  5
E0
330
2
100
AcDbEntity
  8
KIJUN
100
AcDbCircle
 10
416.1035728804693
 20
57.63208283476394
 30
0.0
 40
3.974220655232412
100
AcDbArc
 50
198.5888342458379
 51
262.1150371968105
  0
ARC
  5
E1
330
2
100
AcDbEntity
  8
KIJUN
100
AcDbCircle
 10
414.0827613570193
 20
53.86962896873771
 30
0.0
 40
7.848403968835039
100
AcDbArc
 50
221.4471973777595
 51
292.5640098238068
  0
ARC
  5
E2
330
2
100
AcDbEntity
  8
KIJUN
100
AcDbCircle
 10
418.5403334441744
 20
42.27276143133775
 30
0.0
 40
15.39747186716916
100
AcDbArc
 50
65.60567589854585
 51
113.7596251666567
  0
ARC
  5
E3
330
2
100
AcDbEntity
  8
KIJUN
100
AcDbCircle
 10
351.0087463967597
 20
15.73401361164673
 30
0.0
 40
89.32984055446775
100
AcDbArc
 50
42.8176730853064
 51
47.34493034294688
  0
ARC
  5
E4
330
2
100
AcDbEntity
  8
KIJUN
100
AcDbCircle
 10
410.5688004385363
 20
89.61276786143173
 30
0.0
 40
3.658585099408949
100
AcDbArc
 50
248.7475004574804
 51
235.0462064658854
  0
ARC
  5
E5
330
2
100
AcDbEntity
  8
KIJUN
100
AcDbCircle
 10
402.656805269202
 20
92.07696719898754
 30
0.0
 40
12.83429479040021
100
AcDbArc
 50
296.2713640484523
 51
331.5628780147254
  0
ARC
  5
E6
330
2
100
AcDbEntity
  8
KIJUN
100
AcDbCircle
 10
417.4663503626645
 20
86.94914293929834
 30
0.0
 40
3.658585099408949
100
AcDbArc
 50
214.0260185896031
 51
195.5987692333245
  0
ARC
  5
E7
330
2
100
AcDbEntity
  8
KIJUN
 62
     7
100
AcDbCircle
 10
407.7804635978834
 20
80.30975648028386
 30
0.0
 40
0.0000000000265806
100
AcDbArc
 50
76.14206232424064
 51
77.15229514128346
  0
ARC
  5
E8
330
2
100
AcDbEntity
  8
KIJUN
 62
     7
100
AcDbCircle
 10
392.0293896847023
 20
36.7932393752937
 30
0.0
 40
46.32988994165213
100
AcDbArc
 50
61.52777757968357
 51
68.92604611502131
  0
ARC
  5
E9
330
2
100
AcDbEntity
  8
KIJUN
100
AcDbCircle
 10
356.0650846908522
 20
7.097336830458687
 30
0.0
 40
91.264587772205
100
AcDbArc
 50
50.50011440196946
 51
53.64726901217959
  0
CIRCLE
  5
EA
330
2
100
AcDbEntity
  8
KIJUN
100
AcDbCircle
 10
408.2275074485684
 20
96.67368341051822
 30
0.0
 40
3.658585099408949
  0
CIRCLE
  5
EB
330
2
100
AcDbEntity
  8
KIJUN
100
AcDbCircle
 10
403.8280130126839
 20
102.4608413990835
 30
0.0
 40
3.658585099408949
  0
CIRCLE
  5
EC
330
2
100
AcDbEntity
  8
KIJUN
100
AcDbCircle
 10
400.379238050619
 20
96.03680789282465
 30
0.0
 40
3.658585099408949
  0
CIRCLE
  5
ED
330
2
100
AcDbEntity
  8
KIJUN
100
AcDbCircle
 10
415.1149128885304
 20
100.1562239537915
 30
0.0
 40
3.658585099408949
  0
CIRCLE
  5
EE
330
2
100
AcDbEntity
  8
KIJUN
100
AcDbCircle
 10
422.2091523452539
 20
96.36519294740359
 30
0.0
 40
3.851142209904157
  0
ARC
  5
EF
330
2
100
AcDbEntity
  8
KIJUN
100
AcDbCircle
 10
229.9170911925547
 20
150.7356749412591
 30
0.0
 40
109.5108626806539
100
AcDbArc
 50
311.3689271715433
 51
317.3754559046888
  0
ARC
  5
F0
330
2
100
AcDbEntity
  8
KIJUN
100
AcDbCircle
 10
351.0087463967597
 20
15.73401361164673
 30
0.0
 40
89.32984055446775
100
AcDbArc
 50
50.26947640517217
 51
55.16058191419341
  0
ARC
  5
F1
330
2
100
AcDbEntity
  8
KIJUN
 62
     7
100
AcDbCircle
 10
366.6625405568519
 20
92.51903090698595
 30
0.0
 40
42.22511704769462
100
AcDbArc
 50
343.9208293077492
 51
351.9612319570377
  0
ARC
  5
F2
330
2
100
AcDbEntity
  8
KIJUN
 62
     7
100
AcDbCircle
 10
406.0488760618876
 20
88.95697282699444
 30
0.0
 40
9.314331350491924
100
AcDbArc
 50
286.4619102462618
 51
334.1919703298851
  0
ARC
  5
F3
330
2
100
AcDbEntity
  8
KIJUN
 62
     7
100
AcDbCircle
 10
400.695813616058
 20
85.19554712124104
 30
0.0
 40
8.605998812005676
100
AcDbArc
 50
328.0990737631295
 51
6.722659904026145
  0
ARC
  5
F4
330
2
100
AcDbEntity
  8
KIJUN
 62
     7
100
AcDbCircle
 10
300.2919393073205
 20
58.26968369559224
 30
0.0
 40
4.049484550496365
100
AcDbArc
 50
341.1713359387771
 51
60.38022938156185
  0
ARC
  5
F5
330
2
100
AcDbEntity
  8
KIJUN
100
AcDbCircle
 10
320.9575505717028
 20
144.30714588394
 30
0.0
 40
48.65146623908756
100
AcDbArc
 50
247.4412535117584
 51
261.4682062679654
  0
LINE
  5
F6
330
2
100
AcDbEntity
  8
KIJUN
 62
     7
100
AcDbLine
 10
310.3850400155077
 20
91.51732276034374
 30
0.0
 11
311.285169964158
 21
94.27277177977234
 31
0.0
  0
ARC
  5
F7
330
2
100
AcDbEntity
  8
KIJUN
 62
     7
100
AcDbCircle
 10
315.8764556947861
 20
97.71454382146286
 30
0.0
 40
2.090235429672418
100
AcDbArc
 50
164.9035104000976
 51
206.4837507089924
  0
ARC
  5
F8
330
2
100
AcDbEntity
  8
KIJUN
 62
     7
100
AcDbCircle
 10
312.2357355618742
 20
93.96224795711134
 30
0.0
 40
1.0
100
AcDbArc
 50
96.80951328203057
 51
161.9091986967045
  0
ARC
  5
F9
330
2
100
AcDbEntity
  8
KIJUN
100
AcDbCircle
 10
488.1385341567691
 20
56.48505936753934
 30
0.0
 40
4.785280236962456
100
AcDbArc
 50
280.4597234922771
 51
352.2626744165429
  0
ARC
  5
FA
330
2
100
AcDbEntity
  8
KIJUN
 62
     7
100
AcDbCircle
 10
501.3145839908426
 20
52.82148337253563
 30
0.0
 40
27.98761456823846
100
AcDbArc
 50
130.5476795612756
 51
180.8538135625281
  0
ARC
  5
FB
330
2
100
AcDbEntity
  8
KIJUN
 62
     7
100
AcDbCircle
 10
500.8825886445699
 20
51.07028407955723
 30
0.0
 40
27.58479385651014
100
AcDbArc
 50
125.2866300413165
 51
177.2277900010944
  0
ARC
  5
FC
330
2
100
AcDbEntity
  8
KIJUN
 62
     7
100
AcDbCircle
 10
459.8792642835684
 20
51.73085902496582
 30
0.0
 40
8.078642545614535
100
AcDbArc
 50
91.1918164564549
 51
163.3181008982506
  0
ARC
  5
FD
330
2
100
AcDbEntity
  8
KIJUN
100
AcDbCircle
 10
448.6236427179349
 20
152.2085355460655
 30
0.0
 40
112.2387905028976
100
AcDbArc
 50
280.3900113852137
 51
304.4418417454894
  0
ARC
  5
FE
330
2
100
AcDbEntity
  8
KIJUN
100
AcDbCircle
 10
451.3070059868629
 20
150.0406921514396
 30
0.0
 40
111.877428529333
100
AcDbArc
 50
277.7860977031632
 51
303.9212125566256
  0
ARC
  5
FF
330
2
100
AcDbEntity
  8
KIJUN
 62
     7
100
AcDbCircle
 10
370.0962169359603
 20
28.21778115839542
 30
0.0
 40
151.8522503364613
100
AcDbArc
 50
9.256082478265231
 51
12.57008655861374
  0
CIRCLE
  5
100
330
2
100
AcDbEntity
  8
KIJUN
100
AcDbCircle
 10
514.6712208831555
 20
52.85715085455257
 30
0.0
 40
3.475655844438501
  0
ARC
  5
101
330
2
100
AcDbEntity
  8
KIJUN
100
AcDbCircle
 10
511.9730917116499
 20
55.16603758423454
 30
0.0
 40
9.273947881195052
100
AcDbArc
 50
345.6499866136017
 51
43.88440539826441
  0
ARC
  5
102
330
2
100
AcDbEntity
  8
KIJUN
100
AcDbCircle
 10
458.0910738588261
 20
62.69270434336853
 30
0.0
 40
10.49313810588089
100
AcDbArc
 50
235.4531487730004
 51
287.9821843055006
  0
ARC
  5
103
330
2
100
AcDbEntity
  8
KIJUN
 62
     7
100
AcDbCircle
 10
490.8269547093339
 20
42.04498074024722
 30
0.0
 40
17.97999788141595
100
AcDbArc
 50
146.3987975564134
 51
166.2536360265813
  0
ARC
  5
104
330
2
100
AcDbEntity
  8
KIJUN
100
AcDbCircle
 10
482.1735709965939
 20
49.7832009801421
 30
0.0
 40
4.469585476182041
100
AcDbArc
 50
158.9600515382219
 51
230.5063375483213
  0
ARC
  5
105
330
2
100
AcDbEntity
  8
KIJUN
100
AcDbCircle
 10
477.593465875192
 20
55.74556875701245
 30
0.0
 40
9.570560473924912
100
AcDbArc
 50
280.4597234922771
 51
349.3170722046706
  0
ARC
  5
106
330
2
100
AcDbEntity
  8
KIJUN
 62
     7
100
AcDbCircle
 10
476.4559598940394
 20
48.91927755079342
 30
0.0
 40
3.270210508956348
100
AcDbArc
 50
65.96844985046679
 51
95.32131315124685
  0
ARC
  5
107
330
2
100
AcDbEntity
  8
KIJUN
 62
     7
100
AcDbCircle
 10
476.1904464338257
 20
51.76989635813966
 30
0.0
 40
0.4072531249999999
100
AcDbArc
 50
95.3213131512599
 51
146.3987975563964
  0
ARC
  5
108
330
2
100
AcDbEntity
  8
KIJUN
 62
     7
100
AcDbCircle
 10
477.6218695964525
 20
51.53407764796482
 30
0.0
 40
0.4072531249999999
100
AcDbArc
 50
338.9600515382261
 51
65.96844985045876
  0
LINE
  5
109
330
2
100
AcDbEntity
  8
KIJUN
 62
     7
100
AcDbLine
 10
487.3905182818451
 20
54.30312123182325
 30
0.0
 11
487.8091871153725
 21
54.31116858022682
 31
0.0
  0
ARC
  5
10A
330
2
100
AcDbEntity
  8
KIJUN
 62
     7
100
AcDbCircle
 10
487.8170135936723
 20
53.90399066572315
 30
0.0
 40
0.4072531249999999
100
AcDbArc
 50
351.2895315975492
 51
91.10116228497998
  0
ARC
  5
10B
330
2
100
AcDbEntity
  8
KIJUN
 62
     7
100
AcDbCircle
 10
487.3983447601438
 20
53.89594331731935
 30
0.0
 40
0.4072531249999999
100
AcDbArc
 50
91.10116228497998
 51
169.3170722046674
  0
ARC
  5
10C
330
2
100
AcDbEntity
  8
KIJUN
100
AcDbCircle
 10
490.4285867174691
 20
53.50387547910436
 30
0.0
 40
2.234792738091019
100
AcDbArc
 50
171.2895315975587
 51
230.5063375483213
  0
ARC
  5
10D
330
2
100
AcDbEntity
  8
KIJUN
 62
     7
100
AcDbCircle
 10
463.8315118367007
 20
50.66928616279909
 30
0.0
 40
10.47700836735285
100
AcDbArc
 50
323.5535643028697
 51
335.4574591630314
  0
ARC
  5
10E
330
2
100
AcDbEntity
  8
KIJUN
 62
     7
100
AcDbCircle
 10
464.0444311676354
 20
53.1230649558285
 30
0.0
 40
0.4072531249999999
100
AcDbArc
 50
307.3042883112161
 51
114.4608995750369
  0
ARC
  5
10F
330
2
100
AcDbEntity
  8
KIJUN
 62
     7
100
AcDbCircle
 10
459.5897217051658
 20
62.91573688681484
 30
0.0
 40
10.35103948781487
100
AcDbArc
 50
279.6818437466341
 51
294.4608995750593
  0
ARC
  5
110
330
2
100
AcDbEntity
  8
KIJUN
 62
     7
100
AcDbCircle
 10
468.4614469235928
 20
47.32580314636749
 30
0.0
 40
6.880975238313423
100
AcDbArc
 50
127.304288311216
 51
244.194269956342
  0
ARC
  5
111
330
2
100
AcDbEntity
  8
KIJUN
100
AcDbCircle
 10
463.6105646256881
 20
53.55383342352824
 30
0.0
 40
12.56060093720086
100
AcDbArc
 50
278.4948035044542
 51
313.5165886439511
  0
CIRCLE
  5
112
330
2
100
AcDbEntity
  8
KIJUN
100
AcDbCircle
 10
515.7851900742714
 20
43.92458209619184
 30
0.0
 40
3.475655844438501
  0
ARC
  5
113
330
2
100
AcDbEntity
  8
KIJUN
100
AcDbCircle
 10
496.1418155545231
 20
91.19925191918936
 30
0.0
 40
5.517361440475863
100
AcDbArc
 50
297.1669584095085
 51
330.1319947744354
  0
ARC
  5
114
330
2
100
AcDbEntity
  8
KIJUN
 62
     7
100
AcDbCircle
 10
485.5774882806014
 20
90.83324355884892
 30
0.0
 40
12.45808202764637
100
AcDbArc
 50
343.2819300781822
 51
66.3793814266496
  0
ARC
  5
115
330
2
100
AcDbEntity
  8
KIJUN
100
AcDbCircle
 10
494.8830222775057
 20
85.33738265140172
 30
0.0
 40
6.798519855847214
100
AcDbArc
 50
311.2538970691749
 51
27.26269077502002
  0
ARC
  5
116
330
2
100
AcDbEntity
  8
KIJUN
 62
     7
100
AcDbCircle
 10
529.7947261059611
 20
132.8985734142126
 30
0.0
 40
73.17524310961862
100
AcDbArc
 50
232.2774669544485
 51
257.1222610588974
  0
ARC
  5
117
330
2
100
AcDbEntity
  8
KIJUN
 62
     7
100
AcDbCircle
 10
517.8770715619354
 20
91.51120757082235
 30
0.0
 40
32.38507568437837
100
AcDbArc
 50
235.1523836180059
 51
259.7286281510102
  0
ARC
  5
118
330
2
100
AcDbEntity
  8
KIJUN
 62
     7
100
AcDbCircle
 10
468.7644939400949
 20
102.9087781427084
 30
0.0
 40
22.52445685697954
100
AcDbArc
 50
211.4509447747654
 51
255.7410640702484
  0
ARC
  5
119
330
2
100
AcDbEntity
  8
KIJUN
 62
     7
100
AcDbCircle
 10
441.2644649127454
 20
87.04432305415947
 30
0.0
 40
11.74634682989291
100
AcDbArc
 50
184.4732598661138
 51
236.5335847200789
  0
ARC
  5
11A
330
2
100
AcDbEntity
  8
KIJUN
 62
     7
100
AcDbCircle
 10
469.405397430957
 20
106.4312145951966
 30
0.0
 40
25.05184674732072
100
AcDbArc
 50
217.5703375080701
 51
264.9373477589956
  0
ARC
  5
11B
330
2
100
AcDbEntity
  8
KIJUN
 62
     7
100
AcDbCircle
 10
508.1185762269367
 20
86.16614530580836
 30
0.0
 40
27.08005295613661
100
AcDbArc
 50
161.2312718364114
 51
202.5122076111907
  0
ARC
  5
11C
330
2
100
AcDbEntity
  8
KIJUN
 62
     7
100
AcDbCircle
 10
508.2374522759435
 20
88.08616686282993
 30
0.0
 40
26.63958797854194
100
AcDbArc
 50
165.2267203838805
 51
209.3765278730881
  0
ARC
  5
11D
330
2
100
AcDbEntity
  8
KIJUN
 62
     7
100
AcDbCircle
 10
497.1270824746676
 20
-8.71708138170738
 30
0.0
 40
94.51755245712254
100
AcDbArc
 50
110.5229826385164
 51
123.565351636136
  0
ARC
  5
11E
330
2
100
AcDbEntity
  8
KIJUN
 62
     7
100
AcDbCircle
 10
499.8959652696756
 20
-26.40342697556486
 30
0.0
 40
111.0373315065356
100
AcDbArc
 50
107.7675385459549
 51
119.7071715342415
  0
ARC
  5
11F
330
2
100
AcDbEntity
  8
KIJUN
 62
     7
100
AcDbCircle
 10
460.0285723438871
 20
53.99439813354256
 30
0.0
 40
15.02370718346841
100
AcDbArc
 50
69.84975555664076
 51
139.5963851850245
  0
ARC
  5
120
330
2
100
AcDbEntity
  8
KIJUN
 62
     7
100
AcDbCircle
 10
447.4002722715169
 20
25.52522092493763
 30
0.0
 40
56.75536568208004
100
AcDbArc
 50
73.00327972354354
 51
100.5395160241051
  0
ARC
  5
121
330
2
100
AcDbEntity
  8
KIJUN
 62
     7
100
AcDbCircle
 10
449.5948079264114
 20
25.2390048178666
 30
0.0
 40
57.47672849688387
100
AcDbArc
 50
76.29063185289955
 51
102.6385168057794
  0
ARC
  5
122
330
2
100
AcDbEntity
  8
KIJUN
 62
     7
100
AcDbCircle
 10
438.8121533188025
 20
75.28101295616214
 30
0.0
 40
0.4072531249999999
100
AcDbArc
 50
285.4065363594767
 51
76.36476433021842
  0
ARC
  5
123
330
2
100
AcDbEntity
  8
KIJUN
 62
     7
100
AcDbCircle
 10
441.4844068510958
 20
65.58377883406516
 30
0.0
 40
9.651439064326423
100
AcDbArc
 50
105.4065363595172
 51
144.2528750135839
  0
ARC
  5
124
330
2
100
AcDbEntity
  8
KIJUN
 62
     7
100
AcDbCircle
 10
443.0536155392535
 20
92.76606076501336
 30
0.0
 40
17.58488122991515
100
AcDbArc
 50
241.9592173583294
 51
256.3647643302251
  0
ARC
  5
125
330
2
100
AcDbEntity
  8
KIJUN
 62
     7
100
AcDbCircle
 10
445.2895742627054
 20
67.04118517100565
 30
0.0
 40
0.081450625
100
AcDbArc
 50
354.1452588171881
 51
127.252533475042
  0
ARC
  5
126
330
2
100
AcDbEntity
  8
KIJUN
 62
     7
100
AcDbCircle
 10
443.1267429477146
 20
64.00955899839394
 30
0.0
 40
0.081450625
100
AcDbArc
 50
110.5828870447747
 51
224.2778839843581
  0
ARC
  5
127
330
2
100
AcDbEntity
  8
KIJUN
 62
     7
100
AcDbCircle
 10
445.1235168658406
 20
65.95662488030014
 30
0.0
 40
2.870387990484053
100
AcDbArc
 50
224.2778839842074
 51
279.0301294310548
  0
ARC
  5
128
330
2
100
AcDbEntity
  8
KIJUN
 62
     7
100
AcDbCircle
 10
442.2115923775542
 20
71.08856537862846
 30
0.0
 40
5.003356060644698
100
AcDbArc
 50
257.1070514650816
 51
307.2525334750988
  0
ARC
  5
129
330
2
100
AcDbEntity
  8
KIJUN
 62
     7
100
AcDbCircle
 10
441.8560447729842
 20
67.39326498931172
 30
0.0
 40
3.532984335575973
100
AcDbArc
 50
290.5828870449274
 51
354.1452588171799
  0
ARC
  5
12A
330
2
100
AcDbEntity
  8
KIJUN
 62
     7
100
AcDbCircle
 10
441.1109454080986
 20
74.26936030854886
 30
0.0
 40
8.058025089613366
100
AcDbArc
 50
202.2190003486465
 51
269.8879925396946
  0
ARC
  5
12B
330
2
100
AcDbEntity
  8
KIJUN
 62
     7
100
AcDbCircle
 10
445.7236851923264
 20
70.12862651842304
 30
0.0
 40
7.008411785334669
100
AcDbArc
 50
268.7764757117098
 51
294.1235109953867
  0
ARC
  5
12C
330
2
100
AcDbEntity
  8
KIJUN
 62
     7
100
AcDbCircle
 10
435.8897790711331
 20
-31.12028177827661
 30
0.0
 40
116.8812037699484
100
AcDbArc
 50
66.16371159166265
 51
74.42137020145378
  0
ARC
  5
12D
330
2
100
AcDbEntity
  8
KIJUN
 62
     7
100
AcDbCircle
 10
491.9649354157198
 20
-6.577534892301351
 30
0.0
 40
76.40219480600203
100
AcDbArc
 50
91.71377905859424
 51
95.52261725431176
  0
ARC
  5
12E
330
2
100
AcDbEntity
  8
KIJUN
 62
     7
100
AcDbCircle
 10
512.3025907844128
 20
102.8365095736211
 30
0.0
 40
40.04773651642755
100
AcDbArc
 50
226.9171156093801
 51
251.1634165566325
  0
ARC
  5
12F
330
2
100
AcDbEntity
  8
KIJUN
 62
     7
100
AcDbCircle
 10
490.1796081053241
 20
89.21937488903472
 30
0.0
 40
12.85551931494201
100
AcDbArc
 50
286.1568393513372
 51
315.6090468909084
  0
ARC
  5
130
330
2
100
AcDbEntity
  8
KIJUN
 62
     7
100
AcDbCircle
 10
380.4395623314088
 20
-157.3156166477006
 30
0.0
 40
253.1622450108649
100
AcDbArc
 50
66.07171160882917
 51
69.40328603213008
  0
ARC
  5
131
330
2
100
AcDbEntity
  8
KIJUN
 62
     7
100
AcDbCircle
 10
496.6439328962749
 20
72.54093061960451
 30
0.0
 40
5.204783969172329
100
AcDbArc
 50
123.6894728792433
 51
207.3648715266725
  0
ARC
  5
132
330
2
100
AcDbEntity
  8
KIJUN
 62
     7
100
AcDbCircle
 10
484.768863554578
 20
67.84857169628685
 30
0.0
 40
1.629012499999999
100
AcDbArc
 50
95.52261725430509
 51
219.3284945062447
  0
ARC
  5
133
330
2
100
AcDbEntity
  8
KIJUN
 62
     7
100
AcDbCircle
 10
488.9043919447265
 20
71.23689838844244
 30
0.0
 40
6.975352634941361
100
AcDbArc
 50
219.3284945062436
 51
262.0057607181907
  0
ARC
  5
134
330
2
100
AcDbEntity
  8
KIJUN
100
AcDbCircle
 10
461.9539002700483
 20
58.21473710755693
 30
0.0
 40
6.798519855847214
100
AcDbArc
 50
81.46890567204678
 51
157.4776993778908
  0
ARC
  5
135
330
2
100
AcDbEntity
  8
KIJUN
 62
     7
100
AcDbCircle
 10
459.7176703262063
 20
59.88894960490993
 30
0.0
 40
0.081450625
100
AcDbArc
 50
265.4659848342289
 51
55.83356367094296
  0
ARC
  5
136
330
2
100
AcDbEntity
  8
KIJUN
 62
     7
100
AcDbCircle
 10
463.8446875342885
 20
72.49127029592952
 30
0.0
 40
7.604586631764069
100
AcDbArc
 50
263.3377743109339
 51
277.6756777451985
  0
ARC
  5
137
330
2
100
AcDbEntity
  8
KIJUN
100
AcDbCircle
 10
456.6648694414396
 20
55.39122427405974
 30
0.0
 40
5.517361440475863
100
AcDbArc
 50
55.83356367078415
 51
100.3470033773089
  0
ARC
  5
138
330
2
100
AcDbEntity
  8
KIJUN
 62
     7
100
AcDbCircle
 10
464.6428180666041
 20
66.56923737997944
 30
0.0
 40
1.629012499999999
100
AcDbArc
 50
277.675677745192
 51
69.84975555663393
  0
ARC
  5
139
330
2
100
AcDbEntity
  8
KIJUN
 62
     7
100
AcDbCircle
 10
468.4977907333102
 20
71.58113128285305
 30
0.0
 40
8.145062499999998
100
AcDbArc
 50
82.93926807805458
 51
107.7675385459551
  0
ARC
  5
13A
330
2
100
AcDbEntity
  8
KIJUN
 62
     7
100
AcDbCircle
 10
485.06085284923
 20
56.96991060416853
 30
0.0
 40
7.900494166976137
100
AcDbArc
 50
351.7834201462755
 51
68.67206941001589
  0
ARC
  5
13B
330
2
100
AcDbEntity
  8
KIJUN
100
AcDbCircle
 10
446.4699471794094
 20
91.18704829962664
 30
0.0
 40
6.131636283450736
100
AcDbArc
 50
24.78034062192118
 51
96.21210406951043
  0
ARC
  5
13C
330
2
100
AcDbEntity
  8
KIJUN
100
AcDbCircle
 10
442.3043567242973
 20
94.59608709247637
 30
0.0
 40
4.41388915238069
100
AcDbArc
 50
7.808603931625228
 51
37.49325638821105
  0
ARC
  5
13D
330
2
100
AcDbEntity
  8
KIJUN
100
AcDbCircle
 10
444.8031503035274
 20
80.25949958245323
 30
0.0
 40
15.0534014462812
100
AcDbArc
 50
82.84804446247745
 51
104.7022155087929
  0
ARC
  5
13E
330
2
100
AcDbEntity
  8
KIJUN
100
AcDbCircle
 10
445.4493668506176
 20
86.15471287640785
 30
0.0
 40
0.4887037499999999
100
AcDbArc
 50
244.1116066751491
 51
27.95577332193965
  0
ARC
  5
13F
330
2
100
AcDbEntity
  8
KIJUN
100
AcDbCircle
 10
436.9200585400734
 20
67.89524814385853
 30
0.0
 40
19.66469238214276
100
AcDbArc
 50
64.98304829417368
 51
111.9988555473739
  0
ARC
  5
140
330
2
100
AcDbEntity
  8
KIJUN
 62
     7
100
AcDbCircle
 10
448.3936215227201
 20
93.48290270436644
 30
0.0
 40
7.530613059133142
100
AcDbArc
 50
169.7724603213076
 51
250.5096239142452
  0
ARC
  5
141
330
2
100
AcDbEntity
  8
KIJUN
 62
     7
100
AcDbCircle
 10
461.9000687651758
 20
94.68731220538677
 30
0.0
 40
7.530613059133142
100
AcDbArc
 50
141.5872146539773
 51
200.7047706721803
  0
LINE
  5
142
330
2
100
AcDbEntity
  8
KIJUN
 62
     7
100
AcDbLine
 10
453.5794524248729
 20
91.53053654296863
 30
0.0
 11
454.501787554849
 21
91.47449515653022
 31
0.0
  0
ARC
  5
143
330
2
100
AcDbEntity
  8
KIJUN
 62
     7
100
AcDbCircle
 10
457.7046049300094
 20
95.64413830880111
 30
0.0
 40
5.973516037043527
100
AcDbArc
 50
198.4155457736078
 51
221.7605772306879
  0
ARC
  5
144
330
2
100
AcDbEntity
  8
KIJUN
 62
     7
100
AcDbCircle
 10
453.5525377463634
 20
91.93689932165684
 30
0.0
 40
0.4072531249999999
100
AcDbArc
 50
221.7605772306788
 51
273.7893441802349
  0
ARC
  5
145
330
2
100
AcDbEntity
  8
KIJUN
100
AcDbCircle
 10
476.631809767892
 20
94.51566847704963
 30
0.0
 40
11.32694420128306
100
AcDbArc
 50
1.403340711443588
 51
64.8385127647705
  0
ARC
  5
146
330
2
100
AcDbEntity
  8
KIJUN
 62
     7
100
AcDbCircle
 10
477.8137641404669
 20
97.77029860567466
 30
0.0
 40
12.16246875186587
100
AcDbArc
 50
344.8943261707324
 51
16.7089214924803
  0
ARC
  5
147
330
2
100
AcDbEntity
  8
KIJUN
 62
     7
100
AcDbCircle
 10
490.2428219102583
 20
101.5013042548608
 30
0.0
 40
0.8145062499999998
100
AcDbArc
 50
66.37938142666415
 51
196.7089214924838
  0
ARC
  5
148
330
2
100
AcDbEntity
  8
KIJUN
 62
     7
100
AcDbCircle
 10
488.7696185553756
 20
94.81301827011677
 30
0.0
 40
0.8145062499999998
100
AcDbArc
 50
181.4033407114395
 51
344.8943261707253
  0
ARC
  5
149
330
2
100
AcDbEntity
  8
KIJUN
100
AcDbCircle
 10
471.2076668682645
 20
93.34020638552814
 30
0.0
 40
5.855804050313214
100
AcDbArc
 50
28.3652520875024
 51
86.675598631238
  0
ARC
  5
14A
330
2
100
AcDbEntity
  8
KIJUN
100
AcDbCircle
 10
482.4239474764161
 20
99.02001241520823
 30
0.0
 40
5.83013806446333
100
AcDbArc
 50
99.63951953604759
 51
202.5067551402226
  0
ARC
  5
14B
330
2
100
AcDbEntity
  8
KIJUN
100
AcDbCircle
 10
476.6186123911918
 20
96.53716596275295
 30
0.0
 40
0.4887037499999999
100
AcDbArc
 50
238.1058145318843
 51
30.91976463224787
  0
ARC
  5
14C
330
2
100
AcDbEntity
  8
KIJUN
100
AcDbCircle
 10
476.0048055733439
 20
96.38860993088357
 30
0.0
 40
5.262713605960124
100
AcDbArc
 50
147.8878170798845
 51
219.0484112467807
  0
ARC
  5
14D
330
2
100
AcDbEntity
  8
KIJUN
 62
     7
100
AcDbCircle
 10
471.9548265057108
 20
87.11807559665293
 30
0.0
 40
1.593555919252944
100
AcDbArc
 50
218.3740346125218
 51
355.8158398718803
  0
ARC
  5
14E
330
2
100
AcDbEntity
  8
KIJUN
 62
     7
100
AcDbCircle
 10
498.2890684019891
 20
87.01521652836914
 30
0.0
 40
0.8145062499999998
100
AcDbArc
 50
163.2819300781847
 51
297.1669584094876
  0
ARC
  5
14F
330
2
100
AcDbEntity
  8
KIJUN
 62
     7
100
AcDbCircle
 10
466.9240282032221
 20
88.48194885239367
 30
0.0
 40
6.783556496661212
100
AcDbArc
 50
347.396918529757
 51
42.59595191165612
  0
ARC
  5
150
330
2
100
AcDbEntity
  8
KIJUN
 62
     7
100
AcDbCircle
 10
454.4748728763386
 20
91.88085793521791
 30
0.0
 40
0.4072531249999999
100
AcDbArc
 50
273.7893441803394
 51
20.70477067218571
  0
ARC
  5
151
330
2
100
AcDbEntity
  8
KIJUN
100
AcDbCircle
 10
457.4862639701857
 20
100.1528995694615
 30
0.0
 40
4.863793437411157
100
AcDbArc
 50
319.7105987480455
 51
347.9816592188855
  0
ARC
  5
152
330
2
100
AcDbEntity
  8
KIJUN
100
AcDbCircle
 10
452.4896092204959
 20
84.72773767338884
 30
0.0
 40
15.0534014462812
100
AcDbArc
 50
54.66279879514575
 51
76.5169698414633
  0
ARC
  5
153
330
2
100
AcDbEntity
  8
KIJUN
 62
     7
100
AcDbCircle
 10
454.8798335909904
 20
89.25194421534284
 30
0.0
 40
12.32879459163978
100
AcDbArc
 50
16.74167001139868
 51
53.32540301985868
  0
ARC
  5
154
330
2
100
AcDbEntity
  8
KIJUN
 62
     7
100
AcDbCircle
 10
484.3138363732604
 20
98.87141608995323
 30
0.0
 40
18.64297111871962
100
AcDbArc
 50
198.9951829696141
 51
223.1183330112877
  0
ARC
  5
155
330
2
100
AcDbEntity
  8
KIJUN
100
AcDbCircle
 10
529.5163920763586
 20
65.16431946238245
 30
0.0
 40
25.14236171758992
100
AcDbArc
 50
131.0627569860394
 51
139.635551590977
  0
ARC
  5
156
330
2
100
AcDbEntity
  8
KIJUN
100
AcDbCircle
 10
531.0049382261693
 20
64.17040632242503
 30
0.0
 40
25.28990786363198
100
AcDbArc
 50
110.1493483496927
 51
138.5219314138079
  0
ARC
  5
157
330
2
100
AcDbEntity
  8
KIJUN
100
AcDbCircle
 10
449.9170911925545
 20
150.7356749412591
 30
0.0
 40
109.5108626806539
100
AcDbArc
 50
305.48437602981
 51
309.8805542057079
  0
ARC
  5
158
330
2
100
AcDbEntity
  8
KIJUN
 62
     7
100
AcDbCircle
 10
529.0993202564448
 20
87.00763320961961
 30
0.0
 40
20.53499390700882
100
AcDbArc
 50
228.6590037285646
 51
248.4501164464096
  0
ARC
  5
159
330
2
100
AcDbEntity
  8
KIJUN
100
AcDbCircle
 10
449.9170911925545
 20
150.7356749412591
 30
0.0
 40
109.5108626806539
100
AcDbArc
 50
310.8572816896301
 51
311.3689271715377
  0
ARC
  5
15A
330
2
100
AcDbEntity
  8
KIJUN
100
AcDbCircle
 10
516.2227259369516
 20
78.15472407015533
 30
0.0
 40
5.0
100
AcDbArc
 50
146.4127512912558
 51
199.3893609137794
  0
ARC
  5
15B
330
2
100
AcDbEntity
  8
KIJUN
100
AcDbCircle
 10
520.2542739565758
 20
79.57361485405553
 30
0.0
 40
9.273947881195052
100
AcDbArc
 50
199.3893609137794
 51
239.4122345196719
  0
ARC
  5
15C
330
2
100
AcDbEntity
  8
KIJUN
 62
     7
100
AcDbCircle
 10
527.444437491327
 20
85.88869765739653
 30
0.0
 40
20.53499390700882
100
AcDbArc
 50
228.6590037285646
 51
249.1461410538497
  0
ARC
  5
15D
330
2
100
AcDbEntity
  8
KIJUN
 62
     7
100
AcDbCircle
 10
520.2919393073203
 20
58.26968369559224
 30
0.0
 40
4.049484550496365
100
AcDbArc
 50
60.38022938156185
 51
104.4463709996105
  0
ARC
  5
15E
330
2
100
AcDbEntity
  8
KIJUN
100
AcDbCircle
 10
441.879801444363
 20
142.623575246566
 30
0.0
 40
111.6263054479913
100
AcDbArc
 50
310.072847065857
 51
316.0860143821694
  0
ARC
  5
15F
330
2
100
AcDbEntity
  8
KIJUN
100
AcDbCircle
 10
514.6770373405404
 20
53.22954775619514
 30
0.0
 40
9.273947881195052
100
AcDbArc
 50
34.78882885034025
 51
64.53097307697236
  0
ARC
  5
160
330
2
100
AcDbEntity
  8
KIJUN
100
AcDbCircle
 10
514.5507113860272
 20
78.72134454896664
 30
0.0
 40
5.0
100
AcDbArc
 50
146.956797742233
 51
174.7265470766583
  0
ARC
  5
161
330
2
100
AcDbEntity
  8
KIJUN
100
AcDbCircle
 10
518.8065693115127
 20
78.32852931345644
 30
0.0
 40
9.273947881195052
100
AcDbArc
 50
174.7265470766583
 51
237.9136055634361
  0
ARC
  5
162
330
2
100
AcDbEntity
  8
KIJUN
 62
     7
100
AcDbCircle
 10
509.1972362994754
 20
87.35027785306215
 30
0.0
 40
1.937286554369229
100
AcDbArc
 50
301.2197696944229
 51
355.2604473173847
  0
ARC
  5
163
330
2
100
AcDbEntity
  8
KIJUN
 62
     7
100
AcDbCircle
 10
511.9272040056664
 20
85.72063907095154
 30
0.0
 40
1.786500582656346
100
AcDbArc
 50
130.9607840437983
 51
171.7259705763491
  0
ARC
  5
164
330
2
100
AcDbEntity
  8
KIJUN
100
AcDbCircle
 10
516.8849977283604
 20
94.77147277705004
 30
0.0
 40
11.33626912523647
100
AcDbArc
 50
234.9000541849509
 51
249.9622347056194
  0
ARC
  5
165
330
2
100
AcDbEntity
  8
KIJUN
 62
     7
100
AcDbCircle
 10
510.6540944531332
 20
85.9057763616907
 30
0.0
 40
0.5
100
AcDbArc
 50
171.7259705763471
 51
234.9000541849409
  0
ARC
  5
166
330
2
100
AcDbEntity
  8
KIJUN
100
AcDbCircle
 10
515.0213150189416
 20
91.32412041120792
 30
0.0
 40
5.579373747614106
100
AcDbArc
 50
229.6333633148965
 51
270.5441260274382
  0
ARC
  5
167
330
2
100
AcDbEntity
  8
KIJUN
 62
     7
100
AcDbCircle
 10
511.0838484338781
 20
86.69215084581987
 30
0.0
 40
0.5
100
AcDbArc
 50
49.63336331487996
 51
130.9607840438067
  0
ARC
  5
168
330
2
100
AcDbEntity
  8
KIJUN
100
AcDbCircle
 10
529.5163920763586
 20
65.16431946238245
 30
0.0
 40
25.14236171758992
100
AcDbArc
 50
106.6954934386555
 51
125.0585131140372
  0
ARC
  5
169
330
2
100
AcDbEntity
  8
KIJUN
100
AcDbCircle
 10
540.9575505717026
 20
144.30714588394
 30
0.0
 40
48.65146623908756
100
AcDbArc
 50
241.6821145089372
 51
247.4412535117583
  0
ARC
  5
16A
330
2
100
AcDbEntity
  8
KIJUN
100
AcDbCircle
 10
519.4916243665382
 20
104.579702071872
 30
0.0
 40
6.97447271370665
100
AcDbArc
 50
178.5351603248436
 51
262.9218438524237
  0
ARC
  5
16B
330
2
100
AcDbEntity
  8
KIJUN
100
AcDbCircle
 10
539.467955962698
 20
145.5840634474626
 30
0.0
 40
49.10639967026103
100
AcDbArc
 50
243.9194431401865
 51
249.5284378288411
  0
ARC
  5
16C
330
2
100
AcDbEntity
  8
KIJUN
100
AcDbCircle
 10
520.9908049964613
 20
105.1194023400854
 30
0.0
 40
0.5
100
AcDbArc
 50
238.0385703574282
 51
9.106135889543958
  0
ARC
  5
16D
330
2
100
AcDbEntity
  8
KIJUN
100
AcDbCircle
 10
516.5715919200534
 20
98.03657771906285
 30
0.0
 40
7.848403968835039
100
AcDbArc
 50
58.03857035739779
 51
121.0846445546186
  0
ARC
  5
16E
330
2
100
AcDbEntity
  8
KIJUN
100
AcDbCircle
 10
523.2077483413356
 20
106.3788520043641
 30
0.0
 40
2.088713250587398
100
AcDbArc
 50
135.7678701402927
 51
214.4087670129366
  0
ARC
  5
16F
330
2
100
AcDbEntity
  8
KIJUN
100
AcDbCircle
 10
519.5253021285276
 20
95.64081692399062
 30
0.0
 40
12.3893992381167
100
AcDbArc
 50
77.08990783183908
 51
79.83820494872043
  0
ARC
  5
170
330
2
100
AcDbEntity
  8
KIJUN
100
AcDbCircle
 10
519.1018966127501
 20
94.43851126998964
 30
0.0
 40
3.489527357898803
100
AcDbArc
 50
107.8642282606833
 51
175.9662579278386
  0
ARC
  5
171
330
2
100
AcDbEntity
  8
KIJUN
100
AcDbCircle
 10
523.0013690719695
 20
103.6506837106957
 30
0.0
 40
11.61341693107974
100
AcDbArc
 50
230.5427357178006
 51
266.5048300134241
  0
ARC
  5
172
330
2
100
AcDbEntity
  8
KIJUN
 62
     7
100
AcDbCircle
 10
310.3852971462878
 20
-61.76618405307436
 30
0.0
 40
174.2724173562583
100
AcDbArc
 50
42.77991764891171
 51
52.47580683346416
  0
ARC
  5
173
330
2
100
AcDbEntity
  8
KIJUN
100
AcDbCircle
 10
355.6394013123684
 20
27.84740789447317
 30
0.0
 40
76.80688221104614
100
AcDbArc
 50
52.81076328669216
 51
103.8067229126576
  0
ARC
  5
174
330
2
100
AcDbEntity
  8
KIJUN
 62
     7
100
AcDbCircle
 10
345.4354775703438
 20
62.77635345853453
 30
0.0
 40
40.48261092478449
100
AcDbArc
 50
101.579311116476
 51
114.3275925280019
  0
LINE
  5
175
330
2
100
AcDbEntity
  8
KIJUN
 62
     7
100
AcDbLine
 10
465.2914077216281
 20
39.16804531609095
 30
0.0
 11
448.7946215343946
 21
40.73655947639867
 31
0.0
  0
ARC
  5
176
330
2
100
AcDbEntity
  8
KIJUN
100
AcDbCircle
 10
405.7181631850992
 20
65.78919896533616
 30
0.0
 40
5.0
100
AcDbArc
 50
163.0735061811652
 51
194.6501424953774
  0
ARC
  5
177
330
2
100
AcDbEntity
  8
KIJUN
100
AcDbCircle
 10
402.7341910339689
 20
53.3408956096752
 30
0.0
 40
11.33626912523647
100
AcDbArc
 50
99.41005038367915
 51
123.9730532061555
  0
ARC
  5
178
330
2
100
AcDbEntity
  8
KIJUN
100
AcDbCircle
 10
401.1039115480564
 20
56.76093149067003
 30
0.0
 40
5.635974480895928
100
AcDbArc
 50
79.45654296095948
 51
132.2995546601775
  0
ARC
  5
179
330
2
100
AcDbEntity
  8
KIJUN
 62
     7
100
AcDbCircle
 10
395.3703348059842
 20
61.08917347237064
 30
0.0
 40
1.94708571583534
100
AcDbArc
 50
355.2961845813137
 51
58.09303227663899
  0
ARC
  5
17A
330
2
100
AcDbEntity
  8
KIJUN
 62
     7
100
AcDbCircle
 10
398.3399783463054
 20
62.58239845728184
 30
0.0
 40
1.94708571583534
100
AcDbArc
 50
175.2961845813022
 51
238.0930322766301
  0
ARC
  5
17B
330
2
100
AcDbEntity
  8
KIJUN
100
AcDbCircle
 10
405.7181631850992
 20
65.78919896533616
 30
0.0
 40
5.0
100
AcDbArc
 50
224.22594772825
 51
250.7540618088095
  0
ARC
  5
17C
330
2
100
AcDbEntity
  8
KIJUN
 62
     7
100
AcDbCircle
 10
401.3143263391783
 20
-9.089308116440811
 30
0.0
 40
70.59751408444217
100
AcDbArc
 50
70.82282232427644
 51
79.99115547866228
  0
LINE
  5
17D
330
2
100
AcDbEntity
  8
KIJUN
 62
     7
100
AcDbLine
 10
429.1420737676246
 20
56.17570512314284
 30
0.0
 11
432.3184926791657
 21
55.20653675938814
 31
0.0
  0
LINE
  5
17E
330
2
100
AcDbEntity
  8
KIJUN
 62
     7
100
AcDbLine
 10
432.3184926791657
 20
55.20653675938814
 30
0.0
 11
436.2083658849331
 21
54.95051932776251
 31
0.0
  0
ARC
  5
17F
330
2
100
AcDbEntity
  8
KIJUN
 62
     7
100
AcDbCircle
 10
426.7882547886785
 20
55.40048186597953
 30
0.0
 40
2.487464897433529
100
AcDbArc
 50
318.0048482066078
 51
12.56870724588283
  0
ARC
  5
180
330
2
100
AcDbEntity
  8
KIJUN
 62
     7
100
AcDbCircle
 10
465.7646732444025
 20
44.14559689743618
 30
0.0
 40
5.0
100
AcDbArc
 50
264.5686458014773
 51
278.0356561686821
  0
LINE
  5
181
330
2
100
AcDbEntity
  8
KIJUN
 62
     7
100
AcDbLine
 10
465.678911363874
 20
41.20146061375662
 30
0.0
 11
449.3715580334318
 21
42.75196350114543
 31
0.0
  0
ELLIPSE
  5
182
330
2
100
AcDbEntity
  8
KIJUN
 62
     7
100
AcDbEllipse
 10
448.5892240993623
 20
41.81502726613785
 30
0.0
 11
-1.42388552657101
 21
-0.0937221807894479
 31
0.0
210
0.0
220
0.0
230
0.9999999999999998
 40
0.7669938240498519
 41
0.0
 42
6.283185307179584
  0
ARC
  5
183
330
2
100
AcDbEntity
  8
KIJUN
100
AcDbCircle
 10
440.3087698093971
 20
14.42333577396805
 30
0.0
 40
37.93472809020288
100
AcDbArc
 50
93.18609499252058
 51
101.5066588336473
  0
ARC
  5
184
330
2
100
AcDbEntity
  8
KIJUN
 62
     7
100
AcDbCircle
 10
459.6211482003916
 20
62.38589127315035
 30
0.0
 40
18.63467847621966
100
AcDbArc
 50
220.3269240540175
 51
278.7482764275515
  0
ARC
  5
185
330
2
100
AcDbEntity
  8
KIJUN
100
AcDbCircle
 10
418.000497775108
 20
66.62280976843534
 30
0.0
 40
15.07706532792591
100
AcDbArc
 50
134.0485907860542
 51
176.5376436749274
  0
ARC
  5
186
330
2
100
AcDbEntity
  8
KIJUN
100
AcDbCircle
 10
407.9418261925809
 20
67.23139141304104
 30
0.0
 40
5.0
100
AcDbArc
 50
176.5376436749273
 51
247.701001112917
  0
ARC
  5
187
330
2
100
AcDbEntity
  8
KIJUN
100
AcDbCircle
 10
221.8798014443631
 20
142.623575246566
 30
0.0
 40
111.6263054479913
100
AcDbArc
 50
316.0860143821695
 51
322.1324318026639
  0
ARC
  5
188
330
2
100
AcDbEntity
  8
KIJUN
 62
     7
100
AcDbCircle
 10
432.8980361684305
 20
50.97189543274274
 30
0.0
 40
0.6430855066826573
100
AcDbArc
 50
104.0898604355384
 51
259.9919893540461
  0
ARC
  5
189
330
2
100
AcDbEntity
  8
KIJUN
 62
     7
100
AcDbCircle
 10
204.1960912013881
 20
-205.5028504724601
 30
0.0
 40
350.0848729481323
100
AcDbArc
 50
48.18017700732383
 51
53.98359617971573
  0
ARC
  5
18A
330
2
100
AcDbEntity
  8
KIJUN
 62
     7
100
AcDbCircle
 10
408.9084304889168
 20
76.02195600914345
 30
0.0
 40
2.0
100
AcDbArc
 50
55.12887162038272
 51
134.048590786053
  0
ARC
  5
18B
330
2
100
AcDbEntity
  8
KIJUN
 62
     7
100
AcDbCircle
 10
385.7546157454524
 20
-14.2048754242581
 30
0.0
 40
97.42666306625825
100
AcDbArc
 50
77.26243472539126
 51
99.49592091862486
  0
ARC
  5
18C
330
2
100
AcDbEntity
  8
KIJUN
100
AcDbCircle
 10
356.0650846908522
 20
7.097336830458687
 30
0.0
 40
91.264587772205
100
AcDbArc
 50
54.24026424868841
 51
54.89208874934868
  0
ARC
  5
18D
330
2
100
AcDbEntity
  8
KIJUN
100
AcDbCircle
 10
351.0087463967597
 20
15.73401361164673
 30
0.0
 40
89.32984055446775
100
AcDbArc
 50
48.01166293713839
 51
49.39812634461051
  0
ARC
  5
18E
330
2
100
AcDbEntity
  8
KIJUN
100
AcDbCircle
 10
415.3189029014819
 20
151.2408092790937
 30
0.0
 40
100.0
100
AcDbArc
 50
274.2898232257675
 51
281.9160691383411
  0
ARC
  5
18F
330
2
100
AcDbEntity
  8
KIJUN
 62
     7
100
AcDbCircle
 10
418.2592878831957
 20
41.34186205753763
 30
0.0
 40
9.433606520825726
100
AcDbArc
 50
106.0234832709972
 51
123.2292986983317
  0
ARC
  5
190
330
2
100
AcDbEntity
  8
KIJUN
 62
     7
100
AcDbCircle
 10
420.227353160684
 20
40.8969116855082
 30
0.0
 40
10.97426118954554
100
AcDbArc
 50
114.6210290766475
 51
130.5713382991679
  0
ARC
  5
191
330
2
100
AcDbEntity
  8
KIJUN
100
AcDbCircle
 10
425.058470662512
 20
13.96811903170265
 30
0.0
 40
38.08439562109447
100
AcDbArc
 50
93.40114483093174
 51
104.2943262593851
  0
ARC
  5
192
330
2
100
AcDbEntity
  8
KIJUN
100
AcDbCircle
 10
419.9572413269477
 20
118.9267800424965
 30
0.0
 40
67.00163958521264
100
AcDbArc
 50
272.430885043741
 51
279.3144861115128
  0
LINE
  5
193
330
2
100
AcDbEntity
  8
KIJUN
 62
     7
100
AcDbLine
 10
430.801679340506
 20
52.80856869889753
 30
0.0
 11
435.9667638313519
 21
53.39569780682477
 31
0.0
  0
ARC
  5
194
330
2
100
AcDbEntity
  8
KIJUN
100
AcDbCircle
 10
520.9306503513541
 20
49.39198743745834
 30
0.0
 40
3.475655844438501
100
AcDbArc
 50
66.91639802850817
 51
293.0836019714918
  0
ELLIPSE
  5
195
330
2
100
AcDbEntity
  8
KIJUN
 62
     7
100
AcDbEllipse
 10
228.5892240993624
 20
41.81502726613785
 30
0.0
 11
-1.42388552657101
 21
-0.0937221807894479
 31
0.0
210
0.0
220
0.0
230
0.9999999999999998
 40
0.7669938240498519
 41
0.0
 42
6.283185307179584
  0
ARC
  5
196
330
2
100
AcDbEntity
  8
KIJUN
100
AcDbCircle
 10
135.2462490335022
 20
25.75233424832737
 30
0.0
 40
76.96937156061776
100
AcDbArc
 50
47.14096412649382
 51
103.4758618919219
  0
ARC
  5
197
330
2
100
AcDbEntity
  8
KIJUN
 62
     7
100
AcDbCircle
 10
165.7546157454524
 20
-14.2048754242581
 30
0.0
 40
97.42666306625825
100
AcDbArc
 50
77.26243472539126
 51
99.49592091862486
  0
ARC
  5
198
330
2
100
AcDbEntity
  8
KIJUN
 62
     7
100
AcDbCircle
 10
165.7249772522325
 20
3.482047520812271
 30
0.0
 40
78.61057152937326
100
AcDbArc
 50
74.64337954789266
 51
100.4645898288345
  0
ARC
  5
199
330
2
100
AcDbEntity
  8
KIJUN
100
AcDbCircle
 10
135.6394013123684
 20
27.84740789447317
 30
0.0
 40
76.80688221104614
100
AcDbArc
 50
52.81076328669216
 51
103.8067229126576
  0
ARC
  5
19A
330
2
100
AcDbEntity
  8
KIJUN
100
AcDbCircle
 10
166.4108959849184
 20
55.24682252671694
 30
0.0
 40
11.30170171512245
100
AcDbArc
 50
199.9577316663622
 51
255.8398937468377
  0
ARC
  5
19B
330
2
100
AcDbEntity
  8
KIJUN
100
AcDbCircle
 10
159.0014560992602
 20
69.72146546872862
 30
0.0
 40
7.567694546164952
100
AcDbArc
 50
5.828353632197377
 51
92.15441190945716
  0
ARC
  5
19C
330
2
100
AcDbEntity
  8
KIJUN
100
AcDbCircle
 10
121.2947653638487
 20
61.38156847628672
 30
0.0
 40
10.58286877647421
100
AcDbArc
 50
299.2395135875373
 51
343.1481114592268
  0
ARC
  5
19D
330
2
100
AcDbEntity
  8
KIJUN
 62
     7
100
AcDbCircle
 10
139.1331230854414
 20
49.75927986978518
 30
0.0
 40
8.631973733383722
100
AcDbArc
 50
120.8655189116489
 51
190.9438737357556
  0
ARC
  5
19E
330
2
100
AcDbEntity
  8
KIJUN
 62
     7
100
AcDbCircle
 10
129.2124842033325
 20
51.42198404417885
 30
0.0
 40
11.96914771112834
100
AcDbArc
 50
141.5495380694626
 51
189.1158504173468
  0
ARC
  5
19F
330
2
100
AcDbEntity
  8
KIJUN
100
AcDbCircle
 10
134.6767981995802
 20
59.38457855087587
 30
0.0
 40
10.58286877647421
100
AcDbArc
 50
299.2395135875373
 51
11.72797050682123
  0
ARC
  5
1A0
330
2
100
AcDbEntity
  8
KIJUN
100
AcDbCircle
 10
164.5074893597487
 20
56.30736843695574
 30
0.0
 40
15.97980994908321
100
AcDbArc
 50
154.2897222409854
 51
210.8747576591636
  0
CIRCLE
  5
1A1
330
2
100
AcDbEntity
  8
KIJUN
100
AcDbCircle
 10
92.84563445760824
 20
55.91756599916735
 30
0.0
 40
3.475655844438501
  0
CIRCLE
  5
1A2
330
2
100
AcDbEntity
  8
KIJUN
100
AcDbCircle
 10
86.05899265453746
 20
53.98290284626735
 30
0.0
 40
3.475655844438501
  0
ARC
  5
1A3
330
2
100
AcDbEntity
  8
KIJUN
100
AcDbCircle
 10
80.93065035135424
 20
49.39198743745834
 30
0.0
 40
3.475655844438501
100
AcDbArc
 50
293.0836019714918
 51
66.91639802850817
  0
CIRCLE
  5
1A4
330
2
100
AcDbEntity
  8
KIJUN
100
AcDbCircle
 10
93.20130603416492
 20
46.18440743384717
 30
0.0
 40
3.475655844438501
  0
CIRCLE
  5
1A5
330
2
100
AcDbEntity
  8
KIJUN
100
AcDbCircle
 10
86.05777335796464
 20
44.32963723789298
 30
0.0
 40
3.475655844438501
  0
ARC
  5
1A6
330
2
100
AcDbEntity
  8
KIJUN
100
AcDbCircle
 10
127.1477960144914
 20
53.93699610743606
 30
0.0
 40
0.45
100
AcDbArc
 50
336.8371879515964
 51
142.0679283165156
  0
ARC
  5
1A7
330
2
100
AcDbEntity
  8
KIJUN
100
AcDbCircle
 10
122.8906447122902
 20
55.75834370230444
 30
0.0
 40
5.080404331282784
100
AcDbArc
 50
314.6986610668429
 51
336.8371879516021
  0
ARC
  5
1A8
330
2
100
AcDbEntity
  8
KIJUN
100
AcDbCircle
 10
117.1921916616453
 20
61.69617648553944
 30
0.0
 40
12.17216059834232
100
AcDbArc
 50
270.9523640451299
 51
322.067928316544
  0
ARC
  5
1A9
330
2
100
AcDbEntity
  8
KIJUN
100
AcDbCircle
 10
140.6317702596123
 20
52.19963837294635
 30
0.0
 40
0.45
100
AcDbArc
 50
340.2891163846345
 51
140.9425200808611
  0
ARC
  5
1AA
330
2
100
AcDbEntity
  8
KIJUN
100
AcDbCircle
 10
131.1061747879069
 20
59.92914905768355
 30
0.0
 40
11.81712291110017
100
AcDbArc
 50
267.8271343325401
 51
320.9425200808847
  0
ARC
  5
1AB
330
2
100
AcDbEntity
  8
KIJUN
100
AcDbCircle
 10
136.2726775480221
 20
53.76135377689357
 30
0.0
 40
5.080404331282784
100
AcDbArc
 50
314.6986610668429
 51
340.2891163846275
  0
ARC
  5
1AC
330
2
100
AcDbEntity
  8
KIJUN
100
AcDbCircle
 10
154.9419713622826
 20
51.08205449654708
 30
0.0
 40
0.9
100
AcDbArc
 50
19.95773166636783
 51
165.3605282980547
  0
ARC
  5
1AD
330
2
100
AcDbEntity
  8
KIJUN
100
AcDbCircle
 10
149.7708215119622
 20
52.43284299951375
 30
0.0
 40
4.444662791441268
100
AcDbArc
 50
283.2847166799511
 51
345.3605282980634
  0
ARC
  5
1AE
330
2
100
AcDbEntity
  8
KIJUN
 62
     7
100
AcDbCircle
 10
28.8356623077305
 20
134.7625375672111
 30
0.0
 40
86.14399847020182
100
AcDbArc
 50
315.2379764208028
 51
327.3767630657829
  0
ARC
  5
1AF
330
2
100
AcDbEntity
  8
KIJUN
 62
     7
100
AcDbCircle
 10
29.98998046080834
 20
134.1143909360713
 30
0.0
 40
83.49642882088829
100
AcDbArc
 50
316.4400283057389
 51
328.7745515721816
  0
ARC
  5
1B0
330
2
100
AcDbEntity
  8
KIJUN
 62
     7
100
AcDbCircle
 10
157.2152515994851
 20
85.42142441814965
 30
0.0
 40
2.815651590337268
100
AcDbArc
 50
167.1938826433416
 51
238.8618979597604
  0
ARC
  5
1B1
330
2
100
AcDbEntity
  8
KIJUN
 62
     7
100
AcDbCircle
 10
159.0359442973634
 20
94.03836291500272
 30
0.0
 40
16.46277545229749
100
AcDbArc
 50
178.3041548555722
 51
229.8157196736024
  0
ARC
  5
1B2
330
2
100
AcDbEntity
  8
KIJUN
 62
     7
100
AcDbCircle
 10
158.4447894378857
 20
95.12467640867644
 30
0.0
 40
15.87571883170735
100
AcDbArc
 50
182.1627423696948
 51
236.4957856143536
  0
ARC
  5
1B3
330
2
100
AcDbEntity
  8
KIJUN
100
AcDbCircle
 10
120.1917575392351
 20
76.96035653574894
 30
0.0
 40
6.260099160547156
100
AcDbArc
 50
49.13395873843278
 51
125.1427524442727
  0
ARC
  5
1B4
330
2
100
AcDbEntity
  8
KIJUN
 62
     7
100
AcDbCircle
 10
135.4287682268121
 20
82.73077291719385
 30
0.0
 40
0.9
100
AcDbArc
 50
296.7642411266193
 51
93.51178086347154
  0
ARC
  5
1B5
330
2
100
AcDbEntity
  8
KIJUN
 62
     7
100
AcDbCircle
 10
135.0947203926213
 20
88.17403901684055
 30
0.0
 40
4.553506558819737
100
AcDbArc
 50
220.5224032487025
 51
273.5117808634781
  0
ARC
  5
1B6
330
2
100
AcDbEntity
  8
KIJUN
100
AcDbCircle
 10
119.9444356099723
 20
80.88878235357636
 30
0.0
 40
11.78610727927293
100
AcDbArc
 50
209.5555307594498
 51
238.474573377456
  0
ARC
  5
1B7
330
2
100
AcDbEntity
  8
KIJUN
100
AcDbCircle
 10
121.9908330004935
 20
62.87073328779024
 30
0.0
 40
17.32652616955196
100
AcDbArc
 50
83.47079218074423
 51
135.2210155642737
  0
ARC
  5
1B8
330
2
100
AcDbEntity
  8
KIJUN
100
AcDbCircle
 10
118.8315872671867
 20
57.10035505904002
 30
0.0
 40
13.9359696526032
100
AcDbArc
 50
112.1255260590503
 51
165.8329260118984
  0
ARC
  5
1B9
330
2
100
AcDbEntity
  8
KIJUN
100
AcDbCircle
 10
112.3154271833725
 20
74.19893113040365
 30
0.0
 40
15.3719823889704
100
AcDbArc
 50
242.9279029316365
 51
294.7740818596076
  0
ARC
  5
1BA
330
2
100
AcDbEntity
  8
KIJUN
100
AcDbCircle
 10
74.67703734054047
 20
53.22954775619514
 30
0.0
 40
9.273947881195052
100
AcDbArc
 50
19.21175933651767
 51
34.78882885033919
  0
ARC
  5
1BB
330
2
100
AcDbEntity
  8
KIJUN
 62
     7
100
AcDbCircle
 10
80.29193930732054
 20
58.26968369559224
 30
0.0
 40
4.049484550496365
100
AcDbArc
 50
341.1713359387771
 51
60.38022938156185
  0
ARC
  5
1BC
330
2
100
AcDbEntity
  8
KIJUN
100
AcDbCircle
 10
1.879801444363064
 20
142.623575246566
 30
0.0
 40
111.6263054479913
100
AcDbArc
 50
316.0860143821695
 51
322.1324318026639
  0
ARC
  5
1BD
330
2
100
AcDbEntity
  8
KIJUN
100
AcDbCircle
 10
9.917091192554657
 20
150.7356749412591
 30
0.0
 40
109.5108626806539
100
AcDbArc
 50
311.3689271715433
 51
317.3754559046888
  0
ARC
  5
1BE
330
2
100
AcDbEntity
  8
KIJUN
100
AcDbCircle
 10
113.5464578112813
 20
70.45862408836594
 30
0.0
 40
0.45
100
AcDbArc
 50
274.6304067306279
 51
58.47457337741831
  0
ARC
  5
1BF
330
2
100
AcDbEntity
  8
KIJUN
 62
     7
100
AcDbCircle
 10
131.85385352144
 20
58.18315469456404
 30
0.0
 40
0.45
100
AcDbArc
 50
93.70158050223723
 51
163.1481114592233
  0
ARC
  5
1C0
330
2
100
AcDbEntity
  8
KIJUN
 62
     7
100
AcDbCircle
 10
132.630078640385
 20
55.39586977325902
 30
0.0
 40
3.335027362833223
100
AcDbArc
 50
49.79405489839169
 51
103.9727504567915
  0
ARC
  5
1C1
330
2
100
AcDbEntity
  8
KIJUN
 62
     7
100
AcDbCircle
 10
134.5188665364568
 20
57.57857339206184
 30
0.0
 40
0.45
100
AcDbArc
 50
294.3920632732075
 51
54.06417139811761
  0
ARC
  5
1C2
330
2
100
AcDbEntity
  8
KIJUN
 62
     7
100
AcDbCircle
 10
119.1340614668855
 20
59.42450601892584
 30
0.0
 40
0.9
100
AcDbArc
 50
321.5495380694628
 51
114.7740818596076
  0
ARC
  5
1C3
330
2
100
AcDbEntity
  8
KIJUN
 62
     7
100
AcDbCircle
 10
148.7310630697255
 20
64.97253986100485
 30
0.0
 40
1.8
100
AcDbArc
 50
354.4048736606758
 51
121.0618598522865
  0
ARC
  5
1C4
330
2
100
AcDbEntity
  8
KIJUN
 62
     7
100
AcDbCircle
 10
150.7489085253685
 20
61.62247922289584
 30
0.0
 40
5.710831952649967
100
AcDbArc
 50
121.0618598522863
 51
180.8705879286104
  0
ARC
  5
1C5
330
2
100
AcDbEntity
  8
KIJUN
 62
     7
100
AcDbCircle
 10
145.535442701271
 20
65.28559874263713
 30
0.0
 40
5.01091815570713
100
AcDbArc
 50
335.9031661022166
 51
354.4048736606775
  0
ARC
  5
1C6
330
2
100
AcDbEntity
  8
KIJUN
 62
     7
100
AcDbCircle
 10
158.5632523746547
 20
81.59511815526604
 30
0.0
 40
4.31404675892694
100
AcDbArc
 50
184.1526290908251
 51
272.0419340621689
  0
ARC
  5
1C7
330
2
100
AcDbEntity
  8
KIJUN
 62
     7
100
AcDbCircle
 10
166.5307754257049
 20
7.815111649833794
 30
0.0
 40
75.96389578582503
100
AcDbArc
 50
103.8868501839658
 51
113.716731208396
  0
ARC
  5
1C8
330
2
100
AcDbEntity
  8
KIJUN
 62
     7
100
AcDbCircle
 10
189.6556981909409
 20
4.516754448140375
 30
0.0
 40
90.0
100
AcDbArc
 50
128.6208681563632
 51
134.0388617465763
  0
ARC
  5
1C9
330
2
100
AcDbEntity
  8
KIJUN
 62
     7
100
AcDbCircle
 10
190.3354211941576
 20
3.554306817656716
 30
0.0
 40
90.0
100
AcDbArc
 50
128.6208681563632
 51
134.0388617465763
  0
ARC
  5
1CA
330
2
100
AcDbEntity
  8
KIJUN
 62
     7
100
AcDbCircle
 10
116.0688345828732
 20
79.43669639145934
 30
0.0
 40
15.03353023038745
100
AcDbArc
 50
262.4425764693465
 51
317.1616643907751
  0
ARC
  5
1CB
330
2
100
AcDbEntity
  8
KIJUN
 62
     7
100
AcDbCircle
 10
117.5542566012234
 20
78.81918069391824
 30
0.0
 40
14.69908862599225
100
AcDbArc
 50
256.3749183747155
 51
314.0388617465764
  0
ARC
  5
1CC
330
2
100
AcDbEntity
  8
KIJUN
 62
     7
100
AcDbCircle
 10
201.5065538649211
 20
55.68400787524645
 30
0.0
 40
65.68938356066452
100
AcDbArc
 50
160.6856333979761
 51
176.3685434434267
  0
ARC
  5
1CD
330
2
100
AcDbEntity
  8
KIJUN
 62
     7
100
AcDbCircle
 10
204.6637709184663
 20
50.07108359868394
 30
0.0
 40
69.4062926289598
100
AcDbArc
 50
156.2809611234591
 51
171.9048731391166
  0
ARC
  5
1CE
330
2
100
AcDbEntity
  8
KIJUN
 62
     7
100
AcDbCircle
 10
90.92201775118775
 20
137.342825692349
 30
0.0
 40
76.80032696145445
100
AcDbArc
 50
304.2635600969135
 51
308.2056389020956
  0
ARC
  5
1CF
330
2
100
AcDbEntity
  8
KIJUN
 62
     7
100
AcDbCircle
 10
123.2455713445436
 20
98.95564649683963
 30
0.0
 40
26.21796659464468
100
AcDbArc
 50
253.543337472891
 51
292.8844183040591
  0
ARC
  5
1D0
330
2
100
AcDbEntity
  8
KIJUN
 62
     7
100
AcDbCircle
 10
166.0817675030856
 20
6.244253380841136
 30
0.0
 40
75.96389578582503
100
AcDbArc
 50
110.4712984600517
 51
111.3533302691814
  0
ARC
  5
1D1
330
2
100
AcDbEntity
  8
KIJUN
 62
     7
100
AcDbCircle
 10
137.0916230899113
 20
52.22579938672114
 30
0.0
 40
24.01422998601354
100
AcDbArc
 50
10.96324279108265
 51
46.78046308412485
  0
ARC
  5
1D2
330
2
100
AcDbEntity
  8
KIJUN
 62
     7
100
AcDbCircle
 10
135.4389653459146
 20
49.01151918750551
 30
0.0
 40
26.40135167167686
100
AcDbArc
 50
17.14138648062381
 51
51.28833027422805
  0
ARC
  5
1D3
330
2
100
AcDbEntity
  8
KIJUN
 62
     7
100
AcDbCircle
 10
155.7115930001699
 20
76.05016065613785
 30
0.0
 40
7.455802730164681
100
AcDbArc
 50
144.1842962484116
 51
239.7042570210016
  0
ARC
  5
1D4
330
2
100
AcDbEntity
  8
KIJUN
 62
     7
100
AcDbCircle
 10
166.0817675030856
 20
6.244253380841136
 30
0.0
 40
75.96389578582503
100
AcDbArc
 50
102.4803115743395
 51
109.1836097133624
  0
ARC
  5
1D5
330
2
100
AcDbEntity
  8
KIJUN
 62
     7
100
AcDbCircle
 10
157.2976430389851
 20
76.16339962975573
 30
0.0
 40
7.455802730164681
100
AcDbArc
 50
141.692491269148
 51
239.7042570210016
  0
ARC
  5
1D6
330
2
100
AcDbEntity
  8
KIJUN
100
AcDbCircle
 10
114.6861852648018
 20
77.36849832353643
 30
0.0
 40
5.080404331282784
100
AcDbArc
 50
29.31997642165696
 51
68.01205644369233
  0
ARC
  5
1D7
330
2
100
AcDbEntity
  8
KIJUN
 62
     7
100
AcDbCircle
 10
129.8181508627402
 20
93.85515355539414
 30
0.0
 40
13.35916818208956
100
AcDbArc
 50
245.5447711776978
 51
296.764241126619
  0
ARC
  5
1D8
330
2
100
AcDbEntity
  8
KIJUN
 62
     7
100
AcDbCircle
 10
121.4106784393173
 20
100.970120199266
 30
0.0
 40
27.7282115788144
100
AcDbArc
 50
258.364423435275
 51
301.5154431856784
  0
ARC
  5
1D9
330
2
100
AcDbEntity
  8
KIJUN
100
AcDbCircle
 10
122.4757319132939
 20
67.13367830138304
 30
0.0
 40
33.86527991993106
100
AcDbArc
 50
98.77463825618251
 51
125.9924065564128
  0
ARC
  5
1DA
330
2
100
AcDbEntity
  8
KIJUN
100
AcDbCircle
 10
127.8862760066138
 20
76.60956923514634
 30
0.0
 40
26.22080759194027
100
AcDbArc
 50
113.7889055544139
 51
163.8184001552026
  0
ARC
  5
1DB
330
2
100
AcDbEntity
  8
KIJUN
 62
     7
100
AcDbCircle
 10
125.4354775703439
 20
62.77635345853453
 30
0.0
 40
40.48261092478449
100
AcDbArc
 50
101.579311116476
 51
114.3275925280019
  0
ARC
  5
1DC
330
2
100
AcDbEntity
  8
KIJUN
100
AcDbCircle
 10
91.00493822616925
 20
64.17040632242503
 30
0.0
 40
25.28990786363198
100
AcDbArc
 50
98.63587954514855
 51
110.1493483496928
  0
ARC
  5
1DD
330
2
100
AcDbEntity
  8
KIJUN
100
AcDbCircle
 10
89.51639207635812
 20
65.16431946238245
 30
0.0
 40
25.14236171758992
100
AcDbArc
 50
100.2095220656169
 51
106.6954934386553
  0
ARC
  5
1DE
330
2
100
AcDbEntity
  8
KIJUN
100
AcDbCircle
 10
83.00136907197003
 20
103.6506837106957
 30
0.0
 40
11.61341693107974
100
AcDbArc
 50
266.5048300134241
 51
285.7897843808391
  0
ARC
  5
1DF
330
2
100
AcDbEntity
  8
KIJUN
100
AcDbCircle
 10
99.46795596269822
 20
145.5840634474626
 30
0.0
 40
49.10639967026103
100
AcDbArc
 50
249.5284378288413
 51
263.6134427777975
  0
ARC
  5
1E0
330
2
100
AcDbEntity
  8
KIJUN
100
AcDbCircle
 10
100.9575505717028
 20
144.30714588394
 30
0.0
 40
48.65146623908756
100
AcDbArc
 50
247.4412535117584
 51
261.4682062679654
  0
ARC
  5
1E1
330
2
100
AcDbEntity
  8
KIJUN
100
AcDbCircle
 10
141.975496069884
 20
7.763095654681656
 30
0.0
 40
95.67861594985314
100
AcDbArc
 50
113.0804346437159
 51
116.5384619421608
  0
ARC
  5
1E2
330
2
100
AcDbEntity
  8
KIJUN
 62
     7
100
AcDbCircle
 10
88.07256443961188
 20
151.9988129405616
 30
0.0
 40
57.18682796954112
100
AcDbArc
 50
274.0556940306598
 51
288.869401686631
  0
ARC
  5
1E3
330
2
100
AcDbEntity
  8
KIJUN
100
AcDbCircle
 10
132.0790194976019
 20
15.95403249219572
 30
0.0
 40
85.81126139240813
100
AcDbArc
 50
107.2954044246974
 51
113.4291533572856
  0
ARC
  5
1E4
330
2
100
AcDbEntity
  8
KIJUN
100
AcDbCircle
 10
101.7581534729068
 20
94.29938665341405
 30
0.0
 40
3.489527357898803
100
AcDbArc
 50
242.1670132755104
 51
273.5531088836338
  0
ARC
  5
1E5
330
2
100
AcDbEntity
  8
KIJUN
100
AcDbCircle
 10
106.7165472267703
 20
88.92307986527191
 30
0.0
 40
6.97447271370665
100
AcDbArc
 50
125.312728088153
 51
160.8278054538135
  0
ARC
  5
1E6
330
2
100
AcDbEntity
  8
KIJUN
100
AcDbCircle
 10
108.3562677793159
 20
88.00317184462514
 30
0.0
 40
6.97447271370665
100
AcDbArc
 50
156.210060827653
 51
215.8663286992648
  0
ARC
  5
1E7
330
2
100
AcDbEntity
  8
KIJUN
 62
     7
100
AcDbCircle
 10
92.23573556187403
 20
93.96224795711134
 30
0.0
 40
1.0
100
AcDbArc
 50
96.80951328203057
 51
161.9091986967045
  0
ARC
  5
1E8
330
2
100
AcDbEntity
  8
KIJUN
 62
     7
100
AcDbCircle
 10
95.87645569478596
 20
97.71454382146286
 30
0.0
 40
2.090235429672418
100
AcDbArc
 50
164.9035104000976
 51
206.4837507089924
  0
LINE
  5
1E9
330
2
100
AcDbEntity
  8
KIJUN
 62
     7
100
AcDbLine
 10
90.38504001550771
 20
91.51732276034374
 30
0.0
 11
91.28516996415811
 21
94.27277177977234
 31
0.0
  0
ARC
  5
1EA
330
2
100
AcDbEntity
  8
KIJUN
 62
     7
100
AcDbCircle
 10
86.6105338573446
 20
110.2314670337724
 30
0.0
 40
21.06633724395438
100
AcDbArc
 50
271.6239558017265
 51
306.7886893281545
  0
ARC
  5
1EB
330
2
100
AcDbEntity
  8
KIJUN
 62
     7
100
AcDbCircle
 10
85.64369440529782
 20
111.7818562383573
 30
0.0
 40
21.06633724395438
100
AcDbArc
 50
282.3752120472736
 51
305.7751246853275
  0
ARC
  5
1EC
330
2
100
AcDbEntity
  8
KIJUN
100
AcDbCircle
 10
89.80259979222074
 20
99.82411046125124
 30
0.0
 40
4.347291083713302
100
AcDbArc
 50
338.8976886103516
 51
74.31666834771617
  0
ARC
  5
1ED
330
2
100
AcDbEntity
  8
KIJUN
100
AcDbCircle
 10
82.92263813278152
 20
93.87444394997563
 30
0.0
 40
3.528058563390821
100
AcDbArc
 50
288.2984682607352
 51
336.6388963114482
  0
ARC
  5
1EE
330
2
100
AcDbEntity
  8
KIJUN
100
AcDbCircle
 10
86.75626677590418
 20
93.91126188698645
 30
0.0
 40
4.347291083713302
100
AcDbArc
 50
231.1677722601662
 51
326.5867519975397
  0
ARC
  5
1EF
330
2
100
AcDbEntity
  8
KIJUN
 62
     7
100
AcDbCircle
 10
82.5934685302089
 20
194.4056943361155
 30
0.0
 40
98.28804862199042
100
AcDbArc
 50
276.6675782710482
 51
285.4387459637588
  0
ARC
  5
1F0
330
2
100
AcDbEntity
  8
KIJUN
100
AcDbCircle
 10
90.56098381051725
 20
102.3004222075914
 30
0.0
 40
0.5
100
AcDbArc
 50
211.1093500280825
 51
347.2811031021678
  0
ARC
  5
1F1
330
2
100
AcDbEntity
  8
KIJUN
100
AcDbCircle
 10
87.60722780043607
 20
102.9671036129365
 30
0.0
 40
3.528058563390821
100
AcDbArc
 50
347.2811031021714
 51
17.18597234714509
  0
ARC
  5
1F2
330
2
100
AcDbEntity
  8
KIJUN
100
AcDbCircle
 10
79.52530212852781
 20
95.64081692399062
 30
0.0
 40
12.3893992381167
100
AcDbArc
 50
31.10935002809149
 51
79.83820494872043
  0
ARC
  5
1F3
330
2
100
AcDbEntity
  8
KIJUN
100
AcDbCircle
 10
145.8450013182812
 20
89.08052648801353
 30
0.0
 40
9.143063270321295
100
AcDbArc
 50
340.6130525669071
 51
48.09026311091027
  0
ARC
  5
1F4
330
2
100
AcDbEntity
  8
KIJUN
100
AcDbCircle
 10
137.7423081327818
 20
93.82543062843124
 30
0.0
 40
0.45
100
AcDbArc
 50
268.6246145873667
 51
61.43856468772857
  0
ARC
  5
1F5
330
2
100
AcDbEntity
  8
KIJUN
100
AcDbCircle
 10
137.4667337235217
 20
82.34776223790365
 30
0.0
 40
11.03097613175596
100
AcDbArc
 50
88.6246145873536
 51
129.164907424834
  0
ARC
  5
1F6
330
2
100
AcDbEntity
  8
KIJUN
100
AcDbCircle
 10
140.1982459846443
 20
98.33716215190037
 30
0.0
 40
4.686862084198403
100
AcDbArc
 50
130.7522452276037
 51
241.4385646877067
  0
ARC
  5
1F7
330
2
100
AcDbEntity
  8
KIJUN
100
AcDbCircle
 10
148.3141452020962
 20
95.2846764776771
 30
0.0
 40
0.45
100
AcDbArc
 50
200.3378389092409
 51
333.9503521074397
  0
ARC
  5
1F8
330
2
100
AcDbEntity
  8
KIJUN
100
AcDbCircle
 10
138.1125146076122
 20
91.5033176719357
 30
0.0
 40
10.42988700327627
100
AcDbArc
 50
20.33783890924336
 51
95.35731282024668
  0
ARC
  5
1F9
330
2
100
AcDbEntity
  8
KIJUN
100
AcDbCircle
 10
150.6688918359398
 20
94.13366292029705
 30
0.0
 40
2.17100437215842
100
AcDbArc
 50
53.76422233231445
 51
153.9503521074149
  0
ARC
  5
1FA
330
2
100
AcDbEntity
  8
KIJUN
100
AcDbCircle
 10
134.7951476298541
 20
87.04972691864794
 30
0.0
 40
3.655347227807721
100
AcDbArc
 50
189.0739674277416
 51
210.1201419875738
  0
ARC
  5
1FB
330
2
100
AcDbEntity
  8
KIJUN
100
AcDbCircle
 10
133.5805830650459
 20
86.62524984746971
 30
0.0
 40
0.45
100
AcDbArc
 50
273.4661996988061
 51
79.54473265196367
  0
ARC
  5
1FC
330
2
100
AcDbEntity
  8
KIJUN
100
AcDbCircle
 10
134.3633263261197
 20
90.86703398954943
 30
0.0
 40
3.8634000186345
100
AcDbArc
 50
179.5047924496661
 51
259.5447326520098
  0
ARC
  5
1FD
330
2
100
AcDbEntity
  8
KIJUN
100
AcDbCircle
 10
133.2014568601428
 20
92.88450401276865
 30
0.0
 40
6.720725586808642
100
AcDbArc
 50
252.5451299735645
 51
273.4661996987865
  0
ARC
  5
1FE
330
2
100
AcDbEntity
  8
KIJUN
100
AcDbCircle
 10
231.3070059868631
 20
150.0406921514396
 30
0.0
 40
111.877428529333
100
AcDbArc
 50
277.7860977031632
 51
303.9212125566256
  0
ARC
  5
1FF
330
2
100
AcDbEntity
  8
KIJUN
 62
     7
100
AcDbCircle
 10
-15.80390879861187
 20
-205.5028504724601
 30
0.0
 40
350.0848729481323
100
AcDbArc
 50
48.18017700732383
 51
53.98359617971573
  0
ARC
  5
200
330
2
100
AcDbEntity
  8
KIJUN
100
AcDbCircle
 10
216.2928175593768
 20
49.37928700246295
 30
0.0
 40
6.163629164415231
100
AcDbArc
 50
68.63479187992083
 51
94.38601171493914
  0
ARC
  5
201
330
2
100
AcDbEntity
  8
KIJUN
100
AcDbCircle
 10
231.8669081453907
 20
58.06674009388213
 30
0.0
 40
13.65060654702707
100
AcDbArc
 50
152.7082682279796
 51
192.4693643719982
  0
ARC
  5
202
330
2
100
AcDbEntity
  8
KIJUN
100
AcDbCircle
 10
248.2590615991919
 20
76.95936857619894
 30
0.0
 40
38.87977033121965
100
AcDbArc
 50
213.4563952169803
 51
241.7677250878683
  0
ARC
  5
203
330
2
100
AcDbEntity
  8
KIJUN
 62
     7
100
AcDbCircle
 10
206.7882547886787
 20
55.40048186597953
 30
0.0
 40
2.487464897433529
100
AcDbArc
 50
318.0048482066078
 51
12.56870724588283
  0
LINE
  5
204
330
2
100
AcDbEntity
  8
KIJUN
 62
     7
100
AcDbLine
 10
209.1420737676247
 20
56.17570512314284
 30
0.0
 11
212.3184926791656
 21
55.20653675938814
 31
0.0
  0
ARC
  5
205
330
2
100
AcDbEntity
  8
KIJUN
100
AcDbCircle
 10
291.9730917116502
 20
55.16603758423454
 30
0.0
 40
9.273947881195052
100
AcDbArc
 50
345.6499866136017
 51
43.88440539826441
  0
CIRCLE
  5
206
330
2
100
AcDbEntity
  8
KIJUN
100
AcDbCircle
 10
294.6712208831557
 20
52.85715085455257
 30
0.0
 40
3.475655844438501
  0
ARC
  5
207
330
2
100
AcDbEntity
  8
KIJUN
 62
     7
100
AcDbCircle
 10
150.0962169359601
 20
28.21778115839542
 30
0.0
 40
151.8522503364613
100
AcDbArc
 50
9.256082478265231
 51
12.57008655861374
  0
ARC
  5
208
330
2
100
AcDbEntity
  8
KIJUN
100
AcDbCircle
 10
228.6236427179348
 20
152.2085355460655
 30
0.0
 40
112.2387905028976
100
AcDbArc
 50
280.3900113852137
 51
304.4418417454894
  0
ARC
  5
209
330
2
100
AcDbEntity
  8
KIJUN
 62
     7
100
AcDbCircle
 10
239.8792642835686
 20
51.73085902496582
 30
0.0
 40
8.078642545614535
100
AcDbArc
 50
91.1918164564549
 51
163.3181008982506
  0
ARC
  5
20A
330
2
100
AcDbEntity
  8
KIJUN
 62
     7
100
AcDbCircle
 10
280.8825886445699
 20
51.07028407955723
 30
0.0
 40
27.58479385651014
100
AcDbArc
 50
125.2866300413165
 51
177.2277900010944
  0
ARC
  5
20B
330
2
100
AcDbEntity
  8
KIJUN
 62
     7
100
AcDbCircle
 10
281.3145839908428
 20
52.82148337253563
 30
0.0
 40
27.98761456823846
100
AcDbArc
 50
130.5476795612756
 51
180.8538135625281
  0
ARC
  5
20C
330
2
100
AcDbEntity
  8
KIJUN
100
AcDbCircle
 10
268.1385341567691
 20
56.48505936753934
 30
0.0
 40
4.785280236962456
100
AcDbArc
 50
280.4597234922771
 51
352.2626744165429
  0
ARC
  5
20D
330
2
100
AcDbEntity
  8
KIJUN
100
AcDbCircle
 10
196.1035728804692
 20
57.63208283476394
 30
0.0
 40
3.974220655232412
100
AcDbArc
 50
198.5888342458379
 51
262.1150371968105
  0
ARC
  5
20E
330
2
100
AcDbEntity
  8
KIJUN
100
AcDbCircle
 10
244.2063210176428
 20
66.10088849336834
 30
0.0
 40
24.53477595699535
100
AcDbArc
 50
184.1488887278003
 51
220.0114143247151
  0
ARC
  5
20F
330
2
100
AcDbEntity
  8
KIJUN
100
AcDbCircle
 10
156.7595191819544
 20
51.598862464069
 30
0.0
 40
10.04324070773757
100
AcDbArc
 50
313.2904095170766
 51
25.81708355147086
  0
ARC
  5
210
330
2
100
AcDbEntity
  8
KIJUN
100
AcDbCircle
 10
257.593465875192
 20
55.74556875701245
 30
0.0
 40
9.570560473924912
100
AcDbArc
 50
280.4597234922771
 51
349.3170722046706
  0
LINE
  5
211
330
2
100
AcDbEntity
  8
KIJUN
 62
     7
100
AcDbLine
 10
210.8016793405061
 20
52.80856869889753
 30
0.0
 11
215.966763831352
 21
53.39569780682477
 31
0.0
  0
ARC
  5
212
330
2
100
AcDbEntity
  8
KIJUN
100
AcDbCircle
 10
195.3189029014817
 20
151.2408092790937
 30
0.0
 40
100.0
100
AcDbArc
 50
274.2898232257675
 51
281.9160691383411
  0
LINE
  5
213
330
2
100
AcDbEntity
  8
KIJUN
 62
     7
100
AcDbLine
 10
212.3184926791656
 20
55.20653675938814
 30
0.0
 11
216.2083658849331
 21
54.95051932776251
 31
0.0
  0
ARC
  5
214
330
2
100
AcDbEntity
  8
KIJUN
 62
     7
100
AcDbCircle
 10
211.9088448697646
 20
47.57375301601446
 30
0.0
 40
2.900731093059361
100
AcDbArc
 50
276.5887731629301
 51
72.39298779991334
  0
ARC
  5
215
330
2
100
AcDbEntity
  8
KIJUN
100
AcDbCircle
 10
220.3087698093971
 20
14.42333577396805
 30
0.0
 40
37.93472809020288
100
AcDbArc
 50
93.18609499252058
 51
101.5066588336473
  0
ARC
  5
216
330
2
100
AcDbEntity
  8
KIJUN
100
AcDbCircle
 10
199.9572413269476
 20
118.9267800424965
 30
0.0
 40
67.00163958521264
100
AcDbArc
 50
272.430885043741
 51
279.3144861115128
  0
ARC
  5
217
330
2
100
AcDbEntity
  8
KIJUN
 62
     7
100
AcDbCircle
 10
200.2273531606841
 20
40.8969116855082
 30
0.0
 40
10.97426118954554
100
AcDbArc
 50
114.6210290766475
 51
130.5713382991679
  0
ARC
  5
218
330
2
100
AcDbEntity
  8
KIJUN
100
AcDbCircle
 10
205.058470662512
 20
13.96811903170265
 30
0.0
 40
38.08439562109447
100
AcDbArc
 50
93.40114483093174
 51
104.2943262593851
  0
ARC
  5
219
330
2
100
AcDbEntity
  8
KIJUN
 62
     7
100
AcDbCircle
 10
198.2592878831957
 20
41.34186205753763
 30
0.0
 40
9.433606520825726
100
AcDbArc
 50
106.0234832709972
 51
123.2292986983317
  0
ARC
  5
21A
330
2
100
AcDbEntity
  8
KIJUN
100
AcDbCircle
 10
205.058470662512
 20
13.50365034717589
 30
0.0
 40
38.08439562109447
100
AcDbArc
 50
93.40114483093174
 51
104.2943262593851
  0
ARC
  5
21B
330
2
100
AcDbEntity
  8
KIJUN
 62
     7
100
AcDbCircle
 10
212.8980361684305
 20
50.97189543274274
 30
0.0
 40
0.6430855066826573
100
AcDbArc
 50
104.0898604355384
 51
259.9919893540461
  0
ARC
  5
21C
330
2
100
AcDbEntity
  8
KIJUN
100
AcDbCircle
 10
194.0827613570193
 20
53.86962896873771
 30
0.0
 40
7.848403968835039
100
AcDbArc
 50
221.4471973777595
 51
292.5640098238068
  0
ARC
  5
21D
330
2
100
AcDbEntity
  8
KIJUN
100
AcDbCircle
 10
194.9040462354717
 20
46.75172499823652
 30
0.0
 40
6.97447271370665
100
AcDbArc
 50
79.60999807995134
 51
163.9966816075256
  0
LINE
  5
21E
330
2
100
AcDbEntity
  8
KIJUN
100
AcDbLine
 10
197.0943143158186
 20
46.62200910878545
 30
0.0
 11
197.5605399869594
 21
46.93266867469032
 31
0.0
  0
ARC
  5
21F
330
2
100
AcDbEntity
  8
KIJUN
100
AcDbCircle
 10
200.3615965530055
 20
43.27090199480602
 30
0.0
 40
4.610255210300308
100
AcDbArc
 50
76.80886653851729
 51
127.4140643653364
  0
ARC
  5
220
330
2
100
AcDbEntity
  8
KIJUN
100
AcDbCircle
 10
206.6994083681123
 20
37.7027104101921
 30
0.0
 40
11.36126838073563
100
AcDbArc
 50
117.7259499646661
 51
150.4603917887764
  0
ARC
  5
221
330
2
100
AcDbEntity
  8
KIJUN
100
AcDbCircle
 10
201.6452948528297
 20
49.590327946016
 30
0.0
 40
7.927738568788837
100
AcDbArc
 50
232.4611839115976
 51
317.9564176674598
  0
ARC
  5
222
330
2
100
AcDbEntity
  8
KIJUN
 62
     7
100
AcDbCircle
 10
208.9845179880941
 20
45.74748145731513
 30
0.0
 40
3.42385420856283
100
AcDbArc
 50
251.062218302802
 51
342.0479966452981
  0
ARC
  5
223
330
2
100
AcDbEntity
  8
KIJUN
 62
     7
100
AcDbCircle
 10
211.5244178976375
 20
42.35797937366777
 30
0.0
 40
3.65420186349799
100
AcDbArc
 50
124.4938273600589
 51
177.6321129105743
  0
ARC
  5
224
330
2
100
AcDbEntity
  8
KIJUN
 62
     7
100
AcDbCircle
 10
239.6211482003917
 20
62.38589127315035
 30
0.0
 40
18.63467847621966
100
AcDbArc
 50
220.3269240540175
 51
278.7482764275515
  0
LINE
  5
225
330
2
100
AcDbEntity
  8
KIJUN
 62
     7
100
AcDbLine
 10
245.678911363874
 20
41.20146061375662
 30
0.0
 11
229.3715580334317
 21
42.75196350114543
 31
0.0
  0
ARC
  5
226
330
2
100
AcDbEntity
  8
KIJUN
 62
     7
100
AcDbCircle
 10
245.7646732444026
 20
44.14559689743618
 30
0.0
 40
5.0
100
AcDbArc
 50
264.5686458014773
 51
278.0356561686821
  0
LINE
  5
227
330
2
100
AcDbEntity
  8
KIJUN
 62
     7
100
AcDbLine
 10
245.2914077216281
 20
39.16804531609095
 30
0.0
 11
228.7946215343948
 21
40.73655947639867
 31
0.0
  0
ARC
  5
228
330
2
100
AcDbEntity
  8
KIJUN
100
AcDbCircle
 10
243.6105646256881
 20
53.55383342352824
 30
0.0
 40
12.56060093720086
100
AcDbArc
 50
278.4948035044542
 51
313.5165886439511
  0
ARC
  5
229
330
2
100
AcDbEntity
  8
KIJUN
 62
     7
100
AcDbCircle
 10
248.4614469235929
 20
47.32580314636749
 30
0.0
 40
6.880975238313423
100
AcDbArc
 50
127.304288311216
 51
244.194269956342
  0
ARC
  5
22A
330
2
100
AcDbEntity
  8
KIJUN
 62
     7
100
AcDbCircle
 10
239.5897217051659
 20
62.91573688681484
 30
0.0
 40
10.35103948781487
100
AcDbArc
 50
279.6818437466341
 51
294.4608995750593
  0
ARC
  5
22B
330
2
100
AcDbEntity
  8
KIJUN
 62
     7
100
AcDbCircle
 10
244.0444311676354
 20
53.1230649558285
 30
0.0
 40
0.4072531249999999
100
AcDbArc
 50
307.3042883112161
 51
114.4608995750369
  0
ARC
  5
22C
330
2
100
AcDbEntity
  8
KIJUN
 62
     7
100
AcDbCircle
 10
243.8315118367006
 20
50.66928616279909
 30
0.0
 40
10.47700836735285
100
AcDbArc
 50
323.5535643028697
 51
335.4574591630314
  0
ARC
  5
22D
330
2
100
AcDbEntity
  8
KIJUN
 62
     7
100
AcDbCircle
 10
257.6218695964524
 20
51.53407764796482
 30
0.0
 40
0.4072531249999999
100
AcDbArc
 50
338.9600515382261
 51
65.96844985045876
  0
ARC
  5
22E
330
2
100
AcDbEntity
  8
KIJUN
 62
     7
100
AcDbCircle
 10
256.1904464338257
 20
51.76989635813966
 30
0.0
 40
0.4072531249999999
100
AcDbArc
 50
95.3213131512599
 51
146.3987975563964
  0
ARC
  5
22F
330
2
100
AcDbEntity
  8
KIJUN
 62
     7
100
AcDbCircle
 10
256.4559598940393
 20
48.91927755079342
 30
0.0
 40
3.270210508956348
100
AcDbArc
 50
65.96844985046679
 51
95.32131315124685
  0
ARC
  5
230
330
2
100
AcDbEntity
  8
KIJUN
100
AcDbCircle
 10
262.173570996594
 20
49.7832009801421
 30
0.0
 40
4.469585476182041
100
AcDbArc
 50
158.9600515382219
 51
230.5063375483213
  0
ARC
  5
231
330
2
100
AcDbEntity
  8
KIJUN
 62
     7
100
AcDbCircle
 10
270.8269547093339
 20
42.04498074024722
 30
0.0
 40
17.97999788141595
100
AcDbArc
 50
146.3987975564134
 51
166.2536360265813
  0
ARC
  5
232
330
2
100
AcDbEntity
  8
KIJUN
100
AcDbCircle
 10
238.0910738588261
 20
62.69270434336853
 30
0.0
 40
10.49313810588089
100
AcDbArc
 50
235.4531487730004
 51
287.9821843055006
  0
ARC
  5
233
330
2
100
AcDbEntity
  8
KIJUN
100
AcDbCircle
 10
300.9306503513542
 20
49.39198743745834
 30
0.0
 40
3.475655844438501
100
AcDbArc
 50
66.91639802850817
 51
293.0836019714918
  0
CIRCLE
  5
234
330
2
100
AcDbEntity
  8
KIJUN
100
AcDbCircle
 10
295.7851900742715
 20
43.92458209619184
 30
0.0
 40
3.475655844438501
  0
ARC
  5
235
330
2
100
AcDbEntity
  8
KIJUN
100
AcDbCircle
 10
270.4285867174693
 20
53.50387547910436
 30
0.0
 40
2.234792738091019
100
AcDbArc
 50
171.2895315975587
 51
230.5063375483213
  0
ARC
  5
236
330
2
100
AcDbEntity
  8
KIJUN
 62
     7
100
AcDbCircle
 10
267.3983447601439
 20
53.89594331731935
 30
0.0
 40
0.4072531249999999
100
AcDbArc
 50
91.10116228497998
 51
169.3170722046674
  0
ARC
  5
237
330
2
100
AcDbEntity
  8
KIJUN
 62
     7
100
AcDbCircle
 10
267.8170135936724
 20
53.90399066572315
 30
0.0
 40
0.4072531249999999
100
AcDbArc
 50
351.2895315975492
 51
91.10116228497998
  0
LINE
  5
238
330
2
100
AcDbEntity
  8
KIJUN
 62
     7
100
AcDbLine
 10
267.3905182818451
 20
54.30312123182325
 30
0.0
 11
267.8091871153726
 21
54.31116858022682
 31
0.0
  0
ARC
  5
239
330
2
100
AcDbEntity
  8
KIJUN
 62
     7
100
AcDbCircle
 10
288.2374522759435
 20
88.08616686282993
 30
0.0
 40
26.63958797854194
100
AcDbArc
 50
165.2267203838805
 51
209.3765278730881
  0
ARC
  5
23A
330
2
100
AcDbEntity
  8
KIJUN
100
AcDbCircle
 10
256.6318097678921
 20
94.51566847704963
 30
0.0
 40
11.32694420128306
100
AcDbArc
 50
1.403340711443588
 51
64.8385127647705
  0
ARC
  5
23B
330
2
100
AcDbEntity
  8
KIJUN
 62
     7
100
AcDbCircle
 10
268.9043919447265
 20
71.23689838844244
 30
0.0
 40
6.975352634941361
100
AcDbArc
 50
219.3284945062436
 51
262.0057607181907
  0
ARC
  5
23C
330
2
100
AcDbEntity
  8
KIJUN
 62
     7
100
AcDbCircle
 10
264.7688635545781
 20
67.84857169628685
 30
0.0
 40
1.629012499999999
100
AcDbArc
 50
95.52261725430509
 51
219.3284945062447
  0
ARC
  5
23D
330
2
100
AcDbEntity
  8
KIJUN
100
AcDbCircle
 10
131.0087463967595
 20
15.73401361164673
 30
0.0
 40
89.32984055446775
100
AcDbArc
 50
48.01166293713839
 51
49.39812634461051
  0
ARC
  5
23E
330
2
100
AcDbEntity
  8
KIJUN
 62
     7
100
AcDbCircle
 10
180.6958136160581
 20
85.19554712124104
 30
0.0
 40
8.605998812005676
100
AcDbArc
 50
328.0990737631295
 51
6.722659904026145
  0
ARC
  5
23F
330
2
100
AcDbEntity
  8
KIJUN
 62
     7
100
AcDbCircle
 10
186.0488760618876
 20
88.95697282699444
 30
0.0
 40
9.314331350491924
100
AcDbArc
 50
286.4619102462618
 51
334.1919703298851
  0
ARC
  5
240
330
2
100
AcDbEntity
  8
KIJUN
100
AcDbCircle
 10
182.6568052692021
 20
92.07696719898754
 30
0.0
 40
12.83429479040021
100
AcDbArc
 50
296.2713640484523
 51
331.5628780147254
  0
ARC
  5
241
330
2
100
AcDbEntity
  8
KIJUN
 62
     7
100
AcDbCircle
 10
146.6625405568518
 20
92.51903090698595
 30
0.0
 40
42.22511704769462
100
AcDbArc
 50
343.9208293077492
 51
351.9612319570377
  0
ARC
  5
242
330
2
100
AcDbEntity
  8
KIJUN
 62
     7
100
AcDbCircle
 10
288.1185762269368
 20
86.16614530580836
 30
0.0
 40
27.08005295613661
100
AcDbArc
 50
161.2312718364114
 51
202.5122076111907
  0
ARC
  5
243
330
2
100
AcDbEntity
  8
KIJUN
 62
     7
100
AcDbCircle
 10
249.4053974309571
 20
106.4312145951966
 30
0.0
 40
25.05184674732072
100
AcDbArc
 50
217.5703375080701
 51
264.9373477589956
  0
ARC
  5
244
330
2
100
AcDbEntity
  8
KIJUN
 62
     7
100
AcDbCircle
 10
221.2644649127452
 20
87.04432305415947
 30
0.0
 40
11.74634682989291
100
AcDbArc
 50
184.4732598661138
 51
236.5335847200789
  0
ARC
  5
245
330
2
100
AcDbEntity
  8
KIJUN
 62
     7
100
AcDbCircle
 10
248.764493940095
 20
102.9087781427084
 30
0.0
 40
22.52445685697954
100
AcDbArc
 50
211.4509447747654
 51
255.7410640702484
  0
ARC
  5
246
330
2
100
AcDbEntity
  8
KIJUN
 62
     7
100
AcDbCircle
 10
90.38529714628774
 20
-61.76618405307436
 30
0.0
 40
174.2724173562583
100
AcDbArc
 50
42.77991764891171
 51
52.47580683346416
  0
ARC
  5
247
330
2
100
AcDbEntity
  8
KIJUN
100
AcDbCircle
 10
131.0087463967595
 20
15.73401361164673
 30
0.0
 40
89.32984055446775
100
AcDbArc
 50
42.8176730853064
 51
47.34493034294688
  0
ARC
  5
248
330
2
100
AcDbEntity
  8
KIJUN
100
AcDbCircle
 10
136.0650846908522
 20
7.097336830458687
 30
0.0
 40
91.264587772205
100
AcDbArc
 50
50.50011440196946
 51
53.64726901217959
  0
ARC
  5
249
330
2
100
AcDbEntity
  8
KIJUN
100
AcDbCircle
 10
136.0650846908522
 20
7.097336830458687
 30
0.0
 40
91.264587772205
100
AcDbArc
 50
54.24026424868841
 51
54.89208874934868
  0
ARC
  5
24A
330
2
100
AcDbEntity
  8
KIJUN
 62
     7
100
AcDbCircle
 10
165.7546157454524
 20
-14.2048754242581
 30
0.0
 40
97.42666306625825
100
AcDbArc
 50
76.59726760620731
 51
76.8000541209003
  0
ARC
  5
24B
330
2
100
AcDbEntity
  8
KIJUN
 62
     7
100
AcDbCircle
 10
187.7804635978834
 20
80.30975648028386
 30
0.0
 40
0.0000000000265806
100
AcDbArc
 50
76.14206232424064
 51
77.15229514128346
  0
ARC
  5
24C
330
2
100
AcDbEntity
  8
KIJUN
 62
     7
100
AcDbCircle
 10
172.0293896847021
 20
36.7932393752937
 30
0.0
 40
46.32988994165213
100
AcDbArc
 50
61.52777757968357
 51
68.92604611502131
  0
ARC
  5
24D
330
2
100
AcDbEntity
  8
KIJUN
 62
     7
100
AcDbCircle
 10
172.0293896847021
 20
36.7932393752937
 30
0.0
 40
46.32988994165213
100
AcDbArc
 50
61.52777757968357
 51
68.92604611502131
  0
ARC
  5
24E
330
2
100
AcDbEntity
  8
KIJUN
100
AcDbCircle
 10
198.000497775108
 20
66.62280976843534
 30
0.0
 40
15.07706532792591
100
AcDbArc
 50
134.0485907860542
 51
176.5376436749274
  0
ARC
  5
24F
330
2
100
AcDbEntity
  8
KIJUN
 62
     7
100
AcDbCircle
 10
188.9084304889168
 20
76.02195600914345
 30
0.0
 40
2.0
100
AcDbArc
 50
55.12887162038272
 51
134.048590786053
  0
ARC
  5
250
330
2
100
AcDbEntity
  8
KIJUN
100
AcDbCircle
 10
198.000497775108
 20
66.62280976843534
 30
0.0
 40
17.07706532792591
100
AcDbArc
 50
132.1383098430897
 51
177.9122706041015
  0
ARC
  5
251
330
2
100
AcDbEntity
  8
KIJUN
100
AcDbCircle
 10
199.7579225042229
 20
96.04344514357114
 30
0.0
 40
36.14088264993386
100
AcDbArc
 50
247.7010011129173
 51
260.1642616230364
  0
ARC
  5
252
330
2
100
AcDbEntity
  8
KIJUN
100
AcDbCircle
 10
187.9418261925809
 20
67.23139141304104
 30
0.0
 40
5.0
100
AcDbArc
 50
176.5376436749273
 51
247.701001112917
  0
ARC
  5
253
330
2
100
AcDbEntity
  8
KIJUN
100
AcDbCircle
 10
201.8671749871344
 20
101.170201383007
 30
0.0
 40
43.87337820097313
100
AcDbArc
 50
246.0682848147616
 51
263.4773475251563
  0
ARC
  5
254
330
2
100
AcDbEntity
  8
KIJUN
100
AcDbCircle
 10
185.7181631850993
 20
65.78919896533616
 30
0.0
 40
5.0
100
AcDbArc
 50
163.0735061811652
 51
194.6501424953774
  0
ARC
  5
255
330
2
100
AcDbEntity
  8
KIJUN
100
AcDbCircle
 10
182.7341910339689
 20
53.3408956096752
 30
0.0
 40
11.33626912523647
100
AcDbArc
 50
99.41005038367915
 51
123.9730532061555
  0
ARC
  5
256
330
2
100
AcDbEntity
  8
KIJUN
100
AcDbCircle
 10
181.1039115480563
 20
56.76093149067003
 30
0.0
 40
5.635974480895928
100
AcDbArc
 50
79.45654296095948
 51
132.2995546601775
  0
ARC
  5
257
330
2
100
AcDbEntity
  8
KIJUN
 62
     7
100
AcDbCircle
 10
175.3703348059842
 20
61.08917347237064
 30
0.0
 40
1.94708571583534
100
AcDbArc
 50
355.2961845813137
 51
58.09303227663899
  0
ARC
  5
258
330
2
100
AcDbEntity
  8
KIJUN
 62
     7
100
AcDbCircle
 10
178.3399783463053
 20
62.58239845728184
 30
0.0
 40
1.94708571583534
100
AcDbArc
 50
175.2961845813022
 51
238.0930322766301
  0
ARC
  5
259
330
2
100
AcDbEntity
  8
KIJUN
100
AcDbCircle
 10
185.7181631850993
 20
65.78919896533616
 30
0.0
 40
5.0
100
AcDbArc
 50
224.22594772825
 51
250.7540618088095
  0
ARC
  5
25A
330
2
100
AcDbEntity
  8
KIJUN
 62
     7
100
AcDbCircle
 10
181.3143263391782
 20
-9.089308116440811
 30
0.0
 40
70.59751408444217
100
AcDbArc
 50
70.82282232427644
 51
79.99115547866228
  0
ARC
  5
25B
330
2
100
AcDbEntity
  8
KIJUN
100
AcDbCircle
 10
198.5403334441746
 20
42.27276143133775
 30
0.0
 40
15.39747186716916
100
AcDbArc
 50
65.60567589854585
 51
113.7596251666567
  0
ARC
  5
25C
330
2
100
AcDbEntity
  8
KIJUN
100
AcDbCircle
 10
201.3902937473623
 20
55.93339152099054
 30
0.0
 40
3.528058563390821
100
AcDbArc
 50
5.892945620920425
 51
54.23337367163096
  0
ARC
  5
25D
330
2
100
AcDbEntity
  8
KIJUN
100
AcDbCircle
 10
205.0360786129843
 20
54.74750921340064
 30
0.0
 40
4.347291083713302
100
AcDbArc
 50
15.94508993483161
 51
111.3640696722004
  0
ARC
  5
25E
330
2
100
AcDbEntity
  8
KIJUN
100
AcDbCircle
 10
168.6822573366769
 20
59.97124996763454
 30
0.0
 40
4.115608820848867
100
AcDbArc
 50
234.867657607733
 51
295.4017753437425
  0
ARC
  5
25F
330
2
100
AcDbEntity
  8
KIJUN
100
AcDbCircle
 10
151.3468344923988
 20
55.18547114347573
 30
0.0
 40
19.13070515483004
100
AcDbArc
 50
3.200462163572639
 51
51.49743816858501
  0
ARC
  5
260
330
2
100
AcDbEntity
  8
KIJUN
100
AcDbCircle
 10
164.2278197159924
 20
65.96112054989304
 30
0.0
 40
5.080404331282784
100
AcDbArc
 50
63.05371745295937
 51
99.02254129266887
  0
ARC
  5
261
330
2
100
AcDbEntity
  8
KIJUN
100
AcDbCircle
 10
163.5016656830424
 20
70.53423159070455
 30
0.0
 40
0.45
100
AcDbArc
 50
99.02254129268857
 51
237.0105898264855
  0
ARC
  5
262
330
2
100
AcDbEntity
  8
KIJUN
100
AcDbCircle
 10
166.2054186326202
 20
56.16866378561815
 30
0.0
 40
0.45
100
AcDbArc
 50
76.05552262337752
 51
205.8170835514478
  0
ARC
  5
263
330
2
100
AcDbEntity
  8
KIJUN
 62
     7
100
AcDbCircle
 10
248.4977907333102
 20
71.58113128285305
 30
0.0
 40
8.145062499999998
100
AcDbArc
 50
82.93926807805458
 51
107.7675385459551
  0
ARC
  5
264
330
2
100
AcDbEntity
  8
KIJUN
 62
     7
100
AcDbCircle
 10
244.6428180666041
 20
66.56923737997944
 30
0.0
 40
1.629012499999999
100
AcDbArc
 50
277.675677745192
 51
69.84975555663393
  0
ARC
  5
265
330
2
100
AcDbEntity
  8
KIJUN
100
AcDbCircle
 10
236.6648694414396
 20
55.39122427405974
 30
0.0
 40
5.517361440475863
100
AcDbArc
 50
55.83356367078415
 51
100.3470033773089
  0
ARC
  5
266
330
2
100
AcDbEntity
  8
KIJUN
 62
     7
100
AcDbCircle
 10
243.8446875342886
 20
72.49127029592952
 30
0.0
 40
7.604586631764069
100
AcDbArc
 50
263.3377743109339
 51
277.6756777451985
  0
ARC
  5
267
330
2
100
AcDbEntity
  8
KIJUN
 62
     7
100
AcDbCircle
 10
239.7176703262063
 20
59.88894960490993
 30
0.0
 40
0.081450625
100
AcDbArc
 50
265.4659848342289
 51
55.83356367094296
  0
ARC
  5
268
330
2
100
AcDbEntity
  8
KIJUN
100
AcDbCircle
 10
241.9539002700483
 20
58.21473710755693
 30
0.0
 40
6.798519855847214
100
AcDbArc
 50
81.46890567204678
 51
157.4776993778908
  0
ARC
  5
269
330
2
100
AcDbEntity
  8
KIJUN
 62
     7
100
AcDbCircle
 10
160.4395623314087
 20
-157.3156166477006
 30
0.0
 40
253.1622450108649
100
AcDbArc
 50
66.07171160882917
 51
69.40328603213008
  0
ARC
  5
26A
330
2
100
AcDbEntity
  8
KIJUN
 62
     7
100
AcDbCircle
 10
215.8897790711333
 20
-31.12028177827661
 30
0.0
 40
116.8812037699484
100
AcDbArc
 50
66.16371159166265
 51
74.42137020145378
  0
ARC
  5
26B
330
2
100
AcDbEntity
  8
KIJUN
 62
     7
100
AcDbCircle
 10
225.7236851923265
 20
70.12862651842304
 30
0.0
 40
7.008411785334669
100
AcDbArc
 50
268.7764757117098
 51
294.1235109953867
  0
ARC
  5
26C
330
2
100
AcDbEntity
  8
KIJUN
 62
     7
100
AcDbCircle
 10
221.1109454080986
 20
74.26936030854886
 30
0.0
 40
8.058025089613366
100
AcDbArc
 50
202.2190003486465
 51
269.8879925396946
  0
ARC
  5
26D
330
2
100
AcDbEntity
  8
KIJUN
 62
     7
100
AcDbCircle
 10
221.8560447729845
 20
67.39326498931172
 30
0.0
 40
3.532984335575973
100
AcDbArc
 50
290.5828870449274
 51
354.1452588171799
  0
ARC
  5
26E
330
2
100
AcDbEntity
  8
KIJUN
 62
     7
100
AcDbCircle
 10
222.2115923775543
 20
71.08856537862846
 30
0.0
 40
5.003356060644698
100
AcDbArc
 50
257.1070514650816
 51
307.2525334750988
  0
ARC
  5
26F
330
2
100
AcDbEntity
  8
KIJUN
 62
     7
100
AcDbCircle
 10
225.1235168658406
 20
65.95662488030014
 30
0.0
 40
2.870387990484053
100
AcDbArc
 50
224.2778839842074
 51
279.0301294310548
  0
ARC
  5
270
330
2
100
AcDbEntity
  8
KIJUN
 62
     7
100
AcDbCircle
 10
223.1267429477145
 20
64.00955899839394
 30
0.0
 40
0.081450625
100
AcDbArc
 50
110.5828870447747
 51
224.2778839843581
  0
ARC
  5
271
330
2
100
AcDbEntity
  8
KIJUN
 62
     7
100
AcDbCircle
 10
225.2895742627053
 20
67.04118517100565
 30
0.0
 40
0.081450625
100
AcDbArc
 50
354.1452588171881
 51
127.252533475042
  0
ARC
  5
272
330
2
100
AcDbEntity
  8
KIJUN
 62
     7
100
AcDbCircle
 10
223.0536155392535
 20
92.76606076501336
 30
0.0
 40
17.58488122991515
100
AcDbArc
 50
241.9592173583294
 51
256.3647643302251
  0
ARC
  5
273
330
2
100
AcDbEntity
  8
KIJUN
 62
     7
100
AcDbCircle
 10
221.4844068510959
 20
65.58377883406516
 30
0.0
 40
9.651439064326423
100
AcDbArc
 50
105.4065363595172
 51
144.2528750135839
  0
ARC
  5
274
330
2
100
AcDbEntity
  8
KIJUN
 62
     7
100
AcDbCircle
 10
218.8121533188026
 20
75.28101295616214
 30
0.0
 40
0.4072531249999999
100
AcDbArc
 50
285.4065363594767
 51
76.36476433021842
  0
ARC
  5
275
330
2
100
AcDbEntity
  8
KIJUN
 62
     7
100
AcDbCircle
 10
229.5948079264115
 20
25.2390048178666
 30
0.0
 40
57.47672849688387
100
AcDbArc
 50
76.29063185289955
 51
102.6385168057794
  0
ARC
  5
276
330
2
100
AcDbEntity
  8
KIJUN
 62
     7
100
AcDbCircle
 10
227.400272271517
 20
25.52522092493763
 30
0.0
 40
56.75536568208004
100
AcDbArc
 50
73.00327972354354
 51
100.5395160241051
  0
ARC
  5
277
330
2
100
AcDbEntity
  8
KIJUN
 62
     7
100
AcDbCircle
 10
240.0285723438872
 20
53.99439813354256
 30
0.0
 40
15.02370718346841
100
AcDbArc
 50
69.84975555664076
 51
139.5963851850245
  0
ARC
  5
278
330
2
100
AcDbEntity
  8
KIJUN
 62
     7
100
AcDbCircle
 10
279.8959652696756
 20
-26.40342697556486
 30
0.0
 40
111.0373315065356
100
AcDbArc
 50
107.7675385459549
 51
119.7071715342415
  0
ARC
  5
279
330
2
100
AcDbEntity
  8
KIJUN
 62
     7
100
AcDbCircle
 10
277.1270824746678
 20
-8.71708138170738
 30
0.0
 40
94.51755245712254
100
AcDbArc
 50
110.5229826385164
 51
123.565351636136
  0
ARC
  5
27A
330
2
100
AcDbEntity
  8
KIJUN
100
AcDbCircle
 10
216.9200585400733
 20
67.89524814385853
 30
0.0
 40
19.66469238214276
100
AcDbArc
 50
64.98304829417368
 51
111.9988555473739
  0
ARC
  5
27B
330
2
100
AcDbEntity
  8
KIJUN
100
AcDbCircle
 10
131.0087463967595
 20
15.73401361164673
 30
0.0
 40
89.32984055446775
100
AcDbArc
 50
50.26947640517217
 51
55.16058191419341
  0
ARC
  5
27C
330
2
100
AcDbEntity
  8
KIJUN
100
AcDbCircle
 10
197.4663503626646
 20
86.94914293929834
 30
0.0
 40
3.658585099408949
100
AcDbArc
 50
214.0260185896031
 51
195.5987692333245
  0
ARC
  5
27D
330
2
100
AcDbEntity
  8
KIJUN
100
AcDbCircle
 10
190.5688004385363
 20
89.61276786143173
 30
0.0
 40
3.658585099408949
100
AcDbArc
 50
248.7475004574804
 51
235.0462064658854
  0
CIRCLE
  5
27E
330
2
100
AcDbEntity
  8
KIJUN
100
AcDbCircle
 10
202.2091523452539
 20
96.36519294740359
 30
0.0
 40
3.851142209904157
  0
CIRCLE
  5
27F
330
2
100
AcDbEntity
  8
KIJUN
100
AcDbCircle
 10
195.1149128885306
 20
100.1562239537915
 30
0.0
 40
3.658585099408949
  0
CIRCLE
  5
280
330
2
100
AcDbEntity
  8
KIJUN
100
AcDbCircle
 10
180.3792380506191
 20
96.03680789282465
 30
0.0
 40
3.658585099408949
  0
CIRCLE
  5
281
330
2
100
AcDbEntity
  8
KIJUN
100
AcDbCircle
 10
183.8280130126839
 20
102.4608413990835
 30
0.0
 40
3.658585099408949
  0
CIRCLE
  5
282
330
2
100
AcDbEntity
  8
KIJUN
100
AcDbCircle
 10
188.2275074485685
 20
96.67368341051822
 30
0.0
 40
3.658585099408949
  0
ARC
  5
283
330
2
100
AcDbEntity
  8
KIJUN
 62
     7
100
AcDbCircle
 10
264.3138363732603
 20
98.87141608995323
 30
0.0
 40
18.64297111871962
100
AcDbArc
 50
198.9951829696141
 51
223.1183330112877
  0
ARC
  5
284
330
2
100
AcDbEntity
  8
KIJUN
 62
     7
100
AcDbCircle
 10
234.8798335909904
 20
89.25194421534284
 30
0.0
 40
12.32879459163978
100
AcDbArc
 50
16.74167001139868
 51
53.32540301985868
  0
ARC
  5
285
330
2
100
AcDbEntity
  8
KIJUN
100
AcDbCircle
 10
232.4896092204961
 20
84.72773767338884
 30
0.0
 40
15.0534014462812
100
AcDbArc
 50
54.66279879514575
 51
76.5169698414633
  0
ARC
  5
286
330
2
100
AcDbEntity
  8
KIJUN
100
AcDbCircle
 10
237.4862639701858
 20
100.1528995694615
 30
0.0
 40
4.863793437411157
100
AcDbArc
 50
319.7105987480455
 51
347.9816592188855
  0
ARC
  5
287
330
2
100
AcDbEntity
  8
KIJUN
 62
     7
100
AcDbCircle
 10
234.4748728763387
 20
91.88085793521791
 30
0.0
 40
0.4072531249999999
100
AcDbArc
 50
273.7893441803394
 51
20.70477067218571
  0
ARC
  5
288
330
2
100
AcDbEntity
  8
KIJUN
 62
     7
100
AcDbCircle
 10
246.9240282032222
 20
88.48194885239367
 30
0.0
 40
6.783556496661212
100
AcDbArc
 50
347.396918529757
 51
42.59595191165612
  0
ARC
  5
289
330
2
100
AcDbEntity
  8
KIJUN
 62
     7
100
AcDbCircle
 10
251.9548265057108
 20
87.11807559665293
 30
0.0
 40
1.593555919252944
100
AcDbArc
 50
218.3740346125218
 51
355.8158398718803
  0
ARC
  5
28A
330
2
100
AcDbEntity
  8
KIJUN
100
AcDbCircle
 10
256.0048055733439
 20
96.38860993088357
 30
0.0
 40
5.262713605960124
100
AcDbArc
 50
147.8878170798845
 51
219.0484112467807
  0
ARC
  5
28B
330
2
100
AcDbEntity
  8
KIJUN
100
AcDbCircle
 10
256.6186123911918
 20
96.53716596275295
 30
0.0
 40
0.4887037499999999
100
AcDbArc
 50
238.1058145318843
 51
30.91976463224787
  0
ARC
  5
28C
330
2
100
AcDbEntity
  8
KIJUN
100
AcDbCircle
 10
262.4239474764161
 20
99.02001241520823
 30
0.0
 40
5.83013806446333
100
AcDbArc
 50
99.63951953604759
 51
202.5067551402226
  0
ARC
  5
28D
330
2
100
AcDbEntity
  8
KIJUN
100
AcDbCircle
 10
251.2076668682646
 20
93.34020638552814
 30
0.0
 40
5.855804050313214
100
AcDbArc
 50
28.3652520875024
 51
86.675598631238
  0
ARC
  5
28E
330
2
100
AcDbEntity
  8
KIJUN
 62
     7
100
AcDbCircle
 10
233.5525377463634
 20
91.93689932165684
 30
0.0
 40
0.4072531249999999
100
AcDbArc
 50
221.7605772306788
 51
273.7893441802349
  0
ARC
  5
28F
330
2
100
AcDbEntity
  8
KIJUN
 62
     7
100
AcDbCircle
 10
237.7046049300096
 20
95.64413830880111
 30
0.0
 40
5.973516037043527
100
AcDbArc
 50
198.4155457736078
 51
221.7605772306879
  0
LINE
  5
290
330
2
100
AcDbEntity
  8
KIJUN
 62
     7
100
AcDbLine
 10
233.5794524248729
 20
91.53053654296863
 30
0.0
 11
234.501787554849
 21
91.47449515653022
 31
0.0
  0
ARC
  5
291
330
2
100
AcDbEntity
  8
KIJUN
 62
     7
100
AcDbCircle
 10
241.9000687651758
 20
94.68731220538677
 30
0.0
 40
7.530613059133142
100
AcDbArc
 50
141.5872146539773
 51
200.7047706721803
  0
ARC
  5
292
330
2
100
AcDbEntity
  8
KIJUN
 62
     7
100
AcDbCircle
 10
228.3936215227202
 20
93.48290270436644
 30
0.0
 40
7.530613059133142
100
AcDbArc
 50
169.7724603213076
 51
250.5096239142452
  0
ARC
  5
293
330
2
100
AcDbEntity
  8
KIJUN
100
AcDbCircle
 10
225.4493668506178
 20
86.15471287640785
 30
0.0
 40
0.4887037499999999
100
AcDbArc
 50
244.1116066751491
 51
27.95577332193965
  0
ARC
  5
294
330
2
100
AcDbEntity
  8
KIJUN
100
AcDbCircle
 10
224.8031503035275
 20
80.25949958245323
 30
0.0
 40
15.0534014462812
100
AcDbArc
 50
82.84804446247745
 51
104.7022155087929
  0
ARC
  5
295
330
2
100
AcDbEntity
  8
KIJUN
100
AcDbCircle
 10
222.3043567242973
 20
94.59608709247637
 30
0.0
 40
4.41388915238069
100
AcDbArc
 50
7.808603931625228
 51
37.49325638821105
  0
ARC
  5
296
330
2
100
AcDbEntity
  8
KIJUN
100
AcDbCircle
 10
226.4699471794095
 20
91.18704829962664
 30
0.0
 40
6.131636283450736
100
AcDbArc
 50
24.78034062192118
 51
96.21210406951043
  0
ARC
  5
297
330
2
100
AcDbEntity
  8
KIJUN
100
AcDbCircle
 10
311.0049382261694
 20
64.17040632242503
 30
0.0
 40
25.28990786363198
100
AcDbArc
 50
110.1493483496927
 51
138.5219314138079
  0
ARC
  5
298
330
2
100
AcDbEntity
  8
KIJUN
100
AcDbCircle
 10
309.5163920763587
 20
65.16431946238245
 30
0.0
 40
25.14236171758992
100
AcDbArc
 50
131.0627569860394
 51
139.635551590977
  0
ARC
  5
299
330
2
100
AcDbEntity
  8
KIJUN
100
AcDbCircle
 10
274.8830222775057
 20
85.33738265140172
 30
0.0
 40
6.798519855847214
100
AcDbArc
 50
311.2538970691749
 51
27.26269077502002
  0
ARC
  5
29A
330
2
100
AcDbEntity
  8
KIJUN
100
AcDbCircle
 10
294.6770373405404
 20
53.22954775619514
 30
0.0
 40
9.273947881195052
100
AcDbArc
 50
34.78882885034025
 51
64.53097307697236
  0
ARC
  5
29B
330
2
100
AcDbEntity
  8
KIJUN
 62
     7
100
AcDbCircle
 10
300.2919393073205
 20
58.26968369559224
 30
0.0
 40
4.049484550496365
100
AcDbArc
 50
60.38022938156185
 51
104.4463709996105
  0
ARC
  5
29C
330
2
100
AcDbEntity
  8
KIJUN
100
AcDbCircle
 10
221.8798014443631
 20
142.623575246566
 30
0.0
 40
111.6263054479913
100
AcDbArc
 50
310.072847065857
 51
316.0860143821694
  0
ARC
  5
29D
330
2
100
AcDbEntity
  8
KIJUN
 62
     7
100
AcDbCircle
 10
309.7947261059615
 20
132.8985734142126
 30
0.0
 40
73.17524310961862
100
AcDbArc
 50
232.2774669544485
 51
257.1222610588974
  0
ARC
  5
29E
330
2
100
AcDbEntity
  8
KIJUN
100
AcDbCircle
 10
298.806569311513
 20
78.32852931345644
 30
0.0
 40
9.273947881195052
100
AcDbArc
 50
174.7265470766583
 51
237.9136055634361
  0
ARC
  5
29F
330
2
100
AcDbEntity
  8
KIJUN
100
AcDbCircle
 10
294.5507113860274
 20
78.72134454896664
 30
0.0
 40
5.0
100
AcDbArc
 50
146.956797742233
 51
174.7265470766583
  0
ARC
  5
2A0
330
2
100
AcDbEntity
  8
KIJUN
 62
     7
100
AcDbCircle
 10
307.4444374913272
 20
85.88869765739653
 30
0.0
 40
20.53499390700882
100
AcDbArc
 50
228.6590037285646
 51
249.1461410538497
  0
ARC
  5
2A1
330
2
100
AcDbEntity
  8
KIJUN
100
AcDbCircle
 10
300.254273956576
 20
79.57361485405553
 30
0.0
 40
9.273947881195052
100
AcDbArc
 50
199.3893609137794
 51
239.4122345196719
  0
ARC
  5
2A2
330
2
100
AcDbEntity
  8
KIJUN
100
AcDbCircle
 10
296.2227259369518
 20
78.15472407015533
 30
0.0
 40
5.0
100
AcDbArc
 50
146.4127512912558
 51
199.3893609137794
  0
ARC
  5
2A3
330
2
100
AcDbEntity
  8
KIJUN
100
AcDbCircle
 10
229.9170911925547
 20
150.7356749412591
 30
0.0
 40
109.5108626806539
100
AcDbArc
 50
310.8572816896301
 51
311.3689271715377
  0
ARC
  5
2A4
330
2
100
AcDbEntity
  8
KIJUN
 62
     7
100
AcDbCircle
 10
309.099320256445
 20
87.00763320961961
 30
0.0
 40
20.53499390700882
100
AcDbArc
 50
228.6590037285646
 51
248.4501164464096
  0
ARC
  5
2A5
330
2
100
AcDbEntity
  8
KIJUN
100
AcDbCircle
 10
229.9170911925547
 20
150.7356749412591
 30
0.0
 40
109.5108626806539
100
AcDbArc
 50
305.48437602981
 51
309.8805542057079
  0
ARC
  5
2A6
330
2
100
AcDbEntity
  8
KIJUN
 62
     7
100
AcDbCircle
 10
265.0608528492301
 20
56.96991060416853
 30
0.0
 40
7.900494166976137
100
AcDbArc
 50
351.7834201462755
 51
68.67206941001589
  0
ARC
  5
2A7
330
2
100
AcDbEntity
  8
KIJUN
 62
     7
100
AcDbCircle
 10
276.643932896275
 20
72.54093061960451
 30
0.0
 40
5.204783969172329
100
AcDbArc
 50
123.6894728792433
 51
207.3648715266725
  0
ARC
  5
2A8
330
2
100
AcDbEntity
  8
KIJUN
 62
     7
100
AcDbCircle
 10
270.1796081053242
 20
89.21937488903472
 30
0.0
 40
12.85551931494201
100
AcDbArc
 50
286.1568393513372
 51
315.6090468909084
  0
ARC
  5
2A9
330
2
100
AcDbEntity
  8
KIJUN
 62
     7
100
AcDbCircle
 10
292.3025907844128
 20
102.8365095736211
 30
0.0
 40
40.04773651642755
100
AcDbArc
 50
226.9171156093801
 51
251.1634165566325
  0
ARC
  5
2AA
330
2
100
AcDbEntity
  8
KIJUN
 62
     7
100
AcDbCircle
 10
271.9649354157197
 20
-6.577534892301351
 30
0.0
 40
76.40219480600203
100
AcDbArc
 50
91.71377905859424
 51
95.52261725431176
  0
ARC
  5
2AB
330
2
100
AcDbEntity
  8
KIJUN
 62
     7
100
AcDbCircle
 10
297.8770715619355
 20
91.51120757082235
 30
0.0
 40
32.38507568437837
100
AcDbArc
 50
235.1523836180059
 51
259.7286281510102
  0
ARC
  5
2AC
330
2
100
AcDbEntity
  8
KIJUN
100
AcDbCircle
 10
309.5163920763587
 20
65.16431946238245
 30
0.0
 40
25.14236171758992
100
AcDbArc
 50
106.6954934386555
 51
125.0585131140372
  0
ARC
  5
2AD
330
2
100
AcDbEntity
  8
KIJUN
100
AcDbCircle
 10
303.0013690719696
 20
103.6506837106957
 30
0.0
 40
11.61341693107974
100
AcDbArc
 50
230.5427357178006
 51
266.5048300134241
  0
ARC
  5
2AE
330
2
100
AcDbEntity
  8
KIJUN
100
AcDbCircle
 10
320.9575505717028
 20
144.30714588394
 30
0.0
 40
48.65146623908756
100
AcDbArc
 50
241.6821145089372
 51
247.4412535117583
  0
ARC
  5
2AF
330
2
100
AcDbEntity
  8
KIJUN
100
AcDbCircle
 10
319.4679559626982
 20
145.5840634474626
 30
0.0
 40
49.10639967026103
100
AcDbArc
 50
243.9194431401865
 51
249.5284378288411
  0
ARC
  5
2B0
330
2
100
AcDbEntity
  8
KIJUN
100
AcDbCircle
 10
299.5253021285278
 20
95.64081692399062
 30
0.0
 40
12.3893992381167
100
AcDbArc
 50
77.08990783183908
 51
79.83820494872043
  0
ARC
  5
2B1
330
2
100
AcDbEntity
  8
KIJUN
100
AcDbCircle
 10
299.10189661275
 20
94.43851126998964
 30
0.0
 40
3.489527357898803
100
AcDbArc
 50
107.8642282606833
 51
175.9662579278386
  0
ARC
  5
2B2
330
2
100
AcDbEntity
  8
KIJUN
100
AcDbCircle
 10
303.2077483413357
 20
106.3788520043641
 30
0.0
 40
2.088713250587398
100
AcDbArc
 50
135.7678701402927
 51
214.4087670129366
  0
ARC
  5
2B3
330
2
100
AcDbEntity
  8
KIJUN
100
AcDbCircle
 10
296.5715919200537
 20
98.03657771906285
 30
0.0
 40
7.848403968835039
100
AcDbArc
 50
58.03857035739779
 51
121.0846445546186
  0
ARC
  5
2B4
330
2
100
AcDbEntity
  8
KIJUN
100
AcDbCircle
 10
300.9908049964613
 20
105.1194023400854
 30
0.0
 40
0.5
100
AcDbArc
 50
238.0385703574282
 51
9.106135889543958
  0
ARC
  5
2B5
330
2
100
AcDbEntity
  8
KIJUN
100
AcDbCircle
 10
299.4916243665382
 20
104.579702071872
 30
0.0
 40
6.97447271370665
100
AcDbArc
 50
178.5351603248436
 51
262.9218438524237
  0
ARC
  5
2B6
330
2
100
AcDbEntity
  8
KIJUN
 62
     7
100
AcDbCircle
 10
291.0838484338782
 20
86.69215084581987
 30
0.0
 40
0.5
100
AcDbArc
 50
49.63336331487996
 51
130.9607840438067
  0
ARC
  5
2B7
330
2
100
AcDbEntity
  8
KIJUN
100
AcDbCircle
 10
295.0213150189418
 20
91.32412041120792
 30
0.0
 40
5.579373747614106
100
AcDbArc
 50
229.6333633148965
 51
270.5441260274382
  0
ARC
  5
2B8
330
2
100
AcDbEntity
  8
KIJUN
 62
     7
100
AcDbCircle
 10
290.6540944531333
 20
85.9057763616907
 30
0.0
 40
0.5
100
AcDbArc
 50
171.7259705763471
 51
234.9000541849409
  0
ARC
  5
2B9
330
2
100
AcDbEntity
  8
KIJUN
100
AcDbCircle
 10
296.8849977283606
 20
94.77147277705004
 30
0.0
 40
11.33626912523647
100
AcDbArc
 50
234.9000541849509
 51
249.9622347056194
  0
ARC
  5
2BA
330
2
100
AcDbEntity
  8
KIJUN
 62
     7
100
AcDbCircle
 10
291.9272040056664
 20
85.72063907095154
 30
0.0
 40
1.786500582656346
100
AcDbArc
 50
130.9607840437983
 51
171.7259705763491
  0
ARC
  5
2BB
330
2
100
AcDbEntity
  8
KIJUN
 62
     7
100
AcDbCircle
 10
289.1972362994754
 20
87.35027785306215
 30
0.0
 40
1.937286554369229
100
AcDbArc
 50
301.2197696944229
 51
355.2604473173847
  0
ARC
  5
2BC
330
2
100
AcDbEntity
  8
KIJUN
 62
     7
100
AcDbCircle
 10
278.2890684019893
 20
87.01521652836914
 30
0.0
 40
0.8145062499999998
100
AcDbArc
 50
163.2819300781847
 51
297.1669584094876
  0
ARC
  5
2BD
330
2
100
AcDbEntity
  8
KIJUN
 62
     7
100
AcDbCircle
 10
268.7696185553757
 20
94.81301827011677
 30
0.0
 40
0.8145062499999998
100
AcDbArc
 50
181.4033407114395
 51
344.8943261707253
  0
ARC
  5
2BE
330
2
100
AcDbEntity
  8
KIJUN
 62
     7
100
AcDbCircle
 10
270.2428219102583
 20
101.5013042548608
 30
0.0
 40
0.8145062499999998
100
AcDbArc
 50
66.37938142666415
 51
196.7089214924838
  0
ARC
  5
2BF
330
2
100
AcDbEntity
  8
KIJUN
 62
     7
100
AcDbCircle
 10
257.8137641404672
 20
97.77029860567466
 30
0.0
 40
12.16246875186587
100
AcDbArc
 50
344.8943261707324
 51
16.7089214924803
  0
ARC
  5
2C0
330
2
100
AcDbEntity
  8
KIJUN
 62
     7
100
AcDbCircle
 10
265.5774882806016
 20
90.83324355884892
 30
0.0
 40
12.45808202764637
100
AcDbArc
 50
343.2819300781822
 51
66.3793814266496
  0
ARC
  5
2C1
330
2
100
AcDbEntity
  8
KIJUN
100
AcDbCircle
 10
276.1418155545232
 20
91.19925191918936
 30
0.0
 40
5.517361440475863
100
AcDbArc
 50
297.1669584095085
 51
330.1319947744354
  0
ELLIPSE
  5
2C2
330
2
100
AcDbEntity
  8
KIJUN
 62
     7
100
AcDbEllipse
 10
668.5892240993641
 20
41.81502726613785
 30
0.0
 11
-1.42388552657101
 21
-0.0937221807894479
 31
0.0
210
0.0
220
0.0
230
0.9999999999999998
 40
0.7669938240498519
 41
0.0
 42
6.283185307179584
  0
ARC
  5
2C3
330
2
100
AcDbEntity
  8
KIJUN
100
AcDbCircle
 10
575.2462490335034
 20
25.75233424832737
 30
0.0
 40
76.96937156061776
100
AcDbArc
 50
47.14096412649382
 51
103.4758618919219
  0
ARC
  5
2C4
330
2
100
AcDbEntity
  8
KIJUN
 62
     7
100
AcDbCircle
 10
605.7546157454539
 20
-14.2048754242581
 30
0.0
 40
97.42666306625825
100
AcDbArc
 50
77.26243472539126
 51
99.49592091862486
  0
ARC
  5
2C5
330
2
100
AcDbEntity
  8
KIJUN
 62
     7
100
AcDbCircle
 10
605.7249772522344
 20
3.482047520812271
 30
0.0
 40
78.61057152937326
100
AcDbArc
 50
74.64337954789266
 51
100.4645898288345
  0
ARC
  5
2C6
330
2
100
AcDbEntity
  8
KIJUN
100
AcDbCircle
 10
575.6394013123697
 20
27.84740789447317
 30
0.0
 40
76.80688221104614
100
AcDbArc
 50
52.81076328669216
 51
103.8067229126576
  0
ARC
  5
2C7
330
2
100
AcDbEntity
  8
KIJUN
100
AcDbCircle
 10
606.4108959849197
 20
55.24682252671694
 30
0.0
 40
11.30170171512245
100
AcDbArc
 50
199.9577316663622
 51
255.8398937468377
  0
ARC
  5
2C8
330
2
100
AcDbEntity
  8
KIJUN
100
AcDbCircle
 10
599.0014560992618
 20
69.72146546872862
 30
0.0
 40
7.567694546164952
100
AcDbArc
 50
5.828353632197377
 51
92.15441190945716
  0
ARC
  5
2C9
330
2
100
AcDbEntity
  8
KIJUN
 62
     7
100
AcDbCircle
 10
370.096216935962
 20
28.21778115839542
 30
0.0
 40
151.8522503364613
100
AcDbArc
 50
9.256082478265231
 51
12.57008655861374
  0
ARC
  5
2CA
330
2
100
AcDbEntity
  8
KIJUN
100
AcDbCircle
 10
511.973091711652
 20
55.16603758423454
 30
0.0
 40
9.273947881195052
100
AcDbArc
 50
345.6499866136017
 51
43.88440539826441
  0
ARC
  5
2CB
330
2
100
AcDbEntity
  8
KIJUN
100
AcDbCircle
 10
561.2947653638507
 20
61.38156847628672
 30
0.0
 40
10.58286877647421
100
AcDbArc
 50
299.2395135875373
 51
343.1481114592268
  0
ARC
  5
2CC
330
2
100
AcDbEntity
  8
KIJUN
 62
     7
100
AcDbCircle
 10
579.1331230854427
 20
49.75927986978518
 30
0.0
 40
8.631973733383722
100
AcDbArc
 50
120.8655189116489
 51
190.9438737357556
  0
ARC
  5
2CD
330
2
100
AcDbEntity
  8
KIJUN
 62
     7
100
AcDbCircle
 10
569.2124842033343
 20
51.42198404417885
 30
0.0
 40
11.96914771112834
100
AcDbArc
 50
141.5495380694626
 51
189.1158504173468
  0
ARC
  5
2CE
330
2
100
AcDbEntity
  8
KIJUN
100
AcDbCircle
 10
574.6767981995814
 20
59.38457855087587
 30
0.0
 40
10.58286877647421
100
AcDbArc
 50
299.2395135875373
 51
11.72797050682123
  0
ARC
  5
2CF
330
2
100
AcDbEntity
  8
KIJUN
100
AcDbCircle
 10
604.5074893597499
 20
56.30736843695574
 30
0.0
 40
15.97980994908321
100
AcDbArc
 50
154.2897222409854
 51
210.8747576591636
  0
CIRCLE
  5
2D0
330
2
100
AcDbEntity
  8
KIJUN
100
AcDbCircle
 10
532.8456344576094
 20
55.91756599916735
 30
0.0
 40
3.475655844438501
  0
CIRCLE
  5
2D1
330
2
100
AcDbEntity
  8
KIJUN
100
AcDbCircle
 10
526.0589926545397
 20
53.98290284626735
 30
0.0
 40
3.475655844438501
  0
ARC
  5
2D2
330
2
100
AcDbEntity
  8
KIJUN
100
AcDbCircle
 10
520.9306503513561
 20
49.39198743745834
 30
0.0
 40
3.475655844438501
100
AcDbArc
 50
293.0836019714918
 51
66.91639802850817
  0
CIRCLE
  5
2D3
330
2
100
AcDbEntity
  8
KIJUN
100
AcDbCircle
 10
533.2013060341666
 20
46.18440743384717
 30
0.0
 40
3.475655844438501
  0
CIRCLE
  5
2D4
330
2
100
AcDbEntity
  8
KIJUN
100
AcDbCircle
 10
526.0577733579662
 20
44.32963723789298
 30
0.0
 40
3.475655844438501
  0
ARC
  5
2D5
330
2
100
AcDbEntity
  8
KIJUN
100
AcDbCircle
 10
567.1477960144927
 20
53.93699610743606
 30
0.0
 40
0.45
100
AcDbArc
 50
336.8371879515964
 51
142.0679283165156
  0
ARC
  5
2D6
330
2
100
AcDbEntity
  8
KIJUN
100
AcDbCircle
 10
562.8906447122914
 20
55.75834370230444
 30
0.0
 40
5.080404331282784
100
AcDbArc
 50
314.6986610668429
 51
336.8371879516021
  0
ARC
  5
2D7
330
2
100
AcDbEntity
  8
KIJUN
100
AcDbCircle
 10
557.1921916616471
 20
61.69617648553944
 30
0.0
 40
12.17216059834232
100
AcDbArc
 50
270.9523640451299
 51
322.067928316544
  0
ARC
  5
2D8
330
2
100
AcDbEntity
  8
KIJUN
100
AcDbCircle
 10
580.6317702596139
 20
52.19963837294635
 30
0.0
 40
0.45
100
AcDbArc
 50
340.2891163846345
 51
140.9425200808611
  0
ARC
  5
2D9
330
2
100
AcDbEntity
  8
KIJUN
100
AcDbCircle
 10
571.1061747879081
 20
59.92914905768355
 30
0.0
 40
11.81712291110017
100
AcDbArc
 50
267.8271343325401
 51
320.9425200808847
  0
ARC
  5
2DA
330
2
100
AcDbEntity
  8
KIJUN
100
AcDbCircle
 10
576.2726775480238
 20
53.76135377689357
 30
0.0
 40
5.080404331282784
100
AcDbArc
 50
314.6986610668429
 51
340.2891163846275
  0
ARC
  5
2DB
330
2
100
AcDbEntity
  8
KIJUN
100
AcDbCircle
 10
594.9419713622843
 20
51.08205449654708
 30
0.0
 40
0.9
100
AcDbArc
 50
19.95773166636783
 51
165.3605282980547
  0
ARC
  5
2DC
330
2
100
AcDbEntity
  8
KIJUN
100
AcDbCircle
 10
589.7708215119633
 20
52.43284299951375
 30
0.0
 40
4.444662791441268
100
AcDbArc
 50
283.2847166799511
 51
345.3605282980634
  0
ARC
  5
2DD
330
2
100
AcDbEntity
  8
KIJUN
 62
     7
100
AcDbCircle
 10
468.8356623077322
 20
134.7625375672111
 30
0.0
 40
86.14399847020182
100
AcDbArc
 50
315.2379764208028
 51
327.3767630657829
  0
ARC
  5
2DE
330
2
100
AcDbEntity
  8
KIJUN
 62
     7
100
AcDbCircle
 10
469.9899804608101
 20
134.1143909360713
 30
0.0
 40
83.49642882088829
100
AcDbArc
 50
316.4400283057389
 51
328.7745515721816
  0
ARC
  5
2DF
330
2
100
AcDbEntity
  8
KIJUN
 62
     7
100
AcDbCircle
 10
597.2152515994873
 20
85.42142441814965
 30
0.0
 40
2.815651590337268
100
AcDbArc
 50
167.1938826433416
 51
238.8618979597604
  0
ARC
  5
2E0
330
2
100
AcDbEntity
  8
KIJUN
 62
     7
100
AcDbCircle
 10
599.0359442973655
 20
94.03836291500272
 30
0.0
 40
16.46277545229749
100
AcDbArc
 50
178.3041548555722
 51
229.8157196736024
  0
ARC
  5
2E1
330
2
100
AcDbEntity
  8
KIJUN
 62
     7
100
AcDbCircle
 10
598.444789437888
 20
95.12467640867644
 30
0.0
 40
15.87571883170735
100
AcDbArc
 50
182.1627423696948
 51
236.4957856143536
  0
ARC
  5
2E2
330
2
100
AcDbEntity
  8
KIJUN
100
AcDbCircle
 10
560.1917575392369
 20
76.96035653574894
 30
0.0
 40
6.260099160547156
100
AcDbArc
 50
49.13395873843278
 51
125.1427524442727
  0
ARC
  5
2E3
330
2
100
AcDbEntity
  8
KIJUN
 62
     7
100
AcDbCircle
 10
575.4287682268138
 20
82.73077291719385
 30
0.0
 40
0.9
100
AcDbArc
 50
296.7642411266193
 51
93.51178086347154
  0
ARC
  5
2E4
330
2
100
AcDbEntity
  8
KIJUN
 62
     7
100
AcDbCircle
 10
575.0947203926231
 20
88.17403901684055
 30
0.0
 40
4.553506558819737
100
AcDbArc
 50
220.5224032487025
 51
273.5117808634781
  0
ARC
  5
2E5
330
2
100
AcDbEntity
  8
KIJUN
100
AcDbCircle
 10
559.9444356099736
 20
80.88878235357636
 30
0.0
 40
11.78610727927293
100
AcDbArc
 50
209.5555307594498
 51
238.474573377456
  0
ARC
  5
2E6
330
2
100
AcDbEntity
  8
KIJUN
100
AcDbCircle
 10
561.9908330004951
 20
62.87073328779024
 30
0.0
 40
17.32652616955196
100
AcDbArc
 50
83.47079218074423
 51
135.2210155642737
  0
ARC
  5
2E7
330
2
100
AcDbEntity
  8
KIJUN
100
AcDbCircle
 10
558.8315872671879
 20
57.10035505904002
 30
0.0
 40
13.9359696526032
100
AcDbArc
 50
112.1255260590503
 51
165.8329260118984
  0
ARC
  5
2E8
330
2
100
AcDbEntity
  8
KIJUN
100
AcDbCircle
 10
552.3154271833744
 20
74.19893113040365
 30
0.0
 40
15.3719823889704
100
AcDbArc
 50
242.9279029316365
 51
294.7740818596076
  0
ARC
  5
2E9
330
2
100
AcDbEntity
  8
KIJUN
100
AcDbCircle
 10
449.9170911925562
 20
150.7356749412591
 30
0.0
 40
109.5108626806539
100
AcDbArc
 50
310.8572816896301
 51
311.3689271715377
  0
ARC
  5
2EA
330
2
100
AcDbEntity
  8
KIJUN
 62
     7
100
AcDbCircle
 10
520.2919393073224
 20
58.26968369559224
 30
0.0
 40
4.049484550496365
100
AcDbArc
 50
60.38022938156185
 51
104.4463709996105
  0
ARC
  5
2EB
330
2
100
AcDbEntity
  8
KIJUN
100
AcDbCircle
 10
514.6770373405421
 20
53.22954775619514
 30
0.0
 40
9.273947881195052
100
AcDbArc
 50
34.78882885034025
 51
64.53097307697236
  0
ARC
  5
2EC
330
2
100
AcDbEntity
  8
KIJUN
100
AcDbCircle
 10
514.6770373405421
 20
53.22954775619514
 30
0.0
 40
9.273947881195052
100
AcDbArc
 50
19.21175933651767
 51
34.78882885033919
  0
ARC
  5
2ED
330
2
100
AcDbEntity
  8
KIJUN
 62
     7
100
AcDbCircle
 10
520.2919393073224
 20
58.26968369559224
 30
0.0
 40
4.049484550496365
100
AcDbArc
 50
341.1713359387771
 51
60.38022938156185
  0
ARC
  5
2EE
330
2
100
AcDbEntity
  8
KIJUN
100
AcDbCircle
 10
441.8798014443648
 20
142.623575246566
 30
0.0
 40
111.6263054479913
100
AcDbArc
 50
316.0860143821695
 51
322.1324318026639
  0
ARC
  5
2EF
330
2
100
AcDbEntity
  8
KIJUN
100
AcDbCircle
 10
449.9170911925562
 20
150.7356749412591
 30
0.0
 40
109.5108626806539
100
AcDbArc
 50
311.3689271715433
 51
317.3754559046888
  0
ARC
  5
2F0
330
2
100
AcDbEntity
  8
KIJUN
100
AcDbCircle
 10
553.5464578112829
 20
70.45862408836594
 30
0.0
 40
0.45
100
AcDbArc
 50
274.6304067306279
 51
58.47457337741831
  0
ARC
  5
2F1
330
2
100
AcDbEntity
  8
KIJUN
 62
     7
100
AcDbCircle
 10
571.8538535214417
 20
58.18315469456404
 30
0.0
 40
0.45
100
AcDbArc
 50
93.70158050223723
 51
163.1481114592233
  0
ARC
  5
2F2
330
2
100
AcDbEntity
  8
KIJUN
 62
     7
100
AcDbCircle
 10
572.6300786403868
 20
55.39586977325902
 30
0.0
 40
3.335027362833223
100
AcDbArc
 50
49.79405489839169
 51
103.9727504567915
  0
ARC
  5
2F3
330
2
100
AcDbEntity
  8
KIJUN
 62
     7
100
AcDbCircle
 10
574.5188665364582
 20
57.57857339206184
 30
0.0
 40
0.45
100
AcDbArc
 50
294.3920632732075
 51
54.06417139811761
  0
ARC
  5
2F4
330
2
100
AcDbEntity
  8
KIJUN
 62
     7
100
AcDbCircle
 10
559.1340614668877
 20
59.42450601892584
 30
0.0
 40
0.9
100
AcDbArc
 50
321.5495380694628
 51
114.7740818596076
  0
ARC
  5
2F5
330
2
100
AcDbEntity
  8
KIJUN
 62
     7
100
AcDbCircle
 10
588.7310630697272
 20
64.97253986100485
 30
0.0
 40
1.8
100
AcDbArc
 50
354.4048736606758
 51
121.0618598522865
  0
ARC
  5
2F6
330
2
100
AcDbEntity
  8
KIJUN
 62
     7
100
AcDbCircle
 10
590.7489085253708
 20
61.62247922289584
 30
0.0
 40
5.710831952649967
100
AcDbArc
 50
121.0618598522863
 51
180.8705879286104
  0
ARC
  5
2F7
330
2
100
AcDbEntity
  8
KIJUN
 62
     7
100
AcDbCircle
 10
585.5354427012732
 20
65.28559874263713
 30
0.0
 40
5.01091815570713
100
AcDbArc
 50
335.9031661022166
 51
354.4048736606775
  0
ARC
  5
2F8
330
2
100
AcDbEntity
  8
KIJUN
 62
     7
100
AcDbCircle
 10
598.5632523746569
 20
81.59511815526604
 30
0.0
 40
4.31404675892694
100
AcDbArc
 50
184.1526290908251
 51
272.0419340621689
  0
ARC
  5
2F9
330
2
100
AcDbEntity
  8
KIJUN
 62
     7
100
AcDbCircle
 10
606.5307754257061
 20
7.815111649833794
 30
0.0
 40
75.96389578582503
100
AcDbArc
 50
103.8868501839658
 51
113.716731208396
  0
ARC
  5
2FA
330
2
100
AcDbEntity
  8
KIJUN
 62
     7
100
AcDbCircle
 10
629.655698190943
 20
4.516754448140375
 30
0.0
 40
90.0
100
AcDbArc
 50
128.6208681563632
 51
134.0388617465763
  0
ARC
  5
2FB
330
2
100
AcDbEntity
  8
KIJUN
 62
     7
100
AcDbCircle
 10
630.3354211941593
 20
3.554306817656716
 30
0.0
 40
90.0
100
AcDbArc
 50
128.6208681563632
 51
134.0388617465763
  0
ARC
  5
2FC
330
2
100
AcDbEntity
  8
KIJUN
 62
     7
100
AcDbCircle
 10
556.0688345828745
 20
79.43669639145934
 30
0.0
 40
15.03353023038745
100
AcDbArc
 50
262.4425764693465
 51
317.1616643907751
  0
ARC
  5
2FD
330
2
100
AcDbEntity
  8
KIJUN
 62
     7
100
AcDbCircle
 10
557.5542566012249
 20
78.81918069391824
 30
0.0
 40
14.69908862599225
100
AcDbArc
 50
256.3749183747155
 51
314.0388617465764
  0
ARC
  5
2FE
330
2
100
AcDbEntity
  8
KIJUN
 62
     7
100
AcDbCircle
 10
641.506553864923
 20
55.68400787524645
 30
0.0
 40
65.68938356066452
100
AcDbArc
 50
160.6856333979761
 51
176.3685434434267
  0
ARC
  5
2FF
330
2
100
AcDbEntity
  8
KIJUN
 62
     7
100
AcDbCircle
 10
644.6637709184683
 20
50.07108359868394
 30
0.0
 40
69.4062926289598
100
AcDbArc
 50
156.2809611234591
 51
171.9048731391166
  0
ARC
  5
300
330
2
100
AcDbEntity
  8
KIJUN
 62
     7
100
AcDbCircle
 10
530.9220177511893
 20
137.342825692349
 30
0.0
 40
76.80032696145445
100
AcDbArc
 50
304.2635600969135
 51
308.2056389020956
  0
ARC
  5
301
330
2
100
AcDbEntity
  8
KIJUN
 62
     7
100
AcDbCircle
 10
563.2455713445449
 20
98.95564649683963
 30
0.0
 40
26.21796659464468
100
AcDbArc
 50
253.543337472891
 51
292.8844183040591
  0
ARC
  5
302
330
2
100
AcDbEntity
  8
KIJUN
 62
     7
100
AcDbCircle
 10
606.0817675030875
 20
6.244253380841136
 30
0.0
 40
75.96389578582503
100
AcDbArc
 50
110.4712984600517
 51
111.3533302691814
  0
ARC
  5
303
330
2
100
AcDbEntity
  8
KIJUN
 62
     7
100
AcDbCircle
 10
577.0916230899124
 20
52.22579938672114
 30
0.0
 40
24.01422998601354
100
AcDbArc
 50
10.96324279108265
 51
46.78046308412485
  0
ARC
  5
304
330
2
100
AcDbEntity
  8
KIJUN
 62
     7
100
AcDbCircle
 10
575.4389653459163
 20
49.01151918750551
 30
0.0
 40
26.40135167167686
100
AcDbArc
 50
17.14138648062381
 51
51.28833027422805
  0
ARC
  5
305
330
2
100
AcDbEntity
  8
KIJUN
 62
     7
100
AcDbCircle
 10
595.7115930001716
 20
76.05016065613785
 30
0.0
 40
7.455802730164681
100
AcDbArc
 50
144.1842962484116
 51
239.7042570210016
  0
ARC
  5
306
330
2
100
AcDbEntity
  8
KIJUN
 62
     7
100
AcDbCircle
 10
606.0817675030875
 20
6.244253380841136
 30
0.0
 40
75.96389578582503
100
AcDbArc
 50
102.4803115743395
 51
109.1836097133624
  0
ARC
  5
307
330
2
100
AcDbEntity
  8
KIJUN
 62
     7
100
AcDbCircle
 10
597.297643038987
 20
76.16339962975573
 30
0.0
 40
7.455802730164681
100
AcDbArc
 50
141.692491269148
 51
239.7042570210016
  0
ARC
  5
308
330
2
100
AcDbEntity
  8
KIJUN
100
AcDbCircle
 10
554.6861852648032
 20
77.36849832353643
 30
0.0
 40
5.080404331282784
100
AcDbArc
 50
29.31997642165696
 51
68.01205644369233
  0
ARC
  5
309
330
2
100
AcDbEntity
  8
KIJUN
 62
     7
100
AcDbCircle
 10
569.8181508627418
 20
93.85515355539414
 30
0.0
 40
13.35916818208956
100
AcDbArc
 50
245.5447711776978
 51
296.764241126619
  0
ARC
  5
30A
330
2
100
AcDbEntity
  8
KIJUN
 62
     7
100
AcDbCircle
 10
561.4106784393185
 20
100.970120199266
 30
0.0
 40
27.7282115788144
100
AcDbArc
 50
258.364423435275
 51
301.5154431856784
  0
ARC
  5
30B
330
2
100
AcDbEntity
  8
KIJUN
100
AcDbCircle
 10
562.4757319132956
 20
67.13367830138304
 30
0.0
 40
33.86527991993106
100
AcDbArc
 50
98.77463825618251
 51
125.9924065564128
  0
ARC
  5
30C
330
2
100
AcDbEntity
  8
KIJUN
100
AcDbCircle
 10
567.8862760066153
 20
76.60956923514634
 30
0.0
 40
26.22080759194027
100
AcDbArc
 50
113.7889055544139
 51
163.8184001552026
  0
ARC
  5
30D
330
2
100
AcDbEntity
  8
KIJUN
 62
     7
100
AcDbCircle
 10
565.4354775703454
 20
62.77635345853453
 30
0.0
 40
40.48261092478449
100
AcDbArc
 50
101.579311116476
 51
114.3275925280019
  0
ARC
  5
30E
330
2
100
AcDbEntity
  8
KIJUN
100
AcDbCircle
 10
520.990804996463
 20
105.1194023400854
 30
0.0
 40
0.5
100
AcDbArc
 50
238.0385703574282
 51
9.106135889543958
  0
ARC
  5
30F
330
2
100
AcDbEntity
  8
KIJUN
100
AcDbCircle
 10
523.2077483413375
 20
106.3788520043641
 30
0.0
 40
2.088713250587398
100
AcDbArc
 50
135.7678701402927
 51
214.4087670129366
  0
ARC
  5
310
330
2
100
AcDbEntity
  8
KIJUN
100
AcDbCircle
 10
519.5253021285295
 20
95.64081692399062
 30
0.0
 40
12.3893992381167
100
AcDbArc
 50
77.08990783183908
 51
79.83820494872043
  0
ARC
  5
311
330
2
100
AcDbEntity
  8
KIJUN
100
AcDbCircle
 10
539.4679559626999
 20
145.5840634474626
 30
0.0
 40
49.10639967026103
100
AcDbArc
 50
243.9194431401865
 51
249.5284378288411
  0
ARC
  5
312
330
2
100
AcDbEntity
  8
KIJUN
100
AcDbCircle
 10
540.9575505717044
 20
144.30714588394
 30
0.0
 40
48.65146623908756
100
AcDbArc
 50
241.6821145089372
 51
247.4412535117583
  0
ARC
  5
313
330
2
100
AcDbEntity
  8
KIJUN
100
AcDbCircle
 10
531.004938226171
 20
64.17040632242503
 30
0.0
 40
25.28990786363198
100
AcDbArc
 50
98.63587954514855
 51
110.1493483496928
  0
ARC
  5
314
330
2
100
AcDbEntity
  8
KIJUN
100
AcDbCircle
 10
529.5163920763605
 20
65.16431946238245
 30
0.0
 40
25.14236171758992
100
AcDbArc
 50
100.2095220656169
 51
106.6954934386553
  0
ARC
  5
315
330
2
100
AcDbEntity
  8
KIJUN
100
AcDbCircle
 10
523.0013690719713
 20
103.6506837106957
 30
0.0
 40
11.61341693107974
100
AcDbArc
 50
266.5048300134241
 51
285.7897843808391
  0
ARC
  5
316
330
2
100
AcDbEntity
  8
KIJUN
100
AcDbCircle
 10
539.4679559626999
 20
145.5840634474626
 30
0.0
 40
49.10639967026103
100
AcDbArc
 50
249.5284378288413
 51
263.6134427777975
  0
ARC
  5
317
330
2
100
AcDbEntity
  8
KIJUN
100
AcDbCircle
 10
540.9575505717044
 20
144.30714588394
 30
0.0
 40
48.65146623908756
100
AcDbArc
 50
247.4412535117584
 51
261.4682062679654
  0
ARC
  5
318
330
2
100
AcDbEntity
  8
KIJUN
100
AcDbCircle
 10
581.9754960698863
 20
7.763095654681656
 30
0.0
 40
95.67861594985314
100
AcDbArc
 50
113.0804346437159
 51
116.5384619421608
  0
ARC
  5
319
330
2
100
AcDbEntity
  8
KIJUN
 62
     7
100
AcDbCircle
 10
528.072564439613
 20
151.9988129405616
 30
0.0
 40
57.18682796954112
100
AcDbArc
 50
274.0556940306598
 51
288.869401686631
  0
ARC
  5
31A
330
2
100
AcDbEntity
  8
KIJUN
100
AcDbCircle
 10
572.079019497603
 20
15.95403249219572
 30
0.0
 40
85.81126139240813
100
AcDbArc
 50
107.2954044246974
 51
113.4291533572856
  0
ARC
  5
31B
330
2
100
AcDbEntity
  8
KIJUN
100
AcDbCircle
 10
541.7581534729083
 20
94.29938665341405
 30
0.0
 40
3.489527357898803
100
AcDbArc
 50
242.1670132755104
 51
273.5531088836338
  0
ARC
  5
31C
330
2
100
AcDbEntity
  8
KIJUN
100
AcDbCircle
 10
546.7165472267721
 20
88.92307986527191
 30
0.0
 40
6.97447271370665
100
AcDbArc
 50
125.312728088153
 51
160.8278054538135
  0
ARC
  5
31D
330
2
100
AcDbEntity
  8
KIJUN
100
AcDbCircle
 10
548.3562677793176
 20
88.00317184462514
 30
0.0
 40
6.97447271370665
100
AcDbArc
 50
156.210060827653
 51
215.8663286992648
  0
ARC
  5
31E
330
2
100
AcDbEntity
  8
KIJUN
 62
     7
100
AcDbCircle
 10
532.2357355618757
 20
93.96224795711134
 30
0.0
 40
1.0
100
AcDbArc
 50
96.80951328203057
 51
161.9091986967045
  0
ARC
  5
31F
330
2
100
AcDbEntity
  8
KIJUN
 62
     7
100
AcDbCircle
 10
535.8764556947878
 20
97.71454382146286
 30
0.0
 40
2.090235429672418
100
AcDbArc
 50
164.9035104000976
 51
206.4837507089924
  0
LINE
  5
320
330
2
100
AcDbEntity
  8
KIJUN
 62
     7
100
AcDbLine
 10
530.3850400155093
 20
91.51732276034374
 30
0.0
 11
531.2851699641591
 21
94.27277177977234
 31
0.0
  0
ARC
  5
321
330
2
100
AcDbEntity
  8
KIJUN
 62
     7
100
AcDbCircle
 10
526.6105338573466
 20
110.2314670337724
 30
0.0
 40
21.06633724395438
100
AcDbArc
 50
271.6239558017265
 51
306.7886893281545
  0
ARC
  5
322
330
2
100
AcDbEntity
  8
KIJUN
 62
     7
100
AcDbCircle
 10
525.6436944052999
 20
111.7818562383573
 30
0.0
 40
21.06633724395438
100
AcDbArc
 50
282.3752120472736
 51
305.7751246853275
  0
ARC
  5
323
330
2
100
AcDbEntity
  8
KIJUN
100
AcDbCircle
 10
529.8025997922228
 20
99.82411046125124
 30
0.0
 40
4.347291083713302
100
AcDbArc
 50
338.8976886103516
 51
74.31666834771617
  0
ARC
  5
324
330
2
100
AcDbEntity
  8
KIJUN
100
AcDbCircle
 10
522.9226381327833
 20
93.87444394997563
 30
0.0
 40
3.528058563390821
100
AcDbArc
 50
288.2984682607352
 51
336.6388963114482
  0
ARC
  5
325
330
2
100
AcDbEntity
  8
KIJUN
100
AcDbCircle
 10
526.7562667759063
 20
93.91126188698645
 30
0.0
 40
4.347291083713302
100
AcDbArc
 50
231.1677722601662
 51
326.5867519975397
  0
ARC
  5
326
330
2
100
AcDbEntity
  8
KIJUN
 62
     7
100
AcDbCircle
 10
522.5934685302105
 20
194.4056943361155
 30
0.0
 40
98.28804862199042
100
AcDbArc
 50
276.6675782710482
 51
285.4387459637588
  0
ARC
  5
327
330
2
100
AcDbEntity
  8
KIJUN
100
AcDbCircle
 10
530.5609838105189
 20
102.3004222075914
 30
0.0
 40
0.5
100
AcDbArc
 50
211.1093500280825
 51
347.2811031021678
  0
ARC
  5
328
330
2
100
AcDbEntity
  8
KIJUN
100
AcDbCircle
 10
527.6072278004374
 20
102.9671036129365
 30
0.0
 40
3.528058563390821
100
AcDbArc
 50
347.2811031021714
 51
17.18597234714509
  0
ARC
  5
329
330
2
100
AcDbEntity
  8
KIJUN
100
AcDbCircle
 10
519.5253021285295
 20
95.64081692399062
 30
0.0
 40
12.3893992381167
100
AcDbArc
 50
31.10935002809149
 51
79.83820494872043
  0
ARC
  5
32A
330
2
100
AcDbEntity
  8
KIJUN
100
AcDbCircle
 10
585.8450013182825
 20
89.08052648801353
 30
0.0
 40
9.143063270321295
100
AcDbArc
 50
340.6130525669071
 51
48.09026311091027
  0
ARC
  5
32B
330
2
100
AcDbEntity
  8
KIJUN
100
AcDbCircle
 10
577.742308132783
 20
93.82543062843124
 30
0.0
 40
0.45
100
AcDbArc
 50
268.6246145873667
 51
61.43856468772857
  0
ARC
  5
32C
330
2
100
AcDbEntity
  8
KIJUN
100
AcDbCircle
 10
577.4667337235237
 20
82.34776223790365
 30
0.0
 40
11.03097613175596
100
AcDbArc
 50
88.6246145873536
 51
129.164907424834
  0
ARC
  5
32D
330
2
100
AcDbEntity
  8
KIJUN
100
AcDbCircle
 10
580.1982459846454
 20
98.33716215190037
 30
0.0
 40
4.686862084198403
100
AcDbArc
 50
130.7522452276037
 51
241.4385646877067
  0
ARC
  5
32E
330
2
100
AcDbEntity
  8
KIJUN
100
AcDbCircle
 10
588.3141452020977
 20
95.2846764776771
 30
0.0
 40
0.45
100
AcDbArc
 50
200.3378389092409
 51
333.9503521074397
  0
ARC
  5
32F
330
2
100
AcDbEntity
  8
KIJUN
100
AcDbCircle
 10
578.1125146076135
 20
91.5033176719357
 30
0.0
 40
10.42988700327627
100
AcDbArc
 50
20.33783890924336
 51
95.35731282024668
  0
ARC
  5
330
330
2
100
AcDbEntity
  8
KIJUN
100
AcDbCircle
 10
590.6688918359411
 20
94.13366292029705
 30
0.0
 40
2.17100437215842
100
AcDbArc
 50
53.76422233231445
 51
153.9503521074149
  0
ARC
  5
331
330
2
100
AcDbEntity
  8
KIJUN
100
AcDbCircle
 10
574.7951476298563
 20
87.04972691864794
 30
0.0
 40
3.655347227807721
100
AcDbArc
 50
189.0739674277416
 51
210.1201419875738
  0
ARC
  5
332
330
2
100
AcDbEntity
  8
KIJUN
100
AcDbCircle
 10
573.5805830650475
 20
86.62524984746971
 30
0.0
 40
0.45
100
AcDbArc
 50
273.4661996988061
 51
79.54473265196367
  0
ARC
  5
333
330
2
100
AcDbEntity
  8
KIJUN
100
AcDbCircle
 10
574.3633263261214
 20
90.86703398954943
 30
0.0
 40
3.8634000186345
100
AcDbArc
 50
179.5047924496661
 51
259.5447326520098
  0
ARC
  5
334
330
2
100
AcDbEntity
  8
KIJUN
100
AcDbCircle
 10
573.2014568601441
 20
92.88450401276865
 30
0.0
 40
6.720725586808642
100
AcDbArc
 50
252.5451299735645
 51
273.4661996987865
  0
ARC
  5
335
330
2
100
AcDbEntity
  8
KIJUN
100
AcDbCircle
 10
671.3070059868648
 20
150.0406921514396
 30
0.0
 40
111.877428529333
100
AcDbArc
 50
277.7860977031632
 51
303.9212125566256
  0
ARC
  5
336
330
2
100
AcDbEntity
  8
KIJUN
 62
     7
100
AcDbCircle
 10
424.1960912013898
 20
-205.5028504724601
 30
0.0
 40
350.0848729481323
100
AcDbArc
 50
48.18017700732383
 51
53.98359617971573
  0
ARC
  5
337
330
2
100
AcDbEntity
  8
KIJUN
100
AcDbCircle
 10
656.2928175593783
 20
49.37928700246295
 30
0.0
 40
6.163629164415231
100
AcDbArc
 50
68.63479187992083
 51
94.38601171493914
  0
ARC
  5
338
330
2
100
AcDbEntity
  8
KIJUN
100
AcDbCircle
 10
671.8669081453923
 20
58.06674009388213
 30
0.0
 40
13.65060654702707
100
AcDbArc
 50
152.7082682279796
 51
192.4693643719982
  0
ARC
  5
339
330
2
100
AcDbEntity
  8
KIJUN
100
AcDbCircle
 10
688.2590615991936
 20
76.95936857619894
 30
0.0
 40
38.87977033121965
100
AcDbArc
 50
213.4563952169803
 51
241.7677250878683
  0
ARC
  5
33A
330
2
100
AcDbEntity
  8
KIJUN
 62
     7
100
AcDbCircle
 10
646.7882547886798
 20
55.40048186597953
 30
0.0
 40
2.487464897433529
100
AcDbArc
 50
318.0048482066078
 51
12.56870724588283
  0
LINE
  5
33B
330
2
100
AcDbEntity
  8
KIJUN
 62
     7
100
AcDbLine
 10
649.1420737676269
 20
56.17570512314284
 30
0.0
 11
652.3184926791669
 21
55.20653675938814
 31
0.0
  0
ARC
  5
33C
330
2
100
AcDbEntity
  8
KIJUN
100
AcDbCircle
 10
731.9730917116519
 20
55.16603758423454
 30
0.0
 40
9.273947881195052
100
AcDbArc
 50
345.6499866136017
 51
43.88440539826441
  0
CIRCLE
  5
33D
330
2
100
AcDbEntity
  8
KIJUN
100
AcDbCircle
 10
734.6712208831574
 20
52.85715085455257
 30
0.0
 40
3.475655844438501
  0
ARC
  5
33E
330
2
100
AcDbEntity
  8
KIJUN
 62
     7
100
AcDbCircle
 10
590.0962169359623
 20
28.21778115839542
 30
0.0
 40
151.8522503364613
100
AcDbArc
 50
9.256082478265231
 51
12.57008655861374
  0
ARC
  5
33F
330
2
100
AcDbEntity
  8
KIJUN
100
AcDbCircle
 10
668.6236427179371
 20
152.2085355460655
 30
0.0
 40
112.2387905028976
100
AcDbArc
 50
280.3900113852137
 51
304.4418417454894
  0
ARC
  5
340
330
2
100
AcDbEntity
  8
KIJUN
 62
     7
100
AcDbCircle
 10
679.8792642835705
 20
51.73085902496582
 30
0.0
 40
8.078642545614535
100
AcDbArc
 50
91.1918164564549
 51
163.3181008982506
  0
ARC
  5
341
330
2
100
AcDbEntity
  8
KIJUN
 62
     7
100
AcDbCircle
 10
720.8825886445715
 20
51.07028407955723
 30
0.0
 40
27.58479385651014
100
AcDbArc
 50
125.2866300413165
 51
177.2277900010944
  0
ARC
  5
342
330
2
100
AcDbEntity
  8
KIJUN
 62
     7
100
AcDbCircle
 10
721.3145839908445
 20
52.82148337253563
 30
0.0
 40
27.98761456823846
100
AcDbArc
 50
130.5476795612756
 51
180.8538135625281
  0
ARC
  5
343
330
2
100
AcDbEntity
  8
KIJUN
100
AcDbCircle
 10
708.1385341567709
 20
56.48505936753934
 30
0.0
 40
4.785280236962456
100
AcDbArc
 50
280.4597234922771
 51
352.2626744165429
  0
ARC
  5
344
330
2
100
AcDbEntity
  8
KIJUN
100
AcDbCircle
 10
636.1035728804706
 20
57.63208283476394
 30
0.0
 40
3.974220655232412
100
AcDbArc
 50
198.5888342458379
 51
262.1150371968105
  0
ARC
  5
345
330
2
100
AcDbEntity
  8
KIJUN
100
AcDbCircle
 10
684.2063210176442
 20
66.10088849336834
 30
0.0
 40
24.53477595699535
100
AcDbArc
 50
184.1488887278003
 51
220.0114143247151
  0
ARC
  5
346
330
2
100
AcDbEntity
  8
KIJUN
100
AcDbCircle
 10
596.7595191819559
 20
51.598862464069
 30
0.0
 40
10.04324070773757
100
AcDbArc
 50
313.2904095170766
 51
25.81708355147086
  0
ARC
  5
347
330
2
100
AcDbEntity
  8
KIJUN
100
AcDbCircle
 10
697.5934658751938
 20
55.74556875701245
 30
0.0
 40
9.570560473924912
100
AcDbArc
 50
280.4597234922771
 51
349.3170722046706
  0
LINE
  5
348
330
2
100
AcDbEntity
  8
KIJUN
 62
     7
100
AcDbLine
 10
650.8016793405073
 20
52.80856869889753
 30
0.0
 11
655.9667638313535
 21
53.39569780682477
 31
0.0
  0
ARC
  5
349
330
2
100
AcDbEntity
  8
KIJUN
100
AcDbCircle
 10
635.3189029014835
 20
151.2408092790937
 30
0.0
 40
100.0
100
AcDbArc
 50
274.2898232257675
 51
281.9160691383411
  0
LINE
  5
34A
330
2
100
AcDbEntity
  8
KIJUN
 62
     7
100
AcDbLine
 10
652.3184926791669
 20
55.20653675938814
 30
0.0
 11
656.2083658849348
 21
54.95051932776251
 31
0.0
  0
ARC
  5
34B
330
2
100
AcDbEntity
  8
KIJUN
 62
     7
100
AcDbCircle
 10
651.9088448697664
 20
47.57375301601446
 30
0.0
 40
2.900731093059361
100
AcDbArc
 50
276.5887731629301
 51
72.39298779991334
  0
ARC
  5
34C
330
2
100
AcDbEntity
  8
KIJUN
100
AcDbCircle
 10
660.3087698093982
 20
14.42333577396805
 30
0.0
 40
37.93472809020288
100
AcDbArc
 50
93.18609499252058
 51
101.5066588336473
  0
ARC
  5
34D
330
2
100
AcDbEntity
  8
KIJUN
100
AcDbCircle
 10
639.9572413269495
 20
118.9267800424965
 30
0.0
 40
67.00163958521264
100
AcDbArc
 50
272.430885043741
 51
279.3144861115128
  0
ARC
  5
34E
330
2
100
AcDbEntity
  8
KIJUN
 62
     7
100
AcDbCircle
 10
640.2273531606859
 20
40.8969116855082
 30
0.0
 40
10.97426118954554
100
AcDbArc
 50
114.6210290766475
 51
130.5713382991679
  0
ARC
  5
34F
330
2
100
AcDbEntity
  8
KIJUN
100
AcDbCircle
 10
645.0584706625137
 20
13.96811903170265
 30
0.0
 40
38.08439562109447
100
AcDbArc
 50
93.40114483093174
 51
104.2943262593851
  0
ARC
  5
350
330
2
100
AcDbEntity
  8
KIJUN
 62
     7
100
AcDbCircle
 10
638.259287883198
 20
41.34186205753763
 30
0.0
 40
9.433606520825726
100
AcDbArc
 50
106.0234832709972
 51
123.2292986983317
  0
ARC
  5
351
330
2
100
AcDbEntity
  8
KIJUN
100
AcDbCircle
 10
645.0584706625137
 20
13.50365034717589
 30
0.0
 40
38.08439562109447
100
AcDbArc
 50
93.40114483093174
 51
104.2943262593851
  0
ARC
  5
352
330
2
100
AcDbEntity
  8
KIJUN
 62
     7
100
AcDbCircle
 10
652.8980361684324
 20
50.97189543274274
 30
0.0
 40
0.6430855066826573
100
AcDbArc
 50
104.0898604355384
 51
259.9919893540461
  0
ARC
  5
353
330
2
100
AcDbEntity
  8
KIJUN
100
AcDbCircle
 10
634.0827613570213
 20
53.86962896873771
 30
0.0
 40
7.848403968835039
100
AcDbArc
 50
221.4471973777595
 51
292.5640098238068
  0
ARC
  5
354
330
2
100
AcDbEntity
  8
KIJUN
100
AcDbCircle
 10
634.904046235473
 20
46.75172499823652
 30
0.0
 40
6.97447271370665
100
AcDbArc
 50
79.60999807995134
 51
163.9966816075256
  0
LINE
  5
355
330
2
100
AcDbEntity
  8
KIJUN
100
AcDbLine
 10
637.09431431582
 20
46.62200910878545
 30
0.0
 11
637.5605399869615
 21
46.93266867469032
 31
0.0
  0
ARC
  5
356
330
2
100
AcDbEntity
  8
KIJUN
100
AcDbCircle
 10
640.3615965530077
 20
43.27090199480602
 30
0.0
 40
4.610255210300308
100
AcDbArc
 50
76.80886653851729
 51
127.4140643653364
  0
ARC
  5
357
330
2
100
AcDbEntity
  8
KIJUN
100
AcDbCircle
 10
646.6994083681145
 20
37.7027104101921
 30
0.0
 40
11.36126838073563
100
AcDbArc
 50
117.7259499646661
 51
150.4603917887764
  0
ARC
  5
358
330
2
100
AcDbEntity
  8
KIJUN
100
AcDbCircle
 10
641.645294852831
 20
49.590327946016
 30
0.0
 40
7.927738568788837
100
AcDbArc
 50
232.4611839115976
 51
317.9564176674598
  0
ARC
  5
359
330
2
100
AcDbEntity
  8
KIJUN
 62
     7
100
AcDbCircle
 10
648.9845179880955
 20
45.74748145731513
 30
0.0
 40
3.42385420856283
100
AcDbArc
 50
251.062218302802
 51
342.0479966452981
  0
ARC
  5
35A
330
2
100
AcDbEntity
  8
KIJUN
 62
     7
100
AcDbCircle
 10
651.5244178976388
 20
42.35797937366777
 30
0.0
 40
3.65420186349799
100
AcDbArc
 50
124.4938273600589
 51
177.6321129105743
  0
ARC
  5
35B
330
2
100
AcDbEntity
  8
KIJUN
 62
     7
100
AcDbCircle
 10
679.6211482003932
 20
62.38589127315035
 30
0.0
 40
18.63467847621966
100
AcDbArc
 50
220.3269240540175
 51
278.7482764275515
  0
LINE
  5
35C
330
2
100
AcDbEntity
  8
KIJUN
 62
     7
100
AcDbLine
 10
685.678911363876
 20
41.20146061375662
 30
0.0
 11
669.3715580334335
 21
42.75196350114543
 31
0.0
  0
ARC
  5
35D
330
2
100
AcDbEntity
  8
KIJUN
 62
     7
100
AcDbCircle
 10
685.7646732444043
 20
44.14559689743618
 30
0.0
 40
5.0
100
AcDbArc
 50
264.5686458014773
 51
278.0356561686821
  0
LINE
  5
35E
330
2
100
AcDbEntity
  8
KIJUN
 62
     7
100
AcDbLine
 10
685.2914077216298
 20
39.16804531609095
 30
0.0
 11
668.794621534396
 21
40.73655947639867
 31
0.0
  0
ARC
  5
35F
330
2
100
AcDbEntity
  8
KIJUN
100
AcDbCircle
 10
683.6105646256897
 20
53.55383342352824
 30
0.0
 40
12.56060093720086
100
AcDbArc
 50
278.4948035044542
 51
313.5165886439511
  0
ARC
  5
360
330
2
100
AcDbEntity
  8
KIJUN
 62
     7
100
AcDbCircle
 10
688.4614469235946
 20
47.32580314636749
 30
0.0
 40
6.880975238313423
100
AcDbArc
 50
127.304288311216
 51
244.194269956342
  0
ARC
  5
361
330
2
100
AcDbEntity
  8
KIJUN
 62
     7
100
AcDbCircle
 10
679.5897217051675
 20
62.91573688681484
 30
0.0
 40
10.35103948781487
100
AcDbArc
 50
279.6818437466341
 51
294.4608995750593
  0
ARC
  5
362
330
2
100
AcDbEntity
  8
KIJUN
 62
     7
100
AcDbCircle
 10
684.044431167637
 20
53.1230649558285
 30
0.0
 40
0.4072531249999999
100
AcDbArc
 50
307.3042883112161
 51
114.4608995750369
  0
ARC
  5
363
330
2
100
AcDbEntity
  8
KIJUN
 62
     7
100
AcDbCircle
 10
683.8315118367023
 20
50.66928616279909
 30
0.0
 40
10.47700836735285
100
AcDbArc
 50
323.5535643028697
 51
335.4574591630314
  0
ARC
  5
364
330
2
100
AcDbEntity
  8
KIJUN
 62
     7
100
AcDbCircle
 10
697.6218695964542
 20
51.53407764796482
 30
0.0
 40
0.4072531249999999
100
AcDbArc
 50
338.9600515382261
 51
65.96844985045876
  0
ARC
  5
365
330
2
100
AcDbEntity
  8
KIJUN
 62
     7
100
AcDbCircle
 10
696.1904464338273
 20
51.76989635813966
 30
0.0
 40
0.4072531249999999
100
AcDbArc
 50
95.3213131512599
 51
146.3987975563964
  0
ARC
  5
366
330
2
100
AcDbEntity
  8
KIJUN
 62
     7
100
AcDbCircle
 10
696.455959894041
 20
48.91927755079342
 30
0.0
 40
3.270210508956348
100
AcDbArc
 50
65.96844985046679
 51
95.32131315124685
  0
ARC
  5
367
330
2
100
AcDbEntity
  8
KIJUN
100
AcDbCircle
 10
702.1735709965956
 20
49.7832009801421
 30
0.0
 40
4.469585476182041
100
AcDbArc
 50
158.9600515382219
 51
230.5063375483213
  0
ARC
  5
368
330
2
100
AcDbEntity
  8
KIJUN
 62
     7
100
AcDbCircle
 10
710.8269547093357
 20
42.04498074024722
 30
0.0
 40
17.97999788141595
100
AcDbArc
 50
146.3987975564134
 51
166.2536360265813
  0
ARC
  5
369
330
2
100
AcDbEntity
  8
KIJUN
100
AcDbCircle
 10
678.0910738588277
 20
62.69270434336853
 30
0.0
 40
10.49313810588089
100
AcDbArc
 50
235.4531487730004
 51
287.9821843055006
  0
ARC
  5
36A
330
2
100
AcDbEntity
  8
KIJUN
100
AcDbCircle
 10
740.9306503513557
 20
49.39198743745834
 30
0.0
 40
3.475655844438501
100
AcDbArc
 50
66.91639802850817
 51
293.0836019714918
  0
CIRCLE
  5
36B
330
2
100
AcDbEntity
  8
KIJUN
100
AcDbCircle
 10
735.7851900742731
 20
43.92458209619184
 30
0.0
 40
3.475655844438501
  0
ARC
  5
36C
330
2
100
AcDbEntity
  8
KIJUN
100
AcDbCircle
 10
710.4285867174709
 20
53.50387547910436
 30
0.0
 40
2.234792738091019
100
AcDbArc
 50
171.2895315975587
 51
230.5063375483213
  0
ARC
  5
36D
330
2
100
AcDbEntity
  8
KIJUN
 62
     7
100
AcDbCircle
 10
707.3983447601456
 20
53.89594331731935
 30
0.0
 40
0.4072531249999999
100
AcDbArc
 50
91.10116228497998
 51
169.3170722046674
  0
ARC
  5
36E
330
2
100
AcDbEntity
  8
KIJUN
 62
     7
100
AcDbCircle
 10
707.8170135936741
 20
53.90399066572315
 30
0.0
 40
0.4072531249999999
100
AcDbArc
 50
351.2895315975492
 51
91.10116228497998
  0
LINE
  5
36F
330
2
100
AcDbEntity
  8
KIJUN
 62
     7
100
AcDbLine
 10
707.390518281847
 20
54.30312123182325
 30
0.0
 11
707.8091871153745
 21
54.31116858022682
 31
0.0
  0
ARC
  5
370
330
2
100
AcDbEntity
  8
KIJUN
 62
     7
100
AcDbCircle
 10
728.2374522759453
 20
88.08616686282993
 30
0.0
 40
26.63958797854194
100
AcDbArc
 50
165.2267203838805
 51
209.3765278730881
  0
ARC
  5
371
330
2
100
AcDbEntity
  8
KIJUN
100
AcDbCircle
 10
696.6318097678937
 20
94.51566847704963
 30
0.0
 40
11.32694420128306
100
AcDbArc
 50
1.403340711443588
 51
64.8385127647705
  0
ARC
  5
372
330
2
100
AcDbEntity
  8
KIJUN
 62
     7
100
AcDbCircle
 10
708.9043919447284
 20
71.23689838844244
 30
0.0
 40
6.975352634941361
100
AcDbArc
 50
219.3284945062436
 51
262.0057607181907
  0
ARC
  5
373
330
2
100
AcDbEntity
  8
KIJUN
 62
     7
100
AcDbCircle
 10
704.7688635545799
 20
67.84857169628685
 30
0.0
 40
1.629012499999999
100
AcDbArc
 50
95.52261725430509
 51
219.3284945062447
  0
ARC
  5
374
330
2
100
AcDbEntity
  8
KIJUN
100
AcDbCircle
 10
571.0087463967608
 20
15.73401361164673
 30
0.0
 40
89.32984055446775
100
AcDbArc
 50
48.01166293713839
 51
49.39812634461051
  0
ARC
  5
375
330
2
100
AcDbEntity
  8
KIJUN
 62
     7
100
AcDbCircle
 10
620.69581361606
 20
85.19554712124104
 30
0.0
 40
8.605998812005676
100
AcDbArc
 50
328.0990737631295
 51
6.722659904026145
  0
ARC
  5
376
330
2
100
AcDbEntity
  8
KIJUN
 62
     7
100
AcDbCircle
 10
626.0488760618897
 20
88.95697282699444
 30
0.0
 40
9.314331350491924
100
AcDbArc
 50
286.4619102462618
 51
334.1919703298851
  0
ARC
  5
377
330
2
100
AcDbEntity
  8
KIJUN
100
AcDbCircle
 10
622.6568052692035
 20
92.07696719898754
 30
0.0
 40
12.83429479040021
100
AcDbArc
 50
296.2713640484523
 51
331.5628780147254
  0
ARC
  5
378
330
2
100
AcDbEntity
  8
KIJUN
 62
     7
100
AcDbCircle
 10
586.6625405568535
 20
92.51903090698595
 30
0.0
 40
42.22511704769462
100
AcDbArc
 50
343.9208293077492
 51
351.9612319570377
  0
ARC
  5
379
330
2
100
AcDbEntity
  8
KIJUN
 62
     7
100
AcDbCircle
 10
728.1185762269384
 20
86.16614530580836
 30
0.0
 40
27.08005295613661
100
AcDbArc
 50
161.2312718364114
 51
202.5122076111907
  0
ARC
  5
37A
330
2
100
AcDbEntity
  8
KIJUN
 62
     7
100
AcDbCircle
 10
689.4053974309588
 20
106.4312145951966
 30
0.0
 40
25.05184674732072
100
AcDbArc
 50
217.5703375080701
 51
264.9373477589956
  0
ARC
  5
37B
330
2
100
AcDbEntity
  8
KIJUN
 62
     7
100
AcDbCircle
 10
661.2644649127466
 20
87.04432305415947
 30
0.0
 40
11.74634682989291
100
AcDbArc
 50
184.4732598661138
 51
236.5335847200789
  0
ARC
  5
37C
330
2
100
AcDbEntity
  8
KIJUN
 62
     7
100
AcDbCircle
 10
688.7644939400967
 20
102.9087781427084
 30
0.0
 40
22.52445685697954
100
AcDbArc
 50
211.4509447747654
 51
255.7410640702484
  0
ARC
  5
37D
330
2
100
AcDbEntity
  8
KIJUN
 62
     7
100
AcDbCircle
 10
530.3852971462888
 20
-61.76618405307436
 30
0.0
 40
174.2724173562583
100
AcDbArc
 50
42.77991764891171
 51
52.47580683346416
  0
ARC
  5
37E
330
2
100
AcDbEntity
  8
KIJUN
100
AcDbCircle
 10
571.0087463967608
 20
15.73401361164673
 30
0.0
 40
89.32984055446775
100
AcDbArc
 50
42.8176730853064
 51
47.34493034294688
  0
ARC
  5
37F
330
2
100
AcDbEntity
  8
KIJUN
100
AcDbCircle
 10
576.0650846908533
 20
7.097336830458687
 30
0.0
 40
91.264587772205
100
AcDbArc
 50
50.50011440196946
 51
53.64726901217959
  0
ARC
  5
380
330
2
100
AcDbEntity
  8
KIJUN
100
AcDbCircle
 10
576.0650846908533
 20
7.097336830458687
 30
0.0
 40
91.264587772205
100
AcDbArc
 50
54.24026424868841
 51
54.89208874934868
  0
ARC
  5
381
330
2
100
AcDbEntity
  8
KIJUN
 62
     7
100
AcDbCircle
 10
605.7546157454539
 20
-14.2048754242581
 30
0.0
 40
97.42666306625825
100
AcDbArc
 50
76.59726760620731
 51
76.8000541209003
  0
ARC
  5
382
330
2
100
AcDbEntity
  8
KIJUN
 62
     7
100
AcDbCircle
 10
627.7804635978853
 20
80.30975648028386
 30
0.0
 40
0.0000000000265806
100
AcDbArc
 50
76.14206232424064
 51
77.15229514128346
  0
ARC
  5
383
330
2
100
AcDbEntity
  8
KIJUN
 62
     7
100
AcDbCircle
 10
612.029389684704
 20
36.7932393752937
 30
0.0
 40
46.32988994165213
100
AcDbArc
 50
61.52777757968357
 51
68.92604611502131
  0
ARC
  5
384
330
2
100
AcDbEntity
  8
KIJUN
 62
     7
100
AcDbCircle
 10
612.029389684704
 20
36.7932393752937
 30
0.0
 40
46.32988994165213
100
AcDbArc
 50
61.52777757968357
 51
68.92604611502131
  0
ARC
  5
385
330
2
100
AcDbEntity
  8
KIJUN
100
AcDbCircle
 10
638.0004977751102
 20
66.62280976843534
 30
0.0
 40
15.07706532792591
100
AcDbArc
 50
134.0485907860542
 51
176.5376436749274
  0
ARC
  5
386
330
2
100
AcDbEntity
  8
KIJUN
 62
     7
100
AcDbCircle
 10
628.9084304889181
 20
76.02195600914345
 30
0.0
 40
2.0
100
AcDbArc
 50
55.12887162038272
 51
134.048590786053
  0
ARC
  5
387
330
2
100
AcDbEntity
  8
KIJUN
100
AcDbCircle
 10
638.0004977751102
 20
66.62280976843534
 30
0.0
 40
17.07706532792591
100
AcDbArc
 50
132.1383098430897
 51
177.9122706041015
  0
ARC
  5
388
330
2
100
AcDbEntity
  8
KIJUN
100
AcDbCircle
 10
639.7579225042244
 20
96.04344514357114
 30
0.0
 40
36.14088264993386
100
AcDbArc
 50
247.7010011129173
 51
260.1642616230364
  0
ARC
  5
389
330
2
100
AcDbEntity
  8
KIJUN
100
AcDbCircle
 10
627.9418261925827
 20
67.23139141304104
 30
0.0
 40
5.0
100
AcDbArc
 50
176.5376436749273
 51
247.701001112917
  0
ARC
  5
38A
330
2
100
AcDbEntity
  8
KIJUN
100
AcDbCircle
 10
641.8671749871362
 20
101.170201383007
 30
0.0
 40
43.87337820097313
100
AcDbArc
 50
246.0682848147616
 51
263.4773475251563
  0
ARC
  5
38B
330
2
100
AcDbEntity
  8
KIJUN
100
AcDbCircle
 10
625.7181631851014
 20
65.78919896533616
 30
0.0
 40
5.0
100
AcDbArc
 50
163.0735061811652
 51
194.6501424953774
  0
ARC
  5
38C
330
2
100
AcDbEntity
  8
KIJUN
100
AcDbCircle
 10
622.7341910339707
 20
53.3408956096752
 30
0.0
 40
11.33626912523647
100
AcDbArc
 50
99.41005038367915
 51
123.9730532061555
  0
ARC
  5
38D
330
2
100
AcDbEntity
  8
KIJUN
100
AcDbCircle
 10
621.1039115480578
 20
56.76093149067003
 30
0.0
 40
5.635974480895928
100
AcDbArc
 50
79.45654296095948
 51
132.2995546601775
  0
ARC
  5
38E
330
2
100
AcDbEntity
  8
KIJUN
 62
     7
100
AcDbCircle
 10
615.3703348059858
 20
61.08917347237064
 30
0.0
 40
1.94708571583534
100
AcDbArc
 50
355.2961845813137
 51
58.09303227663899
  0
ARC
  5
38F
330
2
100
AcDbEntity
  8
KIJUN
 62
     7
100
AcDbCircle
 10
618.339978346307
 20
62.58239845728184
 30
0.0
 40
1.94708571583534
100
AcDbArc
 50
175.2961845813022
 51
238.0930322766301
  0
ARC
  5
390
330
2
100
AcDbEntity
  8
KIJUN
100
AcDbCircle
 10
625.7181631851014
 20
65.78919896533616
 30
0.0
 40
5.0
100
AcDbArc
 50
224.22594772825
 51
250.7540618088095
  0
ARC
  5
391
330
2
100
AcDbEntity
  8
KIJUN
 62
     7
100
AcDbCircle
 10
621.3143263391799
 20
-9.089308116440811
 30
0.0
 40
70.59751408444217
100
AcDbArc
 50
70.82282232427644
 51
79.99115547866228
  0
ARC
  5
392
330
2
100
AcDbEntity
  8
KIJUN
100
AcDbCircle
 10
638.5403334441758
 20
42.27276143133775
 30
0.0
 40
15.39747186716916
100
AcDbArc
 50
65.60567589854585
 51
113.7596251666567
  0
ARC
  5
393
330
2
100
AcDbEntity
  8
KIJUN
100
AcDbCircle
 10
641.3902937473647
 20
55.93339152099054
 30
0.0
 40
3.528058563390821
100
AcDbArc
 50
5.892945620920425
 51
54.23337367163096
  0
ARC
  5
394
330
2
100
AcDbEntity
  8
KIJUN
100
AcDbCircle
 10
645.0360786129855
 20
54.74750921340064
 30
0.0
 40
4.347291083713302
100
AcDbArc
 50
15.94508993483161
 51
111.3640696722004
  0
ARC
  5
395
330
2
100
AcDbEntity
  8
KIJUN
100
AcDbCircle
 10
608.6822573366787
 20
59.97124996763454
 30
0.0
 40
4.115608820848867
100
AcDbArc
 50
234.867657607733
 51
295.4017753437425
  0
ARC
  5
396
330
2
100
AcDbEntity
  8
KIJUN
100
AcDbCircle
 10
591.3468344923999
 20
55.18547114347573
 30
0.0
 40
19.13070515483004
100
AcDbArc
 50
3.200462163572639
 51
51.49743816858501
  0
ARC
  5
397
330
2
100
AcDbEntity
  8
KIJUN
100
AcDbCircle
 10
604.2278197159937
 20
65.96112054989304
 30
0.0
 40
5.080404331282784
100
AcDbArc
 50
63.05371745295937
 51
99.02254129266887
  0
ARC
  5
398
330
2
100
AcDbEntity
  8
KIJUN
100
AcDbCircle
 10
603.5016656830444
 20
70.53423159070455
 30
0.0
 40
0.45
100
AcDbArc
 50
99.02254129268857
 51
237.0105898264855
  0
ARC
  5
399
330
2
100
AcDbEntity
  8
KIJUN
100
AcDbCircle
 10
606.205418632622
 20
56.16866378561815
 30
0.0
 40
0.45
100
AcDbArc
 50
76.05552262337752
 51
205.8170835514478
  0
ARC
  5
39A
330
2
100
AcDbEntity
  8
KIJUN
 62
     7
100
AcDbCircle
 10
688.4977907333119
 20
71.58113128285305
 30
0.0
 40
8.145062499999998
100
AcDbArc
 50
82.93926807805458
 51
107.7675385459551
  0
ARC
  5
39B
330
2
100
AcDbEntity
  8
KIJUN
 62
     7
100
AcDbCircle
 10
684.6428180666058
 20
66.56923737997944
 30
0.0
 40
1.629012499999999
100
AcDbArc
 50
277.675677745192
 51
69.84975555663393
  0
ARC
  5
39C
330
2
100
AcDbEntity
  8
KIJUN
100
AcDbCircle
 10
676.6648694414413
 20
55.39122427405974
 30
0.0
 40
5.517361440475863
100
AcDbArc
 50
55.83356367078415
 51
100.3470033773089
  0
ARC
  5
39D
330
2
100
AcDbEntity
  8
KIJUN
 62
     7
100
AcDbCircle
 10
683.8446875342902
 20
72.49127029592952
 30
0.0
 40
7.604586631764069
100
AcDbArc
 50
263.3377743109339
 51
277.6756777451985
  0
ARC
  5
39E
330
2
100
AcDbEntity
  8
KIJUN
 62
     7
100
AcDbCircle
 10
679.7176703262082
 20
59.88894960490993
 30
0.0
 40
0.081450625
100
AcDbArc
 50
265.4659848342289
 51
55.83356367094296
  0
ARC
  5
39F
330
2
100
AcDbEntity
  8
KIJUN
100
AcDbCircle
 10
681.95390027005
 20
58.21473710755693
 30
0.0
 40
6.798519855847214
100
AcDbArc
 50
81.46890567204678
 51
157.4776993778908
  0
ARC
  5
3A0
330
2
100
AcDbEntity
  8
KIJUN
 62
     7
100
AcDbCircle
 10
600.43956233141
 20
-157.3156166477006
 30
0.0
 40
253.1622450108649
100
AcDbArc
 50
66.07171160882917
 51
69.40328603213008
  0
ARC
  5
3A1
330
2
100
AcDbEntity
  8
KIJUN
 62
     7
100
AcDbCircle
 10
655.8897790711349
 20
-31.12028177827661
 30
0.0
 40
116.8812037699484
100
AcDbArc
 50
66.16371159166265
 51
74.42137020145378
  0
ARC
  5
3A2
330
2
100
AcDbEntity
  8
KIJUN
 62
     7
100
AcDbCircle
 10
665.723685192328
 20
70.12862651842304
 30
0.0
 40
7.008411785334669
100
AcDbArc
 50
268.7764757117098
 51
294.1235109953867
  0
ARC
  5
3A3
330
2
100
AcDbEntity
  8
KIJUN
 62
     7
100
AcDbCircle
 10
661.1109454081003
 20
74.26936030854886
 30
0.0
 40
8.058025089613366
100
AcDbArc
 50
202.2190003486465
 51
269.8879925396946
  0
ARC
  5
3A4
330
2
100
AcDbEntity
  8
KIJUN
 62
     7
100
AcDbCircle
 10
661.8560447729866
 20
67.39326498931172
 30
0.0
 40
3.532984335575973
100
AcDbArc
 50
290.5828870449274
 51
354.1452588171799
  0
ARC
  5
3A5
330
2
100
AcDbEntity
  8
KIJUN
 62
     7
100
AcDbCircle
 10
662.2115923775561
 20
71.08856537862846
 30
0.0
 40
5.003356060644698
100
AcDbArc
 50
257.1070514650816
 51
307.2525334750988
  0
ARC
  5
3A6
330
2
100
AcDbEntity
  8
KIJUN
 62
     7
100
AcDbCircle
 10
665.1235168658419
 20
65.95662488030014
 30
0.0
 40
2.870387990484053
100
AcDbArc
 50
224.2778839842074
 51
279.0301294310548
  0
ARC
  5
3A7
330
2
100
AcDbEntity
  8
KIJUN
 62
     7
100
AcDbCircle
 10
663.1267429477163
 20
64.00955899839394
 30
0.0
 40
0.081450625
100
AcDbArc
 50
110.5828870447747
 51
224.2778839843581
  0
ARC
  5
3A8
330
2
100
AcDbEntity
  8
KIJUN
 62
     7
100
AcDbCircle
 10
665.2895742627075
 20
67.04118517100565
 30
0.0
 40
0.081450625
100
AcDbArc
 50
354.1452588171881
 51
127.252533475042
  0
ARC
  5
3A9
330
2
100
AcDbEntity
  8
KIJUN
 62
     7
100
AcDbCircle
 10
663.0536155392552
 20
92.76606076501336
 30
0.0
 40
17.58488122991515
100
AcDbArc
 50
241.9592173583294
 51
256.3647643302251
  0
ARC
  5
3AA
330
2
100
AcDbEntity
  8
KIJUN
 62
     7
100
AcDbCircle
 10
661.4844068510969
 20
65.58377883406516
 30
0.0
 40
9.651439064326423
100
AcDbArc
 50
105.4065363595172
 51
144.2528750135839
  0
ARC
  5
3AB
330
2
100
AcDbEntity
  8
KIJUN
 62
     7
100
AcDbCircle
 10
658.8121533188038
 20
75.28101295616214
 30
0.0
 40
0.4072531249999999
100
AcDbArc
 50
285.4065363594767
 51
76.36476433021842
  0
ARC
  5
3AC
330
2
100
AcDbEntity
  8
KIJUN
 62
     7
100
AcDbCircle
 10
669.5948079264133
 20
25.2390048178666
 30
0.0
 40
57.47672849688387
100
AcDbArc
 50
76.29063185289955
 51
102.6385168057794
  0
ARC
  5
3AD
330
2
100
AcDbEntity
  8
KIJUN
 62
     7
100
AcDbCircle
 10
667.4002722715193
 20
25.52522092493763
 30
0.0
 40
56.75536568208004
100
AcDbArc
 50
73.00327972354354
 51
100.5395160241051
  0
ARC
  5
3AE
330
2
100
AcDbEntity
  8
KIJUN
 62
     7
100
AcDbCircle
 10
680.0285723438888
 20
53.99439813354256
 30
0.0
 40
15.02370718346841
100
AcDbArc
 50
69.84975555664076
 51
139.5963851850245
  0
ARC
  5
3AF
330
2
100
AcDbEntity
  8
KIJUN
 62
     7
100
AcDbCircle
 10
719.8959652696775
 20
-26.40342697556486
 30
0.0
 40
111.0373315065356
100
AcDbArc
 50
107.7675385459549
 51
119.7071715342415
  0
ARC
  5
3B0
330
2
100
AcDbEntity
  8
KIJUN
 62
     7
100
AcDbCircle
 10
717.1270824746695
 20
-8.71708138170738
 30
0.0
 40
94.51755245712254
100
AcDbArc
 50
110.5229826385164
 51
123.565351636136
  0
ARC
  5
3B1
330
2
100
AcDbEntity
  8
KIJUN
100
AcDbCircle
 10
656.9200585400754
 20
67.89524814385853
 30
0.0
 40
19.66469238214276
100
AcDbArc
 50
64.98304829417368
 51
111.9988555473739
  0
ARC
  5
3B2
330
2
100
AcDbEntity
  8
KIJUN
100
AcDbCircle
 10
571.0087463967608
 20
15.73401361164673
 30
0.0
 40
89.32984055446775
100
AcDbArc
 50
50.26947640517217
 51
55.16058191419341
  0
ARC
  5
3B3
330
2
100
AcDbEntity
  8
KIJUN
100
AcDbCircle
 10
637.4663503626668
 20
86.94914293929834
 30
0.0
 40
3.658585099408949
100
AcDbArc
 50
214.0260185896031
 51
195.5987692333245
  0
ARC
  5
3B4
330
2
100
AcDbEntity
  8
KIJUN
100
AcDbCircle
 10
630.568800438538
 20
89.61276786143173
 30
0.0
 40
3.658585099408949
100
AcDbArc
 50
248.7475004574804
 51
235.0462064658854
  0
CIRCLE
  5
3B5
330
2
100
AcDbEntity
  8
KIJUN
100
AcDbCircle
 10
642.209152345256
 20
96.36519294740359
 30
0.0
 40
3.851142209904157
  0
CIRCLE
  5
3B6
330
2
100
AcDbEntity
  8
KIJUN
100
AcDbCircle
 10
635.1149128885325
 20
100.1562239537915
 30
0.0
 40
3.658585099408949
  0
CIRCLE
  5
3B7
330
2
100
AcDbEntity
  8
KIJUN
100
AcDbCircle
 10
620.3792380506207
 20
96.03680789282465
 30
0.0
 40
3.658585099408949
  0
CIRCLE
  5
3B8
330
2
100
AcDbEntity
  8
KIJUN
100
AcDbCircle
 10
623.8280130126855
 20
102.4608413990835
 30
0.0
 40
3.658585099408949
  0
CIRCLE
  5
3B9
330
2
100
AcDbEntity
  8
KIJUN
100
AcDbCircle
 10
628.2275074485704
 20
96.67368341051822
 30
0.0
 40
3.658585099408949
  0
ARC
  5
3BA
330
2
100
AcDbEntity
  8
KIJUN
 62
     7
100
AcDbCircle
 10
704.3138363732619
 20
98.87141608995323
 30
0.0
 40
18.64297111871962
100
AcDbArc
 50
198.9951829696141
 51
223.1183330112877
  0
ARC
  5
3BB
330
2
100
AcDbEntity
  8
KIJUN
 62
     7
100
AcDbCircle
 10
674.879833590992
 20
89.25194421534284
 30
0.0
 40
12.32879459163978
100
AcDbArc
 50
16.74167001139868
 51
53.32540301985868
  0
ARC
  5
3BC
330
2
100
AcDbEntity
  8
KIJUN
100
AcDbCircle
 10
672.4896092204978
 20
84.72773767338884
 30
0.0
 40
15.0534014462812
100
AcDbArc
 50
54.66279879514575
 51
76.5169698414633
  0
ARC
  5
3BD
330
2
100
AcDbEntity
  8
KIJUN
100
AcDbCircle
 10
677.4862639701876
 20
100.1528995694615
 30
0.0
 40
4.863793437411157
100
AcDbArc
 50
319.7105987480455
 51
347.9816592188855
  0
ARC
  5
3BE
330
2
100
AcDbEntity
  8
KIJUN
 62
     7
100
AcDbCircle
 10
674.4748728763404
 20
91.88085793521791
 30
0.0
 40
0.4072531249999999
100
AcDbArc
 50
273.7893441803394
 51
20.70477067218571
  0
ARC
  5
3BF
330
2
100
AcDbEntity
  8
KIJUN
 62
     7
100
AcDbCircle
 10
686.9240282032238
 20
88.48194885239367
 30
0.0
 40
6.783556496661212
100
AcDbArc
 50
347.396918529757
 51
42.59595191165612
  0
ARC
  5
3C0
330
2
100
AcDbEntity
  8
KIJUN
 62
     7
100
AcDbCircle
 10
691.9548265057125
 20
87.11807559665293
 30
0.0
 40
1.593555919252944
100
AcDbArc
 50
218.3740346125218
 51
355.8158398718803
  0
ARC
  5
3C1
330
2
100
AcDbEntity
  8
KIJUN
100
AcDbCircle
 10
696.0048055733454
 20
96.38860993088357
 30
0.0
 40
5.262713605960124
100
AcDbArc
 50
147.8878170798845
 51
219.0484112467807
  0
ARC
  5
3C2
330
2
100
AcDbEntity
  8
KIJUN
100
AcDbCircle
 10
696.6186123911935
 20
96.53716596275295
 30
0.0
 40
0.4887037499999999
100
AcDbArc
 50
238.1058145318843
 51
30.91976463224787
  0
ARC
  5
3C3
330
2
100
AcDbEntity
  8
KIJUN
100
AcDbCircle
 10
702.4239474764178
 20
99.02001241520823
 30
0.0
 40
5.83013806446333
100
AcDbArc
 50
99.63951953604759
 51
202.5067551402226
  0
ARC
  5
3C4
330
2
100
AcDbEntity
  8
KIJUN
100
AcDbCircle
 10
691.2076668682664
 20
93.34020638552814
 30
0.0
 40
5.855804050313214
100
AcDbArc
 50
28.3652520875024
 51
86.675598631238
  0
ARC
  5
3C5
330
2
100
AcDbEntity
  8
KIJUN
 62
     7
100
AcDbCircle
 10
673.5525377463651
 20
91.93689932165684
 30
0.0
 40
0.4072531249999999
100
AcDbArc
 50
221.7605772306788
 51
273.7893441802349
  0
ARC
  5
3C6
330
2
100
AcDbEntity
  8
KIJUN
 62
     7
100
AcDbCircle
 10
677.7046049300113
 20
95.64413830880111
 30
0.0
 40
5.973516037043527
100
AcDbArc
 50
198.4155457736078
 51
221.7605772306879
  0
LINE
  5
3C7
330
2
100
AcDbEntity
  8
KIJUN
 62
     7
100
AcDbLine
 10
673.5794524248746
 20
91.53053654296863
 30
0.0
 11
674.5017875548508
 21
91.47449515653022
 31
0.0
  0
ARC
  5
3C8
330
2
100
AcDbEntity
  8
KIJUN
 62
     7
100
AcDbCircle
 10
681.9000687651774
 20
94.68731220538677
 30
0.0
 40
7.530613059133142
100
AcDbArc
 50
141.5872146539773
 51
200.7047706721803
  0
ARC
  5
3C9
330
2
100
AcDbEntity
  8
KIJUN
 62
     7
100
AcDbCircle
 10
668.3936215227219
 20
93.48290270436644
 30
0.0
 40
7.530613059133142
100
AcDbArc
 50
169.7724603213076
 51
250.5096239142452
  0
ARC
  5
3CA
330
2
100
AcDbEntity
  8
KIJUN
100
AcDbCircle
 10
665.4493668506198
 20
86.15471287640785
 30
0.0
 40
0.4887037499999999
100
AcDbArc
 50
244.1116066751491
 51
27.95577332193965
  0
ARC
  5
3CB
330
2
100
AcDbEntity
  8
KIJUN
100
AcDbCircle
 10
664.8031503035286
 20
80.25949958245323
 30
0.0
 40
15.0534014462812
100
AcDbArc
 50
82.84804446247745
 51
104.7022155087929
  0
ARC
  5
3CC
330
2
100
AcDbEntity
  8
KIJUN
100
AcDbCircle
 10
662.304356724299
 20
94.59608709247637
 30
0.0
 40
4.41388915238069
100
AcDbArc
 50
7.808603931625228
 51
37.49325638821105
  0
ARC
  5
3CD
330
2
100
AcDbEntity
  8
KIJUN
100
AcDbCircle
 10
666.4699471794116
 20
91.18704829962664
 30
0.0
 40
6.131636283450736
100
AcDbArc
 50
24.78034062192118
 51
96.21210406951043
  0
ARC
  5
3CE
330
2
100
AcDbEntity
  8
KIJUN
100
AcDbCircle
 10
751.004938226171
 20
64.17040632242503
 30
0.0
 40
25.28990786363198
100
AcDbArc
 50
110.1493483496927
 51
138.5219314138079
  0
ARC
  5
3CF
330
2
100
AcDbEntity
  8
KIJUN
100
AcDbCircle
 10
749.5163920763603
 20
65.16431946238245
 30
0.0
 40
25.14236171758992
100
AcDbArc
 50
131.0627569860394
 51
139.635551590977
  0
ARC
  5
3D0
330
2
100
AcDbEntity
  8
KIJUN
100
AcDbCircle
 10
714.8830222775074
 20
85.33738265140172
 30
0.0
 40
6.798519855847214
100
AcDbArc
 50
311.2538970691749
 51
27.26269077502002
  0
ARC
  5
3D1
330
2
100
AcDbEntity
  8
KIJUN
100
AcDbCircle
 10
734.6770373405422
 20
53.22954775619514
 30
0.0
 40
9.273947881195052
100
AcDbArc
 50
34.78882885034025
 51
64.53097307697236
  0
ARC
  5
3D2
330
2
100
AcDbEntity
  8
KIJUN
 62
     7
100
AcDbCircle
 10
740.2919393073223
 20
58.26968369559224
 30
0.0
 40
4.049484550496365
100
AcDbArc
 50
60.38022938156185
 51
104.4463709996105
  0
ARC
  5
3D3
330
2
100
AcDbEntity
  8
KIJUN
100
AcDbCircle
 10
661.8798014443653
 20
142.623575246566
 30
0.0
 40
111.6263054479913
100
AcDbArc
 50
310.072847065857
 51
316.0860143821694
  0
ARC
  5
3D4
330
2
100
AcDbEntity
  8
KIJUN
 62
     7
100
AcDbCircle
 10
749.7947261059631
 20
132.8985734142126
 30
0.0
 40
73.17524310961862
100
AcDbArc
 50
232.2774669544485
 51
257.1222610588974
  0
ARC
  5
3D5
330
2
100
AcDbEntity
  8
KIJUN
100
AcDbCircle
 10
738.8065693115146
 20
78.32852931345644
 30
0.0
 40
9.273947881195052
100
AcDbArc
 50
174.7265470766583
 51
237.9136055634361
  0
ARC
  5
3D6
330
2
100
AcDbEntity
  8
KIJUN
100
AcDbCircle
 10
734.5507113860291
 20
78.72134454896664
 30
0.0
 40
5.0
100
AcDbArc
 50
146.956797742233
 51
174.7265470766583
  0
ARC
  5
3D7
330
2
100
AcDbEntity
  8
KIJUN
 62
     7
100
AcDbCircle
 10
747.4444374913288
 20
85.88869765739653
 30
0.0
 40
20.53499390700882
100
AcDbArc
 50
228.6590037285646
 51
249.1461410538497
  0
ARC
  5
3D8
330
2
100
AcDbEntity
  8
KIJUN
100
AcDbCircle
 10
740.2542739565775
 20
79.57361485405553
 30
0.0
 40
9.273947881195052
100
AcDbArc
 50
199.3893609137794
 51
239.4122345196719
  0
ARC
  5
3D9
330
2
100
AcDbEntity
  8
KIJUN
100
AcDbCircle
 10
736.2227259369534
 20
78.15472407015533
 30
0.0
 40
5.0
100
AcDbArc
 50
146.4127512912558
 51
199.3893609137794
  0
ARC
  5
3DA
330
2
100
AcDbEntity
  8
KIJUN
100
AcDbCircle
 10
669.9170911925564
 20
150.7356749412591
 30
0.0
 40
109.5108626806539
100
AcDbArc
 50
310.8572816896301
 51
311.3689271715377
  0
ARC
  5
3DB
330
2
100
AcDbEntity
  8
KIJUN
 62
     7
100
AcDbCircle
 10
749.0993202564466
 20
87.00763320961961
 30
0.0
 40
20.53499390700882
100
AcDbArc
 50
228.6590037285646
 51
248.4501164464096
  0
ARC
  5
3DC
330
2
100
AcDbEntity
  8
KIJUN
100
AcDbCircle
 10
669.9170911925564
 20
150.7356749412591
 30
0.0
 40
109.5108626806539
100
AcDbArc
 50
305.48437602981
 51
309.8805542057079
  0
ARC
  5
3DD
330
2
100
AcDbEntity
  8
KIJUN
 62
     7
100
AcDbCircle
 10
705.0608528492319
 20
56.96991060416853
 30
0.0
 40
7.900494166976137
100
AcDbArc
 50
351.7834201462755
 51
68.67206941001589
  0
ARC
  5
3DE
330
2
100
AcDbEntity
  8
KIJUN
 62
     7
100
AcDbCircle
 10
716.6439328962767
 20
72.54093061960451
 30
0.0
 40
5.204783969172329
100
AcDbArc
 50
123.6894728792433
 51
207.3648715266725
  0
ARC
  5
3DF
330
2
100
AcDbEntity
  8
KIJUN
 62
     7
100
AcDbCircle
 10
710.179608105326
 20
89.21937488903472
 30
0.0
 40
12.85551931494201
100
AcDbArc
 50
286.1568393513372
 51
315.6090468909084
  0
ARC
  5
3E0
330
2
100
AcDbEntity
  8
KIJUN
 62
     7
100
AcDbCircle
 10
732.3025907844147
 20
102.8365095736211
 30
0.0
 40
40.04773651642755
100
AcDbArc
 50
226.9171156093801
 51
251.1634165566325
  0
ARC
  5
3E1
330
2
100
AcDbEntity
  8
KIJUN
 62
     7
100
AcDbCircle
 10
711.9649354157214
 20
-6.577534892301351
 30
0.0
 40
76.40219480600203
100
AcDbArc
 50
91.71377905859424
 51
95.52261725431176
  0
ARC
  5
3E2
330
2
100
AcDbEntity
  8
KIJUN
 62
     7
100
AcDbCircle
 10
737.8770715619374
 20
91.51120757082235
 30
0.0
 40
32.38507568437837
100
AcDbArc
 50
235.1523836180059
 51
259.7286281510102
  0
ARC
  5
3E3
330
2
100
AcDbEntity
  8
KIJUN
100
AcDbCircle
 10
749.5163920763603
 20
65.16431946238245
 30
0.0
 40
25.14236171758992
100
AcDbArc
 50
106.6954934386555
 51
125.0585131140372
  0
ARC
  5
3E4
330
2
100
AcDbEntity
  8
KIJUN
100
AcDbCircle
 10
743.0013690719713
 20
103.6506837106957
 30
0.0
 40
11.61341693107974
100
AcDbArc
 50
230.5427357178006
 51
266.5048300134241
  0
ARC
  5
3E5
330
2
100
AcDbEntity
  8
KIJUN
100
AcDbCircle
 10
760.9575505717044
 20
144.30714588394
 30
0.0
 40
48.65146623908756
100
AcDbArc
 50
241.6821145089372
 51
247.4412535117583
  0
ARC
  5
3E6
330
2
100
AcDbEntity
  8
KIJUN
100
AcDbCircle
 10
759.4679559626997
 20
145.5840634474626
 30
0.0
 40
49.10639967026103
100
AcDbArc
 50
243.9194431401865
 51
249.5284378288411
  0
ARC
  5
3E7
330
2
100
AcDbEntity
  8
KIJUN
100
AcDbCircle
 10
739.5253021285294
 20
95.64081692399062
 30
0.0
 40
12.3893992381167
100
AcDbArc
 50
77.08990783183908
 51
79.83820494872043
  0
ARC
  5
3E8
330
2
100
AcDbEntity
  8
KIJUN
100
AcDbCircle
 10
739.1018966127518
 20
94.43851126998964
 30
0.0
 40
3.489527357898803
100
AcDbArc
 50
107.8642282606833
 51
175.9662579278386
  0
ARC
  5
3E9
330
2
100
AcDbEntity
  8
KIJUN
100
AcDbCircle
 10
743.2077483413374
 20
106.3788520043641
 30
0.0
 40
2.088713250587398
100
AcDbArc
 50
135.7678701402927
 51
214.4087670129366
  0
ARC
  5
3EA
330
2
100
AcDbEntity
  8
KIJUN
100
AcDbCircle
 10
736.5715919200554
 20
98.03657771906285
 30
0.0
 40
7.848403968835039
100
AcDbArc
 50
58.03857035739779
 51
121.0846445546186
  0
ARC
  5
3EB
330
2
100
AcDbEntity
  8
KIJUN
100
AcDbCircle
 10
740.9908049964628
 20
105.1194023400854
 30
0.0
 40
0.5
100
AcDbArc
 50
238.0385703574282
 51
9.106135889543958
  0
ARC
  5
3EC
330
2
100
AcDbEntity
  8
KIJUN
100
AcDbCircle
 10
739.4916243665398
 20
104.579702071872
 30
0.0
 40
6.97447271370665
100
AcDbArc
 50
178.5351603248436
 51
262.9218438524237
  0
ARC
  5
3ED
330
2
100
AcDbEntity
  8
KIJUN
 62
     7
100
AcDbCircle
 10
731.0838484338798
 20
86.69215084581987
 30
0.0
 40
0.5
100
AcDbArc
 50
49.63336331487996
 51
130.9607840438067
  0
ARC
  5
3EE
330
2
100
AcDbEntity
  8
KIJUN
100
AcDbCircle
 10
735.0213150189433
 20
91.32412041120792
 30
0.0
 40
5.579373747614106
100
AcDbArc
 50
229.6333633148965
 51
270.5441260274382
  0
ARC
  5
3EF
330
2
100
AcDbEntity
  8
KIJUN
 62
     7
100
AcDbCircle
 10
730.654094453135
 20
85.9057763616907
 30
0.0
 40
0.5
100
AcDbArc
 50
171.7259705763471
 51
234.9000541849409
  0
ARC
  5
3F0
330
2
100
AcDbEntity
  8
KIJUN
100
AcDbCircle
 10
736.8849977283624
 20
94.77147277705004
 30
0.0
 40
11.33626912523647
100
AcDbArc
 50
234.9000541849509
 51
249.9622347056194
  0
ARC
  5
3F1
330
2
100
AcDbEntity
  8
KIJUN
 62
     7
100
AcDbCircle
 10
731.9272040056679
 20
85.72063907095154
 30
0.0
 40
1.786500582656346
100
AcDbArc
 50
130.9607840437983
 51
171.7259705763491
  0
ARC
  5
3F2
330
2
100
AcDbEntity
  8
KIJUN
 62
     7
100
AcDbCircle
 10
729.1972362994772
 20
87.35027785306215
 30
0.0
 40
1.937286554369229
100
AcDbArc
 50
301.2197696944229
 51
355.2604473173847
  0
ARC
  5
3F3
330
2
100
AcDbEntity
  8
KIJUN
 62
     7
100
AcDbCircle
 10
718.2890684019907
 20
87.01521652836914
 30
0.0
 40
0.8145062499999998
100
AcDbArc
 50
163.2819300781847
 51
297.1669584094876
  0
ARC
  5
3F4
330
2
100
AcDbEntity
  8
KIJUN
 62
     7
100
AcDbCircle
 10
708.7696185553775
 20
94.81301827011677
 30
0.0
 40
0.8145062499999998
100
AcDbArc
 50
181.4033407114395
 51
344.8943261707253
  0
ARC
  5
3F5
330
2
100
AcDbEntity
  8
KIJUN
 62
     7
100
AcDbCircle
 10
710.2428219102599
 20
101.5013042548608
 30
0.0
 40
0.8145062499999998
100
AcDbArc
 50
66.37938142666415
 51
196.7089214924838
  0
ARC
  5
3F6
330
2
100
AcDbEntity
  8
KIJUN
 62
     7
100
AcDbCircle
 10
697.8137641404689
 20
97.77029860567466
 30
0.0
 40
12.16246875186587
100
AcDbArc
 50
344.8943261707324
 51
16.7089214924803
  0
ARC
  5
3F7
330
2
100
AcDbEntity
  8
KIJUN
 62
     7
100
AcDbCircle
 10
705.5774882806032
 20
90.83324355884892
 30
0.0
 40
12.45808202764637
100
AcDbArc
 50
343.2819300781822
 51
66.3793814266496
  0
ARC
  5
3F8
330
2
100
AcDbEntity
  8
KIJUN
100
AcDbCircle
 10
716.1418155545249
 20
91.19925191918936
 30
0.0
 40
5.517361440475863
100
AcDbArc
 50
297.1669584095085
 51
330.1319947744354
  0
ELLIPSE
  5
3F9
330
2
100
AcDbEntity
  8
KIJUN
 62
     7
100
AcDbEllipse
 10
888.5892240993632
 20
41.81502726613785
 30
0.0
 11
-1.42388552657101
 21
-0.0937221807894479
 31
0.0
210
0.0
220
0.0
230
0.9999999999999998
 40
0.7669938240498519
 41
0.0
 42
6.283185307179584
  0
ARC
  5
3FA
330
2
100
AcDbEntity
  8
KIJUN
100
AcDbCircle
 10
798.1125146076126
 20
91.5033176719357
 30
0.0
 40
10.42988700327627
100
AcDbArc
 50
20.33783890924336
 51
95.35731282024668
  0
ARC
  5
3FB
330
2
100
AcDbEntity
  8
KIJUN
 62
     7
100
AcDbCircle
 10
826.0817675030864
 20
6.244253380841136
 30
0.0
 40
75.96389578582503
100
AcDbArc
 50
102.4803115743395
 51
109.1836097133624
  0
ARC
  5
3FC
330
2
100
AcDbEntity
  8
KIJUN
 62
     7
100
AcDbCircle
 10
826.5307754257054
 20
7.815111649833794
 30
0.0
 40
75.96389578582503
100
AcDbArc
 50
103.8868501839658
 51
113.716731208396
  0
ARC
  5
3FD
330
2
100
AcDbEntity
  8
KIJUN
 62
     7
100
AcDbCircle
 10
810.74890852537
 20
61.62247922289584
 30
0.0
 40
5.710831952649967
100
AcDbArc
 50
121.0618598522863
 51
180.8705879286104
  0
ARC
  5
3FE
330
2
100
AcDbEntity
  8
KIJUN
 62
     7
100
AcDbCircle
 10
818.444789437887
 20
95.12467640867644
 30
0.0
 40
15.87571883170735
100
AcDbArc
 50
182.1627423696948
 51
236.4957856143536
  0
ARC
  5
3FF
330
2
100
AcDbEntity
  8
KIJUN
 62
     7
100
AcDbCircle
 10
819.0359442973647
 20
94.03836291500272
 30
0.0
 40
16.46277545229749
100
AcDbArc
 50
178.3041548555722
 51
229.8157196736024
  0
ARC
  5
400
330
2
100
AcDbEntity
  8
KIJUN
100
AcDbCircle
 10
794.6767981995805
 20
59.38457855087587
 30
0.0
 40
10.58286877647421
100
AcDbArc
 50
299.2395135875373
 51
11.72797050682123
  0
ARC
  5
401
330
2
100
AcDbEntity
  8
KIJUN
100
AcDbCircle
 10
795.6394013123688
 20
27.84740789447317
 30
0.0
 40
76.80688221104614
100
AcDbArc
 50
52.81076328669216
 51
103.8067229126576
  0
ARC
  5
402
330
2
100
AcDbEntity
  8
KIJUN
100
AcDbCircle
 10
795.2462490335025
 20
25.75233424832737
 30
0.0
 40
76.96937156061776
100
AcDbArc
 50
47.14096412649382
 51
103.4758618919219
  0
CIRCLE
  5
403
330
2
100
AcDbEntity
  8
KIJUN
100
AcDbCircle
 10
746.0589926545385
 20
53.98290284626735
 30
0.0
 40
3.475655844438501
  0
CIRCLE
  5
404
330
2
100
AcDbEntity
  8
KIJUN
100
AcDbCircle
 10
752.8456344576085
 20
55.91756599916735
 30
0.0
 40
3.475655844438501
  0
ARC
  5
405
330
2
100
AcDbEntity
  8
KIJUN
 62
     7
100
AcDbCircle
 10
789.2124842033332
 20
51.42198404417885
 30
0.0
 40
11.96914771112834
100
AcDbArc
 50
141.5495380694626
 51
189.1158504173468
  0
ARC
  5
406
330
2
100
AcDbEntity
  8
KIJUN
 62
     7
100
AcDbCircle
 10
799.1331230854418
 20
49.75927986978518
 30
0.0
 40
8.631973733383722
100
AcDbArc
 50
120.8655189116489
 51
190.9438737357556
  0
ARC
  5
407
330
2
100
AcDbEntity
  8
KIJUN
100
AcDbCircle
 10
781.2947653638498
 20
61.38156847628672
 30
0.0
 40
10.58286877647421
100
AcDbArc
 50
299.2395135875373
 51
343.1481114592268
  0
ARC
  5
408
330
2
100
AcDbEntity
  8
KIJUN
100
AcDbCircle
 10
731.9730917116508
 20
55.16603758423454
 30
0.0
 40
9.273947881195052
100
AcDbArc
 50
345.6499866136017
 51
43.88440539826441
  0
ARC
  5
409
330
2
100
AcDbEntity
  8
KIJUN
 62
     7
100
AcDbCircle
 10
590.0962169359606
 20
28.21778115839542
 30
0.0
 40
151.8522503364613
100
AcDbArc
 50
9.256082478265231
 51
12.57008655861374
  0
ARC
  5
40A
330
2
100
AcDbEntity
  8
KIJUN
100
AcDbCircle
 10
731.9730917116491
 20
55.16603758423454
 30
0.0
 40
9.273947881195052
100
AcDbArc
 50
345.6499866136017
 51
43.88440539826441
  0
ARC
  5
40B
330
2
100
AcDbEntity
  8
KIJUN
 62
     7
100
AcDbCircle
 10
590.0962169359588
 20
28.21778115839542
 30
0.0
 40
151.8522503364613
100
AcDbArc
 50
9.256082478265231
 51
12.57008655861374
  0
CIRCLE
  5
40C
330
2
100
AcDbEntity
  8
KIJUN
100
AcDbCircle
 10
753.2013060341657
 20
46.18440743384717
 30
0.0
 40
3.475655844438501
  0
CIRCLE
  5
40D
330
2
100
AcDbEntity
  8
KIJUN
100
AcDbCircle
 10
746.0577733579652
 20
44.32963723789298
 30
0.0
 40
3.475655844438501
  0
ARC
  5
40E
330
2
100
AcDbEntity
  8
KIJUN
100
AcDbCircle
 10
740.930650351355
 20
49.39198743745834
 30
0.0
 40
3.475655844438501
100
AcDbArc
 50
293.0836019714918
 51
66.91639802850817
  0
ARC
  5
40F
330
2
100
AcDbEntity
  8
KIJUN
100
AcDbCircle
 10
740.9306503513532
 20
49.39198743745834
 30
0.0
 40
3.475655844438501
100
AcDbArc
 50
66.91639802850817
 51
293.0836019714918
  0
ARC
  5
410
330
2
100
AcDbEntity
  8
KIJUN
100
AcDbCircle
 10
796.272677548023
 20
53.76135377689357
 30
0.0
 40
5.080404331282784
100
AcDbArc
 50
314.6986610668429
 51
340.2891163846275
  0
ARC
  5
411
330
2
100
AcDbEntity
  8
KIJUN
100
AcDbCircle
 10
791.1061747879073
 20
59.92914905768355
 30
0.0
 40
11.81712291110017
100
AcDbArc
 50
267.8271343325401
 51
320.9425200808847
  0
ARC
  5
412
330
2
100
AcDbEntity
  8
KIJUN
100
AcDbCircle
 10
800.6317702596131
 20
52.19963837294635
 30
0.0
 40
0.45
100
AcDbArc
 50
340.2891163846345
 51
140.9425200808611
  0
ARC
  5
413
330
2
100
AcDbEntity
  8
KIJUN
100
AcDbCircle
 10
777.1921916616462
 20
61.69617648553944
 30
0.0
 40
12.17216059834232
100
AcDbArc
 50
270.9523640451299
 51
322.067928316544
  0
ARC
  5
414
330
2
100
AcDbEntity
  8
KIJUN
100
AcDbCircle
 10
782.8906447122906
 20
55.75834370230444
 30
0.0
 40
5.080404331282784
100
AcDbArc
 50
314.6986610668429
 51
336.8371879516021
  0
ARC
  5
415
330
2
100
AcDbEntity
  8
KIJUN
100
AcDbCircle
 10
787.1477960144919
 20
53.93699610743606
 30
0.0
 40
0.45
100
AcDbArc
 50
336.8371879515964
 51
142.0679283165156
  0
ARC
  5
416
330
2
100
AcDbEntity
  8
KIJUN
 62
     7
100
AcDbCircle
 10
795.0947203926221
 20
88.17403901684055
 30
0.0
 40
4.553506558819737
100
AcDbArc
 50
220.5224032487025
 51
273.5117808634781
  0
ARC
  5
417
330
2
100
AcDbEntity
  8
KIJUN
 62
     7
100
AcDbCircle
 10
795.4287682268129
 20
82.73077291719385
 30
0.0
 40
0.9
100
AcDbArc
 50
296.7642411266193
 51
93.51178086347154
  0
ARC
  5
418
330
2
100
AcDbEntity
  8
KIJUN
100
AcDbCircle
 10
780.191757539236
 20
76.96035653574894
 30
0.0
 40
6.260099160547156
100
AcDbArc
 50
49.13395873843278
 51
125.1427524442727
  0
ARC
  5
419
330
2
100
AcDbEntity
  8
KIJUN
 62
     7
100
AcDbCircle
 10
689.989980460809
 20
134.1143909360713
 30
0.0
 40
83.49642882088829
100
AcDbArc
 50
316.4400283057389
 51
328.7745515721816
  0
ARC
  5
41A
330
2
100
AcDbEntity
  8
KIJUN
 62
     7
100
AcDbCircle
 10
688.8356623077312
 20
134.7625375672111
 30
0.0
 40
86.14399847020182
100
AcDbArc
 50
315.2379764208028
 51
327.3767630657829
  0
ARC
  5
41B
330
2
100
AcDbEntity
  8
KIJUN
100
AcDbCircle
 10
669.9170911925554
 20
150.7356749412591
 30
0.0
 40
109.5108626806539
100
AcDbArc
 50
311.3689271715433
 51
317.3754559046888
  0
ARC
  5
41C
330
2
100
AcDbEntity
  8
KIJUN
100
AcDbCircle
 10
661.8798014443634
 20
142.623575246566
 30
0.0
 40
111.6263054479913
100
AcDbArc
 50
316.0860143821695
 51
322.1324318026639
  0
ARC
  5
41D
330
2
100
AcDbEntity
  8
KIJUN
 62
     7
100
AcDbCircle
 10
740.2919393073212
 20
58.26968369559224
 30
0.0
 40
4.049484550496365
100
AcDbArc
 50
341.1713359387771
 51
60.38022938156185
  0
ARC
  5
41E
330
2
100
AcDbEntity
  8
KIJUN
100
AcDbCircle
 10
734.6770373405413
 20
53.22954775619514
 30
0.0
 40
9.273947881195052
100
AcDbArc
 50
19.21175933651767
 51
34.78882885033919
  0
ARC
  5
41F
330
2
100
AcDbEntity
  8
KIJUN
100
AcDbCircle
 10
734.6770373405413
 20
53.22954775619514
 30
0.0
 40
9.273947881195052
100
AcDbArc
 50
34.78882885034025
 51
64.53097307697236
  0
ARC
  5
420
330
2
100
AcDbEntity
  8
KIJUN
 62
     7
100
AcDbCircle
 10
740.2919393073212
 20
58.26968369559224
 30
0.0
 40
4.049484550496365
100
AcDbArc
 50
60.38022938156185
 51
104.4463709996105
  0
ARC
  5
421
330
2
100
AcDbEntity
  8
KIJUN
100
AcDbCircle
 10
669.9170911925554
 20
150.7356749412591
 30
0.0
 40
109.5108626806539
100
AcDbArc
 50
310.8572816896301
 51
311.3689271715377
  0
ARC
  5
422
330
2
100
AcDbEntity
  8
KIJUN
100
AcDbCircle
 10
734.6770373405393
 20
53.22954775619514
 30
0.0
 40
9.273947881195052
100
AcDbArc
 50
34.78882885034025
 51
64.53097307697236
  0
ARC
  5
423
330
2
100
AcDbEntity
  8
KIJUN
 62
     7
100
AcDbCircle
 10
740.2919393073193
 20
58.26968369559224
 30
0.0
 40
4.049484550496365
100
AcDbArc
 50
60.38022938156185
 51
104.4463709996105
  0
ARC
  5
424
330
2
100
AcDbEntity
  8
KIJUN
100
AcDbCircle
 10
669.9170911925535
 20
150.7356749412591
 30
0.0
 40
109.5108626806539
100
AcDbArc
 50
310.8572816896301
 51
311.3689271715377
  0
ARC
  5
425
330
2
100
AcDbEntity
  8
KIJUN
 62
     7
100
AcDbCircle
 10
781.4106784393178
 20
100.970120199266
 30
0.0
 40
27.7282115788144
100
AcDbArc
 50
258.364423435275
 51
301.5154431856784
  0
ARC
  5
426
330
2
100
AcDbEntity
  8
KIJUN
 62
     7
100
AcDbCircle
 10
789.818150862741
 20
93.85515355539414
 30
0.0
 40
13.35916818208956
100
AcDbArc
 50
245.5447711776978
 51
296.764241126619
  0
ARC
  5
427
330
2
100
AcDbEntity
  8
KIJUN
100
AcDbCircle
 10
774.6861852648025
 20
77.36849832353643
 30
0.0
 40
5.080404331282784
100
AcDbArc
 50
29.31997642165696
 51
68.01205644369233
  0
ARC
  5
428
330
2
100
AcDbEntity
  8
KIJUN
 62
     7
100
AcDbCircle
 10
826.0817675030864
 20
6.244253380841136
 30
0.0
 40
75.96389578582503
100
AcDbArc
 50
110.4712984600517
 51
111.3533302691814
  0
ARC
  5
429
330
2
100
AcDbEntity
  8
KIJUN
 62
     7
100
AcDbCircle
 10
783.245571344544
 20
98.95564649683963
 30
0.0
 40
26.21796659464468
100
AcDbArc
 50
253.543337472891
 51
292.8844183040591
  0
ARC
  5
42A
330
2
100
AcDbEntity
  8
KIJUN
 62
     7
100
AcDbCircle
 10
750.9220177511886
 20
137.342825692349
 30
0.0
 40
76.80032696145445
100
AcDbArc
 50
304.2635600969135
 51
308.2056389020956
  0
ARC
  5
42B
330
2
100
AcDbEntity
  8
KIJUN
 62
     7
100
AcDbCircle
 10
864.6637709184673
 20
50.07108359868394
 30
0.0
 40
69.4062926289598
100
AcDbArc
 50
156.2809611234591
 51
171.9048731391166
  0
ARC
  5
42C
330
2
100
AcDbEntity
  8
KIJUN
 62
     7
100
AcDbCircle
 10
861.5065538649218
 20
55.68400787524645
 30
0.0
 40
65.68938356066452
100
AcDbArc
 50
160.6856333979761
 51
176.3685434434267
  0
ARC
  5
42D
330
2
100
AcDbEntity
  8
KIJUN
 62
     7
100
AcDbCircle
 10
777.5542566012244
 20
78.81918069391824
 30
0.0
 40
14.69908862599225
100
AcDbArc
 50
256.3749183747155
 51
314.0388617465764
  0
ARC
  5
42E
330
2
100
AcDbEntity
  8
KIJUN
 62
     7
100
AcDbCircle
 10
776.0688345828736
 20
79.43669639145934
 30
0.0
 40
15.03353023038745
100
AcDbArc
 50
262.4425764693465
 51
317.1616643907751
  0
ARC
  5
42F
330
2
100
AcDbEntity
  8
KIJUN
 62
     7
100
AcDbCircle
 10
850.3354211941584
 20
3.554306817656716
 30
0.0
 40
90.0
100
AcDbArc
 50
128.6208681563632
 51
134.0388617465763
  0
ARC
  5
430
330
2
100
AcDbEntity
  8
KIJUN
 62
     7
100
AcDbCircle
 10
849.6556981909424
 20
4.516754448140375
 30
0.0
 40
90.0
100
AcDbArc
 50
128.6208681563632
 51
134.0388617465763
  0
ARC
  5
431
330
2
100
AcDbEntity
  8
KIJUN
 62
     7
100
AcDbCircle
 10
779.1340614668868
 20
59.42450601892584
 30
0.0
 40
0.9
100
AcDbArc
 50
321.5495380694628
 51
114.7740818596076
  0
ARC
  5
432
330
2
100
AcDbEntity
  8
KIJUN
 62
     7
100
AcDbCircle
 10
794.5188665364574
 20
57.57857339206184
 30
0.0
 40
0.45
100
AcDbArc
 50
294.3920632732075
 51
54.06417139811761
  0
ARC
  5
433
330
2
100
AcDbEntity
  8
KIJUN
 62
     7
100
AcDbCircle
 10
792.6300786403859
 20
55.39586977325902
 30
0.0
 40
3.335027362833223
100
AcDbArc
 50
49.79405489839169
 51
103.9727504567915
  0
ARC
  5
434
330
2
100
AcDbEntity
  8
KIJUN
 62
     7
100
AcDbCircle
 10
791.8538535214407
 20
58.18315469456404
 30
0.0
 40
0.45
100
AcDbArc
 50
93.70158050223723
 51
163.1481114592233
  0
ARC
  5
435
330
2
100
AcDbEntity
  8
KIJUN
100
AcDbCircle
 10
773.5464578112822
 20
70.45862408836594
 30
0.0
 40
0.45
100
AcDbArc
 50
274.6304067306279
 51
58.47457337741831
  0
ARC
  5
436
330
2
100
AcDbEntity
  8
KIJUN
100
AcDbCircle
 10
772.3154271833733
 20
74.19893113040365
 30
0.0
 40
15.3719823889704
100
AcDbArc
 50
242.9279029316365
 51
294.7740818596076
  0
ARC
  5
437
330
2
100
AcDbEntity
  8
KIJUN
100
AcDbCircle
 10
778.8315872671871
 20
57.10035505904002
 30
0.0
 40
13.9359696526032
100
AcDbArc
 50
112.1255260590503
 51
165.8329260118984
  0
ARC
  5
438
330
2
100
AcDbEntity
  8
KIJUN
100
AcDbCircle
 10
781.9908330004943
 20
62.87073328779024
 30
0.0
 40
17.32652616955196
100
AcDbArc
 50
83.47079218074423
 51
135.2210155642737
  0
ARC
  5
439
330
2
100
AcDbEntity
  8
KIJUN
100
AcDbCircle
 10
779.9444356099727
 20
80.88878235357636
 30
0.0
 40
11.78610727927293
100
AcDbArc
 50
209.5555307594498
 51
238.474573377456
  0
ARC
  5
43A
330
2
100
AcDbEntity
  8
KIJUN
 62
     7
100
AcDbCircle
 10
742.5934685302095
 20
194.4056943361155
 30
0.0
 40
98.28804862199042
100
AcDbArc
 50
276.6675782710482
 51
285.4387459637588
  0
ARC
  5
43B
330
2
100
AcDbEntity
  8
KIJUN
100
AcDbCircle
 10
749.8025997922217
 20
99.82411046125124
 30
0.0
 40
4.347291083713302
100
AcDbArc
 50
338.8976886103516
 51
74.31666834771617
  0
ARC
  5
43C
330
2
100
AcDbEntity
  8
KIJUN
 62
     7
100
AcDbCircle
 10
745.6436944052991
 20
111.7818562383573
 30
0.0
 40
21.06633724395438
100
AcDbArc
 50
282.3752120472736
 51
305.7751246853275
  0
ARC
  5
43D
330
2
100
AcDbEntity
  8
KIJUN
 62
     7
100
AcDbCircle
 10
746.6105338573457
 20
110.2314670337724
 30
0.0
 40
21.06633724395438
100
AcDbArc
 50
271.6239558017265
 51
306.7886893281545
  0
ARC
  5
43E
330
2
100
AcDbEntity
  8
KIJUN
 62
     7
100
AcDbCircle
 10
748.0725644396121
 20
151.9988129405616
 30
0.0
 40
57.18682796954112
100
AcDbArc
 50
274.0556940306598
 51
288.869401686631
  0
ARC
  5
43F
330
2
100
AcDbEntity
  8
KIJUN
100
AcDbCircle
 10
739.5253021285283
 20
95.64081692399062
 30
0.0
 40
12.3893992381167
100
AcDbArc
 50
31.10935002809149
 51
79.83820494872043
  0
ARC
  5
440
330
2
100
AcDbEntity
  8
KIJUN
100
AcDbCircle
 10
747.6072278004364
 20
102.9671036129365
 30
0.0
 40
3.528058563390821
100
AcDbArc
 50
347.2811031021714
 51
17.18597234714509
  0
ARC
  5
441
330
2
100
AcDbEntity
  8
KIJUN
100
AcDbCircle
 10
750.5609838105181
 20
102.3004222075914
 30
0.0
 40
0.5
100
AcDbArc
 50
211.1093500280825
 51
347.2811031021678
  0
ARC
  5
442
330
2
100
AcDbEntity
  8
KIJUN
100
AcDbCircle
 10
746.7562667759054
 20
93.91126188698645
 30
0.0
 40
4.347291083713302
100
AcDbArc
 50
231.1677722601662
 51
326.5867519975397
  0
ARC
  5
443
330
2
100
AcDbEntity
  8
KIJUN
100
AcDbCircle
 10
742.9226381327823
 20
93.87444394997563
 30
0.0
 40
3.528058563390821
100
AcDbArc
 50
288.2984682607352
 51
336.6388963114482
  0
LINE
  5
444
330
2
100
AcDbEntity
  8
KIJUN
 62
     7
100
AcDbLine
 10
750.3850400155084
 20
91.51732276034374
 30
0.0
 11
751.2851699641585
 21
94.27277177977234
 31
0.0
  0
ARC
  5
445
330
2
100
AcDbEntity
  8
KIJUN
 62
     7
100
AcDbCircle
 10
755.8764556947867
 20
97.71454382146286
 30
0.0
 40
2.090235429672418
100
AcDbArc
 50
164.9035104000976
 51
206.4837507089924
  0
ARC
  5
446
330
2
100
AcDbEntity
  8
KIJUN
 62
     7
100
AcDbCircle
 10
752.2357355618749
 20
93.96224795711134
 30
0.0
 40
1.0
100
AcDbArc
 50
96.80951328203057
 51
161.9091986967045
  0
ARC
  5
447
330
2
100
AcDbEntity
  8
KIJUN
100
AcDbCircle
 10
760.9575505717035
 20
144.30714588394
 30
0.0
 40
48.65146623908756
100
AcDbArc
 50
247.4412535117584
 51
261.4682062679654
  0
ARC
  5
448
330
2
100
AcDbEntity
  8
KIJUN
100
AcDbCircle
 10
759.4679559626991
 20
145.5840634474626
 30
0.0
 40
49.10639967026103
100
AcDbArc
 50
249.5284378288413
 51
263.6134427777975
  0
ARC
  5
449
330
2
100
AcDbEntity
  8
KIJUN
100
AcDbCircle
 10
743.0013690719704
 20
103.6506837106957
 30
0.0
 40
11.61341693107974
100
AcDbArc
 50
266.5048300134241
 51
285.7897843808391
  0
ARC
  5
44A
330
2
100
AcDbEntity
  8
KIJUN
100
AcDbCircle
 10
749.5163920763594
 20
65.16431946238245
 30
0.0
 40
25.14236171758992
100
AcDbArc
 50
100.2095220656169
 51
106.6954934386553
  0
ARC
  5
44B
330
2
100
AcDbEntity
  8
KIJUN
100
AcDbCircle
 10
751.00493822617
 20
64.17040632242503
 30
0.0
 40
25.28990786363198
100
AcDbArc
 50
98.63587954514855
 51
110.1493483496928
  0
ARC
  5
44C
330
2
100
AcDbEntity
  8
KIJUN
100
AcDbCircle
 10
760.9575505717035
 20
144.30714588394
 30
0.0
 40
48.65146623908756
100
AcDbArc
 50
241.6821145089372
 51
247.4412535117583
  0
ARC
  5
44D
330
2
100
AcDbEntity
  8
KIJUN
100
AcDbCircle
 10
759.4679559626991
 20
145.5840634474626
 30
0.0
 40
49.10639967026103
100
AcDbArc
 50
243.9194431401865
 51
249.5284378288411
  0
ARC
  5
44E
330
2
100
AcDbEntity
  8
KIJUN
100
AcDbCircle
 10
739.5253021285283
 20
95.64081692399062
 30
0.0
 40
12.3893992381167
100
AcDbArc
 50
77.08990783183908
 51
79.83820494872043
  0
ARC
  5
44F
330
2
100
AcDbEntity
  8
KIJUN
100
AcDbCircle
 10
743.2077483413364
 20
106.3788520043641
 30
0.0
 40
2.088713250587398
100
AcDbArc
 50
135.7678701402927
 51
214.4087670129366
  0
ARC
  5
450
330
2
100
AcDbEntity
  8
KIJUN
100
AcDbCircle
 10
740.9908049964619
 20
105.1194023400854
 30
0.0
 40
0.5
100
AcDbArc
 50
238.0385703574282
 51
9.106135889543958
  0
ARC
  5
451
330
2
100
AcDbEntity
  8
KIJUN
100
AcDbCircle
 10
760.9575505717018
 20
144.30714588394
 30
0.0
 40
48.65146623908756
100
AcDbArc
 50
241.6821145089372
 51
247.4412535117583
  0
ARC
  5
452
330
2
100
AcDbEntity
  8
KIJUN
100
AcDbCircle
 10
759.4679559626972
 20
145.5840634474626
 30
0.0
 40
49.10639967026103
100
AcDbArc
 50
243.9194431401865
 51
249.5284378288411
  0
ARC
  5
453
330
2
100
AcDbEntity
  8
KIJUN
100
AcDbCircle
 10
739.5253021285269
 20
95.64081692399062
 30
0.0
 40
12.3893992381167
100
AcDbArc
 50
77.08990783183908
 51
79.83820494872043
  0
ARC
  5
454
330
2
100
AcDbEntity
  8
KIJUN
100
AcDbCircle
 10
743.2077483413344
 20
106.3788520043641
 30
0.0
 40
2.088713250587398
100
AcDbArc
 50
135.7678701402927
 51
214.4087670129366
  0
ARC
  5
455
330
2
100
AcDbEntity
  8
KIJUN
100
AcDbCircle
 10
740.9908049964603
 20
105.1194023400854
 30
0.0
 40
0.5
100
AcDbArc
 50
238.0385703574282
 51
9.106135889543958
  0
ARC
  5
456
330
2
100
AcDbEntity
  8
KIJUN
100
AcDbCircle
 10
793.2014568601432
 20
92.88450401276865
 30
0.0
 40
6.720725586808642
100
AcDbArc
 50
252.5451299735645
 51
273.4661996987865
  0
ARC
  5
457
330
2
100
AcDbEntity
  8
KIJUN
100
AcDbCircle
 10
794.3633263261205
 20
90.86703398954943
 30
0.0
 40
3.8634000186345
100
AcDbArc
 50
179.5047924496661
 51
259.5447326520098
  0
ARC
  5
458
330
2
100
AcDbEntity
  8
KIJUN
100
AcDbCircle
 10
793.5805830650467
 20
86.62524984746971
 30
0.0
 40
0.45
100
AcDbArc
 50
273.4661996988061
 51
79.54473265196367
  0
ARC
  5
459
330
2
100
AcDbEntity
  8
KIJUN
100
AcDbCircle
 10
794.7951476298555
 20
87.04972691864794
 30
0.0
 40
3.655347227807721
100
AcDbArc
 50
189.0739674277416
 51
210.1201419875738
  0
ARC
  5
45A
330
2
100
AcDbEntity
  8
KIJUN
100
AcDbCircle
 10
800.1982459846447
 20
98.33716215190037
 30
0.0
 40
4.686862084198403
100
AcDbArc
 50
130.7522452276037
 51
241.4385646877067
  0
ARC
  5
45B
330
2
100
AcDbEntity
  8
KIJUN
100
AcDbCircle
 10
797.466733723523
 20
82.34776223790365
 30
0.0
 40
11.03097613175596
100
AcDbArc
 50
88.6246145873536
 51
129.164907424834
  0
ARC
  5
45C
330
2
100
AcDbEntity
  8
KIJUN
100
AcDbCircle
 10
797.7423081327823
 20
93.82543062843124
 30
0.0
 40
0.45
100
AcDbArc
 50
268.6246145873667
 51
61.43856468772857
  0
ARC
  5
45D
330
2
100
AcDbEntity
  8
KIJUN
100
AcDbCircle
 10
768.3562677793166
 20
88.00317184462514
 30
0.0
 40
6.97447271370665
100
AcDbArc
 50
156.210060827653
 51
215.8663286992648
  0
ARC
  5
45E
330
2
100
AcDbEntity
  8
KIJUN
100
AcDbCircle
 10
766.7165472267713
 20
88.92307986527191
 30
0.0
 40
6.97447271370665
100
AcDbArc
 50
125.312728088153
 51
160.8278054538135
  0
ARC
  5
45F
330
2
100
AcDbEntity
  8
KIJUN
100
AcDbCircle
 10
761.7581534729074
 20
94.29938665341405
 30
0.0
 40
3.489527357898803
100
AcDbArc
 50
242.1670132755104
 51
273.5531088836338
  0
ARC
  5
460
330
2
100
AcDbEntity
  8
KIJUN
100
AcDbCircle
 10
792.0790194976023
 20
15.95403249219572
 30
0.0
 40
85.81126139240813
100
AcDbArc
 50
107.2954044246974
 51
113.4291533572856
  0
ARC
  5
461
330
2
100
AcDbEntity
  8
KIJUN
100
AcDbCircle
 10
801.9754960698854
 20
7.763095654681656
 30
0.0
 40
95.67861594985314
100
AcDbArc
 50
113.0804346437159
 51
116.5384619421608
  0
ARC
  5
462
330
2
100
AcDbEntity
  8
KIJUN
 62
     7
100
AcDbCircle
 10
785.4354775703449
 20
62.77635345853453
 30
0.0
 40
40.48261092478449
100
AcDbArc
 50
101.579311116476
 51
114.3275925280019
  0
ARC
  5
463
330
2
100
AcDbEntity
  8
KIJUN
100
AcDbCircle
 10
787.8862760066145
 20
76.60956923514634
 30
0.0
 40
26.22080759194027
100
AcDbArc
 50
113.7889055544139
 51
163.8184001552026
  0
ARC
  5
464
330
2
100
AcDbEntity
  8
KIJUN
100
AcDbCircle
 10
782.4757319132948
 20
67.13367830138304
 30
0.0
 40
33.86527991993106
100
AcDbArc
 50
98.77463825618251
 51
125.9924065564128
  0
ARC
  5
465
330
2
100
AcDbEntity
  8
KIJUN
100
AcDbCircle
 10
816.7595191819552
 20
51.598862464069
 30
0.0
 40
10.04324070773757
100
AcDbArc
 50
313.2904095170766
 51
25.81708355147086
  0
ARC
  5
466
330
2
100
AcDbEntity
  8
KIJUN
100
AcDbCircle
 10
904.2063210176431
 20
66.10088849336834
 30
0.0
 40
24.53477595699535
100
AcDbArc
 50
184.1488887278003
 51
220.0114143247151
  0
ARC
  5
467
330
2
100
AcDbEntity
  8
KIJUN
100
AcDbCircle
 10
856.1035728804698
 20
57.63208283476394
 30
0.0
 40
3.974220655232412
100
AcDbArc
 50
198.5888342458379
 51
262.1150371968105
  0
ARC
  5
468
330
2
100
AcDbEntity
  8
KIJUN
100
AcDbCircle
 10
928.1385341567697
 20
56.48505936753934
 30
0.0
 40
4.785280236962456
100
AcDbArc
 50
280.4597234922771
 51
352.2626744165429
  0
ARC
  5
469
330
2
100
AcDbEntity
  8
KIJUN
 62
     7
100
AcDbCircle
 10
941.3145839908436
 20
52.82148337253563
 30
0.0
 40
27.98761456823846
100
AcDbArc
 50
130.5476795612756
 51
180.8538135625281
  0
ARC
  5
46A
330
2
100
AcDbEntity
  8
KIJUN
 62
     7
100
AcDbCircle
 10
940.8825886445706
 20
51.07028407955723
 30
0.0
 40
27.58479385651014
100
AcDbArc
 50
125.2866300413165
 51
177.2277900010944
  0
ARC
  5
46B
330
2
100
AcDbEntity
  8
KIJUN
 62
     7
100
AcDbCircle
 10
899.8792642835693
 20
51.73085902496582
 30
0.0
 40
8.078642545614535
100
AcDbArc
 50
91.1918164564549
 51
163.3181008982506
  0
ARC
  5
46C
330
2
100
AcDbEntity
  8
KIJUN
100
AcDbCircle
 10
888.6236427179364
 20
152.2085355460655
 30
0.0
 40
112.2387905028976
100
AcDbArc
 50
280.3900113852137
 51
304.4418417454894
  0
ARC
  5
46D
330
2
100
AcDbEntity
  8
KIJUN
 62
     7
100
AcDbCircle
 10
810.0962169359613
 20
28.21778115839542
 30
0.0
 40
151.8522503364613
100
AcDbArc
 50
9.256082478265231
 51
12.57008655861374
  0
CIRCLE
  5
46E
330
2
100
AcDbEntity
  8
KIJUN
100
AcDbCircle
 10
954.6712208831564
 20
52.85715085455257
 30
0.0
 40
3.475655844438501
  0
ARC
  5
46F
330
2
100
AcDbEntity
  8
KIJUN
100
AcDbCircle
 10
951.9730917116509
 20
55.16603758423454
 30
0.0
 40
9.273947881195052
100
AcDbArc
 50
345.6499866136017
 51
43.88440539826441
  0
LINE
  5
470
330
2
100
AcDbEntity
  8
KIJUN
 62
     7
100
AcDbLine
 10
869.1420737676258
 20
56.17570512314284
 30
0.0
 11
872.3184926791663
 21
55.20653675938814
 31
0.0
  0
ARC
  5
471
330
2
100
AcDbEntity
  8
KIJUN
 62
     7
100
AcDbCircle
 10
866.7882547886788
 20
55.40048186597953
 30
0.0
 40
2.487464897433529
100
AcDbArc
 50
318.0048482066078
 51
12.56870724588283
  0
ARC
  5
472
330
2
100
AcDbEntity
  8
KIJUN
100
AcDbCircle
 10
908.2590615991927
 20
76.95936857619894
 30
0.0
 40
38.87977033121965
100
AcDbArc
 50
213.4563952169803
 51
241.7677250878683
  0
ARC
  5
473
330
2
100
AcDbEntity
  8
KIJUN
100
AcDbCircle
 10
891.8669081453915
 20
58.06674009388213
 30
0.0
 40
13.65060654702707
100
AcDbArc
 50
152.7082682279796
 51
192.4693643719982
  0
ARC
  5
474
330
2
100
AcDbEntity
  8
KIJUN
100
AcDbCircle
 10
876.2928175593776
 20
49.37928700246295
 30
0.0
 40
6.163629164415231
100
AcDbArc
 50
68.63479187992083
 51
94.38601171493914
  0
ARC
  5
475
330
2
100
AcDbEntity
  8
KIJUN
 62
     7
100
AcDbCircle
 10
644.1960912013887
 20
-205.5028504724601
 30
0.0
 40
350.0848729481323
100
AcDbArc
 50
48.18017700732383
 51
53.98359617971573
  0
ARC
  5
476
330
2
100
AcDbEntity
  8
KIJUN
100
AcDbCircle
 10
891.3070059868639
 20
150.0406921514396
 30
0.0
 40
111.877428529333
100
AcDbArc
 50
277.7860977031632
 51
303.9212125566256
  0
ARC
  5
477
330
2
100
AcDbEntity
  8
KIJUN
100
AcDbCircle
 10
824.5074893597491
 20
56.30736843695574
 30
0.0
 40
15.97980994908321
100
AcDbArc
 50
154.2897222409854
 51
210.8747576591636
  0
ARC
  5
478
330
2
100
AcDbEntity
  8
KIJUN
100
AcDbCircle
 10
903.610564625689
 20
53.55383342352824
 30
0.0
 40
12.56060093720086
100
AcDbArc
 50
278.4948035044542
 51
313.5165886439511
  0
ARC
  5
479
330
2
100
AcDbEntity
  8
KIJUN
100
AcDbCircle
 10
854.0827613570206
 20
53.86962896873771
 30
0.0
 40
7.848403968835039
100
AcDbArc
 50
221.4471973777595
 51
292.5640098238068
  0
ARC
  5
47A
330
2
100
AcDbEntity
  8
KIJUN
100
AcDbCircle
 10
865.058470662513
 20
13.50365034717589
 30
0.0
 40
38.08439562109447
100
AcDbArc
 50
93.40114483093174
 51
104.2943262593851
  0
ARC
  5
47B
330
2
100
AcDbEntity
  8
KIJUN
100
AcDbCircle
 10
865.058470662513
 20
13.96811903170265
 30
0.0
 40
38.08439562109447
100
AcDbArc
 50
93.40114483093174
 51
104.2943262593851
  0
ARC
  5
47C
330
2
100
AcDbEntity
  8
KIJUN
100
AcDbCircle
 10
854.9040462354721
 20
46.75172499823652
 30
0.0
 40
6.97447271370665
100
AcDbArc
 50
79.60999807995134
 51
163.9966816075256
  0
ARC
  5
47D
330
2
100
AcDbEntity
  8
KIJUN
 62
     7
100
AcDbCircle
 10
858.259287883197
 20
41.34186205753763
 30
0.0
 40
9.433606520825726
100
AcDbArc
 50
106.0234832709972
 51
123.2292986983317
  0
ARC
  5
47E
330
2
100
AcDbEntity
  8
KIJUN
 62
     7
100
AcDbCircle
 10
860.2273531606847
 20
40.8969116855082
 30
0.0
 40
10.97426118954554
100
AcDbArc
 50
114.6210290766475
 51
130.5713382991679
  0
ARC
  5
47F
330
2
100
AcDbEntity
  8
KIJUN
100
AcDbCircle
 10
809.7708215119624
 20
52.43284299951375
 30
0.0
 40
4.444662791441268
100
AcDbArc
 50
283.2847166799511
 51
345.3605282980634
  0
ARC
  5
480
330
2
100
AcDbEntity
  8
KIJUN
100
AcDbCircle
 10
814.9419713622835
 20
51.08205449654708
 30
0.0
 40
0.9
100
AcDbArc
 50
19.95773166636783
 51
165.3605282980547
  0
ARC
  5
481
330
2
100
AcDbEntity
  8
KIJUN
100
AcDbCircle
 10
826.4108959849188
 20
55.24682252671694
 30
0.0
 40
11.30170171512245
100
AcDbArc
 50
199.9577316663622
 51
255.8398937468377
  0
ARC
  5
482
330
2
100
AcDbEntity
  8
KIJUN
100
AcDbCircle
 10
898.0910738588271
 20
62.69270434336853
 30
0.0
 40
10.49313810588089
100
AcDbArc
 50
235.4531487730004
 51
287.9821843055006
  0
ARC
  5
483
330
2
100
AcDbEntity
  8
KIJUN
 62
     7
100
AcDbCircle
 10
904.0444311676361
 20
53.1230649558285
 30
0.0
 40
0.4072531249999999
100
AcDbArc
 50
307.3042883112161
 51
114.4608995750369
  0
ARC
  5
484
330
2
100
AcDbEntity
  8
KIJUN
 62
     7
100
AcDbCircle
 10
899.5897217051666
 20
62.91573688681484
 30
0.0
 40
10.35103948781487
100
AcDbArc
 50
279.6818437466341
 51
294.4608995750593
  0
ARC
  5
485
330
2
100
AcDbEntity
  8
KIJUN
 62
     7
100
AcDbCircle
 10
908.4614469235939
 20
47.32580314636749
 30
0.0
 40
6.880975238313423
100
AcDbArc
 50
127.304288311216
 51
244.194269956342
  0
LINE
  5
486
330
2
100
AcDbEntity
  8
KIJUN
 62
     7
100
AcDbLine
 10
905.2914077216291
 20
39.16804531609095
 30
0.0
 11
888.7946215343953
 21
40.73655947639867
 31
0.0
  0
ARC
  5
487
330
2
100
AcDbEntity
  8
KIJUN
 62
     7
100
AcDbCircle
 10
905.7646732444034
 20
44.14559689743618
 30
0.0
 40
5.0
100
AcDbArc
 50
264.5686458014773
 51
278.0356561686821
  0
LINE
  5
488
330
2
100
AcDbEntity
  8
KIJUN
 62
     7
100
AcDbLine
 10
905.678911363875
 20
41.20146061375662
 30
0.0
 11
889.3715580334328
 21
42.75196350114543
 31
0.0
  0
ARC
  5
489
330
2
100
AcDbEntity
  8
KIJUN
 62
     7
100
AcDbCircle
 10
899.6211482003927
 20
62.38589127315035
 30
0.0
 40
18.63467847621966
100
AcDbArc
 50
220.3269240540175
 51
278.7482764275515
  0
ARC
  5
48A
330
2
100
AcDbEntity
  8
KIJUN
 62
     7
100
AcDbCircle
 10
871.5244178976378
 20
42.35797937366777
 30
0.0
 40
3.65420186349799
100
AcDbArc
 50
124.4938273600589
 51
177.6321129105743
  0
ARC
  5
48B
330
2
100
AcDbEntity
  8
KIJUN
 62
     7
100
AcDbCircle
 10
868.9845179880943
 20
45.74748145731513
 30
0.0
 40
3.42385420856283
100
AcDbArc
 50
251.062218302802
 51
342.0479966452981
  0
ARC
  5
48C
330
2
100
AcDbEntity
  8
KIJUN
100
AcDbCircle
 10
861.6452948528301
 20
49.590327946016
 30
0.0
 40
7.927738568788837
100
AcDbArc
 50
232.4611839115976
 51
317.9564176674598
  0
ARC
  5
48D
330
2
100
AcDbEntity
  8
KIJUN
100
AcDbCircle
 10
866.6994083681135
 20
37.7027104101921
 30
0.0
 40
11.36126838073563
100
AcDbArc
 50
117.7259499646661
 51
150.4603917887764
  0
ARC
  5
48E
330
2
100
AcDbEntity
  8
KIJUN
100
AcDbCircle
 10
860.3615965530069
 20
43.27090199480602
 30
0.0
 40
4.610255210300308
100
AcDbArc
 50
76.80886653851729
 51
127.4140643653364
  0
LINE
  5
48F
330
2
100
AcDbEntity
  8
KIJUN
100
AcDbLine
 10
857.0943143158189
 20
46.62200910878545
 30
0.0
 11
857.5605399869607
 21
46.93266867469032
 31
0.0
  0
ARC
  5
490
330
2
100
AcDbEntity
  8
KIJUN
 62
     7
100
AcDbCircle
 10
872.8980361684314
 20
50.97189543274274
 30
0.0
 40
0.6430855066826573
100
AcDbArc
 50
104.0898604355384
 51
259.9919893540461
  0
ARC
  5
491
330
2
100
AcDbEntity
  8
KIJUN
100
AcDbCircle
 10
859.9572413269484
 20
118.9267800424965
 30
0.0
 40
67.00163958521264
100
AcDbArc
 50
272.430885043741
 51
279.3144861115128
  0
ARC
  5
492
330
2
100
AcDbEntity
  8
KIJUN
100
AcDbCircle
 10
880.3087698093973
 20
14.42333577396805
 30
0.0
 40
37.93472809020288
100
AcDbArc
 50
93.18609499252058
 51
101.5066588336473
  0
ARC
  5
493
330
2
100
AcDbEntity
  8
KIJUN
 62
     7
100
AcDbCircle
 10
871.9088448697652
 20
47.57375301601446
 30
0.0
 40
2.900731093059361
100
AcDbArc
 50
276.5887731629301
 51
72.39298779991334
  0
LINE
  5
494
330
2
100
AcDbEntity
  8
KIJUN
 62
     7
100
AcDbLine
 10
872.3184926791663
 20
55.20653675938814
 30
0.0
 11
876.208365884934
 21
54.95051932776251
 31
0.0
  0
ARC
  5
495
330
2
100
AcDbEntity
  8
KIJUN
100
AcDbCircle
 10
855.3189029014827
 20
151.2408092790937
 30
0.0
 40
100.0
100
AcDbArc
 50
274.2898232257675
 51
281.9160691383411
  0
LINE
  5
496
330
2
100
AcDbEntity
  8
KIJUN
 62
     7
100
AcDbLine
 10
870.8016793405064
 20
52.80856869889753
 30
0.0
 11
875.9667638313528
 21
53.39569780682477
 31
0.0
  0
CIRCLE
  5
497
330
2
100
AcDbEntity
  8
KIJUN
100
AcDbCircle
 10
955.7851900742724
 20
43.92458209619184
 30
0.0
 40
3.475655844438501
  0
ARC
  5
498
330
2
100
AcDbEntity
  8
KIJUN
100
AcDbCircle
 10
960.930650351355
 20
49.39198743745834
 30
0.0
 40
3.475655844438501
100
AcDbArc
 50
66.91639802850817
 51
293.0836019714918
  0
LINE
  5
499
330
2
100
AcDbEntity
  8
KIJUN
 62
     7
100
AcDbLine
 10
927.3905182818461
 20
54.30312123182325
 30
0.0
 11
927.8091871153733
 21
54.31116858022682
 31
0.0
  0
ARC
  5
49A
330
2
100
AcDbEntity
  8
KIJUN
 62
     7
100
AcDbCircle
 10
927.8170135936729
 20
53.90399066572315
 30
0.0
 40
0.4072531249999999
100
AcDbArc
 50
351.2895315975492
 51
91.10116228497998
  0
ARC
  5
49B
330
2
100
AcDbEntity
  8
KIJUN
 62
     7
100
AcDbCircle
 10
927.3983447601446
 20
53.89594331731935
 30
0.0
 40
0.4072531249999999
100
AcDbArc
 50
91.10116228497998
 51
169.3170722046674
  0
ARC
  5
49C
330
2
100
AcDbEntity
  8
KIJUN
100
AcDbCircle
 10
930.42858671747
 20
53.50387547910436
 30
0.0
 40
2.234792738091019
100
AcDbArc
 50
171.2895315975587
 51
230.5063375483213
  0
ARC
  5
49D
330
2
100
AcDbEntity
  8
KIJUN
 62
     7
100
AcDbCircle
 10
930.8269547093344
 20
42.04498074024722
 30
0.0
 40
17.97999788141595
100
AcDbArc
 50
146.3987975564134
 51
166.2536360265813
  0
ARC
  5
49E
330
2
100
AcDbEntity
  8
KIJUN
100
AcDbCircle
 10
922.1735709965948
 20
49.7832009801421
 30
0.0
 40
4.469585476182041
100
AcDbArc
 50
158.9600515382219
 51
230.5063375483213
  0
ARC
  5
49F
330
2
100
AcDbEntity
  8
KIJUN
 62
     7
100
AcDbCircle
 10
916.4559598940401
 20
48.91927755079342
 30
0.0
 40
3.270210508956348
100
AcDbArc
 50
65.96844985046679
 51
95.32131315124685
  0
ARC
  5
4A0
330
2
100
AcDbEntity
  8
KIJUN
 62
     7
100
AcDbCircle
 10
916.1904464338265
 20
51.76989635813966
 30
0.0
 40
0.4072531249999999
100
AcDbArc
 50
95.3213131512599
 51
146.3987975563964
  0
ARC
  5
4A1
330
2
100
AcDbEntity
  8
KIJUN
 62
     7
100
AcDbCircle
 10
917.6218695964532
 20
51.53407764796482
 30
0.0
 40
0.4072531249999999
100
AcDbArc
 50
338.9600515382261
 51
65.96844985045876
  0
ARC
  5
4A2
330
2
100
AcDbEntity
  8
KIJUN
 62
     7
100
AcDbCircle
 10
903.8315118367012
 20
50.66928616279909
 30
0.0
 40
10.47700836735285
100
AcDbArc
 50
323.5535643028697
 51
335.4574591630314
  0
ARC
  5
4A3
330
2
100
AcDbEntity
  8
KIJUN
100
AcDbCircle
 10
917.5934658751925
 20
55.74556875701245
 30
0.0
 40
9.570560473924912
100
AcDbArc
 50
280.4597234922771
 51
349.3170722046706
  0
ARC
  5
4A4
330
2
100
AcDbEntity
  8
KIJUN
 62
     7
100
AcDbCircle
 10
894.8798335909911
 20
89.25194421534284
 30
0.0
 40
12.32879459163978
100
AcDbArc
 50
16.74167001139868
 51
53.32540301985868
  0
ARC
  5
4A5
330
2
100
AcDbEntity
  8
KIJUN
 62
     7
100
AcDbCircle
 10
924.3138363732613
 20
98.87141608995323
 30
0.0
 40
18.64297111871962
100
AcDbArc
 50
198.9951829696141
 51
223.1183330112877
  0
ARC
  5
4A6
330
2
100
AcDbEntity
  8
KIJUN
 62
     7
100
AcDbCircle
 10
908.497790733311
 20
71.58113128285305
 30
0.0
 40
8.145062499999998
100
AcDbArc
 50
82.93926807805458
 51
107.7675385459551
  0
ARC
  5
4A7
330
2
100
AcDbEntity
  8
KIJUN
 62
     7
100
AcDbCircle
 10
909.4053974309581
 20
106.4312145951966
 30
0.0
 40
25.05184674732072
100
AcDbArc
 50
217.5703375080701
 51
264.9373477589956
  0
ARC
  5
4A8
330
2
100
AcDbEntity
  8
KIJUN
 62
     7
100
AcDbCircle
 10
908.7644939400957
 20
102.9087781427084
 30
0.0
 40
22.52445685697954
100
AcDbArc
 50
211.4509447747654
 51
255.7410640702484
  0
ARC
  5
4A9
330
2
100
AcDbEntity
  8
KIJUN
 62
     7
100
AcDbCircle
 10
881.2644649127458
 20
87.04432305415947
 30
0.0
 40
11.74634682989291
100
AcDbArc
 50
184.4732598661138
 51
236.5335847200789
  0
ARC
  5
4AA
330
2
100
AcDbEntity
  8
KIJUN
 62
     7
100
AcDbCircle
 10
806.6625405568524
 20
92.51903090698595
 30
0.0
 40
42.22511704769462
100
AcDbArc
 50
343.9208293077492
 51
351.9612319570377
  0
ARC
  5
4AB
330
2
100
AcDbEntity
  8
KIJUN
100
AcDbCircle
 10
842.6568052692026
 20
92.07696719898754
 30
0.0
 40
12.83429479040021
100
AcDbArc
 50
296.2713640484523
 51
331.5628780147254
  0
ARC
  5
4AC
330
2
100
AcDbEntity
  8
KIJUN
 62
     7
100
AcDbCircle
 10
846.0488760618888
 20
88.95697282699444
 30
0.0
 40
9.314331350491924
100
AcDbArc
 50
286.4619102462618
 51
334.1919703298851
  0
ARC
  5
4AD
330
2
100
AcDbEntity
  8
KIJUN
 62
     7
100
AcDbCircle
 10
840.6958136160586
 20
85.19554712124104
 30
0.0
 40
8.605998812005676
100
AcDbArc
 50
328.0990737631295
 51
6.722659904026145
  0
ARC
  5
4AE
330
2
100
AcDbEntity
  8
KIJUN
100
AcDbCircle
 10
791.00874639676
 20
15.73401361164673
 30
0.0
 40
89.32984055446775
100
AcDbArc
 50
48.01166293713839
 51
49.39812634461051
  0
ARC
  5
4AF
330
2
100
AcDbEntity
  8
KIJUN
 62
     7
100
AcDbCircle
 10
817.2152515994865
 20
85.42142441814965
 30
0.0
 40
2.815651590337268
100
AcDbArc
 50
167.1938826433416
 51
238.8618979597604
  0
ARC
  5
4B0
330
2
100
AcDbEntity
  8
KIJUN
 62
     7
100
AcDbCircle
 10
825.7546157454532
 20
-14.2048754242581
 30
0.0
 40
97.42666306625825
100
AcDbArc
 50
77.26243472539126
 51
99.49592091862486
  0
ARC
  5
4B1
330
2
100
AcDbEntity
  8
KIJUN
100
AcDbCircle
 10
858.540333444175
 20
42.27276143133775
 30
0.0
 40
15.39747186716916
100
AcDbArc
 50
65.60567589854585
 51
113.7596251666567
  0
ARC
  5
4B2
330
2
100
AcDbEntity
  8
KIJUN
 62
     7
100
AcDbCircle
 10
841.3143263391789
 20
-9.089308116440811
 30
0.0
 40
70.59751408444217
100
AcDbArc
 50
70.82282232427644
 51
79.99115547866228
  0
ARC
  5
4B3
330
2
100
AcDbEntity
  8
KIJUN
100
AcDbCircle
 10
861.8671749871351
 20
101.170201383007
 30
0.0
 40
43.87337820097313
100
AcDbArc
 50
246.0682848147616
 51
263.4773475251563
  0
ARC
  5
4B4
330
2
100
AcDbEntity
  8
KIJUN
100
AcDbCircle
 10
791.00874639676
 20
15.73401361164673
 30
0.0
 40
89.32984055446775
100
AcDbArc
 50
42.8176730853064
 51
47.34493034294688
  0
ARC
  5
4B5
330
2
100
AcDbEntity
  8
KIJUN
100
AcDbCircle
 10
826.205418632621
 20
56.16866378561815
 30
0.0
 40
0.45
100
AcDbArc
 50
76.05552262337752
 51
205.8170835514478
  0
ARC
  5
4B6
330
2
100
AcDbEntity
  8
KIJUN
100
AcDbCircle
 10
823.5016656830438
 20
70.53423159070455
 30
0.0
 40
0.45
100
AcDbArc
 50
99.02254129268857
 51
237.0105898264855
  0
ARC
  5
4B7
330
2
100
AcDbEntity
  8
KIJUN
100
AcDbCircle
 10
824.2278197159929
 20
65.96112054989304
 30
0.0
 40
5.080404331282784
100
AcDbArc
 50
63.05371745295937
 51
99.02254129266887
  0
ARC
  5
4B8
330
2
100
AcDbEntity
  8
KIJUN
100
AcDbCircle
 10
811.3468344923994
 20
55.18547114347573
 30
0.0
 40
19.13070515483004
100
AcDbArc
 50
3.200462163572639
 51
51.49743816858501
  0
ARC
  5
4B9
330
2
100
AcDbEntity
  8
KIJUN
100
AcDbCircle
 10
828.6822573366775
 20
59.97124996763454
 30
0.0
 40
4.115608820848867
100
AcDbArc
 50
234.867657607733
 51
295.4017753437425
  0
ARC
  5
4BA
330
2
100
AcDbEntity
  8
KIJUN
100
AcDbCircle
 10
845.7181631851005
 20
65.78919896533616
 30
0.0
 40
5.0
100
AcDbArc
 50
224.22594772825
 51
250.7540618088095
  0
ARC
  5
4BB
330
2
100
AcDbEntity
  8
KIJUN
 62
     7
100
AcDbCircle
 10
838.3399783463064
 20
62.58239845728184
 30
0.0
 40
1.94708571583534
100
AcDbArc
 50
175.2961845813022
 51
238.0930322766301
  0
ARC
  5
4BC
330
2
100
AcDbEntity
  8
KIJUN
 62
     7
100
AcDbCircle
 10
835.3703348059848
 20
61.08917347237064
 30
0.0
 40
1.94708571583534
100
AcDbArc
 50
355.2961845813137
 51
58.09303227663899
  0
ARC
  5
4BD
330
2
100
AcDbEntity
  8
KIJUN
100
AcDbCircle
 10
841.1039115480569
 20
56.76093149067003
 30
0.0
 40
5.635974480895928
100
AcDbArc
 50
79.45654296095948
 51
132.2995546601775
  0
ARC
  5
4BE
330
2
100
AcDbEntity
  8
KIJUN
100
AcDbCircle
 10
842.73419103397
 20
53.3408956096752
 30
0.0
 40
11.33626912523647
100
AcDbArc
 50
99.41005038367915
 51
123.9730532061555
  0
ARC
  5
4BF
330
2
100
AcDbEntity
  8
KIJUN
100
AcDbCircle
 10
845.7181631851005
 20
65.78919896533616
 30
0.0
 40
5.0
100
AcDbArc
 50
163.0735061811652
 51
194.6501424953774
  0
ARC
  5
4C0
330
2
100
AcDbEntity
  8
KIJUN
100
AcDbCircle
 10
847.941826192582
 20
67.23139141304104
 30
0.0
 40
5.0
100
AcDbArc
 50
176.5376436749273
 51
247.701001112917
  0
ARC
  5
4C1
330
2
100
AcDbEntity
  8
KIJUN
100
AcDbCircle
 10
859.7579225042235
 20
96.04344514357114
 30
0.0
 40
36.14088264993386
100
AcDbArc
 50
247.7010011129173
 51
260.1642616230364
  0
ARC
  5
4C2
330
2
100
AcDbEntity
  8
KIJUN
100
AcDbCircle
 10
858.0004977751094
 20
66.62280976843534
 30
0.0
 40
17.07706532792591
100
AcDbArc
 50
132.1383098430897
 51
177.9122706041015
  0
ARC
  5
4C3
330
2
100
AcDbEntity
  8
KIJUN
 62
     7
100
AcDbCircle
 10
848.9084304889171
 20
76.02195600914345
 30
0.0
 40
2.0
100
AcDbArc
 50
55.12887162038272
 51
134.048590786053
  0
ARC
  5
4C4
330
2
100
AcDbEntity
  8
KIJUN
100
AcDbCircle
 10
858.0004977751094
 20
66.62280976843534
 30
0.0
 40
15.07706532792591
100
AcDbArc
 50
134.0485907860542
 51
176.5376436749274
  0
ARC
  5
4C5
330
2
100
AcDbEntity
  8
KIJUN
 62
     7
100
AcDbCircle
 10
832.0293896847031
 20
36.7932393752937
 30
0.0
 40
46.32988994165213
100
AcDbArc
 50
61.52777757968357
 51
68.92604611502131
  0
ARC
  5
4C6
330
2
100
AcDbEntity
  8
KIJUN
 62
     7
100
AcDbCircle
 10
832.0293896847031
 20
36.7932393752937
 30
0.0
 40
46.32988994165213
100
AcDbArc
 50
61.52777757968357
 51
68.92604611502131
  0
ARC
  5
4C7
330
2
100
AcDbEntity
  8
KIJUN
 62
     7
100
AcDbCircle
 10
847.7804635978845
 20
80.30975648028386
 30
0.0
 40
0.0000000000265806
100
AcDbArc
 50
76.14206232424064
 51
77.15229514128346
  0
ARC
  5
4C8
330
2
100
AcDbEntity
  8
KIJUN
 62
     7
100
AcDbCircle
 10
825.7546157454532
 20
-14.2048754242581
 30
0.0
 40
97.42666306625825
100
AcDbArc
 50
76.59726760620731
 51
76.8000541209003
  0
ARC
  5
4C9
330
2
100
AcDbEntity
  8
KIJUN
100
AcDbCircle
 10
796.0650846908525
 20
7.097336830458687
 30
0.0
 40
91.264587772205
100
AcDbArc
 50
54.24026424868841
 51
54.89208874934868
  0
ARC
  5
4CA
330
2
100
AcDbEntity
  8
KIJUN
100
AcDbCircle
 10
796.0650846908525
 20
7.097336830458687
 30
0.0
 40
91.264587772205
100
AcDbArc
 50
50.50011440196946
 51
53.64726901217959
  0
ARC
  5
4CB
330
2
100
AcDbEntity
  8
KIJUN
 62
     7
100
AcDbCircle
 10
817.2976430389859
 20
76.16339962975573
 30
0.0
 40
7.455802730164681
100
AcDbArc
 50
141.692491269148
 51
239.7042570210016
  0
ARC
  5
4CC
330
2
100
AcDbEntity
  8
KIJUN
 62
     7
100
AcDbCircle
 10
815.7115930001706
 20
76.05016065613785
 30
0.0
 40
7.455802730164681
100
AcDbArc
 50
144.1842962484116
 51
239.7042570210016
  0
ARC
  5
4CD
330
2
100
AcDbEntity
  8
KIJUN
 62
     7
100
AcDbCircle
 10
795.4389653459154
 20
49.01151918750551
 30
0.0
 40
26.40135167167686
100
AcDbArc
 50
17.14138648062381
 51
51.28833027422805
  0
ARC
  5
4CE
330
2
100
AcDbEntity
  8
KIJUN
 62
     7
100
AcDbCircle
 10
797.0916230899119
 20
52.22579938672114
 30
0.0
 40
24.01422998601354
100
AcDbArc
 50
10.96324279108265
 51
46.78046308412485
  0
ARC
  5
4CF
330
2
100
AcDbEntity
  8
KIJUN
 62
     7
100
AcDbCircle
 10
818.5632523746559
 20
81.59511815526604
 30
0.0
 40
4.31404675892694
100
AcDbArc
 50
184.1526290908251
 51
272.0419340621689
  0
ARC
  5
4D0
330
2
100
AcDbEntity
  8
KIJUN
 62
     7
100
AcDbCircle
 10
805.5354427012725
 20
65.28559874263713
 30
0.0
 40
5.01091815570713
100
AcDbArc
 50
335.9031661022166
 51
354.4048736606775
  0
ARC
  5
4D1
330
2
100
AcDbEntity
  8
KIJUN
 62
     7
100
AcDbCircle
 10
808.7310630697265
 20
64.97253986100485
 30
0.0
 40
1.8
100
AcDbArc
 50
354.4048736606758
 51
121.0618598522865
  0
ARC
  5
4D2
330
2
100
AcDbEntity
  8
KIJUN
100
AcDbCircle
 10
819.001456099261
 20
69.72146546872862
 30
0.0
 40
7.567694546164952
100
AcDbArc
 50
5.828353632197377
 51
92.15441190945716
  0
ARC
  5
4D3
330
2
100
AcDbEntity
  8
KIJUN
 62
     7
100
AcDbCircle
 10
825.7249772522333
 20
3.482047520812271
 30
0.0
 40
78.61057152937326
100
AcDbArc
 50
74.64337954789266
 51
100.4645898288345
  0
ARC
  5
4D4
330
2
100
AcDbEntity
  8
KIJUN
 62
     7
100
AcDbCircle
 10
937.1270824746687
 20
-8.71708138170738
 30
0.0
 40
94.51755245712254
100
AcDbArc
 50
110.5229826385164
 51
123.565351636136
  0
ARC
  5
4D5
330
2
100
AcDbEntity
  8
KIJUN
 62
     7
100
AcDbCircle
 10
939.8959652696762
 20
-26.40342697556486
 30
0.0
 40
111.0373315065356
100
AcDbArc
 50
107.7675385459549
 51
119.7071715342415
  0
ARC
  5
4D6
330
2
100
AcDbEntity
  8
KIJUN
 62
     7
100
AcDbCircle
 10
900.028572343888
 20
53.99439813354256
 30
0.0
 40
15.02370718346841
100
AcDbArc
 50
69.84975555664076
 51
139.5963851850245
  0
ARC
  5
4D7
330
2
100
AcDbEntity
  8
KIJUN
 62
     7
100
AcDbCircle
 10
887.4002722715184
 20
25.52522092493763
 30
0.0
 40
56.75536568208004
100
AcDbArc
 50
73.00327972354354
 51
100.5395160241051
  0
ARC
  5
4D8
330
2
100
AcDbEntity
  8
KIJUN
 62
     7
100
AcDbCircle
 10
889.5948079264123
 20
25.2390048178666
 30
0.0
 40
57.47672849688387
100
AcDbArc
 50
76.29063185289955
 51
102.6385168057794
  0
ARC
  5
4D9
330
2
100
AcDbEntity
  8
KIJUN
 62
     7
100
AcDbCircle
 10
878.8121533188029
 20
75.28101295616214
 30
0.0
 40
0.4072531249999999
100
AcDbArc
 50
285.4065363594767
 51
76.36476433021842
  0
ARC
  5
4DA
330
2
100
AcDbEntity
  8
KIJUN
 62
     7
100
AcDbCircle
 10
881.4844068510963
 20
65.58377883406516
 30
0.0
 40
9.651439064326423
100
AcDbArc
 50
105.4065363595172
 51
144.2528750135839
  0
ARC
  5
4DB
330
2
100
AcDbEntity
  8
KIJUN
 62
     7
100
AcDbCircle
 10
883.0536155392543
 20
92.76606076501336
 30
0.0
 40
17.58488122991515
100
AcDbArc
 50
241.9592173583294
 51
256.3647643302251
  0
ARC
  5
4DC
330
2
100
AcDbEntity
  8
KIJUN
 62
     7
100
AcDbCircle
 10
885.2895742627069
 20
67.04118517100565
 30
0.0
 40
0.081450625
100
AcDbArc
 50
354.1452588171881
 51
127.252533475042
  0
ARC
  5
4DD
330
2
100
AcDbEntity
  8
KIJUN
 62
     7
100
AcDbCircle
 10
883.1267429477156
 20
64.00955899839394
 30
0.0
 40
0.081450625
100
AcDbArc
 50
110.5828870447747
 51
224.2778839843581
  0
ARC
  5
4DE
330
2
100
AcDbEntity
  8
KIJUN
 62
     7
100
AcDbCircle
 10
885.123516865841
 20
65.95662488030014
 30
0.0
 40
2.870387990484053
100
AcDbArc
 50
224.2778839842074
 51
279.0301294310548
  0
ARC
  5
4DF
330
2
100
AcDbEntity
  8
KIJUN
 62
     7
100
AcDbCircle
 10
882.2115923775552
 20
71.08856537862846
 30
0.0
 40
5.003356060644698
100
AcDbArc
 50
257.1070514650816
 51
307.2525334750988
  0
ARC
  5
4E0
330
2
100
AcDbEntity
  8
KIJUN
 62
     7
100
AcDbCircle
 10
881.8560447729858
 20
67.39326498931172
 30
0.0
 40
3.532984335575973
100
AcDbArc
 50
290.5828870449274
 51
354.1452588171799
  0
ARC
  5
4E1
330
2
100
AcDbEntity
  8
KIJUN
 62
     7
100
AcDbCircle
 10
881.1109454080993
 20
74.26936030854886
 30
0.0
 40
8.058025089613366
100
AcDbArc
 50
202.2190003486465
 51
269.8879925396946
  0
ARC
  5
4E2
330
2
100
AcDbEntity
  8
KIJUN
 62
     7
100
AcDbCircle
 10
885.7236851923266
 20
70.12862651842304
 30
0.0
 40
7.008411785334669
100
AcDbArc
 50
268.7764757117098
 51
294.1235109953867
  0
ARC
  5
4E3
330
2
100
AcDbEntity
  8
KIJUN
100
AcDbCircle
 10
901.9539002700492
 20
58.21473710755693
 30
0.0
 40
6.798519855847214
100
AcDbArc
 50
81.46890567204678
 51
157.4776993778908
  0
ARC
  5
4E4
330
2
100
AcDbEntity
  8
KIJUN
 62
     7
100
AcDbCircle
 10
899.7176703262073
 20
59.88894960490993
 30
0.0
 40
0.081450625
100
AcDbArc
 50
265.4659848342289
 51
55.83356367094296
  0
ARC
  5
4E5
330
2
100
AcDbEntity
  8
KIJUN
 62
     7
100
AcDbCircle
 10
903.8446875342893
 20
72.49127029592952
 30
0.0
 40
7.604586631764069
100
AcDbArc
 50
263.3377743109339
 51
277.6756777451985
  0
ARC
  5
4E6
330
2
100
AcDbEntity
  8
KIJUN
100
AcDbCircle
 10
896.6648694414404
 20
55.39122427405974
 30
0.0
 40
5.517361440475863
100
AcDbArc
 50
55.83356367078415
 51
100.3470033773089
  0
ARC
  5
4E7
330
2
100
AcDbEntity
  8
KIJUN
 62
     7
100
AcDbCircle
 10
904.6428180666049
 20
66.56923737997944
 30
0.0
 40
1.629012499999999
100
AcDbArc
 50
277.675677745192
 51
69.84975555663393
  0
ARC
  5
4E8
330
2
100
AcDbEntity
  8
KIJUN
100
AcDbCircle
 10
865.0360786129848
 20
54.74750921340064
 30
0.0
 40
4.347291083713302
100
AcDbArc
 50
15.94508993483161
 51
111.3640696722004
  0
ARC
  5
4E9
330
2
100
AcDbEntity
  8
KIJUN
100
AcDbCircle
 10
861.3902937473637
 20
55.93339152099054
 30
0.0
 40
3.528058563390821
100
AcDbArc
 50
5.892945620920425
 51
54.23337367163096
  0
ARC
  5
4EA
330
2
100
AcDbEntity
  8
KIJUN
 62
     7
100
AcDbCircle
 10
750.385297146288
 20
-61.76618405307436
 30
0.0
 40
174.2724173562583
100
AcDbArc
 50
42.77991764891171
 51
52.47580683346416
  0
CIRCLE
  5
4EB
330
2
100
AcDbEntity
  8
KIJUN
100
AcDbCircle
 10
855.1149128885315
 20
100.1562239537915
 30
0.0
 40
3.658585099408949
  0
ARC
  5
4EC
330
2
100
AcDbEntity
  8
KIJUN
100
AcDbCircle
 10
857.4663503626659
 20
86.94914293929834
 30
0.0
 40
3.658585099408949
100
AcDbArc
 50
214.0260185896031
 51
195.5987692333245
  0
CIRCLE
  5
4ED
330
2
100
AcDbEntity
  8
KIJUN
100
AcDbCircle
 10
848.2275074485695
 20
96.67368341051822
 30
0.0
 40
3.658585099408949
  0
CIRCLE
  5
4EE
330
2
100
AcDbEntity
  8
KIJUN
100
AcDbCircle
 10
843.8280130126846
 20
102.4608413990835
 30
0.0
 40
3.658585099408949
  0
CIRCLE
  5
4EF
330
2
100
AcDbEntity
  8
KIJUN
100
AcDbCircle
 10
840.3792380506198
 20
96.03680789282465
 30
0.0
 40
3.658585099408949
  0
ARC
  5
4F0
330
2
100
AcDbEntity
  8
KIJUN
100
AcDbCircle
 10
850.5688004385371
 20
89.61276786143173
 30
0.0
 40
3.658585099408949
100
AcDbArc
 50
248.7475004574804
 51
235.0462064658854
  0
ARC
  5
4F1
330
2
100
AcDbEntity
  8
KIJUN
100
AcDbCircle
 10
791.00874639676
 20
15.73401361164673
 30
0.0
 40
89.32984055446775
100
AcDbArc
 50
50.26947640517217
 51
55.16058191419341
  0
ARC
  5
4F2
330
2
100
AcDbEntity
  8
KIJUN
100
AcDbCircle
 10
810.6688918359404
 20
94.13366292029705
 30
0.0
 40
2.17100437215842
100
AcDbArc
 50
53.76422233231445
 51
153.9503521074149
  0
ARC
  5
4F3
330
2
100
AcDbEntity
  8
KIJUN
100
AcDbCircle
 10
808.3141452020969
 20
95.2846764776771
 30
0.0
 40
0.45
100
AcDbArc
 50
200.3378389092409
 51
333.9503521074397
  0
ARC
  5
4F4
330
2
100
AcDbEntity
  8
KIJUN
100
AcDbCircle
 10
805.8450013182815
 20
89.08052648801353
 30
0.0
 40
9.143063270321295
100
AcDbArc
 50
340.6130525669071
 51
48.09026311091027
  0
ARC
  5
4F5
330
2
100
AcDbEntity
  8
KIJUN
100
AcDbCircle
 10
886.4699471794107
 20
91.18704829962664
 30
0.0
 40
6.131636283450736
100
AcDbArc
 50
24.78034062192118
 51
96.21210406951043
  0
ARC
  5
4F6
330
2
100
AcDbEntity
  8
KIJUN
100
AcDbCircle
 10
882.3043567242981
 20
94.59608709247637
 30
0.0
 40
4.41388915238069
100
AcDbArc
 50
7.808603931625228
 51
37.49325638821105
  0
ARC
  5
4F7
330
2
100
AcDbEntity
  8
KIJUN
100
AcDbCircle
 10
884.8031503035279
 20
80.25949958245323
 30
0.0
 40
15.0534014462812
100
AcDbArc
 50
82.84804446247745
 51
104.7022155087929
  0
ARC
  5
4F8
330
2
100
AcDbEntity
  8
KIJUN
100
AcDbCircle
 10
885.449366850619
 20
86.15471287640785
 30
0.0
 40
0.4887037499999999
100
AcDbArc
 50
244.1116066751491
 51
27.95577332193965
  0
ARC
  5
4F9
330
2
100
AcDbEntity
  8
KIJUN
 62
     7
100
AcDbCircle
 10
888.393621522721
 20
93.48290270436644
 30
0.0
 40
7.530613059133142
100
AcDbArc
 50
169.7724603213076
 51
250.5096239142452
  0
ARC
  5
4FA
330
2
100
AcDbEntity
  8
KIJUN
 62
     7
100
AcDbCircle
 10
901.9000687651766
 20
94.68731220538677
 30
0.0
 40
7.530613059133142
100
AcDbArc
 50
141.5872146539773
 51
200.7047706721803
  0
LINE
  5
4FB
330
2
100
AcDbEntity
  8
KIJUN
 62
     7
100
AcDbLine
 10
893.5794524248736
 20
91.53053654296863
 30
0.0
 11
894.5017875548501
 21
91.47449515653022
 31
0.0
  0
ARC
  5
4FC
330
2
100
AcDbEntity
  8
KIJUN
 62
     7
100
AcDbCircle
 10
897.7046049300101
 20
95.64413830880111
 30
0.0
 40
5.973516037043527
100
AcDbArc
 50
198.4155457736078
 51
221.7605772306879
  0
ARC
  5
4FD
330
2
100
AcDbEntity
  8
KIJUN
 62
     7
100
AcDbCircle
 10
893.5525377463642
 20
91.93689932165684
 30
0.0
 40
0.4072531249999999
100
AcDbArc
 50
221.7605772306788
 51
273.7893441802349
  0
ARC
  5
4FE
330
2
100
AcDbEntity
  8
KIJUN
 62
     7
100
AcDbCircle
 10
894.4748728763391
 20
91.88085793521791
 30
0.0
 40
0.4072531249999999
100
AcDbArc
 50
273.7893441803394
 51
20.70477067218571
  0
ARC
  5
4FF
330
2
100
AcDbEntity
  8
KIJUN
100
AcDbCircle
 10
897.4862639701866
 20
100.1528995694615
 30
0.0
 40
4.863793437411157
100
AcDbArc
 50
319.7105987480455
 51
347.9816592188855
  0
ARC
  5
500
330
2
100
AcDbEntity
  8
KIJUN
100
AcDbCircle
 10
892.4896092204971
 20
84.72773767338884
 30
0.0
 40
15.0534014462812
100
AcDbArc
 50
54.66279879514575
 51
76.5169698414633
  0
CIRCLE
  5
501
330
2
100
AcDbEntity
  8
KIJUN
100
AcDbCircle
 10
862.2091523452551
 20
96.36519294740359
 30
0.0
 40
3.851142209904157
  0
ARC
  5
502
330
2
100
AcDbEntity
  8
KIJUN
100
AcDbCircle
 10
876.9200585400744
 20
67.89524814385853
 30
0.0
 40
19.66469238214276
100
AcDbArc
 50
64.98304829417368
 51
111.9988555473739
  0
ARC
  5
503
330
2
100
AcDbEntity
  8
KIJUN
100
AcDbCircle
 10
934.8830222775065
 20
85.33738265140172
 30
0.0
 40
6.798519855847214
100
AcDbArc
 50
311.2538970691749
 51
27.26269077502002
  0
ARC
  5
504
330
2
100
AcDbEntity
  8
KIJUN
100
AcDbCircle
 10
969.5163920763594
 20
65.16431946238245
 30
0.0
 40
25.14236171758992
100
AcDbArc
 50
131.0627569860394
 51
139.635551590977
  0
ARC
  5
505
330
2
100
AcDbEntity
  8
KIJUN
100
AcDbCircle
 10
971.0049382261701
 20
64.17040632242503
 30
0.0
 40
25.28990786363198
100
AcDbArc
 50
110.1493483496927
 51
138.5219314138079
  0
ARC
  5
506
330
2
100
AcDbEntity
  8
KIJUN
 62
     7
100
AcDbCircle
 10
948.1185762269372
 20
86.16614530580836
 30
0.0
 40
27.08005295613661
100
AcDbArc
 50
161.2312718364114
 51
202.5122076111907
  0
ARC
  5
507
330
2
100
AcDbEntity
  8
KIJUN
 62
     7
100
AcDbCircle
 10
948.2374522759441
 20
88.08616686282993
 30
0.0
 40
26.63958797854194
100
AcDbArc
 50
165.2267203838805
 51
209.3765278730881
  0
ARC
  5
508
330
2
100
AcDbEntity
  8
KIJUN
100
AcDbCircle
 10
889.9170911925553
 20
150.7356749412591
 30
0.0
 40
109.5108626806539
100
AcDbArc
 50
305.48437602981
 51
309.8805542057079
  0
ARC
  5
509
330
2
100
AcDbEntity
  8
KIJUN
 62
     7
100
AcDbCircle
 10
969.0993202564456
 20
87.00763320961961
 30
0.0
 40
20.53499390700882
100
AcDbArc
 50
228.6590037285646
 51
248.4501164464096
  0
ARC
  5
50A
330
2
100
AcDbEntity
  8
KIJUN
 62
     7
100
AcDbCircle
 10
967.444437491328
 20
85.88869765739653
 30
0.0
 40
20.53499390700882
100
AcDbArc
 50
228.6590037285646
 51
249.1461410538497
  0
ARC
  5
50B
330
2
100
AcDbEntity
  8
KIJUN
100
AcDbCircle
 10
881.8798014443643
 20
142.623575246566
 30
0.0
 40
111.6263054479913
100
AcDbArc
 50
310.072847065857
 51
316.0860143821694
  0
ARC
  5
50C
330
2
100
AcDbEntity
  8
KIJUN
 62
     7
100
AcDbCircle
 10
957.8770715619361
 20
91.51120757082235
 30
0.0
 40
32.38507568437837
100
AcDbArc
 50
235.1523836180059
 51
259.7286281510102
  0
ARC
  5
50D
330
2
100
AcDbEntity
  8
KIJUN
 62
     7
100
AcDbCircle
 10
931.9649354157204
 20
-6.577534892301351
 30
0.0
 40
76.40219480600203
100
AcDbArc
 50
91.71377905859424
 51
95.52261725431176
  0
ARC
  5
50E
330
2
100
AcDbEntity
  8
KIJUN
 62
     7
100
AcDbCircle
 10
952.3025907844138
 20
102.8365095736211
 30
0.0
 40
40.04773651642755
100
AcDbArc
 50
226.9171156093801
 51
251.1634165566325
  0
ARC
  5
50F
330
2
100
AcDbEntity
  8
KIJUN
 62
     7
100
AcDbCircle
 10
930.179608105325
 20
89.21937488903472
 30
0.0
 40
12.85551931494201
100
AcDbArc
 50
286.1568393513372
 51
315.6090468909084
  0
ARC
  5
510
330
2
100
AcDbEntity
  8
KIJUN
 62
     7
100
AcDbCircle
 10
936.6439328962757
 20
72.54093061960451
 30
0.0
 40
5.204783969172329
100
AcDbArc
 50
123.6894728792433
 51
207.3648715266725
  0
ARC
  5
511
330
2
100
AcDbEntity
  8
KIJUN
 62
     7
100
AcDbCircle
 10
925.060852849231
 20
56.96991060416853
 30
0.0
 40
7.900494166976137
100
AcDbArc
 50
351.7834201462755
 51
68.67206941001589
  0
ARC
  5
512
330
2
100
AcDbEntity
  8
KIJUN
100
AcDbCircle
 10
956.2227259369525
 20
78.15472407015533
 30
0.0
 40
5.0
100
AcDbArc
 50
146.4127512912558
 51
199.3893609137794
  0
ARC
  5
513
330
2
100
AcDbEntity
  8
KIJUN
100
AcDbCircle
 10
960.2542739565768
 20
79.57361485405553
 30
0.0
 40
9.273947881195052
100
AcDbArc
 50
199.3893609137794
 51
239.4122345196719
  0
ARC
  5
514
330
2
100
AcDbEntity
  8
KIJUN
100
AcDbCircle
 10
954.5507113860283
 20
78.72134454896664
 30
0.0
 40
5.0
100
AcDbArc
 50
146.956797742233
 51
174.7265470766583
  0
ARC
  5
515
330
2
100
AcDbEntity
  8
KIJUN
100
AcDbCircle
 10
958.8065693115137
 20
78.32852931345644
 30
0.0
 40
9.273947881195052
100
AcDbArc
 50
174.7265470766583
 51
237.9136055634361
  0
ARC
  5
516
330
2
100
AcDbEntity
  8
KIJUN
 62
     7
100
AcDbCircle
 10
969.7947261059621
 20
132.8985734142126
 30
0.0
 40
73.17524310961862
100
AcDbArc
 50
232.2774669544485
 51
257.1222610588974
  0
ARC
  5
517
330
2
100
AcDbEntity
  8
KIJUN
 62
     7
100
AcDbCircle
 10
875.8897790711339
 20
-31.12028177827661
 30
0.0
 40
116.8812037699484
100
AcDbArc
 50
66.16371159166265
 51
74.42137020145378
  0
ARC
  5
518
330
2
100
AcDbEntity
  8
KIJUN
 62
     7
100
AcDbCircle
 10
820.4395623314091
 20
-157.3156166477006
 30
0.0
 40
253.1622450108649
100
AcDbArc
 50
66.07171160882917
 51
69.40328603213008
  0
ARC
  5
519
330
2
100
AcDbEntity
  8
KIJUN
 62
     7
100
AcDbCircle
 10
924.768863554579
 20
67.84857169628685
 30
0.0
 40
1.629012499999999
100
AcDbArc
 50
95.52261725430509
 51
219.3284945062447
  0
ARC
  5
51A
330
2
100
AcDbEntity
  8
KIJUN
 62
     7
100
AcDbCircle
 10
928.9043919447275
 20
71.23689838844244
 30
0.0
 40
6.975352634941361
100
AcDbArc
 50
219.3284945062436
 51
262.0057607181907
  0
ARC
  5
51B
330
2
100
AcDbEntity
  8
KIJUN
100
AcDbCircle
 10
889.9170911925553
 20
150.7356749412591
 30
0.0
 40
109.5108626806539
100
AcDbArc
 50
310.8572816896301
 51
311.3689271715377
  0
ARC
  5
51C
330
2
100
AcDbEntity
  8
KIJUN
 62
     7
100
AcDbCircle
 10
960.2919393073214
 20
58.26968369559224
 30
0.0
 40
4.049484550496365
100
AcDbArc
 50
60.38022938156185
 51
104.4463709996105
  0
ARC
  5
51D
330
2
100
AcDbEntity
  8
KIJUN
100
AcDbCircle
 10
954.6770373405415
 20
53.22954775619514
 30
0.0
 40
9.273947881195052
100
AcDbArc
 50
34.78882885034025
 51
64.53097307697236
  0
ARC
  5
51E
330
2
100
AcDbEntity
  8
KIJUN
100
AcDbCircle
 10
959.4916243665391
 20
104.579702071872
 30
0.0
 40
6.97447271370665
100
AcDbArc
 50
178.5351603248436
 51
262.9218438524237
  0
ARC
  5
51F
330
2
100
AcDbEntity
  8
KIJUN
100
AcDbCircle
 10
956.571591920054
 20
98.03657771906285
 30
0.0
 40
7.848403968835039
100
AcDbArc
 50
58.03857035739779
 51
121.0846445546186
  0
ARC
  5
520
330
2
100
AcDbEntity
  8
KIJUN
100
AcDbCircle
 10
979.467955962699
 20
145.5840634474626
 30
0.0
 40
49.10639967026103
100
AcDbArc
 50
243.9194431401865
 51
249.5284378288411
  0
ARC
  5
521
330
2
100
AcDbEntity
  8
KIJUN
100
AcDbCircle
 10
980.9575505717036
 20
144.30714588394
 30
0.0
 40
48.65146623908756
100
AcDbArc
 50
241.6821145089372
 51
247.4412535117583
  0
ARC
  5
522
330
2
100
AcDbEntity
  8
KIJUN
100
AcDbCircle
 10
963.0013690719701
 20
103.6506837106957
 30
0.0
 40
11.61341693107974
100
AcDbArc
 50
230.5427357178006
 51
266.5048300134241
  0
ARC
  5
523
330
2
100
AcDbEntity
  8
KIJUN
100
AcDbCircle
 10
969.5163920763594
 20
65.16431946238245
 30
0.0
 40
25.14236171758992
100
AcDbArc
 50
106.6954934386555
 51
125.0585131140372
  0
ARC
  5
524
330
2
100
AcDbEntity
  8
KIJUN
100
AcDbCircle
 10
936.1418155545241
 20
91.19925191918936
 30
0.0
 40
5.517361440475863
100
AcDbArc
 50
297.1669584095085
 51
330.1319947744354
  0
ARC
  5
525
330
2
100
AcDbEntity
  8
KIJUN
 62
     7
100
AcDbCircle
 10
925.5774882806024
 20
90.83324355884892
 30
0.0
 40
12.45808202764637
100
AcDbArc
 50
343.2819300781822
 51
66.3793814266496
  0
ARC
  5
526
330
2
100
AcDbEntity
  8
KIJUN
 62
     7
100
AcDbCircle
 10
917.813764140468
 20
97.77029860567466
 30
0.0
 40
12.16246875186587
100
AcDbArc
 50
344.8943261707324
 51
16.7089214924803
  0
ARC
  5
527
330
2
100
AcDbEntity
  8
KIJUN
 62
     7
100
AcDbCircle
 10
930.2428219102591
 20
101.5013042548608
 30
0.0
 40
0.8145062499999998
100
AcDbArc
 50
66.37938142666415
 51
196.7089214924838
  0
ARC
  5
528
330
2
100
AcDbEntity
  8
KIJUN
 62
     7
100
AcDbCircle
 10
928.7696185553764
 20
94.81301827011677
 30
0.0
 40
0.8145062499999998
100
AcDbArc
 50
181.4033407114395
 51
344.8943261707253
  0
ARC
  5
529
330
2
100
AcDbEntity
  8
KIJUN
 62
     7
100
AcDbCircle
 10
938.2890684019901
 20
87.01521652836914
 30
0.0
 40
0.8145062499999998
100
AcDbArc
 50
163.2819300781847
 51
297.1669584094876
  0
ARC
  5
52A
330
2
100
AcDbEntity
  8
KIJUN
 62
     7
100
AcDbCircle
 10
949.1972362994763
 20
87.35027785306215
 30
0.0
 40
1.937286554369229
100
AcDbArc
 50
301.2197696944229
 51
355.2604473173847
  0
ARC
  5
52B
330
2
100
AcDbEntity
  8
KIJUN
 62
     7
100
AcDbCircle
 10
951.9272040056673
 20
85.72063907095154
 30
0.0
 40
1.786500582656346
100
AcDbArc
 50
130.9607840437983
 51
171.7259705763491
  0
ARC
  5
52C
330
2
100
AcDbEntity
  8
KIJUN
100
AcDbCircle
 10
956.8849977283614
 20
94.77147277705004
 30
0.0
 40
11.33626912523647
100
AcDbArc
 50
234.9000541849509
 51
249.9622347056194
  0
ARC
  5
52D
330
2
100
AcDbEntity
  8
KIJUN
 62
     7
100
AcDbCircle
 10
950.6540944531341
 20
85.9057763616907
 30
0.0
 40
0.5
100
AcDbArc
 50
171.7259705763471
 51
234.9000541849409
  0
ARC
  5
52E
330
2
100
AcDbEntity
  8
KIJUN
100
AcDbCircle
 10
955.0213150189424
 20
91.32412041120792
 30
0.0
 40
5.579373747614106
100
AcDbArc
 50
229.6333633148965
 51
270.5441260274382
  0
ARC
  5
52F
330
2
100
AcDbEntity
  8
KIJUN
 62
     7
100
AcDbCircle
 10
951.0838484338789
 20
86.69215084581987
 30
0.0
 40
0.5
100
AcDbArc
 50
49.63336331487996
 51
130.9607840438067
  0
ARC
  5
530
330
2
100
AcDbEntity
  8
KIJUN
100
AcDbCircle
 10
959.101896612751
 20
94.43851126998964
 30
0.0
 40
3.489527357898803
100
AcDbArc
 50
107.8642282606833
 51
175.9662579278386
  0
ARC
  5
531
330
2
100
AcDbEntity
  8
KIJUN
100
AcDbCircle
 10
911.2076668682655
 20
93.34020638552814
 30
0.0
 40
5.855804050313214
100
AcDbArc
 50
28.3652520875024
 51
86.675598631238
  0
ARC
  5
532
330
2
100
AcDbEntity
  8
KIJUN
100
AcDbCircle
 10
922.423947476417
 20
99.02001241520823
 30
0.0
 40
5.83013806446333
100
AcDbArc
 50
99.63951953604759
 51
202.5067551402226
  0
ARC
  5
533
330
2
100
AcDbEntity
  8
KIJUN
100
AcDbCircle
 10
916.6186123911925
 20
96.53716596275295
 30
0.0
 40
0.4887037499999999
100
AcDbArc
 50
238.1058145318843
 51
30.91976463224787
  0
ARC
  5
534
330
2
100
AcDbEntity
  8
KIJUN
100
AcDbCircle
 10
916.0048055733444
 20
96.38860993088357
 30
0.0
 40
5.262713605960124
100
AcDbArc
 50
147.8878170798845
 51
219.0484112467807
  0
ARC
  5
535
330
2
100
AcDbEntity
  8
KIJUN
 62
     7
100
AcDbCircle
 10
911.9548265057115
 20
87.11807559665293
 30
0.0
 40
1.593555919252944
100
AcDbArc
 50
218.3740346125218
 51
355.8158398718803
  0
ARC
  5
536
330
2
100
AcDbEntity
  8
KIJUN
 62
     7
100
AcDbCircle
 10
906.9240282032229
 20
88.48194885239367
 30
0.0
 40
6.783556496661212
100
AcDbArc
 50
347.396918529757
 51
42.59595191165612
  0
ARC
  5
537
330
2
100
AcDbEntity
  8
KIJUN
100
AcDbCircle
 10
916.631809767893
 20
94.51566847704963
 30
0.0
 40
11.32694420128306
100
AcDbArc
 50
1.403340711443588
 51
64.8385127647705
  0
ARC
  5
538
330
2
100
AcDbEntity
  8
KIJUN
100
AcDbCircle
 10
960.9908049964623
 20
105.1194023400854
 30
0.0
 40
0.5
100
AcDbArc
 50
238.0385703574282
 51
9.106135889543958
  0
ARC
  5
539
330
2
100
AcDbEntity
  8
KIJUN
100
AcDbCircle
 10
963.2077483413365
 20
106.3788520043641
 30
0.0
 40
2.088713250587398
100
AcDbArc
 50
135.7678701402927
 51
214.4087670129366
  0
ARC
  5
53A
330
2
100
AcDbEntity
  8
KIJUN
100
AcDbCircle
 10
959.5253021285286
 20
95.64081692399062
 30
0.0
 40
12.3893992381167
100
AcDbArc
 50
77.08990783183908
 51
79.83820494872043
  0
DIMENSION
  5
53B
330
2
100
AcDbEntity
  8
SUNPOU
100
AcDbDimension
  2
*D2
 10
11.3022875116226
 20
28.45462377835787
 30
0.0
 11
6.302287511622597
 21
73.45462377835783
 31
0.0
 71
     5
 42
89.99999999999991
  3
STANDARD$0
100
AcDbAlignedDimension
 13
25.85424782035516
 23
118.4546237783578
 33
0.0
 14
25.85424782035516
 24
28.45462377835787
 34
0.0
 50
90.0
100
AcDbRotatedDimension
1001
ACAD
1000
DSTYLE
1002
{
1070
    41
1040
0.5
1070
    42
1040
1.0
1070
    44
1040
0.0
1070
    77
1070
     1
1070
    78
1070
     0
1070
   140
1040
3.0
1070
   141
1040
1.0
1070
   146
1040
0.0642857142857143
1070
   172
1070
     0
1070
   176
1070
    60
1070
   177
1070
    70
1070
   178
1070
    60
1070
   271
1070
     0
1070
   272
1070
     0
1070
   341
1005
0
1002
}
  0
DIMENSION
  5
551
330
2
100
AcDbEntity
  8
SUNPOU
100
AcDbDimension
  2
*D3
 10
25.85424782035516
 20
132.8103514678084
 30
0.0
 11
35.85424782035459
 21
137.8103514678084
 31
0.0
 71
     5
 42
19.99999999999885
  3
STANDARD$0
100
AcDbAlignedDimension
 13
45.85424782035401
 23
118.4546237783578
 33
0.0
 14
25.85424782035516
 24
118.4546237783578
 34
0.0
 50
180.0
100
AcDbRotatedDimension
1001
ACAD
1000
DSTYLE
1002
{
1070
    41
1040
0.5
1070
    42
1040
1.0
1070
    44
1040
0.0
1070
    77
1070
     1
1070
    78
1070
     0
1070
   140
1040
3.0
1070
   141
1040
1.0
1070
   146
1040
0.0642857142857143
1070
   172
1070
     0
1070
   176
1070
    60
1070
   177
1070
    70
1070
   178
1070
    60
1070
   271
1070
     0
1070
   272
1070
     0
1070
   341
1005
0
1002
}
  0
TEXT
  5
55E
330
2
100
AcDbEntity
  8
HOJO
100
AcDbText
 10
0.2662945364977522
 20
1.183313000000011
 30
0.0
 40
4.5
  1
PM813
  7
SUNPOU
100
AcDbText
  0
LINE
  5
560
330
2
100
AcDbEntity
  8
WAKU
100
AcDbLine
 10
0.0
 20
0.0
 30
0.0
 11
44.67747103027135
 21
0.0
 31
0.0
  0
LINE
  5
562
330
2
100
AcDbEntity
  8
WAKU
100
AcDbLine
 10
0.0
 20
7.0
 30
0.0
 11
44.67747103027135
 21
7.0
 31
0.0
  0
TEXT
  5
563
330
2
100
AcDbEntity
  8
HOJO
100
AcDbText
 10
30.34516148760122
 20
2.522193000000015
 30
0.0
 40
3.0
  1
90\U+00D720
  7
SUNPOU
100
AcDbText
  0
LWPOLYLINE
  5
564
330
2
100
AcDbEntity
  8
KIJUN
100
AcDbPolyline
 90
       18
 70
     1
 43
0.0
 10
43.1786362855243
 20
86.05970425033579
 42
0.0040321999689742
 10
42.15812919470586
 20
96.04879077973244
 42
0.3638113132266168
 10
42.15812919470709
 20
101.4279225759104
 10
42.15812919470709
 20
105.9495828187599
 10
40.8542478203545
 20
106.4546237783578
 42
0.1913961421847286
 10
41.99572366049307
 20
109.3273586543044
 10
41.99572366049308
 20
110.0896470966366
 42
0.2512677610440283
 10
40.85424782035504
 20
112.2000935302511
 10
40.85424782035504
 20
118.4546237783578
 10
25.85424782035516
 20
118.4546237783578
 10
25.85424782035516
 20
28.45462377835787
 10
40.85424782035504
 20
28.45462377835787
 10
40.85424782035504
 20
30.28136023712199
 42
0.2831890100261142
 10
41.34650359285278
 20
35.05900888156401
 10
42.70965927158618
 20
35.71503237730025
 10
41.994645329183
 20
38.45462377835786
 42
0.2360460526724149
 10
45.41300298601953
 20
52.70930730178765
 42
0.0112166851161951
 10
43.66909914688795
 20
80.58380406855642
 42
0.374407336796861
  0
ENDSEC
  0
SECTION
  2
OBJECTS
  0
DICTIONARY
  5
9
330
0
100
AcDbDictionary
281
     1
  3
ACAD_COLOR
350
47
  3
ACAD_GROUP
350
3C
  3
ACAD_LAYOUT
350
1F
  3
ACAD_MATERIAL
350
C
  3
ACAD_MLEADERSTYLE
350
4A
  3
ACAD_MLINESTYLE
350
3D
  3
ACAD_PLOTSETTINGS
350
3E
  3
ACAD_PLOTSTYLENAME
350
8
  3
ACAD_SCALELIST
350
48
  3
ACAD_TABLESTYLE
350
49
  3
ACAD_VISUALSTYLE
350
32
  3
ACDB_RECOMPOSE_DATA
350
576
  3
AcDbVariableDictionary
350
569
  0
DICTIONARY
  5
3
330
2
100
AcDbDictionary
280
     1
281
     1
  3
ACAD_LAYOUTSELFREF
360
4
  0
DICTIONARY
  5
21
330
20
100
AcDbDictionary
280
     1
281
     1
  3
ACAD_LAYOUTSELFREF
360
22
  0
DICTIONARY
  5
47
102
{ACAD_REACTORS
330
9
102
}
330
9
100
AcDbDictionary
281
     1
  0
DICTIONARY
  5
3C
102
{ACAD_REACTORS
330
9
102
}
330
9
100
AcDbDictionary
281
     1
  0
DICTIONARY
  5
1F
102
{ACAD_REACTORS
330
9
102
}
330
9
100
AcDbDictionary
281
     1
  3
Model
350
1E
  3
ﾚｲｱｳﾄ1
350
25
  0
DICTIONARY
  5
C
102
{ACAD_REACTORS
330
9
102
}
330
9
100
AcDbDictionary
281
     1
  3
ByBlock
350
3F
  3
ByLayer
350
15
  3
Global
350
B
  0
DICTIONARY
  5
4A
102
{ACAD_REACTORS
330
9
102
}
330
9
100
AcDbDictionary
281
     1
  0
DICTIONARY
  5
3D
102
{ACAD_REACTORS
330
9
102
}
330
9
100
AcDbDictionary
281
     1
  3
STANDARD
350
4C
  0
DICTIONARY
  5
3E
102
{ACAD_REACTORS
330
9
102
}
330
9
100
AcDbDictionary
281
     1
  0
ACDBDICTIONARYWDFLT
  5
8
102
{ACAD_REACTORS
330
9
102
}
330
9
100
AcDbDictionary
281
     1
  3
Normal
350
7
100
AcDbDictionaryWithDefault
340
7
  0
DICTIONARY
  5
48
102
{ACAD_REACTORS
330
9
102
}
330
9
100
AcDbDictionary
281
     1
  3
A0
350
50
  3
A1
350
51
  3
A2
350
52
  3
A3
350
53
  3
A4
350
54
  3
A5
350
55
  3
A6
350
56
  3
A7
350
57
  3
A8
350
58
  3
A9
350
59
  3
B0
350
5A
  3
B1
350
5B
  3
B2
350
5C
  3
B3
350
5D
  3
B4
350
5E
  3
B5
350
5F
  3
B6
350
60
  0
DICTIONARY
  5
49
102
{ACAD_REACTORS
330
9
102
}
330
9
100
AcDbDictionary
281
     1
  3
Standard
350
4D
  0
DICTIONARY
  5
32
102
{ACAD_REACTORS
330
9
102
}
330
9
100
AcDbDictionary
281
     1
  3
2dWireframe
350
31
  3
Realistic
350
4E
  3
Wireframe
350
4F
  0
XRECORD
  5
576
102
{ACAD_REACTORS
330
9
102
}
330
9
100
AcDbXrecord
280
     1
 90
        1
330
4D
  0
DICTIONARY
  5
569
102
{ACAD_REACTORS
330
9
102
}
330
9
100
AcDbDictionary
281
     1
  3
CANNOSCALE
350
56E
  3
CMLEADERSTYLE
350
56B
  3
CTABLESTYLE
350
56A
  3
CVIEWDETAILSTYLE
350
56C
  3
CVIEWSECTIONSTYLE
350
56D
  3
DIMASSOC
350
572
  3
HIDETEXT
350
571
  3
INDEXCTL
350
570
  3
SORTENTS
350
56F
  3
XCLIPFRAME
350
573
  0
XRECORD
  5
4
102
{ACAD_REACTORS
330
3
102
}
330
3
100
AcDbXrecord
280
     1
340
2
  0
XRECORD
  5
22
102
{ACAD_REACTORS
330
21
102
}
330
21
100
AcDbXrecord
280
     1
340
20
  0
LAYOUT
  5
1E
102
{ACAD_XDICTIONARY
360
579
102
}
102
{ACAD_REACTORS
330
1F
102
}
330
1F
100
AcDbPlotSettings
  1

  2
なし
  4

  6

 40
0.0
 41
0.0
 42
0.0
 43
0.0
 44
0.0
 45
0.0
 46
0.0
 47
0.0
 48
0.0
 49
0.0
140
0.0
141
0.0
142
1.0
143
1.0
 70
  1712
 72
     0
 73
     0
 74
     0
  7
monochrome.ctb
 75
     0
147
1.0
148
0.0
149
0.0
100
AcDbLayout
  1
Model
 70
     1
 71
     0
 10
0.0
 20
0.0
 11
12.0
 21
9.0
 12
0.0
 22
0.0
 32
0.0
 14
0.0
 24
0.0
 34
0.0
 15
0.0
 25
0.0
 35
0.0
146
0.0
 13
0.0
 23
0.0
 33
0.0
 16
1.0
 26
0.0
 36
0.0
 17
0.0
 27
1.0
 37
0.0
 76
     0
330
2
  0
LAYOUT
  5
25
102
{ACAD_XDICTIONARY
360
57B
102
}
102
{ACAD_REACTORS
330
1F
102
}
330
1F
100
AcDbPlotSettings
  1

  2
なし
  4

  6

 40
0.0
 41
0.0
 42
0.0
 43
0.0
 44
0.0
 45
0.0
 46
0.0
 47
0.0
 48
0.0
 49
0.0
140
0.0
141
0.0
142
1.0
143
1.0
 70
   688
 72
     0
 73
     0
 74
     5
  7
monochrome.ctb
 75
    16
147
1.0
148
0.0
149
0.0
100
AcDbLayout
  1
ﾚｲｱｳﾄ1
 70
     1
 71
     1
 10
0.0
 20
0.0
 11
12.0
 21
9.0
 12
0.0
 22
0.0
 32
0.0
 14
1.000000000000000E+20
 24
1.000000000000000E+20
 34
1.000000000000000E+20
 15
-1.000000000000000E+20
 25
-1.000000000000000E+20
 35
-1.000000000000000E+20
146
0.0
 13
0.0
 23
0.0
 33
0.0
 16
1.0
 26
0.0
 36
0.0
 17
0.0
 27
1.0
 37
0.0
 76
     0
330
20
  0
MATERIAL
  5
3F
102
{ACAD_XDICTIONARY
360
40
102
}
102
{ACAD_REACTORS
330
C
102
}
330
C
100
AcDbMaterial
  1
ByBlock
 72
     0
 43
0.0208333333333333
 43
0.0
 43
0.0
 43
0.0
 43
0.0
 43
0.0208333333333333
 43
0.0
 43
0.0
 43
0.0
 43
0.0
 43
1.0
 43
0.0
 43
0.0
 43
0.0
 43
0.0
 43
1.0
 77
     0
 47
0.0208333333333333
 47
0.0
 47
0.0
 47
0.0
 47
0.0
 47
0.0208333333333333
 47
0.0
 47
0.0
 47
0.0
 47
0.0
 47
1.0
 47
0.0
 47
0.0
 47
0.0
 47
0.0
 47
1.0
171
     0
 49
0.0208333333333333
 49
0.0
 49
0.0
 49
0.0
 49
0.0
 49
0.0208333333333333
 49
0.0
 49
0.0
 49
0.0
 49
0.0
 49
1.0
 49
0.0
 49
0.0
 49
0.0
 49
0.0
 49
1.0
175
     0
142
0.0208333333333333
142
0.0
142
0.0
142
0.0
142
0.0
142
0.0208333333333333
142
0.0
142
0.0
142
0.0
142
0.0
142
1.0
142
0.0
142
0.0
142
0.0
142
0.0
142
1.0
179
     0
144
0.0208333333333333
144
0.0
144
0.0
144
0.0
144
0.0
144
0.0208333333333333
144
0.0
144
0.0
144
0.0
144
0.0
144
1.0
144
0.0
144
0.0
144
0.0
144
0.0
144
1.0
147
0.0208333333333333
147
0.0
147
0.0
147
0.0
147
0.0
147
0.0208333333333333
147
0.0
147
0.0
147
0.0
147
0.0
147
1.0
147
0.0
147
0.0
147
0.0
147
0.0
147
1.0
  0
MATERIAL
  5
15
102
{ACAD_XDICTIONARY
360
16
102
}
102
{ACAD_REACTORS
330
C
102
}
330
C
100
AcDbMaterial
  1
ByLayer
 72
     0
 43
0.0208333333333333
 43
0.0
 43
0.0
 43
0.0
 43
0.0
 43
0.0208333333333333
 43
0.0
 43
0.0
 43
0.0
 43
0.0
 43
1.0
 43
0.0
 43
0.0
 43
0.0
 43
0.0
 43
1.0
 77
     0
 47
0.0208333333333333
 47
0.0
 47
0.0
 47
0.0
 47
0.0
 47
0.0208333333333333
 47
0.0
 47
0.0
 47
0.0
 47
0.0
 47
1.0
 47
0.0
 47
0.0
 47
0.0
 47
0.0
 47
1.0
171
     0
 49
0.0208333333333333
 49
0.0
 49
0.0
 49
0.0
 49
0.0
 49
0.0208333333333333
 49
0.0
 49
0.0
 49
0.0
 49
0.0
 49
1.0
 49
0.0
 49
0.0
 49
0.0
 49
0.0
 49
1.0
175
     0
142
0.0208333333333333
142
0.0
142
0.0
142
0.0
142
0.0
142
0.0208333333333333
142
0.0
142
0.0
142
0.0
142
0.0
142
1.0
142
0.0
142
0.0
142
0.0
142
0.0
142
1.0
179
     0
144
0.0208333333333333
144
0.0
144
0.0
144
0.0
144
0.0
144
0.0208333333333333
144
0.0
144
0.0
144
0.0
144
0.0
144
1.0
144
0.0
144
0.0
144
0.0
144
0.0
144
1.0
147
0.0208333333333333
147
0.0
147
0.0
147
0.0
147
0.0
147
0.0208333333333333
147
0.0
147
0.0
147
0.0
147
0.0
147
1.0
147
0.0
147
0.0
147
0.0
147
0.0
147
1.0
  0
MATERIAL
  5
B
102
{ACAD_XDICTIONARY
360
D
102
}
102
{ACAD_REACTORS
330
C
102
}
330
C
100
AcDbMaterial
  1
Global
 72
     0
 43
0.0208333333333333
 43
0.0
 43
0.0
 43
0.0
 43
0.0
 43
0.0208333333333333
 43
0.0
 43
0.0
 43
0.0
 43
0.0
 43
1.0
 43
0.0
 43
0.0
 43
0.0
 43
0.0
 43
1.0
 77
     0
 47
0.0208333333333333
 47
0.0
 47
0.0
 47
0.0
 47
0.0
 47
0.0208333333333333
 47
0.0
 47
0.0
 47
0.0
 47
0.0
 47
1.0
 47
0.0
 47
0.0
 47
0.0
 47
0.0
 47
1.0
171
     0
 49
0.0208333333333333
 49
0.0
 49
0.0
 49
0.0
 49
0.0
 49
0.0208333333333333
 49
0.0
 49
0.0
 49
0.0
 49
0.0
 49
1.0
 49
0.0
 49
0.0
 49
0.0
 49
0.0
 49
1.0
175
     0
142
0.0208333333333333
142
0.0
142
0.0
142
0.0
142
0.0
142
0.0208333333333333
142
0.0
142
0.0
142
0.0
142
0.0
142
1.0
142
0.0
142
0.0
142
0.0
142
0.0
142
1.0
179
     0
144
0.0208333333333333
144
0.0
144
0.0
144
0.0
144
0.0
144
0.0208333333333333
144
0.0
144
0.0
144
0.0
144
0.0
144
1.0
144
0.0
144
0.0
144
0.0
144
0.0
144
1.0
147
0.0208333333333333
147
0.0
147
0.0
147
0.0
147
0.0
147
0.0208333333333333
147
0.0
147
0.0
147
0.0
147
0.0
147
1.0
147
0.0
147
0.0
147
0.0
147
0.0
147
1.0
  0
MLINESTYLE
  5
4C
102
{ACAD_REACTORS
330
3D
102
}
330
3D
100
AcDbMlineStyle
  2
STANDARD
 70
     0
  3

 62
   256
 51
90.0
 52
90.0
 71
     2
 49
0.5
 62
   256
  6
BYLAYER
 49
-0.5
 62
   256
  6
BYLAYER
  0
ACDBPLACEHOLDER
  5
7
102
{ACAD_REACTORS
330
8
102
}
330
8
  0
SCALE
  5
50
102
{ACAD_REACTORS
330
48
102
}
330
48
100
AcDbScale
 70
     0
300
1:1
140
1.0
141
1.0
290
     1
  0
SCALE
  5
51
102
{ACAD_REACTORS
330
48
102
}
330
48
100
AcDbScale
 70
     0
300
1/128" = 1'-0"
140
0.0078125
141
12.0
290
     0
  0
SCALE
  5
52
102
{ACAD_REACTORS
330
48
102
}
330
48
100
AcDbScale
 70
     0
300
1/64" = 1'-0"
140
0.015625
141
12.0
290
     0
  0
SCALE
  5
53
102
{ACAD_REACTORS
330
48
102
}
330
48
100
AcDbScale
 70
     0
300
1/32" = 1'-0"
140
0.03125
141
12.0
290
     0
  0
SCALE
  5
54
102
{ACAD_REACTORS
330
48
102
}
330
48
100
AcDbScale
 70
     0
300
1/16" = 1'-0"
140
0.0625
141
12.0
290
     0
  0
SCALE
  5
55
102
{ACAD_REACTORS
330
48
102
}
330
48
100
AcDbScale
 70
     0
300
3/32" = 1'-0"
140
0.09375
141
12.0
290
     0
  0
SCALE
  5
56
102
{ACAD_REACTORS
330
48
102
}
330
48
100
AcDbScale
 70
     0
300
1/8" = 1'-0"
140
0.125
141
12.0
290
     0
  0
SCALE
  5
57
102
{ACAD_REACTORS
330
48
102
}
330
48
100
AcDbScale
 70
     0
300
3/16" = 1'-0"
140
0.1875
141
12.0
290
     0
  0
SCALE
  5
58
102
{ACAD_REACTORS
330
48
102
}
330
48
100
AcDbScale
 70
     0
300
1/4" = 1'-0"
140
0.25
141
12.0
290
     0
  0
SCALE
  5
59
102
{ACAD_REACTORS
330
48
102
}
330
48
100
AcDbScale
 70
     0
300
3/8" = 1'-0"
140
0.375
141
12.0
290
     0
  0
SCALE
  5
5A
102
{ACAD_REACTORS
330
48
102
}
330
48
100
AcDbScale
 70
     0
300
1/2" = 1'-0"
140
0.5
141
12.0
290
     0
  0
SCALE
  5
5B
102
{ACAD_REACTORS
330
48
102
}
330
48
100
AcDbScale
 70
     0
300
3/4" = 1'-0"
140
0.75
141
12.0
290
     0
  0
SCALE
  5
5C
102
{ACAD_REACTORS
330
48
102
}
330
48
100
AcDbScale
 70
     0
300
1" = 1'-0"
140
1.0
141
12.0
290
     0
  0
SCALE
  5
5D
102
{ACAD_REACTORS
330
48
102
}
330
48
100
AcDbScale
 70
     0
300
1-1/2" = 1'-0"
140
1.5
141
12.0
290
     0
  0
SCALE
  5
5E
102
{ACAD_REACTORS
330
48
102
}
330
48
100
AcDbScale
 70
     0
300
3" = 1'-0"
140
3.0
141
12.0
290
     0
  0
SCALE
  5
5F
102
{ACAD_REACTORS
330
48
102
}
330
48
100
AcDbScale
 70
     0
300
6" = 1'-0"
140
6.0
141
12.0
290
     0
  0
SCALE
  5
60
102
{ACAD_REACTORS
330
48
102
}
330
48
100
AcDbScale
 70
     0
300
1'-0" = 1'-0"
140
12.0
141
12.0
290
     0
  0
TABLESTYLE
  5
4D
102
{ACAD_XDICTIONARY
360
574
102
}
102
{ACAD_REACTORS
330
49
102
}
330
49
100
AcDbTableStyle
  3
Standard
 70
     0
 71
     0
 40
0.06
 41
0.06
280
     0
281
     0
  7
STANDARD
140
0.18
170
     2
 62
     0
 63
     7
283
     0
274
    -2
284
     1
 64
     0
275
    -2
285
     1
 65
     0
276
    -2
286
     1
 66
     0
277
    -2
287
     1
 67
     0
278
    -2
288
     1
 68
     0
279
    -2
289
     1
 69
     0
  7
STANDARD
140
0.25
170
     5
 62
     0
 63
     7
283
     0
274
    -2
284
     1
 64
     0
275
    -2
285
     1
 65
     0
276
    -2
286
     1
 66
     0
277
    -2
287
     1
 67
     0
278
    -2
288
     1
 68
     0
279
    -2
289
     1
 69
     0
  7
STANDARD
140
0.18
170
     5
 62
     0
 63
     7
283
     0
274
    -2
284
     1
 64
     0
275
    -2
285
     1
 65
     0
276
    -2
286
     1
 66
     0
277
    -2
287
     1
 67
     0
278
    -2
288
     1
 68
     0
279
    -2
289
     1
 69
     0
  0
VISUALSTYLE
  5
31
102
{ACAD_XDICTIONARY
360
57D
102
}
102
{ACAD_REACTORS
330
32
102
}
330
32
100
AcDbVisualStyle
  2
2dWireframe
 70
     4
 71
     0
 72
     2
 73
     0
 90
        0
 40
-0.6
 41
-30.0
 62
     5
 63
     7
 74
     1
 91
        4
 64
     7
 65
   257
 75
     1
175
     1
 42
1.0
 92
        0
 66
   257
 43
1.0
 76
     1
 77
     6
 78
     2
 67
     7
 79
     5
170
     0
171
     0
290
     0
174
     0
 93
        1
 44
0.0
173
     0
291
     0
 45
0.0
1001
ACAD
1000
AcDbSavedByObjectVersion
1070
     0
  0
VISUALSTYLE
  5
4E
102
{ACAD_XDICTIONARY
360
581
102
}
102
{ACAD_REACTORS
330
32
102
}
330
32
100
AcDbVisualStyle
  2
Realistic
 70
     8
 71
     2
 72
     3
 73
     0
 90
        2
 40
-0.6
 41
30.0
 62
     5
 63
     7
 74
     0
 91
        0
 64
     7
 65
   257
 75
     1
175
     1
 42
1.0
 92
        8
 66
   257
 43
1.0
 76
     1
 77
     6
 78
     2
 67
     7
 79
     3
170
     0
171
     0
290
     0
174
     0
 93
       13
 44
0.0
173
     0
291
     0
 45
0.0
1001
ACAD
1000
AcDbSavedByObjectVersion
1070
     0
  0
VISUALSTYLE
  5
4F
102
{ACAD_XDICTIONARY
360
583
102
}
102
{ACAD_REACTORS
330
32
102
}
330
32
100
AcDbVisualStyle
  2
Wireframe
 70
     5
 71
     0
 72
     2
 73
     0
 90
        0
 40
-0.6
 41
-30.0
 62
     5
 63
     7
 74
     1
 91
        4
 64
     7
 65
   257
 75
     1
175
     1
 42
1.0
 92
        0
 66
   257
 43
1.0
 76
     1
 77
     6
 78
     2
 67
     7
 79
     3
170
     0
171
     0
290
     0
174
     0
 93
        1
 44
0.0
173
     0
291
     0
 45
0.0
1001
ACAD
1000
AcDbSavedByObjectVersion
1070
     0
  0
DICTIONARYVAR
  5
56E
102
{ACAD_REACTORS
330
569
102
}
330
569
100
DictionaryVariables
280
     0
  1
1:1
  0
DICTIONARYVAR
  5
56B
102
{ACAD_REACTORS
330
569
102
}
330
569
100
DictionaryVariables
280
     0
  1
STANDARD
  0
DICTIONARYVAR
  5
56A
102
{ACAD_REACTORS
330
569
102
}
330
569
100
DictionaryVariables
280
     0
  1
STANDARD
  0
DICTIONARYVAR
  5
56C
102
{ACAD_REACTORS
330
569
102
}
330
569
100
DictionaryVariables
280
     0
  1

  0
DICTIONARYVAR
  5
56D
102
{ACAD_REACTORS
330
569
102
}
330
569
100
DictionaryVariables
280
     0
  1

  0
DICTIONARYVAR
  5
572
102
{ACAD_REACTORS
330
569
102
}
330
569
100
DictionaryVariables
280
     0
  1
1
  0
DICTIONARYVAR
  5
571
102
{ACAD_REACTORS
330
569
102
}
330
569
100
DictionaryVariables
280
     0
  1
1
  0
DICTIONARYVAR
  5
570
102
{ACAD_REACTORS
330
569
102
}
330
569
100
DictionaryVariables
280
     0
  1
0
  0
DICTIONARYVAR
  5
56F
102
{ACAD_REACTORS
330
569
102
}
330
569
100
DictionaryVariables
280
     0
  1
127
  0
DICTIONARYVAR
  5
573
102
{ACAD_REACTORS
330
569
102
}
330
569
100
DictionaryVariables
280
     0
  1
2
  0
DICTIONARY
  5
579
330
1E
100
AcDbDictionary
280
     1
281
     1
  3
ACAD_XREC_ROUNDTRIP
360
57A
  0
DICTIONARY
  5
57B
330
25
100
AcDbDictionary
280
     1
281
     1
  3
ACAD_XREC_ROUNDTRIP
360
57C
  0
DICTIONARY
  5
40
330
3F
100
AcDbDictionary
280
     1
281
     1
  3
ACAD_XREC_ROUNDTRIP
360
57F
  3
BUMPTILE
360
41
  3
DIFFUSETILE
360
42
  3
OPACITYTILE
360
43
  3
REFLECTIONTILE
360
44
  3
REFRACTIONTILE
360
45
  3
SPECULARTILE
360
46
  0
DICTIONARY
  5
16
330
15
100
AcDbDictionary
280
     1
281
     1
  3
ACAD_XREC_ROUNDTRIP
360
578
  3
BUMPTILE
360
17
  3
DIFFUSETILE
360
18
  3
OPACITYTILE
360
19
  3
REFLECTIONTILE
360
1A
  3
REFRACTIONTILE
360
1B
  3
SPECULARTILE
360
1C
  0
DICTIONARY
  5
D
330
B
100
AcDbDictionary
280
     1
281
     1
  3
ACAD_XREC_ROUNDTRIP
360
577
  3
BUMPTILE
360
E
  3
DIFFUSETILE
360
F
  3
OPACITYTILE
360
10
  3
REFLECTIONTILE
360
11
  3
REFRACTIONTILE
360
12
  3
SPECULARTILE
360
13
  0
DICTIONARY
  5
574
330
4D
100
AcDbDictionary
280
     1
281
     1
  3
ACAD_ROUNDTRIP_2008_TABLESTYLE_CELLSTYLEMAP
360
575
  3
ACAD_XREC_ROUNDTRIP
360
580
  0
DICTIONARY
  5
57D
330
31
100
AcDbDictionary
280
     1
281
     1
  3
ACAD_XREC_ROUNDTRIP
360
57E
  0
DICTIONARY
  5
581
330
4E
100
AcDbDictionary
280
     1
281
     1
  3
ACAD_XREC_ROUNDTRIP
360
582
  0
DICTIONARY
  5
583
330
4F
100
AcDbDictionary
280
     1
281
     1
  3
ACAD_XREC_ROUNDTRIP
360
584
  0
XRECORD
  5
57A
102
{ACAD_REACTORS
330
579
102
}
330
579
100
AcDbXrecord
280
     1
102
SHADEPLOT
 70
     0
102
SHADEPLOTRESLEVEL
 70
     2
102
SHADEPLOTCUSTOMDPI
 70
   300
  0
XRECORD
  5
57C
102
{ACAD_REACTORS
330
57B
102
}
330
57B
100
AcDbXrecord
280
     1
102
SHADEPLOT
 70
     0
102
SHADEPLOTRESLEVEL
 70
     2
102
SHADEPLOTCUSTOMDPI
 70
   300
  0
XRECORD
  5
57F
102
{ACAD_REACTORS
330
40
102
}
330
40
100
AcDbXrecord
280
     1
102
MATERIAL
148
0.0
149
0.0
149
0.0
 93
        0
 94
      127
282
     0
 72
     0
 77
     0
171
     0
175
     0
179
     0
273
     0
  0
XRECORD
  5
41
102
{ACAD_REACTORS
330
40
102
}
330
40
100
AcDbXrecord
280
     1
270
     1
271
     1
  0
XRECORD
  5
42
102
{ACAD_REACTORS
330
40
102
}
330
40
100
AcDbXrecord
280
     1
270
     1
271
     1
  0
XRECORD
  5
43
102
{ACAD_REACTORS
330
40
102
}
330
40
100
AcDbXrecord
280
     1
270
     1
271
     1
  0
XRECORD
  5
44
102
{ACAD_REACTORS
330
40
102
}
330
40
100
AcDbXrecord
280
     1
270
     1
271
     1
  0
XRECORD
  5
45
102
{ACAD_REACTORS
330
40
102
}
330
40
100
AcDbXrecord
280
     1
270
     1
271
     1
  0
XRECORD
  5
46
102
{ACAD_REACTORS
330
40
102
}
330
40
100
AcDbXrecord
280
     1
270
     1
271
     1
  0
XRECORD
  5
578
102
{ACAD_REACTORS
330
16
102
}
330
16
100
AcDbXrecord
280
     1
102
MATERIAL
148
0.0
149
0.0
149
0.0
 93
        0
 94
      127
282
     0
 72
     0
 77
     0
171
     0
175
     0
179
     0
273
     0
  0
XRECORD
  5
17
102
{ACAD_REACTORS
330
16
102
}
330
16
100
AcDbXrecord
280
     1
270
     1
271
     1
  0
XRECORD
  5
18
102
{ACAD_REACTORS
330
16
102
}
330
16
100
AcDbXrecord
280
     1
270
     1
271
     1
  0
XRECORD
  5
19
102
{ACAD_REACTORS
330
16
102
}
330
16
100
AcDbXrecord
280
     1
270
     1
271
     1
  0
XRECORD
  5
1A
102
{ACAD_REACTORS
330
16
102
}
330
16
100
AcDbXrecord
280
     1
270
     1
271
     1
  0
XRECORD
  5
1B
102
{ACAD_REACTORS
330
16
102
}
330
16
100
AcDbXrecord
280
     1
270
     1
271
     1
  0
XRECORD
  5
1C
102
{ACAD_REACTORS
330
16
102
}
330
16
100
AcDbXrecord
280
     1
270
     1
271
     1
  0
XRECORD
  5
577
102
{ACAD_REACTORS
330
D
102
}
330
D
100
AcDbXrecord
280
     1
102
MATERIAL
148
0.0
149
0.0
149
0.0
 93
        0
 94
      127
282
     0
 72
     0
 77
     0
171
     0
175
     0
179
     0
273
     0
  0
XRECORD
  5
E
102
{ACAD_REACTORS
330
D
102
}
330
D
100
AcDbXrecord
280
     1
270
     1
271
     1
  0
XRECORD
  5
F
102
{ACAD_REACTORS
330
D
102
}
330
D
100
AcDbXrecord
280
     1
270
     1
271
     1
  0
XRECORD
  5
10
102
{ACAD_REACTORS
330
D
102
}
330
D
100
AcDbXrecord
280
     1
270
     1
271
     1
  0
XRECORD
  5
11
102
{ACAD_REACTORS
330
D
102
}
330
D
100
AcDbXrecord
280
     1
270
     1
271
     1
  0
XRECORD
  5
12
102
{ACAD_REACTORS
330
D
102
}
330
D
100
AcDbXrecord
280
     1
270
     1
271
     1
  0
XRECORD
  5
13
102
{ACAD_REACTORS
330
D
102
}
330
D
100
AcDbXrecord
280
     1
270
     1
271
     1
  0
CELLSTYLEMAP
  5
575
102
{ACAD_REACTORS
330
574
102
}
330
574
100
AcDbCellStyleMap
 90
        3
300
CELLSTYLE
  1
TABLEFORMAT_BEGIN
 90
        5
170
     1
 91
        0
 92
    32768
 62
   257
 93
        1
300
CONTENTFORMAT
  1
CONTENTFORMAT_BEGIN
 90
        0
 91
        0
 92
        4
 93
        0
300

 40
0.0
140
1.0
 94
        5
 62
     0
340
28
144
0.25
309
CONTENTFORMAT_END
171
     0
 94
        6
 95
        1
302
GRIDFORMAT
  1
GRIDFORMAT_BEGIN
 90
        0
 91
        1
 62
     0
 92
       -2
340
0
 93
        0
 40
0.045
309
GRIDFORMAT_END
 95
        2
302
GRIDFORMAT
  1
GRIDFORMAT_BEGIN
 90
        0
 91
        1
 62
     0
 92
       -2
340
0
 93
        0
 40
0.045
309
GRIDFORMAT_END
 95
        4
302
GRIDFORMAT
  1
GRIDFORMAT_BEGIN
 90
        0
 91
        1
 62
     0
 92
       -2
340
0
 93
        0
 40
0.045
309
GRIDFORMAT_END
 95
        8
302
GRIDFORMAT
  1
GRIDFORMAT_BEGIN
 90
        0
 91
        1
 62
     0
 92
       -2
340
0
 93
        0
 40
0.045
309
GRIDFORMAT_END
 95
       16
302
GRIDFORMAT
  1
GRIDFORMAT_BEGIN
 90
        0
 91
        1
 62
     0
 92
       -2
340
0
 93
        0
 40
0.045
309
GRIDFORMAT_END
 95
       32
302
GRIDFORMAT
  1
GRIDFORMAT_BEGIN
 90
        0
 91
        1
 62
     0
 92
       -2
340
0
 93
        0
 40
0.045
309
GRIDFORMAT_END
309
TABLEFORMAT_END
  1
CELLSTYLE_BEGIN
 90
        1
 91
        1
300
_TITLE
309
CELLSTYLE_END
300
CELLSTYLE
  1
TABLEFORMAT_BEGIN
 90
        5
170
     1
 91
        0
 92
        0
 62
   257
 93
        1
300
CONTENTFORMAT
  1
CONTENTFORMAT_BEGIN
 90
        0
 91
        0
 92
        4
 93
        0
300

 40
0.0
140
1.0
 94
        5
 62
     0
340
28
144
0.18
309
CONTENTFORMAT_END
171
     0
 94
        6
 95
        1
302
GRIDFORMAT
  1
GRIDFORMAT_BEGIN
 90
        0
 91
        1
 62
     0
 92
       -2
340
0
 93
        0
 40
0.045
309
GRIDFORMAT_END
 95
        2
302
GRIDFORMAT
  1
GRIDFORMAT_BEGIN
 90
        0
 91
        1
 62
     0
 92
       -2
340
0
 93
        0
 40
0.045
309
GRIDFORMAT_END
 95
        4
302
GRIDFORMAT
  1
GRIDFORMAT_BEGIN
 90
        0
 91
        1
 62
     0
 92
       -2
340
0
 93
        0
 40
0.045
309
GRIDFORMAT_END
 95
        8
302
GRIDFORMAT
  1
GRIDFORMAT_BEGIN
 90
        0
 91
        1
 62
     0
 92
       -2
340
0
 93
        0
 40
0.045
309
GRIDFORMAT_END
 95
       16
302
GRIDFORMAT
  1
GRIDFORMAT_BEGIN
 90
        0
 91
        1
 62
     0
 92
       -2
340
0
 93
        0
 40
0.045
309
GRIDFORMAT_END
 95
       32
302
GRIDFORMAT
  1
GRIDFORMAT_BEGIN
 90
        0
 91
        1
 62
     0
 92
       -2
340
0
 93
        0
 40
0.045
309
GRIDFORMAT_END
309
TABLEFORMAT_END
  1
CELLSTYLE_BEGIN
 90
        2
 91
        1
300
_HEADER
309
CELLSTYLE_END
300
CELLSTYLE
  1
TABLEFORMAT_BEGIN
 90
        5
170
     1
 91
        0
 92
        0
 62
   257
 93
        1
300
CONTENTFORMAT
  1
CONTENTFORMAT_BEGIN
 90
        0
 91
        0
 92
        4
 93
        0
300

 40
0.0
140
1.0
 94
        2
 62
     0
340
28
144
0.18
309
CONTENTFORMAT_END
171
     0
 94
        6
 95
        1
302
GRIDFORMAT
  1
GRIDFORMAT_BEGIN
 90
        0
 91
        1
 62
     0
 92
       -2
340
0
 93
        0
 40
0.045
309
GRIDFORMAT_END
 95
        2
302
GRIDFORMAT
  1
GRIDFORMAT_BEGIN
 90
        0
 91
        1
 62
     0
 92
       -2
340
0
 93
        0
 40
0.045
309
GRIDFORMAT_END
 95
        4
302
GRIDFORMAT
  1
GRIDFORMAT_BEGIN
 90
        0
 91
        1
 62
     0
 92
       -2
340
0
 93
        0
 40
0.045
309
GRIDFORMAT_END
 95
        8
302
GRIDFORMAT
  1
GRIDFORMAT_BEGIN
 90
        0
 91
        1
 62
     0
 92
       -2
340
0
 93
        0
 40
0.045
309
GRIDFORMAT_END
 95
       16
302
GRIDFORMAT
  1
GRIDFORMAT_BEGIN
 90
        0
 91
        1
 62
     0
 92
       -2
340
0
 93
        0
 40
0.045
309
GRIDFORMAT_END
 95
       32
302
GRIDFORMAT
  1
GRIDFORMAT_BEGIN
 90
        0
 91
        1
 62
     0
 92
       -2
340
0
 93
        0
 40
0.045
309
GRIDFORMAT_END
309
TABLEFORMAT_END
  1
CELLSTYLE_BEGIN
 90
        3
 91
        2
300
_DATA
309
CELLSTYLE_END
  0
XRECORD
  5
580
102
{ACAD_REACTORS
330
574
102
}
330
574
100
AcDbXrecord
280
     1
102
ACAD_ROUNDTRIP_PRE2007_TABLESTYLE
 90
        4
 91
        0
  1

 92
        4
 93
        0
  2

 94
        4
 95
        0
  3

  0
XRECORD
  5
57E
102
{ACAD_REACTORS
330
57D
102
}
330
57D
100
AcDbXrecord
280
     1
102
RTVSPost2010Prop28
280
     1
102
RTVSPost2010PropOp28
 70
     1
102
RTVSPost2010Prop29
280
     1
102
RTVSPost2010PropOp29
 70
     1
102
RTVSPost2010Prop30
280
     0
102
RTVSPost2010PropOp30
 70
     1
102
RTVSPost2010Prop31
280
     0
102
RTVSPost2010PropOp31
 70
     1
102
RTVSPost2010Prop32
280
     0
102
RTVSPost2010PropOp32
 70
     1
102
RTVSPost2010Prop33
280
     0
102
RTVSPost2010PropOp33
 70
     1
102
RTVSPost2010Prop34
280
     0
102
RTVSPost2010PropOp34
 70
     1
102
RTVSPost2010Prop35
280
     0
102
RTVSPost2010PropOp35
 70
     1
102
RTVSPost2010Prop36
280
     0
102
RTVSPost2010PropOp36
 70
     1
102
RTVSPost2010Prop37
 90
       50
102
RTVSPost2010PropOp37
 70
     1
102
RTVSPost2010Prop38
140
0.0
102
RTVSPost2010PropOp38
 70
     1
102
RTVSPost2010Prop39
140
1.0
102
RTVSPost2010PropOp39
 70
     1
102
RTVSPost2010Prop40
 90
        0
102
RTVSPost2010PropOp40
 70
     1
102
RTVSPost2010Prop41ColorIndex
 90
       18
102
RTVSPost2010Prop41ColorRGB
 90
        0
102
RTVSPost2010PropOp41
 70
     1
102
RTVSPost2010Prop42
 90
       50
102
RTVSPost2010PropOp42
 70
     1
102
RTVSPost2010Prop43
 90
        3
102
RTVSPost2010PropOp43
 70
     1
102
RTVSPost2010Prop44ColorIndex
 90
        5
102
RTVSPost2010Prop44ColorRGB
 90
      255
102
RTVSPost2010PropOp44
 70
     1
102
RTVSPost2010Prop45
280
     0
102
RTVSPost2010PropOp45
 70
     1
102
RTVSPost2010Prop46
 90
       50
102
RTVSPost2010PropOp46
 70
     1
102
RTVSPost2010Prop47
 90
       50
102
RTVSPost2010PropOp47
 70
     1
102
RTVSPost2010Prop48
 90
       50
102
RTVSPost2010PropOp48
 70
     1
102
RTVSPost2010Prop49
280
     0
102
RTVSPost2010PropOp49
 70
     1
102
RTVSPost2010Prop50
 90
       50
102
RTVSPost2010PropOp50
 70
     1
102
RTVSPost2010Prop51ColorIndex
 90
      256
102
RTVSPost2010Prop51ColorRGB
 90
-16777216
102
RTVSPost2010PropOp51
 70
     0
102
RTVSPost2010Prop52
140
1.0
102
RTVSPost2010PropOp52
 70
     0
102
RTVSPost2010Prop53
 90
        2
102
RTVSPost2010PropOp53
 70
     1
102
RTVSPost2010Prop54
  1
strokes_ogs.tif
102
RTVSPost2010PropOp54
 70
     1
102
RTVSPost2010Prop55
280
     0
102
RTVSPost2010PropOp55
 70
     1
102
RTVSPost2010Prop56
140
1.0
102
RTVSPost2010PropOp56
 70
     1
102
RTVSPost2010Prop57
140
1.0
102
RTVSPost2010PropOp57
 70
     1
102
RTVSPropertyOp0
 70
     1
102
RTVSPropertyOp1
 70
     1
102
RTVSPropertyOp2
 70
     1
102
RTVSPropertyOp3
 70
     1
102
RTVSPropertyOp4
 70
     1
102
RTVSPropertyOp5
 70
     1
102
RTVSPropertyOp6
 70
     1
102
RTVSPropertyOp7
 70
     1
102
RTVSPropertyOp8
 70
     1
102
RTVSPropertyOp9
 70
     1
102
RTVSPropertyOp10
 70
     1
102
RTVSPropertyOp11
 70
     1
102
RTVSPropertyOp12
 70
     1
102
RTVSPropertyOp13
 70
     1
102
RTVSPropertyOp14
 70
     1
102
RTVSPropertyOp15
 70
     1
102
RTVSPropertyOp16
 70
     1
102
RTVSPropertyOp17
 70
     1
102
RTVSPropertyOp18
 70
     1
102
RTVSPropertyOp19
 70
     1
102
RTVSPropertyOp20
 70
     1
102
RTVSPropertyOp21
 70
     1
102
RTVSPropertyOp22
 70
     1
102
RTVSPropertyOp23
 70
     1
102
RTVSPropertyOp24
 70
     1
102
RTVSPropertyOp25
 70
     1
102
RTVSPropertyOp26
 70
     1
102
RTVSPropertyOp27
 70
     1
102
RTVSPropertyOp28
 70
     1
102
RTVSPropertyOp29
 70
     1
102
RTVSPropertyOp30
 70
     1
102
RTVSPropertyOp31
 70
     1
102
RTVSPropertyOp32
 70
     1
102
RTVSPropertyOp33
 70
     1
102
RTVSPropertyOp34
 70
     1
102
RTVSPropertyOp35
 70
     1
102
RTVSPropertyOp36
 70
     1
102
RTVSPropertyOp37
 70
     1
102
RTVSPropertyOp38
 70
     1
102
RTVSPropertyOp39
 70
     1
102
RTVSPropertyOp40
 70
     1
102
RTVSPropertyOp41
 70
     1
102
RTVSPropertyOp42
 70
     1
102
RTVSPropertyOp43
 70
     1
102
RTVSPropertyOp44
 70
     1
102
RTVSPropertyOp45
 70
     1
102
RTVSPropertyOp46
 70
     1
102
RTVSPropertyOp47
 70
     1
102
RTVSPropertyOp48
 70
     1
102
RTVSPropertyOp49
 70
     1
102
RTVSPropertyOp50
 70
     1
102
RTVSPropertyOp51
 70
     0
102
RTVSPropertyOp52
 70
     0
102
RTVSPropertyOp53
 70
     1
102
RTVSPropertyOp54
 70
     1
102
RTVSPropertyOp55
 70
     1
102
RTVSPropertyOp56
 70
     1
102
RTVSPropertyOp57
 70
     1
102
RTVSPropertyOp58
 70
     1
102
RTVSPropertyOp59
 70
     1
102
RTVSPropertyOp60
 70
     1
102
RTVSPropertyOp61
 70
     1
102
RTVSPropertyOp62
 70
     1
  0
XRECORD
  5
582
102
{ACAD_REACTORS
330
581
102
}
330
581
100
AcDbXrecord
280
     1
102
RTVSPost2010Prop28
280
     0
102
RTVSPost2010PropOp28
 70
     1
102
RTVSPost2010Prop29
280
     1
102
RTVSPost2010PropOp29
 70
     1
102
RTVSPost2010Prop30
280
     1
102
RTVSPost2010PropOp30
 70
     1
102
RTVSPost2010Prop31
280
     0
102
RTVSPost2010PropOp31
 70
     1
102
RTVSPost2010Prop32
280
     0
102
RTVSPost2010PropOp32
 70
     1
102
RTVSPost2010Prop33
280
     0
102
RTVSPost2010PropOp33
 70
     1
102
RTVSPost2010Prop34
280
     0
102
RTVSPost2010PropOp34
 70
     1
102
RTVSPost2010Prop35
280
     0
102
RTVSPost2010PropOp35
 70
     1
102
RTVSPost2010Prop36
280
     0
102
RTVSPost2010PropOp36
 70
     1
102
RTVSPost2010Prop37
 90
       50
102
RTVSPost2010PropOp37
 70
     1
102
RTVSPost2010Prop38
140
0.0
102
RTVSPost2010PropOp38
 70
     1
102
RTVSPost2010Prop39
140
1.0
102
RTVSPost2010PropOp39
 70
     1
102
RTVSPost2010Prop40
 90
        0
102
RTVSPost2010PropOp40
 70
     1
102
RTVSPost2010Prop41ColorIndex
 90
       18
102
RTVSPost2010Prop41ColorRGB
 90
        0
102
RTVSPost2010PropOp41
 70
     1
102
RTVSPost2010Prop42
 90
       50
102
RTVSPost2010PropOp42
 70
     1
102
RTVSPost2010Prop43
 90
        3
102
RTVSPost2010PropOp43
 70
     1
102
RTVSPost2010Prop44ColorIndex
 90
        5
102
RTVSPost2010Prop44ColorRGB
 90
      255
102
RTVSPost2010PropOp44
 70
     1
102
RTVSPost2010Prop45
280
     0
102
RTVSPost2010PropOp45
 70
     1
102
RTVSPost2010Prop46
 90
       50
102
RTVSPost2010PropOp46
 70
     1
102
RTVSPost2010Prop47
 90
       50
102
RTVSPost2010PropOp47
 70
     1
102
RTVSPost2010Prop48
 90
       50
102
RTVSPost2010PropOp48
 70
     1
102
RTVSPost2010Prop49
280
     0
102
RTVSPost2010PropOp49
 70
     1
102
RTVSPost2010Prop50
 90
       50
102
RTVSPost2010PropOp50
 70
     1
102
RTVSPost2010Prop51ColorIndex
 90
      256
102
RTVSPost2010Prop51ColorRGB
 90
-16777216
102
RTVSPost2010PropOp51
 70
     0
102
RTVSPost2010Prop52
140
1.0
102
RTVSPost2010PropOp52
 70
     0
102
RTVSPost2010Prop53
 90
        2
102
RTVSPost2010PropOp53
 70
     1
102
RTVSPost2010Prop54
  1
strokes_ogs.tif
102
RTVSPost2010PropOp54
 70
     1
102
RTVSPost2010Prop55
280
     0
102
RTVSPost2010PropOp55
 70
     1
102
RTVSPost2010Prop56
140
1.0
102
RTVSPost2010PropOp56
 70
     1
102
RTVSPost2010Prop57
140
1.0
102
RTVSPost2010PropOp57
 70
     1
102
RTVSPropertyOp0
 70
     1
102
RTVSPropertyOp1
 70
     1
102
RTVSPropertyOp2
 70
     1
102
RTVSPropertyOp3
 70
     1
102
RTVSPropertyOp4
 70
     1
102
RTVSPropertyOp5
 70
     1
102
RTVSPropertyOp6
 70
     1
102
RTVSPropertyOp7
 70
     1
102
RTVSPropertyOp8
 70
     1
102
RTVSPropertyOp9
 70
     1
102
RTVSPropertyOp10
 70
     1
102
RTVSPropertyOp11
 70
     1
102
RTVSPropertyOp12
 70
     1
102
RTVSPropertyOp13
 70
     1
102
RTVSPropertyOp14
 70
     1
102
RTVSPropertyOp15
 70
     1
102
RTVSPropertyOp16
 70
     1
102
RTVSPropertyOp17
 70
     1
102
RTVSPropertyOp18
 70
     1
102
RTVSPropertyOp19
 70
     1
102
RTVSPropertyOp20
 70
     1
102
RTVSPropertyOp21
 70
     1
102
RTVSPropertyOp22
 70
     1
102
RTVSPropertyOp23
 70
     1
102
RTVSPropertyOp24
 70
     1
102
RTVSPropertyOp25
 70
     1
102
RTVSPropertyOp26
 70
     1
102
RTVSPropertyOp27
 70
     1
102
RTVSPropertyOp28
 70
     1
102
RTVSPropertyOp29
 70
     1
102
RTVSPropertyOp30
 70
     1
102
RTVSPropertyOp31
 70
     1
102
RTVSPropertyOp32
 70
     1
102
RTVSPropertyOp33
 70
     1
102
RTVSPropertyOp34
 70
     1
102
RTVSPropertyOp35
 70
     1
102
RTVSPropertyOp36
 70
     1
102
RTVSPropertyOp37
 70
     1
102
RTVSPropertyOp38
 70
     1
102
RTVSPropertyOp39
 70
     1
102
RTVSPropertyOp40
 70
     1
102
RTVSPropertyOp41
 70
     1
102
RTVSPropertyOp42
 70
     1
102
RTVSPropertyOp43
 70
     1
102
RTVSPropertyOp44
 70
     1
102
RTVSPropertyOp45
 70
     1
102
RTVSPropertyOp46
 70
     1
102
RTVSPropertyOp47
 70
     1
102
RTVSPropertyOp48
 70
     1
102
RTVSPropertyOp49
 70
     1
102
RTVSPropertyOp50
 70
     1
102
RTVSPropertyOp51
 70
     0
102
RTVSPropertyOp52
 70
     0
102
RTVSPropertyOp53
 70
     1
102
RTVSPropertyOp54
 70
     1
102
RTVSPropertyOp55
 70
     1
102
RTVSPropertyOp56
 70
     1
102
RTVSPropertyOp57
 70
     1
102
RTVSPropertyOp58
 70
     1
102
RTVSPropertyOp59
 70
     1
102
RTVSPropertyOp60
 70
     1
102
RTVSPropertyOp61
 70
     1
102
RTVSPropertyOp62
 70
     1
  0
XRECORD
  5
584
102
{ACAD_REACTORS
330
583
102
}
330
583
100
AcDbXrecord
280
     1
102
RTVSPost2010Prop28
280
     0
102
RTVSPost2010PropOp28
 70
     1
102
RTVSPost2010Prop29
280
     1
102
RTVSPost2010PropOp29
 70
     1
102
RTVSPost2010Prop30
280
     1
102
RTVSPost2010PropOp30
 70
     1
102
RTVSPost2010Prop31
280
     0
102
RTVSPost2010PropOp31
 70
     1
102
RTVSPost2010Prop32
280
     0
102
RTVSPost2010PropOp32
 70
     1
102
RTVSPost2010Prop33
280
     0
102
RTVSPost2010PropOp33
 70
     1
102
RTVSPost2010Prop34
280
     0
102
RTVSPost2010PropOp34
 70
     1
102
RTVSPost2010Prop35
280
     0
102
RTVSPost2010PropOp35
 70
     1
102
RTVSPost2010Prop36
280
     0
102
RTVSPost2010PropOp36
 70
     1
102
RTVSPost2010Prop37
 90
       50
102
RTVSPost2010PropOp37
 70
     1
102
RTVSPost2010Prop38
140
0.0
102
RTVSPost2010PropOp38
 70
     1
102
RTVSPost2010Prop39
140
1.0
102
RTVSPost2010PropOp39
 70
     1
102
RTVSPost2010Prop40
 90
        0
102
RTVSPost2010PropOp40
 70
     1
102
RTVSPost2010Prop41ColorIndex
 90
       18
102
RTVSPost2010Prop41ColorRGB
 90
        0
102
RTVSPost2010PropOp41
 70
     1
102
RTVSPost2010Prop42
 90
       50
102
RTVSPost2010PropOp42
 70
     1
102
RTVSPost2010Prop43
 90
        3
102
RTVSPost2010PropOp43
 70
     1
102
RTVSPost2010Prop44ColorIndex
 90
        5
102
RTVSPost2010Prop44ColorRGB
 90
      255
102
RTVSPost2010PropOp44
 70
     1
102
RTVSPost2010Prop45
280
     0
102
RTVSPost2010PropOp45
 70
     1
102
RTVSPost2010Prop46
 90
       50
102
RTVSPost2010PropOp46
 70
     1
102
RTVSPost2010Prop47
 90
       50
102
RTVSPost2010PropOp47
 70
     1
102
RTVSPost2010Prop48
 90
       50
102
RTVSPost2010PropOp48
 70
     1
102
RTVSPost2010Prop49
280
     0
102
RTVSPost2010PropOp49
 70
     1
102
RTVSPost2010Prop50
 90
       50
102
RTVSPost2010PropOp50
 70
     1
102
RTVSPost2010Prop51ColorIndex
 90
      256
102
RTVSPost2010Prop51ColorRGB
 90
-16777216
102
RTVSPost2010PropOp51
 70
     0
102
RTVSPost2010Prop52
140
1.0
102
RTVSPost2010PropOp52
 70
     0
102
RTVSPost2010Prop53
 90
        2
102
RTVSPost2010PropOp53
 70
     1
102
RTVSPost2010Prop54
  1
strokes_ogs.tif
102
RTVSPost2010PropOp54
 70
     1
102
RTVSPost2010Prop55
280
     0
102
RTVSPost2010PropOp55
 70
     1
102
RTVSPost2010Prop56
140
1.0
102
RTVSPost2010PropOp56
 70
     1
102
RTVSPost2010Prop57
140
1.0
102
RTVSPost2010PropOp57
 70
     1
102
RTVSPropertyOp0
 70
     1
102
RTVSPropertyOp1
 70
     1
102
RTVSPropertyOp2
 70
     1
102
RTVSPropertyOp3
 70
     1
102
RTVSPropertyOp4
 70
     1
102
RTVSPropertyOp5
 70
     1
102
RTVSPropertyOp6
 70
     1
102
RTVSPropertyOp7
 70
     1
102
RTVSPropertyOp8
 70
     1
102
RTVSPropertyOp9
 70
     1
102
RTVSPropertyOp10
 70
     1
102
RTVSPropertyOp11
 70
     1
102
RTVSPropertyOp12
 70
     1
102
RTVSPropertyOp13
 70
     1
102
RTVSPropertyOp14
 70
     1
102
RTVSPropertyOp15
 70
     1
102
RTVSPropertyOp16
 70
     1
102
RTVSPropertyOp17
 70
     1
102
RTVSPropertyOp18
 70
     1
102
RTVSPropertyOp19
 70
     1
102
RTVSPropertyOp20
 70
     1
102
RTVSPropertyOp21
 70
     1
102
RTVSPropertyOp22
 70
     1
102
RTVSPropertyOp23
 70
     1
102
RTVSPropertyOp24
 70
     1
102
RTVSPropertyOp25
 70
     1
102
RTVSPropertyOp26
 70
     1
102
RTVSPropertyOp27
 70
     1
102
RTVSPropertyOp28
 70
     1
102
RTVSPropertyOp29
 70
     1
102
RTVSPropertyOp30
 70
     1
102
RTVSPropertyOp31
 70
     1
102
RTVSPropertyOp32
 70
     1
102
RTVSPropertyOp33
 70
     1
102
RTVSPropertyOp34
 70
     1
102
RTVSPropertyOp35
 70
     1
102
RTVSPropertyOp36
 70
     1
102
RTVSPropertyOp37
 70
     1
102
RTVSPropertyOp38
 70
     1
102
RTVSPropertyOp39
 70
     1
102
RTVSPropertyOp40
 70
     1
102
RTVSPropertyOp41
 70
     1
102
RTVSPropertyOp42
 70
     1
102
RTVSPropertyOp43
 70
     1
102
RTVSPropertyOp44
 70
     1
102
RTVSPropertyOp45
 70
     1
102
RTVSPropertyOp46
 70
     1
102
RTVSPropertyOp47
 70
     1
102
RTVSPropertyOp48
 70
     1
102
RTVSPropertyOp49
 70
     1
102
RTVSPropertyOp50
 70
     1
102
RTVSPropertyOp51
 70
     0
102
RTVSPropertyOp52
 70
     0
102
RTVSPropertyOp53
 70
     1
102
RTVSPropertyOp54
 70
     1
102
RTVSPropertyOp55
 70
     1
102
RTVSPropertyOp56
 70
     1
102
RTVSPropertyOp57
 70
     1
102
RTVSPropertyOp58
 70
     1
102
RTVSPropertyOp59
 70
     1
102
RTVSPropertyOp60
 70
     1
102
RTVSPropertyOp61
 70
     1
102
RTVSPropertyOp62
 70
     1
  0
ENDSEC
  0
EOF
