  0
SECTION
  2
HEADER
  9
$ACADVER
  1
AC1015
  9
$ACADMAINTVER
 70
    18
  9
$DWGCODEPAGE
  3
ANSI_932
  9
$INSBASE
 10
0.0
 20
0.0
 30
0.0
  9
$EXTMIN
 10
-6.733544019136068
 20
0.0
 30
0.0
  9
$EXTMAX
 10
545.2745205212659
 20
150.9347924636494
 30
0.0
  9
$LIMMIN
 10
0.0
 20
0.0
  9
$LIMMAX
 10
420.0
 20
297.0
  9
$ORTHOMODE
 70
     1
  9
$REGENMODE
 70
     1
  9
$FILLMODE
 70
     1
  9
$QTEXTMODE
 70
     0
  9
$MIRRTEXT
 70
     1
  9
$LTSCALE
 40
1.0
  9
$ATTMODE
 70
     1
  9
$TEXTSIZE
 40
30.0
  9
$TRACEWID
 40
0.05
  9
$TEXTSTYLE
  7
SUNPOU
  9
$CLAYER
  8
0
  9
$CELTYPE
  6
BYLAYER
  9
$CECOLOR
 62
     7
  9
$CELTSCALE
 40
1.0
  9
$DISPSILH
 70
     0
  9
$DIMSCALE
 40
1.0
  9
$DIMASZ
 40
3.0
  9
$DIMEXO
 40
2.0
  9
$DIMDLI
 40
0.38
  9
$DIMRND
 40
0.0
  9
$DIMDLE
 40
0.0
  9
$DIMEXE
 40
0.0
  9
$DIMTP
 40
0.0
  9
$DIMTM
 40
0.0
  9
$DIMTXT
 40
7.0
  9
$DIMCEN
 40
1.0
  9
$DIMTSZ
 40
0.0
  9
$DIMTOL
 70
     0
  9
$DIMLIM
 70
     0
  9
$DIMTIH
 70
     0
  9
$DIMTOH
 70
     0
  9
$DIMSE1
 70
     0
  9
$DIMSE2
 70
     0
  9
$DIMTAD
 70
     1
  9
$DIMZIN
 70
     0
  9
$DIMBLK
  1

  9
$DIMASO
 70
     1
  9
$DIMSHO
 70
     1
  9
$DIMPOST
  1

  9
$DIMAPOST
  1

  9
$DIMALT
 70
     0
  9
$DIMALTD
 70
     2
  9
$DIMALTF
 40
25.4
  9
$DIMLFAC
 40
1.0
  9
$DIMTOFL
 70
     0
  9
$DIMTVP
 40
0.0
  9
$DIMTIX
 70
     1
  9
$DIMSOXD
 70
     0
  9
$DIMSAH
 70
     1
  9
$DIMBLK1
  1
DOTSMALL
  9
$DIMBLK2
  1
DOTSMALL
  9
$DIMSTYLE
  2
1
  9
$DIMCLRD
 70
    60
  9
$DIMCLRE
 70
    70
  9
$DIMCLRT
 70
    60
  9
$DIMTFAC
 40
0.0642857142857143
  9
$DIMGAP
 40
1.0
  9
$DIMJUST
 70
     0
  9
$DIMSD1
 70
     0
  9
$DIMSD2
 70
     0
  9
$DIMTOLJ
 70
     1
  9
$DIMTZIN
 70
     0
  9
$DIMALTZ
 70
     0
  9
$DIMALTTZ
 70
     0
  9
$DIMUPT
 70
     0
  9
$DIMDEC
 70
     0
  9
$DIMTDEC
 70
     4
  9
$DIMALTU
 70
     2
  9
$DIMALTTD
 70
     2
  9
$DIMTXSTY
  7
STANDARD
  9
$DIMAUNIT
 70
     0
  9
$DIMADEC
 70
     0
  9
$DIMALTRND
 40
0.0
  9
$DIMAZIN
 70
     0
  9
$DIMDSEP
 70
    46
  9
$DIMATFIT
 70
     3
  9
$DIMFRAC
 70
     0
  9
$DIMLDRBLK
  1
DOTSMALL
  9
$DIMLUNIT
 70
     2
  9
$DIMLWD
 70
    -2
  9
$DIMLWE
 70
    -2
  9
$DIMTMOVE
 70
     0
  9
$LUNITS
 70
     4
  9
$LUPREC
 70
     4
  9
$SKETCHINC
 40
0.1
  9
$FILLETRAD
 40
3.0
  9
$AUNITS
 70
     0
  9
$AUPREC
 70
     2
  9
$MENU
  1
acad
  9
$ELEVATION
 40
0.0
  9
$PELEVATION
 40
0.0
  9
$THICKNESS
 40
0.0
  9
$LIMCHECK
 70
     0
  9
$CHAMFERA
 40
0.0
  9
$CHAMFERB
 40
0.0
  9
$CHAMFERC
 40
0.0
  9
$CHAMFERD
 40
0.0
  9
$SKPOLY
 70
     0
  9
$TDCREATE
 40
2450623.676023380
  9
$TDUCREATE
 40
2450623.301023380
  9
$TDUPDATE
 40
2453882.361697048
  9
$TDUUPDATE
 40
2453881.986697048
  9
$TDINDWG
 40
5.4155262500
  9
$TDUSRTIMER
 40
5.4155258912
  9
$USRTIMER
 70
     1
  9
$ANGBASE
 50
0.0
  9
$ANGDIR
 70
     0
  9
$PDMODE
 70
     0
  9
$PDSIZE
 40
0.0
  9
$PLINEWID
 40
0.0
  9
$SPLFRAME
 70
     0
  9
$SPLINETYPE
 70
     6
  9
$SPLINESEGS
 70
     8
  9
$HANDSEED
  5
2A8
  9
$SURFTAB1
 70
     6
  9
$SURFTAB2
 70
     6
  9
$SURFTYPE
 70
     6
  9
$SURFU
 70
     6
  9
$SURFV
 70
     6
  9
$UCSBASE
  2

  9
$UCSNAME
  2

  9
$UCSORG
 10
0.0
 20
0.0
 30
0.0
  9
$UCSXDIR
 10
1.0
 20
0.0
 30
0.0
  9
$UCSYDIR
 10
0.0
 20
1.0
 30
0.0
  9
$UCSORTHOREF
  2

  9
$UCSORTHOVIEW
 70
     0
  9
$UCSORGTOP
 10
0.0
 20
0.0
 30
0.0
  9
$UCSORGBOTTOM
 10
0.0
 20
0.0
 30
0.0
  9
$UCSORGLEFT
 10
0.0
 20
0.0
 30
0.0
  9
$UCSORGRIGHT
 10
0.0
 20
0.0
 30
0.0
  9
$UCSORGFRONT
 10
0.0
 20
0.0
 30
0.0
  9
$UCSORGBACK
 10
0.0
 20
0.0
 30
0.0
  9
$PUCSBASE
  2

  9
$PUCSNAME
  2

  9
$PUCSORG
 10
0.0
 20
0.0
 30
0.0
  9
$PUCSXDIR
 10
1.0
 20
0.0
 30
0.0
  9
$PUCSYDIR
 10
0.0
 20
1.0
 30
0.0
  9
$PUCSORTHOREF
  2

  9
$PUCSORTHOVIEW
 70
     0
  9
$PUCSORGTOP
 10
0.0
 20
0.0
 30
0.0
  9
$PUCSORGBOTTOM
 10
0.0
 20
0.0
 30
0.0
  9
$PUCSORGLEFT
 10
0.0
 20
0.0
 30
0.0
  9
$PUCSORGRIGHT
 10
0.0
 20
0.0
 30
0.0
  9
$PUCSORGFRONT
 10
0.0
 20
0.0
 30
0.0
  9
$PUCSORGBACK
 10
0.0
 20
0.0
 30
0.0
  9
$USERI1
 70
     0
  9
$USERI2
 70
     0
  9
$USERI3
 70
     0
  9
$USERI4
 70
     0
  9
$USERI5
 70
     0
  9
$USERR1
 40
0.0
  9
$USERR2
 40
0.0
  9
$USERR3
 40
0.0
  9
$USERR4
 40
0.0
  9
$USERR5
 40
0.0
  9
$WORLDVIEW
 70
     1
  9
$SHADEDGE
 70
     3
  9
$SHADEDIF
 70
    70
  9
$TILEMODE
 70
     1
  9
$MAXACTVP
 70
    16
  9
$PINSBASE
 10
0.0
 20
0.0
 30
0.0
  9
$PLIMCHECK
 70
     0
  9
$PEXTMIN
 10
1.000000000000000E+20
 20
1.000000000000000E+20
 30
1.000000000000000E+20
  9
$PEXTMAX
 10
-1.000000000000000E+20
 20
-1.000000000000000E+20
 30
-1.000000000000000E+20
  9
$PLIMMIN
 10
0.0
 20
0.0
  9
$PLIMMAX
 10
12.0
 20
9.0
  9
$UNITMODE
 70
     0
  9
$VISRETAIN
 70
     0
  9
$PLINEGEN
 70
     0
  9
$PSLTSCALE
 70
     1
  9
$TREEDEPTH
 70
  3020
  9
$CMLSTYLE
  2
STANDARD
  9
$CMLJUST
 70
     0
  9
$CMLSCALE
 40
1.0
  9
$PROXYGRAPHICS
 70
     1
  9
$MEASUREMENT
 70
     0
  9
$CELWEIGHT
370
    -1
  9
$ENDCAPS
280
     0
  9
$JOINSTYLE
280
     0
  9
$LWDISPLAY
290
     0
  9
$INSUNITS
 70
     0
  9
$HYPERLINKBASE
  1

  9
$STYLESHEET
  1

  9
$XEDIT
290
     1
  9
$CEPSNTYPE
380
     0
  9
$PSTYLEMODE
290
     1
  9
$FINGERPRINTGUID
  2
{694A5870-4685-437B-8854-A729E6D7B59B}
  9
$VERSIONGUID
  2
{064A1F78-8E8E-43D0-8405-7A32908C8049}
  9
$EXTNAMES
290
     1
  9
$PSVPSCALE
 40
0.0
  9
$OLESTARTUP
290
     0
  0
ENDSEC
  0
SECTION
  2
CLASSES
  0
CLASS
  1
DICTIONARYVAR
  2
AcDbDictionaryVar
  3
ObjectDBX Classes
 90
        0
280
     0
281
     0
  0
CLASS
  1
RASTERVARIABLES
  2
AcDbRasterVariables
  3
ISM
 90
    32768
280
     0
281
     0
  0
CLASS
  1
ACDBDICTIONARYWDFLT
  2
AcDbDictionaryWithDefault
  3
ObjectDBX Classes
 90
        0
280
     0
281
     0
  0
CLASS
  1
ACDBPLACEHOLDER
  2
AcDbPlaceHolder
  3
ObjectDBX Classes
 90
        0
280
     0
281
     0
  0
CLASS
  1
LAYOUT
  2
AcDbLayout
  3
ObjectDBX Classes
 90
        0
280
     0
281
     0
  0
CLASS
  1
AEC_VARS_DWG_SETUP
  2
AecDbVarsDwgSetup
  3
AecBase
 90
    32897
280
     1
281
     0
  0
CLASS
  1
AEC_DISP_REP_MASS_ELEM_MODEL
  2
AecDbDispRepMassElemModel
  3
AecBase
 90
    32897
280
     1
281
     0
  0
CLASS
  1
AEC_DISP_PROPS_MASS_ELEM_MODEL
  2
AecDbDispPropsMassElem
  3
AecBase
 90
    32897
280
     1
281
     0
  0
CLASS
  1
AEC_DISP_REP_MASS_ELEM_SCHEM
  2
AecDbDispRepMassElemSchem
  3
AecBase
 90
    32897
280
     1
281
     0
  0
CLASS
  1
AEC_DISP_REP_DOOR_ELEV
  2
AecDbDispRepDoorElev
  3
AecArchBase
 90
    32897
280
     1
281
     0
  0
CLASS
  1
AEC_DISP_PROPS_DOOR
  2
AecDbDispPropsDoor
  3
AecArchBase
 90
    32897
280
     1
281
     0
  0
CLASS
  1
AEC_DISP_REP_MASKBLOCK_REF
  2
AecDbDispRepMaskBlockRef
  3
AecBase
 90
    32897
280
     1
281
     0
  0
CLASS
  1
AEC_DISP_PROPS_MASKBLOCK
  2
AecDbDispPropsMaskBlock
  3
AecBase
 90
    32897
280
     1
281
     0
  0
CLASS
  1
AEC_DISP_REP_LAYOUT_GRID3D
  2
AecDbDispRepLayoutGrid3d
  3
AecBase
 90
    32897
280
     1
281
     0
  0
CLASS
  1
AEC_DISP_PROPS_LAYOUT_GRID3D
  2
AecDbDispPropsLayoutGrid3d
  3
AecBase
 90
    32897
280
     1
281
     0
  0
CLASS
  1
AEC_DISP_REP_ENT_REF
  2
AecDbDispRepEntRef
  3
AecBase
 90
    32897
280
     1
281
     0
  0
CLASS
  1
AEC_DISP_PROPS_ENT_REF
  2
AecDbDispPropsEntRef
  3
AecBase
 90
    32897
280
     1
281
     0
  0
CLASS
  1
AEC_DISP_REP_CLIP_VOLUME_RESULT_SUBDIV
  2
AecDbDispRepClipVolResSubDiv
  3
AecBase
 90
    32897
280
     1
281
     0
  0
CLASS
  1
AEC_DISP_PROPS_CLIP_VOLUME_RESULT
  2
AecDbDispPropsClipVolResSubDiv
  3
AecBase
 90
    32897
280
     1
281
     0
  0
CLASS
  1
AEC_DISP_REP_CLIP_VOLUME_RESULT
  2
AecDbDispRepClipVolResult
  3
AecBase
 90
    32897
280
     1
281
     0
  0
CLASS
  1
AEC_DISP_REP_CLIP_VOLUME_PLAN
  2
AecDbDispRepClipVolPlan
  3
AecBase
 90
    32897
280
     1
281
     0
  0
CLASS
  1
AEC_DISP_PROPS_CLIP_VOLUME
  2
AecDbDispPropsClipVol
  3
AecBase
 90
    32897
280
     1
281
     0
  0
CLASS
  1
AEC_DISP_REP_CLIP_VOLUME_MODEL
  2
AecDbDispRepClipVolModel
  3
AecBase
 90
    32897
280
     1
281
     0
  0
CLASS
  1
AEC_DISP_REP_ANCHOR_ENT_TO_NODE
  2
AecDbDispRepAnchorEntToNode
  3
AecBase
 90
    32897
280
     1
281
     0
  0
CLASS
  1
AEC_DISP_PROPS_ENT
  2
AecDbDispPropsEnt
  3
AecBase
 90
    32897
280
     1
281
     0
  0
CLASS
  1
AEC_DISP_REP_LAYOUT_GRID2D
  2
AecDbDispRepLayoutGrid2d
  3
AecBase
 90
    32897
280
     1
281
     0
  0
CLASS
  1
AEC_DISP_PROPS_LAYOUT_GRID2D
  2
AecDbDispPropsLayoutGrid2d
  3
AecBase
 90
    32897
280
     1
281
     0
  0
CLASS
  1
AEC_DISP_REP_LAYOUT_CURVE
  2
AecDbDispRepLayoutCurve
  3
AecBase
 90
    32897
280
     1
281
     0
  0
CLASS
  1
AEC_DISP_PROPS_LAYOUT_CURVE
  2
AecDbDispPropsLayoutCurve
  3
AecBase
 90
    32897
280
     1
281
     0
  0
CLASS
  1
AEC_DISP_REP_ANCHOR
  2
AecDbDispRepAnchor
  3
AecBase
 90
    32897
280
     1
281
     0
  0
CLASS
  1
AEC_DISP_REP_CAMERA
  2
AecDbDispRepCamera
  3
AecBase
 90
    32897
280
     1
281
     0
  0
CLASS
  1
AEC_DISP_PROPS_CAMERA
  2
AecDbDispPropsCamera
  3
AecBase
 90
    32897
280
     1
281
     0
  0
CLASS
  1
AEC_DISP_REP_SLICE
  2
AecDbDispRepSlice
  3
AecBase
 90
    32897
280
     1
281
     0
  0
CLASS
  1
AEC_DISP_PROPS_SLICE
  2
AecDbDispPropsSlice
  3
AecBase
 90
    32897
280
     1
281
     0
  0
CLASS
  1
AEC_DISP_REP_MVBLOCK_REF
  2
AecDbDispRepMvBlockRef
  3
AecBase
 90
    32897
280
     1
281
     0
  0
CLASS
  1
AEC_DISP_REP_MVBLOCK_REF_MODEL
  2
AecDbDispRepMvBlockRefModel
  3
AecBase
 90
    32897
280
     1
281
     0
  0
CLASS
  1
AEC_DISP_REP_MASS_GROUP_MODEL
  2
AecDbDispRepMassGroupModel
  3
AecBase
 90
    32897
280
     1
281
     0
  0
CLASS
  1
AEC_DISP_PROPS_MASS_GROUP
  2
AecDbDispPropsMassGroup
  3
AecBase
 90
    32897
280
     1
281
     0
  0
CLASS
  1
AEC_DISP_REP_MASS_GROUP_PLAN
  2
AecDbDispRepMassGroupPlan
  3
AecBase
 90
    32897
280
     1
281
     0
  0
CLASS
  1
AEC_DISP_REP_DOOR_RCP
  2
AecDbDispRepDoorRcp
  3
AecArchBase
 90
    32897
280
     1
281
     0
  0
CLASS
  1
AEC_DISP_REP_DOOR_NOMINAL
  2
AecDbDispRepDoorNominal
  3
AecArchBase
 90
    32897
280
     1
281
     0
  0
CLASS
  1
AEC_DISP_PROPS_DOOR_NOMINAL
  2
AecDbDispPropsDoorNominal
  3
AecArchBase
 90
    32897
280
     1
281
     0
  0
CLASS
  1
AEC_DISP_REP_DOOR_PLAN
  2
AecDbDispRepDoorPlan
  3
AecArchBase
 90
    32897
280
     1
281
     0
  0
CLASS
  1
AEC_DISP_REP_DOOR_MODEL
  2
AecDbDispRepDoorModel
  3
AecArchBase
 90
    32897
280
     1
281
     0
  0
CLASS
  1
AEC_DISP_REP_MVBLOCK_REF_RCP
  2
AecDbDispRepMvBlockRefRcp
  3
AecArchBase
 90
    32897
280
     1
281
     0
  0
CLASS
  1
AEC_DISP_REP_MASS_GROUP_RCP
  2
AecDbDispRepMassGroupRcp
  3
AecArchBase
 90
    32897
280
     1
281
     0
  0
CLASS
  1
AEC_DISP_REP_MASS_ELEM_RCP
  2
AecDbDispRepMassElemRcp
  3
AecArchBase
 90
    32897
280
     1
281
     0
  0
CLASS
  1
AEC_DISP_REP_MASKBLOCK_REF_RCP
  2
AecDbDispRepMaskBlockRefRcp
  3
AecArchBase
 90
    32897
280
     1
281
     0
  0
CLASS
  1
AEC_DISP_REP_COLUMN_GRID_RCP
  2
AecDbDispRepColumnGridRcp
  3
AecArchBase
 90
    32897
280
     1
281
     0
  0
CLASS
  1
AEC_DISP_REP_COLUMN_GRID_MODEL
  2
AecDbDispRepColumnGridModel
  3
AecArchBase
 90
    32897
280
     1
281
     0
  0
CLASS
  1
AEC_DISP_REP_COLUMN_GRID
  2
AecDbDispRepColumnGrid
  3
AecArchBase
 90
    32897
280
     1
281
     0
  0
CLASS
  1
AEC_DISP_REP_CEILING_GRID_RCP
  2
AecDbDispRepCeilingGridRcp
  3
AecArchBase
 90
    32897
280
     1
281
     0
  0
CLASS
  1
AEC_DISP_REP_CEILING_GRID_MODEL
  2
AecDbDispRepCeilingGridModel
  3
AecArchBase
 90
    32897
280
     1
281
     0
  0
CLASS
  1
AEC_DISP_REP_CEILING_GRID
  2
AecDbDispRepCeilingGrid
  3
AecArchBase
 90
    33661
280
     1
281
     0
  0
CLASS
  1
AEC_DISP_REP_BDG_SECTION_SUBDIV
  2
AecDbDispRepBdgSectionSubDiv
  3
AecArchBase
 90
    32897
280
     1
281
     0
  0
CLASS
  1
AEC_DISP_REP_BDG_SECTION_MODEL
  2
AecDbDispRepBdgSectionModel
  3
AecArchBase
 90
    32897
280
     1
281
     0
  0
CLASS
  1
AEC_DISP_REP_BDG_SECTIONLINE_RCP
  2
AecDbDispRepBdgSectionLineRcp
  3
AecArchBase
 90
    32897
280
     1
281
     0
  0
CLASS
  1
AEC_DISP_REP_BDG_SECTIONLINE_PLAN
  2
AecDbDispRepBdgSectionLinePlan
  3
AecArchBase
 90
    32897
280
     1
281
     0
  0
CLASS
  1
AEC_DISP_REP_BDG_ELEVLINE_RCP
  2
AecDbDispRepBdgElevLineRcp
  3
AecArchBase
 90
    32897
280
     1
281
     0
  0
CLASS
  1
AEC_DISP_REP_BDG_ELEVLINE_PLAN
  2
AecDbDispRepBdgElevLinePlan
  3
AecArchBase
 90
    32897
280
     1
281
     0
  0
CLASS
  1
AEC_DISP_REP_BDG_SECTIONLINE_MODEL
  2
AecDbDispRepBdgSectionLineModel
  3
AecArchBase
 90
    32897
280
     1
281
     0
  0
CLASS
  1
AEC_DISP_REP_BDG_ELEVLINE_MODEL
  2
AecDbDispRepBdgElevLineModel
  3
AecArchBase
 90
    32897
280
     1
281
     0
  0
CLASS
  1
AEC_DISP_REP_ANCHOR_BUB_TO_GRID_RCP
  2
AecDbDispRepAnchorBubToGridRcp
  3
AecArchBase
 90
    32897
280
     1
281
     0
  0
CLASS
  1
AEC_DISP_REP_ANCHOR_BUB_TO_GRID_MODEL
  2
AecDbDispRepAnchorBubToGridMdl
  3
AecArchBase
 90
    32897
280
     1
281
     0
  0
CLASS
  1
AEC_DISP_REP_ANCHOR_BUB_TO_GRID
  2
AecDbDispRepAnchorBubToGrid
  3
AecArchBase
 90
    32897
280
     1
281
     0
  0
CLASS
  1
AEC_DISP_REP_WINDOW_RCP
  2
AecDbDispRepWindowRcp
  3
AecArchBase
 90
    32897
280
     1
281
     0
  0
CLASS
  1
AEC_DISP_PROPS_WINDOW
  2
AecDbDispPropsWindow
  3
AecArchBase
 90
    32897
280
     1
281
     0
  0
CLASS
  1
AEC_DISP_REP_ROOF_RCP
  2
AecDbDispRepRoofRcp
  3
AecArchBase
 90
    32897
280
     1
281
     0
  0
CLASS
  1
AEC_DISP_PROPS_ROOF
  2
AecDbDispPropsRoof
  3
AecArchBase
 90
    32897
280
     1
281
     0
  0
CLASS
  1
AEC_DISP_REP_ROOF_PLAN
  2
AecDbDispRepRoofPlan
  3
AecArchBase
 90
    32897
280
     1
281
     0
  0
CLASS
  1
AEC_DISP_REP_WINDOW_SILL_PLAN
  2
AecDbDispRepWindowSillPlan
  3
AecArchBase
 90
    32897
280
     1
281
     0
  0
CLASS
  1
AEC_DISP_PROPS_WINDOW_SILL_PLAN
  2
AecDbDispPropsWindowSillPlan
  3
AecArchBase
 90
    32897
280
     1
281
     0
  0
CLASS
  1
AEC_DISP_REP_SPACE_PLAN
  2
AecDbDispRepSpacePlan
  3
AecArchBase
 90
    32897
280
     1
281
     0
  0
CLASS
  1
AEC_DISP_PROPS_SPACE_PLAN
  2
AecDbDispPropsSpacePlan
  3
AecArchBase
 90
    32897
280
     1
281
     0
  0
CLASS
  1
AEC_DISP_REP_SPACE_MODEL
  2
AecDbDispRepSpaceModel
  3
AecArchBase
 90
    32897
280
     1
281
     0
  0
CLASS
  1
AEC_DISP_PROPS_SPACE_MODEL
  2
AecDbDispPropsSpaceModel
  3
AecArchBase
 90
    32897
280
     1
281
     0
  0
CLASS
  1
AEC_DISP_REP_WINDOW_MODEL
  2
AecDbDispRepWindowModel
  3
AecArchBase
 90
    32897
280
     1
281
     0
  0
CLASS
  1
AEC_DISP_REP_WINDOW_NOMINAL
  2
AecDbDispRepWindowNominal
  3
AecArchBase
 90
    32897
280
     1
281
     0
  0
CLASS
  1
AEC_DISP_PROPS_WINDOW_NOMINAL
  2
AecDbDispPropsWindowNominal
  3
AecArchBase
 90
    32897
280
     1
281
     0
  0
CLASS
  1
AEC_DISP_REP_OPENING
  2
AecDbDispRepOpening
  3
AecArchBase
 90
    32897
280
     1
281
     0
  0
CLASS
  1
AEC_DISP_PROPS_OPENING
  2
AecDbDispPropsOpening
  3
AecArchBase
 90
    32897
280
     1
281
     0
  0
CLASS
  1
AEC_DISP_REP_OPENING_MODEL
  2
AecDbDispRepOpeningModel
  3
AecArchBase
 90
    32897
280
     1
281
     0
  0
CLASS
  1
AEC_DISP_REP_RAILING_PLAN
  2
AecDbDispRepRailingPlan
  3
AecArchBase
 90
    32897
280
     1
281
     0
  0
CLASS
  1
AEC_DISP_PROPS_RAILING_PLAN
  2
AecDbDispPropsRailingPlan
  3
AecArchBase
 90
    32897
280
     1
281
     0
  0
CLASS
  1
AEC_DISP_REP_RAILING_MODEL
  2
AecDbDispRepRailingModel
  3
AecArchBase
 90
    32897
280
     1
281
     0
  0
CLASS
  1
AEC_DISP_PROPS_RAILING_MODEL
  2
AecDbDispPropsRailingModel
  3
AecArchBase
 90
    32897
280
     1
281
     0
  0
CLASS
  1
AEC_DISP_REP_WINDOW_ELEV
  2
AecDbDispRepWindowElev
  3
AecArchBase
 90
    32897
280
     1
281
     0
  0
CLASS
  1
AEC_DISP_REP_DOOR_THRESHOLD_PLAN
  2
AecDbDispRepDoorThresholdPlan
  3
AecArchBase
 90
    32897
280
     1
281
     0
  0
CLASS
  1
AEC_DISP_PROPS_DOOR_THRESHOLD_PLAN
  2
AecDbDispPropsDoorThresholdPlan
  3
AecArchBase
 90
    32897
280
     1
281
     0
  0
CLASS
  1
AEC_DISP_REP_ROOF_MODEL
  2
AecDbDispRepRoofModel
  3
AecArchBase
 90
    32897
280
     1
281
     0
  0
CLASS
  1
AEC_DISP_REP_WINDOW_PLAN
  2
AecDbDispRepWindowPlan
  3
AecArchBase
 90
    32897
280
     1
281
     0
  0
CLASS
  1
AEC_DISP_REP_WALL_SCHEM
  2
AecDbDispRepWallSchem
  3
AecArchBase
 90
    32897
280
     1
281
     0
  0
CLASS
  1
AEC_DISP_PROPS_WALL_SCHEM
  2
AecDbDispPropsWallSchem
  3
AecArchBase
 90
    32897
280
     1
281
     0
  0
CLASS
  1
AEC_DISP_REP_WALL_RCP
  2
AecDbDispRepWallRcp
  3
AecArchBase
 90
    32897
280
     1
281
     0
  0
CLASS
  1
AEC_DISP_PROPS_WALL_PLAN
  2
AecDbDispPropsWallPlan
  3
AecArchBase
 90
    32897
280
     1
281
     0
  0
CLASS
  1
AEC_DISP_REP_WALL_PLAN
  2
AecDbDispRepWallPlan
  3
AecArchBase
 90
    32897
280
     1
281
     0
  0
CLASS
  1
AEC_DISP_REP_WALL_MODEL
  2
AecDbDispRepWallModel
  3
AecArchBase
 90
    32897
280
     1
281
     0
  0
CLASS
  1
AEC_DISP_PROPS_WALL
  2
AecDbDispPropsWall
  3
AecArchBase
 90
    32897
280
     1
281
     0
  0
CLASS
  1
AEC_DISP_REP_WALL_GRAPH
  2
AecDbDispRepWallGraph
  3
AecArchBase
 90
    32897
280
     1
281
     0
  0
CLASS
  1
AEC_DISP_REP_STAIR_RCP
  2
AecDbDispRepStairRcp
  3
AecArchBase
 90
    32897
280
     1
281
     0
  0
CLASS
  1
AEC_DISP_PROPS_STAIR_PLAN
  2
AecDbDispPropsStairPlan
  3
AecArchBase
 90
    32897
280
     1
281
     0
  0
CLASS
  1
AEC_DISP_REP_STAIR_PLAN
  2
AecDbDispRepStairPlan
  3
AecArchBase
 90
    32897
280
     1
281
     0
  0
CLASS
  1
AEC_DISP_REP_STAIR_MODEL
  2
AecDbDispRepStairModel
  3
AecArchBase
 90
    32897
280
     1
281
     0
  0
CLASS
  1
AEC_DISP_PROPS_STAIR_MODEL
  2
AecDbDispPropsStairModel
  3
AecArchBase
 90
    32897
280
     1
281
     0
  0
CLASS
  1
AEC_DISP_REP_SPACE_BOUNDARY_SCHEM
  2
AecDbDispRepSpaceBoundarySketch
  3
AecArchBase
 90
    32897
280
     1
281
     0
  0
CLASS
  1
AEC_DISP_REP_SPACE_BOUNDARY_PLAN
  2
AecDbDispRepSpaceBoundaryPlan
  3
AecArchBase
 90
    32897
280
     1
281
     0
  0
CLASS
  1
AEC_DISP_REP_SPACE_BOUNDARY_MODEL
  2
AecDbDispRepSpaceBoundaryModel
  3
AecArchBase
 90
    32897
280
     1
281
     0
  0
CLASS
  1
AEC_DISP_REP_SPACE_BOUNDARY_DIAGRAM
  2
AecDbDispRepSpaceBoundaryDgrm
  3
AecArchBase
 90
    32897
280
     1
281
     0
  0
CLASS
  1
AEC_DISP_REP_SPACE_VOLUME
  2
AecDbDispRepSpaceVolume
  3
AecArchBase
 90
    32897
280
     1
281
     0
  0
CLASS
  1
AEC_DISP_REP_SPACE_RCP
  2
AecDbDispRepSpaceRcp
  3
AecArchBase
 90
    32897
280
     1
281
     0
  0
CLASS
  1
AEC_DISP_REP_ANCHOR_TAG_TO_ENT
  2
AecDbDispRepAnchorTagToEnt
  3
AecScheduleData
 90
    32897
280
     1
281
     0
  0
CLASS
  1
AEC_DISP_REP_SCHEDULE_TABLE
  2
AecDbDispRepScheduleTable
  3
AecSchedule
 90
    32897
280
     1
281
     0
  0
CLASS
  1
AEC_DISP_PROPS_SCHEDULE_TABLE
  2
AecDbDispPropsScheduleTable
  3
AecSchedule
 90
    32897
280
     1
281
     0
  0
CLASS
  1
AEC_DISP_REP_SET
  2
AecDbDispRepSet
  3
AecBase
 90
    32897
280
     1
281
     0
  0
CLASS
  1
AEC_DISP_REP_CONFIG
  2
AecDbDispRepConfig
  3
AecBase
 90
    32897
280
     1
281
     0
  0
CLASS
  1
TABLESTYLE
  2
AcDbTableStyle
  3
ObjectDBX Classes
 90
     4095
280
     0
281
     0
  0
CLASS
  1
MATERIAL
  2
AcDbMaterial
  3
ObjectDBX Classes
 90
     1153
280
     0
281
     0
  0
CLASS
  1
VISUALSTYLE
  2
AcDbVisualStyle
  3
ObjectDBX Classes
 90
     4095
280
     0
281
     0
  0
CLASS
  1
SCALE
  2
AcDbScale
  3
ObjectDBX Classes
 90
     1153
280
     0
281
     0
  0
CLASS
  1
MLEADERSTYLE
  2
AcDbMLeaderStyle
  3
ACDB_MLEADERSTYLE_CLASS
 90
    36863
280
     0
281
     0
  0
CLASS
  1
ACDBSECTIONVIEWSTYLE
  2
AcDbSectionViewStyle
  3
ObjectDBX Classes
 90
    33793
280
     0
281
     0
  0
CLASS
  1
ACDBDETAILVIEWSTYLE
  2
AcDbDetailViewStyle
  3
ObjectDBX Classes
 90
    33793
280
     0
281
     0
  0
CLASS
  1
EXACXREFPANELOBJECT
  2
ExAcXREFPanelObject
  3
EXAC_ESW
 90
    33793
280
     0
281
     0
  0
CLASS
  1
NPOCOLLECTION
  2
AcDbImpNonPersistentObjectsCollection
  3
ObjectDBX Classes
 90
    33921
280
     0
281
     0
  0
CLASS
  1
CELLSTYLEMAP
  2
AcDbCellStyleMap
  3
ObjectDBX Classes
 90
     1152
280
     0
281
     0
  0
ENDSEC
  0
SECTION
  2
TABLES
  0
TABLE
  2
VPORT
  5
2F
330
0
100
AcDbSymbolTable
 70
     1
  0
VPORT
  5
30
330
2F
100
AcDbSymbolTableRecord
100
AcDbViewportTableRecord
  2
*Active
 70
     0
 10
0.0
 20
0.0
 11
1.0
 21
1.0
 12
207.9724860653455
 22
74.4616253984116
 13
0.0
 23
0.0
 14
1.0
 24
1.0
 15
0.0
 25
0.0
 16
0.0
 26
0.0
 36
1.0
 17
0.0
 27
0.0
 37
0.0
 40
333.7010923683743
 41
2.095558546433378
 42
50.0
 43
0.0
 44
0.0
 50
0.0
 51
0.0
 71
     0
 72
 20000
 73
     1
 74
     1
 75
     0
 76
     0
 77
     0
 78
     0
281
     0
 65
     1
110
0.0
120
0.0
130
0.0
111
1.0
121
0.0
131
0.0
112
0.0
122
1.0
132
0.0
 79
     0
146
0.0
1001
ACAD_NAV_VCDISPLAY
1070
     3
  0
ENDTAB
  0
TABLE
  2
LTYPE
  5
2A
330
0
100
AcDbSymbolTable
 70
     1
  0
LTYPE
  5
2B
330
2A
100
AcDbSymbolTableRecord
100
AcDbLinetypeTableRecord
  2
BYBLOCK
 70
     0
  3

 72
    65
 73
     0
 40
0.0
  0
LTYPE
  5
2C
330
2A
100
AcDbSymbolTableRecord
100
AcDbLinetypeTableRecord
  2
BYLAYER
 70
     0
  3

 72
    65
 73
     0
 40
0.0
  0
LTYPE
  5
14
330
2A
100
AcDbSymbolTableRecord
100
AcDbLinetypeTableRecord
  2
CONTINUOUS
 70
     0
  3
Solid line
 72
    65
 73
     0
 40
0.0
  0
ENDTAB
  0
TABLE
  2
LAYER
  5
26
330
0
100
AcDbSymbolTable
 70
     6
  0
LAYER
  5
7
330
26
100
AcDbSymbolTableRecord
100
AcDbLayerTableRecord
  2
0
 70
     0
 62
     7
  6
CONTINUOUS
370
    -3
390
8
  0
LAYER
  5
26F
330
26
100
AcDbSymbolTableRecord
100
AcDbLayerTableRecord
  2
DEFPOINTS
 70
     0
 62
     7
  6
CONTINUOUS
290
     0
370
    -3
390
8
  0
LAYER
  5
25F
330
26
100
AcDbSymbolTableRecord
100
AcDbLayerTableRecord
  2
SUNPOU
 70
     0
 62
    70
  6
CONTINUOUS
370
    -3
390
8
  0
LAYER
  5
63
330
26
100
AcDbSymbolTableRecord
100
AcDbLayerTableRecord
  2
KIJUN
 70
     0
 62
     7
  6
CONTINUOUS
370
    -3
390
8
  0
LAYER
  5
282
330
26
100
AcDbSymbolTableRecord
100
AcDbLayerTableRecord
  2
HOJO
 70
     0
 62
     3
  6
CONTINUOUS
370
    -3
390
8
  0
LAYER
  5
284
330
26
100
AcDbSymbolTableRecord
100
AcDbLayerTableRecord
  2
WAKU
 70
     0
 62
     1
  6
CONTINUOUS
370
    -3
390
8
  0
ENDTAB
  0
TABLE
  2
STYLE
  5
27
330
0
100
AcDbSymbolTable
 70
     3
  0
STYLE
  5
28
330
27
100
AcDbSymbolTableRecord
100
AcDbTextStyleTableRecord
  2
STANDARD
 70
     0
 40
0.0
 41
1.0
 50
0.0
 71
     0
 42
0.2
  3
txt
  4

  0
STYLE
  5
4B
330
27
100
AcDbSymbolTableRecord
100
AcDbTextStyleTableRecord
  2
SUNPOU
 70
     0
 40
0.0
 41
1.0
 50
0.0
 71
     0
 42
30.0
  3
txt
  4
bigfont
  0
STYLE
  5
26D
330
27
100
AcDbSymbolTableRecord
100
AcDbTextStyleTableRecord
  2
LIFE
 70
     0
 40
0.0
 41
0.7
 50
0.0
 71
     0
 42
10.0
  3
romans
  4
extfont
  0
ENDTAB
  0
TABLE
  2
VIEW
  5
2D
330
0
100
AcDbSymbolTable
 70
     0
  0
ENDTAB
  0
TABLE
  2
UCS
  5
2E
330
0
100
AcDbSymbolTable
 70
     0
  0
ENDTAB
  0
TABLE
  2
APPID
  5
34
330
0
100
AcDbSymbolTable
 70
     2
  0
APPID
  5
5
330
34
100
AcDbSymbolTableRecord
100
AcDbRegAppTableRecord
  2
ACAD
 70
     0
  0
APPID
  5
33
330
34
100
AcDbSymbolTableRecord
100
AcDbRegAppTableRecord
  2
ACAD_NAV_VCDISPLAY
 70
     0
  0
ENDTAB
  0
TABLE
  2
DIMSTYLE
  5
35
330
0
100
AcDbSymbolTable
 70
     3
100
AcDbDimStyleTable
 71
     1
340
36
  0
DIMSTYLE
105
36
330
35
100
AcDbSymbolTableRecord
100
AcDbDimStyleTableRecord
  2
STANDARD
 70
     0
 41
3.0
 42
2.0
 44
0.0
 73
     0
 74
     0
 77
     1
140
2.799999999999998
141
1.0
146
0.0642857142857143
147
1.0
173
     1
174
     1
176
    60
177
    70
178
    60
271
     0
340
28
341
37
343
37
344
37
  0
DIMSTYLE
105
273
102
{ACAD_REACTORS
330
274
330
25E
102
}
330
35
100
AcDbSymbolTableRecord
100
AcDbDimStyleTableRecord
  2
STANDARD$0
 70
     0
 40
2.0
 41
1.0
 42
2.0
 43
0.0
 44
1.0
 73
     0
 74
     0
 77
     3
 78
     9
140
4.5
141
0.0
147
1.0
172
     1
173
     1
178
     3
271
     2
340
26D
341
266
343
266
344
266
  0
DIMSTYLE
105
50
330
35
100
AcDbSymbolTableRecord
100
AcDbDimStyleTableRecord
  2
1
 70
     0
 41
3.0
 42
2.0
 44
0.0
 73
     0
 74
     0
 77
     1
140
7.0
141
1.0
146
0.0642857142857143
147
1.0
173
     1
174
     1
176
    60
177
    70
178
    60
271
     0
340
28
341
37
343
37
344
37
  0
ENDTAB
  0
TABLE
  2
BLOCK_RECORD
  5
1
330
0
100
AcDbSymbolTable
 70
     4
  0
BLOCK_RECORD
  5
2
102
{ACAD_XDICTIONARY
360
3
102
}
330
1
100
AcDbSymbolTableRecord
100
AcDbBlockTableRecord
  2
*MODEL_SPACE
340
1E
  0
BLOCK_RECORD
  5
20
102
{ACAD_XDICTIONARY
360
21
102
}
330
1
100
AcDbSymbolTableRecord
100
AcDbBlockTableRecord
  2
*PAPER_SPACE
340
25
  0
BLOCK_RECORD
  5
37
330
1
100
AcDbSymbolTableRecord
100
AcDbBlockTableRecord
  2
_DOTSMALL
340
0
  0
BLOCK_RECORD
  5
266
330
1
100
AcDbSymbolTableRecord
100
AcDbBlockTableRecord
  2
_DOT
340
0
102
{BLKREFS
331
265
331
26B
331
27A
331
27B
102
}
  0
BLOCK_RECORD
  5
260
330
1
100
AcDbSymbolTableRecord
100
AcDbBlockTableRecord
  2
*D2
340
0
  0
BLOCK_RECORD
  5
275
330
1
100
AcDbSymbolTableRecord
100
AcDbBlockTableRecord
  2
*D3
340
0
  0
ENDTAB
  0
ENDSEC
  0
SECTION
  2
BLOCKS
  0
BLOCK
  5
6
330
2
100
AcDbEntity
  8
0
100
AcDbBlockBegin
  2
*MODEL_SPACE
 70
     0
 10
0.0
 20
0.0
 30
0.0
  3
*MODEL_SPACE
  1

  0
ENDBLK
  5
1D
330
2
100
AcDbEntity
  8
0
100
AcDbBlockEnd
  0
BLOCK
  5
23
330
20
100
AcDbEntity
 67
     1
  8
0
100
AcDbBlockBegin
  2
*PAPER_SPACE
 70
     0
 10
0.0
 20
0.0
 30
0.0
  3
*PAPER_SPACE
  1

  0
ENDBLK
  5
24
330
20
100
AcDbEntity
 67
     1
  8
0
100
AcDbBlockEnd
  0
BLOCK
  5
38
330
37
100
AcDbEntity
  8
0
100
AcDbBlockBegin
  2
_DOTSMALL
 70
     0
 10
0.0
 20
0.0
 30
0.0
  3
_DOTSMALL
  1

  0
LWPOLYLINE
  5
39
330
37
100
AcDbEntity
  8
0
  6
ByBlock
 62
     0
100
AcDbPolyline
 90
        2
 70
     1
 43
0.5
 10
-0.0625
 20
0.0
 42
1.0
 10
0.0625
 20
0.0
 42
1.0
  0
ENDBLK
  5
3A
330
37
100
AcDbEntity
  8
0
100
AcDbBlockEnd
  0
BLOCK
  5
267
330
266
100
AcDbEntity
  8
0
100
AcDbBlockBegin
  2
_DOT
 70
     0
 10
0.0
 20
0.0
 30
0.0
  3
_DOT
  1

  0
LWPOLYLINE
  5
268
330
266
100
AcDbEntity
  8
0
  6
ByBlock
 62
     0
100
AcDbPolyline
 90
        2
 70
     1
 43
0.5
 10
-0.25
 20
0.0
 42
1.0
 10
0.25
 20
0.0
 42
1.0
  0
LINE
  5
269
330
266
100
AcDbEntity
  8
0
  6
ByBlock
 62
     0
100
AcDbLine
 10
-0.5
 20
0.0
 30
0.0
 11
-1.0
 21
0.0
 31
0.0
  0
ENDBLK
  5
26A
330
266
100
AcDbEntity
  8
0
100
AcDbBlockEnd
  0
BLOCK
  5
261
330
260
100
AcDbEntity
  8
0
 62
     7
100
AcDbBlockBegin
  2
*D2
 70
     1
 10
0.0
 20
0.0
 30
0.0
  3
*D2
  1

  0
LINE
  5
262
330
260
100
AcDbEntity
  8
SUNPOU
 62
    70
370
    -2
100
AcDbLine
 10
49.70495197274338
 20
116.6687779047195
 30
0.0
 11
49.70495197274338
 21
129.649372204952
 31
0.0
  0
LINE
  5
263
330
260
100
AcDbEntity
  8
SUNPOU
 62
    70
370
    -2
100
AcDbLine
 10
28.70495197274338
 20
116.6687779047195
 30
0.0
 11
28.70495197274338
 21
129.649372204952
 31
0.0
  0
LINE
  5
264
330
260
100
AcDbEntity
  8
SUNPOU
 62
    60
370
    -2
100
AcDbLine
 10
48.70495197274338
 20
129.649372204952
 30
0.0
 11
29.70495197274338
 21
129.649372204952
 31
0.0
  0
INSERT
  5
265
330
260
100
AcDbEntity
  8
SUNPOU
 62
    60
370
    -2
100
AcDbBlockReference
  2
_DOT
 10
49.70495197274338
 20
129.649372204952
 30
0.0
  0
INSERT
  5
26B
330
260
100
AcDbEntity
  8
SUNPOU
 62
    60
370
    -2
100
AcDbBlockReference
  2
_DOT
 10
28.70495197274338
 20
129.649372204952
 30
0.0
 50
180.0
  0
MTEXT
  5
26C
330
260
100
AcDbEntity
  8
SUNPOU
 62
    60
100
AcDbMText
 10
39.20495197274338
 20
134.649372204952
 30
0.0
 40
6.0
 41
0.0
 71
     5
 72
     1
  1
\A1;21
  7
LIFE
 73
     1
 44
1.0
1001
ACAD
1000
MTEXTBEGIN
1070
    73
1070
     1
1070
    44
1040
1.0
1070
    74
1070
     0
1000
MTEXTEND
  0
POINT
  5
26E
330
260
100
AcDbEntity
  8
DEFPOINTS
 62
     0
100
AcDbPoint
 10
49.70495197274338
 20
114.6687779047195
 30
0.0
  0
POINT
  5
270
330
260
100
AcDbEntity
  8
DEFPOINTS
 62
     0
100
AcDbPoint
 10
28.70495197274338
 20
114.6687779047195
 30
0.0
  0
POINT
  5
271
330
260
100
AcDbEntity
  8
DEFPOINTS
 62
     0
100
AcDbPoint
 10
28.70495197274338
 20
129.649372204952
 30
0.0
  0
ENDBLK
  5
272
330
260
100
AcDbEntity
  8
0
 62
     7
100
AcDbBlockEnd
  0
BLOCK
  5
276
330
275
100
AcDbEntity
  8
0
 62
     7
100
AcDbBlockBegin
  2
*D3
 70
     1
 10
0.0
 20
0.0
 30
0.0
  3
*D3
  1

  0
LINE
  5
277
330
275
100
AcDbEntity
  8
SUNPOU
 62
    70
370
    -2
100
AcDbLine
 10
26.70495197274338
 20
25.66877790471954
 30
0.0
 11
11.23236251324722
 21
25.66877790471954
 31
0.0
  0
LINE
  5
278
330
275
100
AcDbEntity
  8
SUNPOU
 62
    70
370
    -2
100
AcDbLine
 10
26.70495197274338
 20
114.6687779047195
 30
0.0
 11
11.23236251324724
 21
114.6687779047195
 31
0.0
  0
LINE
  5
279
330
275
100
AcDbEntity
  8
SUNPOU
 62
    60
370
    -2
100
AcDbLine
 10
11.23236251324722
 20
26.66877790471954
 30
0.0
 11
11.23236251324724
 21
113.6687779047195
 31
0.0
  0
INSERT
  5
27A
330
275
100
AcDbEntity
  8
SUNPOU
 62
    60
370
    -2
100
AcDbBlockReference
  2
_DOT
 10
11.23236251324722
 20
25.66877790471954
 30
0.0
 50
270.0
  0
INSERT
  5
27B
330
275
100
AcDbEntity
  8
SUNPOU
 62
    60
370
    -2
100
AcDbBlockReference
  2
_DOT
 10
11.23236251324724
 20
114.6687779047195
 30
0.0
 50
90.0
  0
MTEXT
  5
27C
330
275
100
AcDbEntity
  8
SUNPOU
 62
    60
100
AcDbMText
 10
6.232362513247218
 20
70.16877790471951
 30
0.0
 40
6.0
 41
0.0
 71
     5
 72
     1
  1
\A1;89
  7
LIFE
 11
0.0000000000000001
 21
1.0
 31
0.0
 73
     1
 44
1.0
1001
ACAD
1000
MTEXTBEGIN
1070
    73
1070
     1
1070
    44
1040
1.0
1070
    74
1070
     0
1000
MTEXTEND
  0
POINT
  5
27D
330
275
100
AcDbEntity
  8
DEFPOINTS
 62
     0
100
AcDbPoint
 10
28.70495197274338
 20
25.66877790471954
 30
0.0
  0
POINT
  5
27E
330
275
100
AcDbEntity
  8
DEFPOINTS
 62
     0
100
AcDbPoint
 10
28.70495197274338
 20
114.6687779047195
 30
0.0
  0
POINT
  5
27F
330
275
100
AcDbEntity
  8
DEFPOINTS
 62
     0
100
AcDbPoint
 10
11.23236251324724
 20
114.6687779047195
 30
0.0
  0
ENDBLK
  5
280
330
275
100
AcDbEntity
  8
0
 62
     7
100
AcDbBlockEnd
  0
ENDSEC
  0
SECTION
  2
ENTITIES
  0
LINE
  5
62
330
2
100
AcDbEntity
  8
KIJUN
 62
     7
100
AcDbLine
 10
286.8906355339493
 20
78.98448089111211
 30
0.0
 11
305.908448748639
 21
64.97811846540144
 31
0.0
  0
LINE
  5
64
330
2
100
AcDbEntity
  8
KIJUN
 62
     7
100
AcDbLine
 10
289.3431227807591
 20
84.50456612488787
 30
0.0
 11
308.8201872185989
 21
70.15997137965317
 31
0.0
  0
LINE
  5
65
330
2
100
AcDbEntity
  8
KIJUN
 62
     7
100
AcDbLine
 10
288.7740030091211
 20
76.59569238071781
 30
0.0
 11
305.2008359148058
 21
88.49936738989667
 31
0.0
  0
ARC
  5
66
330
2
100
AcDbEntity
  8
KIJUN
 62
     7
100
AcDbCircle
 10
299.7752847768468
 20
76.56487683787354
 30
0.0
 40
16.60986917886446
100
AcDbArc
 50
210.706898484518
 51
298.5525873773117
  0
ARC
  5
67
330
2
100
AcDbEntity
  8
KIJUN
 62
     7
100
AcDbCircle
 10
299.7752847768468
 20
76.56487683787354
 30
0.0
 40
13.10986917886447
100
AcDbArc
 50
222.5445606306319
 51
306.460221047203
  0
ARC
  5
68
330
2
100
AcDbEntity
  8
KIJUN
  6
Continuous
 62
     7
100
AcDbCircle
 10
297.3037930375397
 20
84.29334388100782
 30
0.0
 40
34.21983062293636
100
AcDbArc
 50
251.0218659999952
 51
269.7023319999999
  0
LINE
  5
69
330
2
100
AcDbEntity
  8
KIJUN
 62
     7
100
AcDbLine
 10
292.5307753751475
 20
65.63849805002092
 30
0.0
 11
312.4142464080643
 21
80.04701967979604
 31
0.0
  0
LINE
  5
6A
330
2
100
AcDbEntity
  8
KIJUN
 62
     7
100
AcDbLine
 10
292.6599564928965
 20
72.47624228752903
 30
0.0
 11
309.8606427319751
 21
84.94068872710959
 31
0.0
  0
ARC
  5
6B
330
2
100
AcDbEntity
  8
KIJUN
  6
Continuous
 62
     7
100
AcDbCircle
 10
295.5351759721586
 20
88.18601720422027
 30
0.0
 40
3.421670084283908
100
AcDbArc
 50
260.6842275143617
 51
352.4671025143824
  0
ARC
  5
6C
330
2
100
AcDbEntity
  8
KIJUN
  6
Continuous
 62
     7
100
AcDbCircle
 10
296.6096979198385
 20
82.92140794199879
 30
0.0
 40
30.46083242279773
100
AcDbArc
 50
265.5256959999982
 51
285.1378169999931
  0
ARC
  5
6D
330
2
100
AcDbEntity
  8
KIJUN
  6
Continuous
 62
     7
100
AcDbCircle
 10
296.4008004069831
 20
71.78792311468376
 30
0.0
 40
16.68157201289859
100
AcDbArc
 50
259.6612550000033
 51
283.7407230000047
  0
LINE
  5
6E
330
2
100
AcDbEntity
  8
KIJUN
  6
Continuous
 62
     7
100
AcDbLine
 10
86.52641816766035
 20
114.6687779047197
 30
0.0
 11
518.52641816766
 21
114.6687779047195
 31
0.0
  0
LINE
  5
6F
330
2
100
AcDbEntity
  8
KIJUN
  6
Continuous
 62
     7
100
AcDbLine
 10
86.52641816766024
 20
95.65598993975719
 30
0.0
 11
518.52641816766
 21
95.65598993975719
 31
0.0
  0
LINE
  5
70
330
2
100
AcDbEntity
  8
KIJUN
 62
     7
100
AcDbLine
 10
424.8678789306183
 20
45.96575457092312
 30
0.0
 11
86.52641816766024
 21
45.96575457092312
 31
0.0
  0
LINE
  5
71
330
2
100
AcDbEntity
  8
KIJUN
  6
Continuous
 62
     7
100
AcDbLine
 10
86.52641816766024
 20
40.96575457092335
 30
0.0
 11
518.52641816766
 21
40.96575457092312
 31
0.0
  0
LINE
  5
72
330
2
100
AcDbEntity
  8
KIJUN
 62
     7
100
AcDbLine
 10
518.52641816766
 20
25.66877790471954
 30
0.0
 11
86.52641816766024
 21
25.66877790471954
 31
0.0
  0
ARC
  5
73
330
2
100
AcDbEntity
  8
KIJUN
  6
Continuous
 62
     7
100
AcDbCircle
 10
99.38590010942661
 20
70.90596658203963
 30
0.0
 40
15.63745618293999
100
AcDbArc
 50
24.73045899999497
 51
76.55601500000639
  0
ARC
  5
74
330
2
100
AcDbEntity
  8
KIJUN
  6
Continuous
 62
     7
100
AcDbCircle
 10
104.3855810871809
 20
66.5911811169904
 30
0.0
 40
24.56427112331203
100
AcDbArc
 50
60.71260799999758
 51
81.80452699999973
  0
ARC
  5
75
330
2
100
AcDbEntity
  8
KIJUN
  6
Continuous
 62
     7
100
AcDbCircle
 10
98.06826544206771
 20
70.34305867075983
 30
0.0
 40
21.87081900743576
100
AcDbArc
 50
296.8990780000002
 51
320.8690190000043
  0
ARC
  5
76
330
2
100
AcDbEntity
  8
KIJUN
  6
Continuous
 62
     7
100
AcDbCircle
 10
97.48635017131048
 20
69.60643898213887
 30
0.0
 40
19.73884424852879
100
AcDbArc
 50
13.16694899999094
 51
55.56717300000642
  0
ARC
  5
77
330
2
100
AcDbEntity
  8
KIJUN
 62
     7
100
AcDbCircle
 10
97.35545170772079
 20
65.64906630939714
 30
0.0
 40
16.60986917886446
100
AcDbArc
 50
229.310171355588
 51
130.689828644412
  0
ARC
  5
78
330
2
100
AcDbEntity
  8
KIJUN
  6
Continuous
 62
     7
100
AcDbCircle
 10
94.77465094837176
 20
25.49055078224097
 30
0.0
 40
69.95932689651683
100
AcDbArc
 50
70.8756179999924
 51
77.79802699999851
  0
ARC
  5
79
330
2
100
AcDbEntity
  8
KIJUN
  6
Continuous
 62
     7
100
AcDbCircle
 10
101.365201286877
 20
68.53651705383874
 30
0.0
 40
15.47963850650601
100
AcDbArc
 50
310.2018627100123
 51
324.9992979999908
  0
ARC
  5
7A
330
2
100
AcDbEntity
  8
KIJUN
  6
Continuous
 62
     7
100
AcDbCircle
 10
102.4988441165801
 20
52.4303617138749
 30
0.0
 40
42.03653594207946
100
AcDbArc
 50
80.33000199999438
 51
109.2315059999955
  0
ARC
  5
7B
330
2
100
AcDbEntity
  8
KIJUN
 62
     7
100
AcDbCircle
 10
97.35545170772079
 20
65.64906630939714
 30
0.0
 40
13.10986917886447
100
AcDbArc
 50
313.5825127371901
 51
145.6921907530263
  0
LINE
  5
7C
330
2
100
AcDbEntity
  8
KIJUN
 62
     7
100
AcDbLine
 10
91.44949631118194
 20
77.35383844606582
 30
0.0
 11
110.2844028227921
 21
63.48218433536981
 31
0.0
  0
LINE
  5
7D
330
2
100
AcDbEntity
  8
KIJUN
 62
     7
100
AcDbLine
 10
100.8177850983468
 20
56.31223841753929
 30
0.0
 11
110.219465947252
 21
63.1251495859886
 31
0.0
  0
LINE
  5
7E
330
2
100
AcDbEntity
  8
KIJUN
 62
     7
100
AcDbLine
 10
94.93574856620782
 20
59.33245094516934
 30
0.0
 11
109.5110674843038
 21
69.89442966330128
 31
0.0
  0
ARC
  5
7F
330
2
100
AcDbEntity
  8
KIJUN
  6
Continuous
 62
     7
100
AcDbCircle
 10
100.2903173937428
 20
43.81769361559697
 30
0.0
 40
45.23551356420392
100
AcDbArc
 50
99.78051000000526
 51
107.7143697803417
  0
ARC
  5
80
330
2
100
AcDbEntity
  8
KIJUN
  6
Continuous
 62
     7
100
AcDbCircle
 10
108.2918108618431
 20
35.94549459025739
 30
0.0
 40
59.50960913548762
100
AcDbArc
 50
109.269798000004
 51
111.4534909132991
  0
ARC
  5
81
330
2
100
AcDbEntity
  8
KIJUN
  6
Continuous
 62
     7
100
AcDbCircle
 10
97.47156039015042
 20
66.96779230668681
 30
0.0
 40
21.973419123171
100
AcDbArc
 50
59.42865800000077
 51
102.7932279999965
  0
ARC
  5
82
330
2
100
AcDbEntity
  8
KIJUN
  6
Continuous
 62
     7
100
AcDbCircle
 10
107.4784851395125
 20
26.10949249625337
 30
0.0
 40
62.56449047035559
100
AcDbArc
 50
106.9287109999937
 51
109.565698161497
  0
ARC
  5
83
330
2
100
AcDbEntity
  8
KIJUN
  6
Continuous
 62
     7
100
AcDbCircle
 10
96.4081770522498
 20
61.86780809861607
 30
0.0
 40
25.13282113555247
100
AcDbArc
 50
74.74375899999404
 51
106.5221410000024
  0
ARC
  5
84
330
2
100
AcDbEntity
  8
KIJUN
  6
Continuous
 62
     7
100
AcDbCircle
 10
95.6208374604415
 20
58.23183992948504
 30
0.0
 40
1.003706407670519
100
AcDbArc
 50
30.77387200000543
 51
163.4760129999897
  0
ARC
  5
85
330
2
100
AcDbEntity
  8
KIJUN
  6
Continuous
 62
     7
100
AcDbCircle
 10
90.9381203760042
 20
55.47699579168174
 30
0.0
 40
5.554072960498572
100
AcDbArc
 50
40.03240199998981
 51
92.40341899999675
  0
ARC
  5
86
330
2
100
AcDbEntity
  8
KIJUN
  6
Continuous
 62
     7
100
AcDbCircle
 10
90.62430173532353
 20
58.67063132276878
 30
0.0
 40
2.356939193069651
100
AcDbArc
 50
88.03287499999845
 51
183.7296140000063
  0
ARC
  5
87
330
2
100
AcDbEntity
  8
KIJUN
  6
Continuous
 62
     7
100
AcDbCircle
 10
98.37447303553823
 20
58.12102455075415
 30
0.0
 40
3.736965696893283
100
AcDbArc
 50
173.9124600000015
 51
248.6731260000021
  0
ARC
  5
88
330
2
100
AcDbEntity
  8
KIJUN
  6
Continuous
 62
     7
100
AcDbCircle
 10
103.6112785524694
 20
69.81044258311957
 30
0.0
 40
16.54234760881752
100
AcDbArc
 50
246.5010530000095
 51
271.1112979999962
  0
ARC
  5
89
330
2
100
AcDbEntity
  8
KIJUN
  6
Continuous
 62
     7
100
AcDbCircle
 10
102.0863070008026
 20
60.6877671869932
 30
0.0
 40
4.555700514224691
100
AcDbArc
 50
218.8009030000034
 51
253.8182980000047
  0
ARC
  5
8A
330
2
100
AcDbEntity
  8
KIJUN
  6
Continuous
 62
     7
100
AcDbCircle
 10
99.30463636377155
 20
62.54500471155306
 30
0.0
 40
12.72035178294641
100
AcDbArc
 50
262.7507237335418
 51
262.7510070000018
  0
ARC
  5
8B
330
2
100
AcDbEntity
  8
KIJUN
  6
Continuous
 62
     7
100
AcDbCircle
 10
97.16672132970414
 20
59.40829147412824
 30
0.0
 40
8.938881685658001
100
AcDbArc
 50
185.7201839999881
 51
206.6048152680139
  0
ARC
  5
8C
330
2
100
AcDbEntity
  8
KIJUN
  6
Continuous
 62
     7
100
AcDbCircle
 10
103.8411203769858
 20
64.45867216209221
 30
0.0
 40
8.68943916910573
100
AcDbArc
 50
249.6313779999979
 51
287.0807521598578
  0
ARC
  5
8D
330
2
100
AcDbEntity
  8
KIJUN
  6
Continuous
 62
     7
100
AcDbCircle
 10
100.5999263235027
 20
75.48693191796366
 30
0.0
 40
25.72463240671678
100
AcDbArc
 50
274.0268582818972
 51
286.6322939999947
  0
LINE
  5
8E
330
2
100
AcDbEntity
  8
KIJUN
 62
     7
100
AcDbLine
 10
91.3029811430167
 20
63.44410591825777
 30
0.0
 11
106.9574638082148
 21
74.78809871061486
 31
0.0
  0
LINE
  5
8F
330
2
100
AcDbEntity
  8
KIJUN
 62
     7
100
AcDbLine
 10
87.12471643798844
 20
73.84765035651803
 30
0.0
 11
105.9170082948386
 21
60.00738136315845
 31
0.0
  0
LINE
  5
90
330
2
100
AcDbEntity
  8
KIJUN
 62
     7
100
AcDbLine
 10
86.55639662134328
 20
66.93990127308215
 30
0.0
 11
101.7967601967375
 21
77.98380340959447
 31
0.0
  0
LINE
  5
91
330
2
100
AcDbEntity
  8
KIJUN
 62
     7
100
AcDbLine
 10
86.52641816766024
 20
66.9619799990906
 30
0.0
 11
101.1386420915172
 21
56.20027454890243
 31
0.0
  0
ARC
  5
92
330
2
100
AcDbEntity
  8
KIJUN
 62
     7
100
AcDbCircle
 10
97.35545170772079
 20
65.64906630939714
 30
0.0
 40
13.10986917886447
100
AcDbArc
 50
214.3078092469735
 51
290.3294563723477
  0
ARC
  5
93
330
2
100
AcDbEntity
  8
KIJUN
 62
     7
100
AcDbCircle
 10
213.503071592369
 20
67.71923348497565
 30
0.0
 40
24.26422024660713
100
AcDbArc
 50
95.62249026276594
 51
166.3116479893336
  0
ARC
  5
94
330
2
100
AcDbEntity
  8
KIJUN
 62
     7
100
AcDbCircle
 10
200.1328542565079
 20
66.98867018882066
 30
0.0
 40
10.75675875050928
100
AcDbArc
 50
6.945443300047899
 51
164.756410038265
  0
ARC
  5
95
330
2
100
AcDbEntity
  8
KIJUN
 62
     7
100
AcDbCircle
 10
200.2317907206527
 20
71.3039149490358
 30
0.0
 40
11.00000013182443
100
AcDbArc
 50
344.0949037750677
 51
103.1039450663009
  0
ARC
  5
96
330
2
100
AcDbEntity
  8
KIJUN
  6
Continuous
 62
     7
100
AcDbCircle
 10
194.1429453177798
 20
56.47958345605484
 30
0.0
 40
11.57843665164366
100
AcDbArc
 50
22.33338700000854
 51
66.86514300000438
  0
ARC
  5
97
330
2
100
AcDbEntity
  8
KIJUN
  6
Continuous
 62
     7
100
AcDbCircle
 10
197.6987182643614
 20
58.66665369994172
 30
0.0
 40
7.488498134352362
100
AcDbArc
 50
317.3228760000021
 51
17.18618800000732
  0
ARC
  5
98
330
2
100
AcDbEntity
  8
KIJUN
  6
Continuous
 62
     7
100
AcDbCircle
 10
199.1767036464844
 20
57.63069714336579
 30
0.0
 40
5.704731833707021
100
AcDbArc
 50
247.0969699999969
 51
314.9093320000043
  0
ARC
  5
99
330
2
100
AcDbEntity
  8
KIJUN
  6
Continuous
 62
     7
100
AcDbCircle
 10
199.014480229915
 20
59.01847919217978
 30
0.0
 40
2.864909753969203
100
AcDbArc
 50
172.2619170000005
 51
341.3561100000034
  0
ARC
  5
9A
330
2
100
AcDbEntity
  8
KIJUN
  6
Continuous
 62
     7
100
AcDbCircle
 10
197.7377895742058
 20
63.16875628746067
 30
0.0
 40
4.075610420982796
100
AcDbArc
 50
247.4625399999995
 51
312.9401550000019
  0
ARC
  5
9B
330
2
100
AcDbEntity
  8
KIJUN
  6
Continuous
 62
     7
100
AcDbCircle
 10
177.2665131881571
 20
80.37071164071816
 30
0.0
 40
14.88125075032859
100
AcDbArc
 50
13.27216299999669
 51
51.50304000000597
  0
ARC
  5
9C
330
2
100
AcDbEntity
  8
KIJUN
  6
Continuous
 62
     7
100
AcDbCircle
 10
180.8055436666117
 20
79.80540273218828
 30
0.0
 40
3.721893607444211
100
AcDbArc
 50
15.35964000000709
 51
61.10817700000039
  0
ARC
  5
9D
330
2
100
AcDbEntity
  8
KIJUN
  6
Continuous
 62
     7
100
AcDbCircle
 10
162.1364272840182
 20
81.30907410378886
 30
0.0
 40
22.93459650172986
100
AcDbArc
 50
326.9678960000054
 51
344.0475769999915
  0
ARC
  5
9E
330
2
100
AcDbEntity
  8
KIJUN
  6
Continuous
 62
     7
100
AcDbCircle
 10
138.5389857367132
 20
116.0381837662202
 30
0.0
 40
68.57653880659288
100
AcDbArc
 50
299.6717830000079
 51
310.9748839999981
  0
ARC
  5
9F
330
2
100
AcDbEntity
  8
KIJUN
  6
Continuous
 62
     7
100
AcDbCircle
 10
265.6378001029029
 20
-98.52030536827914
 30
0.0
 40
178.1153820001468
100
AcDbArc
 50
116.9880519999951
 51
119.9635310000045
  0
ARC
  5
A0
330
2
100
AcDbEntity
  8
KIJUN
  6
Continuous
 62
     7
100
AcDbCircle
 10
167.2824533122213
 20
79.23925765089444
 30
0.0
 40
20.21286543473555
100
AcDbArc
 50
299.486511000003
 51
324.0087280000017
  0
ARC
  5
A1
330
2
100
AcDbEntity
  8
KIJUN
  6
Continuous
 62
     7
100
AcDbCircle
 10
256.5373013144363
 20
-72.77332025541905
 30
0.0
 40
154.3857289118435
100
AcDbArc
 50
115.9167399999973
 51
119.7780460000016
  0
ARC
  5
A2
330
2
100
AcDbEntity
  8
KIJUN
  6
Continuous
 62
     7
100
AcDbCircle
 10
190.3328650521199
 20
72.41067828525577
 30
0.0
 40
12.82597192864522
100
AcDbArc
 50
180.4053040000079
 51
190.3061219999984
  0
ARC
  5
A3
330
2
100
AcDbEntity
  8
KIJUN
  6
Continuous
 62
     7
100
AcDbCircle
 10
174.102621385654
 20
73.45817552076784
 30
0.0
 40
8.623165298641142
100
AcDbArc
 50
299.9103699999988
 51
327.3609620000071
  0
ARC
  5
A4
330
2
100
AcDbEntity
  8
KIJUN
  6
Continuous
 62
     7
100
AcDbCircle
 10
164.409587132495
 20
65.76541861964966
 30
0.0
 40
13.99751553122858
100
AcDbArc
 50
1.45703300001309
 51
18.10790600001
  0
ARC
  5
A5
330
2
100
AcDbEntity
  8
KIJUN
  6
Continuous
 62
     7
100
AcDbCircle
 10
184.3127055647204
 20
62.84735072624886
 30
0.0
 40
12.74129884819078
100
AcDbArc
 50
144.0760650000012
 51
160.899062999998
  0
ARC
  5
A6
330
2
100
AcDbEntity
  8
KIJUN
  6
Continuous
 62
     7
100
AcDbCircle
 10
177.4759070023931
 20
68.28771179612596
 30
0.0
 40
4.032300553106241
100
AcDbArc
 50
89.55503800000208
 51
149.692229999994
  0
ARC
  5
A7
330
2
100
AcDbEntity
  8
KIJUN
  6
Continuous
 62
     7
100
AcDbCircle
 10
157.1217164384986
 20
76.45155272336004
 30
0.0
 40
25.19778259372523
100
AcDbArc
 50
295.5830690000001
 51
317.3254389999926
  0
ARC
  5
A8
330
2
100
AcDbEntity
  8
KIJUN
  6
Continuous
 62
     7
100
AcDbCircle
 10
159.9621538795005
 20
81.47331432657692
 30
0.0
 40
30.6451103713121
100
AcDbArc
 50
284.9427799999989
 51
303.0621640000019
  0
ARC
  5
A9
330
2
100
AcDbEntity
  8
KIJUN
  6
Continuous
 62
     7
100
AcDbCircle
 10
157.6538763484614
 20
63.29755062626606
 30
0.0
 40
6.202953383327032
100
AcDbArc
 50
317.3667599999957
 51
7.656777999994332
  0
ARC
  5
AA
330
2
100
AcDbEntity
  8
KIJUN
  6
Continuous
 62
     7
100
AcDbCircle
 10
158.3834252175302
 20
69.04728853780267
 30
0.0
 40
16.57155701029251
100
AcDbArc
 50
285.8361819999961
 51
316.546264999994
  0
ARC
  5
AB
330
2
100
AcDbEntity
  8
KIJUN
  6
Continuous
 62
     7
100
AcDbCircle
 10
164.5493057399854
 20
60.85988240802527
 30
0.0
 40
7.927416061545418
100
AcDbArc
 50
258.0337520000051
 51
295.8252869999938
  0
ARC
  5
AC
330
2
100
AcDbEntity
  8
KIJUN
  6
Continuous
 62
     7
100
AcDbCircle
 10
159.0933985702231
 20
66.15618324952953
 30
0.0
 40
15.90537278083975
100
AcDbArc
 50
286.4188229999971
 51
296.0335689999932
  0
ARC
  5
AD
330
2
100
AcDbEntity
  8
KIJUN
  6
Continuous
 62
     7
100
AcDbCircle
 10
166.8835775311846
 20
58.47641148072153
 30
0.0
 40
6.684191984837892
100
AcDbArc
 50
233.4838409999957
 51
278.4428710000033
  0
ARC
  5
AE
330
2
100
AcDbEntity
  8
KIJUN
  6
Continuous
 62
     7
100
AcDbCircle
 10
166.801977716723
 20
66.91928537005296
 30
0.0
 40
11.62801106239703
100
AcDbArc
 50
319.5274350000113
 51
356.0646060000022
  0
ARC
  5
AF
330
2
100
AcDbEntity
  8
KIJUN
  6
Continuous
 62
     7
100
AcDbCircle
 10
156.8760365026934
 20
64.22712573574159
 30
0.0
 40
6.926314023236491
100
AcDbArc
 50
359.1471859999983
 51
35.11782799999615
  0
ARC
  5
B0
330
2
100
AcDbEntity
  8
KIJUN
  6
Continuous
 62
     7
100
AcDbCircle
 10
159.6678630263524
 20
67.34710043874002
 30
0.0
 40
12.60936437055352
100
AcDbArc
 50
316.597747999999
 51
358.4978329999996
  0
ARC
  5
B1
330
2
100
AcDbEntity
  8
KIJUN
  6
Continuous
 62
     7
100
AcDbCircle
 10
155.1924028410614
 20
71.35564618512791
 30
0.0
 40
20.630256469813
100
AcDbArc
 50
326.5748289999997
 51
345.4994199999881
  0
ARC
  5
B2
330
2
100
AcDbEntity
  8
KIJUN
  6
Continuous
 62
     7
100
AcDbCircle
 10
180.2698784396572
 20
79.78100529057821
 30
0.0
 40
7.985872365735811
100
AcDbArc
 50
7.766039999989722
 51
62.30626700000042
  0
ARC
  5
B3
330
2
100
AcDbEntity
  8
KIJUN
  6
Continuous
 62
     7
100
AcDbCircle
 10
196.0360207847442
 20
63.98507122579922
 30
0.0
 40
8.571274071743884
100
AcDbArc
 50
103.1011579999952
 51
137.1259459999957
  0
ARC
  5
B4
330
2
100
AcDbEntity
  8
KIJUN
  6
Continuous
 62
     7
100
AcDbCircle
 10
195.2934907170618
 20
53.496490247474
 30
0.0
 40
14.04773323249085
100
AcDbArc
 50
75.99942000000011
 51
116.3406519999987
  0
ARC
  5
B5
330
2
100
AcDbEntity
  8
KIJUN
  6
Continuous
 62
     7
100
AcDbCircle
 10
194.3698819762644
 20
68.83663423606737
 30
0.0
 40
3.507590671037116
100
AcDbArc
 50
335.5924069999894
 51
94.51998899999638
  0
ARC
  5
B6
330
2
100
AcDbEntity
  8
KIJUN
  6
Continuous
 62
     7
100
AcDbCircle
 10
195.0026411927769
 20
50.43124086861218
 30
0.0
 40
13.51570142991266
100
AcDbArc
 50
97.5557559999973
 51
115.020102999998
  0
ARC
  5
B7
330
2
100
AcDbEntity
  8
KIJUN
  6
Continuous
 62
     7
100
AcDbCircle
 10
193.5882807298597
 20
61.2126241893157
 30
0.0
 40
2.641995955817284
100
AcDbArc
 50
11.67050200000909
 51
97.88352199999575
  0
ARC
  5
B8
330
2
100
AcDbEntity
  8
KIJUN
  6
Continuous
 62
     7
100
AcDbCircle
 10
196.0355886026158
 20
57.31549397262581
 30
0.0
 40
2.093410895916258
100
AcDbArc
 50
86.16313900000312
 51
194.225371999998
  0
ARC
  5
B9
330
2
100
AcDbEntity
  8
KIJUN
  6
Continuous
 62
     7
100
AcDbCircle
 10
188.3188143861003
 20
60.57536325047299
 30
0.0
 40
7.94372647866798
100
AcDbArc
 50
351.5213930000121
 51
8.481994999999589
  0
ARC
  5
BA
330
2
100
AcDbEntity
  8
KIJUN
  6
Continuous
 62
     7
100
AcDbCircle
 10
198.9957849436983
 20
56.93123187426506
 30
0.0
 40
4.991121647432509
100
AcDbArc
 50
181.4942630000101
 51
245.8851010000061
  0
ARC
  5
BB
330
2
100
AcDbEntity
  8
KIJUN
  6
Continuous
 62
     7
100
AcDbCircle
 10
163.9480309127863
 20
82.74185777224493
 30
0.0
 40
24.98441915517715
100
AcDbArc
 50
322.0028690000086
 51
340.4610290000028
  0
ARC
  5
BC
330
2
100
AcDbEntity
  8
KIJUN
  6
Continuous
 62
     7
100
AcDbCircle
 10
165.8032515000019
 20
83.46290749655357
 30
0.0
 40
26.11589923852227
100
AcDbArc
 50
312.6785280000013
 51
337.4816889999944
  0
ARC
  5
BD
330
2
100
AcDbEntity
  8
KIJUN
  6
Continuous
 62
     7
100
AcDbCircle
 10
210.1825225814054
 20
19.67667984902419
 30
0.0
 40
47.81021118385214
100
AcDbArc
 50
115.9191060000003
 51
122.0454789999947
  0
ARC
  5
BE
330
2
100
AcDbEntity
  8
KIJUN
  6
Continuous
 62
     7
100
AcDbCircle
 10
172.1761568335067
 20
81.91766390196475
 30
0.0
 40
19.66320463995171
100
AcDbArc
 50
334.5280759999933
 51
5.455626000010561
  0
ARC
  5
BF
330
2
100
AcDbEntity
  8
KIJUN
  6
Continuous
 62
     7
100
AcDbCircle
 10
170.8352011150369
 20
78.37917365116805
 30
0.0
 40
13.77216559480413
100
AcDbArc
 50
345.8216859999903
 51
10.08685299999508
  0
ARC
  5
C0
330
2
100
AcDbEntity
  8
KIJUN
  6
Continuous
 62
     7
100
AcDbCircle
 10
175.3490282162439
 20
78.95173734512019
 30
0.0
 40
12.97459498276656
100
AcDbArc
 50
339.3964230000092
 51
8.458106999987196
  0
ARC
  5
C1
330
2
100
AcDbEntity
  8
KIJUN
 62
     7
100
AcDbCircle
 10
170.7256028346539
 20
72.26506391012167
 30
0.0
 40
4.858463093169452
100
AcDbArc
 50
349.3422300455161
 51
143.2782565887258
  0
ARC
  5
C2
330
2
100
AcDbEntity
  8
KIJUN
 62
     7
100
AcDbCircle
 10
171.6866928681401
 20
74.99717227601656
 30
0.0
 40
4.858463093169452
100
AcDbArc
 50
24.02442459402223
 51
177.9604511372323
  0
ARC
  5
C3
330
2
100
AcDbEntity
  8
KIJUN
 62
     7
100
AcDbCircle
 10
161.0102102592019
 20
63.08289513221012
 30
0.0
 40
5.352400220951675
100
AcDbArc
 50
308.8363601960537
 51
73.37508749266371
  0
ARC
  5
C4
330
2
100
AcDbEntity
  8
KIJUN
  6
Continuous
 62
     7
100
AcDbCircle
 10
179.9832045722607
 20
86.40092776764211
 30
0.0
 40
7.82085445113933
100
AcDbArc
 50
89.47008500000526
 51
136.9266969999895
  0
ARC
  5
C5
330
2
100
AcDbEntity
  8
KIJUN
  6
Continuous
 62
     7
100
AcDbCircle
 10
180.5583270978151
 20
85.08777409196731
 30
0.0
 40
9.147502135154248
100
AcDbArc
 50
49.24908399999186
 51
93.15091700000147
  0
ARC
  5
C6
330
2
100
AcDbEntity
  8
KIJUN
 62
     7
100
AcDbCircle
 10
170.5636911295944
 20
79.84221267257821
 30
0.0
 40
12.46372852399751
100
AcDbArc
 50
14.98087968666916
 51
72.69936669745125
  0
ARC
  5
C7
330
2
100
AcDbEntity
  8
KIJUN
 62
     7
100
AcDbCircle
 10
155.7752847768467
 20
76.56487683787354
 30
0.0
 40
13.10986917886447
100
AcDbArc
 50
312.898129738107
 51
0.8564828252420804
  0
ARC
  5
C8
330
2
100
AcDbEntity
  8
KIJUN
 62
     7
100
AcDbCircle
 10
155.7752847768467
 20
76.56487683787354
 30
0.0
 40
16.60986917886446
100
AcDbArc
 50
309.4214594372819
 51
0.9217755613432967
  0
ARC
  5
C9
330
2
100
AcDbEntity
  8
KIJUN
  6
Continuous
 62
     7
100
AcDbCircle
 10
197.7385098340444
 20
61.95275732456622
 30
0.0
 40
3.290765710649511
100
AcDbArc
 50
327.5104980000007
 51
22.69045100000261
  0
ARC
  5
CA
330
2
100
AcDbEntity
  8
KIJUN
  6
Continuous
 62
     7
100
AcDbCircle
 10
152.4008004069829
 20
71.78792311468376
 30
0.0
 40
16.68157201289859
100
AcDbArc
 50
259.6612550000033
 51
283.7407230000047
  0
ARC
  5
CB
330
2
100
AcDbEntity
  8
KIJUN
  6
Continuous
 62
     7
100
AcDbCircle
 10
152.6096979198387
 20
82.92140794199879
 30
0.0
 40
30.46083242279773
100
AcDbArc
 50
265.5256959999982
 51
285.1378169999931
  0
ARC
  5
CC
330
2
100
AcDbEntity
  8
KIJUN
  6
Continuous
 62
     7
100
AcDbCircle
 10
144.9650511375707
 20
71.2632499569243
 30
0.0
 40
3.942738018965147
100
AcDbArc
 50
340.1780399999933
 51
9.603927000000219
  0
ARC
  5
CD
330
2
100
AcDbEntity
  8
KIJUN
  6
Continuous
 62
     7
100
AcDbCircle
 10
151.5351759721586
 20
88.18601720422027
 30
0.0
 40
3.421670084283908
100
AcDbArc
 50
260.6842275143617
 51
352.4671025143824
  0
ARC
  5
CE
330
2
100
AcDbEntity
  8
KIJUN
  6
Continuous
 62
     7
100
AcDbCircle
 10
153.0854257495862
 20
87.964263708481
 30
0.0
 40
1.855801987567839
100
AcDbArc
 50
352.9800495143787
 51
126.3891905143738
  0
ARC
  5
CF
330
2
100
AcDbEntity
  8
KIJUN
  6
Continuous
 62
     7
100
AcDbCircle
 10
120.8795998246935
 20
98.33094705814708
 30
0.0
 40
9.878442614943148
100
AcDbArc
 50
245.9783170000015
 51
273.5767209999937
  0
ARC
  5
D0
330
2
100
AcDbEntity
  8
KIJUN
  6
Continuous
 62
     7
100
AcDbCircle
 10
121.7738690897834
 20
93.0122055268194
 30
0.0
 40
4.548948848591945
100
AcDbArc
 50
266.4967959999994
 51
329.1052550000112
  0
ARC
  5
D1
330
2
100
AcDbEntity
  8
KIJUN
  6
Continuous
 62
     7
100
AcDbCircle
 10
128.3202181847679
 20
79.02517001881216
 30
0.0
 40
2.9832057123029
100
AcDbArc
 50
322.7585449999958
 51
43.98495899999629
  0
ARC
  5
D2
330
2
100
AcDbEntity
  8
KIJUN
  6
Continuous
 62
     7
100
AcDbCircle
 10
128.148255066668
 20
84.3029476077609
 30
0.0
 40
3.956487730757806
100
AcDbArc
 50
259.4813839999961
 51
305.8787540000044
  0
ARC
  5
D3
330
2
100
AcDbEntity
  8
KIJUN
  6
Continuous
 62
     7
100
AcDbCircle
 10
125.6013642234268
 20
88.11061087913465
 30
0.0
 40
5.459917180020926
100
AcDbArc
 50
245.3079829999978
 51
294.6912839999983
  0
ARC
  5
D4
330
2
100
AcDbEntity
  8
KIJUN
  6
Continuous
 62
     7
100
AcDbCircle
 10
134.7017509015387
 20
69.29633388212828
 30
0.0
 40
3.503724109576306
100
AcDbArc
 50
276.6032100000016
 51
339.9761959999895
  0
ARC
  5
D5
330
2
100
AcDbEntity
  8
KIJUN
  6
Continuous
 62
     7
100
AcDbCircle
 10
134.2843879268343
 20
69.43317525283948
 30
0.0
 40
3.942738018965147
100
AcDbArc
 50
340.1780399999933
 51
9.603927000000219
  0
ARC
  5
D6
330
2
100
AcDbEntity
  8
KIJUN
  6
Continuous
 62
     7
100
AcDbCircle
 10
135.4278905669394
 20
80.05196316040182
 30
0.0
 40
11.53946643779949
100
AcDbArc
 50
222.8639829999978
 51
236.2834629999892
  0
ARC
  5
D7
330
2
100
AcDbEntity
  8
KIJUN
  6
Continuous
 62
     7
100
AcDbCircle
 10
141.4537082834518
 20
82.62193890183814
 30
0.0
 40
19.56742922548181
100
AcDbArc
 50
210.6101529999955
 51
233.9351810000069
  0
ARC
  5
D8
330
2
100
AcDbEntity
  8
KIJUN
  6
Continuous
 62
     7
100
AcDbCircle
 10
133.5205454846133
 20
71.54486406976779
 30
0.0
 40
5.943988305293201
100
AcDbArc
 50
232.8970490000023
 51
285.4562380000057
  0
ARC
  5
D9
330
2
100
AcDbEntity
  8
KIJUN
  6
Continuous
 62
     7
100
AcDbCircle
 10
140.5842007202718
 20
62.97109105172838
 30
0.0
 40
15.15625114897302
100
AcDbArc
 50
183.0424959999874
 51
207.3475649999968
  0
ARC
  5
DA
330
2
100
AcDbEntity
  8
KIJUN
  6
Continuous
 62
     7
100
AcDbCircle
 10
145.9288403984451
 20
72.2431928939373
 30
0.0
 40
20.25937956069737
100
AcDbArc
 50
202.3983150000042
 51
230.8129730000025
  0
ARC
  5
DB
330
2
100
AcDbEntity
  8
KIJUN
  6
Continuous
 62
     7
100
AcDbCircle
 10
151.8454474221747
 20
83.56797246654585
 30
0.0
 40
27.84514870094739
100
AcDbArc
 50
224.2863009999992
 51
243.3401789999958
  0
ARC
  5
DC
330
2
100
AcDbEntity
  8
KIJUN
  6
Continuous
 62
     7
100
AcDbCircle
 10
152.4902113626869
 20
83.0489377284894
 30
0.0
 40
30.09240843572657
100
AcDbArc
 50
219.9875639999937
 51
245.5609740000028
  0
ARC
  5
DD
330
2
100
AcDbEntity
  8
KIJUN
  6
Continuous
 62
     7
100
AcDbCircle
 10
130.4670648079651
 20
59.05709025953122
 30
0.0
 40
4.526356055834876
100
AcDbArc
 50
222.3439640000098
 51
282.6119079999966
  0
ARC
  5
DE
330
2
100
AcDbEntity
  8
KIJUN
  6
Continuous
 62
     7
100
AcDbCircle
 10
153.7313361566723
 20
85.81645872790778
 30
0.0
 40
35.79931166992839
100
AcDbArc
 50
234.8633269999972
 51
251.1675569999871
  0
ARC
  5
DF
330
2
100
AcDbEntity
  8
KIJUN
  6
Continuous
 62
     7
100
AcDbCircle
 10
130.9547752581642
 20
56.76678369005166
 30
0.0
 40
2.184952997283811
100
AcDbArc
 50
283.2451480000062
 51
354.0581969999887
  0
ARC
  5
E0
330
2
100
AcDbEntity
  8
KIJUN
  6
Continuous
 62
     7
100
AcDbCircle
 10
371.9873735129191
 20
191.7648914655371
 30
0.0
 40
275.8845318224958
100
AcDbArc
 50
205.6644440000025
 51
207.4651029999893
  0
ARC
  5
E1
330
2
100
AcDbEntity
  8
KIJUN
  6
Continuous
 62
     7
100
AcDbCircle
 10
117.3129346034918
 20
61.70281168822481
 30
0.0
 40
8.154264605231659
100
AcDbArc
 50
3.795620000007258
 51
30.91236899999861
  0
ARC
  5
E2
330
2
100
AcDbEntity
  8
KIJUN
  6
Continuous
 62
     7
100
AcDbCircle
 10
145.3454204887598
 20
77.01698960815048
 30
0.0
 40
18.61847056401891
100
AcDbArc
 50
212.487334999999
 51
223.8266299999986
  0
ARC
  5
E3
330
2
100
AcDbEntity
  8
KIJUN
  6
Continuous
 62
     7
100
AcDbCircle
 10
153.9214264040783
 20
98.92552332461413
 30
0.0
 40
36.93239027642764
100
AcDbArc
 50
213.8369749999943
 51
221.9123380000029
  0
ARC
  5
E4
330
2
100
AcDbEntity
  8
KIJUN
  6
Continuous
 62
     7
100
AcDbCircle
 10
127.6920928627884
 20
79.80472246493063
 30
0.0
 40
3.962316288933825
100
AcDbArc
 50
241.9595030000021
 51
319.2791139999981
  0
ARC
  5
E5
330
2
100
AcDbEntity
  8
KIJUN
  6
Continuous
 62
     7
100
AcDbCircle
 10
74.37011260898723
 20
33.14598109905097
 30
0.0
 40
66.4554262950887
100
AcDbArc
 50
47.91453599999368
 51
53.50639000000127
  0
ARC
  5
E6
330
2
100
AcDbEntity
  8
KIJUN
  6
Continuous
 62
     7
100
AcDbCircle
 10
118.2185283253235
 20
69.16595885292309
 30
0.0
 40
6.284267218052207
100
AcDbArc
 50
248.7998349999886
 51
286.9572749999993
  0
ARC
  5
E7
330
2
100
AcDbEntity
  8
KIJUN
  6
Continuous
 62
     7
100
AcDbCircle
 10
124.0558725437049
 20
56.70276658129709
 30
0.0
 40
7.570023470828632
100
AcDbArc
 50
122.6174320000098
 51
157.0236660000019
  0
ARC
  5
E8
330
2
100
AcDbEntity
  8
KIJUN
  6
Continuous
 62
     7
100
AcDbCircle
 10
122.2365698840583
 20
52.0693367477634
 30
0.0
 40
6.235193566869467
100
AcDbArc
 50
94.01443500000107
 51
139.9107969999967
  0
ARC
  5
E9
330
2
100
AcDbEntity
  8
KIJUN
  6
Continuous
 62
     7
100
AcDbCircle
 10
119.8389933765495
 20
58.14369352610021
 30
0.0
 40
3.141496087938798
100
AcDbArc
 50
151.1875919999936
 51
220.9567869999957
  0
ARC
  5
EA
330
2
100
AcDbEntity
  8
KIJUN
  6
Continuous
 62
     7
100
AcDbCircle
 10
121.4092147641089
 20
51.53588842105938
 30
0.0
 40
8.105225046085672
100
AcDbArc
 50
125.4669879999976
 51
141.8682099999978
  0
ARC
  5
EB
330
2
100
AcDbEntity
  8
KIJUN
  6
Continuous
 62
     7
100
AcDbCircle
 10
99.06817596369114
 20
69.884267446357
 30
0.0
 40
18.13553601480274
100
AcDbArc
 50
325.6738589999983
 51
13.45065300001199
  0
ARC
  5
EC
330
2
100
AcDbEntity
  8
KIJUN
  6
Continuous
 62
     7
100
AcDbCircle
 10
95.7515444936333
 20
70.0804800990766
 30
0.0
 40
19.29922245189998
100
AcDbArc
 50
345.3746639999951
 51
22.44192499999858
  0
ARC
  5
ED
330
2
100
AcDbEntity
  8
KIJUN
  6
Continuous
 62
     7
100
AcDbCircle
 10
89.20760439441549
 20
52.91692785174435
 30
0.0
 40
39.22434545813099
100
AcDbArc
 50
29.57750300000653
 51
46.56793600000055
  0
ARC
  5
EE
330
2
100
AcDbEntity
  8
KIJUN
  6
Continuous
 62
     7
100
AcDbCircle
 10
180.8153874799737
 20
145.0472189982937
 30
0.0
 40
88.02614411732681
100
AcDbArc
 50
225.3113709999926
 51
231.3428339999965
  0
ARC
  5
EF
330
2
100
AcDbEntity
  8
KIJUN
  6
Continuous
 62
     7
100
AcDbCircle
 10
32.50267880750582
 20
-38.63040769243518
 30
0.0
 40
151.9155480360123
100
AcDbArc
 50
53.286125000007
 51
56.4765469999962
  0
ARC
  5
F0
330
2
100
AcDbEntity
  8
KIJUN
  6
Continuous
 62
     7
100
AcDbCircle
 10
103.66904514853
 20
66.75703389311599
 30
0.0
 40
17.97141786773012
100
AcDbArc
 50
5.004408999987439
 51
31.53130499999506
  0
ARC
  5
F1
330
2
100
AcDbEntity
  8
KIJUN
  6
Continuous
 62
     7
100
AcDbCircle
 10
118.6936740242511
 20
61.27716146387598
 30
0.0
 40
4.310135573483571
100
AcDbArc
 50
316.112914999993
 51
18.19116600000541
  0
ARC
  5
F2
330
2
100
AcDbEntity
  8
KIJUN
  6
Continuous
 62
     7
100
AcDbCircle
 10
125.1737251221017
 20
58.81189049695223
 30
0.0
 40
3.413906540775647
100
AcDbArc
 50
188.8058169999975
 51
304.7957459999967
  0
ARC
  5
F3
330
2
100
AcDbEntity
  8
KIJUN
  6
Continuous
 62
     7
100
AcDbCircle
 10
114.1410796879487
 20
67.7204222713836
 30
0.0
 40
7.455412206051982
100
AcDbArc
 50
321.4953920000121
 51
4.649230999991074
  0
ARC
  5
F4
330
2
100
AcDbEntity
  8
KIJUN
  6
Continuous
 62
     7
100
AcDbCircle
 10
132.7554546182394
 20
94.11290745050377
 30
0.0
 40
14.70007701288389
100
AcDbArc
 50
223.134491000004
 51
248.743011000002
  0
ARC
  5
F5
330
2
100
AcDbEntity
  8
KIJUN
  6
Continuous
 62
     7
100
AcDbCircle
 10
122.1167631240025
 20
94.20760044280727
 30
0.0
 40
2.918186428790873
100
AcDbArc
 50
299.3847659999983
 51
326.0329590000034
  0
ARC
  5
F6
330
2
100
AcDbEntity
  8
KIJUN
  6
Continuous
 62
     7
100
AcDbCircle
 10
124.4736437049978
 20
91.24671583595413
 30
0.0
 40
1.331971417800537
100
AcDbArc
 50
334.653381000007
 51
87.27356699999663
  0
ARC
  5
F7
330
2
100
AcDbEntity
  8
KIJUN
  6
Continuous
 62
     7
100
AcDbCircle
 10
120.4923765706888
 20
101.5634737357793
 30
0.0
 40
10.35969760685628
100
AcDbArc
 50
254.3417050000068
 51
287.1580809999941
  0
ARC
  5
F8
330
2
100
AcDbEntity
  8
KIJUN
 62
     7
100
AcDbCircle
 10
128.5136445028238
 20
103.4969783549933
 30
0.0
 40
16.75819789458569
100
AcDbArc
 50
255.7371441010165
 51
300.0070173835224
  0
ARC
  5
F9
330
2
100
AcDbEntity
  8
KIJUN
 62
     7
100
AcDbCircle
 10
129.2197325805729
 20
90.961370470476
 30
0.0
 40
7.925181162121127
100
AcDbArc
 50
260.2831707071207
 51
345.559104610145
  0
ARC
  5
FA
330
2
100
AcDbEntity
  8
KIJUN
 62
     7
100
AcDbCircle
 10
133.9059984656326
 20
78.06556113745322
 30
0.0
 40
9.043880939795238
100
AcDbArc
 50
237.3181802315094
 51
298.1437685074998
  0
ARC
  5
FB
330
2
100
AcDbEntity
  8
KIJUN
  6
Continuous
 62
     7
100
AcDbCircle
 10
144.2012086953497
 20
73.37493877385265
 30
0.0
 40
5.943988305293201
100
AcDbArc
 50
242.9088467282711
 51
285.4562380000057
  0
ARC
  5
FC
330
2
100
AcDbEntity
  8
KIJUN
  6
Continuous
 62
     7
100
AcDbCircle
 10
102.2412474404522
 20
67.89535454363664
 30
0.0
 40
12.47714168408249
100
AcDbArc
 50
337.559512790364
 51
347.5598749999954
  0
ARC
  5
FD
330
2
100
AcDbEntity
  8
KIJUN
  6
Continuous
 62
     7
100
AcDbCircle
 10
156.1988919456677
 20
92.98107333447052
 30
0.0
 40
38.21232216697104
100
AcDbArc
 50
243.8393250000064
 51
259.7615970000031
  0
ARC
  5
FE
330
2
100
AcDbEntity
  8
KIJUN
  6
Continuous
 62
     7
100
AcDbCircle
 10
157.0562188174868
 20
93.30410351235839
 30
0.0
 40
41.31789927835519
100
AcDbArc
 50
245.6800079999941
 51
260.4951170000003
  0
ARC
  5
FF
330
2
100
AcDbEntity
  8
KIJUN
  6
Continuous
 62
     7
100
AcDbCircle
 10
153.3037930375396
 20
84.29334388100782
 30
0.0
 40
34.21983062293636
100
AcDbArc
 50
251.0218659999952
 51
269.7023319999999
  0
ARC
  5
100
330
2
100
AcDbEntity
  8
KIJUN
 62
     7
100
AcDbCircle
 10
144.5866616763691
 20
79.89563584153808
 30
0.0
 40
9.043880939795238
100
AcDbArc
 50
237.3181802315094
 51
298.1437685074998
  0
ARC
  5
101
330
2
100
AcDbEntity
  8
KIJUN
  6
Continuous
 62
     7
100
AcDbCircle
 10
145.3824141122751
 20
71.12640858621311
 30
0.0
 40
3.503724109576306
100
AcDbArc
 50
276.6032100000016
 51
339.9761959999895
  0
ARC
  5
102
330
2
100
AcDbEntity
  8
KIJUN
 62
     7
100
AcDbCircle
 10
155.7752847768467
 20
76.56487683787354
 30
0.0
 40
16.60986917886446
100
AcDbArc
 50
116.422719967839
 51
195.0015760658196
  0
ARC
  5
103
330
2
100
AcDbEntity
  8
KIJUN
  6
Continuous
 62
     7
100
AcDbCircle
 10
153.6203599447351
 20
88.82827597223291
 30
0.0
 40
5.85131854424839
100
AcDbArc
 50
143.8515625143843
 51
199.4994815143768
  0
ARC
  5
104
330
2
100
AcDbEntity
  8
KIJUN
  6
Continuous
 62
     7
100
AcDbCircle
 10
150.9082724439936
 20
87.74365461087773
 30
0.0
 40
2.935074968182855
100
AcDbArc
 50
197.2128295143771
 51
271.4252325143614
  0
ARC
  5
105
330
2
100
AcDbEntity
  8
KIJUN
 62
     7
100
AcDbCircle
 10
155.7752847768467
 20
76.56487683787354
 30
0.0
 40
13.10986917886447
100
AcDbArc
 50
126.2702973115294
 51
195.0015760658196
  0
LINE
  5
106
330
2
100
AcDbEntity
  8
KIJUN
 62
     7
100
AcDbLine
 10
144.774003009121
 20
76.59569238071781
 30
0.0
 11
161.2008359148058
 21
88.49936738989667
 31
0.0
  0
ARC
  5
107
330
2
100
AcDbEntity
  8
KIJUN
  6
Continuous
 62
     7
100
AcDbCircle
 10
152.5308831625373
 20
68.60584806213552
 30
0.0
 40
13.57427128681009
100
AcDbArc
 50
286.3986819999933
 51
315.5279239999969
  0
ARC
  5
108
330
2
100
AcDbEntity
  8
KIJUN
  6
Continuous
 62
     7
100
AcDbCircle
 10
154.0578636530359
 20
104.9881314625923
 30
0.0
 40
54.92206521657903
100
AcDbArc
 50
269.0276789999975
 51
279.9995419999981
  0
ARC
  5
109
330
2
100
AcDbEntity
  8
KIJUN
  6
Continuous
 62
     7
100
AcDbCircle
 10
155.3784114849352
 20
71.0098511808222
 30
0.0
 40
18.2448366581156
100
AcDbArc
 50
286.513580000003
 51
317.4963679999966
  0
ARC
  5
10A
330
2
100
AcDbEntity
  8
KIJUN
 62
     7
100
AcDbCircle
 10
155.7752847768467
 20
76.56487683787354
 30
0.0
 40
16.60986917886446
100
AcDbArc
 50
11.37686902189607
 51
86.4571140636659
  0
LINE
  5
10B
330
2
100
AcDbEntity
  8
KIJUN
 62
     7
100
AcDbLine
 10
148.6599564928967
 20
72.47624228752903
 30
0.0
 11
165.8606427319752
 21
84.94068872710959
 31
0.0
  0
LINE
  5
10C
330
2
100
AcDbEntity
  8
KIJUN
 62
     7
100
AcDbLine
 10
148.5307753751477
 20
65.63849805002092
 30
0.0
 11
168.4142464080643
 21
80.04701967979604
 31
0.0
  0
LINE
  5
10D
330
2
100
AcDbEntity
  8
KIJUN
 62
     7
100
AcDbLine
 10
155.5696963681166
 20
63.45661977245351
 30
0.0
 11
168.2959015858639
 21
72.6786415633829
 31
0.0
  0
LINE
  5
10E
330
2
100
AcDbEntity
  8
KIJUN
 62
     7
100
AcDbLine
 10
153.3600056068949
 20
85.29157028470839
 30
0.0
 11
168.6394218554644
 21
74.03848670381336
 31
0.0
  0
ARC
  5
10F
330
2
100
AcDbEntity
  8
KIJUN
 62
     7
100
AcDbCircle
 10
155.7752847768467
 20
76.56487683787354
 30
0.0
 40
13.10986917886447
100
AcDbArc
 50
9.909672080712315
 51
86.4571140636659
  0
ARC
  5
110
330
2
100
AcDbEntity
  8
KIJUN
 62
     7
100
AcDbCircle
 10
155.7752847768467
 20
76.56487683787354
 30
0.0
 40
13.10986917886447
100
AcDbArc
 50
222.5445606306319
 51
306.460221047203
  0
ARC
  5
111
330
2
100
AcDbEntity
  8
KIJUN
 62
     7
100
AcDbCircle
 10
155.7752847768467
 20
76.56487683787354
 30
0.0
 40
16.60986917886446
100
AcDbArc
 50
210.706898484518
 51
298.5525873773117
  0
LINE
  5
112
330
2
100
AcDbEntity
  8
KIJUN
 62
     7
100
AcDbLine
 10
145.3431227807593
 20
84.50456612488787
 30
0.0
 11
164.8201872185989
 21
70.15997137965317
 31
0.0
  0
LINE
  5
113
330
2
100
AcDbEntity
  8
KIJUN
 62
     7
100
AcDbLine
 10
142.8906355339494
 20
78.98448089111211
 30
0.0
 11
161.9084487486389
 21
64.97811846540144
 31
0.0
  0
ARC
  5
114
330
2
100
AcDbEntity
  8
KIJUN
 62
     7
100
AcDbCircle
 10
299.7752847768468
 20
76.56487683787354
 30
0.0
 40
13.10986917886447
100
AcDbArc
 50
126.2702973115294
 51
195.0015760658196
  0
ARC
  5
115
330
2
100
AcDbEntity
  8
KIJUN
  6
Continuous
 62
     7
100
AcDbCircle
 10
294.9082724439935
 20
87.74365461087773
 30
0.0
 40
2.935074968182855
100
AcDbArc
 50
197.2128295143771
 51
271.4252325143614
  0
ARC
  5
116
330
2
100
AcDbEntity
  8
KIJUN
  6
Continuous
 62
     7
100
AcDbCircle
 10
297.620359944735
 20
88.82827597223291
 30
0.0
 40
5.85131854424839
100
AcDbArc
 50
143.8515625143843
 51
199.4994815143768
  0
ARC
  5
117
330
2
100
AcDbEntity
  8
KIJUN
 62
     7
100
AcDbCircle
 10
299.7752847768468
 20
76.56487683787354
 30
0.0
 40
16.60986917886446
100
AcDbArc
 50
116.422719967839
 51
195.0015760658196
  0
ARC
  5
118
330
2
100
AcDbEntity
  8
KIJUN
  6
Continuous
 62
     7
100
AcDbCircle
 10
289.3824141122749
 20
71.12640858621311
 30
0.0
 40
3.503724109576306
100
AcDbArc
 50
276.6032100000016
 51
339.9761959999895
  0
ARC
  5
119
330
2
100
AcDbEntity
  8
KIJUN
 62
     7
100
AcDbCircle
 10
288.5866616763691
 20
79.89563584153808
 30
0.0
 40
9.043880939795238
100
AcDbArc
 50
237.3181802315094
 51
298.1437685074998
  0
ARC
  5
11A
330
2
100
AcDbEntity
  8
KIJUN
  6
Continuous
 62
     7
100
AcDbCircle
 10
301.0562188174869
 20
93.30410351235839
 30
0.0
 40
41.31789927835519
100
AcDbArc
 50
245.6800079999941
 51
260.4951170000003
  0
ARC
  5
11B
330
2
100
AcDbEntity
  8
KIJUN
  6
Continuous
 62
     7
100
AcDbCircle
 10
300.1988919456677
 20
92.98107333447052
 30
0.0
 40
38.21232216697104
100
AcDbArc
 50
243.8393250000064
 51
259.7615970000031
  0
ARC
  5
11C
330
2
100
AcDbEntity
  8
KIJUN
  6
Continuous
 62
     7
100
AcDbCircle
 10
245.3652012868769
 20
68.53651705383874
 30
0.0
 40
15.47963850650601
100
AcDbArc
 50
310.2018627100123
 51
324.9992979999908
  0
ARC
  5
11D
330
2
100
AcDbEntity
  8
KIJUN
  6
Continuous
 62
     7
100
AcDbCircle
 10
246.2412474404523
 20
67.89535454363664
 30
0.0
 40
12.47714168408249
100
AcDbArc
 50
337.559512790364
 51
347.5598749999954
  0
ARC
  5
11E
330
2
100
AcDbEntity
  8
KIJUN
  6
Continuous
 62
     7
100
AcDbCircle
 10
288.2012086953496
 20
73.37493877385265
 30
0.0
 40
5.943988305293201
100
AcDbArc
 50
242.9088467282711
 51
285.4562380000057
  0
ARC
  5
11F
330
2
100
AcDbEntity
  8
KIJUN
 62
     7
100
AcDbCircle
 10
277.9059984656326
 20
78.06556113745322
 30
0.0
 40
9.043880939795238
100
AcDbArc
 50
237.3181802315094
 51
298.1437685074998
  0
ARC
  5
120
330
2
100
AcDbEntity
  8
KIJUN
 62
     7
100
AcDbCircle
 10
273.2197325805729
 20
90.961370470476
 30
0.0
 40
7.925181162121127
100
AcDbArc
 50
260.2831707071207
 51
345.559104610145
  0
ARC
  5
121
330
2
100
AcDbEntity
  8
KIJUN
 62
     7
100
AcDbCircle
 10
272.5136445028238
 20
103.4969783549933
 30
0.0
 40
16.75819789458569
100
AcDbArc
 50
255.7371441010165
 51
300.0070173835224
  0
ARC
  5
122
330
2
100
AcDbEntity
  8
KIJUN
  6
Continuous
 62
     7
100
AcDbCircle
 10
264.4923765706888
 20
101.5634737357793
 30
0.0
 40
10.35969760685628
100
AcDbArc
 50
254.3417050000068
 51
287.1580809999941
  0
ARC
  5
123
330
2
100
AcDbEntity
  8
KIJUN
  6
Continuous
 62
     7
100
AcDbCircle
 10
268.4736437049976
 20
91.24671583595413
 30
0.0
 40
1.331971417800537
100
AcDbArc
 50
334.653381000007
 51
87.27356699999663
  0
ARC
  5
124
330
2
100
AcDbEntity
  8
KIJUN
  6
Continuous
 62
     7
100
AcDbCircle
 10
266.1167631240024
 20
94.20760044280727
 30
0.0
 40
2.918186428790873
100
AcDbArc
 50
299.3847659999983
 51
326.0329590000034
  0
ARC
  5
125
330
2
100
AcDbEntity
  8
KIJUN
  6
Continuous
 62
     7
100
AcDbCircle
 10
276.7554546182394
 20
94.11290745050377
 30
0.0
 40
14.70007701288389
100
AcDbArc
 50
223.134491000004
 51
248.743011000002
  0
ARC
  5
126
330
2
100
AcDbEntity
  8
KIJUN
  6
Continuous
 62
     7
100
AcDbCircle
 10
258.1410796879488
 20
67.7204222713836
 30
0.0
 40
7.455412206051982
100
AcDbArc
 50
321.4953920000121
 51
4.649230999991074
  0
ARC
  5
127
330
2
100
AcDbEntity
  8
KIJUN
  6
Continuous
 62
     7
100
AcDbCircle
 10
269.1737251221016
 20
58.81189049695223
 30
0.0
 40
3.413906540775647
100
AcDbArc
 50
188.8058169999975
 51
304.7957459999967
  0
ARC
  5
128
330
2
100
AcDbEntity
  8
KIJUN
  6
Continuous
 62
     7
100
AcDbCircle
 10
262.693674024251
 20
61.27716146387598
 30
0.0
 40
4.310135573483571
100
AcDbArc
 50
316.112914999993
 51
18.19116600000541
  0
ARC
  5
129
330
2
100
AcDbEntity
  8
KIJUN
  6
Continuous
 62
     7
100
AcDbCircle
 10
247.6690451485299
 20
66.75703389311599
 30
0.0
 40
17.97141786773012
100
AcDbArc
 50
5.004408999987439
 51
31.53130499999506
  0
ARC
  5
12A
330
2
100
AcDbEntity
  8
KIJUN
  6
Continuous
 62
     7
100
AcDbCircle
 10
176.5026788075057
 20
-38.63040769243518
 30
0.0
 40
151.9155480360123
100
AcDbArc
 50
53.286125000007
 51
56.4765469999962
  0
ARC
  5
12B
330
2
100
AcDbEntity
  8
KIJUN
  6
Continuous
 62
     7
100
AcDbCircle
 10
324.8153874799739
 20
145.0472189982937
 30
0.0
 40
88.02614411732681
100
AcDbArc
 50
225.3113709999926
 51
231.3428339999965
  0
ARC
  5
12C
330
2
100
AcDbEntity
  8
KIJUN
  6
Continuous
 62
     7
100
AcDbCircle
 10
233.2076043944154
 20
52.91692785174435
 30
0.0
 40
39.22434545813099
100
AcDbArc
 50
29.57750300000653
 51
46.56793600000055
  0
ARC
  5
12D
330
2
100
AcDbEntity
  8
KIJUN
  6
Continuous
 62
     7
100
AcDbCircle
 10
239.7515444936332
 20
70.0804800990766
 30
0.0
 40
19.29922245189998
100
AcDbArc
 50
345.3746639999951
 51
22.44192499999858
  0
ARC
  5
12E
330
2
100
AcDbEntity
  8
KIJUN
  6
Continuous
 62
     7
100
AcDbCircle
 10
243.068175963691
 20
69.884267446357
 30
0.0
 40
18.13553601480274
100
AcDbArc
 50
325.6738589999983
 51
13.45065300001199
  0
ARC
  5
12F
330
2
100
AcDbEntity
  8
KIJUN
  6
Continuous
 62
     7
100
AcDbCircle
 10
265.4092147641089
 20
51.53588842105938
 30
0.0
 40
8.105225046085672
100
AcDbArc
 50
125.4669879999976
 51
141.8682099999978
  0
ARC
  5
130
330
2
100
AcDbEntity
  8
KIJUN
  6
Continuous
 62
     7
100
AcDbCircle
 10
263.8389933765495
 20
58.14369352610021
 30
0.0
 40
3.141496087938798
100
AcDbArc
 50
151.1875919999936
 51
220.9567869999957
  0
ARC
  5
131
330
2
100
AcDbEntity
  8
KIJUN
  6
Continuous
 62
     7
100
AcDbCircle
 10
266.2365698840583
 20
52.0693367477634
 30
0.0
 40
6.235193566869467
100
AcDbArc
 50
94.01443500000107
 51
139.9107969999967
  0
ARC
  5
132
330
2
100
AcDbEntity
  8
KIJUN
  6
Continuous
 62
     7
100
AcDbCircle
 10
268.0558725437048
 20
56.70276658129709
 30
0.0
 40
7.570023470828632
100
AcDbArc
 50
122.6174320000098
 51
157.0236660000019
  0
ARC
  5
133
330
2
100
AcDbEntity
  8
KIJUN
  6
Continuous
 62
     7
100
AcDbCircle
 10
262.2185283253235
 20
69.16595885292309
 30
0.0
 40
6.284267218052207
100
AcDbArc
 50
248.7998349999886
 51
286.9572749999993
  0
ARC
  5
134
330
2
100
AcDbEntity
  8
KIJUN
  6
Continuous
 62
     7
100
AcDbCircle
 10
218.3701126089871
 20
33.14598109905097
 30
0.0
 40
66.4554262950887
100
AcDbArc
 50
47.91453599999368
 51
53.50639000000127
  0
ARC
  5
135
330
2
100
AcDbEntity
  8
KIJUN
  6
Continuous
 62
     7
100
AcDbCircle
 10
271.6920928627884
 20
79.80472246493063
 30
0.0
 40
3.962316288933825
100
AcDbArc
 50
241.9595030000021
 51
319.2791139999981
  0
ARC
  5
136
330
2
100
AcDbEntity
  8
KIJUN
  6
Continuous
 62
     7
100
AcDbCircle
 10
297.9214264040784
 20
98.92552332461413
 30
0.0
 40
36.93239027642764
100
AcDbArc
 50
213.8369749999943
 51
221.9123380000029
  0
ARC
  5
137
330
2
100
AcDbEntity
  8
KIJUN
  6
Continuous
 62
     7
100
AcDbCircle
 10
289.3454204887596
 20
77.01698960815048
 30
0.0
 40
18.61847056401891
100
AcDbArc
 50
212.487334999999
 51
223.8266299999986
  0
ARC
  5
138
330
2
100
AcDbEntity
  8
KIJUN
  6
Continuous
 62
     7
100
AcDbCircle
 10
261.3129346034916
 20
61.70281168822481
 30
0.0
 40
8.154264605231659
100
AcDbArc
 50
3.795620000007258
 51
30.91236899999861
  0
ARC
  5
139
330
2
100
AcDbEntity
  8
KIJUN
  6
Continuous
 62
     7
100
AcDbCircle
 10
515.9873735129188
 20
191.7648914655371
 30
0.0
 40
275.8845318224958
100
AcDbArc
 50
205.6644440000025
 51
207.4651029999893
  0
ARC
  5
13A
330
2
100
AcDbEntity
  8
KIJUN
  6
Continuous
 62
     7
100
AcDbCircle
 10
274.954775258164
 20
56.76678369005166
 30
0.0
 40
2.184952997283811
100
AcDbArc
 50
283.2451480000062
 51
354.0581969999887
  0
ARC
  5
13B
330
2
100
AcDbEntity
  8
KIJUN
  6
Continuous
 62
     7
100
AcDbCircle
 10
297.7313361566721
 20
85.81645872790778
 30
0.0
 40
35.79931166992839
100
AcDbArc
 50
234.8633269999972
 51
251.1675569999871
  0
ARC
  5
13C
330
2
100
AcDbEntity
  8
KIJUN
  6
Continuous
 62
     7
100
AcDbCircle
 10
274.467064807965
 20
59.05709025953122
 30
0.0
 40
4.526356055834876
100
AcDbArc
 50
222.3439640000098
 51
282.6119079999966
  0
ARC
  5
13D
330
2
100
AcDbEntity
  8
KIJUN
  6
Continuous
 62
     7
100
AcDbCircle
 10
296.490211362687
 20
83.0489377284894
 30
0.0
 40
30.09240843572657
100
AcDbArc
 50
219.9875639999937
 51
245.5609740000028
  0
ARC
  5
13E
330
2
100
AcDbEntity
  8
KIJUN
  6
Continuous
 62
     7
100
AcDbCircle
 10
295.8454474221746
 20
83.56797246654585
 30
0.0
 40
27.84514870094739
100
AcDbArc
 50
224.2863009999992
 51
243.3401789999958
  0
ARC
  5
13F
330
2
100
AcDbEntity
  8
KIJUN
  6
Continuous
 62
     7
100
AcDbCircle
 10
289.9288403984449
 20
72.2431928939373
 30
0.0
 40
20.25937956069737
100
AcDbArc
 50
202.3983150000042
 51
230.8129730000025
  0
ARC
  5
140
330
2
100
AcDbEntity
  8
KIJUN
  6
Continuous
 62
     7
100
AcDbCircle
 10
284.5842007202717
 20
62.97109105172838
 30
0.0
 40
15.15625114897302
100
AcDbArc
 50
183.0424959999874
 51
207.3475649999968
  0
ARC
  5
141
330
2
100
AcDbEntity
  8
KIJUN
  6
Continuous
 62
     7
100
AcDbCircle
 10
277.5205454846133
 20
71.54486406976779
 30
0.0
 40
5.943988305293201
100
AcDbArc
 50
232.8970490000023
 51
285.4562380000057
  0
ARC
  5
142
330
2
100
AcDbEntity
  8
KIJUN
  6
Continuous
 62
     7
100
AcDbCircle
 10
285.4537082834518
 20
82.62193890183814
 30
0.0
 40
19.56742922548181
100
AcDbArc
 50
210.6101529999955
 51
233.9351810000069
  0
ARC
  5
143
330
2
100
AcDbEntity
  8
KIJUN
  6
Continuous
 62
     7
100
AcDbCircle
 10
279.4278905669395
 20
80.05196316040182
 30
0.0
 40
11.53946643779949
100
AcDbArc
 50
222.8639829999978
 51
236.2834629999892
  0
ARC
  5
144
330
2
100
AcDbEntity
  8
KIJUN
  6
Continuous
 62
     7
100
AcDbCircle
 10
278.2843879268341
 20
69.43317525283948
 30
0.0
 40
3.942738018965147
100
AcDbArc
 50
340.1780399999933
 51
9.603927000000219
  0
ARC
  5
145
330
2
100
AcDbEntity
  8
KIJUN
  6
Continuous
 62
     7
100
AcDbCircle
 10
278.7017509015386
 20
69.29633388212828
 30
0.0
 40
3.503724109576306
100
AcDbArc
 50
276.6032100000016
 51
339.9761959999895
  0
ARC
  5
146
330
2
100
AcDbEntity
  8
KIJUN
  6
Continuous
 62
     7
100
AcDbCircle
 10
269.6013642234269
 20
88.11061087913465
 30
0.0
 40
5.459917180020926
100
AcDbArc
 50
245.3079829999978
 51
294.6912839999983
  0
ARC
  5
147
330
2
100
AcDbEntity
  8
KIJUN
  6
Continuous
 62
     7
100
AcDbCircle
 10
272.1482550666681
 20
84.3029476077609
 30
0.0
 40
3.956487730757806
100
AcDbArc
 50
259.4813839999961
 51
305.8787540000044
  0
ARC
  5
148
330
2
100
AcDbEntity
  8
KIJUN
  6
Continuous
 62
     7
100
AcDbCircle
 10
272.320218184768
 20
79.02517001881216
 30
0.0
 40
2.9832057123029
100
AcDbArc
 50
322.7585449999958
 51
43.98495899999629
  0
ARC
  5
149
330
2
100
AcDbEntity
  8
KIJUN
  6
Continuous
 62
     7
100
AcDbCircle
 10
265.7738690897835
 20
93.0122055268194
 30
0.0
 40
4.548948848591945
100
AcDbArc
 50
266.4967959999994
 51
329.1052550000112
  0
ARC
  5
14A
330
2
100
AcDbEntity
  8
KIJUN
  6
Continuous
 62
     7
100
AcDbCircle
 10
264.8795998246933
 20
98.33094705814708
 30
0.0
 40
9.878442614943148
100
AcDbArc
 50
245.9783170000015
 51
273.5767209999937
  0
ARC
  5
14B
330
2
100
AcDbEntity
  8
KIJUN
  6
Continuous
 62
     7
100
AcDbCircle
 10
238.7746509483718
 20
25.49055078224097
 30
0.0
 40
69.95932689651683
100
AcDbArc
 50
70.8756179999924
 51
77.79802699999851
  0
ARC
  5
14C
330
2
100
AcDbEntity
  8
KIJUN
  6
Continuous
 62
     7
100
AcDbCircle
 10
288.9650511375705
 20
71.2632499569243
 30
0.0
 40
3.942738018965147
100
AcDbArc
 50
340.1780399999933
 51
9.603927000000219
  0
LINE
  5
14D
330
2
100
AcDbEntity
  8
KIJUN
 62
     7
100
AcDbLine
 10
228.5419154896726
 20
68.42353940284016
 30
0.0
 11
245.1386420915171
 21
56.20027454890243
 31
0.0
  0
LINE
  5
14E
330
2
100
AcDbEntity
  8
KIJUN
 62
     7
100
AcDbLine
 10
230.5563966213433
 20
66.93990127308215
 30
0.0
 11
245.7967601967375
 21
77.98380340959447
 31
0.0
  0
LINE
  5
14F
330
2
100
AcDbEntity
  8
KIJUN
 62
     7
100
AcDbLine
 10
231.1247164379885
 20
73.84765035651803
 30
0.0
 11
249.9170082948384
 21
60.00738136315845
 31
0.0
  0
LINE
  5
150
330
2
100
AcDbEntity
  8
KIJUN
 62
     7
100
AcDbLine
 10
235.3029811430166
 20
63.44410591825777
 30
0.0
 11
250.9574638082148
 21
74.78809871061486
 31
0.0
  0
ARC
  5
151
330
2
100
AcDbEntity
  8
KIJUN
  6
Continuous
 62
     7
100
AcDbCircle
 10
244.5999263235028
 20
75.48693191796366
 30
0.0
 40
25.72463240671678
100
AcDbArc
 50
274.0268582818972
 51
286.6322939999947
  0
ARC
  5
152
330
2
100
AcDbEntity
  8
KIJUN
  6
Continuous
 62
     7
100
AcDbCircle
 10
247.8411203769858
 20
64.45867216209221
 30
0.0
 40
8.68943916910573
100
AcDbArc
 50
249.6313779999979
 51
287.0807521598578
  0
ARC
  5
153
330
2
100
AcDbEntity
  8
KIJUN
  6
Continuous
 62
     7
100
AcDbCircle
 10
241.1667213297041
 20
59.40829147412824
 30
0.0
 40
8.938881685658001
100
AcDbArc
 50
185.7201839999881
 51
206.6048152680139
  0
ARC
  5
154
330
2
100
AcDbEntity
  8
KIJUN
  6
Continuous
 62
     7
100
AcDbCircle
 10
243.3046363637715
 20
62.54500471155306
 30
0.0
 40
12.72035178294641
100
AcDbArc
 50
262.7507237335418
 51
262.7510070000018
  0
ARC
  5
155
330
2
100
AcDbEntity
  8
KIJUN
  6
Continuous
 62
     7
100
AcDbCircle
 10
246.0863070008024
 20
60.6877671869932
 30
0.0
 40
4.555700514224691
100
AcDbArc
 50
218.8009030000034
 51
253.8182980000047
  0
ARC
  5
156
330
2
100
AcDbEntity
  8
KIJUN
  6
Continuous
 62
     7
100
AcDbCircle
 10
247.6112785524694
 20
69.81044258311957
 30
0.0
 40
16.54234760881752
100
AcDbArc
 50
246.5010530000095
 51
271.1112979999962
  0
ARC
  5
157
330
2
100
AcDbEntity
  8
KIJUN
  6
Continuous
 62
     7
100
AcDbCircle
 10
242.3744730355381
 20
58.12102455075415
 30
0.0
 40
3.736965696893283
100
AcDbArc
 50
173.9124600000015
 51
248.6731260000021
  0
ARC
  5
158
330
2
100
AcDbEntity
  8
KIJUN
  6
Continuous
 62
     7
100
AcDbCircle
 10
234.6243017353233
 20
58.67063132276878
 30
0.0
 40
2.356939193069651
100
AcDbArc
 50
88.03287499999845
 51
183.7296140000063
  0
ARC
  5
159
330
2
100
AcDbEntity
  8
KIJUN
  6
Continuous
 62
     7
100
AcDbCircle
 10
234.938120376004
 20
55.47699579168174
 30
0.0
 40
5.554072960498572
100
AcDbArc
 50
40.03240199998981
 51
92.40341899999675
  0
ARC
  5
15A
330
2
100
AcDbEntity
  8
KIJUN
  6
Continuous
 62
     7
100
AcDbCircle
 10
239.6208374604414
 20
58.23183992948504
 30
0.0
 40
1.003706407670519
100
AcDbArc
 50
30.77387200000543
 51
163.4760129999897
  0
ARC
  5
15B
330
2
100
AcDbEntity
  8
KIJUN
  6
Continuous
 62
     7
100
AcDbCircle
 10
240.4081770522498
 20
61.86780809861607
 30
0.0
 40
25.13282113555247
100
AcDbArc
 50
74.74375899999404
 51
106.5221410000024
  0
ARC
  5
15C
330
2
100
AcDbEntity
  8
KIJUN
  6
Continuous
 62
     7
100
AcDbCircle
 10
251.4784851395126
 20
26.10949249625337
 30
0.0
 40
62.56449047035559
100
AcDbArc
 50
106.9287109999937
 51
130.3737492298072
  0
ARC
  5
15D
330
2
100
AcDbEntity
  8
KIJUN
  6
Continuous
 62
     7
100
AcDbCircle
 10
241.4715603901503
 20
66.96779230668681
 30
0.0
 40
21.973419123171
100
AcDbArc
 50
59.42865800000077
 51
102.7932279999965
  0
ARC
  5
15E
330
2
100
AcDbEntity
  8
KIJUN
  6
Continuous
 62
     7
100
AcDbCircle
 10
252.291810861843
 20
35.94549459025739
 30
0.0
 40
59.50960913548762
100
AcDbArc
 50
109.269798000004
 51
136.016715347903
  0
ARC
  5
15F
330
2
100
AcDbEntity
  8
KIJUN
  6
Continuous
 62
     7
100
AcDbCircle
 10
244.2903173937427
 20
43.81769361559697
 30
0.0
 40
45.23551356420392
100
AcDbArc
 50
99.78051000000526
 51
137.7087436527443
  0
LINE
  5
160
330
2
100
AcDbEntity
  8
KIJUN
 62
     7
100
AcDbLine
 10
238.9357485662077
 20
59.33245094516934
 30
0.0
 11
253.5110674843039
 21
69.89442966330128
 31
0.0
  0
LINE
  5
161
330
2
100
AcDbEntity
  8
KIJUN
 62
     7
100
AcDbLine
 10
244.8177850983469
 20
56.31223841753929
 30
0.0
 11
254.2194659472519
 21
63.1251495859886
 31
0.0
  0
LINE
  5
162
330
2
100
AcDbEntity
  8
KIJUN
 62
     7
100
AcDbLine
 10
235.4494963111819
 20
77.35383844606582
 30
0.0
 11
254.284402822792
 21
63.48218433536981
 31
0.0
  0
ARC
  5
163
330
2
100
AcDbEntity
  8
KIJUN
 62
     7
100
AcDbCircle
 10
241.3554517077208
 20
65.64906630939714
 30
0.0
 40
13.10986917886447
100
AcDbArc
 50
313.5825127371901
 51
290.3294563723477
  0
CIRCLE
  5
164
330
2
100
AcDbEntity
  8
KIJUN
 62
     7
100
AcDbCircle
 10
241.3554517077208
 20
65.64906630939714
 30
0.0
 40
16.60986917886446
  0
ARC
  5
165
330
2
100
AcDbEntity
  8
KIJUN
  6
Continuous
 62
     7
100
AcDbCircle
 10
246.4988441165801
 20
52.4303617138749
 30
0.0
 40
42.03653594207946
100
AcDbArc
 50
80.33000199999438
 51
109.2315059999955
  0
ARC
  5
166
330
2
100
AcDbEntity
  8
KIJUN
  6
Continuous
 62
     7
100
AcDbCircle
 10
241.4863501713105
 20
69.60643898213887
 30
0.0
 40
19.73884424852879
100
AcDbArc
 50
13.16694899999094
 51
55.56717300000642
  0
ARC
  5
167
330
2
100
AcDbEntity
  8
KIJUN
  6
Continuous
 62
     7
100
AcDbCircle
 10
242.0682654420676
 20
70.34305867075983
 30
0.0
 40
21.87081900743576
100
AcDbArc
 50
296.8990780000002
 51
320.8690190000043
  0
ARC
  5
168
330
2
100
AcDbEntity
  8
KIJUN
  6
Continuous
 62
     7
100
AcDbCircle
 10
248.3855810871808
 20
66.5911811169904
 30
0.0
 40
24.56427112331203
100
AcDbArc
 50
60.71260799999758
 51
81.80452699999973
  0
ARC
  5
169
330
2
100
AcDbEntity
  8
KIJUN
  6
Continuous
 62
     7
100
AcDbCircle
 10
243.3859001094265
 20
70.90596658203963
 30
0.0
 40
15.63745618293999
100
AcDbArc
 50
24.73045899999497
 51
76.55601500000639
  0
ARC
  5
16A
330
2
100
AcDbEntity
  8
KIJUN
  6
Continuous
 62
     7
100
AcDbCircle
 10
465.2665131881573
 20
80.37071164071816
 30
0.0
 40
14.88125075032859
100
AcDbArc
 50
13.27216299999669
 51
51.50304000000597
  0
ARC
  5
16B
330
2
100
AcDbEntity
  8
KIJUN
  6
Continuous
 62
     7
100
AcDbCircle
 10
484.0360207847441
 20
63.98507122579922
 30
0.0
 40
8.571274071743884
100
AcDbArc
 50
103.1011579999952
 51
137.1259459999957
  0
ARC
  5
16C
330
2
100
AcDbEntity
  8
KIJUN
  6
Continuous
 62
     7
100
AcDbCircle
 10
483.2934907170617
 20
53.496490247474
 30
0.0
 40
14.04773323249085
100
AcDbArc
 50
75.99942000000011
 51
116.3406519999987
  0
ARC
  5
16D
330
2
100
AcDbEntity
  8
KIJUN
  6
Continuous
 62
     7
100
AcDbCircle
 10
483.0026411927771
 20
50.43124086861218
 30
0.0
 40
13.51570142991266
100
AcDbArc
 50
97.5557559999973
 51
115.020102999998
  0
ARC
  5
16E
330
2
100
AcDbEntity
  8
KIJUN
  6
Continuous
 62
     7
100
AcDbCircle
 10
453.8032515000018
 20
83.46290749655357
 30
0.0
 40
26.11589923852227
100
AcDbArc
 50
312.6785280000013
 51
337.4816889999944
  0
ARC
  5
16F
330
2
100
AcDbEntity
  8
KIJUN
  6
Continuous
 62
     7
100
AcDbCircle
 10
460.1761568335067
 20
81.91766390196475
 30
0.0
 40
19.66320463995171
100
AcDbArc
 50
334.5280759999933
 51
5.455626000010561
  0
ARC
  5
170
330
2
100
AcDbEntity
  8
KIJUN
 62
     7
100
AcDbCircle
 10
488.1328542565078
 20
66.98867018882066
 30
0.0
 40
10.75675875050928
100
AcDbArc
 50
6.945443300047899
 51
164.756410038265
  0
ARC
  5
171
330
2
100
AcDbEntity
  8
KIJUN
 62
     7
100
AcDbCircle
 10
501.5030715923691
 20
67.71923348497565
 30
0.0
 40
24.26422024660713
100
AcDbArc
 50
95.62249026276594
 51
166.3116479893336
  0
LINE
  5
172
330
2
100
AcDbEntity
  8
KIJUN
  6
Continuous
 62
     7
100
AcDbLine
 10
424.8678789306183
 20
45.96575457092312
 30
0.0
 11
518.52641816766
 21
45.96575457092291
 31
0.0
  0
ARC
  5
173
330
2
100
AcDbEntity
  8
KIJUN
  6
Continuous
 62
     7
100
AcDbCircle
 10
385.4715603901503
 20
66.96779230668681
 30
0.0
 40
21.973419123171
100
AcDbArc
 50
59.42865800000077
 51
102.7932279999965
  0
ARC
  5
174
330
2
100
AcDbEntity
  8
KIJUN
  6
Continuous
 62
     7
100
AcDbCircle
 10
384.4081770522497
 20
61.86780809861607
 30
0.0
 40
25.13282113555247
100
AcDbArc
 50
74.74375899999404
 51
106.5221410000024
  0
ARC
  5
175
330
2
100
AcDbEntity
  8
KIJUN
  6
Continuous
 62
     7
100
AcDbCircle
 10
391.6112785524692
 20
69.81044258311957
 30
0.0
 40
16.54234760881752
100
AcDbArc
 50
246.5010530000095
 51
271.1112979999962
  0
ARC
  5
176
330
2
100
AcDbEntity
  8
KIJUN
  6
Continuous
 62
     7
100
AcDbCircle
 10
390.0863070008027
 20
60.6877671869932
 30
0.0
 40
4.555700514224691
100
AcDbArc
 50
218.8009030000034
 51
253.8182980000047
  0
ARC
  5
177
330
2
100
AcDbEntity
  8
KIJUN
  6
Continuous
 62
     7
100
AcDbCircle
 10
390.49884411658
 20
52.4303617138749
 30
0.0
 40
42.03653594207946
100
AcDbArc
 50
80.33000199999438
 51
109.2315059999955
  0
CIRCLE
  5
178
330
2
100
AcDbEntity
  8
KIJUN
 62
     7
100
AcDbCircle
 10
385.3554517077206
 20
65.64906630939714
 30
0.0
 40
16.60986917886446
  0
ARC
  5
179
330
2
100
AcDbEntity
  8
KIJUN
 62
     7
100
AcDbCircle
 10
385.3554517077206
 20
65.64906630939714
 30
0.0
 40
13.10986917886447
100
AcDbArc
 50
313.5825127371901
 51
290.3294563723477
  0
LINE
  5
17A
330
2
100
AcDbEntity
  8
KIJUN
 62
     7
100
AcDbLine
 10
379.449496311182
 20
77.35383844606582
 30
0.0
 11
398.2844028227921
 21
63.48218433536981
 31
0.0
  0
LINE
  5
17B
330
2
100
AcDbEntity
  8
KIJUN
 62
     7
100
AcDbLine
 10
379.3029811430166
 20
63.44410591825777
 30
0.0
 11
394.9574638082146
 21
74.78809871061486
 31
0.0
  0
LINE
  5
17C
330
2
100
AcDbEntity
  8
KIJUN
 62
     7
100
AcDbLine
 10
382.9357485662077
 20
59.33245094516934
 30
0.0
 11
397.5110674843037
 21
69.89442966330128
 31
0.0
  0
LINE
  5
17D
330
2
100
AcDbEntity
  8
KIJUN
 62
     7
100
AcDbLine
 10
375.1247164379885
 20
73.84765035651803
 30
0.0
 11
393.9170082948385
 21
60.00738136315845
 31
0.0
  0
LINE
  5
17E
330
2
100
AcDbEntity
  8
KIJUN
 62
     7
100
AcDbLine
 10
374.5563966213433
 20
66.93990127308215
 30
0.0
 11
389.7967601967374
 21
77.98380340959447
 31
0.0
  0
LINE
  5
17F
330
2
100
AcDbEntity
  8
KIJUN
 62
     7
100
AcDbLine
 10
372.5419154896727
 20
68.42353940284016
 30
0.0
 11
389.1386420915172
 21
56.20027454890243
 31
0.0
  0
ARC
  5
180
330
2
100
AcDbEntity
  8
KIJUN
  6
Continuous
 62
     7
100
AcDbCircle
 10
388.2903173937427
 20
43.81769361559697
 30
0.0
 40
45.23551356420392
100
AcDbArc
 50
99.78051000000526
 51
137.7087436527443
  0
ARC
  5
181
330
2
100
AcDbEntity
  8
KIJUN
  6
Continuous
 62
     7
100
AcDbCircle
 10
396.2918108618432
 20
35.94549459025739
 30
0.0
 40
59.50960913548762
100
AcDbArc
 50
109.269798000004
 51
136.016715347903
  0
ARC
  5
182
330
2
100
AcDbEntity
  8
KIJUN
  6
Continuous
 62
     7
100
AcDbCircle
 10
395.4784851395126
 20
26.10949249625337
 30
0.0
 40
62.56449047035559
100
AcDbArc
 50
106.9287109999937
 51
130.3737492298072
  0
ARC
  5
183
330
2
100
AcDbEntity
  8
KIJUN
  6
Continuous
 62
     7
100
AcDbCircle
 10
383.6208374604413
 20
58.23183992948504
 30
0.0
 40
1.003706407670519
100
AcDbArc
 50
30.77387200000543
 51
163.4760129999897
  0
ARC
  5
184
330
2
100
AcDbEntity
  8
KIJUN
  6
Continuous
 62
     7
100
AcDbCircle
 10
378.9381203760042
 20
55.47699579168174
 30
0.0
 40
5.554072960498572
100
AcDbArc
 50
40.03240199998981
 51
92.40341899999675
  0
ARC
  5
185
330
2
100
AcDbEntity
  8
KIJUN
  6
Continuous
 62
     7
100
AcDbCircle
 10
378.6243017353235
 20
58.67063132276878
 30
0.0
 40
2.356939193069651
100
AcDbArc
 50
88.03287499999845
 51
183.7296140000063
  0
ARC
  5
186
330
2
100
AcDbEntity
  8
KIJUN
  6
Continuous
 62
     7
100
AcDbCircle
 10
387.3046363637716
 20
62.54500471155306
 30
0.0
 40
12.72035178294641
100
AcDbArc
 50
262.7507237335418
 51
262.7510070000018
  0
ARC
  5
187
330
2
100
AcDbEntity
  8
KIJUN
  6
Continuous
 62
     7
100
AcDbCircle
 10
385.166721329704
 20
59.40829147412824
 30
0.0
 40
8.938881685658001
100
AcDbArc
 50
185.7201839999881
 51
206.6048152680139
  0
ARC
  5
188
330
2
100
AcDbEntity
  8
KIJUN
  6
Continuous
 62
     7
100
AcDbCircle
 10
386.3744730355382
 20
58.12102455075415
 30
0.0
 40
3.736965696893283
100
AcDbArc
 50
173.9124600000015
 51
248.6731260000021
  0
ARC
  5
189
330
2
100
AcDbEntity
  8
KIJUN
  6
Continuous
 62
     7
100
AcDbCircle
 10
341.6987182643616
 20
58.66665369994172
 30
0.0
 40
7.488498134352362
100
AcDbArc
 50
317.3228760000021
 51
17.18618800000732
  0
ARC
  5
18A
330
2
100
AcDbEntity
  8
KIJUN
  6
Continuous
 62
     7
100
AcDbCircle
 10
341.7385098340445
 20
61.95275732456622
 30
0.0
 40
3.290765710649511
100
AcDbArc
 50
327.5104980000007
 51
22.69045100000261
  0
ARC
  5
18B
330
2
100
AcDbEntity
  8
KIJUN
 62
     7
100
AcDbCircle
 10
299.7752847768468
 20
76.56487683787354
 30
0.0
 40
13.10986917886447
100
AcDbArc
 50
9.909672080712315
 51
86.4571140636659
  0
LINE
  5
18C
330
2
100
AcDbEntity
  8
KIJUN
 62
     7
100
AcDbLine
 10
297.3600056068948
 20
85.29157028470839
 30
0.0
 11
312.6394218554644
 21
74.03848670381336
 31
0.0
  0
LINE
  5
18D
330
2
100
AcDbEntity
  8
KIJUN
 62
     7
100
AcDbLine
 10
299.5696963681165
 20
63.45661977245351
 30
0.0
 11
312.2959015858639
 21
72.6786415633829
 31
0.0
  0
ARC
  5
18E
330
2
100
AcDbEntity
  8
KIJUN
 62
     7
100
AcDbCircle
 10
299.7752847768468
 20
76.56487683787354
 30
0.0
 40
16.60986917886446
100
AcDbArc
 50
309.4214594372819
 51
0.9217755613432967
  0
ARC
  5
18F
330
2
100
AcDbEntity
  8
KIJUN
 62
     7
100
AcDbCircle
 10
299.7752847768468
 20
76.56487683787354
 30
0.0
 40
13.10986917886447
100
AcDbArc
 50
312.898129738107
 51
0.8564828252420804
  0
ARC
  5
190
330
2
100
AcDbEntity
  8
KIJUN
 62
     7
100
AcDbCircle
 10
299.7752847768468
 20
76.56487683787354
 30
0.0
 40
16.60986917886446
100
AcDbArc
 50
11.37686902189607
 51
86.4571140636659
  0
ARC
  5
191
330
2
100
AcDbEntity
  8
KIJUN
  6
Continuous
 62
     7
100
AcDbCircle
 10
297.0854257495861
 20
87.964263708481
 30
0.0
 40
1.855801987567839
100
AcDbArc
 50
352.9800495143787
 51
126.3891905143738
  0
ARC
  5
192
330
2
100
AcDbEntity
  8
KIJUN
 62
     7
100
AcDbCircle
 10
314.5636911295945
 20
79.84221267257821
 30
0.0
 40
12.46372852399751
100
AcDbArc
 50
14.98087968666916
 51
72.69936669745125
  0
ARC
  5
193
330
2
100
AcDbEntity
  8
KIJUN
  6
Continuous
 62
     7
100
AcDbCircle
 10
324.5583270978151
 20
85.08777409196731
 30
0.0
 40
9.147502135154248
100
AcDbArc
 50
49.24908399999186
 51
93.15091700000147
  0
ARC
  5
194
330
2
100
AcDbEntity
  8
KIJUN
  6
Continuous
 62
     7
100
AcDbCircle
 10
323.9832045722607
 20
86.40092776764211
 30
0.0
 40
7.82085445113933
100
AcDbArc
 50
89.47008500000526
 51
136.9266969999895
  0
ARC
  5
195
330
2
100
AcDbEntity
  8
KIJUN
 62
     7
100
AcDbCircle
 10
305.0102102592018
 20
63.08289513221012
 30
0.0
 40
5.352400220951675
100
AcDbArc
 50
308.8363601960537
 51
73.37508749266371
  0
ARC
  5
196
330
2
100
AcDbEntity
  8
KIJUN
 62
     7
100
AcDbCircle
 10
315.6866928681403
 20
74.99717227601656
 30
0.0
 40
4.858463093169452
100
AcDbArc
 50
24.02442459402223
 51
177.9604511372323
  0
ARC
  5
197
330
2
100
AcDbEntity
  8
KIJUN
 62
     7
100
AcDbCircle
 10
314.725602834654
 20
72.26506391012167
 30
0.0
 40
4.858463093169452
100
AcDbArc
 50
349.3422300455161
 51
143.2782565887258
  0
ARC
  5
198
330
2
100
AcDbEntity
  8
KIJUN
  6
Continuous
 62
     7
100
AcDbCircle
 10
319.3490282162439
 20
78.95173734512019
 30
0.0
 40
12.97459498276656
100
AcDbArc
 50
339.3964230000092
 51
8.458106999987196
  0
ARC
  5
199
330
2
100
AcDbEntity
  8
KIJUN
  6
Continuous
 62
     7
100
AcDbCircle
 10
314.8352011150371
 20
78.37917365116805
 30
0.0
 40
13.77216559480413
100
AcDbArc
 50
345.8216859999903
 51
10.08685299999508
  0
ARC
  5
19A
330
2
100
AcDbEntity
  8
KIJUN
  6
Continuous
 62
     7
100
AcDbCircle
 10
316.1761568335069
 20
81.91766390196475
 30
0.0
 40
19.66320463995171
100
AcDbArc
 50
334.5280759999933
 51
5.455626000010561
  0
ARC
  5
19B
330
2
100
AcDbEntity
  8
KIJUN
  6
Continuous
 62
     7
100
AcDbCircle
 10
354.1825225814055
 20
19.67667984902419
 30
0.0
 40
47.81021118385214
100
AcDbArc
 50
115.9191060000003
 51
122.0454789999947
  0
ARC
  5
19C
330
2
100
AcDbEntity
  8
KIJUN
  6
Continuous
 62
     7
100
AcDbCircle
 10
309.8032515000019
 20
83.46290749655357
 30
0.0
 40
26.11589923852227
100
AcDbArc
 50
312.6785280000013
 51
337.4816889999944
  0
ARC
  5
19D
330
2
100
AcDbEntity
  8
KIJUN
  6
Continuous
 62
     7
100
AcDbCircle
 10
307.9480309127862
 20
82.74185777224493
 30
0.0
 40
24.98441915517715
100
AcDbArc
 50
322.0028690000086
 51
340.4610290000028
  0
ARC
  5
19E
330
2
100
AcDbEntity
  8
KIJUN
  6
Continuous
 62
     7
100
AcDbCircle
 10
342.9957849436982
 20
56.93123187426506
 30
0.0
 40
4.991121647432509
100
AcDbArc
 50
181.4942630000101
 51
245.8851010000061
  0
ARC
  5
19F
330
2
100
AcDbEntity
  8
KIJUN
  6
Continuous
 62
     7
100
AcDbCircle
 10
332.3188143861005
 20
60.57536325047299
 30
0.0
 40
7.94372647866798
100
AcDbArc
 50
351.5213930000121
 51
8.481994999999589
  0
ARC
  5
1A0
330
2
100
AcDbEntity
  8
KIJUN
  6
Continuous
 62
     7
100
AcDbCircle
 10
340.0355886026158
 20
57.31549397262581
 30
0.0
 40
2.093410895916258
100
AcDbArc
 50
86.16313900000312
 51
194.225371999998
  0
ARC
  5
1A1
330
2
100
AcDbEntity
  8
KIJUN
  6
Continuous
 62
     7
100
AcDbCircle
 10
337.5882807298599
 20
61.2126241893157
 30
0.0
 40
2.641995955817284
100
AcDbArc
 50
11.67050200000909
 51
97.88352199999575
  0
ARC
  5
1A2
330
2
100
AcDbEntity
  8
KIJUN
  6
Continuous
 62
     7
100
AcDbCircle
 10
339.002641192777
 20
50.43124086861218
 30
0.0
 40
13.51570142991266
100
AcDbArc
 50
97.5557559999973
 51
115.020102999998
  0
ARC
  5
1A3
330
2
100
AcDbEntity
  8
KIJUN
  6
Continuous
 62
     7
100
AcDbCircle
 10
338.3698819762644
 20
68.83663423606737
 30
0.0
 40
3.507590671037116
100
AcDbArc
 50
335.5924069999894
 51
94.51998899999638
  0
ARC
  5
1A4
330
2
100
AcDbEntity
  8
KIJUN
  6
Continuous
 62
     7
100
AcDbCircle
 10
339.2934907170619
 20
53.496490247474
 30
0.0
 40
14.04773323249085
100
AcDbArc
 50
75.99942000000011
 51
116.3406519999987
  0
ARC
  5
1A5
330
2
100
AcDbEntity
  8
KIJUN
  6
Continuous
 62
     7
100
AcDbCircle
 10
340.0360207847445
 20
63.98507122579922
 30
0.0
 40
8.571274071743884
100
AcDbArc
 50
103.1011579999952
 51
137.1259459999957
  0
ARC
  5
1A6
330
2
100
AcDbEntity
  8
KIJUN
  6
Continuous
 62
     7
100
AcDbCircle
 10
324.2698784396573
 20
79.78100529057821
 30
0.0
 40
7.985872365735811
100
AcDbArc
 50
7.766039999989722
 51
62.30626700000042
  0
ARC
  5
1A7
330
2
100
AcDbEntity
  8
KIJUN
  6
Continuous
 62
     7
100
AcDbCircle
 10
299.1924028410614
 20
71.35564618512791
 30
0.0
 40
20.630256469813
100
AcDbArc
 50
326.5748289999997
 51
345.4994199999881
  0
ARC
  5
1A8
330
2
100
AcDbEntity
  8
KIJUN
  6
Continuous
 62
     7
100
AcDbCircle
 10
303.6678630263524
 20
67.34710043874002
 30
0.0
 40
12.60936437055352
100
AcDbArc
 50
316.597747999999
 51
358.4978329999996
  0
ARC
  5
1A9
330
2
100
AcDbEntity
  8
KIJUN
  6
Continuous
 62
     7
100
AcDbCircle
 10
300.8760365026934
 20
64.22712573574159
 30
0.0
 40
6.926314023236491
100
AcDbArc
 50
359.1471859999983
 51
35.11782799999615
  0
ARC
  5
1AA
330
2
100
AcDbEntity
  8
KIJUN
  6
Continuous
 62
     7
100
AcDbCircle
 10
310.8019777167229
 20
66.91928537005296
 30
0.0
 40
11.62801106239703
100
AcDbArc
 50
319.5274350000113
 51
356.0646060000022
  0
ARC
  5
1AB
330
2
100
AcDbEntity
  8
KIJUN
  6
Continuous
 62
     7
100
AcDbCircle
 10
310.8835775311845
 20
58.47641148072153
 30
0.0
 40
6.684191984837892
100
AcDbArc
 50
233.4838409999957
 51
278.4428710000033
  0
ARC
  5
1AC
330
2
100
AcDbEntity
  8
KIJUN
  6
Continuous
 62
     7
100
AcDbCircle
 10
303.0933985702229
 20
66.15618324952953
 30
0.0
 40
15.90537278083975
100
AcDbArc
 50
286.4188229999971
 51
296.0335689999932
  0
ARC
  5
1AD
330
2
100
AcDbEntity
  8
KIJUN
  6
Continuous
 62
     7
100
AcDbCircle
 10
308.5493057399852
 20
60.85988240802527
 30
0.0
 40
7.927416061545418
100
AcDbArc
 50
258.0337520000051
 51
295.8252869999938
  0
ARC
  5
1AE
330
2
100
AcDbEntity
  8
KIJUN
  6
Continuous
 62
     7
100
AcDbCircle
 10
302.38342521753
 20
69.04728853780267
 30
0.0
 40
16.57155701029251
100
AcDbArc
 50
285.8361819999961
 51
316.546264999994
  0
ARC
  5
1AF
330
2
100
AcDbEntity
  8
KIJUN
  6
Continuous
 62
     7
100
AcDbCircle
 10
299.3784114849352
 20
71.0098511808222
 30
0.0
 40
18.2448366581156
100
AcDbArc
 50
286.513580000003
 51
317.4963679999966
  0
ARC
  5
1B0
330
2
100
AcDbEntity
  8
KIJUN
  6
Continuous
 62
     7
100
AcDbCircle
 10
298.057863653036
 20
104.9881314625923
 30
0.0
 40
54.92206521657903
100
AcDbArc
 50
269.0276789999975
 51
279.9995419999981
  0
ARC
  5
1B1
330
2
100
AcDbEntity
  8
KIJUN
  6
Continuous
 62
     7
100
AcDbCircle
 10
301.6538763484615
 20
63.29755062626606
 30
0.0
 40
6.202953383327032
100
AcDbArc
 50
317.3667599999957
 51
7.656777999994332
  0
ARC
  5
1B2
330
2
100
AcDbEntity
  8
KIJUN
  6
Continuous
 62
     7
100
AcDbCircle
 10
296.5308831625374
 20
68.60584806213552
 30
0.0
 40
13.57427128681009
100
AcDbArc
 50
286.3986819999933
 51
315.5279239999969
  0
ARC
  5
1B3
330
2
100
AcDbEntity
  8
KIJUN
  6
Continuous
 62
     7
100
AcDbCircle
 10
303.9621538795003
 20
81.47331432657692
 30
0.0
 40
30.6451103713121
100
AcDbArc
 50
284.9427799999989
 51
303.0621640000019
  0
ARC
  5
1B4
330
2
100
AcDbEntity
  8
KIJUN
  6
Continuous
 62
     7
100
AcDbCircle
 10
301.1217164384984
 20
76.45155272336004
 30
0.0
 40
25.19778259372523
100
AcDbArc
 50
295.5830690000001
 51
317.3254389999926
  0
ARC
  5
1B5
330
2
100
AcDbEntity
  8
KIJUN
  6
Continuous
 62
     7
100
AcDbCircle
 10
321.4759070023931
 20
68.28771179612596
 30
0.0
 40
4.032300553106241
100
AcDbArc
 50
89.55503800000208
 51
149.692229999994
  0
ARC
  5
1B6
330
2
100
AcDbEntity
  8
KIJUN
  6
Continuous
 62
     7
100
AcDbCircle
 10
328.3127055647204
 20
62.84735072624886
 30
0.0
 40
12.74129884819078
100
AcDbArc
 50
144.0760650000012
 51
160.899062999998
  0
ARC
  5
1B7
330
2
100
AcDbEntity
  8
KIJUN
  6
Continuous
 62
     7
100
AcDbCircle
 10
308.409587132495
 20
65.76541861964966
 30
0.0
 40
13.99751553122858
100
AcDbArc
 50
1.45703300001309
 51
18.10790600001
  0
ARC
  5
1B8
330
2
100
AcDbEntity
  8
KIJUN
  6
Continuous
 62
     7
100
AcDbCircle
 10
318.1026213856541
 20
73.45817552076784
 30
0.0
 40
8.623165298641142
100
AcDbArc
 50
299.9103699999988
 51
327.3609620000071
  0
ARC
  5
1B9
330
2
100
AcDbEntity
  8
KIJUN
  6
Continuous
 62
     7
100
AcDbCircle
 10
334.3328650521201
 20
72.41067828525577
 30
0.0
 40
12.82597192864522
100
AcDbArc
 50
180.4053040000079
 51
190.3061219999984
  0
ARC
  5
1BA
330
2
100
AcDbEntity
  8
KIJUN
  6
Continuous
 62
     7
100
AcDbCircle
 10
400.5373013144361
 20
-72.77332025541905
 30
0.0
 40
154.3857289118435
100
AcDbArc
 50
115.9167399999973
 51
119.7780460000016
  0
ARC
  5
1BB
330
2
100
AcDbEntity
  8
KIJUN
  6
Continuous
 62
     7
100
AcDbCircle
 10
311.2824533122211
 20
79.23925765089444
 30
0.0
 40
20.21286543473555
100
AcDbArc
 50
299.486511000003
 51
324.0087280000017
  0
ARC
  5
1BC
330
2
100
AcDbEntity
  8
KIJUN
  6
Continuous
 62
     7
100
AcDbCircle
 10
409.6378001029028
 20
-98.52030536827914
 30
0.0
 40
178.1153820001468
100
AcDbArc
 50
116.9880519999951
 51
119.9635310000045
  0
ARC
  5
1BD
330
2
100
AcDbEntity
  8
KIJUN
  6
Continuous
 62
     7
100
AcDbCircle
 10
282.5389857367131
 20
116.0381837662202
 30
0.0
 40
68.57653880659288
100
AcDbArc
 50
299.6717830000079
 51
310.9748839999981
  0
ARC
  5
1BE
330
2
100
AcDbEntity
  8
KIJUN
  6
Continuous
 62
     7
100
AcDbCircle
 10
306.1364272840183
 20
81.30907410378886
 30
0.0
 40
22.93459650172986
100
AcDbArc
 50
326.9678960000054
 51
344.0475769999915
  0
ARC
  5
1BF
330
2
100
AcDbEntity
  8
KIJUN
  6
Continuous
 62
     7
100
AcDbCircle
 10
324.8055436666117
 20
79.80540273218828
 30
0.0
 40
3.721893607444211
100
AcDbArc
 50
15.35964000000709
 51
61.10817700000039
  0
ARC
  5
1C0
330
2
100
AcDbEntity
  8
KIJUN
  6
Continuous
 62
     7
100
AcDbCircle
 10
321.2665131881573
 20
80.37071164071816
 30
0.0
 40
14.88125075032859
100
AcDbArc
 50
13.27216299999669
 51
51.50304000000597
  0
ARC
  5
1C1
330
2
100
AcDbEntity
  8
KIJUN
  6
Continuous
 62
     7
100
AcDbCircle
 10
341.7377895742061
 20
63.16875628746067
 30
0.0
 40
4.075610420982796
100
AcDbArc
 50
247.4625399999995
 51
312.9401550000019
  0
ARC
  5
1C2
330
2
100
AcDbEntity
  8
KIJUN
  6
Continuous
 62
     7
100
AcDbCircle
 10
343.014480229915
 20
59.01847919217978
 30
0.0
 40
2.864909753969203
100
AcDbArc
 50
172.2619170000005
 51
341.3561100000034
  0
ARC
  5
1C3
330
2
100
AcDbEntity
  8
KIJUN
  6
Continuous
 62
     7
100
AcDbCircle
 10
338.14294531778
 20
56.47958345605484
 30
0.0
 40
11.57843665164366
100
AcDbArc
 50
22.33338700000854
 51
66.86514300000438
  0
ARC
  5
1C4
330
2
100
AcDbEntity
  8
KIJUN
  6
Continuous
 62
     7
100
AcDbCircle
 10
343.1767036464845
 20
57.63069714336579
 30
0.0
 40
5.704731833707021
100
AcDbArc
 50
247.0969699999969
 51
314.9093320000043
  0
ARC
  5
1C5
330
2
100
AcDbEntity
  8
KIJUN
 62
     7
100
AcDbCircle
 10
344.2317907206529
 20
71.3039149490358
 30
0.0
 40
11.00000013182443
100
AcDbArc
 50
344.0949037750677
 51
103.1039450663009
  0
ARC
  5
1C6
330
2
100
AcDbEntity
  8
KIJUN
 62
     7
100
AcDbCircle
 10
344.1328542565079
 20
66.98867018882066
 30
0.0
 40
10.75675875050928
100
AcDbArc
 50
6.945443300047899
 51
164.756410038265
  0
ARC
  5
1C7
330
2
100
AcDbEntity
  8
KIJUN
 62
     7
100
AcDbCircle
 10
357.5030715923691
 20
67.71923348497565
 30
0.0
 40
24.26422024660713
100
AcDbArc
 50
95.62249026276594
 51
166.3116479893336
  0
ARC
  5
1C8
330
2
100
AcDbEntity
  8
KIJUN
  6
Continuous
 62
     7
100
AcDbCircle
 10
468.8055436666116
 20
79.80540273218828
 30
0.0
 40
3.721893607444211
100
AcDbArc
 50
15.35964000000709
 51
61.10817700000039
  0
ARC
  5
1C9
330
2
100
AcDbEntity
  8
KIJUN
  6
Continuous
 62
     7
100
AcDbCircle
 10
450.1364272840183
 20
81.30907410378886
 30
0.0
 40
22.93459650172986
100
AcDbArc
 50
326.9678960000054
 51
344.0475769999915
  0
ARC
  5
1CA
330
2
100
AcDbEntity
  8
KIJUN
  6
Continuous
 62
     7
100
AcDbCircle
 10
426.538985736713
 20
116.0381837662202
 30
0.0
 40
68.57653880659288
100
AcDbArc
 50
299.6717830000079
 51
310.9748839999981
  0
ARC
  5
1CB
330
2
100
AcDbEntity
  8
KIJUN
  6
Continuous
 62
     7
100
AcDbCircle
 10
553.6378001029029
 20
-98.52030536827914
 30
0.0
 40
178.1153820001468
100
AcDbArc
 50
116.9880519999951
 51
119.9635310000045
  0
ARC
  5
1CC
330
2
100
AcDbEntity
  8
KIJUN
  6
Continuous
 62
     7
100
AcDbCircle
 10
455.2824533122211
 20
79.23925765089444
 30
0.0
 40
20.21286543473555
100
AcDbArc
 50
299.486511000003
 51
324.0087280000017
  0
ARC
  5
1CD
330
2
100
AcDbEntity
  8
KIJUN
  6
Continuous
 62
     7
100
AcDbCircle
 10
544.5373013144362
 20
-72.77332025541905
 30
0.0
 40
154.3857289118435
100
AcDbArc
 50
115.9167399999973
 51
119.7780460000016
  0
ARC
  5
1CE
330
2
100
AcDbEntity
  8
KIJUN
  6
Continuous
 62
     7
100
AcDbCircle
 10
478.33286505212
 20
72.41067828525577
 30
0.0
 40
12.82597192864522
100
AcDbArc
 50
180.4053040000079
 51
190.3061219999984
  0
ARC
  5
1CF
330
2
100
AcDbEntity
  8
KIJUN
  6
Continuous
 62
     7
100
AcDbCircle
 10
462.102621385654
 20
73.45817552076784
 30
0.0
 40
8.623165298641142
100
AcDbArc
 50
299.9103699999988
 51
327.3609620000071
  0
ARC
  5
1D0
330
2
100
AcDbEntity
  8
KIJUN
  6
Continuous
 62
     7
100
AcDbCircle
 10
452.4095871324949
 20
65.76541861964966
 30
0.0
 40
13.99751553122858
100
AcDbArc
 50
1.45703300001309
 51
18.10790600001
  0
ARC
  5
1D1
330
2
100
AcDbEntity
  8
KIJUN
  6
Continuous
 62
     7
100
AcDbCircle
 10
472.3127055647204
 20
62.84735072624886
 30
0.0
 40
12.74129884819078
100
AcDbArc
 50
144.0760650000012
 51
160.899062999998
  0
ARC
  5
1D2
330
2
100
AcDbEntity
  8
KIJUN
  6
Continuous
 62
     7
100
AcDbCircle
 10
465.475907002393
 20
68.28771179612596
 30
0.0
 40
4.032300553106241
100
AcDbArc
 50
89.55503800000208
 51
149.692229999994
  0
ARC
  5
1D3
330
2
100
AcDbEntity
  8
KIJUN
  6
Continuous
 62
     7
100
AcDbCircle
 10
445.1217164384984
 20
76.45155272336004
 30
0.0
 40
25.19778259372523
100
AcDbArc
 50
295.5830690000001
 51
317.3254389999926
  0
ARC
  5
1D4
330
2
100
AcDbEntity
  8
KIJUN
  6
Continuous
 62
     7
100
AcDbCircle
 10
447.9621538795004
 20
81.47331432657692
 30
0.0
 40
30.6451103713121
100
AcDbArc
 50
284.9427799999989
 51
303.0621640000019
  0
ARC
  5
1D5
330
2
100
AcDbEntity
  8
KIJUN
  6
Continuous
 62
     7
100
AcDbCircle
 10
440.5308831625371
 20
68.60584806213552
 30
0.0
 40
13.57427128681009
100
AcDbArc
 50
286.3986819999933
 51
315.5279239999969
  0
ARC
  5
1D6
330
2
100
AcDbEntity
  8
KIJUN
  6
Continuous
 62
     7
100
AcDbCircle
 10
445.6538763484615
 20
63.29755062626606
 30
0.0
 40
6.202953383327032
100
AcDbArc
 50
317.3667599999957
 51
7.656777999994332
  0
ARC
  5
1D7
330
2
100
AcDbEntity
  8
KIJUN
  6
Continuous
 62
     7
100
AcDbCircle
 10
440.4008004069829
 20
71.78792311468376
 30
0.0
 40
16.68157201289859
100
AcDbArc
 50
259.6612550000033
 51
283.7407230000047
  0
ARC
  5
1D8
330
2
100
AcDbEntity
  8
KIJUN
  6
Continuous
 62
     7
100
AcDbCircle
 10
442.0578636530359
 20
104.9881314625923
 30
0.0
 40
54.92206521657903
100
AcDbArc
 50
269.0276789999975
 51
279.9995419999981
  0
ARC
  5
1D9
330
2
100
AcDbEntity
  8
KIJUN
  6
Continuous
 62
     7
100
AcDbCircle
 10
440.6096979198386
 20
82.92140794199879
 30
0.0
 40
30.46083242279773
100
AcDbArc
 50
265.5256959999982
 51
285.1378169999931
  0
ARC
  5
1DA
330
2
100
AcDbEntity
  8
KIJUN
  6
Continuous
 62
     7
100
AcDbCircle
 10
443.3784114849352
 20
71.0098511808222
 30
0.0
 40
18.2448366581156
100
AcDbArc
 50
286.513580000003
 51
317.4963679999966
  0
ARC
  5
1DB
330
2
100
AcDbEntity
  8
KIJUN
  6
Continuous
 62
     7
100
AcDbCircle
 10
446.3834252175301
 20
69.04728853780267
 30
0.0
 40
16.57155701029251
100
AcDbArc
 50
285.8361819999961
 51
316.546264999994
  0
ARC
  5
1DC
330
2
100
AcDbEntity
  8
KIJUN
  6
Continuous
 62
     7
100
AcDbCircle
 10
452.5493057399854
 20
60.85988240802527
 30
0.0
 40
7.927416061545418
100
AcDbArc
 50
258.0337520000051
 51
295.8252869999938
  0
ARC
  5
1DD
330
2
100
AcDbEntity
  8
KIJUN
  6
Continuous
 62
     7
100
AcDbCircle
 10
447.0933985702229
 20
66.15618324952953
 30
0.0
 40
15.90537278083975
100
AcDbArc
 50
286.4188229999971
 51
296.0335689999932
  0
ARC
  5
1DE
330
2
100
AcDbEntity
  8
KIJUN
  6
Continuous
 62
     7
100
AcDbCircle
 10
454.8835775311846
 20
58.47641148072153
 30
0.0
 40
6.684191984837892
100
AcDbArc
 50
233.4838409999957
 51
278.4428710000033
  0
ARC
  5
1DF
330
2
100
AcDbEntity
  8
KIJUN
  6
Continuous
 62
     7
100
AcDbCircle
 10
454.8019777167228
 20
66.91928537005296
 30
0.0
 40
11.62801106239703
100
AcDbArc
 50
319.5274350000113
 51
356.0646060000022
  0
ARC
  5
1E0
330
2
100
AcDbEntity
  8
KIJUN
  6
Continuous
 62
     7
100
AcDbCircle
 10
444.8760365026934
 20
64.22712573574159
 30
0.0
 40
6.926314023236491
100
AcDbArc
 50
359.1471859999983
 51
35.11782799999615
  0
ARC
  5
1E1
330
2
100
AcDbEntity
  8
KIJUN
  6
Continuous
 62
     7
100
AcDbCircle
 10
447.6678630263521
 20
67.34710043874002
 30
0.0
 40
12.60936437055352
100
AcDbArc
 50
316.597747999999
 51
358.4978329999996
  0
ARC
  5
1E2
330
2
100
AcDbEntity
  8
KIJUN
  6
Continuous
 62
     7
100
AcDbCircle
 10
443.1924028410613
 20
71.35564618512791
 30
0.0
 40
20.630256469813
100
AcDbArc
 50
326.5748289999997
 51
345.4994199999881
  0
ARC
  5
1E3
330
2
100
AcDbEntity
  8
KIJUN
  6
Continuous
 62
     7
100
AcDbCircle
 10
468.2698784396571
 20
79.78100529057821
 30
0.0
 40
7.985872365735811
100
AcDbArc
 50
7.766039999989722
 51
62.30626700000042
  0
ARC
  5
1E4
330
2
100
AcDbEntity
  8
KIJUN
  6
Continuous
 62
     7
100
AcDbCircle
 10
451.9480309127861
 20
82.74185777224493
 30
0.0
 40
24.98441915517715
100
AcDbArc
 50
322.0028690000086
 51
340.4610290000028
  0
ARC
  5
1E5
330
2
100
AcDbEntity
  8
KIJUN
  6
Continuous
 62
     7
100
AcDbCircle
 10
498.1825225814052
 20
19.67667984902419
 30
0.0
 40
47.81021118385214
100
AcDbArc
 50
115.9191060000003
 51
122.0454789999947
  0
ARC
  5
1E6
330
2
100
AcDbEntity
  8
KIJUN
  6
Continuous
 62
     7
100
AcDbCircle
 10
458.8352011150369
 20
78.37917365116805
 30
0.0
 40
13.77216559480413
100
AcDbArc
 50
345.8216859999903
 51
10.08685299999508
  0
ARC
  5
1E7
330
2
100
AcDbEntity
  8
KIJUN
  6
Continuous
 62
     7
100
AcDbCircle
 10
463.3490282162439
 20
78.95173734512019
 30
0.0
 40
12.97459498276656
100
AcDbArc
 50
339.3964230000092
 51
8.458106999987196
  0
ARC
  5
1E8
330
2
100
AcDbEntity
  8
KIJUN
 62
     7
100
AcDbCircle
 10
458.7256028346541
 20
72.26506391012167
 30
0.0
 40
4.858463093169452
100
AcDbArc
 50
349.3422300455161
 51
143.2782565887258
  0
ARC
  5
1E9
330
2
100
AcDbEntity
  8
KIJUN
 62
     7
100
AcDbCircle
 10
459.68669286814
 20
74.99717227601656
 30
0.0
 40
4.858463093169452
100
AcDbArc
 50
24.02442459402223
 51
177.9604511372323
  0
ARC
  5
1EA
330
2
100
AcDbEntity
  8
KIJUN
 62
     7
100
AcDbCircle
 10
449.0102102592016
 20
63.08289513221012
 30
0.0
 40
5.352400220951675
100
AcDbArc
 50
308.8363601960537
 51
73.37508749266371
  0
ARC
  5
1EB
330
2
100
AcDbEntity
  8
KIJUN
  6
Continuous
 62
     7
100
AcDbCircle
 10
467.9832045722608
 20
86.40092776764211
 30
0.0
 40
7.82085445113933
100
AcDbArc
 50
89.47008500000526
 51
136.9266969999895
  0
ARC
  5
1EC
330
2
100
AcDbEntity
  8
KIJUN
  6
Continuous
 62
     7
100
AcDbCircle
 10
468.5583270978152
 20
85.08777409196731
 30
0.0
 40
9.147502135154248
100
AcDbArc
 50
49.24908399999186
 51
93.15091700000147
  0
ARC
  5
1ED
330
2
100
AcDbEntity
  8
KIJUN
  6
Continuous
 62
     7
100
AcDbCircle
 10
432.9650511375705
 20
71.2632499569243
 30
0.0
 40
3.942738018965147
100
AcDbArc
 50
340.1780399999933
 51
9.603927000000219
  0
ARC
  5
1EE
330
2
100
AcDbEntity
  8
KIJUN
 62
     7
100
AcDbCircle
 10
458.5636911295942
 20
79.84221267257821
 30
0.0
 40
12.46372852399751
100
AcDbArc
 50
14.98087968666916
 51
72.69936669745125
  0
ARC
  5
1EF
330
2
100
AcDbEntity
  8
KIJUN
  6
Continuous
 62
     7
100
AcDbCircle
 10
439.5351759721584
 20
88.18601720422027
 30
0.0
 40
3.421670084283908
100
AcDbArc
 50
260.6842275143617
 51
352.4671025143824
  0
ARC
  5
1F0
330
2
100
AcDbEntity
  8
KIJUN
  6
Continuous
 62
     7
100
AcDbCircle
 10
441.085425749586
 20
87.964263708481
 30
0.0
 40
1.855801987567839
100
AcDbArc
 50
352.9800495143787
 51
126.3891905143738
  0
ARC
  5
1F1
330
2
100
AcDbEntity
  8
KIJUN
 62
     7
100
AcDbCircle
 10
443.7752847768466
 20
76.56487683787354
 30
0.0
 40
16.60986917886446
100
AcDbArc
 50
11.37686902189607
 51
86.4571140636659
  0
ARC
  5
1F2
330
2
100
AcDbEntity
  8
KIJUN
 62
     7
100
AcDbCircle
 10
443.7752847768466
 20
76.56487683787354
 30
0.0
 40
13.10986917886447
100
AcDbArc
 50
9.909672080712315
 51
86.4571140636659
  0
ARC
  5
1F3
330
2
100
AcDbEntity
  8
KIJUN
 62
     7
100
AcDbCircle
 10
443.7752847768466
 20
76.56487683787354
 30
0.0
 40
13.10986917886447
100
AcDbArc
 50
312.898129738107
 51
0.8564828252420804
  0
ARC
  5
1F4
330
2
100
AcDbEntity
  8
KIJUN
 62
     7
100
AcDbCircle
 10
443.7752847768466
 20
76.56487683787354
 30
0.0
 40
16.60986917886446
100
AcDbArc
 50
309.4214594372819
 51
0.9217755613432967
  0
LINE
  5
1F5
330
2
100
AcDbEntity
  8
KIJUN
 62
     7
100
AcDbLine
 10
441.3600056068948
 20
85.29157028470839
 30
0.0
 11
456.6394218554641
 21
74.03848670381336
 31
0.0
  0
LINE
  5
1F6
330
2
100
AcDbEntity
  8
KIJUN
 62
     7
100
AcDbLine
 10
436.6599564928966
 20
72.47624228752903
 30
0.0
 11
453.860642731975
 21
84.94068872710959
 31
0.0
  0
LINE
  5
1F7
330
2
100
AcDbEntity
  8
KIJUN
 62
     7
100
AcDbLine
 10
436.5307753751475
 20
65.63849805002092
 30
0.0
 11
456.4142464080641
 21
80.04701967979604
 31
0.0
  0
LINE
  5
1F8
330
2
100
AcDbEntity
  8
KIJUN
 62
     7
100
AcDbLine
 10
443.5696963681166
 20
63.45661977245351
 30
0.0
 11
456.2959015858639
 21
72.6786415633829
 31
0.0
  0
ARC
  5
1F9
330
2
100
AcDbEntity
  8
KIJUN
  6
Continuous
 62
     7
100
AcDbCircle
 10
387.3859001094266
 20
70.90596658203963
 30
0.0
 40
15.63745618293999
100
AcDbArc
 50
24.73045899999497
 51
76.55601500000639
  0
ARC
  5
1FA
330
2
100
AcDbEntity
  8
KIJUN
  6
Continuous
 62
     7
100
AcDbCircle
 10
392.385581087181
 20
66.5911811169904
 30
0.0
 40
24.56427112331203
100
AcDbArc
 50
60.71260799999758
 51
81.80452699999973
  0
ARC
  5
1FB
330
2
100
AcDbEntity
  8
KIJUN
  6
Continuous
 62
     7
100
AcDbCircle
 10
382.7746509483718
 20
25.49055078224097
 30
0.0
 40
69.95932689651683
100
AcDbArc
 50
70.8756179999924
 51
77.79802699999851
  0
ARC
  5
1FC
330
2
100
AcDbEntity
  8
KIJUN
  6
Continuous
 62
     7
100
AcDbCircle
 10
389.365201286877
 20
68.53651705383874
 30
0.0
 40
15.47963850650601
100
AcDbArc
 50
310.2018627100123
 51
324.9992979999908
  0
ARC
  5
1FD
330
2
100
AcDbEntity
  8
KIJUN
  6
Continuous
 62
     7
100
AcDbCircle
 10
386.0682654420679
 20
70.34305867075983
 30
0.0
 40
21.87081900743576
100
AcDbArc
 50
296.8990780000002
 51
320.8690190000043
  0
ARC
  5
1FE
330
2
100
AcDbEntity
  8
KIJUN
  6
Continuous
 62
     7
100
AcDbCircle
 10
390.2412474404523
 20
67.89535454363664
 30
0.0
 40
12.47714168408249
100
AcDbArc
 50
337.559512790364
 51
347.5598749999954
  0
ARC
  5
1FF
330
2
100
AcDbEntity
  8
KIJUN
  6
Continuous
 62
     7
100
AcDbCircle
 10
385.4863501713104
 20
69.60643898213887
 30
0.0
 40
19.73884424852879
100
AcDbArc
 50
13.16694899999094
 51
55.56717300000642
  0
ARC
  5
200
330
2
100
AcDbEntity
  8
KIJUN
  6
Continuous
 62
     7
100
AcDbCircle
 10
391.8411203769856
 20
64.45867216209221
 30
0.0
 40
8.68943916910573
100
AcDbArc
 50
249.6313779999979
 51
287.0807521598578
  0
ARC
  5
201
330
2
100
AcDbEntity
  8
KIJUN
  6
Continuous
 62
     7
100
AcDbCircle
 10
388.5999263235028
 20
75.48693191796366
 30
0.0
 40
25.72463240671678
100
AcDbArc
 50
274.0268582818972
 51
286.6322939999947
  0
ARC
  5
202
330
2
100
AcDbEntity
  8
KIJUN
  6
Continuous
 62
     7
100
AcDbCircle
 10
408.8795998246933
 20
98.33094705814708
 30
0.0
 40
9.878442614943148
100
AcDbArc
 50
245.9783170000015
 51
273.5767209999937
  0
ARC
  5
203
330
2
100
AcDbEntity
  8
KIJUN
  6
Continuous
 62
     7
100
AcDbCircle
 10
409.7738690897831
 20
93.0122055268194
 30
0.0
 40
4.548948848591945
100
AcDbArc
 50
266.4967959999994
 51
329.1052550000112
  0
ARC
  5
204
330
2
100
AcDbEntity
  8
KIJUN
  6
Continuous
 62
     7
100
AcDbCircle
 10
416.3202181847678
 20
79.02517001881216
 30
0.0
 40
2.9832057123029
100
AcDbArc
 50
322.7585449999958
 51
43.98495899999629
  0
ARC
  5
205
330
2
100
AcDbEntity
  8
KIJUN
  6
Continuous
 62
     7
100
AcDbCircle
 10
416.148255066668
 20
84.3029476077609
 30
0.0
 40
3.956487730757806
100
AcDbArc
 50
259.4813839999961
 51
305.8787540000044
  0
ARC
  5
206
330
2
100
AcDbEntity
  8
KIJUN
  6
Continuous
 62
     7
100
AcDbCircle
 10
413.6013642234266
 20
88.11061087913465
 30
0.0
 40
5.459917180020926
100
AcDbArc
 50
245.3079829999978
 51
294.6912839999983
  0
ARC
  5
207
330
2
100
AcDbEntity
  8
KIJUN
  6
Continuous
 62
     7
100
AcDbCircle
 10
422.7017509015385
 20
69.29633388212828
 30
0.0
 40
3.503724109576306
100
AcDbArc
 50
276.6032100000016
 51
339.9761959999895
  0
ARC
  5
208
330
2
100
AcDbEntity
  8
KIJUN
  6
Continuous
 62
     7
100
AcDbCircle
 10
422.2843879268342
 20
69.43317525283948
 30
0.0
 40
3.942738018965147
100
AcDbArc
 50
340.1780399999933
 51
9.603927000000219
  0
ARC
  5
209
330
2
100
AcDbEntity
  8
KIJUN
  6
Continuous
 62
     7
100
AcDbCircle
 10
423.4278905669392
 20
80.05196316040182
 30
0.0
 40
11.53946643779949
100
AcDbArc
 50
222.8639829999978
 51
236.2834629999892
  0
ARC
  5
20A
330
2
100
AcDbEntity
  8
KIJUN
  6
Continuous
 62
     7
100
AcDbCircle
 10
429.4537082834517
 20
82.62193890183814
 30
0.0
 40
19.56742922548181
100
AcDbArc
 50
210.6101529999955
 51
233.9351810000069
  0
ARC
  5
20B
330
2
100
AcDbEntity
  8
KIJUN
  6
Continuous
 62
     7
100
AcDbCircle
 10
421.5205454846133
 20
71.54486406976779
 30
0.0
 40
5.943988305293201
100
AcDbArc
 50
232.8970490000023
 51
285.4562380000057
  0
ARC
  5
20C
330
2
100
AcDbEntity
  8
KIJUN
  6
Continuous
 62
     7
100
AcDbCircle
 10
428.5842007202717
 20
62.97109105172838
 30
0.0
 40
15.15625114897302
100
AcDbArc
 50
183.0424959999874
 51
207.3475649999968
  0
ARC
  5
20D
330
2
100
AcDbEntity
  8
KIJUN
  6
Continuous
 62
     7
100
AcDbCircle
 10
433.928840398445
 20
72.2431928939373
 30
0.0
 40
20.25937956069737
100
AcDbArc
 50
202.3983150000042
 51
230.8129730000025
  0
ARC
  5
20E
330
2
100
AcDbEntity
  8
KIJUN
  6
Continuous
 62
     7
100
AcDbCircle
 10
439.8454474221746
 20
83.56797246654585
 30
0.0
 40
27.84514870094739
100
AcDbArc
 50
224.2863009999992
 51
243.3401789999958
  0
ARC
  5
20F
330
2
100
AcDbEntity
  8
KIJUN
  6
Continuous
 62
     7
100
AcDbCircle
 10
440.4902113626867
 20
83.0489377284894
 30
0.0
 40
30.09240843572657
100
AcDbArc
 50
219.9875639999937
 51
245.5609740000028
  0
ARC
  5
210
330
2
100
AcDbEntity
  8
KIJUN
  6
Continuous
 62
     7
100
AcDbCircle
 10
418.4670648079649
 20
59.05709025953122
 30
0.0
 40
4.526356055834876
100
AcDbArc
 50
222.3439640000098
 51
282.6119079999966
  0
ARC
  5
211
330
2
100
AcDbEntity
  8
KIJUN
  6
Continuous
 62
     7
100
AcDbCircle
 10
441.7313361566721
 20
85.81645872790778
 30
0.0
 40
35.79931166992839
100
AcDbArc
 50
234.8633269999972
 51
251.1675569999871
  0
ARC
  5
212
330
2
100
AcDbEntity
  8
KIJUN
  6
Continuous
 62
     7
100
AcDbCircle
 10
418.9547752581639
 20
56.76678369005166
 30
0.0
 40
2.184952997283811
100
AcDbArc
 50
283.2451480000062
 51
354.0581969999887
  0
ARC
  5
213
330
2
100
AcDbEntity
  8
KIJUN
  6
Continuous
 62
     7
100
AcDbCircle
 10
659.987373512919
 20
191.7648914655371
 30
0.0
 40
275.8845318224958
100
AcDbArc
 50
205.6644440000025
 51
207.4651029999893
  0
ARC
  5
214
330
2
100
AcDbEntity
  8
KIJUN
  6
Continuous
 62
     7
100
AcDbCircle
 10
405.3129346034917
 20
61.70281168822481
 30
0.0
 40
8.154264605231659
100
AcDbArc
 50
3.795620000007258
 51
30.91236899999861
  0
ARC
  5
215
330
2
100
AcDbEntity
  8
KIJUN
  6
Continuous
 62
     7
100
AcDbCircle
 10
433.3454204887596
 20
77.01698960815048
 30
0.0
 40
18.61847056401891
100
AcDbArc
 50
212.487334999999
 51
223.8266299999986
  0
ARC
  5
216
330
2
100
AcDbEntity
  8
KIJUN
  6
Continuous
 62
     7
100
AcDbCircle
 10
441.9214264040782
 20
98.92552332461413
 30
0.0
 40
36.93239027642764
100
AcDbArc
 50
213.8369749999943
 51
221.9123380000029
  0
ARC
  5
217
330
2
100
AcDbEntity
  8
KIJUN
  6
Continuous
 62
     7
100
AcDbCircle
 10
415.6920928627881
 20
79.80472246493063
 30
0.0
 40
3.962316288933825
100
AcDbArc
 50
241.9595030000021
 51
319.2791139999981
  0
ARC
  5
218
330
2
100
AcDbEntity
  8
KIJUN
  6
Continuous
 62
     7
100
AcDbCircle
 10
362.3701126089873
 20
33.14598109905097
 30
0.0
 40
66.4554262950887
100
AcDbArc
 50
47.91453599999368
 51
53.50639000000127
  0
ARC
  5
219
330
2
100
AcDbEntity
  8
KIJUN
  6
Continuous
 62
     7
100
AcDbCircle
 10
406.2185283253235
 20
69.16595885292309
 30
0.0
 40
6.284267218052207
100
AcDbArc
 50
248.7998349999886
 51
286.9572749999993
  0
ARC
  5
21A
330
2
100
AcDbEntity
  8
KIJUN
  6
Continuous
 62
     7
100
AcDbCircle
 10
412.0558725437049
 20
56.70276658129709
 30
0.0
 40
7.570023470828632
100
AcDbArc
 50
122.6174320000098
 51
157.0236660000019
  0
ARC
  5
21B
330
2
100
AcDbEntity
  8
KIJUN
  6
Continuous
 62
     7
100
AcDbCircle
 10
410.2365698840582
 20
52.0693367477634
 30
0.0
 40
6.235193566869467
100
AcDbArc
 50
94.01443500000107
 51
139.9107969999967
  0
ARC
  5
21C
330
2
100
AcDbEntity
  8
KIJUN
  6
Continuous
 62
     7
100
AcDbCircle
 10
407.8389933765492
 20
58.14369352610021
 30
0.0
 40
3.141496087938798
100
AcDbArc
 50
151.1875919999936
 51
220.9567869999957
  0
ARC
  5
21D
330
2
100
AcDbEntity
  8
KIJUN
  6
Continuous
 62
     7
100
AcDbCircle
 10
409.4092147641086
 20
51.53588842105938
 30
0.0
 40
8.105225046085672
100
AcDbArc
 50
125.4669879999976
 51
141.8682099999978
  0
ARC
  5
21E
330
2
100
AcDbEntity
  8
KIJUN
  6
Continuous
 62
     7
100
AcDbCircle
 10
387.0681759636911
 20
69.884267446357
 30
0.0
 40
18.13553601480274
100
AcDbArc
 50
325.6738589999983
 51
13.45065300001199
  0
ARC
  5
21F
330
2
100
AcDbEntity
  8
KIJUN
  6
Continuous
 62
     7
100
AcDbCircle
 10
383.7515444936333
 20
70.0804800990766
 30
0.0
 40
19.29922245189998
100
AcDbArc
 50
345.3746639999951
 51
22.44192499999858
  0
ARC
  5
220
330
2
100
AcDbEntity
  8
KIJUN
  6
Continuous
 62
     7
100
AcDbCircle
 10
377.2076043944153
 20
52.91692785174435
 30
0.0
 40
39.22434545813099
100
AcDbArc
 50
29.57750300000653
 51
46.56793600000055
  0
ARC
  5
221
330
2
100
AcDbEntity
  8
KIJUN
  6
Continuous
 62
     7
100
AcDbCircle
 10
468.8153874799739
 20
145.0472189982937
 30
0.0
 40
88.02614411732681
100
AcDbArc
 50
225.3113709999926
 51
231.3428339999965
  0
ARC
  5
222
330
2
100
AcDbEntity
  8
KIJUN
  6
Continuous
 62
     7
100
AcDbCircle
 10
320.5026788075057
 20
-38.63040769243518
 30
0.0
 40
151.9155480360123
100
AcDbArc
 50
53.286125000007
 51
56.4765469999962
  0
ARC
  5
223
330
2
100
AcDbEntity
  8
KIJUN
  6
Continuous
 62
     7
100
AcDbCircle
 10
391.6690451485299
 20
66.75703389311599
 30
0.0
 40
17.97141786773012
100
AcDbArc
 50
5.004408999987439
 51
31.53130499999506
  0
ARC
  5
224
330
2
100
AcDbEntity
  8
KIJUN
  6
Continuous
 62
     7
100
AcDbCircle
 10
406.693674024251
 20
61.27716146387598
 30
0.0
 40
4.310135573483571
100
AcDbArc
 50
316.112914999993
 51
18.19116600000541
  0
ARC
  5
225
330
2
100
AcDbEntity
  8
KIJUN
  6
Continuous
 62
     7
100
AcDbCircle
 10
413.1737251221015
 20
58.81189049695223
 30
0.0
 40
3.413906540775647
100
AcDbArc
 50
188.8058169999975
 51
304.7957459999967
  0
ARC
  5
226
330
2
100
AcDbEntity
  8
KIJUN
  6
Continuous
 62
     7
100
AcDbCircle
 10
402.1410796879488
 20
67.7204222713836
 30
0.0
 40
7.455412206051982
100
AcDbArc
 50
321.4953920000121
 51
4.649230999991074
  0
ARC
  5
227
330
2
100
AcDbEntity
  8
KIJUN
  6
Continuous
 62
     7
100
AcDbCircle
 10
420.7554546182393
 20
94.11290745050377
 30
0.0
 40
14.70007701288389
100
AcDbArc
 50
223.134491000004
 51
248.743011000002
  0
ARC
  5
228
330
2
100
AcDbEntity
  8
KIJUN
  6
Continuous
 62
     7
100
AcDbCircle
 10
410.1167631240024
 20
94.20760044280727
 30
0.0
 40
2.918186428790873
100
AcDbArc
 50
299.3847659999983
 51
326.0329590000034
  0
ARC
  5
229
330
2
100
AcDbEntity
  8
KIJUN
  6
Continuous
 62
     7
100
AcDbCircle
 10
412.4736437049977
 20
91.24671583595413
 30
0.0
 40
1.331971417800537
100
AcDbArc
 50
334.653381000007
 51
87.27356699999663
  0
ARC
  5
22A
330
2
100
AcDbEntity
  8
KIJUN
  6
Continuous
 62
     7
100
AcDbCircle
 10
408.4923765706887
 20
101.5634737357793
 30
0.0
 40
10.35969760685628
100
AcDbArc
 50
254.3417050000068
 51
287.1580809999941
  0
ARC
  5
22B
330
2
100
AcDbEntity
  8
KIJUN
 62
     7
100
AcDbCircle
 10
416.5136445028236
 20
103.4969783549933
 30
0.0
 40
16.75819789458569
100
AcDbArc
 50
255.7371441010165
 51
300.0070173835224
  0
ARC
  5
22C
330
2
100
AcDbEntity
  8
KIJUN
 62
     7
100
AcDbCircle
 10
417.2197325805726
 20
90.961370470476
 30
0.0
 40
7.925181162121127
100
AcDbArc
 50
260.2831707071207
 51
345.559104610145
  0
ARC
  5
22D
330
2
100
AcDbEntity
  8
KIJUN
 62
     7
100
AcDbCircle
 10
421.9059984656325
 20
78.06556113745322
 30
0.0
 40
9.043880939795238
100
AcDbArc
 50
237.3181802315094
 51
298.1437685074998
  0
ARC
  5
22E
330
2
100
AcDbEntity
  8
KIJUN
  6
Continuous
 62
     7
100
AcDbCircle
 10
432.2012086953495
 20
73.37493877385265
 30
0.0
 40
5.943988305293201
100
AcDbArc
 50
242.9088467282711
 51
285.4562380000057
  0
LINE
  5
22F
330
2
100
AcDbEntity
  8
KIJUN
 62
     7
100
AcDbLine
 10
388.8177850983468
 20
56.31223841753929
 30
0.0
 11
398.219465947252
 21
63.1251495859886
 31
0.0
  0
ARC
  5
230
330
2
100
AcDbEntity
  8
KIJUN
  6
Continuous
 62
     7
100
AcDbCircle
 10
444.1988919456674
 20
92.98107333447052
 30
0.0
 40
38.21232216697104
100
AcDbArc
 50
243.8393250000064
 51
259.7615970000031
  0
ARC
  5
231
330
2
100
AcDbEntity
  8
KIJUN
  6
Continuous
 62
     7
100
AcDbCircle
 10
445.056218817487
 20
93.30410351235839
 30
0.0
 40
41.31789927835519
100
AcDbArc
 50
245.6800079999941
 51
260.4951170000003
  0
ARC
  5
232
330
2
100
AcDbEntity
  8
KIJUN
  6
Continuous
 62
     7
100
AcDbCircle
 10
441.3037930375396
 20
84.29334388100782
 30
0.0
 40
34.21983062293636
100
AcDbArc
 50
251.0218659999952
 51
269.7023319999999
  0
ARC
  5
233
330
2
100
AcDbEntity
  8
KIJUN
 62
     7
100
AcDbCircle
 10
443.7752847768466
 20
76.56487683787354
 30
0.0
 40
16.60986917886446
100
AcDbArc
 50
210.706898484518
 51
298.5525873773117
  0
ARC
  5
234
330
2
100
AcDbEntity
  8
KIJUN
 62
     7
100
AcDbCircle
 10
432.5866616763691
 20
79.89563584153808
 30
0.0
 40
9.043880939795238
100
AcDbArc
 50
237.3181802315094
 51
298.1437685074998
  0
ARC
  5
235
330
2
100
AcDbEntity
  8
KIJUN
  6
Continuous
 62
     7
100
AcDbCircle
 10
433.3824141122749
 20
71.12640858621311
 30
0.0
 40
3.503724109576306
100
AcDbArc
 50
276.6032100000016
 51
339.9761959999895
  0
ARC
  5
236
330
2
100
AcDbEntity
  8
KIJUN
 62
     7
100
AcDbCircle
 10
443.7752847768466
 20
76.56487683787354
 30
0.0
 40
16.60986917886446
100
AcDbArc
 50
116.422719967839
 51
195.0015760658196
  0
ARC
  5
237
330
2
100
AcDbEntity
  8
KIJUN
  6
Continuous
 62
     7
100
AcDbCircle
 10
441.6203599447351
 20
88.82827597223291
 30
0.0
 40
5.85131854424839
100
AcDbArc
 50
143.8515625143843
 51
199.4994815143768
  0
ARC
  5
238
330
2
100
AcDbEntity
  8
KIJUN
  6
Continuous
 62
     7
100
AcDbCircle
 10
438.9082724439934
 20
87.74365461087773
 30
0.0
 40
2.935074968182855
100
AcDbArc
 50
197.2128295143771
 51
271.4252325143614
  0
ARC
  5
239
330
2
100
AcDbEntity
  8
KIJUN
 62
     7
100
AcDbCircle
 10
443.7752847768466
 20
76.56487683787354
 30
0.0
 40
13.10986917886447
100
AcDbArc
 50
222.5445606306319
 51
306.460221047203
  0
ARC
  5
23A
330
2
100
AcDbEntity
  8
KIJUN
 62
     7
100
AcDbCircle
 10
443.7752847768466
 20
76.56487683787354
 30
0.0
 40
13.10986917886447
100
AcDbArc
 50
126.2702973115294
 51
195.0015760658196
  0
LINE
  5
23B
330
2
100
AcDbEntity
  8
KIJUN
 62
     7
100
AcDbLine
 10
433.3431227807592
 20
84.50456612488787
 30
0.0
 11
452.8201872185989
 21
70.15997137965317
 31
0.0
  0
LINE
  5
23C
330
2
100
AcDbEntity
  8
KIJUN
 62
     7
100
AcDbLine
 10
430.8906355339494
 20
78.98448089111211
 30
0.0
 11
449.9084487486388
 21
64.97811846540144
 31
0.0
  0
LINE
  5
23D
330
2
100
AcDbEntity
  8
KIJUN
 62
     7
100
AcDbLine
 10
432.7740030091209
 20
76.59569238071781
 30
0.0
 11
449.2008359148058
 21
88.49936738989667
 31
0.0
  0
ARC
  5
23E
330
2
100
AcDbEntity
  8
KIJUN
  6
Continuous
 62
     7
100
AcDbCircle
 10
518.6146139451162
 20
66.96779230668681
 30
0.0
 40
21.973419123171
100
AcDbArc
 50
90.22997146502435
 51
102.7932279999965
  0
ARC
  5
23F
330
2
100
AcDbEntity
  8
KIJUN
  6
Continuous
 62
     7
100
AcDbCircle
 10
521.4333709487085
 20
43.81769361559697
 30
0.0
 40
45.23551356420392
100
AcDbArc
 50
99.78051000000526
 51
126.3425673473212
  0
ARC
  5
240
330
2
100
AcDbEntity
  8
KIJUN
  6
Continuous
 62
     7
100
AcDbCircle
 10
529.4348644168089
 20
35.94549459025739
 30
0.0
 40
59.50960913548762
100
AcDbArc
 50
109.269798000004
 51
129.1884989113914
  0
ARC
  5
241
330
2
100
AcDbEntity
  8
KIJUN
  6
Continuous
 62
     7
100
AcDbCircle
 10
517.5512306072151
 20
61.86780809861607
 30
0.0
 40
25.13282113555247
100
AcDbArc
 50
87.77628779413577
 51
106.5221410000024
  0
ARC
  5
242
330
2
100
AcDbEntity
  8
KIJUN
  6
Continuous
 62
     7
100
AcDbCircle
 10
528.6215386944786
 20
26.10949249625337
 30
0.0
 40
62.56449047035559
100
AcDbArc
 50
106.9287109999937
 51
121.7016384192495
  0
ARC
  5
243
330
2
100
AcDbEntity
  8
KIJUN
  6
Continuous
 62
     7
100
AcDbCircle
 10
512.0811739309702
 20
55.47699579168174
 30
0.0
 40
5.554072960498572
100
AcDbArc
 50
40.03240199998981
 51
92.40341899999675
  0
ARC
  5
244
330
2
100
AcDbEntity
  8
KIJUN
  6
Continuous
 62
     7
100
AcDbCircle
 10
520.4476899187373
 20
62.54500471155306
 30
0.0
 40
12.72035178294641
100
AcDbArc
 50
231.5193019999955
 51
262.7510070000018
  0
ARC
  5
245
330
2
100
AcDbEntity
  8
KIJUN
  6
Continuous
 62
     7
100
AcDbCircle
 10
524.754332107435
 20
69.81044258311957
 30
0.0
 40
16.54234760881752
100
AcDbArc
 50
246.5010530000095
 51
247.8839942107539
  0
ARC
  5
246
330
2
100
AcDbEntity
  8
KIJUN
  6
Continuous
 62
     7
100
AcDbCircle
 10
519.517526590504
 20
58.12102455075415
 30
0.0
 40
3.736965696893283
100
AcDbArc
 50
173.9124600000015
 51
248.6731260000021
  0
ARC
  5
247
330
2
100
AcDbEntity
  8
KIJUN
  6
Continuous
 62
     7
100
AcDbCircle
 10
518.3097748846701
 20
59.40829147412824
 30
0.0
 40
8.938881685658001
100
AcDbArc
 50
185.7201839999881
 51
229.7357940000067
  0
ARC
  5
248
330
2
100
AcDbEntity
  8
KIJUN
  6
Continuous
 62
     7
100
AcDbCircle
 10
511.7673552902901
 20
58.67063132276878
 30
0.0
 40
2.356939193069651
100
AcDbArc
 50
88.03287499999845
 51
183.7296140000063
  0
ARC
  5
249
330
2
100
AcDbEntity
  8
KIJUN
  6
Continuous
 62
     7
100
AcDbCircle
 10
487.1767036464846
 20
57.63069714336579
 30
0.0
 40
5.704731833707021
100
AcDbArc
 50
247.0969699999969
 51
314.9093320000043
  0
ARC
  5
24A
330
2
100
AcDbEntity
  8
KIJUN
  6
Continuous
 62
     7
100
AcDbCircle
 10
482.1429453177801
 20
56.47958345605484
 30
0.0
 40
11.57843665164366
100
AcDbArc
 50
22.33338700000854
 51
66.86514300000438
  0
ARC
  5
24B
330
2
100
AcDbEntity
  8
KIJUN
  6
Continuous
 62
     7
100
AcDbCircle
 10
482.3698819762645
 20
68.83663423606737
 30
0.0
 40
3.507590671037116
100
AcDbArc
 50
335.5924069999894
 51
94.51998899999638
  0
ARC
  5
24C
330
2
100
AcDbEntity
  8
KIJUN
  6
Continuous
 62
     7
100
AcDbCircle
 10
485.7385098340444
 20
61.95275732456622
 30
0.0
 40
3.290765710649511
100
AcDbArc
 50
327.5104980000007
 51
22.69045100000261
  0
ARC
  5
24D
330
2
100
AcDbEntity
  8
KIJUN
  6
Continuous
 62
     7
100
AcDbCircle
 10
481.5882807298597
 20
61.2126241893157
 30
0.0
 40
2.641995955817284
100
AcDbArc
 50
11.67050200000909
 51
97.88352199999575
  0
ARC
  5
24E
330
2
100
AcDbEntity
  8
KIJUN
  6
Continuous
 62
     7
100
AcDbCircle
 10
484.0355886026157
 20
57.31549397262581
 30
0.0
 40
2.093410895916258
100
AcDbArc
 50
86.16313900000312
 51
194.225371999998
  0
ARC
  5
24F
330
2
100
AcDbEntity
  8
KIJUN
  6
Continuous
 62
     7
100
AcDbCircle
 10
476.3188143861003
 20
60.57536325047299
 30
0.0
 40
7.94372647866798
100
AcDbArc
 50
351.5213930000121
 51
8.481994999999589
  0
ARC
  5
250
330
2
100
AcDbEntity
  8
KIJUN
  6
Continuous
 62
     7
100
AcDbCircle
 10
487.0144802299149
 20
59.01847919217978
 30
0.0
 40
2.864909753969203
100
AcDbArc
 50
172.2619170000005
 51
341.3561100000034
  0
ARC
  5
251
330
2
100
AcDbEntity
  8
KIJUN
  6
Continuous
 62
     7
100
AcDbCircle
 10
485.7377895742059
 20
63.16875628746067
 30
0.0
 40
4.075610420982796
100
AcDbArc
 50
247.4625399999995
 51
312.9401550000019
  0
ARC
  5
252
330
2
100
AcDbEntity
  8
KIJUN
  6
Continuous
 62
     7
100
AcDbCircle
 10
486.9957849436982
 20
56.93123187426506
 30
0.0
 40
4.991121647432509
100
AcDbArc
 50
181.4942630000101
 51
245.8851010000061
  0
ARC
  5
253
330
2
100
AcDbEntity
  8
KIJUN
  6
Continuous
 62
     7
100
AcDbCircle
 10
485.6987182643614
 20
58.66665369994172
 30
0.0
 40
7.488498134352362
100
AcDbArc
 50
317.3228760000021
 51
17.18618800000732
  0
ARC
  5
254
330
2
100
AcDbEntity
  8
KIJUN
  6
Continuous
 62
     7
100
AcDbCircle
 10
523.6418976715458
 20
52.4303617138749
 30
0.0
 40
42.03653594207946
100
AcDbArc
 50
96.98972071754667
 51
109.2315059999955
  0
ARC
  5
255
330
2
100
AcDbEntity
  8
KIJUN
 62
     7
100
AcDbCircle
 10
488.2317907206528
 20
71.3039149490358
 30
0.0
 40
11.00000013182443
100
AcDbArc
 50
344.0949037750677
 51
103.1039450663009
  0
LINE
  5
256
330
2
100
AcDbEntity
  8
KIJUN
 62
     7
100
AcDbLine
 10
512.5931010526509
 20
77.35354711817882
 30
0.0
 11
518.52641816766
 21
72.98373924587784
 31
0.0
  0
LINE
  5
257
330
2
100
AcDbEntity
  8
KIJUN
 62
     7
100
AcDbLine
 10
512.4465858844855
 20
63.44381459037077
 30
0.0
 11
518.52641816766
 21
67.84955415226639
 31
0.0
  0
LINE
  5
258
330
2
100
AcDbEntity
  8
KIJUN
 62
     7
100
AcDbLine
 10
516.0793533076766
 20
59.33215961728234
 30
0.0
 11
518.52641816766
 21
61.10542078009263
 31
0.0
  0
LINE
  5
259
330
2
100
AcDbEntity
  8
KIJUN
 62
     7
100
AcDbLine
 10
507.700001362812
 20
66.93960994519516
 30
0.0
 11
518.52641816766
 21
74.7849534693401
 31
0.0
  0
LINE
  5
25A
330
2
100
AcDbEntity
  8
KIJUN
 62
     7
100
AcDbLine
 10
508.2683211794573
 20
73.84735902863105
 30
0.0
 11
518.5264181676602
 21
66.29240922484024
 31
0.0
  0
LINE
  5
25B
330
2
100
AcDbEntity
  8
KIJUN
 62
     7
100
AcDbLine
 10
505.6855202311417
 20
68.42324807495315
 30
0.0
 11
518.52641816766
 21
58.9661002767237
 31
0.0
  0
ARC
  5
25C
330
2
100
AcDbEntity
  8
KIJUN
 62
     7
100
AcDbCircle
 10
518.4985052626878
 20
65.64906630940214
 30
0.0
 40
13.10986917886447
100
AcDbArc
 50
89.87800848083152
 51
231.3879588986735
  0
ARC
  5
25D
330
2
100
AcDbEntity
  8
KIJUN
 62
     7
100
AcDbCircle
 10
518.4985052626878
 20
65.64906630940214
 30
0.0
 40
16.60986917886446
100
AcDbArc
 50
89.90371432884519
 51
270.0962856711484
  0
DIMENSION
  5
25E
330
2
100
AcDbEntity
  8
SUNPOU
100
AcDbDimension
  2
*D2
 10
28.70495197274338
 20
129.649372204952
 30
0.0
 11
39.20495197274338
 21
134.649372204952
 31
0.0
 71
     5
 42
21.0
  3
STANDARD$0
100
AcDbAlignedDimension
 13
49.70495197274338
 23
114.6687779047195
 33
0.0
 14
28.70495197274338
 24
114.6687779047195
 34
0.0
 50
0.000000000000007
100
AcDbRotatedDimension
1001
ACAD
1000
DSTYLE
1002
{
1070
    41
1040
0.5
1070
    42
1040
1.0
1070
    44
1040
0.0
1070
    77
1070
     1
1070
    78
1070
     0
1070
   140
1040
3.0
1070
   141
1040
1.0
1070
   146
1040
0.0642857142857143
1070
   172
1070
     0
1070
   176
1070
    60
1070
   177
1070
    70
1070
   178
1070
    60
1070
   271
1070
     0
1070
   272
1070
     0
1070
   341
1005
0
1002
}
  0
DIMENSION
  5
274
330
2
100
AcDbEntity
  8
SUNPOU
100
AcDbDimension
  2
*D3
 10
11.23236251324724
 20
114.6687779047195
 30
0.0
 11
6.232362513247218
 21
70.16877790471951
 31
0.0
 70
     1
 71
     5
 42
88.99999999999996
  3
STANDARD$0
100
AcDbAlignedDimension
 13
28.70495197274338
 23
25.66877790471954
 33
0.0
 14
28.70495197274338
 24
114.6687779047195
 34
0.0
1001
ACAD
1000
DSTYLE
1002
{
1070
    41
1040
0.5
1070
    42
1040
1.0
1070
    44
1040
0.0
1070
    77
1070
     1
1070
    78
1070
     0
1070
   140
1040
3.0
1070
   141
1040
1.0
1070
   146
1040
0.0642857142857143
1070
   172
1070
     0
1070
   176
1070
    60
1070
   177
1070
    70
1070
   178
1070
    60
1070
   271
1070
     0
1070
   272
1070
     0
1070
   341
1005
0
1002
}
  0
TEXT
  5
281
330
2
100
AcDbEntity
  8
HOJO
100
AcDbText
 10
0.6339446061773515
 20
1.183312999999998
 30
0.0
 40
4.5
  1
PM812
  7
SUNPOU
100
AcDbText
  0
LINE
  5
283
330
2
100
AcDbEntity
  8
WAKU
100
AcDbLine
 10
0.0
 20
0.0
 30
0.0
 11
44.67747103027135
 21
0.0
 31
0.0
  0
LINE
  5
285
330
2
100
AcDbEntity
  8
WAKU
100
AcDbLine
 10
0.0
 20
7.0
 30
0.0
 11
44.67747103027135
 21
7.0
 31
0.0
  0
TEXT
  5
286
330
2
100
AcDbEntity
  8
HOJO
100
AcDbText
 10
30.43067245710791
 20
2.522193000000015
 30
0.0
 40
3.0
  1
89\U+00D721
  7
SUNPOU
100
AcDbText
  0
LWPOLYLINE
  5
287
330
2
100
AcDbEntity
  8
KIJUN
  6
Continuous
 62
     7
100
AcDbPolyline
 90
       26
 70
     0
 43
0.0
 10
46.21164321173231
 20
63.10784863039663
 10
46.21164321173235
 20
56.38676364261064
 42
-0.0961381084347542
 10
47.836323279398
 20
55.49311691720605
 42
-0.4370738997912289
 10
48.23826394154797
 20
51.70337112208167
 42
-0.4597398037473525
 10
48.23824584621997
 20
47.45424841448929
 42
-0.0721208554544701
 10
46.45751922989401
 20
46.535293438579
 10
46.45751922989401
 20
46.36327414789031
 10
49.70495197274338
 20
45.73165198636688
 10
49.70495197274338
 20
40.96575393744369
 42
0.247186192362284
 10
43.70450470570873
 20
38.1521843976096
 42
0.2315105504844615
 10
37.21595262220509
 20
25.66877790471954
 10
28.70495197274338
 20
25.66877790471954
 10
28.70495197274338
 20
114.6687779047195
 10
45.88655227138352
 20
114.6687779047195
 10
45.88655227138352
 20
97.0894788972553
 42
0.2922341479100074
 10
47.62632650291104
 20
94.36701108064513
 42
-0.3464927370366635
 10
49.30812250921485
 20
91.05759533044738
 42
0.0035066776948201
 10
48.01444908665999
 20
84.32751408196256
 42
-0.2375468571220696
 10
49.4083783067327
 20
82.45380437214668
 42
-0.0916605627119535
 10
49.40836834450863
 20
80.25421520502554
 42
-0.242080419128796
 10
48.05844141635796
 20
78.6544820518226
 42
-0.0093553118842011
 10
48.60855130089635
 20
72.50586229658458
 42
0.0128824210996847
 10
49.15700453177513
 20
68.66554896539788
 42
-0.1692699000529438
 10
48.95845500511401
 20
65.35734258316364
 42
-0.3572322980706441
 10
48.31069712062592
 20
63.80752292234021
 42
-0.0160181516003342
 10
46.21141157032369
 20
63.10777649427396
  0
ENDSEC
  0
SECTION
  2
OBJECTS
  0
DICTIONARY
  5
A
330
0
100
AcDbDictionary
281
     1
  3
ACAD_COLOR
350
47
  3
ACAD_GROUP
350
3C
  3
ACAD_LAYOUT
350
1F
  3
ACAD_MATERIAL
350
C
  3
ACAD_MLEADERSTYLE
350
4A
  3
ACAD_MLINESTYLE
350
3D
  3
ACAD_PLOTSETTINGS
350
3E
  3
ACAD_PLOTSTYLENAME
350
9
  3
ACAD_SCALELIST
350
48
  3
ACAD_TABLESTYLE
350
49
  3
ACAD_VISUALSTYLE
350
32
  3
ACDB_RECOMPOSE_DATA
350
299
  3
AcDbVariableDictionary
350
28C
  0
DICTIONARY
  5
3
330
2
100
AcDbDictionary
280
     1
281
     1
  3
ACAD_LAYOUTSELFREF
360
4
  0
DICTIONARY
  5
21
330
20
100
AcDbDictionary
280
     1
281
     1
  3
ACAD_LAYOUTSELFREF
360
22
  0
DICTIONARY
  5
47
102
{ACAD_REACTORS
330
A
102
}
330
A
100
AcDbDictionary
281
     1
  0
DICTIONARY
  5
3C
102
{ACAD_REACTORS
330
A
102
}
330
A
100
AcDbDictionary
281
     1
  0
DICTIONARY
  5
1F
102
{ACAD_REACTORS
330
A
102
}
330
A
100
AcDbDictionary
281
     1
  3
Model
350
1E
  3
ﾚｲｱｳﾄ1
350
25
  0
DICTIONARY
  5
C
102
{ACAD_REACTORS
330
A
102
}
330
A
100
AcDbDictionary
281
     1
  3
ByBlock
350
3F
  3
ByLayer
350
15
  3
Global
350
B
  0
DICTIONARY
  5
4A
102
{ACAD_REACTORS
330
A
102
}
330
A
100
AcDbDictionary
281
     1
  0
DICTIONARY
  5
3D
102
{ACAD_REACTORS
330
A
102
}
330
A
100
AcDbDictionary
281
     1
  3
STANDARD
350
4C
  0
DICTIONARY
  5
3E
102
{ACAD_REACTORS
330
A
102
}
330
A
100
AcDbDictionary
281
     1
  0
ACDBDICTIONARYWDFLT
  5
9
102
{ACAD_REACTORS
330
A
102
}
330
A
100
AcDbDictionary
281
     1
  3
Normal
350
8
100
AcDbDictionaryWithDefault
340
8
  0
DICTIONARY
  5
48
102
{ACAD_REACTORS
330
A
102
}
330
A
100
AcDbDictionary
281
     1
  3
A0
350
51
  3
A1
350
52
  3
A2
350
53
  3
A3
350
54
  3
A4
350
55
  3
A5
350
56
  3
A6
350
57
  3
A7
350
58
  3
A8
350
59
  3
A9
350
5A
  3
B0
350
5B
  3
B1
350
5C
  3
B2
350
5D
  3
B3
350
5E
  3
B4
350
5F
  3
B5
350
60
  3
B6
350
61
  0
DICTIONARY
  5
49
102
{ACAD_REACTORS
330
A
102
}
330
A
100
AcDbDictionary
281
     1
  3
Standard
350
4D
  0
DICTIONARY
  5
32
102
{ACAD_REACTORS
330
A
102
}
330
A
100
AcDbDictionary
281
     1
  3
2dWireframe
350
31
  3
Realistic
350
4E
  3
Wireframe
350
4F
  0
XRECORD
  5
299
102
{ACAD_REACTORS
330
A
102
}
330
A
100
AcDbXrecord
280
     1
 90
        1
330
4D
  0
DICTIONARY
  5
28C
102
{ACAD_REACTORS
330
A
102
}
330
A
100
AcDbDictionary
281
     1
  3
CANNOSCALE
350
291
  3
CMLEADERSTYLE
350
28E
  3
CTABLESTYLE
350
28D
  3
CVIEWDETAILSTYLE
350
28F
  3
CVIEWSECTIONSTYLE
350
290
  3
DIMASSOC
350
295
  3
HIDETEXT
350
294
  3
INDEXCTL
350
293
  3
SORTENTS
350
292
  3
XCLIPFRAME
350
296
  0
XRECORD
  5
4
102
{ACAD_REACTORS
330
3
102
}
330
3
100
AcDbXrecord
280
     1
340
2
  0
XRECORD
  5
22
102
{ACAD_REACTORS
330
21
102
}
330
21
100
AcDbXrecord
280
     1
340
20
  0
LAYOUT
  5
1E
102
{ACAD_XDICTIONARY
360
29C
102
}
102
{ACAD_REACTORS
330
1F
102
}
330
1F
100
AcDbPlotSettings
  1

  2
なし
  4

  6

 40
0.0
 41
0.0
 42
0.0
 43
0.0
 44
0.0
 45
0.0
 46
0.0
 47
0.0
 48
0.0
 49
0.0
140
0.0
141
0.0
142
1.0
143
1.0
 70
  1712
 72
     0
 73
     0
 74
     0
  7
monochrome.ctb
 75
     0
147
1.0
148
0.0
149
0.0
100
AcDbLayout
  1
Model
 70
     1
 71
     0
 10
0.0
 20
0.0
 11
12.0
 21
9.0
 12
0.0
 22
0.0
 32
0.0
 14
0.0
 24
0.0
 34
0.0
 15
0.0
 25
0.0
 35
0.0
146
0.0
 13
0.0
 23
0.0
 33
0.0
 16
1.0
 26
0.0
 36
0.0
 17
0.0
 27
1.0
 37
0.0
 76
     0
330
2
  0
LAYOUT
  5
25
102
{ACAD_XDICTIONARY
360
29E
102
}
102
{ACAD_REACTORS
330
1F
102
}
330
1F
100
AcDbPlotSettings
  1

  2
なし
  4

  6

 40
0.0
 41
0.0
 42
0.0
 43
0.0
 44
0.0
 45
0.0
 46
0.0
 47
0.0
 48
0.0
 49
0.0
140
0.0
141
0.0
142
1.0
143
1.0
 70
   688
 72
     0
 73
     0
 74
     5
  7
monochrome.ctb
 75
    16
147
1.0
148
0.0
149
0.0
100
AcDbLayout
  1
ﾚｲｱｳﾄ1
 70
     1
 71
     1
 10
0.0
 20
0.0
 11
12.0
 21
9.0
 12
0.0
 22
0.0
 32
0.0
 14
1.000000000000000E+20
 24
1.000000000000000E+20
 34
1.000000000000000E+20
 15
-1.000000000000000E+20
 25
-1.000000000000000E+20
 35
-1.000000000000000E+20
146
0.0
 13
0.0
 23
0.0
 33
0.0
 16
1.0
 26
0.0
 36
0.0
 17
0.0
 27
1.0
 37
0.0
 76
     0
330
20
  0
MATERIAL
  5
3F
102
{ACAD_XDICTIONARY
360
40
102
}
102
{ACAD_REACTORS
330
C
102
}
330
C
100
AcDbMaterial
  1
ByBlock
 72
     0
 43
0.0208333333333333
 43
0.0
 43
0.0
 43
0.0
 43
0.0
 43
0.0208333333333333
 43
0.0
 43
0.0
 43
0.0
 43
0.0
 43
1.0
 43
0.0
 43
0.0
 43
0.0
 43
0.0
 43
1.0
 77
     0
 47
0.0208333333333333
 47
0.0
 47
0.0
 47
0.0
 47
0.0
 47
0.0208333333333333
 47
0.0
 47
0.0
 47
0.0
 47
0.0
 47
1.0
 47
0.0
 47
0.0
 47
0.0
 47
0.0
 47
1.0
171
     0
 49
0.0208333333333333
 49
0.0
 49
0.0
 49
0.0
 49
0.0
 49
0.0208333333333333
 49
0.0
 49
0.0
 49
0.0
 49
0.0
 49
1.0
 49
0.0
 49
0.0
 49
0.0
 49
0.0
 49
1.0
175
     0
142
0.0208333333333333
142
0.0
142
0.0
142
0.0
142
0.0
142
0.0208333333333333
142
0.0
142
0.0
142
0.0
142
0.0
142
1.0
142
0.0
142
0.0
142
0.0
142
0.0
142
1.0
179
     0
144
0.0208333333333333
144
0.0
144
0.0
144
0.0
144
0.0
144
0.0208333333333333
144
0.0
144
0.0
144
0.0
144
0.0
144
1.0
144
0.0
144
0.0
144
0.0
144
0.0
144
1.0
147
0.0208333333333333
147
0.0
147
0.0
147
0.0
147
0.0
147
0.0208333333333333
147
0.0
147
0.0
147
0.0
147
0.0
147
1.0
147
0.0
147
0.0
147
0.0
147
0.0
147
1.0
  0
MATERIAL
  5
15
102
{ACAD_XDICTIONARY
360
16
102
}
102
{ACAD_REACTORS
330
C
102
}
330
C
100
AcDbMaterial
  1
ByLayer
 72
     0
 43
0.0208333333333333
 43
0.0
 43
0.0
 43
0.0
 43
0.0
 43
0.0208333333333333
 43
0.0
 43
0.0
 43
0.0
 43
0.0
 43
1.0
 43
0.0
 43
0.0
 43
0.0
 43
0.0
 43
1.0
 77
     0
 47
0.0208333333333333
 47
0.0
 47
0.0
 47
0.0
 47
0.0
 47
0.0208333333333333
 47
0.0
 47
0.0
 47
0.0
 47
0.0
 47
1.0
 47
0.0
 47
0.0
 47
0.0
 47
0.0
 47
1.0
171
     0
 49
0.0208333333333333
 49
0.0
 49
0.0
 49
0.0
 49
0.0
 49
0.0208333333333333
 49
0.0
 49
0.0
 49
0.0
 49
0.0
 49
1.0
 49
0.0
 49
0.0
 49
0.0
 49
0.0
 49
1.0
175
     0
142
0.0208333333333333
142
0.0
142
0.0
142
0.0
142
0.0
142
0.0208333333333333
142
0.0
142
0.0
142
0.0
142
0.0
142
1.0
142
0.0
142
0.0
142
0.0
142
0.0
142
1.0
179
     0
144
0.0208333333333333
144
0.0
144
0.0
144
0.0
144
0.0
144
0.0208333333333333
144
0.0
144
0.0
144
0.0
144
0.0
144
1.0
144
0.0
144
0.0
144
0.0
144
0.0
144
1.0
147
0.0208333333333333
147
0.0
147
0.0
147
0.0
147
0.0
147
0.0208333333333333
147
0.0
147
0.0
147
0.0
147
0.0
147
1.0
147
0.0
147
0.0
147
0.0
147
0.0
147
1.0
  0
MATERIAL
  5
B
102
{ACAD_XDICTIONARY
360
D
102
}
102
{ACAD_REACTORS
330
C
102
}
330
C
100
AcDbMaterial
  1
Global
 72
     0
 43
0.0208333333333333
 43
0.0
 43
0.0
 43
0.0
 43
0.0
 43
0.0208333333333333
 43
0.0
 43
0.0
 43
0.0
 43
0.0
 43
1.0
 43
0.0
 43
0.0
 43
0.0
 43
0.0
 43
1.0
 77
     0
 47
0.0208333333333333
 47
0.0
 47
0.0
 47
0.0
 47
0.0
 47
0.0208333333333333
 47
0.0
 47
0.0
 47
0.0
 47
0.0
 47
1.0
 47
0.0
 47
0.0
 47
0.0
 47
0.0
 47
1.0
171
     0
 49
0.0208333333333333
 49
0.0
 49
0.0
 49
0.0
 49
0.0
 49
0.0208333333333333
 49
0.0
 49
0.0
 49
0.0
 49
0.0
 49
1.0
 49
0.0
 49
0.0
 49
0.0
 49
0.0
 49
1.0
175
     0
142
0.0208333333333333
142
0.0
142
0.0
142
0.0
142
0.0
142
0.0208333333333333
142
0.0
142
0.0
142
0.0
142
0.0
142
1.0
142
0.0
142
0.0
142
0.0
142
0.0
142
1.0
179
     0
144
0.0208333333333333
144
0.0
144
0.0
144
0.0
144
0.0
144
0.0208333333333333
144
0.0
144
0.0
144
0.0
144
0.0
144
1.0
144
0.0
144
0.0
144
0.0
144
0.0
144
1.0
147
0.0208333333333333
147
0.0
147
0.0
147
0.0
147
0.0
147
0.0208333333333333
147
0.0
147
0.0
147
0.0
147
0.0
147
1.0
147
0.0
147
0.0
147
0.0
147
0.0
147
1.0
  0
MLINESTYLE
  5
4C
102
{ACAD_REACTORS
330
3D
102
}
330
3D
100
AcDbMlineStyle
  2
STANDARD
 70
     0
  3

 62
   256
 51
90.0
 52
90.0
 71
     2
 49
0.5
 62
   256
  6
BYLAYER
 49
-0.5
 62
   256
  6
BYLAYER
  0
ACDBPLACEHOLDER
  5
8
102
{ACAD_REACTORS
330
9
102
}
330
9
  0
SCALE
  5
51
102
{ACAD_REACTORS
330
48
102
}
330
48
100
AcDbScale
 70
     0
300
1:1
140
1.0
141
1.0
290
     1
  0
SCALE
  5
52
102
{ACAD_REACTORS
330
48
102
}
330
48
100
AcDbScale
 70
     0
300
1/128" = 1'-0"
140
0.0078125
141
12.0
290
     0
  0
SCALE
  5
53
102
{ACAD_REACTORS
330
48
102
}
330
48
100
AcDbScale
 70
     0
300
1/64" = 1'-0"
140
0.015625
141
12.0
290
     0
  0
SCALE
  5
54
102
{ACAD_REACTORS
330
48
102
}
330
48
100
AcDbScale
 70
     0
300
1/32" = 1'-0"
140
0.03125
141
12.0
290
     0
  0
SCALE
  5
55
102
{ACAD_REACTORS
330
48
102
}
330
48
100
AcDbScale
 70
     0
300
1/16" = 1'-0"
140
0.0625
141
12.0
290
     0
  0
SCALE
  5
56
102
{ACAD_REACTORS
330
48
102
}
330
48
100
AcDbScale
 70
     0
300
3/32" = 1'-0"
140
0.09375
141
12.0
290
     0
  0
SCALE
  5
57
102
{ACAD_REACTORS
330
48
102
}
330
48
100
AcDbScale
 70
     0
300
1/8" = 1'-0"
140
0.125
141
12.0
290
     0
  0
SCALE
  5
58
102
{ACAD_REACTORS
330
48
102
}
330
48
100
AcDbScale
 70
     0
300
3/16" = 1'-0"
140
0.1875
141
12.0
290
     0
  0
SCALE
  5
59
102
{ACAD_REACTORS
330
48
102
}
330
48
100
AcDbScale
 70
     0
300
1/4" = 1'-0"
140
0.25
141
12.0
290
     0
  0
SCALE
  5
5A
102
{ACAD_REACTORS
330
48
102
}
330
48
100
AcDbScale
 70
     0
300
3/8" = 1'-0"
140
0.375
141
12.0
290
     0
  0
SCALE
  5
5B
102
{ACAD_REACTORS
330
48
102
}
330
48
100
AcDbScale
 70
     0
300
1/2" = 1'-0"
140
0.5
141
12.0
290
     0
  0
SCALE
  5
5C
102
{ACAD_REACTORS
330
48
102
}
330
48
100
AcDbScale
 70
     0
300
3/4" = 1'-0"
140
0.75
141
12.0
290
     0
  0
SCALE
  5
5D
102
{ACAD_REACTORS
330
48
102
}
330
48
100
AcDbScale
 70
     0
300
1" = 1'-0"
140
1.0
141
12.0
290
     0
  0
SCALE
  5
5E
102
{ACAD_REACTORS
330
48
102
}
330
48
100
AcDbScale
 70
     0
300
1-1/2" = 1'-0"
140
1.5
141
12.0
290
     0
  0
SCALE
  5
5F
102
{ACAD_REACTORS
330
48
102
}
330
48
100
AcDbScale
 70
     0
300
3" = 1'-0"
140
3.0
141
12.0
290
     0
  0
SCALE
  5
60
102
{ACAD_REACTORS
330
48
102
}
330
48
100
AcDbScale
 70
     0
300
6" = 1'-0"
140
6.0
141
12.0
290
     0
  0
SCALE
  5
61
102
{ACAD_REACTORS
330
48
102
}
330
48
100
AcDbScale
 70
     0
300
1'-0" = 1'-0"
140
12.0
141
12.0
290
     0
  0
TABLESTYLE
  5
4D
102
{ACAD_XDICTIONARY
360
297
102
}
102
{ACAD_REACTORS
330
49
102
}
330
49
100
AcDbTableStyle
  3
Standard
 70
     0
 71
     0
 40
0.06
 41
0.06
280
     0
281
     0
  7
STANDARD
140
0.18
170
     2
 62
     0
 63
     7
283
     0
274
    -2
284
     1
 64
     0
275
    -2
285
     1
 65
     0
276
    -2
286
     1
 66
     0
277
    -2
287
     1
 67
     0
278
    -2
288
     1
 68
     0
279
    -2
289
     1
 69
     0
  7
STANDARD
140
0.25
170
     5
 62
     0
 63
     7
283
     0
274
    -2
284
     1
 64
     0
275
    -2
285
     1
 65
     0
276
    -2
286
     1
 66
     0
277
    -2
287
     1
 67
     0
278
    -2
288
     1
 68
     0
279
    -2
289
     1
 69
     0
  7
STANDARD
140
0.18
170
     5
 62
     0
 63
     7
283
     0
274
    -2
284
     1
 64
     0
275
    -2
285
     1
 65
     0
276
    -2
286
     1
 66
     0
277
    -2
287
     1
 67
     0
278
    -2
288
     1
 68
     0
279
    -2
289
     1
 69
     0
  0
VISUALSTYLE
  5
31
102
{ACAD_XDICTIONARY
360
2A0
102
}
102
{ACAD_REACTORS
330
32
102
}
330
32
100
AcDbVisualStyle
  2
2dWireframe
 70
     4
 71
     0
 72
     2
 73
     0
 90
        0
 40
-0.6
 41
-30.0
 62
     5
 63
     7
 74
     1
 91
        4
 64
     7
 65
   257
 75
     1
175
     1
 42
1.0
 92
        0
 66
   257
 43
1.0
 76
     1
 77
     6
 78
     2
 67
     7
 79
     5
170
     0
171
     0
290
     0
174
     0
 93
        1
 44
0.0
173
     0
291
     0
 45
0.0
1001
ACAD
1000
AcDbSavedByObjectVersion
1070
     0
  0
VISUALSTYLE
  5
4E
102
{ACAD_XDICTIONARY
360
2A4
102
}
102
{ACAD_REACTORS
330
32
102
}
330
32
100
AcDbVisualStyle
  2
Realistic
 70
     8
 71
     2
 72
     3
 73
     0
 90
        2
 40
-0.6
 41
30.0
 62
     5
 63
     7
 74
     0
 91
        0
 64
     7
 65
   257
 75
     1
175
     1
 42
1.0
 92
        8
 66
   257
 43
1.0
 76
     1
 77
     6
 78
     2
 67
     7
 79
     3
170
     0
171
     0
290
     0
174
     0
 93
       13
 44
0.0
173
     0
291
     0
 45
0.0
1001
ACAD
1000
AcDbSavedByObjectVersion
1070
     0
  0
VISUALSTYLE
  5
4F
102
{ACAD_XDICTIONARY
360
2A6
102
}
102
{ACAD_REACTORS
330
32
102
}
330
32
100
AcDbVisualStyle
  2
Wireframe
 70
     5
 71
     0
 72
     2
 73
     0
 90
        0
 40
-0.6
 41
-30.0
 62
     5
 63
     7
 74
     1
 91
        4
 64
     7
 65
   257
 75
     1
175
     1
 42
1.0
 92
        0
 66
   257
 43
1.0
 76
     1
 77
     6
 78
     2
 67
     7
 79
     3
170
     0
171
     0
290
     0
174
     0
 93
        1
 44
0.0
173
     0
291
     0
 45
0.0
1001
ACAD
1000
AcDbSavedByObjectVersion
1070
     0
  0
DICTIONARYVAR
  5
291
102
{ACAD_REACTORS
330
28C
102
}
330
28C
100
DictionaryVariables
280
     0
  1
1:1
  0
DICTIONARYVAR
  5
28E
102
{ACAD_REACTORS
330
28C
102
}
330
28C
100
DictionaryVariables
280
     0
  1
STANDARD
  0
DICTIONARYVAR
  5
28D
102
{ACAD_REACTORS
330
28C
102
}
330
28C
100
DictionaryVariables
280
     0
  1
STANDARD
  0
DICTIONARYVAR
  5
28F
102
{ACAD_REACTORS
330
28C
102
}
330
28C
100
DictionaryVariables
280
     0
  1

  0
DICTIONARYVAR
  5
290
102
{ACAD_REACTORS
330
28C
102
}
330
28C
100
DictionaryVariables
280
     0
  1

  0
DICTIONARYVAR
  5
295
102
{ACAD_REACTORS
330
28C
102
}
330
28C
100
DictionaryVariables
280
     0
  1
1
  0
DICTIONARYVAR
  5
294
102
{ACAD_REACTORS
330
28C
102
}
330
28C
100
DictionaryVariables
280
     0
  1
1
  0
DICTIONARYVAR
  5
293
102
{ACAD_REACTORS
330
28C
102
}
330
28C
100
DictionaryVariables
280
     0
  1
0
  0
DICTIONARYVAR
  5
292
102
{ACAD_REACTORS
330
28C
102
}
330
28C
100
DictionaryVariables
280
     0
  1
127
  0
DICTIONARYVAR
  5
296
102
{ACAD_REACTORS
330
28C
102
}
330
28C
100
DictionaryVariables
280
     0
  1
2
  0
DICTIONARY
  5
29C
330
1E
100
AcDbDictionary
280
     1
281
     1
  3
ACAD_XREC_ROUNDTRIP
360
29D
  0
DICTIONARY
  5
29E
330
25
100
AcDbDictionary
280
     1
281
     1
  3
ACAD_XREC_ROUNDTRIP
360
29F
  0
DICTIONARY
  5
40
330
3F
100
AcDbDictionary
280
     1
281
     1
  3
ACAD_XREC_ROUNDTRIP
360
2A2
  3
BUMPTILE
360
41
  3
DIFFUSETILE
360
42
  3
OPACITYTILE
360
43
  3
REFLECTIONTILE
360
44
  3
REFRACTIONTILE
360
45
  3
SPECULARTILE
360
46
  0
DICTIONARY
  5
16
330
15
100
AcDbDictionary
280
     1
281
     1
  3
ACAD_XREC_ROUNDTRIP
360
29B
  3
BUMPTILE
360
17
  3
DIFFUSETILE
360
18
  3
OPACITYTILE
360
19
  3
REFLECTIONTILE
360
1A
  3
REFRACTIONTILE
360
1B
  3
SPECULARTILE
360
1C
  0
DICTIONARY
  5
D
330
B
100
AcDbDictionary
280
     1
281
     1
  3
ACAD_XREC_ROUNDTRIP
360
29A
  3
BUMPTILE
360
E
  3
DIFFUSETILE
360
F
  3
OPACITYTILE
360
10
  3
REFLECTIONTILE
360
11
  3
REFRACTIONTILE
360
12
  3
SPECULARTILE
360
13
  0
DICTIONARY
  5
297
330
4D
100
AcDbDictionary
280
     1
281
     1
  3
ACAD_ROUNDTRIP_2008_TABLESTYLE_CELLSTYLEMAP
360
298
  3
ACAD_XREC_ROUNDTRIP
360
2A3
  0
DICTIONARY
  5
2A0
330
31
100
AcDbDictionary
280
     1
281
     1
  3
ACAD_XREC_ROUNDTRIP
360
2A1
  0
DICTIONARY
  5
2A4
330
4E
100
AcDbDictionary
280
     1
281
     1
  3
ACAD_XREC_ROUNDTRIP
360
2A5
  0
DICTIONARY
  5
2A6
330
4F
100
AcDbDictionary
280
     1
281
     1
  3
ACAD_XREC_ROUNDTRIP
360
2A7
  0
XRECORD
  5
29D
102
{ACAD_REACTORS
330
29C
102
}
330
29C
100
AcDbXrecord
280
     1
102
SHADEPLOT
 70
     0
102
SHADEPLOTRESLEVEL
 70
     2
102
SHADEPLOTCUSTOMDPI
 70
   300
  0
XRECORD
  5
29F
102
{ACAD_REACTORS
330
29E
102
}
330
29E
100
AcDbXrecord
280
     1
102
SHADEPLOT
 70
     0
102
SHADEPLOTRESLEVEL
 70
     2
102
SHADEPLOTCUSTOMDPI
 70
   300
  0
XRECORD
  5
2A2
102
{ACAD_REACTORS
330
40
102
}
330
40
100
AcDbXrecord
280
     1
102
MATERIAL
148
0.0
149
0.0
149
0.0
 93
        0
 94
      127
282
     0
 72
     0
 77
     0
171
     0
175
     0
179
     0
273
     0
  0
XRECORD
  5
41
102
{ACAD_REACTORS
330
40
102
}
330
40
100
AcDbXrecord
280
     1
270
     1
271
     1
  0
XRECORD
  5
42
102
{ACAD_REACTORS
330
40
102
}
330
40
100
AcDbXrecord
280
     1
270
     1
271
     1
  0
XRECORD
  5
43
102
{ACAD_REACTORS
330
40
102
}
330
40
100
AcDbXrecord
280
     1
270
     1
271
     1
  0
XRECORD
  5
44
102
{ACAD_REACTORS
330
40
102
}
330
40
100
AcDbXrecord
280
     1
270
     1
271
     1
  0
XRECORD
  5
45
102
{ACAD_REACTORS
330
40
102
}
330
40
100
AcDbXrecord
280
     1
270
     1
271
     1
  0
XRECORD
  5
46
102
{ACAD_REACTORS
330
40
102
}
330
40
100
AcDbXrecord
280
     1
270
     1
271
     1
  0
XRECORD
  5
29B
102
{ACAD_REACTORS
330
16
102
}
330
16
100
AcDbXrecord
280
     1
102
MATERIAL
148
0.0
149
0.0
149
0.0
 93
        0
 94
      127
282
     0
 72
     0
 77
     0
171
     0
175
     0
179
     0
273
     0
  0
XRECORD
  5
17
102
{ACAD_REACTORS
330
16
102
}
330
16
100
AcDbXrecord
280
     1
270
     1
271
     1
  0
XRECORD
  5
18
102
{ACAD_REACTORS
330
16
102
}
330
16
100
AcDbXrecord
280
     1
270
     1
271
     1
  0
XRECORD
  5
19
102
{ACAD_REACTORS
330
16
102
}
330
16
100
AcDbXrecord
280
     1
270
     1
271
     1
  0
XRECORD
  5
1A
102
{ACAD_REACTORS
330
16
102
}
330
16
100
AcDbXrecord
280
     1
270
     1
271
     1
  0
XRECORD
  5
1B
102
{ACAD_REACTORS
330
16
102
}
330
16
100
AcDbXrecord
280
     1
270
     1
271
     1
  0
XRECORD
  5
1C
102
{ACAD_REACTORS
330
16
102
}
330
16
100
AcDbXrecord
280
     1
270
     1
271
     1
  0
XRECORD
  5
29A
102
{ACAD_REACTORS
330
D
102
}
330
D
100
AcDbXrecord
280
     1
102
MATERIAL
148
0.0
149
0.0
149
0.0
 93
        0
 94
      127
282
     0
 72
     0
 77
     0
171
     0
175
     0
179
     0
273
     0
  0
XRECORD
  5
E
102
{ACAD_REACTORS
330
D
102
}
330
D
100
AcDbXrecord
280
     1
270
     1
271
     1
  0
XRECORD
  5
F
102
{ACAD_REACTORS
330
D
102
}
330
D
100
AcDbXrecord
280
     1
270
     1
271
     1
  0
XRECORD
  5
10
102
{ACAD_REACTORS
330
D
102
}
330
D
100
AcDbXrecord
280
     1
270
     1
271
     1
  0
XRECORD
  5
11
102
{ACAD_REACTORS
330
D
102
}
330
D
100
AcDbXrecord
280
     1
270
     1
271
     1
  0
XRECORD
  5
12
102
{ACAD_REACTORS
330
D
102
}
330
D
100
AcDbXrecord
280
     1
270
     1
271
     1
  0
XRECORD
  5
13
102
{ACAD_REACTORS
330
D
102
}
330
D
100
AcDbXrecord
280
     1
270
     1
271
     1
  0
CELLSTYLEMAP
  5
298
102
{ACAD_REACTORS
330
297
102
}
330
297
100
AcDbCellStyleMap
 90
        3
300
CELLSTYLE
  1
TABLEFORMAT_BEGIN
 90
        5
170
     1
 91
        0
 92
    32768
 62
   257
 93
        1
300
CONTENTFORMAT
  1
CONTENTFORMAT_BEGIN
 90
        0
 91
        0
 92
        4
 93
        0
300

 40
0.0
140
1.0
 94
        5
 62
     0
340
28
144
0.25
309
CONTENTFORMAT_END
171
     0
 94
        6
 95
        1
302
GRIDFORMAT
  1
GRIDFORMAT_BEGIN
 90
        0
 91
        1
 62
     0
 92
       -2
340
0
 93
        0
 40
0.045
309
GRIDFORMAT_END
 95
        2
302
GRIDFORMAT
  1
GRIDFORMAT_BEGIN
 90
        0
 91
        1
 62
     0
 92
       -2
340
0
 93
        0
 40
0.045
309
GRIDFORMAT_END
 95
        4
302
GRIDFORMAT
  1
GRIDFORMAT_BEGIN
 90
        0
 91
        1
 62
     0
 92
       -2
340
0
 93
        0
 40
0.045
309
GRIDFORMAT_END
 95
        8
302
GRIDFORMAT
  1
GRIDFORMAT_BEGIN
 90
        0
 91
        1
 62
     0
 92
       -2
340
0
 93
        0
 40
0.045
309
GRIDFORMAT_END
 95
       16
302
GRIDFORMAT
  1
GRIDFORMAT_BEGIN
 90
        0
 91
        1
 62
     0
 92
       -2
340
0
 93
        0
 40
0.045
309
GRIDFORMAT_END
 95
       32
302
GRIDFORMAT
  1
GRIDFORMAT_BEGIN
 90
        0
 91
        1
 62
     0
 92
       -2
340
0
 93
        0
 40
0.045
309
GRIDFORMAT_END
309
TABLEFORMAT_END
  1
CELLSTYLE_BEGIN
 90
        1
 91
        1
300
_TITLE
309
CELLSTYLE_END
300
CELLSTYLE
  1
TABLEFORMAT_BEGIN
 90
        5
170
     1
 91
        0
 92
        0
 62
   257
 93
        1
300
CONTENTFORMAT
  1
CONTENTFORMAT_BEGIN
 90
        0
 91
        0
 92
        4
 93
        0
300

 40
0.0
140
1.0
 94
        5
 62
     0
340
28
144
0.18
309
CONTENTFORMAT_END
171
     0
 94
        6
 95
        1
302
GRIDFORMAT
  1
GRIDFORMAT_BEGIN
 90
        0
 91
        1
 62
     0
 92
       -2
340
0
 93
        0
 40
0.045
309
GRIDFORMAT_END
 95
        2
302
GRIDFORMAT
  1
GRIDFORMAT_BEGIN
 90
        0
 91
        1
 62
     0
 92
       -2
340
0
 93
        0
 40
0.045
309
GRIDFORMAT_END
 95
        4
302
GRIDFORMAT
  1
GRIDFORMAT_BEGIN
 90
        0
 91
        1
 62
     0
 92
       -2
340
0
 93
        0
 40
0.045
309
GRIDFORMAT_END
 95
        8
302
GRIDFORMAT
  1
GRIDFORMAT_BEGIN
 90
        0
 91
        1
 62
     0
 92
       -2
340
0
 93
        0
 40
0.045
309
GRIDFORMAT_END
 95
       16
302
GRIDFORMAT
  1
GRIDFORMAT_BEGIN
 90
        0
 91
        1
 62
     0
 92
       -2
340
0
 93
        0
 40
0.045
309
GRIDFORMAT_END
 95
       32
302
GRIDFORMAT
  1
GRIDFORMAT_BEGIN
 90
        0
 91
        1
 62
     0
 92
       -2
340
0
 93
        0
 40
0.045
309
GRIDFORMAT_END
309
TABLEFORMAT_END
  1
CELLSTYLE_BEGIN
 90
        2
 91
        1
300
_HEADER
309
CELLSTYLE_END
300
CELLSTYLE
  1
TABLEFORMAT_BEGIN
 90
        5
170
     1
 91
        0
 92
        0
 62
   257
 93
        1
300
CONTENTFORMAT
  1
CONTENTFORMAT_BEGIN
 90
        0
 91
        0
 92
        4
 93
        0
300

 40
0.0
140
1.0
 94
        2
 62
     0
340
28
144
0.18
309
CONTENTFORMAT_END
171
     0
 94
        6
 95
        1
302
GRIDFORMAT
  1
GRIDFORMAT_BEGIN
 90
        0
 91
        1
 62
     0
 92
       -2
340
0
 93
        0
 40
0.045
309
GRIDFORMAT_END
 95
        2
302
GRIDFORMAT
  1
GRIDFORMAT_BEGIN
 90
        0
 91
        1
 62
     0
 92
       -2
340
0
 93
        0
 40
0.045
309
GRIDFORMAT_END
 95
        4
302
GRIDFORMAT
  1
GRIDFORMAT_BEGIN
 90
        0
 91
        1
 62
     0
 92
       -2
340
0
 93
        0
 40
0.045
309
GRIDFORMAT_END
 95
        8
302
GRIDFORMAT
  1
GRIDFORMAT_BEGIN
 90
        0
 91
        1
 62
     0
 92
       -2
340
0
 93
        0
 40
0.045
309
GRIDFORMAT_END
 95
       16
302
GRIDFORMAT
  1
GRIDFORMAT_BEGIN
 90
        0
 91
        1
 62
     0
 92
       -2
340
0
 93
        0
 40
0.045
309
GRIDFORMAT_END
 95
       32
302
GRIDFORMAT
  1
GRIDFORMAT_BEGIN
 90
        0
 91
        1
 62
     0
 92
       -2
340
0
 93
        0
 40
0.045
309
GRIDFORMAT_END
309
TABLEFORMAT_END
  1
CELLSTYLE_BEGIN
 90
        3
 91
        2
300
_DATA
309
CELLSTYLE_END
  0
XRECORD
  5
2A3
102
{ACAD_REACTORS
330
297
102
}
330
297
100
AcDbXrecord
280
     1
102
ACAD_ROUNDTRIP_PRE2007_TABLESTYLE
 90
        4
 91
        0
  1

 92
        4
 93
        0
  2

 94
        4
 95
        0
  3

  0
XRECORD
  5
2A1
102
{ACAD_REACTORS
330
2A0
102
}
330
2A0
100
AcDbXrecord
280
     1
102
RTVSPost2010Prop28
280
     1
102
RTVSPost2010PropOp28
 70
     1
102
RTVSPost2010Prop29
280
     1
102
RTVSPost2010PropOp29
 70
     1
102
RTVSPost2010Prop30
280
     0
102
RTVSPost2010PropOp30
 70
     1
102
RTVSPost2010Prop31
280
     0
102
RTVSPost2010PropOp31
 70
     1
102
RTVSPost2010Prop32
280
     0
102
RTVSPost2010PropOp32
 70
     1
102
RTVSPost2010Prop33
280
     0
102
RTVSPost2010PropOp33
 70
     1
102
RTVSPost2010Prop34
280
     0
102
RTVSPost2010PropOp34
 70
     1
102
RTVSPost2010Prop35
280
     0
102
RTVSPost2010PropOp35
 70
     1
102
RTVSPost2010Prop36
280
     0
102
RTVSPost2010PropOp36
 70
     1
102
RTVSPost2010Prop37
 90
       50
102
RTVSPost2010PropOp37
 70
     1
102
RTVSPost2010Prop38
140
0.0
102
RTVSPost2010PropOp38
 70
     1
102
RTVSPost2010Prop39
140
1.0
102
RTVSPost2010PropOp39
 70
     1
102
RTVSPost2010Prop40
 90
        0
102
RTVSPost2010PropOp40
 70
     1
102
RTVSPost2010Prop41ColorIndex
 90
       18
102
RTVSPost2010Prop41ColorRGB
 90
        0
102
RTVSPost2010PropOp41
 70
     1
102
RTVSPost2010Prop42
 90
       50
102
RTVSPost2010PropOp42
 70
     1
102
RTVSPost2010Prop43
 90
        3
102
RTVSPost2010PropOp43
 70
     1
102
RTVSPost2010Prop44ColorIndex
 90
        5
102
RTVSPost2010Prop44ColorRGB
 90
      255
102
RTVSPost2010PropOp44
 70
     1
102
RTVSPost2010Prop45
280
     0
102
RTVSPost2010PropOp45
 70
     1
102
RTVSPost2010Prop46
 90
       50
102
RTVSPost2010PropOp46
 70
     1
102
RTVSPost2010Prop47
 90
       50
102
RTVSPost2010PropOp47
 70
     1
102
RTVSPost2010Prop48
 90
       50
102
RTVSPost2010PropOp48
 70
     1
102
RTVSPost2010Prop49
280
     0
102
RTVSPost2010PropOp49
 70
     1
102
RTVSPost2010Prop50
 90
       50
102
RTVSPost2010PropOp50
 70
     1
102
RTVSPost2010Prop51ColorIndex
 90
      256
102
RTVSPost2010Prop51ColorRGB
 90
-16777216
102
RTVSPost2010PropOp51
 70
     0
102
RTVSPost2010Prop52
140
1.0
102
RTVSPost2010PropOp52
 70
     0
102
RTVSPost2010Prop53
 90
        2
102
RTVSPost2010PropOp53
 70
     1
102
RTVSPost2010Prop54
  1
strokes_ogs.tif
102
RTVSPost2010PropOp54
 70
     1
102
RTVSPost2010Prop55
280
     0
102
RTVSPost2010PropOp55
 70
     1
102
RTVSPost2010Prop56
140
1.0
102
RTVSPost2010PropOp56
 70
     1
102
RTVSPost2010Prop57
140
1.0
102
RTVSPost2010PropOp57
 70
     1
102
RTVSPropertyOp0
 70
     1
102
RTVSPropertyOp1
 70
     1
102
RTVSPropertyOp2
 70
     1
102
RTVSPropertyOp3
 70
     1
102
RTVSPropertyOp4
 70
     1
102
RTVSPropertyOp5
 70
     1
102
RTVSPropertyOp6
 70
     1
102
RTVSPropertyOp7
 70
     1
102
RTVSPropertyOp8
 70
     1
102
RTVSPropertyOp9
 70
     1
102
RTVSPropertyOp10
 70
     1
102
RTVSPropertyOp11
 70
     1
102
RTVSPropertyOp12
 70
     1
102
RTVSPropertyOp13
 70
     1
102
RTVSPropertyOp14
 70
     1
102
RTVSPropertyOp15
 70
     1
102
RTVSPropertyOp16
 70
     1
102
RTVSPropertyOp17
 70
     1
102
RTVSPropertyOp18
 70
     1
102
RTVSPropertyOp19
 70
     1
102
RTVSPropertyOp20
 70
     1
102
RTVSPropertyOp21
 70
     1
102
RTVSPropertyOp22
 70
     1
102
RTVSPropertyOp23
 70
     1
102
RTVSPropertyOp24
 70
     1
102
RTVSPropertyOp25
 70
     1
102
RTVSPropertyOp26
 70
     1
102
RTVSPropertyOp27
 70
     1
102
RTVSPropertyOp28
 70
     1
102
RTVSPropertyOp29
 70
     1
102
RTVSPropertyOp30
 70
     1
102
RTVSPropertyOp31
 70
     1
102
RTVSPropertyOp32
 70
     1
102
RTVSPropertyOp33
 70
     1
102
RTVSPropertyOp34
 70
     1
102
RTVSPropertyOp35
 70
     1
102
RTVSPropertyOp36
 70
     1
102
RTVSPropertyOp37
 70
     1
102
RTVSPropertyOp38
 70
     1
102
RTVSPropertyOp39
 70
     1
102
RTVSPropertyOp40
 70
     1
102
RTVSPropertyOp41
 70
     1
102
RTVSPropertyOp42
 70
     1
102
RTVSPropertyOp43
 70
     1
102
RTVSPropertyOp44
 70
     1
102
RTVSPropertyOp45
 70
     1
102
RTVSPropertyOp46
 70
     1
102
RTVSPropertyOp47
 70
     1
102
RTVSPropertyOp48
 70
     1
102
RTVSPropertyOp49
 70
     1
102
RTVSPropertyOp50
 70
     1
102
RTVSPropertyOp51
 70
     0
102
RTVSPropertyOp52
 70
     0
102
RTVSPropertyOp53
 70
     1
102
RTVSPropertyOp54
 70
     1
102
RTVSPropertyOp55
 70
     1
102
RTVSPropertyOp56
 70
     1
102
RTVSPropertyOp57
 70
     1
102
RTVSPropertyOp58
 70
     1
102
RTVSPropertyOp59
 70
     1
102
RTVSPropertyOp60
 70
     1
102
RTVSPropertyOp61
 70
     1
102
RTVSPropertyOp62
 70
     1
  0
XRECORD
  5
2A5
102
{ACAD_REACTORS
330
2A4
102
}
330
2A4
100
AcDbXrecord
280
     1
102
RTVSPost2010Prop28
280
     0
102
RTVSPost2010PropOp28
 70
     1
102
RTVSPost2010Prop29
280
     1
102
RTVSPost2010PropOp29
 70
     1
102
RTVSPost2010Prop30
280
     1
102
RTVSPost2010PropOp30
 70
     1
102
RTVSPost2010Prop31
280
     0
102
RTVSPost2010PropOp31
 70
     1
102
RTVSPost2010Prop32
280
     0
102
RTVSPost2010PropOp32
 70
     1
102
RTVSPost2010Prop33
280
     0
102
RTVSPost2010PropOp33
 70
     1
102
RTVSPost2010Prop34
280
     0
102
RTVSPost2010PropOp34
 70
     1
102
RTVSPost2010Prop35
280
     0
102
RTVSPost2010PropOp35
 70
     1
102
RTVSPost2010Prop36
280
     0
102
RTVSPost2010PropOp36
 70
     1
102
RTVSPost2010Prop37
 90
       50
102
RTVSPost2010PropOp37
 70
     1
102
RTVSPost2010Prop38
140
0.0
102
RTVSPost2010PropOp38
 70
     1
102
RTVSPost2010Prop39
140
1.0
102
RTVSPost2010PropOp39
 70
     1
102
RTVSPost2010Prop40
 90
        0
102
RTVSPost2010PropOp40
 70
     1
102
RTVSPost2010Prop41ColorIndex
 90
       18
102
RTVSPost2010Prop41ColorRGB
 90
        0
102
RTVSPost2010PropOp41
 70
     1
102
RTVSPost2010Prop42
 90
       50
102
RTVSPost2010PropOp42
 70
     1
102
RTVSPost2010Prop43
 90
        3
102
RTVSPost2010PropOp43
 70
     1
102
RTVSPost2010Prop44ColorIndex
 90
        5
102
RTVSPost2010Prop44ColorRGB
 90
      255
102
RTVSPost2010PropOp44
 70
     1
102
RTVSPost2010Prop45
280
     0
102
RTVSPost2010PropOp45
 70
     1
102
RTVSPost2010Prop46
 90
       50
102
RTVSPost2010PropOp46
 70
     1
102
RTVSPost2010Prop47
 90
       50
102
RTVSPost2010PropOp47
 70
     1
102
RTVSPost2010Prop48
 90
       50
102
RTVSPost2010PropOp48
 70
     1
102
RTVSPost2010Prop49
280
     0
102
RTVSPost2010PropOp49
 70
     1
102
RTVSPost2010Prop50
 90
       50
102
RTVSPost2010PropOp50
 70
     1
102
RTVSPost2010Prop51ColorIndex
 90
      256
102
RTVSPost2010Prop51ColorRGB
 90
-16777216
102
RTVSPost2010PropOp51
 70
     0
102
RTVSPost2010Prop52
140
1.0
102
RTVSPost2010PropOp52
 70
     0
102
RTVSPost2010Prop53
 90
        2
102
RTVSPost2010PropOp53
 70
     1
102
RTVSPost2010Prop54
  1
strokes_ogs.tif
102
RTVSPost2010PropOp54
 70
     1
102
RTVSPost2010Prop55
280
     0
102
RTVSPost2010PropOp55
 70
     1
102
RTVSPost2010Prop56
140
1.0
102
RTVSPost2010PropOp56
 70
     1
102
RTVSPost2010Prop57
140
1.0
102
RTVSPost2010PropOp57
 70
     1
102
RTVSPropertyOp0
 70
     1
102
RTVSPropertyOp1
 70
     1
102
RTVSPropertyOp2
 70
     1
102
RTVSPropertyOp3
 70
     1
102
RTVSPropertyOp4
 70
     1
102
RTVSPropertyOp5
 70
     1
102
RTVSPropertyOp6
 70
     1
102
RTVSPropertyOp7
 70
     1
102
RTVSPropertyOp8
 70
     1
102
RTVSPropertyOp9
 70
     1
102
RTVSPropertyOp10
 70
     1
102
RTVSPropertyOp11
 70
     1
102
RTVSPropertyOp12
 70
     1
102
RTVSPropertyOp13
 70
     1
102
RTVSPropertyOp14
 70
     1
102
RTVSPropertyOp15
 70
     1
102
RTVSPropertyOp16
 70
     1
102
RTVSPropertyOp17
 70
     1
102
RTVSPropertyOp18
 70
     1
102
RTVSPropertyOp19
 70
     1
102
RTVSPropertyOp20
 70
     1
102
RTVSPropertyOp21
 70
     1
102
RTVSPropertyOp22
 70
     1
102
RTVSPropertyOp23
 70
     1
102
RTVSPropertyOp24
 70
     1
102
RTVSPropertyOp25
 70
     1
102
RTVSPropertyOp26
 70
     1
102
RTVSPropertyOp27
 70
     1
102
RTVSPropertyOp28
 70
     1
102
RTVSPropertyOp29
 70
     1
102
RTVSPropertyOp30
 70
     1
102
RTVSPropertyOp31
 70
     1
102
RTVSPropertyOp32
 70
     1
102
RTVSPropertyOp33
 70
     1
102
RTVSPropertyOp34
 70
     1
102
RTVSPropertyOp35
 70
     1
102
RTVSPropertyOp36
 70
     1
102
RTVSPropertyOp37
 70
     1
102
RTVSPropertyOp38
 70
     1
102
RTVSPropertyOp39
 70
     1
102
RTVSPropertyOp40
 70
     1
102
RTVSPropertyOp41
 70
     1
102
RTVSPropertyOp42
 70
     1
102
RTVSPropertyOp43
 70
     1
102
RTVSPropertyOp44
 70
     1
102
RTVSPropertyOp45
 70
     1
102
RTVSPropertyOp46
 70
     1
102
RTVSPropertyOp47
 70
     1
102
RTVSPropertyOp48
 70
     1
102
RTVSPropertyOp49
 70
     1
102
RTVSPropertyOp50
 70
     1
102
RTVSPropertyOp51
 70
     0
102
RTVSPropertyOp52
 70
     0
102
RTVSPropertyOp53
 70
     1
102
RTVSPropertyOp54
 70
     1
102
RTVSPropertyOp55
 70
     1
102
RTVSPropertyOp56
 70
     1
102
RTVSPropertyOp57
 70
     1
102
RTVSPropertyOp58
 70
     1
102
RTVSPropertyOp59
 70
     1
102
RTVSPropertyOp60
 70
     1
102
RTVSPropertyOp61
 70
     1
102
RTVSPropertyOp62
 70
     1
  0
XRECORD
  5
2A7
102
{ACAD_REACTORS
330
2A6
102
}
330
2A6
100
AcDbXrecord
280
     1
102
RTVSPost2010Prop28
280
     0
102
RTVSPost2010PropOp28
 70
     1
102
RTVSPost2010Prop29
280
     1
102
RTVSPost2010PropOp29
 70
     1
102
RTVSPost2010Prop30
280
     1
102
RTVSPost2010PropOp30
 70
     1
102
RTVSPost2010Prop31
280
     0
102
RTVSPost2010PropOp31
 70
     1
102
RTVSPost2010Prop32
280
     0
102
RTVSPost2010PropOp32
 70
     1
102
RTVSPost2010Prop33
280
     0
102
RTVSPost2010PropOp33
 70
     1
102
RTVSPost2010Prop34
280
     0
102
RTVSPost2010PropOp34
 70
     1
102
RTVSPost2010Prop35
280
     0
102
RTVSPost2010PropOp35
 70
     1
102
RTVSPost2010Prop36
280
     0
102
RTVSPost2010PropOp36
 70
     1
102
RTVSPost2010Prop37
 90
       50
102
RTVSPost2010PropOp37
 70
     1
102
RTVSPost2010Prop38
140
0.0
102
RTVSPost2010PropOp38
 70
     1
102
RTVSPost2010Prop39
140
1.0
102
RTVSPost2010PropOp39
 70
     1
102
RTVSPost2010Prop40
 90
        0
102
RTVSPost2010PropOp40
 70
     1
102
RTVSPost2010Prop41ColorIndex
 90
       18
102
RTVSPost2010Prop41ColorRGB
 90
        0
102
RTVSPost2010PropOp41
 70
     1
102
RTVSPost2010Prop42
 90
       50
102
RTVSPost2010PropOp42
 70
     1
102
RTVSPost2010Prop43
 90
        3
102
RTVSPost2010PropOp43
 70
     1
102
RTVSPost2010Prop44ColorIndex
 90
        5
102
RTVSPost2010Prop44ColorRGB
 90
      255
102
RTVSPost2010PropOp44
 70
     1
102
RTVSPost2010Prop45
280
     0
102
RTVSPost2010PropOp45
 70
     1
102
RTVSPost2010Prop46
 90
       50
102
RTVSPost2010PropOp46
 70
     1
102
RTVSPost2010Prop47
 90
       50
102
RTVSPost2010PropOp47
 70
     1
102
RTVSPost2010Prop48
 90
       50
102
RTVSPost2010PropOp48
 70
     1
102
RTVSPost2010Prop49
280
     0
102
RTVSPost2010PropOp49
 70
     1
102
RTVSPost2010Prop50
 90
       50
102
RTVSPost2010PropOp50
 70
     1
102
RTVSPost2010Prop51ColorIndex
 90
      256
102
RTVSPost2010Prop51ColorRGB
 90
-16777216
102
RTVSPost2010PropOp51
 70
     0
102
RTVSPost2010Prop52
140
1.0
102
RTVSPost2010PropOp52
 70
     0
102
RTVSPost2010Prop53
 90
        2
102
RTVSPost2010PropOp53
 70
     1
102
RTVSPost2010Prop54
  1
strokes_ogs.tif
102
RTVSPost2010PropOp54
 70
     1
102
RTVSPost2010Prop55
280
     0
102
RTVSPost2010PropOp55
 70
     1
102
RTVSPost2010Prop56
140
1.0
102
RTVSPost2010PropOp56
 70
     1
102
RTVSPost2010Prop57
140
1.0
102
RTVSPost2010PropOp57
 70
     1
102
RTVSPropertyOp0
 70
     1
102
RTVSPropertyOp1
 70
     1
102
RTVSPropertyOp2
 70
     1
102
RTVSPropertyOp3
 70
     1
102
RTVSPropertyOp4
 70
     1
102
RTVSPropertyOp5
 70
     1
102
RTVSPropertyOp6
 70
     1
102
RTVSPropertyOp7
 70
     1
102
RTVSPropertyOp8
 70
     1
102
RTVSPropertyOp9
 70
     1
102
RTVSPropertyOp10
 70
     1
102
RTVSPropertyOp11
 70
     1
102
RTVSPropertyOp12
 70
     1
102
RTVSPropertyOp13
 70
     1
102
RTVSPropertyOp14
 70
     1
102
RTVSPropertyOp15
 70
     1
102
RTVSPropertyOp16
 70
     1
102
RTVSPropertyOp17
 70
     1
102
RTVSPropertyOp18
 70
     1
102
RTVSPropertyOp19
 70
     1
102
RTVSPropertyOp20
 70
     1
102
RTVSPropertyOp21
 70
     1
102
RTVSPropertyOp22
 70
     1
102
RTVSPropertyOp23
 70
     1
102
RTVSPropertyOp24
 70
     1
102
RTVSPropertyOp25
 70
     1
102
RTVSPropertyOp26
 70
     1
102
RTVSPropertyOp27
 70
     1
102
RTVSPropertyOp28
 70
     1
102
RTVSPropertyOp29
 70
     1
102
RTVSPropertyOp30
 70
     1
102
RTVSPropertyOp31
 70
     1
102
RTVSPropertyOp32
 70
     1
102
RTVSPropertyOp33
 70
     1
102
RTVSPropertyOp34
 70
     1
102
RTVSPropertyOp35
 70
     1
102
RTVSPropertyOp36
 70
     1
102
RTVSPropertyOp37
 70
     1
102
RTVSPropertyOp38
 70
     1
102
RTVSPropertyOp39
 70
     1
102
RTVSPropertyOp40
 70
     1
102
RTVSPropertyOp41
 70
     1
102
RTVSPropertyOp42
 70
     1
102
RTVSPropertyOp43
 70
     1
102
RTVSPropertyOp44
 70
     1
102
RTVSPropertyOp45
 70
     1
102
RTVSPropertyOp46
 70
     1
102
RTVSPropertyOp47
 70
     1
102
RTVSPropertyOp48
 70
     1
102
RTVSPropertyOp49
 70
     1
102
RTVSPropertyOp50
 70
     1
102
RTVSPropertyOp51
 70
     0
102
RTVSPropertyOp52
 70
     0
102
RTVSPropertyOp53
 70
     1
102
RTVSPropertyOp54
 70
     1
102
RTVSPropertyOp55
 70
     1
102
RTVSPropertyOp56
 70
     1
102
RTVSPropertyOp57
 70
     1
102
RTVSPropertyOp58
 70
     1
102
RTVSPropertyOp59
 70
     1
102
RTVSPropertyOp60
 70
     1
102
RTVSPropertyOp61
 70
     1
102
RTVSPropertyOp62
 70
     1
  0
ENDSEC
  0
EOF
