  0
SECTION
  2
HEADER
  9
$ACADVER
  1
AC1015
  9
$ACADMAINTVER
 70
    18
  9
$DWGCODEPAGE
  3
ANSI_932
  9
$INSBASE
 10
0.0
 20
0.0
 30
0.0
  9
$EXTMIN
 10
-17.9544873719966
 20
0.0
 30
0.0
  9
$EXTMAX
 10
740.2569501061462
 20
296.527998470292
 30
0.0
  9
$LIMMIN
 10
0.0
 20
0.0
  9
$LIMMAX
 10
420.0
 20
297.0
  9
$ORTHOMODE
 70
     1
  9
$REGENMODE
 70
     1
  9
$FILLMODE
 70
     1
  9
$QTEXTMODE
 70
     0
  9
$MIRRTEXT
 70
     1
  9
$LTSCALE
 40
1.0
  9
$ATTMODE
 70
     1
  9
$TEXTSIZE
 40
30.0
  9
$TRACEWID
 40
0.05
  9
$TEXTSTYLE
  7
SUNPOU
  9
$CLAYER
  8
0
  9
$CELTYPE
  6
BYLAYER
  9
$CECOLOR
 62
     7
  9
$CELTSCALE
 40
1.0
  9
$DISPSILH
 70
     0
  9
$DIMSCALE
 40
1.0
  9
$DIMASZ
 40
3.0
  9
$DIMEXO
 40
2.0
  9
$DIMDLI
 40
0.38
  9
$DIMRND
 40
0.0
  9
$DIMDLE
 40
0.0
  9
$DIMEXE
 40
0.0
  9
$DIMTP
 40
0.0
  9
$DIMTM
 40
0.0
  9
$DIMTXT
 40
7.0
  9
$DIMCEN
 40
1.0
  9
$DIMTSZ
 40
0.0
  9
$DIMTOL
 70
     0
  9
$DIMLIM
 70
     0
  9
$DIMTIH
 70
     0
  9
$DIMTOH
 70
     0
  9
$DIMSE1
 70
     0
  9
$DIMSE2
 70
     0
  9
$DIMTAD
 70
     1
  9
$DIMZIN
 70
     0
  9
$DIMBLK
  1

  9
$DIMASO
 70
     1
  9
$DIMSHO
 70
     1
  9
$DIMPOST
  1

  9
$DIMAPOST
  1

  9
$DIMALT
 70
     0
  9
$DIMALTD
 70
     2
  9
$DIMALTF
 40
25.4
  9
$DIMLFAC
 40
1.0
  9
$DIMTOFL
 70
     0
  9
$DIMTVP
 40
0.0
  9
$DIMTIX
 70
     1
  9
$DIMSOXD
 70
     0
  9
$DIMSAH
 70
     1
  9
$DIMBLK1
  1
DOTSMALL
  9
$DIMBLK2
  1
DOTSMALL
  9
$DIMSTYLE
  2
1
  9
$DIMCLRD
 70
    60
  9
$DIMCLRE
 70
    70
  9
$DIMCLRT
 70
    60
  9
$DIMTFAC
 40
0.0642857142857143
  9
$DIMGAP
 40
1.0
  9
$DIMJUST
 70
     0
  9
$DIMSD1
 70
     0
  9
$DIMSD2
 70
     0
  9
$DIMTOLJ
 70
     1
  9
$DIMTZIN
 70
     0
  9
$DIMALTZ
 70
     0
  9
$DIMALTTZ
 70
     0
  9
$DIMUPT
 70
     0
  9
$DIMDEC
 70
     0
  9
$DIMTDEC
 70
     4
  9
$DIMALTU
 70
     2
  9
$DIMALTTD
 70
     2
  9
$DIMTXSTY
  7
STANDARD
  9
$DIMAUNIT
 70
     0
  9
$DIMADEC
 70
     0
  9
$DIMALTRND
 40
0.0
  9
$DIMAZIN
 70
     0
  9
$DIMDSEP
 70
    46
  9
$DIMATFIT
 70
     3
  9
$DIMFRAC
 70
     0
  9
$DIMLDRBLK
  1
DOTSMALL
  9
$DIMLUNIT
 70
     2
  9
$DIMLWD
 70
    -2
  9
$DIMLWE
 70
    -2
  9
$DIMTMOVE
 70
     0
  9
$LUNITS
 70
     4
  9
$LUPREC
 70
     4
  9
$SKETCHINC
 40
0.1
  9
$FILLETRAD
 40
1.0
  9
$AUNITS
 70
     0
  9
$AUPREC
 70
     2
  9
$MENU
  1
acad
  9
$ELEVATION
 40
0.0
  9
$PELEVATION
 40
0.0
  9
$THICKNESS
 40
0.0
  9
$LIMCHECK
 70
     0
  9
$CHAMFERA
 40
0.0
  9
$CHAMFERB
 40
0.0
  9
$CHAMFERC
 40
0.0
  9
$CHAMFERD
 40
0.0
  9
$SKPOLY
 70
     0
  9
$TDCREATE
 40
2450623.676023380
  9
$TDUCREATE
 40
2450623.301023380
  9
$TDUPDATE
 40
2453882.358795127
  9
$TDUUPDATE
 40
2453881.983795128
  9
$TDINDWG
 40
5.4792867708
  9
$TDUSRTIMER
 40
5.4792867593
  9
$USRTIMER
 70
     1
  9
$ANGBASE
 50
0.0
  9
$ANGDIR
 70
     0
  9
$PDMODE
 70
     0
  9
$PDSIZE
 40
0.0
  9
$PLINEWID
 40
0.0
  9
$SPLFRAME
 70
     0
  9
$SPLINETYPE
 70
     6
  9
$SPLINESEGS
 70
     8
  9
$HANDSEED
  5
594
  9
$SURFTAB1
 70
     6
  9
$SURFTAB2
 70
     6
  9
$SURFTYPE
 70
     6
  9
$SURFU
 70
     6
  9
$SURFV
 70
     6
  9
$UCSBASE
  2

  9
$UCSNAME
  2

  9
$UCSORG
 10
0.0
 20
0.0
 30
0.0
  9
$UCSXDIR
 10
1.0
 20
0.0
 30
0.0
  9
$UCSYDIR
 10
0.0
 20
1.0
 30
0.0
  9
$UCSORTHOREF
  2

  9
$UCSORTHOVIEW
 70
     0
  9
$UCSORGTOP
 10
0.0
 20
0.0
 30
0.0
  9
$UCSORGBOTTOM
 10
0.0
 20
0.0
 30
0.0
  9
$UCSORGLEFT
 10
0.0
 20
0.0
 30
0.0
  9
$UCSORGRIGHT
 10
0.0
 20
0.0
 30
0.0
  9
$UCSORGFRONT
 10
0.0
 20
0.0
 30
0.0
  9
$UCSORGBACK
 10
0.0
 20
0.0
 30
0.0
  9
$PUCSBASE
  2

  9
$PUCSNAME
  2

  9
$PUCSORG
 10
0.0
 20
0.0
 30
0.0
  9
$PUCSXDIR
 10
1.0
 20
0.0
 30
0.0
  9
$PUCSYDIR
 10
0.0
 20
1.0
 30
0.0
  9
$PUCSORTHOREF
  2

  9
$PUCSORTHOVIEW
 70
     0
  9
$PUCSORGTOP
 10
0.0
 20
0.0
 30
0.0
  9
$PUCSORGBOTTOM
 10
0.0
 20
0.0
 30
0.0
  9
$PUCSORGLEFT
 10
0.0
 20
0.0
 30
0.0
  9
$PUCSORGRIGHT
 10
0.0
 20
0.0
 30
0.0
  9
$PUCSORGFRONT
 10
0.0
 20
0.0
 30
0.0
  9
$PUCSORGBACK
 10
0.0
 20
0.0
 30
0.0
  9
$USERI1
 70
     0
  9
$USERI2
 70
     0
  9
$USERI3
 70
     0
  9
$USERI4
 70
     0
  9
$USERI5
 70
     0
  9
$USERR1
 40
0.0
  9
$USERR2
 40
0.0
  9
$USERR3
 40
0.0
  9
$USERR4
 40
0.0
  9
$USERR5
 40
0.0
  9
$WORLDVIEW
 70
     1
  9
$SHADEDGE
 70
     3
  9
$SHADEDIF
 70
    70
  9
$TILEMODE
 70
     1
  9
$MAXACTVP
 70
    16
  9
$PINSBASE
 10
0.0
 20
0.0
 30
0.0
  9
$PLIMCHECK
 70
     0
  9
$PEXTMIN
 10
1.000000000000000E+20
 20
1.000000000000000E+20
 30
1.000000000000000E+20
  9
$PEXTMAX
 10
-1.000000000000000E+20
 20
-1.000000000000000E+20
 30
-1.000000000000000E+20
  9
$PLIMMIN
 10
0.0
 20
0.0
  9
$PLIMMAX
 10
12.0
 20
9.0
  9
$UNITMODE
 70
     0
  9
$VISRETAIN
 70
     0
  9
$PLINEGEN
 70
     0
  9
$PSLTSCALE
 70
     1
  9
$TREEDEPTH
 70
  3020
  9
$CMLSTYLE
  2
STANDARD
  9
$CMLJUST
 70
     0
  9
$CMLSCALE
 40
1.0
  9
$PROXYGRAPHICS
 70
     1
  9
$MEASUREMENT
 70
     0
  9
$CELWEIGHT
370
    -1
  9
$ENDCAPS
280
     0
  9
$JOINSTYLE
280
     0
  9
$LWDISPLAY
290
     0
  9
$INSUNITS
 70
     0
  9
$HYPERLINKBASE
  1

  9
$STYLESHEET
  1

  9
$XEDIT
290
     1
  9
$CEPSNTYPE
380
     0
  9
$PSTYLEMODE
290
     1
  9
$FINGERPRINTGUID
  2
{640CC8E6-0C0B-4D8B-B2B7-30159C15B634}
  9
$VERSIONGUID
  2
{BDA38D7A-AF5C-4E4E-A06C-886A46CB59B5}
  9
$EXTNAMES
290
     1
  9
$PSVPSCALE
 40
0.0
  9
$OLESTARTUP
290
     0
  0
ENDSEC
  0
SECTION
  2
CLASSES
  0
CLASS
  1
DICTIONARYVAR
  2
AcDbDictionaryVar
  3
ObjectDBX Classes
 90
        0
280
     0
281
     0
  0
CLASS
  1
RASTERVARIABLES
  2
AcDbRasterVariables
  3
ISM
 90
    32768
280
     0
281
     0
  0
CLASS
  1
ACDBDICTIONARYWDFLT
  2
AcDbDictionaryWithDefault
  3
ObjectDBX Classes
 90
        0
280
     0
281
     0
  0
CLASS
  1
ACDBPLACEHOLDER
  2
AcDbPlaceHolder
  3
ObjectDBX Classes
 90
        0
280
     0
281
     0
  0
CLASS
  1
LAYOUT
  2
AcDbLayout
  3
ObjectDBX Classes
 90
        0
280
     0
281
     0
  0
CLASS
  1
AEC_VARS_DWG_SETUP
  2
AecDbVarsDwgSetup
  3
AecBase
 90
    32897
280
     1
281
     0
  0
CLASS
  1
AEC_DISP_REP_MASS_ELEM_MODEL
  2
AecDbDispRepMassElemModel
  3
AecBase
 90
    32897
280
     1
281
     0
  0
CLASS
  1
AEC_DISP_PROPS_MASS_ELEM_MODEL
  2
AecDbDispPropsMassElem
  3
AecBase
 90
    32897
280
     1
281
     0
  0
CLASS
  1
AEC_DISP_REP_MASS_ELEM_SCHEM
  2
AecDbDispRepMassElemSchem
  3
AecBase
 90
    32897
280
     1
281
     0
  0
CLASS
  1
AEC_DISP_REP_DOOR_ELEV
  2
AecDbDispRepDoorElev
  3
AecArchBase
 90
    32897
280
     1
281
     0
  0
CLASS
  1
AEC_DISP_PROPS_DOOR
  2
AecDbDispPropsDoor
  3
AecArchBase
 90
    32897
280
     1
281
     0
  0
CLASS
  1
AEC_DISP_REP_MASKBLOCK_REF
  2
AecDbDispRepMaskBlockRef
  3
AecBase
 90
    32897
280
     1
281
     0
  0
CLASS
  1
AEC_DISP_PROPS_MASKBLOCK
  2
AecDbDispPropsMaskBlock
  3
AecBase
 90
    32897
280
     1
281
     0
  0
CLASS
  1
AEC_DISP_REP_LAYOUT_GRID3D
  2
AecDbDispRepLayoutGrid3d
  3
AecBase
 90
    32897
280
     1
281
     0
  0
CLASS
  1
AEC_DISP_PROPS_LAYOUT_GRID3D
  2
AecDbDispPropsLayoutGrid3d
  3
AecBase
 90
    32897
280
     1
281
     0
  0
CLASS
  1
AEC_DISP_REP_ENT_REF
  2
AecDbDispRepEntRef
  3
AecBase
 90
    32897
280
     1
281
     0
  0
CLASS
  1
AEC_DISP_PROPS_ENT_REF
  2
AecDbDispPropsEntRef
  3
AecBase
 90
    32897
280
     1
281
     0
  0
CLASS
  1
AEC_DISP_REP_CLIP_VOLUME_RESULT_SUBDIV
  2
AecDbDispRepClipVolResSubDiv
  3
AecBase
 90
    32897
280
     1
281
     0
  0
CLASS
  1
AEC_DISP_PROPS_CLIP_VOLUME_RESULT
  2
AecDbDispPropsClipVolResSubDiv
  3
AecBase
 90
    32897
280
     1
281
     0
  0
CLASS
  1
AEC_DISP_REP_CLIP_VOLUME_RESULT
  2
AecDbDispRepClipVolResult
  3
AecBase
 90
    32897
280
     1
281
     0
  0
CLASS
  1
AEC_DISP_REP_CLIP_VOLUME_PLAN
  2
AecDbDispRepClipVolPlan
  3
AecBase
 90
    32897
280
     1
281
     0
  0
CLASS
  1
AEC_DISP_PROPS_CLIP_VOLUME
  2
AecDbDispPropsClipVol
  3
AecBase
 90
    32897
280
     1
281
     0
  0
CLASS
  1
AEC_DISP_REP_CLIP_VOLUME_MODEL
  2
AecDbDispRepClipVolModel
  3
AecBase
 90
    32897
280
     1
281
     0
  0
CLASS
  1
AEC_DISP_REP_ANCHOR_ENT_TO_NODE
  2
AecDbDispRepAnchorEntToNode
  3
AecBase
 90
    32897
280
     1
281
     0
  0
CLASS
  1
AEC_DISP_PROPS_ENT
  2
AecDbDispPropsEnt
  3
AecBase
 90
    32897
280
     1
281
     0
  0
CLASS
  1
AEC_DISP_REP_LAYOUT_GRID2D
  2
AecDbDispRepLayoutGrid2d
  3
AecBase
 90
    32897
280
     1
281
     0
  0
CLASS
  1
AEC_DISP_PROPS_LAYOUT_GRID2D
  2
AecDbDispPropsLayoutGrid2d
  3
AecBase
 90
    32897
280
     1
281
     0
  0
CLASS
  1
AEC_DISP_REP_LAYOUT_CURVE
  2
AecDbDispRepLayoutCurve
  3
AecBase
 90
    32897
280
     1
281
     0
  0
CLASS
  1
AEC_DISP_PROPS_LAYOUT_CURVE
  2
AecDbDispPropsLayoutCurve
  3
AecBase
 90
    32897
280
     1
281
     0
  0
CLASS
  1
AEC_DISP_REP_ANCHOR
  2
AecDbDispRepAnchor
  3
AecBase
 90
    32897
280
     1
281
     0
  0
CLASS
  1
AEC_DISP_REP_CAMERA
  2
AecDbDispRepCamera
  3
AecBase
 90
    32897
280
     1
281
     0
  0
CLASS
  1
AEC_DISP_PROPS_CAMERA
  2
AecDbDispPropsCamera
  3
AecBase
 90
    32897
280
     1
281
     0
  0
CLASS
  1
AEC_DISP_REP_SLICE
  2
AecDbDispRepSlice
  3
AecBase
 90
    32897
280
     1
281
     0
  0
CLASS
  1
AEC_DISP_PROPS_SLICE
  2
AecDbDispPropsSlice
  3
AecBase
 90
    32897
280
     1
281
     0
  0
CLASS
  1
AEC_DISP_REP_MVBLOCK_REF
  2
AecDbDispRepMvBlockRef
  3
AecBase
 90
    32897
280
     1
281
     0
  0
CLASS
  1
AEC_DISP_REP_MVBLOCK_REF_MODEL
  2
AecDbDispRepMvBlockRefModel
  3
AecBase
 90
    32897
280
     1
281
     0
  0
CLASS
  1
AEC_DISP_REP_MASS_GROUP_MODEL
  2
AecDbDispRepMassGroupModel
  3
AecBase
 90
    32897
280
     1
281
     0
  0
CLASS
  1
AEC_DISP_PROPS_MASS_GROUP
  2
AecDbDispPropsMassGroup
  3
AecBase
 90
    32897
280
     1
281
     0
  0
CLASS
  1
AEC_DISP_REP_MASS_GROUP_PLAN
  2
AecDbDispRepMassGroupPlan
  3
AecBase
 90
    32897
280
     1
281
     0
  0
CLASS
  1
AEC_DISP_REP_DOOR_RCP
  2
AecDbDispRepDoorRcp
  3
AecArchBase
 90
    32897
280
     1
281
     0
  0
CLASS
  1
AEC_DISP_REP_DOOR_NOMINAL
  2
AecDbDispRepDoorNominal
  3
AecArchBase
 90
    32897
280
     1
281
     0
  0
CLASS
  1
AEC_DISP_PROPS_DOOR_NOMINAL
  2
AecDbDispPropsDoorNominal
  3
AecArchBase
 90
    32897
280
     1
281
     0
  0
CLASS
  1
AEC_DISP_REP_DOOR_PLAN
  2
AecDbDispRepDoorPlan
  3
AecArchBase
 90
    32897
280
     1
281
     0
  0
CLASS
  1
AEC_DISP_REP_DOOR_MODEL
  2
AecDbDispRepDoorModel
  3
AecArchBase
 90
    32897
280
     1
281
     0
  0
CLASS
  1
AEC_DISP_REP_MVBLOCK_REF_RCP
  2
AecDbDispRepMvBlockRefRcp
  3
AecArchBase
 90
    32897
280
     1
281
     0
  0
CLASS
  1
AEC_DISP_REP_MASS_GROUP_RCP
  2
AecDbDispRepMassGroupRcp
  3
AecArchBase
 90
    32897
280
     1
281
     0
  0
CLASS
  1
AEC_DISP_REP_MASS_ELEM_RCP
  2
AecDbDispRepMassElemRcp
  3
AecArchBase
 90
    32897
280
     1
281
     0
  0
CLASS
  1
AEC_DISP_REP_MASKBLOCK_REF_RCP
  2
AecDbDispRepMaskBlockRefRcp
  3
AecArchBase
 90
    32897
280
     1
281
     0
  0
CLASS
  1
AEC_DISP_REP_COLUMN_GRID_RCP
  2
AecDbDispRepColumnGridRcp
  3
AecArchBase
 90
    32897
280
     1
281
     0
  0
CLASS
  1
AEC_DISP_REP_COLUMN_GRID_MODEL
  2
AecDbDispRepColumnGridModel
  3
AecArchBase
 90
    32897
280
     1
281
     0
  0
CLASS
  1
AEC_DISP_REP_COLUMN_GRID
  2
AecDbDispRepColumnGrid
  3
AecArchBase
 90
    32897
280
     1
281
     0
  0
CLASS
  1
AEC_DISP_REP_CEILING_GRID_RCP
  2
AecDbDispRepCeilingGridRcp
  3
AecArchBase
 90
    32897
280
     1
281
     0
  0
CLASS
  1
AEC_DISP_REP_CEILING_GRID_MODEL
  2
AecDbDispRepCeilingGridModel
  3
AecArchBase
 90
    32897
280
     1
281
     0
  0
CLASS
  1
AEC_DISP_REP_CEILING_GRID
  2
AecDbDispRepCeilingGrid
  3
AecArchBase
 90
    33661
280
     1
281
     0
  0
CLASS
  1
AEC_DISP_REP_BDG_SECTION_SUBDIV
  2
AecDbDispRepBdgSectionSubDiv
  3
AecArchBase
 90
    32897
280
     1
281
     0
  0
CLASS
  1
AEC_DISP_REP_BDG_SECTION_MODEL
  2
AecDbDispRepBdgSectionModel
  3
AecArchBase
 90
    32897
280
     1
281
     0
  0
CLASS
  1
AEC_DISP_REP_BDG_SECTIONLINE_RCP
  2
AecDbDispRepBdgSectionLineRcp
  3
AecArchBase
 90
    32897
280
     1
281
     0
  0
CLASS
  1
AEC_DISP_REP_BDG_SECTIONLINE_PLAN
  2
AecDbDispRepBdgSectionLinePlan
  3
AecArchBase
 90
    32897
280
     1
281
     0
  0
CLASS
  1
AEC_DISP_REP_BDG_ELEVLINE_RCP
  2
AecDbDispRepBdgElevLineRcp
  3
AecArchBase
 90
    32897
280
     1
281
     0
  0
CLASS
  1
AEC_DISP_REP_BDG_ELEVLINE_PLAN
  2
AecDbDispRepBdgElevLinePlan
  3
AecArchBase
 90
    32897
280
     1
281
     0
  0
CLASS
  1
AEC_DISP_REP_BDG_SECTIONLINE_MODEL
  2
AecDbDispRepBdgSectionLineModel
  3
AecArchBase
 90
    32897
280
     1
281
     0
  0
CLASS
  1
AEC_DISP_REP_BDG_ELEVLINE_MODEL
  2
AecDbDispRepBdgElevLineModel
  3
AecArchBase
 90
    32897
280
     1
281
     0
  0
CLASS
  1
AEC_DISP_REP_ANCHOR_BUB_TO_GRID_RCP
  2
AecDbDispRepAnchorBubToGridRcp
  3
AecArchBase
 90
    32897
280
     1
281
     0
  0
CLASS
  1
AEC_DISP_REP_ANCHOR_BUB_TO_GRID_MODEL
  2
AecDbDispRepAnchorBubToGridMdl
  3
AecArchBase
 90
    32897
280
     1
281
     0
  0
CLASS
  1
AEC_DISP_REP_ANCHOR_BUB_TO_GRID
  2
AecDbDispRepAnchorBubToGrid
  3
AecArchBase
 90
    32897
280
     1
281
     0
  0
CLASS
  1
AEC_DISP_REP_WINDOW_RCP
  2
AecDbDispRepWindowRcp
  3
AecArchBase
 90
    32897
280
     1
281
     0
  0
CLASS
  1
AEC_DISP_PROPS_WINDOW
  2
AecDbDispPropsWindow
  3
AecArchBase
 90
    32897
280
     1
281
     0
  0
CLASS
  1
AEC_DISP_REP_ROOF_RCP
  2
AecDbDispRepRoofRcp
  3
AecArchBase
 90
    32897
280
     1
281
     0
  0
CLASS
  1
AEC_DISP_PROPS_ROOF
  2
AecDbDispPropsRoof
  3
AecArchBase
 90
    32897
280
     1
281
     0
  0
CLASS
  1
AEC_DISP_REP_ROOF_PLAN
  2
AecDbDispRepRoofPlan
  3
AecArchBase
 90
    32897
280
     1
281
     0
  0
CLASS
  1
AEC_DISP_REP_WINDOW_SILL_PLAN
  2
AecDbDispRepWindowSillPlan
  3
AecArchBase
 90
    32897
280
     1
281
     0
  0
CLASS
  1
AEC_DISP_PROPS_WINDOW_SILL_PLAN
  2
AecDbDispPropsWindowSillPlan
  3
AecArchBase
 90
    32897
280
     1
281
     0
  0
CLASS
  1
AEC_DISP_REP_SPACE_PLAN
  2
AecDbDispRepSpacePlan
  3
AecArchBase
 90
    32897
280
     1
281
     0
  0
CLASS
  1
AEC_DISP_PROPS_SPACE_PLAN
  2
AecDbDispPropsSpacePlan
  3
AecArchBase
 90
    32897
280
     1
281
     0
  0
CLASS
  1
AEC_DISP_REP_SPACE_MODEL
  2
AecDbDispRepSpaceModel
  3
AecArchBase
 90
    32897
280
     1
281
     0
  0
CLASS
  1
AEC_DISP_PROPS_SPACE_MODEL
  2
AecDbDispPropsSpaceModel
  3
AecArchBase
 90
    32897
280
     1
281
     0
  0
CLASS
  1
AEC_DISP_REP_WINDOW_MODEL
  2
AecDbDispRepWindowModel
  3
AecArchBase
 90
    32897
280
     1
281
     0
  0
CLASS
  1
AEC_DISP_REP_WINDOW_NOMINAL
  2
AecDbDispRepWindowNominal
  3
AecArchBase
 90
    32897
280
     1
281
     0
  0
CLASS
  1
AEC_DISP_PROPS_WINDOW_NOMINAL
  2
AecDbDispPropsWindowNominal
  3
AecArchBase
 90
    32897
280
     1
281
     0
  0
CLASS
  1
AEC_DISP_REP_OPENING
  2
AecDbDispRepOpening
  3
AecArchBase
 90
    32897
280
     1
281
     0
  0
CLASS
  1
AEC_DISP_PROPS_OPENING
  2
AecDbDispPropsOpening
  3
AecArchBase
 90
    32897
280
     1
281
     0
  0
CLASS
  1
AEC_DISP_REP_OPENING_MODEL
  2
AecDbDispRepOpeningModel
  3
AecArchBase
 90
    32897
280
     1
281
     0
  0
CLASS
  1
AEC_DISP_REP_RAILING_PLAN
  2
AecDbDispRepRailingPlan
  3
AecArchBase
 90
    32897
280
     1
281
     0
  0
CLASS
  1
AEC_DISP_PROPS_RAILING_PLAN
  2
AecDbDispPropsRailingPlan
  3
AecArchBase
 90
    32897
280
     1
281
     0
  0
CLASS
  1
AEC_DISP_REP_RAILING_MODEL
  2
AecDbDispRepRailingModel
  3
AecArchBase
 90
    32897
280
     1
281
     0
  0
CLASS
  1
AEC_DISP_PROPS_RAILING_MODEL
  2
AecDbDispPropsRailingModel
  3
AecArchBase
 90
    32897
280
     1
281
     0
  0
CLASS
  1
AEC_DISP_REP_WINDOW_ELEV
  2
AecDbDispRepWindowElev
  3
AecArchBase
 90
    32897
280
     1
281
     0
  0
CLASS
  1
AEC_DISP_REP_DOOR_THRESHOLD_PLAN
  2
AecDbDispRepDoorThresholdPlan
  3
AecArchBase
 90
    32897
280
     1
281
     0
  0
CLASS
  1
AEC_DISP_PROPS_DOOR_THRESHOLD_PLAN
  2
AecDbDispPropsDoorThresholdPlan
  3
AecArchBase
 90
    32897
280
     1
281
     0
  0
CLASS
  1
AEC_DISP_REP_ROOF_MODEL
  2
AecDbDispRepRoofModel
  3
AecArchBase
 90
    32897
280
     1
281
     0
  0
CLASS
  1
AEC_DISP_REP_WINDOW_PLAN
  2
AecDbDispRepWindowPlan
  3
AecArchBase
 90
    32897
280
     1
281
     0
  0
CLASS
  1
AEC_DISP_REP_WALL_SCHEM
  2
AecDbDispRepWallSchem
  3
AecArchBase
 90
    32897
280
     1
281
     0
  0
CLASS
  1
AEC_DISP_PROPS_WALL_SCHEM
  2
AecDbDispPropsWallSchem
  3
AecArchBase
 90
    32897
280
     1
281
     0
  0
CLASS
  1
AEC_DISP_REP_WALL_RCP
  2
AecDbDispRepWallRcp
  3
AecArchBase
 90
    32897
280
     1
281
     0
  0
CLASS
  1
AEC_DISP_PROPS_WALL_PLAN
  2
AecDbDispPropsWallPlan
  3
AecArchBase
 90
    32897
280
     1
281
     0
  0
CLASS
  1
AEC_DISP_REP_WALL_PLAN
  2
AecDbDispRepWallPlan
  3
AecArchBase
 90
    32897
280
     1
281
     0
  0
CLASS
  1
AEC_DISP_REP_WALL_MODEL
  2
AecDbDispRepWallModel
  3
AecArchBase
 90
    32897
280
     1
281
     0
  0
CLASS
  1
AEC_DISP_PROPS_WALL
  2
AecDbDispPropsWall
  3
AecArchBase
 90
    32897
280
     1
281
     0
  0
CLASS
  1
AEC_DISP_REP_WALL_GRAPH
  2
AecDbDispRepWallGraph
  3
AecArchBase
 90
    32897
280
     1
281
     0
  0
CLASS
  1
AEC_DISP_REP_STAIR_RCP
  2
AecDbDispRepStairRcp
  3
AecArchBase
 90
    32897
280
     1
281
     0
  0
CLASS
  1
AEC_DISP_PROPS_STAIR_PLAN
  2
AecDbDispPropsStairPlan
  3
AecArchBase
 90
    32897
280
     1
281
     0
  0
CLASS
  1
AEC_DISP_REP_STAIR_PLAN
  2
AecDbDispRepStairPlan
  3
AecArchBase
 90
    32897
280
     1
281
     0
  0
CLASS
  1
AEC_DISP_REP_STAIR_MODEL
  2
AecDbDispRepStairModel
  3
AecArchBase
 90
    32897
280
     1
281
     0
  0
CLASS
  1
AEC_DISP_PROPS_STAIR_MODEL
  2
AecDbDispPropsStairModel
  3
AecArchBase
 90
    32897
280
     1
281
     0
  0
CLASS
  1
AEC_DISP_REP_SPACE_BOUNDARY_SCHEM
  2
AecDbDispRepSpaceBoundarySketch
  3
AecArchBase
 90
    32897
280
     1
281
     0
  0
CLASS
  1
AEC_DISP_REP_SPACE_BOUNDARY_PLAN
  2
AecDbDispRepSpaceBoundaryPlan
  3
AecArchBase
 90
    32897
280
     1
281
     0
  0
CLASS
  1
AEC_DISP_REP_SPACE_BOUNDARY_MODEL
  2
AecDbDispRepSpaceBoundaryModel
  3
AecArchBase
 90
    32897
280
     1
281
     0
  0
CLASS
  1
AEC_DISP_REP_SPACE_BOUNDARY_DIAGRAM
  2
AecDbDispRepSpaceBoundaryDgrm
  3
AecArchBase
 90
    32897
280
     1
281
     0
  0
CLASS
  1
AEC_DISP_REP_SPACE_VOLUME
  2
AecDbDispRepSpaceVolume
  3
AecArchBase
 90
    32897
280
     1
281
     0
  0
CLASS
  1
AEC_DISP_REP_SPACE_RCP
  2
AecDbDispRepSpaceRcp
  3
AecArchBase
 90
    32897
280
     1
281
     0
  0
CLASS
  1
AEC_DISP_REP_ANCHOR_TAG_TO_ENT
  2
AecDbDispRepAnchorTagToEnt
  3
AecScheduleData
 90
    32897
280
     1
281
     0
  0
CLASS
  1
AEC_DISP_REP_SCHEDULE_TABLE
  2
AecDbDispRepScheduleTable
  3
AecSchedule
 90
    32897
280
     1
281
     0
  0
CLASS
  1
AEC_DISP_PROPS_SCHEDULE_TABLE
  2
AecDbDispPropsScheduleTable
  3
AecSchedule
 90
    32897
280
     1
281
     0
  0
CLASS
  1
AEC_DISP_REP_SET
  2
AecDbDispRepSet
  3
AecBase
 90
    32897
280
     1
281
     0
  0
CLASS
  1
AEC_DISP_REP_CONFIG
  2
AecDbDispRepConfig
  3
AecBase
 90
    32897
280
     1
281
     0
  0
CLASS
  1
TABLESTYLE
  2
AcDbTableStyle
  3
ObjectDBX Classes
 90
     4095
280
     0
281
     0
  0
CLASS
  1
MATERIAL
  2
AcDbMaterial
  3
ObjectDBX Classes
 90
     1153
280
     0
281
     0
  0
CLASS
  1
VISUALSTYLE
  2
AcDbVisualStyle
  3
ObjectDBX Classes
 90
     4095
280
     0
281
     0
  0
CLASS
  1
SCALE
  2
AcDbScale
  3
ObjectDBX Classes
 90
     1153
280
     0
281
     0
  0
CLASS
  1
MLEADERSTYLE
  2
AcDbMLeaderStyle
  3
ACDB_MLEADERSTYLE_CLASS
 90
    36863
280
     0
281
     0
  0
CLASS
  1
ACDBSECTIONVIEWSTYLE
  2
AcDbSectionViewStyle
  3
ObjectDBX Classes
 90
    33793
280
     0
281
     0
  0
CLASS
  1
ACDBDETAILVIEWSTYLE
  2
AcDbDetailViewStyle
  3
ObjectDBX Classes
 90
    33793
280
     0
281
     0
  0
CLASS
  1
EXACXREFPANELOBJECT
  2
ExAcXREFPanelObject
  3
EXAC_ESW
 90
    33793
280
     0
281
     0
  0
CLASS
  1
NPOCOLLECTION
  2
AcDbImpNonPersistentObjectsCollection
  3
ObjectDBX Classes
 90
    33921
280
     0
281
     0
  0
CLASS
  1
CELLSTYLEMAP
  2
AcDbCellStyleMap
  3
ObjectDBX Classes
 90
     1152
280
     0
281
     0
  0
ENDSEC
  0
SECTION
  2
TABLES
  0
TABLE
  2
VPORT
  5
2F
330
0
100
AcDbSymbolTable
 70
     1
  0
VPORT
  5
30
330
2F
100
AcDbSymbolTableRecord
100
AcDbViewportTableRecord
  2
*Active
 70
     0
 10
0.0
 20
0.0
 11
1.0
 21
1.0
 12
361.817856434572
 22
118.727857282563
 13
0.0
 23
0.0
 14
1.0
 24
1.0
 15
0.0
 25
0.0
 16
0.0
 26
0.0
 36
1.0
 17
0.0
 27
0.0
 37
0.0
 40
460.1158422151447
 41
2.095558546433378
 42
50.0
 43
0.0
 44
0.0
 50
0.0
 51
0.0
 71
     0
 72
 20000
 73
     1
 74
     1
 75
     0
 76
     0
 77
     0
 78
     0
281
     0
 65
     1
110
0.0
120
0.0
130
0.0
111
1.0
121
0.0
131
0.0
112
0.0
122
1.0
132
0.0
 79
     0
146
0.0
1001
ACAD_NAV_VCDISPLAY
1070
     3
  0
ENDTAB
  0
TABLE
  2
LTYPE
  5
2A
330
0
100
AcDbSymbolTable
 70
     1
  0
LTYPE
  5
2B
330
2A
100
AcDbSymbolTableRecord
100
AcDbLinetypeTableRecord
  2
BYBLOCK
 70
     0
  3

 72
    65
 73
     0
 40
0.0
  0
LTYPE
  5
2C
330
2A
100
AcDbSymbolTableRecord
100
AcDbLinetypeTableRecord
  2
BYLAYER
 70
     0
  3

 72
    65
 73
     0
 40
0.0
  0
LTYPE
  5
14
330
2A
100
AcDbSymbolTableRecord
100
AcDbLinetypeTableRecord
  2
CONTINUOUS
 70
     0
  3
Solid line
 72
    65
 73
     0
 40
0.0
  0
ENDTAB
  0
TABLE
  2
LAYER
  5
26
330
0
100
AcDbSymbolTable
 70
     6
  0
LAYER
  5
6
330
26
100
AcDbSymbolTableRecord
100
AcDbLayerTableRecord
  2
0
 70
     0
 62
     7
  6
CONTINUOUS
370
    -3
390
7
  0
LAYER
  5
7B
330
26
100
AcDbSymbolTableRecord
100
AcDbLayerTableRecord
  2
DEFPOINTS
 70
     0
 62
     7
  6
CONTINUOUS
290
     0
370
    -3
390
7
  0
LAYER
  5
6B
330
26
100
AcDbSymbolTableRecord
100
AcDbLayerTableRecord
  2
SUNPOU
 70
     0
 62
    70
  6
CONTINUOUS
370
    -3
390
7
  0
LAYER
  5
63
330
26
100
AcDbSymbolTableRecord
100
AcDbLayerTableRecord
  2
KIJUN
 70
     0
 62
     7
  6
CONTINUOUS
370
    -3
390
7
  0
LAYER
  5
56E
330
26
100
AcDbSymbolTableRecord
100
AcDbLayerTableRecord
  2
HOJO
 70
     0
 62
     3
  6
CONTINUOUS
370
    -3
390
7
  0
LAYER
  5
570
330
26
100
AcDbSymbolTableRecord
100
AcDbLayerTableRecord
  2
WAKU
 70
     0
 62
     1
  6
CONTINUOUS
370
    -3
390
7
  0
ENDTAB
  0
TABLE
  2
STYLE
  5
27
330
0
100
AcDbSymbolTable
 70
     3
  0
STYLE
  5
28
330
27
100
AcDbSymbolTableRecord
100
AcDbTextStyleTableRecord
  2
STANDARD
 70
     0
 40
0.0
 41
1.0
 50
0.0
 71
     0
 42
0.2
  3
txt
  4

  0
STYLE
  5
4B
330
27
100
AcDbSymbolTableRecord
100
AcDbTextStyleTableRecord
  2
SUNPOU
 70
     0
 40
0.0
 41
1.0
 50
0.0
 71
     0
 42
30.0
  3
txt
  4
bigfont
  0
STYLE
  5
79
330
27
100
AcDbSymbolTableRecord
100
AcDbTextStyleTableRecord
  2
LIFE
 70
     0
 40
0.0
 41
0.7
 50
0.0
 71
     0
 42
10.0
  3
romans
  4
extfont
  0
ENDTAB
  0
TABLE
  2
VIEW
  5
2D
330
0
100
AcDbSymbolTable
 70
     0
  0
ENDTAB
  0
TABLE
  2
UCS
  5
2E
330
0
100
AcDbSymbolTable
 70
     0
  0
ENDTAB
  0
TABLE
  2
APPID
  5
34
330
0
100
AcDbSymbolTable
 70
     2
  0
APPID
  5
A
330
34
100
AcDbSymbolTableRecord
100
AcDbRegAppTableRecord
  2
ACAD
 70
     0
  0
APPID
  5
33
330
34
100
AcDbSymbolTableRecord
100
AcDbRegAppTableRecord
  2
ACAD_NAV_VCDISPLAY
 70
     0
  0
ENDTAB
  0
TABLE
  2
DIMSTYLE
  5
35
330
0
100
AcDbSymbolTable
 70
     3
100
AcDbDimStyleTable
 71
     1
340
36
  0
DIMSTYLE
105
36
330
35
100
AcDbSymbolTableRecord
100
AcDbDimStyleTableRecord
  2
STANDARD
 70
     0
 41
3.0
 42
2.0
 44
0.0
 73
     0
 74
     0
 77
     1
140
2.799999999999998
141
1.0
146
0.0642857142857143
147
1.0
173
     1
174
     1
176
    60
177
    70
178
    60
271
     0
340
28
341
37
343
37
344
37
  0
DIMSTYLE
105
7F
102
{ACAD_REACTORS
330
6A
330
C2
102
}
330
35
100
AcDbSymbolTableRecord
100
AcDbDimStyleTableRecord
  2
STANDARD$0
 70
     0
 40
2.0
 41
1.0
 42
2.0
 43
0.0
 44
1.0
 73
     0
 74
     0
 77
     3
 78
     9
140
4.5
141
0.0
147
1.0
172
     1
173
     1
178
     3
271
     2
340
79
341
72
343
72
344
72
  0
DIMSTYLE
105
50
330
35
100
AcDbSymbolTableRecord
100
AcDbDimStyleTableRecord
  2
1
 70
     0
 41
3.0
 42
2.0
 44
0.0
 73
     0
 74
     0
 77
     1
140
7.0
141
1.0
146
0.0642857142857143
147
1.0
173
     1
174
     1
176
    60
177
    70
178
    60
271
     0
340
28
341
37
343
37
344
37
  0
ENDTAB
  0
TABLE
  2
BLOCK_RECORD
  5
1
330
0
100
AcDbSymbolTable
 70
     4
  0
BLOCK_RECORD
  5
2
102
{ACAD_XDICTIONARY
360
3
102
}
330
1
100
AcDbSymbolTableRecord
100
AcDbBlockTableRecord
  2
*MODEL_SPACE
340
1E
  0
BLOCK_RECORD
  5
20
102
{ACAD_XDICTIONARY
360
21
102
}
330
1
100
AcDbSymbolTableRecord
100
AcDbBlockTableRecord
  2
*PAPER_SPACE
340
25
  0
BLOCK_RECORD
  5
37
330
1
100
AcDbSymbolTableRecord
100
AcDbBlockTableRecord
  2
_DOTSMALL
340
0
  0
BLOCK_RECORD
  5
72
330
1
100
AcDbSymbolTableRecord
100
AcDbBlockTableRecord
  2
_DOT
340
0
102
{BLKREFS
331
71
331
77
331
C8
331
C9
102
}
  0
BLOCK_RECORD
  5
C3
330
1
100
AcDbSymbolTableRecord
100
AcDbBlockTableRecord
  2
*D2
340
0
  0
BLOCK_RECORD
  5
6C
330
1
100
AcDbSymbolTableRecord
100
AcDbBlockTableRecord
  2
*D3
340
0
  0
ENDTAB
  0
ENDSEC
  0
SECTION
  2
BLOCKS
  0
BLOCK
  5
5
330
2
100
AcDbEntity
  8
0
100
AcDbBlockBegin
  2
*MODEL_SPACE
 70
     0
 10
0.0
 20
0.0
 30
0.0
  3
*MODEL_SPACE
  1

  0
ENDBLK
  5
1D
330
2
100
AcDbEntity
  8
0
100
AcDbBlockEnd
  0
BLOCK
  5
23
330
20
100
AcDbEntity
 67
     1
  8
0
100
AcDbBlockBegin
  2
*PAPER_SPACE
 70
     0
 10
0.0
 20
0.0
 30
0.0
  3
*PAPER_SPACE
  1

  0
ENDBLK
  5
24
330
20
100
AcDbEntity
 67
     1
  8
0
100
AcDbBlockEnd
  0
BLOCK
  5
38
330
37
100
AcDbEntity
  8
0
100
AcDbBlockBegin
  2
_DOTSMALL
 70
     0
 10
0.0
 20
0.0
 30
0.0
  3
_DOTSMALL
  1

  0
LWPOLYLINE
  5
39
330
37
100
AcDbEntity
  8
0
  6
ByBlock
 62
     0
100
AcDbPolyline
 90
        2
 70
     1
 43
0.5
 10
-0.0625
 20
0.0
 42
1.0
 10
0.0625
 20
0.0
 42
1.0
  0
ENDBLK
  5
3A
330
37
100
AcDbEntity
  8
0
100
AcDbBlockEnd
  0
BLOCK
  5
73
330
72
100
AcDbEntity
  8
0
100
AcDbBlockBegin
  2
_DOT
 70
     0
 10
0.0
 20
0.0
 30
0.0
  3
_DOT
  1

  0
LWPOLYLINE
  5
74
330
72
100
AcDbEntity
  8
0
  6
ByBlock
 62
     0
100
AcDbPolyline
 90
        2
 70
     1
 43
0.5
 10
-0.25
 20
0.0
 42
1.0
 10
0.25
 20
0.0
 42
1.0
  0
LINE
  5
75
330
72
100
AcDbEntity
  8
0
  6
ByBlock
 62
     0
100
AcDbLine
 10
-0.5
 20
0.0
 30
0.0
 11
-1.0
 21
0.0
 31
0.0
  0
ENDBLK
  5
76
330
72
100
AcDbEntity
  8
0
100
AcDbBlockEnd
  0
BLOCK
  5
C4
330
C3
100
AcDbEntity
  8
0
 62
     7
100
AcDbBlockBegin
  2
*D2
 70
     1
 10
0.0
 20
0.0
 30
0.0
  3
*D2
  1

  0
LINE
  5
C5
330
C3
100
AcDbEntity
  8
SUNPOU
 62
    70
370
    -2
100
AcDbLine
 10
78.68475554963501
 20
148.6054017534752
 30
0.0
 11
78.68475554963501
 21
161.9936376726793
 31
0.0
  0
LINE
  5
C6
330
C3
100
AcDbEntity
  8
SUNPOU
 62
    70
370
    -2
100
AcDbLine
 10
28.68475554963503
 20
148.6054017534752
 30
0.0
 11
28.68475554963503
 21
161.9936376726793
 31
0.0
  0
LINE
  5
C7
330
C3
100
AcDbEntity
  8
SUNPOU
 62
    60
370
    -2
100
AcDbLine
 10
77.68475554963501
 20
161.9936376726793
 30
0.0
 11
29.68475554963503
 21
161.9936376726793
 31
0.0
  0
INSERT
  5
C8
330
C3
100
AcDbEntity
  8
SUNPOU
 62
    60
370
    -2
100
AcDbBlockReference
  2
_DOT
 10
78.68475554963501
 20
161.9936376726793
 30
0.0
  0
INSERT
  5
C9
330
C3
100
AcDbEntity
  8
SUNPOU
 62
    60
370
    -2
100
AcDbBlockReference
  2
_DOT
 10
28.68475554963503
 20
161.9936376726793
 30
0.0
 50
180.0
  0
MTEXT
  5
CA
330
C3
100
AcDbEntity
  8
SUNPOU
 62
    60
100
AcDbMText
 10
53.68475554963502
 20
166.9936376726793
 30
0.0
 40
6.0
 41
0.0
 71
     5
 72
     1
  1
\A1;50
  7
LIFE
 73
     1
 44
1.0
1001
ACAD
1000
MTEXTBEGIN
1070
    73
1070
     1
1070
    44
1040
1.0
1070
    74
1070
     0
1000
MTEXTEND
  0
POINT
  5
CB
330
C3
100
AcDbEntity
  8
DEFPOINTS
 62
     0
100
AcDbPoint
 10
78.68475554963501
 20
146.6054017534752
 30
0.0
  0
POINT
  5
CC
330
C3
100
AcDbEntity
  8
DEFPOINTS
 62
     0
100
AcDbPoint
 10
28.68475554963503
 20
146.6054017534752
 30
0.0
  0
POINT
  5
CD
330
C3
100
AcDbEntity
  8
DEFPOINTS
 62
     0
100
AcDbPoint
 10
28.68475554963503
 20
161.9936376726793
 30
0.0
  0
ENDBLK
  5
CE
330
C3
100
AcDbEntity
  8
0
 62
     7
100
AcDbBlockEnd
  0
BLOCK
  5
6D
330
6C
100
AcDbEntity
  8
0
 62
     7
100
AcDbBlockBegin
  2
*D3
 70
     1
 10
0.0
 20
0.0
 30
0.0
  3
*D3
  1

  0
LINE
  5
6E
330
6C
100
AcDbEntity
  8
SUNPOU
 62
    70
370
    -2
100
AcDbLine
 10
26.68475554963503
 20
146.6054017534752
 30
0.0
 11
11.09924705326015
 21
146.6054017534752
 31
0.0
  0
LINE
  5
6F
330
6C
100
AcDbEntity
  8
SUNPOU
 62
    70
370
    -2
100
AcDbLine
 10
26.68475554963503
 20
26.60540175347529
 30
0.0
 11
11.09924705326013
 21
26.60540175347529
 31
0.0
  0
LINE
  5
70
330
6C
100
AcDbEntity
  8
SUNPOU
 62
    60
370
    -2
100
AcDbLine
 10
11.09924705326015
 20
145.6054017534752
 30
0.0
 11
11.09924705326013
 21
27.60540175347529
 31
0.0
  0
INSERT
  5
71
330
6C
100
AcDbEntity
  8
SUNPOU
 62
    60
370
    -2
100
AcDbBlockReference
  2
_DOT
 10
11.09924705326015
 20
146.6054017534752
 30
0.0
 50
90.0
  0
INSERT
  5
77
330
6C
100
AcDbEntity
  8
SUNPOU
 62
    60
370
    -2
100
AcDbBlockReference
  2
_DOT
 10
11.09924705326013
 20
26.60540175347529
 30
0.0
 50
270.0
  0
MTEXT
  5
78
330
6C
100
AcDbEntity
  8
SUNPOU
 62
    60
100
AcDbMText
 10
6.099247053260127
 20
86.60540175347524
 30
0.0
 40
6.0
 41
0.0
 71
     5
 72
     1
  1
\A1;120
  7
LIFE
 11
0.0000000000000001
 21
1.0
 31
0.0
 73
     1
 44
1.0
1001
ACAD
1000
MTEXTBEGIN
1070
    73
1070
     1
1070
    44
1040
1.0
1070
    74
1070
     0
1000
MTEXTEND
  0
POINT
  5
7A
330
6C
100
AcDbEntity
  8
DEFPOINTS
 62
     0
100
AcDbPoint
 10
28.68475554963503
 20
146.6054017534752
 30
0.0
  0
POINT
  5
7C
330
6C
100
AcDbEntity
  8
DEFPOINTS
 62
     0
100
AcDbPoint
 10
28.68475554963503
 20
26.60540175347529
 30
0.0
  0
POINT
  5
7D
330
6C
100
AcDbEntity
  8
DEFPOINTS
 62
     0
100
AcDbPoint
 10
11.09924705326013
 20
26.60540175347529
 30
0.0
  0
ENDBLK
  5
7E
330
6C
100
AcDbEntity
  8
0
 62
     7
100
AcDbBlockEnd
  0
ENDSEC
  0
SECTION
  2
ENTITIES
  0
LINE
  5
62
330
2
100
AcDbEntity
  8
KIJUN
 62
     7
100
AcDbLine
 10
580.0576765685965
 20
32.60540175347529
 30
0.0
 11
120.298964406994
 21
32.60540175347529
 31
0.0
  0
LINE
  5
64
330
2
100
AcDbEntity
  8
KIJUN
100
AcDbLine
 10
120.298964406994
 20
45.60540175347528
 30
0.0
 11
580.0576765685963
 21
45.60540175347528
 31
0.0
  0
LINE
  5
65
330
2
100
AcDbEntity
  8
KIJUN
100
AcDbLine
 10
120.298964406994
 20
115.6054017534753
 30
0.0
 11
580.0576765685963
 21
115.6054017534753
 31
0.0
  0
LINE
  5
66
330
2
100
AcDbEntity
  8
KIJUN
 62
     7
100
AcDbLine
 10
580.0576765685962
 20
26.60540175347529
 30
0.0
 11
120.298964406994
 21
26.60540175347529
 31
0.0
  0
LINE
  5
67
330
2
100
AcDbEntity
  8
KIJUN
 62
     7
100
AcDbLine
 10
580.0576765685962
 20
120.6054017534752
 30
0.0
 11
120.298964406994
 21
120.6054017534752
 31
0.0
  0
LINE
  5
68
330
2
100
AcDbEntity
  8
KIJUN
 62
     7
100
AcDbLine
 10
580.0576765685962
 20
141.6054017534752
 30
0.0
 11
120.298964406994
 21
141.6054017534752
 31
0.0
  0
LINE
  5
69
330
2
100
AcDbEntity
  8
KIJUN
 62
     7
100
AcDbLine
 10
580.0576765685962
 20
146.6054017534752
 30
0.0
 11
120.298964406994
 21
146.6054017534752
 31
0.0
  0
DIMENSION
  5
6A
330
2
100
AcDbEntity
  8
SUNPOU
100
AcDbDimension
  2
*D3
 10
11.09924705326013
 20
26.60540175347529
 30
0.0
 11
6.099247053260127
 21
86.60540175347524
 31
0.0
 70
     1
 71
     5
 42
119.9999999999999
  3
STANDARD$0
100
AcDbAlignedDimension
 13
28.68475554963503
 23
146.6054017534752
 33
0.0
 14
28.68475554963503
 24
26.60540175347529
 34
0.0
1001
ACAD
1000
DSTYLE
1002
{
1070
    41
1040
0.5
1070
    42
1040
1.0
1070
    44
1040
0.0
1070
    77
1070
     1
1070
    78
1070
     0
1070
   140
1040
3.0
1070
   141
1040
1.0
1070
   146
1040
0.0642857142857143
1070
   172
1070
     0
1070
   176
1070
    60
1070
   177
1070
    70
1070
   178
1070
    60
1070
   271
1070
     0
1070
   272
1070
     0
1070
   341
1005
0
1002
}
  0
ARC
  5
80
330
2
100
AcDbEntity
  8
KIJUN
100
AcDbCircle
 10
489.4248909456794
 20
54.48965911598413
 30
0.0
 40
4.977370729229061
100
AcDbArc
 50
257.4530665361035
 51
30.93716100142513
  0
ARC
  5
81
330
2
100
AcDbEntity
  8
KIJUN
100
AcDbCircle
 10
490.80314146871
 20
58.00513003747258
 30
0.0
 40
4.0
100
AcDbArc
 50
204.285224828265
 51
328.1328302030173
  0
LINE
  5
82
330
2
100
AcDbEntity
  8
KIJUN
100
AcDbLine
 10
494.2269747899623
 20
66.61941701481925
 30
0.0
 11
483.5622493540919
 21
63.49528137670772
 31
0.0
  0
LINE
  5
83
330
2
100
AcDbEntity
  8
KIJUN
100
AcDbLine
 10
486.0909913203928
 20
59.33285255483665
 30
0.0
 11
490.621553774116
 21
60.68339473803785
 31
0.0
  0
ARC
  5
84
330
2
100
AcDbEntity
  8
KIJUN
100
AcDbCircle
 10
460.8523113686691
 20
37.92036292780941
 30
0.0
 40
29.88167008865158
100
AcDbArc
 50
23.07312194637775
 51
72.07163029939284
  0
ARC
  5
85
330
2
100
AcDbEntity
  8
KIJUN
100
AcDbCircle
 10
465.0608184470853
 20
111.8402983119991
 30
0.0
 40
2.052551966608065
100
AcDbArc
 50
271.5963548200861
 51
88.40364517991385
  0
CIRCLE
  5
86
330
2
100
AcDbEntity
  8
KIJUN
100
AcDbCircle
 10
469.2029390693945
 20
111.8402983119991
 30
0.0
 40
1.642041573286453
  0
ARC
  5
87
330
2
100
AcDbEntity
  8
KIJUN
100
AcDbCircle
 10
483.1146468296442
 20
88.81506901091031
 30
0.0
 40
6.55642799956824
100
AcDbArc
 50
248.4013986449954
 51
302.0762555874185
  0
LINE
  5
88
330
2
100
AcDbEntity
  8
KIJUN
100
AcDbLine
 10
483.6968950841142
 20
100.8814136650128
 30
0.0
 11
484.706104821226
 21
99.03518632350747
 31
0.0
  0
ARC
  5
89
330
2
100
AcDbEntity
  8
KIJUN
100
AcDbCircle
 10
482.8194347573592
 20
100.4017644442577
 30
0.0
 40
1.0
100
AcDbArc
 50
28.66249457700883
 51
171.0508958326288
  0
ARC
  5
8A
330
2
100
AcDbEntity
  8
KIJUN
100
AcDbCircle
 10
472.9335396511095
 20
98.38248771533148
 30
0.0
 40
7.238192604286783
100
AcDbArc
 50
300.1449754803194
 51
18.00468279539254
  0
ARC
  5
8B
330
2
100
AcDbEntity
  8
KIJUN
100
AcDbCircle
 10
481.420321119319
 20
95.13742825872849
 30
0.0
 40
5.711903570675795
100
AcDbArc
 50
106.2988804877623
 51
211.8507777879621
  0
ARC
  5
8C
330
2
100
AcDbEntity
  8
KIJUN
100
AcDbCircle
 10
482.6306405965537
 20
88.02675623241336
 30
0.0
 40
6.237149557299089
100
AcDbArc
 50
110.2949565198314
 51
172.7082665679448
  0
ARC
  5
8D
330
2
100
AcDbEntity
  8
KIJUN
100
AcDbCircle
 10
464.7356528165278
 20
100.4789518288567
 30
0.0
 40
9.049074254857703
100
AcDbArc
 50
28.57397602333593
 51
79.36355699435965
  0
ARC
  5
8E
330
2
100
AcDbEntity
  8
KIJUN
100
AcDbCircle
 10
475.1799095375858
 20
111.9360646737425
 30
0.0
 40
9.140835925656704
100
AcDbArc
 50
196.2868746280685
 51
255.3978660532505
  0
ARC
  5
8F
330
2
100
AcDbEntity
  8
KIJUN
100
AcDbCircle
 10
487.294145582607
 20
105.5942028504252
 30
0.0
 40
14.63277968485911
100
AcDbArc
 50
145.041909678049
 51
191.5639347408531
  0
ARC
  5
90
330
2
100
AcDbEntity
  8
KIJUN
100
AcDbCircle
 10
460.5273766655248
 20
110.3451958263065
 30
0.0
 40
15.21434815961266
100
AcDbArc
 50
328.2039508688123
 51
13.8159915511175
  0
ARC
  5
91
330
2
100
AcDbEntity
  8
KIJUN
100
AcDbCircle
 10
480.4845075622205
 20
78.03380978304621
 30
0.0
 40
9.2640702269321
100
AcDbArc
 50
124.5259385317052
 51
189.3319932396006
  0
ARC
  5
92
330
2
100
AcDbEntity
  8
KIJUN
100
AcDbCircle
 10
475.8118019554527
 20
91.49026454676516
 30
0.0
 40
5.940379713502826
100
AcDbArc
 50
313.68406443124
 51
21.925541985378
  0
ARC
  5
93
330
2
100
AcDbEntity
  8
KIJUN
100
AcDbCircle
 10
468.2273314347459
 20
83.7337678086922
 30
0.0
 40
8.910569570254242
100
AcDbArc
 50
298.6082382594446
 51
4.723428992685041
  0
ARC
  5
94
330
2
100
AcDbEntity
  8
KIJUN
100
AcDbCircle
 10
480.7152507378654
 20
80.40033785949118
 30
0.0
 40
7.425474641878534
100
AcDbArc
 50
31.14177066143058
 51
91.78120864335721
  0
ARC
  5
95
330
2
100
AcDbEntity
  8
KIJUN
100
AcDbCircle
 10
410.617908583556
 20
72.97788674530176
 30
0.0
 40
56.97481193346463
100
AcDbArc
 50
346.6802450646997
 51
3.003015772311544
  0
ARC
  5
96
330
2
100
AcDbEntity
  8
KIJUN
100
AcDbCircle
 10
476.2180735161845
 20
81.67309066172256
 30
0.0
 40
4.60352749379198
100
AcDbArc
 50
334.5201578793711
 51
49.9622992711934
  0
ARC
  5
97
330
2
100
AcDbEntity
  8
KIJUN
100
AcDbCircle
 10
464.9288972684395
 20
61.9825471618904
 30
0.0
 40
14.84721071513336
100
AcDbArc
 50
270.8461695505093
 51
318.423452785952
  0
ARC
  5
98
330
2
100
AcDbEntity
  8
KIJUN
100
AcDbCircle
 10
466.039151596227
 20
58.97221948388374
 30
0.0
 40
6.590194063383847
100
AcDbArc
 50
262.2298337834848
 51
321.6271377195085
  0
ARC
  5
99
330
2
100
AcDbEntity
  8
KIJUN
100
AcDbCircle
 10
476.450472262229
 20
65.04362553706193
 30
0.0
 40
9.441344828702114
100
AcDbArc
 50
259.4938800349959
 51
312.8476323036992
  0
LINE
  5
9A
330
2
100
AcDbEntity
  8
KIJUN
100
AcDbLine
 10
486.0909913203928
 20
59.33285255483665
 30
0.0
 11
487.1571040056802
 21
56.36001277168983
 31
0.0
  0
ARC
  5
9B
330
2
100
AcDbEntity
  8
KIJUN
100
AcDbCircle
 10
487.2141375195456
 20
51.31977696379367
 30
0.0
 40
8.0
100
AcDbArc
 50
126.7954349452073
 51
128.1072213427381
  0
ARC
  5
9C
330
2
100
AcDbEntity
  8
KIJUN
100
AcDbCircle
 10
474.7777531991618
 20
69.51728341119639
 30
0.0
 40
9.441344828702114
100
AcDbArc
 50
257.2163889598112
 51
299.641696772259
  0
ARC
  5
9D
330
2
100
AcDbEntity
  8
KIJUN
100
AcDbCircle
 10
473.1447717920655
 20
59.15318757686529
 30
0.0
 40
7.834683819911337
100
AcDbArc
 50
63.98984950863236
 51
113.2608224539496
  0
ARC
  5
9E
330
2
100
AcDbEntity
  8
KIJUN
100
AcDbCircle
 10
483.7273320077834
 20
70.15937655449903
 30
0.0
 40
8.343326127471575
100
AcDbArc
 50
177.1828976292144
 51
207.7273769846439
  0
ARC
  5
9F
330
2
100
AcDbEntity
  8
KIJUN
100
AcDbCircle
 10
463.2708405595463
 20
48.3185865929218
 30
0.0
 40
25.33916603654402
100
AcDbArc
 50
25.76452495380895
 51
61.41649241164373
  0
ARC
  5
A0
330
2
100
AcDbEntity
  8
KIJUN
100
AcDbCircle
 10
535.510643173751
 20
86.42128732061667
 30
0.0
 40
32.19338413982312
100
AcDbArc
 50
129.6417677319519
 51
148.2861723125039
  0
ARC
  5
A1
330
2
100
AcDbEntity
  8
KIJUN
100
AcDbCircle
 10
520.6165093942725
 20
102.1260513846321
 30
0.0
 40
13.42695975091153
100
AcDbArc
 50
84.08582615168944
 51
126.1628928906881
  0
ARC
  5
A2
330
2
100
AcDbEntity
  8
KIJUN
100
AcDbCircle
 10
522.285929182092
 20
102.1573002341793
 30
0.0
 40
12.45267310292941
100
AcDbArc
 50
91.31567839383654
 51
131.8734748469742
  0
ARC
  5
A3
330
2
100
AcDbEntity
  8
KIJUN
100
AcDbCircle
 10
521.8544436070135
 20
103.4512894849642
 30
0.0
 40
10.37287278657123
100
AcDbArc
 50
90.8564502117869
 51
131.5696557399155
  0
ARC
  5
A4
330
2
100
AcDbEntity
  8
KIJUN
100
AcDbCircle
 10
521.8544436070139
 20
103.4512894849644
 30
0.0
 40
10.37287278657096
100
AcDbArc
 50
90.8564502117869
 51
131.569655739915
  0
ARC
  5
A5
330
2
100
AcDbEntity
  8
KIJUN
100
AcDbCircle
 10
512.2323974107915
 20
64.2391371819013
 30
0.0
 40
4.491350286977509
100
AcDbArc
 50
102.7571087160521
 51
175.6872209736699
  0
ARC
  5
A6
330
2
100
AcDbEntity
  8
KIJUN
100
AcDbCircle
 10
512.2323974107926
 20
64.2391371819013
 30
0.0
 40
4.491350286977509
100
AcDbArc
 50
102.7571087160521
 51
175.6872209736699
  0
ARC
  5
A7
330
2
100
AcDbEntity
  8
KIJUN
100
AcDbCircle
 10
503.7137400646271
 20
85.44692410141911
 30
0.0
 40
2.0
100
AcDbArc
 50
339.6766303201502
 51
6.626872751562651
  0
ARC
  5
A8
330
2
100
AcDbEntity
  8
KIJUN
100
AcDbCircle
 10
511.6188446082521
 20
84.67968714761779
 30
0.0
 40
6.030046909847436
100
AcDbArc
 50
179.3101530238581
 51
226.7939664892264
  0
ARC
  5
A9
330
2
100
AcDbEntity
  8
KIJUN
100
AcDbCircle
 10
510.1617200093897
 20
86.19604570715758
 30
0.0
 40
4.491350286977509
100
AcDbArc
 50
132.4324878708591
 51
186.6268727515626
  0
ARC
  5
AA
330
2
100
AcDbEntity
  8
KIJUN
100
AcDbCircle
 10
511.6188446082521
 20
84.67968714761779
 30
0.0
 40
6.030046909847436
100
AcDbArc
 50
179.3101530238581
 51
226.7939664892264
  0
ARC
  5
AB
330
2
100
AcDbEntity
  8
KIJUN
100
AcDbCircle
 10
510.1617200093906
 20
86.19604570715758
 30
0.0
 40
4.491350286977509
100
AcDbArc
 50
132.4324878708591
 51
186.6268727515626
  0
ARC
  5
AC
330
2
100
AcDbEntity
  8
KIJUN
100
AcDbCircle
 10
503.7137400646279
 20
85.44692410141911
 30
0.0
 40
2.0
100
AcDbArc
 50
339.6766303201502
 51
6.626872751562651
  0
ARC
  5
AD
330
2
100
AcDbEntity
  8
KIJUN
100
AcDbCircle
 10
512.6067074144007
 20
69.8927743643863
 30
0.0
 40
7.095558323661609
100
AcDbArc
 50
226.8476285375028
 51
292.1797184513568
  0
ARC
  5
AE
330
2
100
AcDbEntity
  8
KIJUN
100
AcDbCircle
 10
512.6067074144007
 20
69.8927743643863
 30
0.0
 40
7.095558323661609
100
AcDbArc
 50
226.8476285375028
 51
292.1797184513568
  0
ARC
  5
AF
330
2
100
AcDbEntity
  8
KIJUN
100
AcDbCircle
 10
494.6190087759331
 20
96.30937533734453
 30
0.0
 40
7.425474641878534
100
AcDbArc
 50
341.6230239276767
 51
10.88697486743443
  0
ARC
  5
B0
330
2
100
AcDbEntity
  8
KIJUN
100
AcDbCircle
 10
499.7345908066527
 20
96.11479851756651
 30
0.0
 40
2.699369174805541
100
AcDbArc
 50
36.27315379726939
 51
127.5854936087776
  0
CIRCLE
  5
B1
330
2
100
AcDbEntity
  8
KIJUN
100
AcDbCircle
 10
497.1941034160779
 20
90.74894857852898
 30
0.0
 40
2.311273173894323
  0
ARC
  5
B2
330
2
100
AcDbEntity
  8
KIJUN
100
AcDbCircle
 10
504.3049666437588
 20
94.19328723058738
 30
0.0
 40
7.425474641878534
100
AcDbArc
 50
146.8489183700834
 51
162.1273690154183
  0
ARC
  5
B3
330
2
100
AcDbEntity
  8
KIJUN
100
AcDbCircle
 10
531.6013270529829
 20
86.48429903990498
 30
0.0
 40
32.53917399051344
100
AcDbArc
 50
125.5264839377459
 51
158.6697307009395
  0
ARC
  5
B4
330
2
100
AcDbEntity
  8
KIJUN
100
AcDbCircle
 10
532.5224113690703
 20
85.97579983882168
 30
0.0
 40
31.49529387005474
100
AcDbArc
 50
126.081041168594
 51
164.9551442685137
  0
ARC
  5
B5
330
2
100
AcDbEntity
  8
KIJUN
100
AcDbCircle
 10
523.2937581151304
 20
103.637373440055
 30
0.0
 40
11.91462043033478
100
AcDbArc
 50
51.53366201182079
 51
96.2337751136455
  0
ARC
  5
B6
330
2
100
AcDbEntity
  8
KIJUN
 62
     7
100
AcDbCircle
 10
493.4782875871729
 20
51.10012431916043
 30
0.0
 40
10.0
100
AcDbArc
 50
45.1338782281346
 51
106.5991040196079
  0
LINE
  5
B7
330
2
100
AcDbEntity
  8
KIJUN
100
AcDbLine
 10
495.2854717708083
 20
62.46239155886797
 30
0.0
 11
494.781917998543
 21
57.593623870258
 31
0.0
  0
ARC
  5
B8
330
2
100
AcDbEntity
  8
KIJUN
 62
     7
100
AcDbCircle
 10
519.521190499639
 20
77.26501701780337
 30
0.0
 40
26.91658708547095
100
AcDbArc
 50
225.1338782281341
 51
273.353049228349
  0
ARC
  5
B9
330
2
100
AcDbEntity
  8
KIJUN
 62
     7
100
AcDbCircle
 10
519.4066100450596
 20
77.13710210781151
 30
0.0
 40
21.75094208836032
100
AcDbArc
 50
213.5010018973435
 51
274.7497427649558
  0
ARC
  5
BA
330
2
100
AcDbEntity
  8
KIJUN
 62
     7
100
AcDbCircle
 10
525.7751285163516
 20
77.26501701780337
 30
0.0
 40
21.91658708547095
100
AcDbArc
 50
269.2668704037213
 51
326.5865670382263
  0
ARC
  5
BB
330
2
100
AcDbEntity
  8
KIJUN
 62
     7
100
AcDbCircle
 10
525.7751285163516
 20
77.26501701780337
 30
0.0
 40
26.91658708547095
100
AcDbArc
 50
270.2628617763672
 51
317.1009688906606
  0
ARC
  5
BC
330
2
100
AcDbEntity
  8
KIJUN
100
AcDbCircle
 10
509.0028539088923
 20
86.7379930730757
 30
0.0
 40
35.16123680898249
100
AcDbArc
 50
297.7495076170812
 51
318.0674349606802
  0
ARC
  5
BD
330
2
100
AcDbEntity
  8
KIJUN
100
AcDbCircle
 10
499.2351847144051
 20
61.83011973189564
 30
0.0
 40
4.0
100
AcDbArc
 50
66.42272036245365
 51
170.9052287239963
  0
ARC
  5
BE
330
2
100
AcDbEntity
  8
KIJUN
100
AcDbCircle
 10
496.0451323037743
 20
58.48756443787078
 30
0.0
 40
8.332630021683362
100
AcDbArc
 50
60.12934720180581
 51
102.6031747787422
  0
ARC
  5
BF
330
2
100
AcDbEntity
  8
KIJUN
100
AcDbCircle
 10
533.8375832311694
 20
85.79962175910265
 30
0.0
 40
34.93204195274282
100
AcDbArc
 50
189.5444435480339
 51
239.8756820894986
  0
ARC
  5
C0
330
2
100
AcDbEntity
  8
KIJUN
100
AcDbCircle
 10
534.7272900469103
 20
85.8661395156035
 30
0.0
 40
33.68824455369994
100
AcDbArc
 50
182.1885188269813
 51
201.1639492850445
  0
ARC
  5
C1
330
2
100
AcDbEntity
  8
KIJUN
100
AcDbCircle
 10
509.5171895486806
 20
86.75249599411749
 30
0.0
 40
36.75027126811985
100
AcDbArc
 50
301.9972220230836
 51
353.7725436553663
  0
DIMENSION
  5
C2
330
2
100
AcDbEntity
  8
SUNPOU
100
AcDbDimension
  2
*D2
 10
28.68475554963503
 20
161.9936376726793
 30
0.0
 11
53.68475554963502
 21
166.9936376726793
 31
0.0
 71
     5
 42
49.99999999999999
  3
STANDARD$0
100
AcDbAlignedDimension
 13
78.68475554963501
 23
146.6054017534752
 33
0.0
 14
28.68475554963503
 24
146.6054017534752
 34
0.0
 50
180.0
100
AcDbRotatedDimension
1001
ACAD
1000
DSTYLE
1002
{
1070
    41
1040
0.5
1070
    42
1040
1.0
1070
    44
1040
0.0
1070
    77
1070
     1
1070
    78
1070
     0
1070
   140
1040
3.0
1070
   141
1040
1.0
1070
   146
1040
0.0642857142857143
1070
   172
1070
     0
1070
   176
1070
    60
1070
   177
1070
    70
1070
   178
1070
    60
1070
   271
1070
     0
1070
   272
1070
     0
1070
   341
1005
0
1002
}
  0
ARC
  5
CF
330
2
100
AcDbEntity
  8
KIJUN
100
AcDbCircle
 10
534.7272900469103
 20
85.8661395156035
 30
0.0
 40
33.68824455369994
100
AcDbArc
 50
221.6127125383965
 51
244.7020639977782
  0
ARC
  5
D0
330
2
100
AcDbEntity
  8
KIJUN
 62
     7
100
AcDbCircle
 10
515.8896071311812
 20
65.74941865270621
 30
0.0
 40
2.50124216013918
100
AcDbArc
 50
256.0205666649491
 51
25.92415845249528
  0
ARC
  5
D1
330
2
100
AcDbEntity
  8
KIJUN
100
AcDbCircle
 10
509.0028539088923
 20
86.7379930730757
 30
0.0
 40
35.16123680898249
100
AcDbArc
 50
323.4984878890281
 51
354.1436087823401
  0
ARC
  5
D2
330
2
100
AcDbEntity
  8
KIJUN
100
AcDbCircle
 10
464.635230179457
 20
103.2653035988742
 30
0.0
 40
17.40829032314371
100
AcDbArc
 50
326.7027085363614
 51
351.0508958326263
  0
ARC
  5
D3
330
2
100
AcDbEntity
  8
KIJUN
100
AcDbCircle
 10
471.4126070176994
 20
97.94024576887188
 30
0.0
 40
10.74987677909674
100
AcDbArc
 50
337.0042946743571
 51
353.2409614196966
  0
ARC
  5
D4
330
2
100
AcDbEntity
  8
KIJUN
 62
     7
100
AcDbCircle
 10
463.7531036334229
 20
94.16868103285898
 30
0.0
 40
21.51072133890428
100
AcDbArc
 50
355.9943495768485
 51
13.07558574061585
  0
ARC
  5
D5
330
2
100
AcDbEntity
  8
KIJUN
 62
     7
100
AcDbCircle
 10
456.651594674539
 20
77.92082174414971
 30
0.0
 40
14.32551414772814
100
AcDbArc
 50
327.8909402021128
 51
20.90194856560628
  0
ARC
  5
D6
330
2
100
AcDbEntity
  8
KIJUN
100
AcDbCircle
 10
479.827130468665
 20
80.04425282020909
 30
0.0
 40
0.65
100
AcDbArc
 50
213.3718504426782
 51
327.2566597094423
  0
ARC
  5
D7
330
2
100
AcDbEntity
  8
KIJUN
100
AcDbCircle
 10
486.5143136662959
 20
83.90432498487291
 30
0.0
 40
0.65
100
AcDbArc
 50
277.2569613946603
 51
31.14177066142937
  0
ARC
  5
D8
330
2
100
AcDbEntity
  8
KIJUN
100
AcDbCircle
 10
480.8401249908881
 20
93.51424174274908
 30
0.0
 40
0.5200000000000001
100
AcDbArc
 50
21.92554198537869
 51
135.810351252138
  0
ARC
  5
D9
330
2
100
AcDbEntity
  8
KIJUN
100
AcDbCircle
 10
472.1203952559019
 20
76.59582583490517
 30
0.0
 40
0.7800000000000003
100
AcDbArc
 50
184.7234289926858
 51
298.608238259451
  0
ARC
  5
DA
330
2
100
AcDbEntity
  8
KIJUN
100
AcDbCircle
 10
491.671131520619
 20
56.51444315891892
 30
0.0
 40
26.15201937286087
100
AcDbArc
 50
124.7142361772638
 51
149.0822662850522
  0
ARC
  5
DB
330
2
100
AcDbEntity
  8
KIJUN
 62
     7
100
AcDbCircle
 10
493.0124453692625
 20
51.75512755613567
 30
0.0
 40
5.129256608040996
100
AcDbArc
 50
204.461993633138
 51
349.4127776804488
  0
ARC
  5
DC
330
2
100
AcDbEntity
  8
KIJUN
 62
     7
100
AcDbCircle
 10
448.809478749884
 20
18.3199502648398
 30
0.0
 40
59.28350860377108
100
AcDbArc
 50
34.10058466067297
 51
40.78914563082173
  0
ARC
  5
DD
330
2
100
AcDbEntity
  8
KIJUN
 62
     7
100
AcDbCircle
 10
497.071406950509
 20
50.99645040673988
 30
0.0
 40
1.0
100
AcDbArc
 50
349.4127776804485
 51
34.10058466067381
  0
ARC
  5
DE
330
2
100
AcDbEntity
  8
KIJUN
100
AcDbCircle
 10
490.80314146871
 20
58.00513003747258
 30
0.0
 40
4.0
100
AcDbArc
 50
333.6532256982136
 51
354.0951612141622
  0
LINE
  5
DF
330
2
100
AcDbEntity
  8
KIJUN
100
AcDbLine
 10
472.6283490654132
 20
60.3099641572489
 30
0.0
 11
470.142304160641
 21
56.75934634611236
 31
0.0
  0
LINE
  5
E0
330
2
100
AcDbEntity
  8
KIJUN
100
AcDbLine
 10
472.6283490654132
 20
60.3099641572489
 30
0.0
 11
476.0696233489523
 21
52.63656197045285
 31
0.0
  0
LINE
  5
E1
330
2
100
AcDbEntity
  8
KIJUN
100
AcDbLine
 10
469.8799785420975
 20
55.98340227849643
 30
0.0
 11
474.9961286169125
 21
51.73003702822956
 31
0.0
  0
ARC
  5
E2
330
2
100
AcDbEntity
  8
KIJUN
100
AcDbCircle
 10
475.2744106938261
 20
52.53614880580534
 30
0.0
 40
0.8
100
AcDbArc
 50
310.0691087627664
 51
33.33443005145799
  0
ARC
  5
E3
330
2
100
AcDbEntity
  8
KIJUN
100
AcDbCircle
 10
474.5932395513789
 20
51.43392826295205
 30
0.0
 40
0.5
100
AcDbArc
 50
312.672643531846
 51
36.31452931248529
  0
ARC
  5
E4
330
2
100
AcDbEntity
  8
KIJUN
100
AcDbCircle
 10
470.2828676076303
 20
56.27951104377348
 30
0.0
 40
0.5
100
AcDbArc
 50
106.3274727712365
 51
216.3145293124574
  0
ARC
  5
E5
330
2
100
AcDbEntity
  8
KIJUN
 62
     7
100
AcDbCircle
 10
500.3329943377593
 20
80.71714183957839
 30
0.0
 40
33.16111248613231
100
AcDbArc
 50
167.8566755807787
 51
188.2431110185055
  0
ARC
  5
E6
330
2
100
AcDbEntity
  8
KIJUN
 62
     7
100
AcDbCircle
 10
480.5775333915455
 20
71.09467174036416
 30
0.0
 40
7.891685674932648
100
AcDbArc
 50
69.21872739442886
 51
118.7809809638744
  0
ARC
  5
E7
330
2
100
AcDbEntity
  8
KIJUN
 62
     7
100
AcDbCircle
 10
477.0192419299008
 20
79.5704238420908
 30
0.0
 40
6.452294569324282
100
AcDbArc
 50
296.0294327492923
 51
350.2068098961306
  0
ARC
  5
E8
330
2
100
AcDbEntity
  8
KIJUN
 62
     7
100
AcDbCircle
 10
488.2569504345974
 20
46.92467716318668
 30
0.0
 40
28.13317122920379
100
AcDbArc
 50
107.3856246809997
 51
130.9649513223871
  0
ARC
  5
E9
330
2
100
AcDbEntity
  8
KIJUN
 62
     7
100
AcDbCircle
 10
446.8204577527933
 20
75.28381487662987
 30
0.0
 40
24.47276896792706
100
AcDbArc
 50
18.45703303601804
 51
30.46782960036506
  0
ARC
  5
EA
330
2
100
AcDbEntity
  8
KIJUN
 62
     7
100
AcDbCircle
 10
466.7739118023726
 20
107.4698104969571
 30
0.0
 40
10.72766555192126
100
AcDbArc
 50
336.8875430410966
 51
37.35238333673196
  0
CIRCLE
  5
EB
330
2
100
AcDbEntity
  8
KIJUN
100
AcDbCircle
 10
473.0986349809038
 20
99.51879057935869
 30
0.0
 40
2.052551966608065
  0
CIRCLE
  5
EC
330
2
100
AcDbEntity
  8
KIJUN
100
AcDbCircle
 10
476.4445675910577
 20
100.7842675554156
 30
0.0
 40
1.642041573286453
  0
CIRCLE
  5
ED
330
2
100
AcDbEntity
  8
KIJUN
100
AcDbCircle
 10
473.5422010347874
 20
95.48011139046078
 30
0.0
 40
1.642041573286453
  0
ARC
  5
EE
330
2
100
AcDbEntity
  8
KIJUN
100
AcDbCircle
 10
470.9087993552705
 20
88.15352917550617
 30
0.0
 40
5.574919714008214
100
AcDbArc
 50
356.0740448055375
 51
80.39524235437111
  0
ARC
  5
EF
330
2
100
AcDbEntity
  8
KIJUN
100
AcDbCircle
 10
478.0613064287444
 20
91.44453742056489
 30
0.0
 40
7.574678625694242
100
AcDbArc
 50
167.5621826300482
 51
239.4536127961107
  0
ARC
  5
F0
330
2
100
AcDbEntity
  8
KIJUN
100
AcDbCircle
 10
471.4385882543855
 20
92.98090700536128
 30
0.0
 40
0.7800000000000003
100
AcDbArc
 50
59.11474596313277
 51
172.9995552298957
  0
ELLIPSE
  5
F1
330
2
100
AcDbEntity
  8
KIJUN
 62
     7
100
AcDbEllipse
 10
476.6436595242799
 20
85.73420400430268
 30
0.0
 11
-0.3795666553083379
 21
1.011738516150022
 31
0.0
210
0.0
220
0.0
230
0.9999999999999998
 40
0.5694389254659484
 41
0.0
 42
6.283185307179584
  0
ARC
  5
F2
330
2
100
AcDbEntity
  8
KIJUN
100
AcDbCircle
 10
479.722266007125
 20
82.98949535517207
 30
0.0
 40
3.331699572601231
100
AcDbArc
 50
209.2725406200333
 51
262.446428076887
  0
ARC
  5
F3
330
2
100
AcDbEntity
  8
KIJUN
 62
     7
100
AcDbCircle
 10
496.8534940384059
 20
96.14203515140481
 30
0.0
 40
4.926879261771878
100
AcDbArc
 50
160.6246660695255
 51
248.2959839862134
  0
ARC
  5
F4
330
2
100
AcDbEntity
  8
KIJUN
 62
     7
100
AcDbCircle
 10
494.882925990892
 20
96.26369070349689
 30
0.0
 40
3.075155137534324
100
AcDbArc
 50
72.42354509348231
 51
150.5303372407084
  0
ARC
  5
F5
330
2
100
AcDbEntity
  8
KIJUN
 62
     7
100
AcDbCircle
 10
488.9866421845403
 20
93.88551698743489
 30
0.0
 40
8.647140916948393
100
AcDbArc
 50
354.2947562734628
 51
37.882822181117
  0
ARC
  5
F6
330
2
100
AcDbEntity
  8
KIJUN
 62
     7
100
AcDbCircle
 10
490.2231195236733
 20
91.30350409443598
 30
0.0
 40
3.368752498848853
100
AcDbArc
 50
46.2062530435983
 51
109.5032807582723
  0
ARC
  5
F7
330
2
100
AcDbEntity
  8
KIJUN
 62
     7
100
AcDbCircle
 10
495.3896321719893
 20
89.87924398755147
 30
0.0
 40
7.793377082310787
100
AcDbArc
 50
143.828156424361
 51
182.2672803083813
  0
ARC
  5
F8
330
2
100
AcDbEntity
  8
KIJUN
 62
     7
100
AcDbCircle
 10
491.1229452792436
 20
88.63501003695487
 30
0.0
 40
3.642868629594856
100
AcDbArc
 50
165.1127307127907
 51
247.2156998806943
  0
ARC
  5
F9
330
2
100
AcDbEntity
  8
KIJUN
 62
     7
100
AcDbCircle
 10
489.3167129751923
 20
91.55139500609488
 30
0.0
 40
6.287448437110077
100
AcDbArc
 50
273.6063187948935
 51
340.8530411349454
  0
ARC
  5
FA
330
2
100
AcDbEntity
  8
KIJUN
 62
     7
100
AcDbCircle
 10
494.5919405212775
 20
84.67459507029579
 30
0.0
 40
3.503385593756436
100
AcDbArc
 50
165.4834812180907
 51
247.3252185383799
  0
ARC
  5
FB
330
2
100
AcDbEntity
  8
KIJUN
 62
     7
100
AcDbCircle
 10
492.4443076624245
 20
86.59828897353071
 30
0.0
 40
5.217539120448133
100
AcDbArc
 50
278.7874244539327
 51
20.68653725412534
  0
ARC
  5
FC
330
2
100
AcDbEntity
  8
KIJUN
 62
     7
100
AcDbCircle
 10
502.3296299912058
 20
84.65995616450598
 30
0.0
 40
5.779843760689687
100
AcDbArc
 50
191.306414945303
 51
229.9946920548705
  0
ARC
  5
FD
330
2
100
AcDbEntity
  8
KIJUN
 62
     7
100
AcDbCircle
 10
494.865344700389
 20
83.04057398703418
 30
0.0
 40
5.843020034781067
100
AcDbArc
 50
335.0631995609213
 51
30.92367737407544
  0
ARC
  5
FE
330
2
100
AcDbEntity
  8
KIJUN
 62
     7
100
AcDbCircle
 10
499.2568664465848
 20
80.99866806119429
 30
0.0
 40
1.0
100
AcDbArc
 50
229.9946920548709
 51
335.0631995609213
  0
ARC
  5
FF
330
2
100
AcDbEntity
  8
KIJUN
 62
     7
100
AcDbCircle
 10
504.712977702795
 20
87.24345844716149
 30
0.0
 40
7.383061893553231
100
AcDbArc
 50
95.37984989123717
 51
139.4104971782378
  0
ARC
  5
100
330
2
100
AcDbEntity
  8
KIJUN
 62
     7
100
AcDbCircle
 10
500.6031920520367
 20
90.74759770567338
 30
0.0
 40
5.145340899247573
100
AcDbArc
 50
320.678851147616
 51
48.37860566955622
  0
ARC
  5
101
330
2
100
AcDbEntity
  8
KIJUN
 62
     7
100
AcDbCircle
 10
505.8579041843747
 20
89.5916844154547
 30
0.0
 40
6.935812512827626
100
AcDbArc
 50
195.8955582390186
 51
251.6305398638178
  0
ARC
  5
102
330
2
100
AcDbEntity
  8
KIJUN
 62
     7
100
AcDbCircle
 10
498.248320013069
 20
84.48278220102777
 30
0.0
 40
7.011624041737278
100
AcDbArc
 50
356.6990473698658
 51
40.41695467788285
  0
ARC
  5
103
330
2
100
AcDbEntity
  8
KIJUN
 62
     7
100
AcDbCircle
 10
504.0503017533245
 20
84.1481452511268
 30
0.0
 40
1.199999999999999
100
AcDbArc
 50
251.6305398638178
 51
356.6990473698658
  0
ARC
  5
104
330
2
100
AcDbEntity
  8
KIJUN
 62
     7
100
AcDbCircle
 10
496.8208134211594
 20
76.62407514962288
 30
0.0
 40
14.12980519338203
100
AcDbArc
 50
61.39095098497115
 51
79.10355037460587
  0
ARC
  5
105
330
2
100
AcDbEntity
  8
KIJUN
100
AcDbCircle
 10
490.9498636425813
 20
79.00391087031469
 30
0.0
 40
14.8184172077001
100
AcDbArc
 50
99.29268940244774
 51
128.7255277599029
  0
LINE
  5
106
330
2
100
AcDbEntity
  8
KIJUN
 62
     7
100
AcDbLine
 10
468.785847869651
 20
70.30634507180559
 30
0.0
 11
466.3907758276578
 21
54.68886028316621
 31
0.0
  0
ARC
  5
107
330
2
100
AcDbEntity
  8
KIJUN
 62
     7
100
AcDbCircle
 10
486.5143039553121
 20
95.20821592019148
 30
0.0
 40
15.32196142403054
100
AcDbArc
 50
255.176817339985
 51
296.0431766405073
  0
ARC
  5
108
330
2
100
AcDbEntity
  8
KIJUN
 62
     7
100
AcDbCircle
 10
505.1046804102267
 20
82.25588109921938
 30
0.0
 40
7.532850241068977
100
AcDbArc
 50
26.92715185421623
 51
74.39290428602863
  0
ELLIPSE
  5
109
330
2
100
AcDbEntity
  8
KIJUN
 62
     7
100
AcDbEllipse
 10
511.4517785594891
 20
79.99007935707367
 30
0.0
 11
-0.4934366519008393
 21
1.315260070995029
 31
0.0
210
0.0
220
0.0
230
1.0
 40
0.5694389254659484
 41
0.0
 42
6.283185307179584
  0
ELLIPSE
  5
10A
330
2
100
AcDbEntity
  8
KIJUN
 62
     7
100
AcDbEllipse
 10
511.1691577629025
 20
77.54176428046936
 30
0.0
 11
-0.4934366519008393
 21
1.315260070995029
 31
0.0
210
0.0
220
0.0
230
1.0
 40
0.5694389254659484
 41
0.0
 42
6.283185307179584
  0
ELLIPSE
  5
10B
330
2
100
AcDbEntity
  8
KIJUN
 62
     7
100
AcDbEllipse
 10
513.0532979396803
 20
80.64924106972148
 30
0.0
 11
-0.4934366519008393
 21
1.315260070995029
 31
0.0
210
0.0
220
0.0
230
1.0
 40
0.5694389254659484
 41
0.0
 42
6.283185307179584
  0
ELLIPSE
  5
10C
330
2
100
AcDbEntity
  8
KIJUN
 62
     7
100
AcDbEllipse
 10
513.0532979396803
 20
77.63593067115586
 30
0.0
 11
-0.4934366519008393
 21
1.315260070995029
 31
0.0
210
0.0
220
0.0
230
1.0
 40
0.5694389254659484
 41
0.0
 42
6.283185307179584
  0
ARC
  5
10D
330
2
100
AcDbEntity
  8
KIJUN
 62
     7
100
AcDbCircle
 10
512.3672891425131
 20
70.84495757720906
 30
0.0
 40
3.809051265910227
100
AcDbArc
 50
53.23658299865847
 51
124.3267178191937
  0
ARC
  5
10E
330
2
100
AcDbEntity
  8
KIJUN
 62
     7
100
AcDbCircle
 10
510.139663775234
 20
78.84980486373958
 30
0.0
 40
4.8598507102359
100
AcDbArc
 50
220.6239990439574
 51
270.9391872088974
  0
ARC
  5
10F
330
2
100
AcDbEntity
  8
KIJUN
 62
     7
100
AcDbCircle
 10
508.159026292769
 20
77.71641825196137
 30
0.0
 40
2.653573416584817
100
AcDbArc
 50
104.5913242845021
 51
229.93518136601
  0
ARC
  5
110
330
2
100
AcDbEntity
  8
KIJUN
 62
     7
100
AcDbCircle
 10
515.7487690293188
 20
80.15958561722186
 30
0.0
 40
10.31815383835556
100
AcDbArc
 50
205.6964901784458
 51
268.066883409535
  0
ARC
  5
111
330
2
100
AcDbEntity
  8
KIJUN
 62
     7
100
AcDbCircle
 10
515.3058808190906
 20
73.97083619867657
 30
0.0
 40
4.124622422910555
100
AcDbArc
 50
271.317379653311
 51
10.80313634742923
  0
ARC
  5
112
330
2
100
AcDbEntity
  8
KIJUN
 62
     7
100
AcDbCircle
 10
505.5634640673853
 20
73.61373942849137
 30
0.0
 40
2.253969588975464
100
AcDbArc
 50
66.80977708833646
 51
178.0261066248901
  0
ARC
  5
113
330
2
100
AcDbEntity
  8
KIJUN
 62
     7
100
AcDbCircle
 10
513.8268154136373
 20
90.22482066302359
 30
0.0
 40
20.43820747074422
100
AcDbArc
 50
240.9157506821607
 51
274.416570606317
  0
ARC
  5
114
330
2
100
AcDbEntity
  8
KIJUN
 62
     7
100
AcDbCircle
 10
504.2327057474969
 20
73.30388523072331
 30
0.0
 40
1.0
100
AcDbArc
 50
157.2015774397947
 51
250.0741292162746
  0
ARC
  5
115
330
2
100
AcDbEntity
  8
KIJUN
100
AcDbCircle
 10
534.7272900469103
 20
85.8661395156035
 30
0.0
 40
33.68824455369994
100
AcDbArc
 50
203.6040382016794
 51
217.2561330035331
  0
ARC
  5
116
330
2
100
AcDbEntity
  8
KIJUN
 62
     7
100
AcDbCircle
 10
510.5301881481818
 20
76.87759191405532
 30
0.0
 40
13.08262576994006
100
AcDbArc
 50
68.58698482327354
 51
105.0582419608256
  0
ARC
  5
117
330
2
100
AcDbEntity
  8
KIJUN
 62
     7
100
AcDbCircle
 10
505.8257787313074
 20
78.64409423576096
 30
0.0
 40
14.08247433575274
100
AcDbArc
 50
343.9216693547463
 51
47.68326866642811
  0
ARC
  5
118
330
2
100
AcDbEntity
  8
KIJUN
 62
     7
100
AcDbCircle
 10
492.4908667201813
 20
80.6750461658405
 30
0.0
 40
24.30664624423594
100
AcDbArc
 50
346.7903062687605
 51
20.17256147828959
  0
ARC
  5
119
330
2
100
AcDbEntity
  8
KIJUN
 62
     7
100
AcDbCircle
 10
517.4144682091964
 20
72.02896711400669
 30
0.0
 40
3.338569333970478
100
AcDbArc
 50
54.41105021660329
 51
145.9882149605281
  0
ARC
  5
11A
330
2
100
AcDbEntity
  8
KIJUN
 62
     7
100
AcDbCircle
 10
530.4045474719552
 20
103.180933624549
 30
0.0
 40
11.49419771041825
100
AcDbArc
 50
138.4182032167606
 51
174.3671760864143
  0
ARC
  5
11B
330
2
100
AcDbEntity
  8
KIJUN
 62
     7
100
AcDbCircle
 10
518.6251368423425
 20
106.4624357629226
 30
0.0
 40
5.387008624852465
100
AcDbArc
 50
340.9502535997798
 51
53.799345883978
  0
ARC
  5
11C
330
2
100
AcDbEntity
  8
KIJUN
 62
     7
100
AcDbCircle
 10
528.6427614465082
 20
100.516975091264
 30
0.0
 40
6.464866895955521
100
AcDbArc
 50
112.7732471754502
 51
194.0766784763443
  0
ARC
  5
11D
330
2
100
AcDbEntity
  8
KIJUN
 62
     7
100
AcDbCircle
 10
525.2844400058569
 20
104.5522472301056
 30
0.0
 40
2.107254197421843
100
AcDbArc
 50
315.9798256534241
 51
66.03659511183534
  0
ARC
  5
11E
330
2
100
AcDbEntity
  8
KIJUN
 62
     7
100
AcDbCircle
 10
512.72720152645
 20
99.28294513910978
 30
0.0
 40
8.011443473586092
100
AcDbArc
 50
352.8474445929134
 51
62.41521451826717
  0
ARC
  5
11F
330
2
100
AcDbEntity
  8
KIJUN
 62
     7
100
AcDbCircle
 10
517.8314757998399
 20
103.5587217549173
 30
0.0
 40
3.15041358644382
100
AcDbArc
 50
116.2722552823729
 51
210.5393909124962
  0
ARC
  5
120
330
2
100
AcDbEntity
  8
KIJUN
 62
     7
100
AcDbCircle
 10
516.5312959728983
 20
100.0486289874443
 30
0.0
 40
2.375389354257883
100
AcDbArc
 50
126.5081844671497
 51
258.5599878393312
  0
ARC
  5
121
330
2
100
AcDbEntity
  8
KIJUN
 62
     7
100
AcDbCircle
 10
517.2974669271986
 20
97.60565491041859
 30
0.0
 40
11.52423598506685
100
AcDbArc
 50
148.3492252031041
 51
216.0277792399558
  0
ARC
  5
122
330
2
100
AcDbEntity
  8
KIJUN
 62
     7
100
AcDbCircle
 10
503.4083532396184
 20
94.41351055951088
 30
0.0
 40
10.09970628131857
100
AcDbArc
 50
339.3169612961803
 51
66.17967591867828
  0
ARC
  5
123
330
2
100
AcDbEntity
  8
KIJUN
 62
     7
100
AcDbCircle
 10
554.8078433693909
 20
105.0949700515833
 30
0.0
 40
46.72319414548971
100
AcDbArc
 50
185.936075977208
 51
196.1861336630976
  0
ARC
  5
124
330
2
100
AcDbEntity
  8
KIJUN
 62
     7
100
AcDbCircle
 10
517.8340638907926
 20
96.46171246366501
 30
0.0
 40
4.249843017014423
100
AcDbArc
 50
142.2216656949767
 51
219.90604657892
  0
ARC
  5
125
330
2
100
AcDbEntity
  8
KIJUN
 62
     7
100
AcDbCircle
 10
532.6796006938313
 20
107.6625866576665
 30
0.0
 40
20.13258317879999
100
AcDbArc
 50
205.2797536835077
 51
219.7046368193189
  0
ARC
  5
126
330
2
100
AcDbEntity
  8
KIJUN
 62
     7
100
AcDbCircle
 10
515.2567430813544
 20
95.8039052301124
 30
0.0
 40
2.178349012635354
100
AcDbArc
 50
251.7349640584884
 51
332.5957760650892
  0
ARC
  5
127
330
2
100
AcDbEntity
  8
KIJUN
 62
     7
100
AcDbCircle
 10
529.8307620548115
 20
94.74089678366558
 30
0.0
 40
6.758782251179535
100
AcDbArc
 50
117.5416227894892
 51
217.1633912084963
  0
ARC
  5
128
330
2
100
AcDbEntity
  8
KIJUN
 62
     7
100
AcDbCircle
 10
-1119.374561795521
 20
-709.9916442429822
 30
0.0
 40
1828.436817982179
100
AcDbArc
 50
25.58905118947629
 51
25.96917284669214
  0
ARC
  5
129
330
2
100
AcDbEntity
  8
KIJUN
 62
     7
100
AcDbCircle
 10
520.7574157475185
 20
85.11188949919748
 30
0.0
 40
3.082753420725512
100
AcDbArc
 50
246.8571409121167
 51
27.06782056721814
  0
ARC
  5
12A
330
2
100
AcDbEntity
  8
KIJUN
 62
     7
100
AcDbCircle
 10
541.9299646130411
 20
79.00613067378619
 30
0.0
 40
17.02259783240156
100
AcDbArc
 50
165.058530136875
 51
212.9756043867213
  0
ARC
  5
12B
330
2
100
AcDbEntity
  8
KIJUN
 62
     7
100
AcDbCircle
 10
513.83278213736
 20
64.17148188324883
 30
0.0
 40
12.0950325682984
100
AcDbArc
 50
317.5557247668437
 51
42.74651938666962
  0
ARC
  5
12C
330
2
100
AcDbEntity
  8
KIJUN
 62
     7
100
AcDbCircle
 10
514.459073219429
 20
64.28886045646554
 30
0.0
 40
12.0950325682984
100
AcDbArc
 50
316.6409422889578
 51
44.47547277356717
  0
ARC
  5
12D
330
2
100
AcDbEntity
  8
KIJUN
 62
     7
100
AcDbCircle
 10
530.906867502665
 20
64.22414840152095
 30
0.0
 40
12.0950325682984
100
AcDbArc
 50
117.144693358908
 51
132.6139474757917
  0
ARC
  5
12E
330
2
100
AcDbEntity
  8
KIJUN
 62
     7
100
AcDbCircle
 10
531.5322155836488
 20
64.10184539035864
 30
0.0
 40
12.0950325682984
100
AcDbArc
 50
119.9568178577932
 51
134.2693692428791
  0
ARC
  5
12F
330
2
100
AcDbEntity
  8
KIJUN
 62
     7
100
AcDbCircle
 10
530.906867502665
 20
64.22414840152095
 30
0.0
 40
12.0950325682984
100
AcDbArc
 50
135.0736815462051
 51
222.8186863841241
  0
ARC
  5
130
330
2
100
AcDbEntity
  8
KIJUN
 62
     7
100
AcDbCircle
 10
513.83278213736
 20
64.17148188324883
 30
0.0
 40
12.0950325682984
100
AcDbArc
 50
45.27978507689129
 51
62.57593223962368
  0
ARC
  5
131
330
2
100
AcDbEntity
  8
KIJUN
 62
     7
100
AcDbCircle
 10
514.459073219429
 20
64.28886045646554
 30
0.0
 40
12.0950325682984
100
AcDbArc
 50
46.93520684397824
 51
65.3623851760433
  0
ARC
  5
132
330
2
100
AcDbEntity
  8
KIJUN
 62
     7
100
AcDbCircle
 10
531.5322155836488
 20
64.10184539035864
 30
0.0
 40
12.0950325682984
100
AcDbArc
 50
136.8026349331025
 51
221.9934295529301
  0
ARC
  5
133
330
2
100
AcDbEntity
  8
KIJUN
100
AcDbCircle
 10
522.4038364039103
 20
64.80401311220564
 30
0.0
 40
9.412691509925164
100
AcDbArc
 50
300.0341104503078
 51
12.07992412629424
  0
ARC
  5
134
330
2
100
AcDbEntity
  8
KIJUN
100
AcDbCircle
 10
535.8965248001232
 20
58.20622781366695
 30
0.0
 40
10.13773925867792
100
AcDbArc
 50
120.4893836263286
 51
184.733396445927
  0
ARC
  5
135
330
2
100
AcDbEntity
  8
KIJUN
100
AcDbCircle
 10
531.1257108148431
 20
66.57969430708383
 30
0.0
 40
0.5200000000000001
100
AcDbArc
 50
21.92554198537869
 51
135.810351252138
  0
ARC
  5
136
330
2
100
AcDbEntity
  8
KIJUN
100
AcDbCircle
 10
526.7680867890399
 20
57.59307100807713
 30
0.0
 40
1.0
100
AcDbArc
 50
192.9090149888766
 51
290.3007253013235
  0
ARC
  5
137
330
2
100
AcDbEntity
  8
KIJUN
 62
     7
100
AcDbCircle
 10
537.937045519537
 20
96.77833104784667
 30
0.0
 40
11.90763513828726
100
AcDbArc
 50
160.5992016300101
 51
193.1361113012046
  0
ARC
  5
138
330
2
100
AcDbEntity
  8
KIJUN
 62
     7
100
AcDbCircle
 10
530.6929120900419
 20
96.97095709096659
 30
0.0
 40
5.482481653967433
100
AcDbArc
 50
87.80629828058726
 51
136.6598152508439
  0
ARC
  5
139
330
2
100
AcDbEntity
  8
KIJUN
 62
     7
100
AcDbCircle
 10
521.5167195621561
 20
97.5715103921528
 30
0.0
 40
10.57789954994838
100
AcDbArc
 50
347.8471027114687
 51
27.4608028258838
  0
ARC
  5
13A
330
2
100
AcDbEntity
  8
KIJUN
 62
     7
100
AcDbCircle
 10
533.8518334383637
 20
101.3025639317049
 30
0.0
 40
3.164214581028633
100
AcDbArc
 50
87.69100532143623
 51
158.7495115217718
  0
ARC
  5
13B
330
2
100
AcDbEntity
  8
KIJUN
 62
     7
100
AcDbCircle
 10
530.3952333332806
 20
99.1943737677948
 30
0.0
 40
6.373132043324566
100
AcDbArc
 50
338.2157062990907
 51
55.77988345576015
  0
ARC
  5
13C
330
2
100
AcDbEntity
  8
KIJUN
 62
     7
100
AcDbCircle
 10
544.9463496531349
 20
84.88822237740079
 30
0.0
 40
11.17448815346009
100
AcDbArc
 50
117.3405980843197
 51
164.2483907304206
  0
ARC
  5
13D
330
2
100
AcDbEntity
  8
KIJUN
 62
     7
100
AcDbCircle
 10
538.6481462832282
 20
96.19326952621207
 30
0.0
 40
2.419958289475618
100
AcDbArc
 50
61.19535119838348
 51
164.7640951705878
  0
ARC
  5
13E
330
2
100
AcDbEntity
  8
KIJUN
 62
     7
100
AcDbCircle
 10
542.0973130640915
 20
97.92389900380308
 30
0.0
 40
2.316223799605482
100
AcDbArc
 50
64.26985339983173
 51
170.3089733357529
  0
ARC
  5
13F
330
2
100
AcDbEntity
  8
KIJUN
 62
     7
100
AcDbCircle
 10
545.0301133709404
 20
99.53243071409701
 30
0.0
 40
1.985651951826823
100
AcDbArc
 50
50.7853951257511
 51
166.0694919870106
  0
ARC
  5
140
330
2
100
AcDbEntity
  8
KIJUN
 62
     7
100
AcDbCircle
 10
548.6782492524315
 20
100.0477731170436
 30
0.0
 40
2.602310220128863
100
AcDbArc
 50
67.35240827508308
 51
156.8491302949332
  0
ARC
  5
141
330
2
100
AcDbEntity
  8
KIJUN
 62
     7
100
AcDbCircle
 10
546.2174675966624
 20
100.4191442865394
 30
0.0
 40
4.014129128280118
100
AcDbArc
 50
283.2014187121603
 51
30.38331753584122
  0
ARC
  5
142
330
2
100
AcDbEntity
  8
KIJUN
 62
     7
100
AcDbCircle
 10
538.1960313890525
 20
106.1458820364499
 30
0.0
 40
11.44639940418509
100
AcDbArc
 50
278.1267864836455
 51
319.6704520312419
  0
ELLIPSE
  5
143
330
2
100
AcDbEntity
  8
KIJUN
 62
     7
100
AcDbEllipse
 10
533.1801632436456
 20
82.75140782368948
 30
0.0
 11
-0.1009436209940962
 21
1.823413674948914
 31
0.0
210
0.0
220
0.0
230
1.0
 40
0.5694389254659483
 41
0.0
 42
6.283185307179584
  0
ELLIPSE
  5
144
330
2
100
AcDbEntity
  8
KIJUN
 62
     7
100
AcDbEllipse
 10
534.0810441571764
 20
85.62689963166597
 30
0.0
 11
-0.0776489392262278
 21
1.402625903806856
 31
0.0
210
0.0
220
0.0
230
1.0
 40
0.5694389254659484
 41
0.0
 42
6.283185307179584
  0
ELLIPSE
  5
145
330
2
100
AcDbEntity
  8
KIJUN
 62
     7
100
AcDbEllipse
 10
531.354044583554
 20
83.22484436024687
 30
0.0
 11
-0.0776489392262278
 21
1.402625903806856
 31
0.0
210
0.0
220
0.0
230
1.0
 40
0.5694389254659484
 41
0.0
 42
6.283185307179584
  0
ELLIPSE
  5
146
330
2
100
AcDbEntity
  8
KIJUN
 62
     7
100
AcDbEllipse
 10
532.3557051192913
 20
85.47668747204168
 30
0.0
 11
-0.0776489392262278
 21
1.402625903806856
 31
0.0
210
0.0
220
0.0
230
1.0
 40
0.5694389254659484
 41
0.0
 42
6.283185307179584
  0
ELLIPSE
  5
147
330
2
100
AcDbEntity
  8
KIJUN
 62
     7
100
AcDbEllipse
 10
535.460184294111
 20
82.76377804865559
 30
0.0
 11
-0.0776489392262278
 21
1.402625903806856
 31
0.0
210
0.0
220
0.0
230
1.0
 40
0.5694389254659484
 41
0.0
 42
6.283185307179584
  0
ELLIPSE
  5
148
330
2
100
AcDbEntity
  8
KIJUN
 62
     7
100
AcDbEllipse
 10
534.6114827731422
 20
79.68857419040887
 30
0.0
 11
-0.0776489392262278
 21
1.402625903806856
 31
0.0
210
0.0
220
0.0
230
1.0
 40
0.5694389254659484
 41
0.0
 42
6.283185307179584
  0
ARC
  5
149
330
2
100
AcDbEntity
  8
KIJUN
 62
     7
100
AcDbCircle
 10
527.3787629028667
 20
76.7451330609762
 30
0.0
 40
4.874593658389467
100
AcDbArc
 50
342.1879662117865
 51
31.75488344831376
  0
ARC
  5
14A
330
2
100
AcDbEntity
  8
KIJUN
 62
     7
100
AcDbCircle
 10
-1213.211476013646
 20
-988.0369271977476
 30
0.0
 40
2045.319384626116
100
AcDbArc
 50
31.4563481043806
 51
31.81575135814596
  0
ARC
  5
14B
330
2
100
AcDbEntity
  8
KIJUN
 62
     7
100
AcDbCircle
 10
537.7505458264749
 20
91.69431186812278
 30
0.0
 40
3.740797864487841
100
AcDbArc
 50
326.0217281221877
 51
56.52001074604349
  0
ARC
  5
14C
330
2
100
AcDbEntity
  8
KIJUN
 62
     7
100
AcDbCircle
 10
539.6867381597519
 20
86.37718292155829
 30
0.0
 40
3.430654936444006
100
AcDbArc
 50
20.94611382076197
 51
157.1450346753242
  0
ARC
  5
14D
330
2
100
AcDbEntity
  8
KIJUN
 62
     7
100
AcDbCircle
 10
527.0818847533023
 20
85.47318736098759
 30
0.0
 40
15.95170407481974
100
AcDbArc
 50
346.1893081661582
 51
7.675033714872409
  0
ARC
  5
14E
330
2
100
AcDbEntity
  8
KIJUN
 62
     7
100
AcDbCircle
 10
539.7686661958402
 20
87.08572166153469
 30
0.0
 40
6.102639829650275
100
AcDbArc
 50
234.2093670558082
 51
297.3505341955272
  0
LINE
  5
14F
330
2
100
AcDbEntity
  8
KIJUN
 62
     7
100
AcDbLine
 10
536.6315091188186
 20
85.58881795078818
 30
0.0
 11
539.4958779096099
 21
85.80090109541018
 31
0.0
  0
LINE
  5
150
330
2
100
AcDbEntity
  8
KIJUN
 62
     7
100
AcDbLine
 10
536.7375976357411
 20
85.05861008923337
 30
0.0
 11
539.6019664265323
 21
85.27069323385537
 31
0.0
  0
LINE
  5
151
330
2
100
AcDbEntity
  8
KIJUN
 62
     7
100
AcDbLine
 10
536.7375976357411
 20
84.31631995244229
 30
0.0
 11
539.6019664265323
 21
84.52840309706429
 31
0.0
  0
LINE
  5
152
330
2
100
AcDbEntity
  8
KIJUN
 62
     7
100
AcDbLine
 10
536.5254206018964
 20
86.22506738465387
 30
0.0
 11
539.3897893926875
 21
86.43715052927587
 31
0.0
  0
LINE
  5
153
330
2
100
AcDbEntity
  8
KIJUN
 62
     7
100
AcDbLine
 10
537.1619477347843
 20
83.57402894626549
 30
0.0
 11
540.0263165255754
 21
83.78611209088736
 31
0.0
  0
ARC
  5
154
330
2
100
AcDbEntity
  8
KIJUN
 62
     7
100
AcDbCircle
 10
536.3083117594145
 20
77.23098057984072
 30
0.0
 40
11.44864019901663
100
AcDbArc
 50
220.8606139976372
 51
274.8029836430084
  0
ARC
  5
155
330
2
100
AcDbEntity
  8
KIJUN
 62
     7
100
AcDbCircle
 10
479.8262173583045
 20
40.04074944108063
 30
0.0
 40
62.96136316172123
100
AcDbArc
 50
24.1725463051961
 51
43.5183344863011
  0
ARC
  5
156
330
2
100
AcDbEntity
  8
KIJUN
 62
     7
100
AcDbCircle
 10
525.575271344007
 20
77.16929935022005
 30
0.0
 40
4.874593658389467
100
AcDbArc
 50
3.772630680645579
 51
31.75488344831376
  0
ARC
  5
157
330
2
100
AcDbEntity
  8
KIJUN
 62
     7
100
AcDbCircle
 10
534.3187115802675
 20
76.4388302223853
 30
0.0
 40
5.035120314473187
100
AcDbArc
 50
322.7920320435779
 51
42.84152647181573
  0
ARC
  5
158
330
2
100
AcDbEntity
  8
KIJUN
 62
     7
100
AcDbCircle
 10
532.4838932368598
 20
70.35365752989358
 30
0.0
 40
6.588489308614686
100
AcDbArc
 50
316.549152037017
 51
27.4819608429126
  0
ARC
  5
159
330
2
100
AcDbEntity
  8
KIJUN
 62
     7
100
AcDbCircle
 10
546.5820377968677
 20
91.39538770763079
 30
0.0
 40
8.645753356678902
100
AcDbArc
 50
244.9322781001764
 51
297.1711004632273
  0
ARC
  5
15A
330
2
100
AcDbEntity
  8
KIJUN
 62
     7
100
AcDbCircle
 10
553.1545217758317
 20
84.66710137903829
 30
0.0
 40
5.843020034781067
100
AcDbArc
 50
335.0631995609213
 51
30.92367737407544
  0
ARC
  5
15B
330
2
100
AcDbEntity
  8
KIJUN
 62
     7
100
AcDbCircle
 10
560.6188070666486
 20
86.28648355651018
 30
0.0
 40
5.779843760689687
100
AcDbArc
 50
191.306414945303
 51
229.9946920548705
  0
ARC
  5
15C
330
2
100
AcDbEntity
  8
KIJUN
 62
     7
100
AcDbCircle
 10
550.7334847378673
 20
88.22481636553481
 30
0.0
 40
5.217539120448133
100
AcDbArc
 50
278.7874244539327
 51
20.68653725412534
  0
ARC
  5
15D
330
2
100
AcDbEntity
  8
KIJUN
 62
     7
100
AcDbCircle
 10
557.5460435220273
 20
82.62519545319838
 30
0.0
 40
1.0
100
AcDbArc
 50
229.9946920548709
 51
335.0631995609213
  0
ARC
  5
15E
330
2
100
AcDbEntity
  8
KIJUN
 62
     7
100
AcDbCircle
 10
549.4121223546865
 20
90.26153742895898
 30
0.0
 40
3.642868629594856
100
AcDbArc
 50
165.1127307127907
 51
247.2156998806943
  0
ARC
  5
15F
330
2
100
AcDbEntity
  8
KIJUN
 62
     7
100
AcDbCircle
 10
553.678809247432
 20
91.50577137955556
 30
0.0
 40
7.793377082310787
100
AcDbArc
 50
143.828156424361
 51
182.2672803083813
  0
ARC
  5
160
330
2
100
AcDbEntity
  8
KIJUN
 62
     7
100
AcDbCircle
 10
558.8923691274793
 20
92.37412509767748
 30
0.0
 40
5.145340899247573
100
AcDbArc
 50
320.678851147616
 51
48.37860566955622
  0
ARC
  5
161
330
2
100
AcDbEntity
  8
KIJUN
 62
     7
100
AcDbCircle
 10
563.0021547782377
 20
88.86998583916556
 30
0.0
 40
7.383061893553231
100
AcDbArc
 50
95.37984989123717
 51
139.4104971782378
  0
ARC
  5
162
330
2
100
AcDbEntity
  8
KIJUN
 62
     7
100
AcDbCircle
 10
555.1426711138486
 20
97.76856254340888
 30
0.0
 40
4.926879261771878
100
AcDbArc
 50
160.6246660695255
 51
248.2959839862134
  0
CIRCLE
  5
163
330
2
100
AcDbEntity
  8
KIJUN
100
AcDbCircle
 10
555.4832804915207
 20
92.37547597053309
 30
0.0
 40
2.311273173894323
  0
ARC
  5
164
330
2
100
AcDbEntity
  8
KIJUN
 62
     7
100
AcDbCircle
 10
555.1099904966021
 20
78.25060254162699
 30
0.0
 40
14.12980519338203
100
AcDbArc
 50
61.39095098497115
 51
79.10355037460587
  0
ARC
  5
165
330
2
100
AcDbEntity
  8
KIJUN
 62
     7
100
AcDbCircle
 10
564.1470812598174
 20
91.21821180745881
 30
0.0
 40
6.935812512827626
100
AcDbArc
 50
195.8955582390186
 51
251.6305398638178
  0
ARC
  5
166
330
2
100
AcDbEntity
  8
KIJUN
 62
     7
100
AcDbCircle
 10
547.6058900506354
 20
93.17792239809909
 30
0.0
 40
6.287448437110077
100
AcDbArc
 50
273.6063187948935
 51
340.8530411349454
  0
ARC
  5
167
330
2
100
AcDbEntity
  8
KIJUN
 62
     7
100
AcDbCircle
 10
552.8811175967202
 20
86.30112246229996
 30
0.0
 40
3.503385593756436
100
AcDbArc
 50
165.4834812180907
 51
247.3252185383799
  0
ARC
  5
168
330
2
100
AcDbEntity
  8
KIJUN
 62
     7
100
AcDbCircle
 10
556.5374970885115
 20
86.10930959303187
 30
0.0
 40
7.011624041737278
100
AcDbArc
 50
356.6990473698658
 51
40.41695467788285
  0
ARC
  5
169
330
2
100
AcDbEntity
  8
KIJUN
 62
     7
100
AcDbCircle
 10
562.3394788287672
 20
85.7746726431309
 30
0.0
 40
1.199999999999999
100
AcDbArc
 50
251.6305398638178
 51
356.6990473698658
  0
ARC
  5
16A
330
2
100
AcDbEntity
  8
KIJUN
100
AcDbCircle
 10
558.0237678820955
 20
97.74132590957069
 30
0.0
 40
2.699369174805541
100
AcDbArc
 50
36.27315379726939
 51
127.5854936087776
  0
ARC
  5
16B
330
2
100
AcDbEntity
  8
KIJUN
 62
     7
100
AcDbCircle
 10
547.275819259983
 20
95.512044379439
 30
0.0
 40
8.647140916948393
100
AcDbArc
 50
354.2947562734628
 51
37.882822181117
  0
ARC
  5
16C
330
2
100
AcDbEntity
  8
KIJUN
 62
     7
100
AcDbCircle
 10
553.1721030663347
 20
97.89021809550099
 30
0.0
 40
3.075155137534324
100
AcDbArc
 50
72.42354509348231
 51
150.5303372407084
  0
ARC
  5
16D
330
2
100
AcDbEntity
  8
KIJUN
 62
     7
100
AcDbCircle
 10
548.5122965991162
 20
92.93003148644009
 30
0.0
 40
3.368752498848853
100
AcDbArc
 50
46.2062530435983
 51
109.5032807582723
  0
ARC
  5
16E
330
2
100
AcDbEntity
  8
KIJUN
100
AcDbCircle
 10
562.5941437192016
 20
95.81981462259149
 30
0.0
 40
7.425474641878534
100
AcDbArc
 50
146.8489183700834
 51
162.1273690154183
  0
ARC
  5
16F
330
2
100
AcDbEntity
  8
KIJUN
100
AcDbCircle
 10
552.9081858513761
 20
97.93590272934869
 30
0.0
 40
7.425474641878534
100
AcDbArc
 50
341.6230239276767
 51
10.88697486743443
  0
ARC
  5
170
330
2
100
AcDbEntity
  8
KIJUN
 62
     7
100
AcDbCircle
 10
511.6113327441044
 20
52.55695465455922
 30
0.0
 40
9.768613731947532
100
AcDbArc
 50
342.4879546034968
 51
13.1420220360781
  0
ARC
  5
171
330
2
100
AcDbEntity
  8
KIJUN
 62
     7
100
AcDbCircle
 10
511.4490154765518
 20
52.58764694988174
 30
0.0
 40
11.6097135160504
100
AcDbArc
 50
342.0609761722336
 51
17.14311348180263
  0
ARC
  5
172
330
2
100
AcDbEntity
  8
KIJUN
 62
     7
100
AcDbCircle
 10
517.1941802610615
 20
51.97408438879103
 30
0.0
 40
7.453819999935451
100
AcDbArc
 50
335.4315111802239
 51
32.37528209429644
  0
ARC
  5
173
330
2
100
AcDbEntity
  8
KIJUN
 62
     7
100
AcDbCircle
 10
518.1556978535463
 20
52.24047243734101
 30
0.0
 40
7.970667218012342
100
AcDbArc
 50
332.6116731692064
 51
21.28554001815806
  0
ARC
  5
174
330
2
100
AcDbEntity
  8
KIJUN
 62
     7
100
AcDbCircle
 10
522.4750991056013
 20
45.09502884186828
 30
0.0
 40
10.91751325975307
100
AcDbArc
 50
77.32712524080814
 51
92.17963009110428
  0
ARC
  5
175
330
2
100
AcDbEntity
  8
KIJUN
 62
     7
100
AcDbCircle
 10
523.1808699251302
 20
52.28879082562396
 30
0.0
 40
4.244052343146267
100
AcDbArc
 50
246.3757993537781
 51
298.9151188749284
  0
ARC
  5
176
330
2
100
AcDbEntity
  8
KIJUN
 62
     7
100
AcDbCircle
 10
522.097910819007
 20
55.00536679038617
 30
0.0
 40
1.0
100
AcDbArc
 50
92.17963009110428
 51
193.1420220360778
  0
ARC
  5
177
330
2
100
AcDbEntity
  8
KIJUN
 62
     7
100
AcDbCircle
 10
521.8808611998991
 20
49.31661099940277
 30
0.0
 40
1.0
100
AcDbArc
 50
162.4879546034971
 51
246.3757993537781
  0
ARC
  5
178
330
2
100
AcDbEntity
  8
KIJUN
 62
     7
100
AcDbCircle
 10
524.6508461819695
 20
54.77093675363827
 30
0.0
 40
1.0
100
AcDbArc
 50
21.28554001815811
 51
77.32712524080795
  0
ARC
  5
179
330
2
100
AcDbEntity
  8
KIJUN
 62
     7
100
AcDbCircle
 10
500.4351415801341
 20
64.5796839738055
 30
0.0
 40
1.0
100
AcDbArc
 50
33.50100189734342
 51
66.42272036245365
  0
ARC
  5
17A
330
2
100
AcDbEntity
  8
KIJUN
100
AcDbCircle
 10
507.8881507544873
 20
86.42128732061667
 30
0.0
 40
32.19338413982312
100
AcDbArc
 50
31.71382768749603
 51
50.35823226804803
  0
ARC
  5
17B
330
2
100
AcDbEntity
  8
KIJUN
100
AcDbCircle
 10
521.5443503212242
 20
103.4512894849644
 30
0.0
 40
10.37287278657096
100
AcDbArc
 50
48.43034426008476
 51
89.14354978821313
  0
ARC
  5
17C
330
2
100
AcDbEntity
  8
KIJUN
100
AcDbCircle
 10
521.5443503212248
 20
103.4512894849642
 30
0.0
 40
10.37287278657123
100
AcDbArc
 50
48.43034426008443
 51
89.14354978821313
  0
ARC
  5
17D
330
2
100
AcDbEntity
  8
KIJUN
100
AcDbCircle
 10
521.1128647461463
 20
102.1573002341793
 30
0.0
 40
12.45267310292941
100
AcDbArc
 50
48.1265251530258
 51
88.68432160616345
  0
ARC
  5
17E
330
2
100
AcDbEntity
  8
KIJUN
100
AcDbCircle
 10
510.876382559168
 20
85.97579983882168
 30
0.0
 40
31.49529387005474
100
AcDbArc
 50
23.19293799119189
 51
53.91895883140595
  0
ARC
  5
17F
330
2
100
AcDbEntity
  8
KIJUN
100
AcDbCircle
 10
511.7974668752689
 20
86.48429903990498
 30
0.0
 40
32.53917399051344
100
AcDbArc
 50
24.7639384989909
 51
54.47351606225413
  0
ARC
  5
180
330
2
100
AcDbEntity
  8
KIJUN
100
AcDbCircle
 10
568.9576015806077
 20
81.67309066172256
 30
0.0
 40
4.60352749379198
100
AcDbArc
 50
130.0377007288064
 51
205.4798421206288
  0
ARC
  5
181
330
2
100
AcDbEntity
  8
KIJUN
100
AcDbCircle
 10
572.2421354456825
 20
98.38248771533148
 30
0.0
 40
7.238192604286783
100
AcDbArc
 50
161.9953172046074
 51
239.8550245196806
  0
ARC
  5
182
330
2
100
AcDbEntity
  8
KIJUN
100
AcDbCircle
 10
562.5450345002385
 20
88.02675623241336
 30
0.0
 40
6.237149557299089
100
AcDbArc
 50
7.291733432055125
 51
69.7050434801684
  0
ARC
  5
183
330
2
100
AcDbEntity
  8
KIJUN
100
AcDbCircle
 10
569.3638731413393
 20
91.49026454676516
 30
0.0
 40
5.940379713502826
100
AcDbArc
 50
158.074458014622
 51
226.31593556876
  0
ARC
  5
184
330
2
100
AcDbEntity
  8
KIJUN
100
AcDbCircle
 10
564.4604243589267
 20
80.40033785949118
 30
0.0
 40
7.425474641878534
100
AcDbArc
 50
88.2187913566428
 51
98.5529197998281
  0
ARC
  5
185
330
2
100
AcDbEntity
  8
KIJUN
100
AcDbCircle
 10
562.061028267148
 20
88.81506901091031
 30
0.0
 40
6.55642799956824
100
AcDbArc
 50
237.9237444125815
 51
291.5986013550046
  0
ARC
  5
186
330
2
100
AcDbEntity
  8
KIJUN
100
AcDbCircle
 10
564.335550105904
 20
93.51424174274908
 30
0.0
 40
0.5200000000000001
100
AcDbArc
 50
44.18964874786179
 51
158.0744580146211
  0
ELLIPSE
  5
187
330
2
100
AcDbEntity
  8
KIJUN
 62
     7
100
AcDbEllipse
 10
568.5320155725123
 20
85.73420400430268
 30
0.0
 11
0.3795666553083379
 21
1.011738516150022
 31
0.0
210
0.0
220
0.0
230
-0.9999999999999998
 40
0.5694389254659484
 41
0.0
 42
6.283185307179584
  0
ARC
  5
188
330
2
100
AcDbEntity
  8
KIJUN
100
AcDbCircle
 10
564.6911675345713
 20
78.03380978304621
 30
0.0
 40
9.2640702269321
100
AcDbArc
 50
350.6680067603991
 51
55.47406146829472
  0
ARC
  5
189
330
2
100
AcDbEntity
  8
KIJUN
100
AcDbCircle
 10
576.9483436620463
 20
83.7337678086922
 30
0.0
 40
8.910569570254242
100
AcDbArc
 50
175.2765710073148
 51
241.3917617405551
  0
ARC
  5
18A
330
2
100
AcDbEntity
  8
KIJUN
 62
     7
100
AcDbCircle
 10
588.524080422253
 20
77.92082174414971
 30
0.0
 40
14.32551414772814
100
AcDbArc
 50
159.0980514343937
 51
212.109059797887
  0
ARC
  5
18B
330
2
100
AcDbEntity
  8
KIJUN
 62
     7
100
AcDbCircle
 10
544.8426807590327
 20
80.71714183957839
 30
0.0
 40
33.16111248613231
100
AcDbArc
 50
351.7568889814945
 51
12.14332441922123
  0
ARC
  5
18C
330
2
100
AcDbEntity
  8
KIJUN
100
AcDbCircle
 10
565.4534090896671
 20
82.98949535517207
 30
0.0
 40
3.331699572601231
100
AcDbArc
 50
277.553571923113
 51
330.7274593799665
  0
ARC
  5
18D
330
2
100
AcDbEntity
  8
KIJUN
100
AcDbCircle
 10
568.7252028345628
 20
65.04362553706193
 30
0.0
 40
9.441344828702114
100
AcDbArc
 50
227.1523676963008
 51
280.5061199650041
  0
LINE
  5
18E
330
2
100
AcDbEntity
  8
KIJUN
100
AcDbLine
 10
572.547326031379
 20
60.3099641572489
 30
0.0
 11
575.0333709361513
 21
56.75934634611236
 31
0.0
  0
LINE
  5
18F
330
2
100
AcDbEntity
  8
KIJUN
100
AcDbLine
 10
572.547326031379
 20
60.3099641572489
 30
0.0
 11
569.1060517478398
 21
52.63656197045285
 31
0.0
  0
LINE
  5
190
330
2
100
AcDbEntity
  8
KIJUN
 62
     7
100
AcDbLine
 10
576.3898272271411
 20
70.30634507180559
 30
0.0
 11
578.7848992691344
 21
54.68886028316621
 31
0.0
  0
ARC
  5
191
330
2
100
AcDbEntity
  8
KIJUN
100
AcDbCircle
 10
579.1365235005652
 20
58.97221948388374
 30
0.0
 40
6.590194063383847
100
AcDbArc
 50
218.3728622804912
 51
277.7701662165152
  0
ARC
  5
192
330
2
100
AcDbEntity
  8
KIJUN
100
AcDbCircle
 10
580.2467778283527
 20
61.9825471618904
 30
0.0
 40
14.84721071513336
100
AcDbArc
 50
221.5765472140479
 51
269.1538304494907
  0
ARC
  5
193
330
2
100
AcDbEntity
  8
KIJUN
100
AcDbCircle
 10
557.9615375772465
 20
51.31977696379367
 30
0.0
 40
8.0
100
AcDbArc
 50
51.89277865726193
 51
53.20456505479267
  0
LINE
  5
194
330
2
100
AcDbEntity
  8
KIJUN
100
AcDbLine
 10
575.2956965546945
 20
55.98340227849643
 30
0.0
 11
570.1795464798797
 21
51.73003702822956
 31
0.0
  0
ARC
  5
195
330
2
100
AcDbEntity
  8
KIJUN
100
AcDbCircle
 10
569.901264402966
 20
52.53614880580534
 30
0.0
 40
0.8
100
AcDbArc
 50
146.6655699485419
 51
229.9308912372337
  0
ARC
  5
196
330
2
100
AcDbEntity
  8
KIJUN
100
AcDbCircle
 10
570.582435545413
 20
51.43392826295205
 30
0.0
 40
0.5
100
AcDbArc
 50
143.6854706875147
 51
227.327356468154
  0
ARC
  5
197
330
2
100
AcDbEntity
  8
KIJUN
100
AcDbCircle
 10
574.892807489162
 20
56.27951104377348
 30
0.0
 40
0.5
100
AcDbArc
 50
323.6854706875428
 51
73.67252722876331
  0
ARC
  5
198
330
2
100
AcDbEntity
  8
KIJUN
100
AcDbCircle
 10
634.5577665132363
 20
72.97788674530176
 30
0.0
 40
56.97481193346463
100
AcDbArc
 50
176.9969842276883
 51
193.3197549353
  0
ARC
  5
199
330
2
100
AcDbEntity
  8
KIJUN
100
AcDbCircle
 10
561.4483430890088
 20
70.15937655449903
 30
0.0
 40
8.343326127471575
100
AcDbArc
 50
332.272623015356
 51
2.817102370785645
  0
ARC
  5
19A
330
2
100
AcDbEntity
  8
KIJUN
 62
     7
100
AcDbCircle
 10
556.9187246621948
 20
46.92467716318668
 30
0.0
 40
28.13317122920379
100
AcDbArc
 50
49.03504867761288
 51
72.61437531900026
  0
ARC
  5
19B
330
2
100
AcDbEntity
  8
KIJUN
100
AcDbCircle
 10
570.3979218976302
 20
69.51728341119639
 30
0.0
 40
9.441344828702114
100
AcDbArc
 50
240.358303227741
 51
282.7836110401888
  0
ARC
  5
19C
330
2
100
AcDbEntity
  8
KIJUN
100
AcDbCircle
 10
572.0309033047264
 20
59.15318757686529
 30
0.0
 40
7.834683819911337
100
AcDbArc
 50
66.73917754605037
 51
116.0101504913676
  0
ARC
  5
19D
330
2
100
AcDbEntity
  8
KIJUN
 62
     7
100
AcDbCircle
 10
564.5981417052468
 20
71.09467174036416
 30
0.0
 40
7.891685674932648
100
AcDbArc
 50
61.21901903612558
 51
110.7812726055711
  0
ARC
  5
19E
330
2
100
AcDbEntity
  8
KIJUN
 62
     7
100
AcDbCircle
 10
568.1564331668913
 20
79.5704238420908
 30
0.0
 40
6.452294569324282
100
AcDbArc
 50
189.7931901038693
 51
243.9705672507075
  0
ARC
  5
19F
330
2
100
AcDbEntity
  8
KIJUN
100
AcDbCircle
 10
565.3485446281271
 20
80.04425282020909
 30
0.0
 40
0.65
100
AcDbArc
 50
212.7433402905576
 51
326.6281495573217
  0
ARC
  5
1A0
330
2
100
AcDbEntity
  8
KIJUN
100
AcDbCircle
 10
553.504543576173
 20
56.51444315891892
 30
0.0
 40
26.15201937286087
100
AcDbArc
 50
30.91773371494773
 51
55.2857638227362
  0
ARC
  5
1A1
330
2
100
AcDbEntity
  8
KIJUN
100
AcDbCircle
 10
573.0552798408902
 20
76.59582583490517
 30
0.0
 40
0.7800000000000003
100
AcDbArc
 50
241.3917617405491
 51
355.276571007314
  0
ARC
  5
1A2
330
2
100
AcDbEntity
  8
KIJUN
100
AcDbCircle
 10
569.9957655592063
 20
111.9360646737425
 30
0.0
 40
9.140835925656704
100
AcDbArc
 50
284.6021339467494
 51
343.7131253719314
  0
ARC
  5
1A3
330
2
100
AcDbEntity
  8
KIJUN
100
AcDbCircle
 10
557.8815295141851
 20
105.5942028504252
 30
0.0
 40
14.63277968485911
100
AcDbArc
 50
348.4360652591468
 51
34.95809032195094
  0
ARC
  5
1A4
330
2
100
AcDbEntity
  8
KIJUN
100
AcDbCircle
 10
584.6482984312674
 20
110.3451958263065
 30
0.0
 40
15.21434815961266
100
AcDbArc
 50
166.1840084488825
 51
211.7960491311875
  0
ARC
  5
1A5
330
2
100
AcDbEntity
  8
KIJUN
 62
     7
100
AcDbCircle
 10
578.4017632944195
 20
107.4698104969571
 30
0.0
 40
10.72766555192126
100
AcDbArc
 50
142.647616663268
 51
203.1124569589033
  0
ARC
  5
1A6
330
2
100
AcDbEntity
  8
KIJUN
100
AcDbCircle
 10
563.7553539774732
 20
95.13742825872849
 30
0.0
 40
5.711903570675795
100
AcDbArc
 50
328.1492222120379
 51
73.70111951223748
  0
ARC
  5
1A7
330
2
100
AcDbEntity
  8
KIJUN
100
AcDbCircle
 10
574.2668757415218
 20
88.15352917550617
 30
0.0
 40
5.574919714008214
100
AcDbArc
 50
99.60475764562888
 51
183.9259551944624
  0
ARC
  5
1A8
330
2
100
AcDbEntity
  8
KIJUN
100
AcDbCircle
 10
567.1143686680474
 20
91.44453742056489
 30
0.0
 40
7.574678625694242
100
AcDbArc
 50
300.5463872038893
 51
12.43781736995179
  0
ARC
  5
1A9
330
2
100
AcDbEntity
  8
KIJUN
 62
     7
100
AcDbCircle
 10
598.3552173439989
 20
75.28381487662987
 30
0.0
 40
24.47276896792706
100
AcDbArc
 50
149.5321703996349
 51
161.5429669639818
  0
CIRCLE
  5
1AA
330
2
100
AcDbEntity
  8
KIJUN
100
AcDbCircle
 10
568.7311075057346
 20
100.7842675554156
 30
0.0
 40
1.642041573286453
  0
CIRCLE
  5
1AB
330
2
100
AcDbEntity
  8
KIJUN
100
AcDbCircle
 10
572.0770401158883
 20
99.51879057935869
 30
0.0
 40
2.052551966608065
  0
ARC
  5
1AC
330
2
100
AcDbEntity
  8
KIJUN
100
AcDbCircle
 10
573.7370868424063
 20
92.98090700536128
 30
0.0
 40
0.7800000000000003
100
AcDbArc
 50
7.00044477010425
 51
120.8852540368672
  0
CIRCLE
  5
1AD
330
2
100
AcDbEntity
  8
KIJUN
100
AcDbCircle
 10
571.6334740620048
 20
95.48011139046078
 30
0.0
 40
1.642041573286453
  0
ARC
  5
1AE
330
2
100
AcDbEntity
  8
KIJUN
100
AcDbCircle
 10
580.114856649707
 20
111.8402983119991
 30
0.0
 40
2.052551966608065
100
AcDbArc
 50
91.59635482008615
 51
268.4036451799138
  0
ARC
  5
1AF
330
2
100
AcDbEntity
  8
KIJUN
100
AcDbCircle
 10
580.440022280264
 20
100.4789518288567
 30
0.0
 40
9.049074254857703
100
AcDbArc
 50
100.6364430056403
 51
151.426023976664
  0
CIRCLE
  5
1B0
330
2
100
AcDbEntity
  8
KIJUN
100
AcDbCircle
 10
575.9727360273975
 20
111.8402983119991
 30
0.0
 40
1.642041573286453
  0
ARC
  5
1B1
330
2
100
AcDbEntity
  8
KIJUN
100
AcDbCircle
 10
555.7507841511125
 20
54.48965911598413
 30
0.0
 40
4.977370729229061
100
AcDbArc
 50
149.0628389985749
 51
282.5469334638965
  0
ARC
  5
1B2
330
2
100
AcDbEntity
  8
KIJUN
 62
     7
100
AcDbCircle
 10
552.1632297275297
 20
51.75512755613567
 30
0.0
 40
5.129256608040996
100
AcDbArc
 50
190.5872223195512
 51
335.5380063668617
  0
ARC
  5
1B3
330
2
100
AcDbEntity
  8
KIJUN
100
AcDbCircle
 10
554.3725336280824
 20
58.00513003747258
 30
0.0
 40
4.0
100
AcDbArc
 50
211.8671697969827
 51
335.7147751717346
  0
LINE
  5
1B4
330
2
100
AcDbEntity
  8
KIJUN
100
AcDbLine
 10
559.0846837763994
 20
59.33285255483665
 30
0.0
 11
554.5541213226761
 21
60.68339473803785
 31
0.0
  0
ARC
  5
1B5
330
2
100
AcDbEntity
  8
KIJUN
100
AcDbCircle
 10
584.3233637281233
 20
37.92036292780941
 30
0.0
 40
29.88167008865158
100
AcDbArc
 50
107.9283697006071
 51
156.9268780536221
  0
LINE
  5
1B6
330
2
100
AcDbEntity
  8
KIJUN
100
AcDbLine
 10
549.8902033259838
 20
62.46239155886797
 30
0.0
 11
550.393757098249
 21
57.593623870258
 31
0.0
  0
ARC
  5
1B7
330
2
100
AcDbEntity
  8
KIJUN
 62
     7
100
AcDbCircle
 10
596.3661963469079
 20
18.3199502648398
 30
0.0
 40
59.28350860377108
100
AcDbArc
 50
139.2108543691782
 51
145.899415339327
  0
ARC
  5
1B8
330
2
100
AcDbEntity
  8
KIJUN
 62
     7
100
AcDbCircle
 10
548.1042681462833
 20
50.99645040673988
 30
0.0
 40
1.0
100
AcDbArc
 50
145.8994153393261
 51
190.5872223195514
  0
ARC
  5
1B9
330
2
100
AcDbEntity
  8
KIJUN
100
AcDbCircle
 10
554.3725336280824
 20
58.00513003747258
 30
0.0
 40
4.0
100
AcDbArc
 50
185.9048387858378
 51
206.3467743017862
  0
LINE
  5
1BA
330
2
100
AcDbEntity
  8
KIJUN
100
AcDbLine
 10
559.0846837763994
 20
59.33285255483665
 30
0.0
 11
558.0185710911118
 21
56.36001277168983
 31
0.0
  0
ARC
  5
1BB
330
2
100
AcDbEntity
  8
KIJUN
100
AcDbCircle
 10
581.9048345372459
 20
48.3185865929218
 30
0.0
 40
25.33916603654402
100
AcDbArc
 50
118.5835075883563
 51
154.2354750461908
  0
ARC
  5
1BC
330
2
100
AcDbEntity
  8
KIJUN
100
AcDbCircle
 10
564.4604243589267
 20
80.40033785949118
 30
0.0
 40
7.425474641878534
100
AcDbArc
 50
131.0812264409128
 51
137.8679696393632
  0
LINE
  5
1BD
330
2
100
AcDbEntity
  8
KIJUN
100
AcDbLine
 10
550.9487003068297
 20
66.61941701481925
 30
0.0
 11
561.6134257427003
 21
63.49528137670772
 31
0.0
  0
LINE
  5
1BE
330
2
100
AcDbEntity
  8
KIJUN
100
AcDbLine
 10
549.8902033259838
 20
62.46239155886797
 30
0.0
 11
550.393757098249
 21
57.593623870258
 31
0.0
  0
ARC
  5
1BF
330
2
100
AcDbEntity
  8
KIJUN
 62
     7
100
AcDbCircle
 10
548.1042681462833
 20
50.99645040673988
 30
0.0
 40
1.0
100
AcDbArc
 50
145.8994153393261
 51
190.5872223195514
  0
ARC
  5
1C0
330
2
100
AcDbEntity
  8
KIJUN
100
AcDbCircle
 10
554.3725336280823
 20
58.00513003747258
 30
0.0
 40
4.0
100
AcDbArc
 50
185.9048387858378
 51
206.3467743017862
  0
ARC
  5
1C1
330
2
100
AcDbEntity
  8
KIJUN
100
AcDbCircle
 10
545.9404903823871
 20
61.83011973189564
 30
0.0
 40
4.0
100
AcDbArc
 50
9.09477127600364
 51
110.2114300576497
  0
ARC
  5
1C2
330
2
100
AcDbEntity
  8
KIJUN
 62
     7
100
AcDbCircle
 10
551.6973875096192
 20
51.10012431916043
 30
0.0
 40
10.0
100
AcDbArc
 50
73.40089598039203
 51
128.3482319940459
  0
ARC
  5
1C3
330
2
100
AcDbEntity
  8
KIJUN
100
AcDbCircle
 10
549.1305427930178
 20
58.48756443787078
 30
0.0
 40
8.332630021683362
100
AcDbArc
 50
77.39682522125777
 51
119.8706527981942
  0
ARC
  5
1C4
330
2
100
AcDbEntity
  8
KIJUN
 62
     7
100
AcDbCircle
 10
544.9040341400643
 20
64.64539209132206
 30
0.0
 40
1.0
100
AcDbArc
 50
110.2114300576497
 51
146.586567038227
  0
ELLIPSE
  5
1C5
330
2
100
AcDbEntity
  8
KIJUN
 62
     7
100
AcDbEllipse
 10
453.5923375321117
 20
85.73420400430268
 30
0.0
 11
0.3795666553083379
 21
1.011738516150022
 31
0.0
210
0.0
220
0.0
230
-0.9999999999999998
 40
0.5694389254659484
 41
0.0
 42
6.283185307179584
  0
ELLIPSE
  5
1C6
330
2
100
AcDbEntity
  8
KIJUN
 62
     7
100
AcDbEllipse
 10
419.6718047327419
 20
79.68857419040887
 30
0.0
 11
-0.0776489392262278
 21
1.402625903806856
 31
0.0
210
0.0
220
0.0
230
1.0
 40
0.5694389254659484
 41
0.0
 42
6.283185307179584
  0
ELLIPSE
  5
1C7
330
2
100
AcDbEntity
  8
KIJUN
 62
     7
100
AcDbEllipse
 10
420.5205062537105
 20
82.76377804865559
 30
0.0
 11
-0.0776489392262278
 21
1.402625903806856
 31
0.0
210
0.0
220
0.0
230
1.0
 40
0.5694389254659484
 41
0.0
 42
6.283185307179584
  0
ELLIPSE
  5
1C8
330
2
100
AcDbEntity
  8
KIJUN
 62
     7
100
AcDbEllipse
 10
418.2404852032453
 20
82.75140782368948
 30
0.0
 11
-0.1009436209940962
 21
1.823413674948914
 31
0.0
210
0.0
220
0.0
230
1.0
 40
0.5694389254659483
 41
0.0
 42
6.283185307179584
  0
ELLIPSE
  5
1C9
330
2
100
AcDbEntity
  8
KIJUN
 62
     7
100
AcDbEllipse
 10
417.416027078891
 20
85.47668747204168
 30
0.0
 11
-0.0776489392262278
 21
1.402625903806856
 31
0.0
210
0.0
220
0.0
230
1.0
 40
0.5694389254659484
 41
0.0
 42
6.283185307179584
  0
ELLIPSE
  5
1CA
330
2
100
AcDbEntity
  8
KIJUN
 62
     7
100
AcDbEllipse
 10
416.4143665431534
 20
83.22484436024687
 30
0.0
 11
-0.0776489392262278
 21
1.402625903806856
 31
0.0
210
0.0
220
0.0
230
1.0
 40
0.5694389254659484
 41
0.0
 42
6.283185307179584
  0
ELLIPSE
  5
1CB
330
2
100
AcDbEntity
  8
KIJUN
 62
     7
100
AcDbEllipse
 10
419.1413661167758
 20
85.62689963166597
 30
0.0
 11
-0.0776489392262278
 21
1.402625903806856
 31
0.0
210
0.0
220
0.0
230
1.0
 40
0.5694389254659484
 41
0.0
 42
6.283185307179584
  0
ELLIPSE
  5
1CC
330
2
100
AcDbEntity
  8
KIJUN
 62
     7
100
AcDbEllipse
 10
398.1136198992798
 20
77.63593067115586
 30
0.0
 11
-0.4934366519008393
 21
1.315260070995029
 31
0.0
210
0.0
220
0.0
230
1.0
 40
0.5694389254659484
 41
0.0
 42
6.283185307179584
  0
ELLIPSE
  5
1CD
330
2
100
AcDbEntity
  8
KIJUN
 62
     7
100
AcDbEllipse
 10
398.1136198992798
 20
80.64924106972148
 30
0.0
 11
-0.4934366519008393
 21
1.315260070995029
 31
0.0
210
0.0
220
0.0
230
1.0
 40
0.5694389254659484
 41
0.0
 42
6.283185307179584
  0
ELLIPSE
  5
1CE
330
2
100
AcDbEntity
  8
KIJUN
 62
     7
100
AcDbEllipse
 10
396.2294797225022
 20
77.54176428046936
 30
0.0
 11
-0.4934366519008393
 21
1.315260070995029
 31
0.0
210
0.0
220
0.0
230
1.0
 40
0.5694389254659484
 41
0.0
 42
6.283185307179584
  0
ELLIPSE
  5
1CF
330
2
100
AcDbEntity
  8
KIJUN
 62
     7
100
AcDbEllipse
 10
396.5121005190887
 20
79.99007935707367
 30
0.0
 11
-0.4934366519008393
 21
1.315260070995029
 31
0.0
210
0.0
220
0.0
230
1.0
 40
0.5694389254659484
 41
0.0
 42
6.283185307179584
  0
ELLIPSE
  5
1D0
330
2
100
AcDbEntity
  8
KIJUN
 62
     7
100
AcDbEllipse
 10
361.7039814838794
 20
85.73420400430268
 30
0.0
 11
-0.3795666553083379
 21
1.011738516150022
 31
0.0
210
0.0
220
0.0
230
0.9999999999999998
 40
0.5694389254659484
 41
0.0
 42
6.283185307179584
  0
ARC
  5
1D1
330
2
100
AcDbEntity
  8
KIJUN
100
AcDbCircle
 10
394.0631758684921
 20
86.7379930730757
 30
0.0
 40
35.16123680898249
100
AcDbArc
 50
297.7495076170812
 51
318.0674349606802
  0
ARC
  5
1D2
330
2
100
AcDbEntity
  8
KIJUN
 62
     7
100
AcDbCircle
 10
410.8354504759512
 20
77.26501701780337
 30
0.0
 40
26.91658708547095
100
AcDbArc
 50
270.2628617763672
 51
317.1009688906606
  0
ARC
  5
1D3
330
2
100
AcDbEntity
  8
KIJUN
 62
     7
100
AcDbCircle
 10
410.8354504759512
 20
77.26501701780337
 30
0.0
 40
21.91658708547095
100
AcDbArc
 50
269.2668704037213
 51
326.5865670382263
  0
ARC
  5
1D4
330
2
100
AcDbEntity
  8
KIJUN
100
AcDbCircle
 10
394.5775115082801
 20
86.75249599411749
 30
0.0
 40
36.75027126811985
100
AcDbArc
 50
301.9972220230836
 51
353.7725436553663
  0
ARC
  5
1D5
330
2
100
AcDbEntity
  8
KIJUN
100
AcDbCircle
 10
396.8577888348683
 20
86.48429903990498
 30
0.0
 40
32.53917399051344
100
AcDbArc
 50
24.7639384989909
 51
54.47351606225413
  0
ARC
  5
1D6
330
2
100
AcDbEntity
  8
KIJUN
100
AcDbCircle
 10
395.9367045187676
 20
85.97579983882168
 30
0.0
 40
31.49529387005474
100
AcDbArc
 50
23.19293799119189
 51
53.91895883140595
  0
ARC
  5
1D7
330
2
100
AcDbEntity
  8
KIJUN
100
AcDbCircle
 10
392.9484727140867
 20
86.42128732061667
 30
0.0
 40
32.19338413982312
100
AcDbArc
 50
31.71382768749603
 51
50.35823226804803
  0
ARC
  5
1D8
330
2
100
AcDbEntity
  8
KIJUN
 62
     7
100
AcDbCircle
 10
364.8865393179038
 20
40.04074944108063
 30
0.0
 40
62.96136316172123
100
AcDbArc
 50
24.1725463051961
 51
43.5183344863011
  0
ARC
  5
1D9
330
2
100
AcDbEntity
  8
KIJUN
 62
     7
100
AcDbCircle
 10
421.3686337190138
 20
77.23098057984072
 30
0.0
 40
11.44864019901663
100
AcDbArc
 50
220.8606139976372
 51
274.8029836430084
  0
ARC
  5
1DA
330
2
100
AcDbEntity
  8
KIJUN
 62
     7
100
AcDbCircle
 10
430.0066716127345
 20
84.88822237740079
 30
0.0
 40
11.17448815346009
100
AcDbArc
 50
117.3405980843197
 51
164.2483907304206
  0
ARC
  5
1DB
330
2
100
AcDbEntity
  8
KIJUN
 62
     7
100
AcDbCircle
 10
415.4555552928802
 20
99.1943737677948
 30
0.0
 40
6.373132043324566
100
AcDbArc
 50
338.2157062990907
 51
55.77988345576015
  0
ARC
  5
1DC
330
2
100
AcDbEntity
  8
KIJUN
 62
     7
100
AcDbCircle
 10
-1328.151154054046
 20
-988.0369271977476
 30
0.0
 40
2045.319384626116
100
AcDbArc
 50
31.4563481043806
 51
31.81575135814596
  0
ARC
  5
1DD
330
2
100
AcDbEntity
  8
KIJUN
 62
     7
100
AcDbCircle
 10
426.9902865726404
 20
79.00613067378619
 30
0.0
 40
17.02259783240156
100
AcDbArc
 50
165.058530136875
 51
212.9756043867213
  0
ARC
  5
1DE
330
2
100
AcDbEntity
  8
KIJUN
 62
     7
100
AcDbCircle
 10
405.817737707118
 20
85.11188949919748
 30
0.0
 40
3.082753420725512
100
AcDbArc
 50
246.8571409121167
 51
27.06782056721814
  0
ARC
  5
1DF
330
2
100
AcDbEntity
  8
KIJUN
 62
     7
100
AcDbCircle
 10
-1234.314239835921
 20
-709.9916442429822
 30
0.0
 40
1828.436817982179
100
AcDbArc
 50
25.58905118947629
 51
25.96917284669214
  0
ARC
  5
1E0
330
2
100
AcDbEntity
  8
KIJUN
 62
     7
100
AcDbCircle
 10
377.5511886797809
 20
80.6750461658405
 30
0.0
 40
24.30664624423594
100
AcDbArc
 50
346.7903062687605
 51
20.17256147828959
  0
ARC
  5
1E1
330
2
100
AcDbEntity
  8
KIJUN
 62
     7
100
AcDbCircle
 10
390.8861006909067
 20
78.64409423576096
 30
0.0
 40
14.08247433575274
100
AcDbArc
 50
343.9216693547463
 51
47.68326866642811
  0
ARC
  5
1E2
330
2
100
AcDbEntity
  8
KIJUN
 62
     7
100
AcDbCircle
 10
371.5746259149117
 20
95.20821592019148
 30
0.0
 40
15.32196142403054
100
AcDbArc
 50
255.176817339985
 51
296.0431766405073
  0
ARC
  5
1E3
330
2
100
AcDbEntity
  8
KIJUN
 62
     7
100
AcDbCircle
 10
379.9256666599883
 20
83.04057398703418
 30
0.0
 40
5.843020034781067
100
AcDbArc
 50
335.0631995609213
 51
30.92367737407544
  0
ARC
  5
1E4
330
2
100
AcDbEntity
  8
KIJUN
 62
     7
100
AcDbCircle
 10
387.3899519508052
 20
84.65995616450598
 30
0.0
 40
5.779843760689687
100
AcDbArc
 50
191.306414945303
 51
229.9946920548705
  0
ARC
  5
1E5
330
2
100
AcDbEntity
  8
KIJUN
 62
     7
100
AcDbCircle
 10
377.5046296220241
 20
86.59828897353071
 30
0.0
 40
5.217539120448133
100
AcDbArc
 50
278.7874244539327
 51
20.68653725412534
  0
ARC
  5
1E6
330
2
100
AcDbEntity
  8
KIJUN
100
AcDbCircle
 10
364.7825879667247
 20
82.98949535517207
 30
0.0
 40
3.331699572601231
100
AcDbArc
 50
209.2725406200333
 51
262.446428076887
  0
ARC
  5
1E7
330
2
100
AcDbEntity
  8
KIJUN
 62
     7
100
AcDbCircle
 10
385.3933162973589
 20
80.71714183957839
 30
0.0
 40
33.16111248613231
100
AcDbArc
 50
167.8566755807787
 51
188.2431110185055
  0
ARC
  5
1E8
330
2
100
AcDbEntity
  8
KIJUN
 62
     7
100
AcDbCircle
 10
341.7119166341384
 20
77.92082174414971
 30
0.0
 40
14.32551414772814
100
AcDbArc
 50
327.8909402021128
 51
20.90194856560628
  0
ARC
  5
1E9
330
2
100
AcDbEntity
  8
KIJUN
100
AcDbCircle
 10
419.7876120065098
 20
85.8661395156035
 30
0.0
 40
33.68824455369994
100
AcDbArc
 50
182.1885188269813
 51
201.1639492850445
  0
ARC
  5
1EA
330
2
100
AcDbEntity
  8
KIJUN
100
AcDbCircle
 10
396.6791665678517
 20
84.67968714761779
 30
0.0
 40
6.030046909847436
100
AcDbArc
 50
179.3101530238581
 51
226.7939664892264
  0
ARC
  5
1EB
330
2
100
AcDbEntity
  8
KIJUN
100
AcDbCircle
 10
396.6791665678517
 20
84.67968714761779
 30
0.0
 40
6.030046909847436
100
AcDbArc
 50
179.3101530238581
 51
226.7939664892264
  0
ARC
  5
1EC
330
2
100
AcDbEntity
  8
KIJUN
100
AcDbCircle
 10
361.2783954757841
 20
81.67309066172256
 30
0.0
 40
4.60352749379198
100
AcDbArc
 50
334.5201578793711
 51
49.9622992711934
  0
ARC
  5
1ED
330
2
100
AcDbEntity
  8
KIJUN
100
AcDbCircle
 10
353.2876533943453
 20
83.7337678086922
 30
0.0
 40
8.910569570254242
100
AcDbArc
 50
298.6082382594446
 51
4.723428992685041
  0
ARC
  5
1EE
330
2
100
AcDbEntity
  8
KIJUN
100
AcDbCircle
 10
365.5448295218202
 20
78.03380978304621
 30
0.0
 40
9.2640702269321
100
AcDbArc
 50
124.5259385317052
 51
189.3319932396006
  0
ARC
  5
1EF
330
2
100
AcDbEntity
  8
KIJUN
100
AcDbCircle
 10
345.9126333282684
 20
37.92036292780941
 30
0.0
 40
29.88167008865158
100
AcDbArc
 50
23.07312194637775
 51
72.07163029939284
  0
LINE
  5
1F0
330
2
100
AcDbEntity
  8
KIJUN
100
AcDbLine
 10
371.1513132799922
 20
59.33285255483665
 30
0.0
 11
375.6818757337155
 21
60.68339473803785
 31
0.0
  0
LINE
  5
1F1
330
2
100
AcDbEntity
  8
KIJUN
100
AcDbLine
 10
379.2872967495617
 20
66.61941701481925
 30
0.0
 11
368.6225713136913
 21
63.49528137670772
 31
0.0
  0
ARC
  5
1F2
330
2
100
AcDbEntity
  8
KIJUN
100
AcDbCircle
 10
375.8634634283092
 20
58.00513003747258
 30
0.0
 40
4.0
100
AcDbArc
 50
204.285224828265
 51
328.1328302030173
  0
LINE
  5
1F3
330
2
100
AcDbEntity
  8
KIJUN
 62
     7
100
AcDbLine
 10
353.8461698292505
 20
70.30634507180559
 30
0.0
 11
351.4510977872572
 21
54.68886028316621
 31
0.0
  0
LINE
  5
1F4
330
2
100
AcDbEntity
  8
KIJUN
100
AcDbLine
 10
357.6886710250128
 20
60.3099641572489
 30
0.0
 11
361.1299453085518
 21
52.63656197045285
 31
0.0
  0
LINE
  5
1F5
330
2
100
AcDbEntity
  8
KIJUN
100
AcDbLine
 10
357.6886710250128
 20
60.3099641572489
 30
0.0
 11
355.2026261202406
 21
56.75934634611236
 31
0.0
  0
LINE
  5
1F6
330
2
100
AcDbEntity
  8
KIJUN
100
AcDbLine
 10
371.1513132799922
 20
59.33285255483665
 30
0.0
 11
372.2174259652796
 21
56.36001277168983
 31
0.0
  0
ARC
  5
1F7
330
2
100
AcDbEntity
  8
KIJUN
100
AcDbCircle
 10
361.5107942218287
 20
65.04362553706193
 30
0.0
 40
9.441344828702114
100
AcDbArc
 50
259.4938800349959
 51
312.8476323036992
  0
ARC
  5
1F8
330
2
100
AcDbEntity
  8
KIJUN
100
AcDbCircle
 10
349.9892192280388
 20
61.9825471618904
 30
0.0
 40
14.84721071513336
100
AcDbArc
 50
270.8461695505093
 51
318.423452785952
  0
ARC
  5
1F9
330
2
100
AcDbEntity
  8
KIJUN
100
AcDbCircle
 10
360.3347326534255
 20
52.53614880580534
 30
0.0
 40
0.8
100
AcDbArc
 50
310.0691087627664
 51
33.33443005145799
  0
LINE
  5
1FA
330
2
100
AcDbEntity
  8
KIJUN
100
AcDbLine
 10
354.940300501697
 20
55.98340227849643
 30
0.0
 11
360.056450576512
 21
51.73003702822956
 31
0.0
  0
ARC
  5
1FB
330
2
100
AcDbEntity
  8
KIJUN
100
AcDbCircle
 10
351.0994735558266
 20
58.97221948388374
 30
0.0
 40
6.590194063383847
100
AcDbArc
 50
262.2298337834848
 51
321.6271377195085
  0
ARC
  5
1FC
330
2
100
AcDbEntity
  8
KIJUN
100
AcDbCircle
 10
359.6535615109786
 20
51.43392826295205
 30
0.0
 40
0.5
100
AcDbArc
 50
312.672643531846
 51
36.31452931248529
  0
ARC
  5
1FD
330
2
100
AcDbEntity
  8
KIJUN
100
AcDbCircle
 10
355.3431895672297
 20
56.27951104377348
 30
0.0
 40
0.5
100
AcDbArc
 50
106.3274727712365
 51
216.3145293124574
  0
ARC
  5
1FE
330
2
100
AcDbEntity
  8
KIJUN
100
AcDbCircle
 10
372.274459479145
 20
51.31977696379367
 30
0.0
 40
8.0
100
AcDbArc
 50
126.7954349452073
 51
128.1072213427381
  0
ARC
  5
1FF
330
2
100
AcDbEntity
  8
KIJUN
 62
     7
100
AcDbCircle
 10
373.317272394197
 20
46.92467716318668
 30
0.0
 40
28.13317122920379
100
AcDbArc
 50
107.3856246809997
 51
130.9649513223871
  0
ARC
  5
200
330
2
100
AcDbEntity
  8
KIJUN
100
AcDbCircle
 10
348.3311625191457
 20
48.3185865929218
 30
0.0
 40
25.33916603654402
100
AcDbArc
 50
25.76452495380895
 51
61.41649241164373
  0
ARC
  5
201
330
2
100
AcDbEntity
  8
KIJUN
100
AcDbCircle
 10
368.7876539673829
 20
70.15937655449903
 30
0.0
 40
8.343326127471575
100
AcDbArc
 50
177.1828976292144
 51
207.7273769846439
  0
ARC
  5
202
330
2
100
AcDbEntity
  8
KIJUN
100
AcDbCircle
 10
295.6782305431553
 20
72.97788674530176
 30
0.0
 40
56.97481193346463
100
AcDbArc
 50
346.6802450646997
 51
3.003015772311544
  0
ARC
  5
203
330
2
100
AcDbEntity
  8
KIJUN
100
AcDbCircle
 10
358.2050937516652
 20
59.15318757686529
 30
0.0
 40
7.834683819911337
100
AcDbArc
 50
63.98984950863236
 51
113.2608224539496
  0
ARC
  5
204
330
2
100
AcDbEntity
  8
KIJUN
100
AcDbCircle
 10
359.8380751587616
 20
69.51728341119639
 30
0.0
 40
9.441344828702114
100
AcDbArc
 50
257.2163889598112
 51
299.641696772259
  0
ARC
  5
205
330
2
100
AcDbEntity
  8
KIJUN
100
AcDbCircle
 10
376.7314534802185
 20
56.51444315891892
 30
0.0
 40
26.15201937286087
100
AcDbArc
 50
124.7142361772638
 51
149.0822662850522
  0
ARC
  5
206
330
2
100
AcDbEntity
  8
KIJUN
100
AcDbCircle
 10
357.1807172155014
 20
76.59582583490517
 30
0.0
 40
0.7800000000000003
100
AcDbArc
 50
184.7234289926858
 51
298.608238259451
  0
ARC
  5
207
330
2
100
AcDbEntity
  8
KIJUN
 62
     7
100
AcDbCircle
 10
362.0795638895004
 20
79.5704238420908
 30
0.0
 40
6.452294569324282
100
AcDbArc
 50
296.0294327492923
 51
350.2068098961306
  0
ARC
  5
208
330
2
100
AcDbEntity
  8
KIJUN
 62
     7
100
AcDbCircle
 10
365.637855351145
 20
71.09467174036416
 30
0.0
 40
7.891685674932648
100
AcDbArc
 50
69.21872739442886
 51
118.7809809638744
  0
ARC
  5
209
330
2
100
AcDbEntity
  8
KIJUN
100
AcDbCircle
 10
364.8874524282645
 20
80.04425282020909
 30
0.0
 40
0.65
100
AcDbArc
 50
213.3718504426782
 51
327.2566597094423
  0
ARC
  5
20A
330
2
100
AcDbEntity
  8
KIJUN
 62
     7
100
AcDbCircle
 10
404.466932004659
 20
77.13710210781151
 30
0.0
 40
21.75094208836032
100
AcDbArc
 50
213.5010018973435
 51
274.7497427649558
  0
ARC
  5
20B
330
2
100
AcDbEntity
  8
KIJUN
 62
     7
100
AcDbCircle
 10
399.5193951790286
 20
64.28886045646554
 30
0.0
 40
12.0950325682984
100
AcDbArc
 50
316.6409422889578
 51
44.47547277356717
  0
ARC
  5
20C
330
2
100
AcDbEntity
  8
KIJUN
 62
     7
100
AcDbCircle
 10
415.9671894622646
 20
64.22414840152095
 30
0.0
 40
12.0950325682984
100
AcDbArc
 50
135.0736815462051
 51
222.8186863841241
  0
ARC
  5
20D
330
2
100
AcDbEntity
  8
KIJUN
100
AcDbCircle
 10
420.9568467597227
 20
58.20622781366695
 30
0.0
 40
10.13773925867792
100
AcDbArc
 50
120.4893836263286
 51
184.733396445927
  0
ARC
  5
20E
330
2
100
AcDbEntity
  8
KIJUN
100
AcDbCircle
 10
407.4641583635099
 20
64.80401311220564
 30
0.0
 40
9.412691509925164
100
AcDbArc
 50
300.0341104503078
 51
12.07992412629424
  0
ARC
  5
20F
330
2
100
AcDbEntity
  8
KIJUN
 62
     7
100
AcDbCircle
 10
416.5925375432482
 20
64.10184539035864
 30
0.0
 40
12.0950325682984
100
AcDbArc
 50
136.8026349331025
 51
221.9934295529301
  0
ARC
  5
210
330
2
100
AcDbEntity
  8
KIJUN
 62
     7
100
AcDbCircle
 10
398.8931040969596
 20
64.17148188324883
 30
0.0
 40
12.0950325682984
100
AcDbArc
 50
317.5557247668437
 51
42.74651938666962
  0
ARC
  5
211
330
2
100
AcDbEntity
  8
KIJUN
100
AcDbCircle
 10
419.7876120065098
 20
85.8661395156035
 30
0.0
 40
33.68824455369994
100
AcDbArc
 50
221.6127125383965
 51
244.7020639977782
  0
ARC
  5
212
330
2
100
AcDbEntity
  8
KIJUN
100
AcDbCircle
 10
418.897905190769
 20
85.79962175910265
 30
0.0
 40
34.93204195274282
100
AcDbArc
 50
189.5444435480339
 51
239.8756820894986
  0
ARC
  5
213
330
2
100
AcDbEntity
  8
KIJUN
 62
     7
100
AcDbCircle
 10
404.5815124592385
 20
77.26501701780337
 30
0.0
 40
26.91658708547095
100
AcDbArc
 50
225.1338782281341
 51
273.353049228349
  0
LINE
  5
214
330
2
100
AcDbEntity
  8
KIJUN
100
AcDbLine
 10
380.3457937304077
 20
62.46239155886797
 30
0.0
 11
379.8422399581427
 21
57.593623870258
 31
0.0
  0
ARC
  5
215
330
2
100
AcDbEntity
  8
KIJUN
 62
     7
100
AcDbCircle
 10
378.0727673288621
 20
51.75512755613567
 30
0.0
 40
5.129256608040996
100
AcDbArc
 50
204.461993633138
 51
349.4127776804488
  0
ARC
  5
216
330
2
100
AcDbEntity
  8
KIJUN
 62
     7
100
AcDbCircle
 10
333.8698007094838
 20
18.3199502648398
 30
0.0
 40
59.28350860377108
100
AcDbArc
 50
34.10058466067297
 51
40.78914563082173
  0
ARC
  5
217
330
2
100
AcDbEntity
  8
KIJUN
100
AcDbCircle
 10
374.485212905279
 20
54.48965911598413
 30
0.0
 40
4.977370729229061
100
AcDbArc
 50
257.4530665361035
 51
30.93716100142513
  0
ARC
  5
218
330
2
100
AcDbEntity
  8
KIJUN
 62
     7
100
AcDbCircle
 10
382.1317289101084
 20
50.99645040673988
 30
0.0
 40
1.0
100
AcDbArc
 50
349.4127776804485
 51
34.10058466067381
  0
ARC
  5
219
330
2
100
AcDbEntity
  8
KIJUN
100
AcDbCircle
 10
375.8634634283092
 20
58.00513003747258
 30
0.0
 40
4.0
100
AcDbArc
 50
333.6532256982136
 51
354.0951612141622
  0
ARC
  5
21A
330
2
100
AcDbEntity
  8
KIJUN
 62
     7
100
AcDbCircle
 10
402.254502220661
 20
51.97408438879103
 30
0.0
 40
7.453819999935451
100
AcDbArc
 50
335.4315111802239
 51
32.37528209429644
  0
ARC
  5
21B
330
2
100
AcDbEntity
  8
KIJUN
 62
     7
100
AcDbCircle
 10
407.5354210652008
 20
45.09502884186828
 30
0.0
 40
10.91751325975307
100
AcDbArc
 50
77.32712524080814
 51
92.17963009110428
  0
ARC
  5
21C
330
2
100
AcDbEntity
  8
KIJUN
 62
     7
100
AcDbCircle
 10
408.2411918847297
 20
52.28879082562396
 30
0.0
 40
4.244052343146267
100
AcDbArc
 50
246.3757993537781
 51
298.9151188749284
  0
ARC
  5
21D
330
2
100
AcDbEntity
  8
KIJUN
 62
     7
100
AcDbCircle
 10
396.6716547037039
 20
52.55695465455922
 30
0.0
 40
9.768613731947532
100
AcDbArc
 50
342.4879546034968
 51
13.1420220360781
  0
ARC
  5
21E
330
2
100
AcDbEntity
  8
KIJUN
 62
     7
100
AcDbCircle
 10
396.5093374361515
 20
52.58764694988174
 30
0.0
 40
11.6097135160504
100
AcDbArc
 50
342.0609761722336
 51
17.14311348180263
  0
ARC
  5
21F
330
2
100
AcDbEntity
  8
KIJUN
 62
     7
100
AcDbCircle
 10
406.9411831594987
 20
49.31661099940277
 30
0.0
 40
1.0
100
AcDbArc
 50
162.4879546034971
 51
246.3757993537781
  0
ARC
  5
220
330
2
100
AcDbEntity
  8
KIJUN
 62
     7
100
AcDbCircle
 10
407.1582327786064
 20
55.00536679038617
 30
0.0
 40
1.0
100
AcDbArc
 50
92.17963009110428
 51
193.1420220360778
  0
ARC
  5
221
330
2
100
AcDbEntity
  8
KIJUN
 62
     7
100
AcDbCircle
 10
403.2160198131458
 20
52.24047243734101
 30
0.0
 40
7.970667218012342
100
AcDbArc
 50
332.6116731692064
 51
21.28554001815806
  0
ARC
  5
222
330
2
100
AcDbEntity
  8
KIJUN
 62
     7
100
AcDbCircle
 10
409.7111681415691
 20
54.77093675363827
 30
0.0
 40
1.0
100
AcDbArc
 50
21.28554001815811
 51
77.32712524080795
  0
ARC
  5
223
330
2
100
AcDbEntity
  8
KIJUN
100
AcDbCircle
 10
411.8284087486394
 20
57.59307100807713
 30
0.0
 40
1.0
100
AcDbArc
 50
192.9090149888766
 51
290.3007253013235
  0
ARC
  5
224
330
2
100
AcDbEntity
  8
KIJUN
 62
     7
100
AcDbCircle
 10
398.8871373732369
 20
90.22482066302359
 30
0.0
 40
20.43820747074422
100
AcDbArc
 50
240.9157506821607
 51
274.416570606317
  0
ARC
  5
225
330
2
100
AcDbEntity
  8
KIJUN
 62
     7
100
AcDbCircle
 10
400.8090909889181
 20
80.15958561722186
 30
0.0
 40
10.31815383835556
100
AcDbArc
 50
205.6964901784458
 51
268.066883409535
  0
ARC
  5
226
330
2
100
AcDbEntity
  8
KIJUN
 62
     7
100
AcDbCircle
 10
397.4276111021127
 20
70.84495757720906
 30
0.0
 40
3.809051265910227
100
AcDbArc
 50
53.23658299865847
 51
124.3267178191937
  0
ARC
  5
227
330
2
100
AcDbEntity
  8
KIJUN
100
AcDbCircle
 10
397.6670293740002
 20
69.8927743643863
 30
0.0
 40
7.095558323661609
100
AcDbArc
 50
226.8476285375028
 51
292.1797184513568
  0
ARC
  5
228
330
2
100
AcDbEntity
  8
KIJUN
100
AcDbCircle
 10
397.6670293740002
 20
69.8927743643863
 30
0.0
 40
7.095558323661609
100
AcDbArc
 50
226.8476285375028
 51
292.1797184513568
  0
ARC
  5
229
330
2
100
AcDbEntity
  8
KIJUN
100
AcDbCircle
 10
419.7876120065098
 20
85.8661395156035
 30
0.0
 40
33.68824455369994
100
AcDbArc
 50
203.6040382016794
 51
217.2561330035331
  0
ARC
  5
22A
330
2
100
AcDbEntity
  8
KIJUN
100
AcDbCircle
 10
381.1054542633737
 20
58.48756443787078
 30
0.0
 40
8.332630021683362
100
AcDbArc
 50
60.12934720180581
 51
102.6031747787422
  0
ARC
  5
22B
330
2
100
AcDbEntity
  8
KIJUN
100
AcDbCircle
 10
384.2955066740045
 20
61.83011973189564
 30
0.0
 40
4.0
100
AcDbArc
 50
66.42272036245365
 51
170.9052287239963
  0
ARC
  5
22C
330
2
100
AcDbEntity
  8
KIJUN
 62
     7
100
AcDbCircle
 10
378.5386095467724
 20
51.10012431916043
 30
0.0
 40
10.0
100
AcDbArc
 50
45.1338782281346
 51
106.5991040196079
  0
ARC
  5
22D
330
2
100
AcDbEntity
  8
KIJUN
 62
     7
100
AcDbCircle
 10
385.4954635397337
 20
64.5796839738055
 30
0.0
 40
1.0
100
AcDbArc
 50
33.50100189734342
 51
66.42272036245365
  0
ARC
  5
22E
330
2
100
AcDbEntity
  8
KIJUN
100
AcDbCircle
 10
397.2927193703921
 20
64.2391371819013
 30
0.0
 40
4.491350286977509
100
AcDbArc
 50
102.7571087160521
 51
175.6872209736699
  0
ARC
  5
22F
330
2
100
AcDbEntity
  8
KIJUN
100
AcDbCircle
 10
397.2927193703911
 20
64.2391371819013
 30
0.0
 40
4.491350286977509
100
AcDbArc
 50
102.7571087160521
 51
175.6872209736699
  0
ARC
  5
230
330
2
100
AcDbEntity
  8
KIJUN
 62
     7
100
AcDbCircle
 10
384.3171884061843
 20
80.99866806119429
 30
0.0
 40
1.0
100
AcDbArc
 50
229.9946920548709
 51
335.0631995609213
  0
ARC
  5
231
330
2
100
AcDbEntity
  8
KIJUN
 62
     7
100
AcDbCircle
 10
390.6237860269847
 20
73.61373942849137
 30
0.0
 40
2.253969588975464
100
AcDbArc
 50
66.80977708833646
 51
178.0261066248901
  0
ARC
  5
232
330
2
100
AcDbEntity
  8
KIJUN
 62
     7
100
AcDbCircle
 10
395.1999857348338
 20
78.84980486373958
 30
0.0
 40
4.8598507102359
100
AcDbArc
 50
220.6239990439574
 51
270.9391872088974
  0
ARC
  5
233
330
2
100
AcDbEntity
  8
KIJUN
 62
     7
100
AcDbCircle
 10
389.2930277070965
 20
73.30388523072331
 30
0.0
 40
1.0
100
AcDbArc
 50
157.2015774397947
 51
250.0741292162746
  0
ARC
  5
234
330
2
100
AcDbEntity
  8
KIJUN
 62
     7
100
AcDbCircle
 10
393.2193482523686
 20
77.71641825196137
 30
0.0
 40
2.653573416584817
100
AcDbArc
 50
104.5913242845021
 51
229.93518136601
  0
ARC
  5
235
330
2
100
AcDbEntity
  8
KIJUN
 62
     7
100
AcDbCircle
 10
400.3662027786901
 20
73.97083619867657
 30
0.0
 40
4.124622422910555
100
AcDbArc
 50
271.317379653311
 51
10.80313634742923
  0
ARC
  5
236
330
2
100
AcDbEntity
  8
KIJUN
 62
     7
100
AcDbCircle
 10
400.9499290907808
 20
65.74941865270621
 30
0.0
 40
2.50124216013918
100
AcDbArc
 50
256.0205666649491
 51
25.92415845249528
  0
ARC
  5
237
330
2
100
AcDbEntity
  8
KIJUN
100
AcDbCircle
 10
416.1860327744427
 20
66.57969430708383
 30
0.0
 40
0.5200000000000001
100
AcDbArc
 50
21.92554198537869
 51
135.810351252138
  0
ARC
  5
238
330
2
100
AcDbEntity
  8
KIJUN
 62
     7
100
AcDbCircle
 10
416.5925375432482
 20
64.10184539035864
 30
0.0
 40
12.0950325682984
100
AcDbArc
 50
119.9568178577932
 51
134.2693692428791
  0
ARC
  5
239
330
2
100
AcDbEntity
  8
KIJUN
 62
     7
100
AcDbCircle
 10
415.9671894622646
 20
64.22414840152095
 30
0.0
 40
12.0950325682984
100
AcDbArc
 50
117.144693358908
 51
132.6139474757917
  0
ARC
  5
23A
330
2
100
AcDbEntity
  8
KIJUN
 62
     7
100
AcDbCircle
 10
399.5193951790286
 20
64.28886045646554
 30
0.0
 40
12.0950325682984
100
AcDbArc
 50
46.93520684397824
 51
65.3623851760433
  0
ARC
  5
23B
330
2
100
AcDbEntity
  8
KIJUN
 62
     7
100
AcDbCircle
 10
402.474790168796
 20
72.02896711400669
 30
0.0
 40
3.338569333970478
100
AcDbArc
 50
54.41105021660329
 51
145.9882149605281
  0
ARC
  5
23C
330
2
100
AcDbEntity
  8
KIJUN
 62
     7
100
AcDbCircle
 10
398.8931040969596
 20
64.17148188324883
 30
0.0
 40
12.0950325682984
100
AcDbArc
 50
45.27978507689129
 51
62.57593223962368
  0
ARC
  5
23D
330
2
100
AcDbEntity
  8
KIJUN
 62
     7
100
AcDbCircle
 10
412.4390848624663
 20
76.7451330609762
 30
0.0
 40
4.874593658389467
100
AcDbArc
 50
342.1879662117865
 51
31.75488344831376
  0
ARC
  5
23E
330
2
100
AcDbEntity
  8
KIJUN
 62
     7
100
AcDbCircle
 10
410.6355933036065
 20
77.16929935022005
 30
0.0
 40
4.874593658389467
100
AcDbArc
 50
3.772630680645579
 51
31.75488344831376
  0
ARC
  5
23F
330
2
100
AcDbEntity
  8
KIJUN
100
AcDbCircle
 10
376.0101856021809
 20
79.00391087031469
 30
0.0
 40
14.8184172077001
100
AcDbArc
 50
99.29268940244774
 51
128.7255277599029
  0
ARC
  5
240
330
2
100
AcDbEntity
  8
KIJUN
 62
     7
100
AcDbCircle
 10
376.1832672388434
 20
88.63501003695487
 30
0.0
 40
3.642868629594856
100
AcDbArc
 50
165.1127307127907
 51
247.2156998806943
  0
ARC
  5
241
330
2
100
AcDbEntity
  8
KIJUN
 62
     7
100
AcDbCircle
 10
380.4499541315887
 20
89.87924398755147
 30
0.0
 40
7.793377082310787
100
AcDbArc
 50
143.828156424361
 51
182.2672803083813
  0
ARC
  5
242
330
2
100
AcDbEntity
  8
KIJUN
 62
     7
100
AcDbCircle
 10
351.8342337619722
 20
107.4698104969571
 30
0.0
 40
10.72766555192126
100
AcDbArc
 50
336.8875430410966
 51
37.35238333673196
  0
ARC
  5
243
330
2
100
AcDbEntity
  8
KIJUN
100
AcDbCircle
 10
345.5876986251244
 20
110.3451958263065
 30
0.0
 40
15.21434815961266
100
AcDbArc
 50
328.2039508688123
 51
13.8159915511175
  0
ARC
  5
244
330
2
100
AcDbEntity
  8
KIJUN
100
AcDbCircle
 10
372.3544675422064
 20
105.5942028504252
 30
0.0
 40
14.63277968485911
100
AcDbArc
 50
145.041909678049
 51
191.5639347408531
  0
ARC
  5
245
330
2
100
AcDbEntity
  8
KIJUN
100
AcDbCircle
 10
360.2402314971854
 20
111.9360646737425
 30
0.0
 40
9.140835925656704
100
AcDbArc
 50
196.2868746280685
 51
255.3978660532505
  0
ARC
  5
246
330
2
100
AcDbEntity
  8
KIJUN
100
AcDbCircle
 10
363.121628388344
 20
91.44453742056489
 30
0.0
 40
7.574678625694242
100
AcDbArc
 50
167.5621826300482
 51
239.4536127961107
  0
ARC
  5
247
330
2
100
AcDbEntity
  8
KIJUN
100
AcDbCircle
 10
355.96912131487
 20
88.15352917550617
 30
0.0
 40
5.574919714008214
100
AcDbArc
 50
356.0740448055375
 51
80.39524235437111
  0
ARC
  5
248
330
2
100
AcDbEntity
  8
KIJUN
100
AcDbCircle
 10
360.8721239150522
 20
91.49026454676516
 30
0.0
 40
5.940379713502826
100
AcDbArc
 50
313.68406443124
 51
21.925541985378
  0
ARC
  5
249
330
2
100
AcDbEntity
  8
KIJUN
100
AcDbCircle
 10
367.6909625561533
 20
88.02675623241336
 30
0.0
 40
6.237149557299089
100
AcDbArc
 50
110.2949565198314
 51
172.7082665679448
  0
ARC
  5
24A
330
2
100
AcDbEntity
  8
KIJUN
100
AcDbCircle
 10
366.4806430789186
 20
95.13742825872849
 30
0.0
 40
5.711903570675795
100
AcDbArc
 50
106.2988804877623
 51
211.8507777879621
  0
ARC
  5
24B
330
2
100
AcDbEntity
  8
KIJUN
100
AcDbCircle
 10
357.9938616107093
 20
98.38248771533148
 30
0.0
 40
7.238192604286783
100
AcDbArc
 50
300.1449754803194
 51
18.00468279539254
  0
ARC
  5
24C
330
2
100
AcDbEntity
  8
KIJUN
 62
     7
100
AcDbCircle
 10
331.8807797123928
 20
75.28381487662987
 30
0.0
 40
24.47276896792706
100
AcDbArc
 50
18.45703303601804
 51
30.46782960036506
  0
ARC
  5
24D
330
2
100
AcDbEntity
  8
KIJUN
100
AcDbCircle
 10
365.7755726974651
 20
80.40033785949118
 30
0.0
 40
7.425474641878534
100
AcDbArc
 50
31.14177066143058
 51
91.78120864335721
  0
ARC
  5
24E
330
2
100
AcDbEntity
  8
KIJUN
100
AcDbCircle
 10
368.1749687892437
 20
88.81506901091031
 30
0.0
 40
6.55642799956824
100
AcDbArc
 50
248.4013986449954
 51
302.0762555874185
  0
ARC
  5
24F
330
2
100
AcDbEntity
  8
KIJUN
100
AcDbCircle
 10
371.5746356258955
 20
83.90432498487291
 30
0.0
 40
0.65
100
AcDbArc
 50
277.2569613946603
 51
31.14177066142937
  0
CIRCLE
  5
250
330
2
100
AcDbEntity
  8
KIJUN
100
AcDbCircle
 10
361.5048895506573
 20
100.7842675554156
 30
0.0
 40
1.642041573286453
  0
CIRCLE
  5
251
330
2
100
AcDbEntity
  8
KIJUN
100
AcDbCircle
 10
358.1589569405033
 20
99.51879057935869
 30
0.0
 40
2.052551966608065
  0
ARC
  5
252
330
2
100
AcDbEntity
  8
KIJUN
100
AcDbCircle
 10
356.4989102139851
 20
92.98090700536128
 30
0.0
 40
0.7800000000000003
100
AcDbArc
 50
59.11474596313277
 51
172.9995552298957
  0
CIRCLE
  5
253
330
2
100
AcDbEntity
  8
KIJUN
100
AcDbCircle
 10
358.6025229943867
 20
95.48011139046078
 30
0.0
 40
1.642041573286453
  0
ARC
  5
254
330
2
100
AcDbEntity
  8
KIJUN
 62
     7
100
AcDbCircle
 10
348.8134255930223
 20
94.16868103285898
 30
0.0
 40
21.51072133890428
100
AcDbArc
 50
355.9943495768485
 51
13.07558574061585
  0
ARC
  5
255
330
2
100
AcDbEntity
  8
KIJUN
100
AcDbCircle
 10
349.6955521390564
 20
103.2653035988742
 30
0.0
 40
17.40829032314371
100
AcDbArc
 50
326.7027085363614
 51
351.0508958326263
  0
ARC
  5
256
330
2
100
AcDbEntity
  8
KIJUN
100
AcDbCircle
 10
356.4729289772989
 20
97.94024576887188
 30
0.0
 40
10.74987677909674
100
AcDbArc
 50
337.0042946743571
 51
353.2409614196966
  0
ARC
  5
257
330
2
100
AcDbEntity
  8
KIJUN
100
AcDbCircle
 10
365.9004469504876
 20
93.51424174274908
 30
0.0
 40
0.5200000000000001
100
AcDbArc
 50
21.92554198537869
 51
135.810351252138
  0
ARC
  5
258
330
2
100
AcDbEntity
  8
KIJUN
100
AcDbCircle
 10
367.8797567169585
 20
100.4017644442577
 30
0.0
 40
1.0
100
AcDbArc
 50
28.66249457700883
 51
171.0508958326288
  0
LINE
  5
259
330
2
100
AcDbEntity
  8
KIJUN
100
AcDbLine
 10
368.7572170437138
 20
100.8814136650128
 30
0.0
 11
369.7664267808256
 21
99.03518632350747
 31
0.0
  0
ARC
  5
25A
330
2
100
AcDbEntity
  8
KIJUN
100
AcDbCircle
 10
350.1211404066847
 20
111.8402983119991
 30
0.0
 40
2.052551966608065
100
AcDbArc
 50
271.5963548200861
 51
88.40364517991385
  0
ARC
  5
25B
330
2
100
AcDbEntity
  8
KIJUN
100
AcDbCircle
 10
349.7959747761275
 20
100.4789518288567
 30
0.0
 40
9.049074254857703
100
AcDbArc
 50
28.57397602333593
 51
79.36355699435965
  0
CIRCLE
  5
25C
330
2
100
AcDbEntity
  8
KIJUN
100
AcDbCircle
 10
354.2632610289941
 20
111.8402983119991
 30
0.0
 40
1.642041573286453
  0
ARC
  5
25D
330
2
100
AcDbEntity
  8
KIJUN
 62
     7
100
AcDbCircle
 10
418.9121553979632
 20
101.3025639317049
 30
0.0
 40
3.164214581028633
100
AcDbArc
 50
87.69100532143623
 51
158.7495115217718
  0
ARC
  5
25E
330
2
100
AcDbEntity
  8
KIJUN
 62
     7
100
AcDbCircle
 10
388.4686751992181
 20
94.41351055951088
 30
0.0
 40
10.09970628131857
100
AcDbArc
 50
339.3169612961803
 51
66.17967591867828
  0
ARC
  5
25F
330
2
100
AcDbEntity
  8
KIJUN
 62
     7
100
AcDbCircle
 10
402.8917977594395
 20
103.5587217549173
 30
0.0
 40
3.15041358644382
100
AcDbArc
 50
116.2722552823729
 51
210.5393909124962
  0
ARC
  5
260
330
2
100
AcDbEntity
  8
KIJUN
 62
     7
100
AcDbCircle
 10
397.7875234860496
 20
99.28294513910978
 30
0.0
 40
8.011443473586092
100
AcDbArc
 50
352.8474445929134
 51
62.41521451826717
  0
ARC
  5
261
330
2
100
AcDbEntity
  8
KIJUN
 62
     7
100
AcDbCircle
 10
410.3447619654564
 20
104.5522472301056
 30
0.0
 40
2.107254197421843
100
AcDbArc
 50
315.9798256534241
 51
66.03659511183534
  0
ARC
  5
262
330
2
100
AcDbEntity
  8
KIJUN
 62
     7
100
AcDbCircle
 10
413.7030834061075
 20
100.516975091264
 30
0.0
 40
6.464866895955521
100
AcDbArc
 50
112.7732471754502
 51
194.0766784763443
  0
ARC
  5
263
330
2
100
AcDbEntity
  8
KIJUN
100
AcDbCircle
 10
417.5827333286698
 20
85.97579983882168
 30
0.0
 40
31.49529387005474
100
AcDbArc
 50
126.081041168594
 51
164.9551442685137
  0
ARC
  5
264
330
2
100
AcDbEntity
  8
KIJUN
100
AcDbCircle
 10
416.6616490125822
 20
86.48429903990498
 30
0.0
 40
32.53917399051344
100
AcDbArc
 50
125.5264839377459
 51
158.6697307009395
  0
ARC
  5
265
330
2
100
AcDbEntity
  8
KIJUN
100
AcDbCircle
 10
420.5709651333505
 20
86.42128732061667
 30
0.0
 40
32.19338413982312
100
AcDbArc
 50
129.6417677319519
 51
148.2861723125039
  0
ARC
  5
266
330
2
100
AcDbEntity
  8
KIJUN
 62
     7
100
AcDbCircle
 10
395.5905101077811
 20
76.87759191405532
 30
0.0
 40
13.08262576994006
100
AcDbArc
 50
68.58698482327354
 51
105.0582419608256
  0
ARC
  5
267
330
2
100
AcDbEntity
  8
KIJUN
 62
     7
100
AcDbCircle
 10
390.1650023698262
 20
82.25588109921938
 30
0.0
 40
7.532850241068977
100
AcDbArc
 50
26.92715185421623
 51
74.39290428602863
  0
ARC
  5
268
330
2
100
AcDbEntity
  8
KIJUN
 62
     7
100
AcDbCircle
 10
439.8681653289904
 20
105.0949700515833
 30
0.0
 40
46.72319414548971
100
AcDbArc
 50
185.936075977208
 51
196.1861336630976
  0
ARC
  5
269
330
2
100
AcDbEntity
  8
KIJUN
 62
     7
100
AcDbCircle
 10
402.357788886798
 20
97.60565491041859
 30
0.0
 40
11.52423598506685
100
AcDbArc
 50
148.3492252031041
 51
216.0277792399558
  0
ARC
  5
26A
330
2
100
AcDbEntity
  8
KIJUN
 62
     7
100
AcDbCircle
 10
385.6635140116361
 20
90.74759770567338
 30
0.0
 40
5.145340899247573
100
AcDbArc
 50
320.678851147616
 51
48.37860566955622
  0
ARC
  5
26B
330
2
100
AcDbEntity
  8
KIJUN
 62
     7
100
AcDbCircle
 10
389.7732996623945
 20
87.24345844716149
 30
0.0
 40
7.383061893553231
100
AcDbArc
 50
95.37984989123717
 51
139.4104971782378
  0
ARC
  5
26C
330
2
100
AcDbEntity
  8
KIJUN
 62
     7
100
AcDbCircle
 10
381.9138159980056
 20
96.14203515140481
 30
0.0
 40
4.926879261771878
100
AcDbArc
 50
160.6246660695255
 51
248.2959839862134
  0
CIRCLE
  5
26D
330
2
100
AcDbEntity
  8
KIJUN
100
AcDbCircle
 10
382.2544253756774
 20
90.74894857852898
 30
0.0
 40
2.311273173894323
  0
ARC
  5
26E
330
2
100
AcDbEntity
  8
KIJUN
 62
     7
100
AcDbCircle
 10
381.8811353807588
 20
76.62407514962288
 30
0.0
 40
14.12980519338203
100
AcDbArc
 50
61.39095098497115
 51
79.10355037460587
  0
ARC
  5
26F
330
2
100
AcDbEntity
  8
KIJUN
 62
     7
100
AcDbCircle
 10
390.9182261439742
 20
89.5916844154547
 30
0.0
 40
6.935812512827626
100
AcDbArc
 50
195.8955582390186
 51
251.6305398638178
  0
ARC
  5
270
330
2
100
AcDbEntity
  8
KIJUN
 62
     7
100
AcDbCircle
 10
374.3770349347919
 20
91.55139500609488
 30
0.0
 40
6.287448437110077
100
AcDbArc
 50
273.6063187948935
 51
340.8530411349454
  0
ARC
  5
271
330
2
100
AcDbEntity
  8
KIJUN
 62
     7
100
AcDbCircle
 10
379.6522624808771
 20
84.67459507029579
 30
0.0
 40
3.503385593756436
100
AcDbArc
 50
165.4834812180907
 51
247.3252185383799
  0
ARC
  5
272
330
2
100
AcDbEntity
  8
KIJUN
 62
     7
100
AcDbCircle
 10
383.3086419726684
 20
84.48278220102777
 30
0.0
 40
7.011624041737278
100
AcDbArc
 50
356.6990473698658
 51
40.41695467788285
  0
ARC
  5
273
330
2
100
AcDbEntity
  8
KIJUN
100
AcDbCircle
 10
395.2220419689901
 20
86.19604570715758
 30
0.0
 40
4.491350286977509
100
AcDbArc
 50
132.4324878708591
 51
186.6268727515626
  0
ARC
  5
274
330
2
100
AcDbEntity
  8
KIJUN
100
AcDbCircle
 10
395.2220419689891
 20
86.19604570715758
 30
0.0
 40
4.491350286977509
100
AcDbArc
 50
132.4324878708591
 51
186.6268727515626
  0
ARC
  5
275
330
2
100
AcDbEntity
  8
KIJUN
 62
     7
100
AcDbCircle
 10
389.110623712924
 20
84.1481452511268
 30
0.0
 40
1.199999999999999
100
AcDbArc
 50
251.6305398638178
 51
356.6990473698658
  0
ARC
  5
276
330
2
100
AcDbEntity
  8
KIJUN
100
AcDbCircle
 10
388.7740620242274
 20
85.44692410141911
 30
0.0
 40
2.0
100
AcDbArc
 50
339.6766303201502
 51
6.626872751562651
  0
ARC
  5
277
330
2
100
AcDbEntity
  8
KIJUN
100
AcDbCircle
 10
388.7740620242266
 20
85.44692410141911
 30
0.0
 40
2.0
100
AcDbArc
 50
339.6766303201502
 51
6.626872751562651
  0
ARC
  5
278
330
2
100
AcDbEntity
  8
KIJUN
100
AcDbCircle
 10
384.7949127662522
 20
96.11479851756651
 30
0.0
 40
2.699369174805541
100
AcDbArc
 50
36.27315379726939
 51
127.5854936087776
  0
ARC
  5
279
330
2
100
AcDbEntity
  8
KIJUN
 62
     7
100
AcDbCircle
 10
374.0469641441399
 20
93.88551698743489
 30
0.0
 40
8.647140916948393
100
AcDbArc
 50
354.2947562734628
 51
37.882822181117
  0
ARC
  5
27A
330
2
100
AcDbEntity
  8
KIJUN
 62
     7
100
AcDbCircle
 10
379.9432479504916
 20
96.26369070349689
 30
0.0
 40
3.075155137534324
100
AcDbArc
 50
72.42354509348231
 51
150.5303372407084
  0
ARC
  5
27B
330
2
100
AcDbEntity
  8
KIJUN
 62
     7
100
AcDbCircle
 10
375.283441483273
 20
91.30350409443598
 30
0.0
 40
3.368752498848853
100
AcDbArc
 50
46.2062530435983
 51
109.5032807582723
  0
ARC
  5
27C
330
2
100
AcDbEntity
  8
KIJUN
100
AcDbCircle
 10
389.3652886033584
 20
94.19328723058738
 30
0.0
 40
7.425474641878534
100
AcDbArc
 50
146.8489183700834
 51
162.1273690154183
  0
ARC
  5
27D
330
2
100
AcDbEntity
  8
KIJUN
100
AcDbCircle
 10
379.6793307355327
 20
96.30937533734453
 30
0.0
 40
7.425474641878534
100
AcDbArc
 50
341.6230239276767
 51
10.88697486743443
  0
ARC
  5
27E
330
2
100
AcDbEntity
  8
KIJUN
 62
     7
100
AcDbCircle
 10
414.8910840144109
 20
94.74089678366558
 30
0.0
 40
6.758782251179535
100
AcDbArc
 50
117.5416227894892
 51
217.1633912084963
  0
ARC
  5
27F
330
2
100
AcDbEntity
  8
KIJUN
 62
     7
100
AcDbCircle
 10
417.7399226534309
 20
107.6625866576665
 30
0.0
 40
20.13258317879999
100
AcDbArc
 50
205.2797536835077
 51
219.7046368193189
  0
ARC
  5
280
330
2
100
AcDbEntity
  8
KIJUN
 62
     7
100
AcDbCircle
 10
402.894385850392
 20
96.46171246366501
 30
0.0
 40
4.249843017014423
100
AcDbArc
 50
142.2216656949767
 51
219.90604657892
  0
ARC
  5
281
330
2
100
AcDbEntity
  8
KIJUN
 62
     7
100
AcDbCircle
 10
401.5916179324976
 20
100.0486289874443
 30
0.0
 40
2.375389354257883
100
AcDbArc
 50
126.5081844671497
 51
258.5599878393312
  0
ARC
  5
282
330
2
100
AcDbEntity
  8
KIJUN
 62
     7
100
AcDbCircle
 10
400.317065040954
 20
95.8039052301124
 30
0.0
 40
2.178349012635354
100
AcDbArc
 50
251.7349640584884
 51
332.5957760650892
  0
ARC
  5
283
330
2
100
AcDbEntity
  8
KIJUN
 62
     7
100
AcDbCircle
 10
406.5770415217555
 20
97.5715103921528
 30
0.0
 40
10.57789954994838
100
AcDbArc
 50
347.8471027114687
 51
27.4608028258838
  0
ARC
  5
284
330
2
100
AcDbEntity
  8
KIJUN
 62
     7
100
AcDbCircle
 10
422.9973674791364
 20
96.77833104784667
 30
0.0
 40
11.90763513828726
100
AcDbArc
 50
160.5992016300101
 51
193.1361113012046
  0
ARC
  5
285
330
2
100
AcDbEntity
  8
KIJUN
 62
     7
100
AcDbCircle
 10
415.7532340496415
 20
96.97095709096659
 30
0.0
 40
5.482481653967433
100
AcDbArc
 50
87.80629828058726
 51
136.6598152508439
  0
ARC
  5
286
330
2
100
AcDbEntity
  8
KIJUN
100
AcDbCircle
 10
408.3540800747298
 20
103.637373440055
 30
0.0
 40
11.91462043033478
100
AcDbArc
 50
51.53366201182079
 51
96.2337751136455
  0
ARC
  5
287
330
2
100
AcDbEntity
  8
KIJUN
100
AcDbCircle
 10
405.676831353872
 20
102.1260513846321
 30
0.0
 40
13.42695975091153
100
AcDbArc
 50
84.08582615168944
 51
126.1628928906881
  0
ARC
  5
288
330
2
100
AcDbEntity
  8
KIJUN
100
AcDbCircle
 10
406.1731867057456
 20
102.1573002341793
 30
0.0
 40
12.45267310292941
100
AcDbArc
 50
48.1265251530258
 51
88.68432160616345
  0
ARC
  5
289
330
2
100
AcDbEntity
  8
KIJUN
100
AcDbCircle
 10
406.6046722808243
 20
103.4512894849642
 30
0.0
 40
10.37287278657123
100
AcDbArc
 50
48.43034426008443
 51
89.14354978821313
  0
ARC
  5
28A
330
2
100
AcDbEntity
  8
KIJUN
100
AcDbCircle
 10
406.6046722808237
 20
103.4512894849644
 30
0.0
 40
10.37287278657096
100
AcDbArc
 50
48.43034426008476
 51
89.14354978821313
  0
ARC
  5
28B
330
2
100
AcDbEntity
  8
KIJUN
 62
     7
100
AcDbCircle
 10
403.685458801942
 20
106.4624357629226
 30
0.0
 40
5.387008624852465
100
AcDbArc
 50
340.9502535997798
 51
53.799345883978
  0
ARC
  5
28C
330
2
100
AcDbEntity
  8
KIJUN
 62
     7
100
AcDbCircle
 10
415.4648694315545
 20
103.180933624549
 30
0.0
 40
11.49419771041825
100
AcDbArc
 50
138.4182032167606
 51
174.3671760864143
  0
ARC
  5
28D
330
2
100
AcDbEntity
  8
KIJUN
100
AcDbCircle
 10
406.9147655666135
 20
103.4512894849644
 30
0.0
 40
10.37287278657096
100
AcDbArc
 50
90.8564502117869
 51
131.569655739915
  0
ARC
  5
28E
330
2
100
AcDbEntity
  8
KIJUN
100
AcDbCircle
 10
406.9147655666129
 20
103.4512894849642
 30
0.0
 40
10.37287278657123
100
AcDbArc
 50
90.8564502117869
 51
131.5696557399155
  0
ARC
  5
28F
330
2
100
AcDbEntity
  8
KIJUN
100
AcDbCircle
 10
407.3462511416915
 20
102.1573002341793
 30
0.0
 40
12.45267310292941
100
AcDbArc
 50
91.31567839383654
 51
131.8734748469742
  0
ARC
  5
290
330
2
100
AcDbEntity
  8
KIJUN
100
AcDbCircle
 10
450.5137310492663
 20
82.98949535517207
 30
0.0
 40
3.331699572601231
100
AcDbArc
 50
277.553571923113
 51
330.7274593799665
  0
ARC
  5
291
330
2
100
AcDbEntity
  8
KIJUN
 62
     7
100
AcDbCircle
 10
429.9030027186323
 20
80.71714183957839
 30
0.0
 40
33.16111248613231
100
AcDbArc
 50
351.7568889814945
 51
12.14332441922123
  0
ARC
  5
292
330
2
100
AcDbEntity
  8
KIJUN
 62
     7
100
AcDbCircle
 10
473.5844023818525
 20
77.92082174414971
 30
0.0
 40
14.32551414772814
100
AcDbArc
 50
159.0980514343937
 51
212.109059797887
  0
ARC
  5
293
330
2
100
AcDbEntity
  8
KIJUN
100
AcDbCircle
 10
462.0086656216456
 20
83.7337678086922
 30
0.0
 40
8.910569570254242
100
AcDbArc
 50
175.2765710073148
 51
241.3917617405551
  0
ARC
  5
294
330
2
100
AcDbEntity
  8
KIJUN
100
AcDbCircle
 10
449.7514894941708
 20
78.03380978304621
 30
0.0
 40
9.2640702269321
100
AcDbArc
 50
350.6680067603991
 51
55.47406146829472
  0
ARC
  5
295
330
2
100
AcDbEntity
  8
KIJUN
100
AcDbCircle
 10
454.017923540207
 20
81.67309066172256
 30
0.0
 40
4.60352749379198
100
AcDbArc
 50
130.0377007288064
 51
205.4798421206288
  0
ARC
  5
296
330
2
100
AcDbEntity
  8
KIJUN
100
AcDbCircle
 10
394.0631758684921
 20
86.7379930730757
 30
0.0
 40
35.16123680898249
100
AcDbArc
 50
323.4984878890281
 51
354.1436087823401
  0
ARC
  5
297
330
2
100
AcDbEntity
  8
KIJUN
 62
     7
100
AcDbCircle
 10
424.8289881554396
 20
87.08572166153469
 30
0.0
 40
6.102639829650275
100
AcDbArc
 50
234.2093670558082
 51
297.3505341955272
  0
LINE
  5
298
330
2
100
AcDbEntity
  8
KIJUN
100
AcDbLine
 10
434.9505252855832
 20
62.46239155886797
 30
0.0
 11
435.4540790578484
 21
57.593623870258
 31
0.0
  0
LINE
  5
299
330
2
100
AcDbEntity
  8
KIJUN
100
AcDbLine
 10
444.1450057359988
 20
59.33285255483665
 30
0.0
 11
443.0788930507114
 21
56.36001277168983
 31
0.0
  0
LINE
  5
29A
330
2
100
AcDbEntity
  8
KIJUN
100
AcDbLine
 10
434.9505252855832
 20
62.46239155886797
 30
0.0
 11
435.4540790578484
 21
57.593623870258
 31
0.0
  0
ARC
  5
29B
330
2
100
AcDbEntity
  8
KIJUN
100
AcDbCircle
 10
469.3836856877226
 20
37.92036292780941
 30
0.0
 40
29.88167008865158
100
AcDbArc
 50
107.9283697006071
 51
156.9268780536221
  0
LINE
  5
29C
330
2
100
AcDbEntity
  8
KIJUN
 62
     7
100
AcDbLine
 10
461.4501491867406
 20
70.30634507180559
 30
0.0
 11
463.8452212287337
 21
54.68886028316621
 31
0.0
  0
LINE
  5
29D
330
2
100
AcDbEntity
  8
KIJUN
100
AcDbLine
 10
457.6076479909783
 20
60.3099641572489
 30
0.0
 11
454.1663737074391
 21
52.63656197045285
 31
0.0
  0
LINE
  5
29E
330
2
100
AcDbEntity
  8
KIJUN
100
AcDbLine
 10
457.6076479909783
 20
60.3099641572489
 30
0.0
 11
460.0936928957505
 21
56.75934634611236
 31
0.0
  0
ARC
  5
29F
330
2
100
AcDbEntity
  8
KIJUN
100
AcDbCircle
 10
453.7855247941625
 20
65.04362553706193
 30
0.0
 40
9.441344828702114
100
AcDbArc
 50
227.1523676963008
 51
280.5061199650041
  0
ARC
  5
2A0
330
2
100
AcDbEntity
  8
KIJUN
 62
     7
100
AcDbCircle
 10
437.2235516871291
 20
51.75512755613567
 30
0.0
 40
5.129256608040996
100
AcDbArc
 50
190.5872223195512
 51
335.5380063668617
  0
ARC
  5
2A1
330
2
100
AcDbEntity
  8
KIJUN
 62
     7
100
AcDbCircle
 10
433.1645901058825
 20
50.99645040673988
 30
0.0
 40
1.0
100
AcDbArc
 50
145.8994153393261
 51
190.5872223195514
  0
ARC
  5
2A2
330
2
100
AcDbEntity
  8
KIJUN
 62
     7
100
AcDbCircle
 10
433.1645901058825
 20
50.99645040673988
 30
0.0
 40
1.0
100
AcDbArc
 50
145.8994153393261
 51
190.5872223195514
  0
ARC
  5
2A3
330
2
100
AcDbEntity
  8
KIJUN
 62
     7
100
AcDbCircle
 10
481.4265183065074
 20
18.3199502648398
 30
0.0
 40
59.28350860377108
100
AcDbArc
 50
139.2108543691782
 51
145.899415339327
  0
ARC
  5
2A4
330
2
100
AcDbEntity
  8
KIJUN
100
AcDbCircle
 10
440.8111061107121
 20
54.48965911598413
 30
0.0
 40
4.977370729229061
100
AcDbArc
 50
149.0628389985749
 51
282.5469334638965
  0
ARC
  5
2A5
330
2
100
AcDbEntity
  8
KIJUN
100
AcDbCircle
 10
439.4328555876819
 20
58.00513003747258
 30
0.0
 40
4.0
100
AcDbArc
 50
211.8671697969827
 51
335.7147751717346
  0
ARC
  5
2A6
330
2
100
AcDbEntity
  8
KIJUN
100
AcDbCircle
 10
439.4328555876819
 20
58.00513003747258
 30
0.0
 40
4.0
100
AcDbArc
 50
185.9048387858378
 51
206.3467743017862
  0
ARC
  5
2A7
330
2
100
AcDbEntity
  8
KIJUN
100
AcDbCircle
 10
439.4328555876819
 20
58.00513003747258
 30
0.0
 40
4.0
100
AcDbArc
 50
185.9048387858378
 51
206.3467743017862
  0
ARC
  5
2A8
330
2
100
AcDbEntity
  8
KIJUN
100
AcDbCircle
 10
465.307099787952
 20
61.9825471618904
 30
0.0
 40
14.84721071513336
100
AcDbArc
 50
221.5765472140479
 51
269.1538304494907
  0
LINE
  5
2A9
330
2
100
AcDbEntity
  8
KIJUN
100
AcDbLine
 10
460.3560185142939
 20
55.98340227849643
 30
0.0
 11
455.2398684394789
 21
51.73003702822956
 31
0.0
  0
ARC
  5
2AA
330
2
100
AcDbEntity
  8
KIJUN
100
AcDbCircle
 10
454.9615863625655
 20
52.53614880580534
 30
0.0
 40
0.8
100
AcDbArc
 50
146.6655699485419
 51
229.9308912372337
  0
ARC
  5
2AB
330
2
100
AcDbEntity
  8
KIJUN
100
AcDbCircle
 10
455.6427575050125
 20
51.43392826295205
 30
0.0
 40
0.5
100
AcDbArc
 50
143.6854706875147
 51
227.327356468154
  0
ARC
  5
2AC
330
2
100
AcDbEntity
  8
KIJUN
100
AcDbCircle
 10
443.021859536846
 20
51.31977696379367
 30
0.0
 40
8.0
100
AcDbArc
 50
51.89277865726193
 51
53.20456505479267
  0
ARC
  5
2AD
330
2
100
AcDbEntity
  8
KIJUN
100
AcDbCircle
 10
464.1968454601645
 20
58.97221948388374
 30
0.0
 40
6.590194063383847
100
AcDbArc
 50
218.3728622804912
 51
277.7701662165152
  0
ARC
  5
2AE
330
2
100
AcDbEntity
  8
KIJUN
100
AcDbCircle
 10
459.9531294487614
 20
56.27951104377348
 30
0.0
 40
0.5
100
AcDbArc
 50
323.6854706875428
 51
73.67252722876331
  0
LINE
  5
2AF
330
2
100
AcDbEntity
  8
KIJUN
100
AcDbLine
 10
436.0090222664293
 20
66.61941701481925
 30
0.0
 11
446.6737477022997
 21
63.49528137670772
 31
0.0
  0
ARC
  5
2B0
330
2
100
AcDbEntity
  8
KIJUN
100
AcDbCircle
 10
466.9651564968453
 20
48.3185865929218
 30
0.0
 40
25.33916603654402
100
AcDbArc
 50
118.5835075883563
 51
154.2354750461908
  0
LINE
  5
2B1
330
2
100
AcDbEntity
  8
KIJUN
100
AcDbLine
 10
444.1450057359988
 20
59.33285255483665
 30
0.0
 11
439.6144432822755
 21
60.68339473803785
 31
0.0
  0
ARC
  5
2B2
330
2
100
AcDbEntity
  8
KIJUN
 62
     7
100
AcDbCircle
 10
417.5442151964591
 20
70.35365752989358
 30
0.0
 40
6.588489308614686
100
AcDbArc
 50
316.549152037017
 51
27.4819608429126
  0
ARC
  5
2B3
330
2
100
AcDbEntity
  8
KIJUN
 62
     7
100
AcDbCircle
 10
436.7577094692187
 20
51.10012431916043
 30
0.0
 40
10.0
100
AcDbArc
 50
73.40089598039203
 51
128.3482319940459
  0
ARC
  5
2B4
330
2
100
AcDbEntity
  8
KIJUN
100
AcDbCircle
 10
431.0008123419865
 20
61.83011973189564
 30
0.0
 40
4.0
100
AcDbArc
 50
9.09477127600364
 51
110.2114300576497
  0
ARC
  5
2B5
330
2
100
AcDbEntity
  8
KIJUN
100
AcDbCircle
 10
434.1908647526174
 20
58.48756443787078
 30
0.0
 40
8.332630021683362
100
AcDbArc
 50
77.39682522125777
 51
119.8706527981942
  0
ARC
  5
2B6
330
2
100
AcDbEntity
  8
KIJUN
 62
     7
100
AcDbCircle
 10
429.9643560996639
 20
64.64539209132206
 30
0.0
 40
1.0
100
AcDbArc
 50
110.2114300576497
 51
146.586567038227
  0
ARC
  5
2B7
330
2
100
AcDbEntity
  8
KIJUN
 62
     7
100
AcDbCircle
 10
419.3790335398669
 20
76.4388302223853
 30
0.0
 40
5.035120314473187
100
AcDbArc
 50
322.7920320435779
 51
42.84152647181573
  0
ARC
  5
2B8
330
2
100
AcDbEntity
  8
KIJUN
 62
     7
100
AcDbCircle
 10
441.9790466217941
 20
46.92467716318668
 30
0.0
 40
28.13317122920379
100
AcDbArc
 50
49.03504867761288
 51
72.61437531900026
  0
ARC
  5
2B9
330
2
100
AcDbEntity
  8
KIJUN
100
AcDbCircle
 10
446.5086650486082
 20
70.15937655449903
 30
0.0
 40
8.343326127471575
100
AcDbArc
 50
332.272623015356
 51
2.817102370785645
  0
ARC
  5
2BA
330
2
100
AcDbEntity
  8
KIJUN
100
AcDbCircle
 10
519.6180884728356
 20
72.97788674530176
 30
0.0
 40
56.97481193346463
100
AcDbArc
 50
176.9969842276883
 51
193.3197549353
  0
ARC
  5
2BB
330
2
100
AcDbEntity
  8
KIJUN
100
AcDbCircle
 10
457.0912252643259
 20
59.15318757686529
 30
0.0
 40
7.834683819911337
100
AcDbArc
 50
66.73917754605037
 51
116.0101504913676
  0
ARC
  5
2BC
330
2
100
AcDbEntity
  8
KIJUN
100
AcDbCircle
 10
455.4582438572295
 20
69.51728341119639
 30
0.0
 40
9.441344828702114
100
AcDbArc
 50
240.358303227741
 51
282.7836110401888
  0
ARC
  5
2BD
330
2
100
AcDbEntity
  8
KIJUN
100
AcDbCircle
 10
438.5648655357726
 20
56.51444315891892
 30
0.0
 40
26.15201937286087
100
AcDbArc
 50
30.91773371494773
 51
55.2857638227362
  0
ARC
  5
2BE
330
2
100
AcDbEntity
  8
KIJUN
 62
     7
100
AcDbCircle
 10
453.2167551264908
 20
79.5704238420908
 30
0.0
 40
6.452294569324282
100
AcDbArc
 50
189.7931901038693
 51
243.9705672507075
  0
ARC
  5
2BF
330
2
100
AcDbEntity
  8
KIJUN
100
AcDbCircle
 10
450.4088665877266
 20
80.04425282020909
 30
0.0
 40
0.65
100
AcDbArc
 50
212.7433402905576
 51
326.6281495573217
  0
ARC
  5
2C0
330
2
100
AcDbEntity
  8
KIJUN
 62
     7
100
AcDbCircle
 10
449.6584636648461
 20
71.09467174036416
 30
0.0
 40
7.891685674932648
100
AcDbArc
 50
61.21901903612558
 51
110.7812726055711
  0
ARC
  5
2C1
330
2
100
AcDbEntity
  8
KIJUN
100
AcDbCircle
 10
458.1156018004897
 20
76.59582583490517
 30
0.0
 40
0.7800000000000003
100
AcDbArc
 50
241.3917617405491
 51
355.276571007314
  0
ARC
  5
2C2
330
2
100
AcDbEntity
  8
KIJUN
 62
     7
100
AcDbCircle
 10
463.4620852540189
 20
107.4698104969571
 30
0.0
 40
10.72766555192126
100
AcDbArc
 50
142.647616663268
 51
203.1124569589033
  0
ARC
  5
2C3
330
2
100
AcDbEntity
  8
KIJUN
100
AcDbCircle
 10
469.7086203908668
 20
110.3451958263065
 30
0.0
 40
15.21434815961266
100
AcDbArc
 50
166.1840084488825
 51
211.7960491311875
  0
ARC
  5
2C4
330
2
100
AcDbEntity
  8
KIJUN
100
AcDbCircle
 10
442.9418514737846
 20
105.5942028504252
 30
0.0
 40
14.63277968485911
100
AcDbArc
 50
348.4360652591468
 51
34.95809032195094
  0
ARC
  5
2C5
330
2
100
AcDbEntity
  8
KIJUN
100
AcDbCircle
 10
455.0560875188058
 20
111.9360646737425
 30
0.0
 40
9.140835925656704
100
AcDbArc
 50
284.6021339467494
 51
343.7131253719314
  0
ARC
  5
2C6
330
2
100
AcDbEntity
  8
KIJUN
100
AcDbCircle
 10
449.5207463185262
 20
80.40033785949118
 30
0.0
 40
7.425474641878534
100
AcDbArc
 50
131.0812264409128
 51
137.8679696393632
  0
ARC
  5
2C7
330
2
100
AcDbEntity
  8
KIJUN
 62
     7
100
AcDbCircle
 10
448.0624767378372
 20
88.86998583916556
 30
0.0
 40
7.383061893553231
100
AcDbArc
 50
95.37984989123717
 51
139.4104971782378
  0
ARC
  5
2C8
330
2
100
AcDbEntity
  8
KIJUN
100
AcDbCircle
 10
443.0840898416949
 20
97.74132590957069
 30
0.0
 40
2.699369174805541
100
AcDbArc
 50
36.27315379726939
 51
127.5854936087776
  0
ARC
  5
2C9
330
2
100
AcDbEntity
  8
KIJUN
 62
     7
100
AcDbCircle
 10
440.1703124562016
 20
78.25060254162699
 30
0.0
 40
14.12980519338203
100
AcDbArc
 50
61.39095098497115
 51
79.10355037460587
  0
ARC
  5
2CA
330
2
100
AcDbEntity
  8
KIJUN
 62
     7
100
AcDbCircle
 10
438.214843735431
 20
84.66710137903829
 30
0.0
 40
5.843020034781067
100
AcDbArc
 50
335.0631995609213
 51
30.92367737407544
  0
ARC
  5
2CB
330
2
100
AcDbEntity
  8
KIJUN
 62
     7
100
AcDbCircle
 10
449.2074032194168
 20
91.21821180745881
 30
0.0
 40
6.935812512827626
100
AcDbArc
 50
195.8955582390186
 51
251.6305398638178
  0
ARC
  5
2CC
330
2
100
AcDbEntity
  8
KIJUN
100
AcDbCircle
 10
447.1213502267474
 20
88.81506901091031
 30
0.0
 40
6.55642799956824
100
AcDbArc
 50
237.9237444125815
 51
291.5986013550046
  0
CIRCLE
  5
2CD
330
2
100
AcDbEntity
  8
KIJUN
100
AcDbCircle
 10
440.54360245112
 20
92.37547597053309
 30
0.0
 40
2.311273173894323
  0
ARC
  5
2CE
330
2
100
AcDbEntity
  8
KIJUN
 62
     7
100
AcDbCircle
 10
438.7391312070313
 20
91.50577137955556
 30
0.0
 40
7.793377082310787
100
AcDbArc
 50
143.828156424361
 51
182.2672803083813
  0
ARC
  5
2CF
330
2
100
AcDbEntity
  8
KIJUN
 62
     7
100
AcDbCircle
 10
422.8108677860744
 20
91.69431186812278
 30
0.0
 40
3.740797864487841
100
AcDbArc
 50
326.0217281221877
 51
56.52001074604349
  0
ARC
  5
2D0
330
2
100
AcDbEntity
  8
KIJUN
 62
     7
100
AcDbCircle
 10
431.6423597564673
 20
91.39538770763079
 30
0.0
 40
8.645753356678902
100
AcDbArc
 50
244.9322781001764
 51
297.1711004632273
  0
ARC
  5
2D1
330
2
100
AcDbEntity
  8
KIJUN
 62
     7
100
AcDbCircle
 10
434.4724443142858
 20
90.26153742895898
 30
0.0
 40
3.642868629594856
100
AcDbArc
 50
165.1127307127907
 51
247.2156998806943
  0
ARC
  5
2D2
330
2
100
AcDbEntity
  8
KIJUN
 62
     7
100
AcDbCircle
 10
412.142206712902
 20
85.47318736098759
 30
0.0
 40
15.95170407481974
100
AcDbArc
 50
346.1893081661582
 51
7.675033714872409
  0
LINE
  5
2D3
330
2
100
AcDbEntity
  8
KIJUN
 62
     7
100
AcDbLine
 10
421.5857425614959
 20
86.22506738465387
 30
0.0
 11
424.4501113522868
 21
86.43715052927587
 31
0.0
  0
LINE
  5
2D4
330
2
100
AcDbEntity
  8
KIJUN
 62
     7
100
AcDbLine
 10
422.2222696943836
 20
83.57402894626549
 30
0.0
 11
425.0866384851749
 21
83.78611209088736
 31
0.0
  0
LINE
  5
2D5
330
2
100
AcDbEntity
  8
KIJUN
 62
     7
100
AcDbLine
 10
421.7979195953405
 20
84.31631995244229
 30
0.0
 11
424.6622883861317
 21
84.52840309706429
 31
0.0
  0
LINE
  5
2D6
330
2
100
AcDbEntity
  8
KIJUN
 62
     7
100
AcDbLine
 10
421.7979195953405
 20
85.05861008923337
 30
0.0
 11
424.6622883861317
 21
85.27069323385537
 31
0.0
  0
LINE
  5
2D7
330
2
100
AcDbEntity
  8
KIJUN
 62
     7
100
AcDbLine
 10
421.6918310784182
 20
85.58881795078818
 30
0.0
 11
424.5561998692093
 21
85.80090109541018
 31
0.0
  0
ARC
  5
2D8
330
2
100
AcDbEntity
  8
KIJUN
 62
     7
100
AcDbCircle
 10
424.747060119351
 20
86.37718292155829
 30
0.0
 40
3.430654936444006
100
AcDbArc
 50
20.94611382076197
 51
157.1450346753242
  0
ARC
  5
2D9
330
2
100
AcDbEntity
  8
KIJUN
 62
     7
100
AcDbCircle
 10
435.7938066974667
 20
88.22481636553481
 30
0.0
 40
5.217539120448133
100
AcDbArc
 50
278.7874244539327
 51
20.68653725412534
  0
ARC
  5
2DA
330
2
100
AcDbEntity
  8
KIJUN
 62
     7
100
AcDbCircle
 10
437.9414395563197
 20
86.30112246229996
 30
0.0
 40
3.503385593756436
100
AcDbArc
 50
165.4834812180907
 51
247.3252185383799
  0
ARC
  5
2DB
330
2
100
AcDbEntity
  8
KIJUN
 62
     7
100
AcDbCircle
 10
432.6662120102345
 20
93.17792239809909
 30
0.0
 40
6.287448437110077
100
AcDbArc
 50
273.6063187948935
 51
340.8530411349454
  0
ARC
  5
2DC
330
2
100
AcDbEntity
  8
KIJUN
 62
     7
100
AcDbCircle
 10
445.6791290262479
 20
86.28648355651018
 30
0.0
 40
5.779843760689687
100
AcDbArc
 50
191.306414945303
 51
229.9946920548705
  0
ARC
  5
2DD
330
2
100
AcDbEntity
  8
KIJUN
 62
     7
100
AcDbCircle
 10
442.606365481627
 20
82.62519545319838
 30
0.0
 40
1.0
100
AcDbArc
 50
229.9946920548709
 51
335.0631995609213
  0
ARC
  5
2DE
330
2
100
AcDbEntity
  8
KIJUN
 62
     7
100
AcDbCircle
 10
423.256353348652
 20
106.1458820364499
 30
0.0
 40
11.44639940418509
100
AcDbArc
 50
278.1267864836455
 51
319.6704520312419
  0
ARC
  5
2DF
330
2
100
AcDbEntity
  8
KIJUN
 62
     7
100
AcDbCircle
 10
431.2777895562621
 20
100.4191442865394
 30
0.0
 40
4.014129128280118
100
AcDbArc
 50
283.2014187121603
 51
30.38331753584122
  0
ARC
  5
2E0
330
2
100
AcDbEntity
  8
KIJUN
 62
     7
100
AcDbCircle
 10
433.7385712120309
 20
100.0477731170436
 30
0.0
 40
2.602310220128863
100
AcDbArc
 50
67.35240827508308
 51
156.8491302949332
  0
ARC
  5
2E1
330
2
100
AcDbEntity
  8
KIJUN
 62
     7
100
AcDbCircle
 10
427.157635023691
 20
97.92389900380308
 30
0.0
 40
2.316223799605482
100
AcDbArc
 50
64.26985339983173
 51
170.3089733357529
  0
ARC
  5
2E2
330
2
100
AcDbEntity
  8
KIJUN
 62
     7
100
AcDbCircle
 10
423.7084682428275
 20
96.19326952621207
 30
0.0
 40
2.419958289475618
100
AcDbArc
 50
61.19535119838348
 51
164.7640951705878
  0
ARC
  5
2E3
330
2
100
AcDbEntity
  8
KIJUN
 62
     7
100
AcDbCircle
 10
430.09043533054
 20
99.53243071409701
 30
0.0
 40
1.985651951826823
100
AcDbArc
 50
50.7853951257511
 51
166.0694919870106
  0
ARC
  5
2E4
330
2
100
AcDbEntity
  8
KIJUN
 62
     7
100
AcDbCircle
 10
432.3361412195827
 20
95.512044379439
 30
0.0
 40
8.647140916948393
100
AcDbArc
 50
354.2947562734628
 51
37.882822181117
  0
ARC
  5
2E5
330
2
100
AcDbEntity
  8
KIJUN
100
AcDbCircle
 10
447.6544656788011
 20
95.81981462259149
 30
0.0
 40
7.425474641878534
100
AcDbArc
 50
146.8489183700834
 51
162.1273690154183
  0
ARC
  5
2E6
330
2
100
AcDbEntity
  8
KIJUN
 62
     7
100
AcDbCircle
 10
440.2029930734483
 20
97.76856254340888
 30
0.0
 40
4.926879261771878
100
AcDbArc
 50
160.6246660695255
 51
248.2959839862134
  0
ARC
  5
2E7
330
2
100
AcDbEntity
  8
KIJUN
 62
     7
100
AcDbCircle
 10
433.5726185587155
 20
92.93003148644009
 30
0.0
 40
3.368752498848853
100
AcDbArc
 50
46.2062530435983
 51
109.5032807582723
  0
ARC
  5
2E8
330
2
100
AcDbEntity
  8
KIJUN
 62
     7
100
AcDbCircle
 10
438.232425025934
 20
97.89021809550099
 30
0.0
 40
3.075155137534324
100
AcDbArc
 50
72.42354509348231
 51
150.5303372407084
  0
ARC
  5
2E9
330
2
100
AcDbEntity
  8
KIJUN
 62
     7
100
AcDbCircle
 10
443.9526910870789
 20
92.37412509767748
 30
0.0
 40
5.145340899247573
100
AcDbArc
 50
320.678851147616
 51
48.37860566955622
  0
ARC
  5
2EA
330
2
100
AcDbEntity
  8
KIJUN
100
AcDbCircle
 10
452.174690627647
 20
91.44453742056489
 30
0.0
 40
7.574678625694242
100
AcDbArc
 50
300.5463872038893
 51
12.43781736995179
  0
ARC
  5
2EB
330
2
100
AcDbEntity
  8
KIJUN
100
AcDbCircle
 10
459.3271977011212
 20
88.15352917550617
 30
0.0
 40
5.574919714008214
100
AcDbArc
 50
99.60475764562888
 51
183.9259551944624
  0
ARC
  5
2EC
330
2
100
AcDbEntity
  8
KIJUN
100
AcDbCircle
 10
448.8156759370725
 20
95.13742825872849
 30
0.0
 40
5.711903570675795
100
AcDbArc
 50
328.1492222120379
 51
73.70111951223748
  0
ARC
  5
2ED
330
2
100
AcDbEntity
  8
KIJUN
100
AcDbCircle
 10
454.4241951009389
 20
91.49026454676516
 30
0.0
 40
5.940379713502826
100
AcDbArc
 50
158.074458014622
 51
226.31593556876
  0
ARC
  5
2EE
330
2
100
AcDbEntity
  8
KIJUN
100
AcDbCircle
 10
447.6053564598379
 20
88.02675623241336
 30
0.0
 40
6.237149557299089
100
AcDbArc
 50
7.291733432055125
 51
69.7050434801684
  0
ARC
  5
2EF
330
2
100
AcDbEntity
  8
KIJUN
100
AcDbCircle
 10
457.302457405282
 20
98.38248771533148
 30
0.0
 40
7.238192604286783
100
AcDbArc
 50
161.9953172046074
 51
239.8550245196806
  0
ARC
  5
2F0
330
2
100
AcDbEntity
  8
KIJUN
 62
     7
100
AcDbCircle
 10
441.597819048111
 20
86.10930959303187
 30
0.0
 40
7.011624041737278
100
AcDbArc
 50
356.6990473698658
 51
40.41695467788285
  0
ARC
  5
2F1
330
2
100
AcDbEntity
  8
KIJUN
 62
     7
100
AcDbCircle
 10
447.3998007883667
 20
85.7746726431309
 30
0.0
 40
1.199999999999999
100
AcDbArc
 50
251.6305398638178
 51
356.6990473698658
  0
ARC
  5
2F2
330
2
100
AcDbEntity
  8
KIJUN
100
AcDbCircle
 10
449.5207463185262
 20
80.40033785949118
 30
0.0
 40
7.425474641878534
100
AcDbArc
 50
88.2187913566428
 51
98.5529197998281
  0
ARC
  5
2F3
330
2
100
AcDbEntity
  8
KIJUN
 62
     7
100
AcDbCircle
 10
483.4155393035981
 20
75.28381487662987
 30
0.0
 40
24.47276896792706
100
AcDbArc
 50
149.5321703996349
 51
161.5429669639818
  0
CIRCLE
  5
2F4
330
2
100
AcDbEntity
  8
KIJUN
100
AcDbCircle
 10
456.6937960216042
 20
95.48011139046078
 30
0.0
 40
1.642041573286453
  0
CIRCLE
  5
2F5
330
2
100
AcDbEntity
  8
KIJUN
100
AcDbCircle
 10
457.1373620754877
 20
99.51879057935869
 30
0.0
 40
2.052551966608065
  0
ARC
  5
2F6
330
2
100
AcDbEntity
  8
KIJUN
100
AcDbCircle
 10
437.9685078109753
 20
97.93590272934869
 30
0.0
 40
7.425474641878534
100
AcDbArc
 50
341.6230239276767
 51
10.88697486743443
  0
ARC
  5
2F7
330
2
100
AcDbEntity
  8
KIJUN
100
AcDbCircle
 10
449.3958720655034
 20
93.51424174274908
 30
0.0
 40
0.5200000000000001
100
AcDbArc
 50
44.18964874786179
 51
158.0744580146211
  0
CIRCLE
  5
2F8
330
2
100
AcDbEntity
  8
KIJUN
100
AcDbCircle
 10
453.7914294653339
 20
100.7842675554156
 30
0.0
 40
1.642041573286453
  0
ARC
  5
2F9
330
2
100
AcDbEntity
  8
KIJUN
100
AcDbCircle
 10
458.797408802006
 20
92.98090700536128
 30
0.0
 40
0.7800000000000003
100
AcDbArc
 50
7.00044477010425
 51
120.8852540368672
  0
ARC
  5
2FA
330
2
100
AcDbEntity
  8
KIJUN
100
AcDbCircle
 10
465.5003442398637
 20
100.4789518288567
 30
0.0
 40
9.049074254857703
100
AcDbArc
 50
100.6364430056403
 51
151.426023976664
  0
ARC
  5
2FB
330
2
100
AcDbEntity
  8
KIJUN
100
AcDbCircle
 10
465.1751786093063
 20
111.8402983119991
 30
0.0
 40
2.052551966608065
100
AcDbArc
 50
91.59635482008615
 51
268.4036451799138
  0
CIRCLE
  5
2FC
330
2
100
AcDbEntity
  8
KIJUN
100
AcDbCircle
 10
461.033057986997
 20
111.8402983119991
 30
0.0
 40
1.642041573286453
  0
ARC
  5
2FD
330
2
100
AcDbEntity
  8
KIJUN
100
AcDbCircle
 10
217.7751095979998
 20
95.81981462259149
 30
0.0
 40
7.425474641878534
100
AcDbArc
 50
146.8489183700834
 51
162.1273690154183
  0
ARC
  5
2FE
330
2
100
AcDbEntity
  8
KIJUN
 62
     7
100
AcDbCircle
 10
202.4567851387813
 20
95.512044379439
 30
0.0
 40
8.647140916948393
100
AcDbArc
 50
354.2947562734628
 51
37.882822181117
  0
ARC
  5
2FF
330
2
100
AcDbEntity
  8
KIJUN
 62
     7
100
AcDbCircle
 10
215.7997729454467
 20
86.28648355651018
 30
0.0
 40
5.779843760689687
100
AcDbArc
 50
191.306414945303
 51
229.9946920548705
  0
ARC
  5
300
330
2
100
AcDbEntity
  8
KIJUN
 62
     7
100
AcDbCircle
 10
205.9144506166656
 20
88.22481636553481
 30
0.0
 40
5.217539120448133
100
AcDbArc
 50
278.7874244539327
 51
20.68653725412534
  0
CIRCLE
  5
301
330
2
100
AcDbEntity
  8
KIJUN
100
AcDbCircle
 10
210.6642463703188
 20
92.37547597053309
 30
0.0
 40
2.311273173894323
  0
LINE
  5
302
330
2
100
AcDbEntity
  8
KIJUN
100
AcDbLine
 10
214.2656496551976
 20
59.33285255483665
 30
0.0
 11
209.7350872014744
 21
60.68339473803785
 31
0.0
  0
LINE
  5
303
330
2
100
AcDbEntity
  8
KIJUN
100
AcDbLine
 10
206.129666185628
 20
66.61941701481925
 30
0.0
 11
216.7943916214985
 21
63.49528137670772
 31
0.0
  0
ARC
  5
304
330
2
100
AcDbEntity
  8
KIJUN
100
AcDbCircle
 10
209.5534995068806
 20
58.00513003747258
 30
0.0
 40
4.0
100
AcDbArc
 50
211.8671697969827
 51
335.7147751717346
  0
ARC
  5
305
330
2
100
AcDbEntity
  8
KIJUN
100
AcDbCircle
 10
210.9317500299109
 20
54.48965911598413
 30
0.0
 40
4.977370729229061
100
AcDbArc
 50
149.0628389985749
 51
282.5469334638965
  0
ARC
  5
306
330
2
100
AcDbEntity
  8
KIJUN
 62
     7
100
AcDbCircle
 10
207.3441956063279
 20
51.75512755613567
 30
0.0
 40
5.129256608040996
100
AcDbArc
 50
190.5872223195512
 51
335.5380063668617
  0
ARC
  5
307
330
2
100
AcDbEntity
  8
KIJUN
100
AcDbCircle
 10
239.5043296069214
 20
37.92036292780941
 30
0.0
 40
29.88167008865158
100
AcDbArc
 50
107.9283697006071
 51
156.9268780536221
  0
ELLIPSE
  5
308
330
2
100
AcDbEntity
  8
KIJUN
 62
     7
100
AcDbEllipse
 10
131.8246254030781
 20
85.73420400430268
 30
0.0
 11
-0.3795666553083379
 21
1.011738516150022
 31
0.0
210
0.0
220
0.0
230
0.9999999999999998
 40
0.5694389254659484
 41
0.0
 42
6.283185307179584
  0
ELLIPSE
  5
309
330
2
100
AcDbEntity
  8
KIJUN
 62
     7
100
AcDbEllipse
 10
166.6327444382873
 20
79.99007935707367
 30
0.0
 11
-0.4934366519008393
 21
1.315260070995029
 31
0.0
210
0.0
220
0.0
230
1.0
 40
0.5694389254659484
 41
0.0
 42
6.283185307179584
  0
ELLIPSE
  5
30A
330
2
100
AcDbEntity
  8
KIJUN
 62
     7
100
AcDbEllipse
 10
166.3501236417008
 20
77.54176428046936
 30
0.0
 11
-0.4934366519008393
 21
1.315260070995029
 31
0.0
210
0.0
220
0.0
230
1.0
 40
0.5694389254659484
 41
0.0
 42
6.283185307179584
  0
ELLIPSE
  5
30B
330
2
100
AcDbEntity
  8
KIJUN
 62
     7
100
AcDbEllipse
 10
168.2342638184785
 20
80.64924106972148
 30
0.0
 11
-0.4934366519008393
 21
1.315260070995029
 31
0.0
210
0.0
220
0.0
230
1.0
 40
0.5694389254659484
 41
0.0
 42
6.283185307179584
  0
ELLIPSE
  5
30C
330
2
100
AcDbEntity
  8
KIJUN
 62
     7
100
AcDbEllipse
 10
168.2342638184785
 20
77.63593067115586
 30
0.0
 11
-0.4934366519008393
 21
1.315260070995029
 31
0.0
210
0.0
220
0.0
230
1.0
 40
0.5694389254659484
 41
0.0
 42
6.283185307179584
  0
ELLIPSE
  5
30D
330
2
100
AcDbEntity
  8
KIJUN
 62
     7
100
AcDbEllipse
 10
189.2620100359745
 20
85.62689963166597
 30
0.0
 11
-0.0776489392262278
 21
1.402625903806856
 31
0.0
210
0.0
220
0.0
230
1.0
 40
0.5694389254659484
 41
0.0
 42
6.283185307179584
  0
ELLIPSE
  5
30E
330
2
100
AcDbEntity
  8
KIJUN
 62
     7
100
AcDbEllipse
 10
186.5350104623522
 20
83.22484436024687
 30
0.0
 11
-0.0776489392262278
 21
1.402625903806856
 31
0.0
210
0.0
220
0.0
230
1.0
 40
0.5694389254659484
 41
0.0
 42
6.283185307179584
  0
ELLIPSE
  5
30F
330
2
100
AcDbEntity
  8
KIJUN
 62
     7
100
AcDbEllipse
 10
187.5366709980897
 20
85.47668747204168
 30
0.0
 11
-0.0776489392262278
 21
1.402625903806856
 31
0.0
210
0.0
220
0.0
230
1.0
 40
0.5694389254659484
 41
0.0
 42
6.283185307179584
  0
ELLIPSE
  5
310
330
2
100
AcDbEntity
  8
KIJUN
 62
     7
100
AcDbEllipse
 10
188.3611291224439
 20
82.75140782368948
 30
0.0
 11
-0.1009436209940962
 21
1.823413674948914
 31
0.0
210
0.0
220
0.0
230
1.0
 40
0.5694389254659483
 41
0.0
 42
6.283185307179584
  0
ELLIPSE
  5
311
330
2
100
AcDbEntity
  8
KIJUN
 62
     7
100
AcDbEllipse
 10
190.6411501729092
 20
82.76377804865559
 30
0.0
 11
-0.0776489392262278
 21
1.402625903806856
 31
0.0
210
0.0
220
0.0
230
1.0
 40
0.5694389254659484
 41
0.0
 42
6.283185307179584
  0
ELLIPSE
  5
312
330
2
100
AcDbEntity
  8
KIJUN
 62
     7
100
AcDbEllipse
 10
189.7924486519405
 20
79.68857419040887
 30
0.0
 11
-0.0776489392262278
 21
1.402625903806856
 31
0.0
210
0.0
220
0.0
230
1.0
 40
0.5694389254659484
 41
0.0
 42
6.283185307179584
  0
ARC
  5
313
330
2
100
AcDbEntity
  8
KIJUN
 62
     7
100
AcDbCircle
 10
194.9496320746384
 20
87.08572166153469
 30
0.0
 40
6.102639829650275
100
AcDbArc
 50
234.2093670558082
 51
297.3505341955272
  0
ARC
  5
314
330
2
100
AcDbEntity
  8
KIJUN
100
AcDbCircle
 10
164.1838197876907
 20
86.7379930730757
 30
0.0
 40
35.16123680898249
100
AcDbArc
 50
323.4984878890281
 51
354.1436087823401
  0
ARC
  5
315
330
2
100
AcDbEntity
  8
KIJUN
100
AcDbCircle
 10
135.665473441019
 20
78.03380978304621
 30
0.0
 40
9.2640702269321
100
AcDbArc
 50
124.5259385317052
 51
189.3319932396006
  0
ARC
  5
316
330
2
100
AcDbEntity
  8
KIJUN
100
AcDbCircle
 10
123.4082973135441
 20
83.7337678086922
 30
0.0
 40
8.910569570254242
100
AcDbArc
 50
298.6082382594446
 51
4.723428992685041
  0
ARC
  5
317
330
2
100
AcDbEntity
  8
KIJUN
100
AcDbCircle
 10
131.3990393949828
 20
81.67309066172256
 30
0.0
 40
4.60352749379198
100
AcDbArc
 50
334.5201578793711
 51
49.9622992711934
  0
ARC
  5
318
330
2
100
AcDbEntity
  8
KIJUN
100
AcDbCircle
 10
166.7998104870504
 20
84.67968714761779
 30
0.0
 40
6.030046909847436
100
AcDbArc
 50
179.3101530238581
 51
226.7939664892264
  0
ARC
  5
319
330
2
100
AcDbEntity
  8
KIJUN
100
AcDbCircle
 10
166.7998104870504
 20
84.67968714761779
 30
0.0
 40
6.030046909847436
100
AcDbArc
 50
179.3101530238581
 51
226.7939664892264
  0
ARC
  5
31A
330
2
100
AcDbEntity
  8
KIJUN
100
AcDbCircle
 10
189.9082559257086
 20
85.8661395156035
 30
0.0
 40
33.68824455369994
100
AcDbArc
 50
182.1885188269813
 51
201.1639492850445
  0
ARC
  5
31B
330
2
100
AcDbEntity
  8
KIJUN
 62
     7
100
AcDbCircle
 10
111.8325605533372
 20
77.92082174414971
 30
0.0
 40
14.32551414772814
100
AcDbArc
 50
327.8909402021128
 51
20.90194856560628
  0
ARC
  5
31C
330
2
100
AcDbEntity
  8
KIJUN
 62
     7
100
AcDbCircle
 10
155.5139602165576
 20
80.71714183957839
 30
0.0
 40
33.16111248613231
100
AcDbArc
 50
167.8566755807787
 51
188.2431110185055
  0
ARC
  5
31D
330
2
100
AcDbEntity
  8
KIJUN
100
AcDbCircle
 10
134.9032318859234
 20
82.98949535517207
 30
0.0
 40
3.331699572601231
100
AcDbArc
 50
209.2725406200333
 51
262.446428076887
  0
ARC
  5
31E
330
2
100
AcDbEntity
  8
KIJUN
 62
     7
100
AcDbCircle
 10
147.6252735412228
 20
86.59828897353071
 30
0.0
 40
5.217539120448133
100
AcDbArc
 50
278.7874244539327
 51
20.68653725412534
  0
ARC
  5
31F
330
2
100
AcDbEntity
  8
KIJUN
 62
     7
100
AcDbCircle
 10
157.510595870004
 20
84.65995616450598
 30
0.0
 40
5.779843760689687
100
AcDbArc
 50
191.306414945303
 51
229.9946920548705
  0
ARC
  5
320
330
2
100
AcDbEntity
  8
KIJUN
 62
     7
100
AcDbCircle
 10
150.0463105791872
 20
83.04057398703418
 30
0.0
 40
5.843020034781067
100
AcDbArc
 50
335.0631995609213
 51
30.92367737407544
  0
ARC
  5
321
330
2
100
AcDbEntity
  8
KIJUN
 62
     7
100
AcDbCircle
 10
141.6952698341105
 20
95.20821592019148
 30
0.0
 40
15.32196142403054
100
AcDbArc
 50
255.176817339985
 51
296.0431766405073
  0
ARC
  5
322
330
2
100
AcDbEntity
  8
KIJUN
 62
     7
100
AcDbCircle
 10
161.0067446101056
 20
78.64409423576096
 30
0.0
 40
14.08247433575274
100
AcDbArc
 50
343.9216693547463
 51
47.68326866642811
  0
ARC
  5
323
330
2
100
AcDbEntity
  8
KIJUN
 62
     7
100
AcDbCircle
 10
147.6718325989796
 20
80.6750461658405
 30
0.0
 40
24.30664624423594
100
AcDbArc
 50
346.7903062687605
 51
20.17256147828959
  0
ARC
  5
324
330
2
100
AcDbEntity
  8
KIJUN
 62
     7
100
AcDbCircle
 10
-1464.193595916723
 20
-709.9916442429822
 30
0.0
 40
1828.436817982179
100
AcDbArc
 50
25.58905118947629
 51
25.96917284669214
  0
ARC
  5
325
330
2
100
AcDbEntity
  8
KIJUN
 62
     7
100
AcDbCircle
 10
175.9383816263167
 20
85.11188949919748
 30
0.0
 40
3.082753420725512
100
AcDbArc
 50
246.8571409121167
 51
27.06782056721814
  0
ARC
  5
326
330
2
100
AcDbEntity
  8
KIJUN
 62
     7
100
AcDbCircle
 10
197.1109304918391
 20
79.00613067378619
 30
0.0
 40
17.02259783240156
100
AcDbArc
 50
165.058530136875
 51
212.9756043867213
  0
ARC
  5
327
330
2
100
AcDbEntity
  8
KIJUN
 62
     7
100
AcDbCircle
 10
-1558.030510134848
 20
-988.0369271977478
 30
0.0
 40
2045.319384626116
100
AcDbArc
 50
31.4563481043806
 51
31.81575135814596
  0
ARC
  5
328
330
2
100
AcDbEntity
  8
KIJUN
 62
     7
100
AcDbCircle
 10
135.0071832371027
 20
40.04074944108063
 30
0.0
 40
62.96136316172123
100
AcDbArc
 50
24.1725463051961
 51
43.5183344863011
  0
ARC
  5
329
330
2
100
AcDbEntity
  8
KIJUN
100
AcDbCircle
 10
164.6981554274789
 20
86.75249599411749
 30
0.0
 40
36.75027126811985
100
AcDbArc
 50
301.9972220230836
 51
353.7725436553663
  0
ARC
  5
32A
330
2
100
AcDbEntity
  8
KIJUN
 62
     7
100
AcDbCircle
 10
165.3206296540323
 20
78.84980486373958
 30
0.0
 40
4.8598507102359
100
AcDbArc
 50
220.6239990439574
 51
270.9391872088974
  0
ARC
  5
32B
330
2
100
AcDbEntity
  8
KIJUN
100
AcDbCircle
 10
167.4133632895899
 20
64.2391371819013
 30
0.0
 40
4.491350286977509
100
AcDbArc
 50
102.7571087160521
 51
175.6872209736699
  0
ARC
  5
32C
330
2
100
AcDbEntity
  8
KIJUN
100
AcDbCircle
 10
167.4133632895908
 20
64.2391371819013
 30
0.0
 40
4.491350286977509
100
AcDbArc
 50
102.7571087160521
 51
175.6872209736699
  0
ARC
  5
32D
330
2
100
AcDbEntity
  8
KIJUN
100
AcDbCircle
 10
167.7876732931989
 20
69.8927743643863
 30
0.0
 40
7.095558323661609
100
AcDbArc
 50
226.8476285375028
 51
292.1797184513568
  0
ARC
  5
32E
330
2
100
AcDbEntity
  8
KIJUN
100
AcDbCircle
 10
167.7876732931989
 20
69.8927743643863
 30
0.0
 40
7.095558323661609
100
AcDbArc
 50
226.8476285375028
 51
292.1797184513568
  0
ARC
  5
32F
330
2
100
AcDbEntity
  8
KIJUN
 62
     7
100
AcDbCircle
 10
170.929734908117
 20
80.15958561722186
 30
0.0
 40
10.31815383835556
100
AcDbArc
 50
205.6964901784458
 51
268.066883409535
  0
ARC
  5
330
330
2
100
AcDbEntity
  8
KIJUN
 62
     7
100
AcDbCircle
 10
169.0077812924356
 20
90.22482066302359
 30
0.0
 40
20.43820747074422
100
AcDbArc
 50
240.9157506821607
 51
274.416570606317
  0
ARC
  5
331
330
2
100
AcDbEntity
  8
KIJUN
 62
     7
100
AcDbCircle
 10
174.7021563784372
 20
77.26501701780337
 30
0.0
 40
26.91658708547095
100
AcDbArc
 50
225.1338782281341
 51
273.353049228349
  0
ARC
  5
332
330
2
100
AcDbEntity
  8
KIJUN
100
AcDbCircle
 10
189.0185491099676
 20
85.79962175910265
 30
0.0
 40
34.93204195274282
100
AcDbArc
 50
189.5444435480339
 51
239.8756820894986
  0
ARC
  5
333
330
2
100
AcDbEntity
  8
KIJUN
 62
     7
100
AcDbCircle
 10
174.5875759238579
 20
77.13710210781151
 30
0.0
 40
21.75094208836032
100
AcDbArc
 50
213.5010018973435
 51
274.7497427649558
  0
LINE
  5
334
330
2
100
AcDbEntity
  8
KIJUN
100
AcDbLine
 10
150.4664376496065
 20
62.46239155886797
 30
0.0
 11
149.9628838773414
 21
57.593623870258
 31
0.0
  0
ARC
  5
335
330
2
100
AcDbEntity
  8
KIJUN
100
AcDbCircle
 10
131.6314381410274
 20
65.04362553706193
 30
0.0
 40
9.441344828702114
100
AcDbArc
 50
259.4938800349959
 51
312.8476323036992
  0
LINE
  5
336
330
2
100
AcDbEntity
  8
KIJUN
100
AcDbLine
 10
141.271957199191
 20
59.33285255483665
 30
0.0
 11
142.3380698844784
 21
56.36001277168983
 31
0.0
  0
LINE
  5
337
330
2
100
AcDbEntity
  8
KIJUN
100
AcDbLine
 10
127.8093149442114
 20
60.3099641572489
 30
0.0
 11
125.3232700394392
 21
56.75934634611236
 31
0.0
  0
LINE
  5
338
330
2
100
AcDbEntity
  8
KIJUN
100
AcDbLine
 10
127.8093149442114
 20
60.3099641572489
 30
0.0
 11
131.2505892277506
 21
52.63656197045285
 31
0.0
  0
LINE
  5
339
330
2
100
AcDbEntity
  8
KIJUN
 62
     7
100
AcDbLine
 10
123.9668137484493
 20
70.30634507180559
 30
0.0
 11
121.571741706456
 21
54.68886028316621
 31
0.0
  0
ARC
  5
33A
330
2
100
AcDbEntity
  8
KIJUN
100
AcDbCircle
 10
116.0332772474672
 20
37.92036292780941
 30
0.0
 40
29.88167008865158
100
AcDbArc
 50
23.07312194637775
 51
72.07163029939284
  0
ARC
  5
33B
330
2
100
AcDbEntity
  8
KIJUN
100
AcDbCircle
 10
120.1098631472377
 20
61.9825471618904
 30
0.0
 40
14.84721071513336
100
AcDbArc
 50
270.8461695505093
 51
318.423452785952
  0
LINE
  5
33C
330
2
100
AcDbEntity
  8
KIJUN
100
AcDbLine
 10
125.0609444208958
 20
55.98340227849643
 30
0.0
 11
130.1770944957108
 21
51.73003702822956
 31
0.0
  0
ARC
  5
33D
330
2
100
AcDbEntity
  8
KIJUN
100
AcDbCircle
 10
121.2201174750252
 20
58.97221948388374
 30
0.0
 40
6.590194063383847
100
AcDbArc
 50
262.2298337834848
 51
321.6271377195085
  0
ARC
  5
33E
330
2
100
AcDbEntity
  8
KIJUN
100
AcDbCircle
 10
125.4638334864285
 20
56.27951104377348
 30
0.0
 40
0.5
100
AcDbArc
 50
106.3274727712365
 51
216.3145293124574
  0
ARC
  5
33F
330
2
100
AcDbEntity
  8
KIJUN
100
AcDbCircle
 10
130.4553765726243
 20
52.53614880580534
 30
0.0
 40
0.8
100
AcDbArc
 50
310.0691087627664
 51
33.33443005145799
  0
ARC
  5
340
330
2
100
AcDbEntity
  8
KIJUN
100
AcDbCircle
 10
129.7742054301772
 20
51.43392826295205
 30
0.0
 40
0.5
100
AcDbArc
 50
312.672643531846
 51
36.31452931248529
  0
ARC
  5
341
330
2
100
AcDbEntity
  8
KIJUN
100
AcDbCircle
 10
142.3951033983438
 20
51.31977696379367
 30
0.0
 40
8.0
100
AcDbArc
 50
126.7954349452073
 51
128.1072213427381
  0
ARC
  5
342
330
2
100
AcDbEntity
  8
KIJUN
 62
     7
100
AcDbCircle
 10
148.1934112480607
 20
51.75512755613567
 30
0.0
 40
5.129256608040996
100
AcDbArc
 50
204.461993633138
 51
349.4127776804488
  0
ARC
  5
343
330
2
100
AcDbEntity
  8
KIJUN
 62
     7
100
AcDbCircle
 10
103.9904446286824
 20
18.3199502648398
 30
0.0
 40
59.28350860377108
100
AcDbArc
 50
34.10058466067297
 51
40.78914563082173
  0
ARC
  5
344
330
2
100
AcDbEntity
  8
KIJUN
100
AcDbCircle
 10
144.6058568244777
 20
54.48965911598413
 30
0.0
 40
4.977370729229061
100
AcDbArc
 50
257.4530665361035
 51
30.93716100142513
  0
ARC
  5
345
330
2
100
AcDbEntity
  8
KIJUN
100
AcDbCircle
 10
145.984107347508
 20
58.00513003747258
 30
0.0
 40
4.0
100
AcDbArc
 50
204.285224828265
 51
328.1328302030173
  0
ARC
  5
346
330
2
100
AcDbEntity
  8
KIJUN
100
AcDbCircle
 10
145.984107347508
 20
58.00513003747258
 30
0.0
 40
4.0
100
AcDbArc
 50
333.6532256982136
 51
354.0951612141622
  0
ARC
  5
347
330
2
100
AcDbEntity
  8
KIJUN
 62
     7
100
AcDbCircle
 10
152.2523728293072
 20
50.99645040673988
 30
0.0
 40
1.0
100
AcDbArc
 50
349.4127776804485
 51
34.10058466067381
  0
ARC
  5
348
330
2
100
AcDbEntity
  8
KIJUN
100
AcDbCircle
 10
118.4518064383446
 20
48.3185865929218
 30
0.0
 40
25.33916603654402
100
AcDbArc
 50
25.76452495380895
 51
61.41649241164373
  0
LINE
  5
349
330
2
100
AcDbEntity
  8
KIJUN
100
AcDbLine
 10
149.4079406687605
 20
66.61941701481925
 30
0.0
 11
138.7432152328901
 21
63.49528137670772
 31
0.0
  0
ARC
  5
34A
330
2
100
AcDbEntity
  8
KIJUN
100
AcDbCircle
 10
65.79887446235417
 20
72.97788674530176
 30
0.0
 40
56.97481193346463
100
AcDbArc
 50
346.6802450646997
 51
3.003015772311544
  0
ARC
  5
34B
330
2
100
AcDbEntity
  8
KIJUN
100
AcDbCircle
 10
138.9082978865817
 20
70.15937655449903
 30
0.0
 40
8.343326127471575
100
AcDbArc
 50
177.1828976292144
 51
207.7273769846439
  0
ARC
  5
34C
330
2
100
AcDbEntity
  8
KIJUN
 62
     7
100
AcDbCircle
 10
143.4379163133957
 20
46.92467716318668
 30
0.0
 40
28.13317122920379
100
AcDbArc
 50
107.3856246809997
 51
130.9649513223871
  0
ARC
  5
34D
330
2
100
AcDbEntity
  8
KIJUN
100
AcDbCircle
 10
129.9587190779602
 20
69.51728341119639
 30
0.0
 40
9.441344828702114
100
AcDbArc
 50
257.2163889598112
 51
299.641696772259
  0
ARC
  5
34E
330
2
100
AcDbEntity
  8
KIJUN
100
AcDbCircle
 10
128.3257376708639
 20
59.15318757686529
 30
0.0
 40
7.834683819911337
100
AcDbArc
 50
63.98984950863236
 51
113.2608224539496
  0
ARC
  5
34F
330
2
100
AcDbEntity
  8
KIJUN
100
AcDbCircle
 10
146.8520973994173
 20
56.51444315891892
 30
0.0
 40
26.15201937286087
100
AcDbArc
 50
124.7142361772638
 51
149.0822662850522
  0
ARC
  5
350
330
2
100
AcDbEntity
  8
KIJUN
100
AcDbCircle
 10
127.3013611347001
 20
76.59582583490517
 30
0.0
 40
0.7800000000000003
100
AcDbArc
 50
184.7234289926858
 51
298.608238259451
  0
ARC
  5
351
330
2
100
AcDbEntity
  8
KIJUN
 62
     7
100
AcDbCircle
 10
132.2002078086991
 20
79.5704238420908
 30
0.0
 40
6.452294569324282
100
AcDbArc
 50
296.0294327492923
 51
350.2068098961306
  0
ARC
  5
352
330
2
100
AcDbEntity
  8
KIJUN
 62
     7
100
AcDbCircle
 10
135.7584992703437
 20
71.09467174036416
 30
0.0
 40
7.891685674932648
100
AcDbArc
 50
69.21872739442886
 51
118.7809809638744
  0
ARC
  5
353
330
2
100
AcDbEntity
  8
KIJUN
100
AcDbCircle
 10
135.0080963474633
 20
80.04425282020909
 30
0.0
 40
0.65
100
AcDbArc
 50
213.3718504426782
 51
327.2566597094423
  0
ARC
  5
354
330
2
100
AcDbEntity
  8
KIJUN
100
AcDbCircle
 10
189.9082559257086
 20
85.8661395156035
 30
0.0
 40
33.68824455369994
100
AcDbArc
 50
203.6040382016794
 51
217.2561330035331
  0
ARC
  5
355
330
2
100
AcDbEntity
  8
KIJUN
 62
     7
100
AcDbCircle
 10
148.6592534659711
 20
51.10012431916043
 30
0.0
 40
10.0
100
AcDbArc
 50
45.1338782281346
 51
106.5991040196079
  0
ARC
  5
356
330
2
100
AcDbEntity
  8
KIJUN
100
AcDbCircle
 10
154.4161505932033
 20
61.83011973189564
 30
0.0
 40
4.0
100
AcDbArc
 50
66.42272036245365
 51
170.9052287239963
  0
ARC
  5
357
330
2
100
AcDbEntity
  8
KIJUN
100
AcDbCircle
 10
151.2260981825725
 20
58.48756443787078
 30
0.0
 40
8.332630021683362
100
AcDbArc
 50
60.12934720180581
 51
102.6031747787422
  0
LINE
  5
358
330
2
100
AcDbEntity
  8
KIJUN
100
AcDbLine
 10
141.271957199191
 20
59.33285255483665
 30
0.0
 11
145.8025196529142
 21
60.68339473803785
 31
0.0
  0
ARC
  5
359
330
2
100
AcDbEntity
  8
KIJUN
 62
     7
100
AcDbCircle
 10
155.6161074589325
 20
64.5796839738055
 30
0.0
 40
1.0
100
AcDbArc
 50
33.50100189734342
 51
66.42272036245365
  0
ARC
  5
35A
330
2
100
AcDbEntity
  8
KIJUN
 62
     7
100
AcDbCircle
 10
160.7444299461835
 20
73.61373942849137
 30
0.0
 40
2.253969588975464
100
AcDbArc
 50
66.80977708833646
 51
178.0261066248901
  0
ARC
  5
35B
330
2
100
AcDbEntity
  8
KIJUN
 62
     7
100
AcDbCircle
 10
159.4136716262953
 20
73.30388523072331
 30
0.0
 40
1.0
100
AcDbArc
 50
157.2015774397947
 51
250.0741292162746
  0
ARC
  5
35C
330
2
100
AcDbEntity
  8
KIJUN
 62
     7
100
AcDbCircle
 10
154.437832325383
 20
80.99866806119429
 30
0.0
 40
1.0
100
AcDbArc
 50
229.9946920548709
 51
335.0631995609213
  0
ARC
  5
35D
330
2
100
AcDbEntity
  8
KIJUN
 62
     7
100
AcDbCircle
 10
163.3399921715673
 20
77.71641825196137
 30
0.0
 40
2.653573416584817
100
AcDbArc
 50
104.5913242845021
 51
229.93518136601
  0
LINE
  5
35E
330
2
100
AcDbEntity
  8
KIJUN
100
AcDbLine
 10
205.0711692047821
 20
62.46239155886797
 30
0.0
 11
205.5747229770472
 21
57.593623870258
 31
0.0
  0
LINE
  5
35F
330
2
100
AcDbEntity
  8
KIJUN
100
AcDbLine
 10
205.071169204782
 20
62.46239155886797
 30
0.0
 11
205.5747229770471
 21
57.593623870258
 31
0.0
  0
ARC
  5
360
330
2
100
AcDbEntity
  8
KIJUN
100
AcDbCircle
 10
189.9082559257086
 20
85.8661395156035
 30
0.0
 40
33.68824455369994
100
AcDbArc
 50
221.6127125383965
 51
244.7020639977782
  0
ARC
  5
361
330
2
100
AcDbEntity
  8
KIJUN
 62
     7
100
AcDbCircle
 10
169.0137480161582
 20
64.17148188324883
 30
0.0
 40
12.0950325682984
100
AcDbArc
 50
317.5557247668437
 51
42.74651938666962
  0
ARC
  5
362
330
2
100
AcDbEntity
  8
KIJUN
 62
     7
100
AcDbCircle
 10
186.7131814624469
 20
64.10184539035864
 30
0.0
 40
12.0950325682984
100
AcDbArc
 50
136.8026349331025
 51
221.9934295529301
  0
ARC
  5
363
330
2
100
AcDbEntity
  8
KIJUN
100
AcDbCircle
 10
177.5848022827087
 20
64.80401311220564
 30
0.0
 40
9.412691509925164
100
AcDbArc
 50
300.0341104503078
 51
12.07992412629424
  0
ARC
  5
364
330
2
100
AcDbEntity
  8
KIJUN
100
AcDbCircle
 10
191.0774906789215
 20
58.20622781366695
 30
0.0
 40
10.13773925867792
100
AcDbArc
 50
120.4893836263286
 51
184.733396445927
  0
ARC
  5
365
330
2
100
AcDbEntity
  8
KIJUN
 62
     7
100
AcDbCircle
 10
186.0878333814632
 20
64.22414840152095
 30
0.0
 40
12.0950325682984
100
AcDbArc
 50
135.0736815462051
 51
222.8186863841241
  0
ARC
  5
366
330
2
100
AcDbEntity
  8
KIJUN
 62
     7
100
AcDbCircle
 10
169.6400390982273
 20
64.28886045646554
 30
0.0
 40
12.0950325682984
100
AcDbArc
 50
316.6409422889578
 51
44.47547277356717
  0
ARC
  5
367
330
2
100
AcDbEntity
  8
KIJUN
 62
     7
100
AcDbCircle
 10
180.9560943951499
 20
77.26501701780337
 30
0.0
 40
21.91658708547095
100
AcDbArc
 50
269.2668704037213
 51
326.5865670382263
  0
ARC
  5
368
330
2
100
AcDbEntity
  8
KIJUN
 62
     7
100
AcDbCircle
 10
180.9560943951499
 20
77.26501701780337
 30
0.0
 40
26.91658708547095
100
AcDbArc
 50
270.2628617763672
 51
317.1009688906606
  0
ARC
  5
369
330
2
100
AcDbEntity
  8
KIJUN
100
AcDbCircle
 10
164.1838197876907
 20
86.7379930730757
 30
0.0
 40
35.16123680898249
100
AcDbArc
 50
297.7495076170812
 51
318.0674349606802
  0
ARC
  5
36A
330
2
100
AcDbEntity
  8
KIJUN
 62
     7
100
AcDbCircle
 10
173.3366637323446
 20
52.24047243734101
 30
0.0
 40
7.970667218012342
100
AcDbArc
 50
332.6116731692064
 51
21.28554001815806
  0
ARC
  5
36B
330
2
100
AcDbEntity
  8
KIJUN
 62
     7
100
AcDbCircle
 10
166.62998135535
 20
52.58764694988174
 30
0.0
 40
11.6097135160504
100
AcDbArc
 50
342.0609761722336
 51
17.14311348180263
  0
ARC
  5
36C
330
2
100
AcDbEntity
  8
KIJUN
 62
     7
100
AcDbCircle
 10
166.7922986229027
 20
52.55695465455922
 30
0.0
 40
9.768613731947532
100
AcDbArc
 50
342.4879546034968
 51
13.1420220360781
  0
ARC
  5
36D
330
2
100
AcDbEntity
  8
KIJUN
 62
     7
100
AcDbCircle
 10
172.3751461398598
 20
51.97408438879103
 30
0.0
 40
7.453819999935451
100
AcDbArc
 50
335.4315111802239
 51
32.37528209429644
  0
ARC
  5
36E
330
2
100
AcDbEntity
  8
KIJUN
 62
     7
100
AcDbCircle
 10
177.0618270786973
 20
49.31661099940277
 30
0.0
 40
1.0
100
AcDbArc
 50
162.4879546034971
 51
246.3757993537781
  0
ARC
  5
36F
330
2
100
AcDbEntity
  8
KIJUN
 62
     7
100
AcDbCircle
 10
178.3618358039283
 20
52.28879082562396
 30
0.0
 40
4.244052343146267
100
AcDbArc
 50
246.3757993537781
 51
298.9151188749284
  0
ARC
  5
370
330
2
100
AcDbEntity
  8
KIJUN
100
AcDbCircle
 10
181.9490526678381
 20
57.59307100807713
 30
0.0
 40
1.0
100
AcDbArc
 50
192.9090149888766
 51
290.3007253013235
  0
ARC
  5
371
330
2
100
AcDbEntity
  8
KIJUN
 62
     7
100
AcDbCircle
 10
179.8318120607677
 20
54.77093675363827
 30
0.0
 40
1.0
100
AcDbArc
 50
21.28554001815811
 51
77.32712524080795
  0
ARC
  5
372
330
2
100
AcDbEntity
  8
KIJUN
 62
     7
100
AcDbCircle
 10
177.2788766978051
 20
55.00536679038617
 30
0.0
 40
1.0
100
AcDbArc
 50
92.17963009110428
 51
193.1420220360778
  0
ARC
  5
373
330
2
100
AcDbEntity
  8
KIJUN
 62
     7
100
AcDbCircle
 10
177.6560649843995
 20
45.09502884186828
 30
0.0
 40
10.91751325975307
100
AcDbArc
 50
77.32712524080814
 51
92.17963009110428
  0
ARC
  5
374
330
2
100
AcDbEntity
  8
KIJUN
 62
     7
100
AcDbCircle
 10
251.5471622257062
 20
18.3199502648398
 30
0.0
 40
59.28350860377108
100
AcDbArc
 50
139.2108543691782
 51
145.899415339327
  0
ARC
  5
375
330
2
100
AcDbEntity
  8
KIJUN
 62
     7
100
AcDbCircle
 10
203.2852340250814
 20
50.99645040673988
 30
0.0
 40
1.0
100
AcDbArc
 50
145.8994153393261
 51
190.5872223195514
  0
ARC
  5
376
330
2
100
AcDbEntity
  8
KIJUN
 62
     7
100
AcDbCircle
 10
203.2852340250812
 20
50.99645040673988
 30
0.0
 40
1.0
100
AcDbArc
 50
145.8994153393261
 51
190.5872223195514
  0
ARC
  5
377
330
2
100
AcDbEntity
  8
KIJUN
100
AcDbCircle
 10
209.5534995068806
 20
58.00513003747258
 30
0.0
 40
4.0
100
AcDbArc
 50
185.9048387858378
 51
206.3467743017862
  0
ARC
  5
378
330
2
100
AcDbEntity
  8
KIJUN
100
AcDbCircle
 10
209.5534995068805
 20
58.00513003747258
 30
0.0
 40
4.0
100
AcDbArc
 50
185.9048387858378
 51
206.3467743017862
  0
ARC
  5
379
330
2
100
AcDbEntity
  8
KIJUN
 62
     7
100
AcDbCircle
 10
182.5597287816651
 20
76.7451330609762
 30
0.0
 40
4.874593658389467
100
AcDbArc
 50
342.1879662117865
 51
31.75488344831376
  0
ARC
  5
37A
330
2
100
AcDbEntity
  8
KIJUN
 62
     7
100
AcDbCircle
 10
191.4892776382127
 20
77.23098057984072
 30
0.0
 40
11.44864019901663
100
AcDbArc
 50
220.8606139976372
 51
274.8029836430084
  0
ARC
  5
37B
330
2
100
AcDbEntity
  8
KIJUN
 62
     7
100
AcDbCircle
 10
170.4868466978888
 20
73.97083619867657
 30
0.0
 40
4.124622422910555
100
AcDbArc
 50
271.317379653311
 51
10.80313634742923
  0
ARC
  5
37C
330
2
100
AcDbEntity
  8
KIJUN
 62
     7
100
AcDbCircle
 10
171.0705730099794
 20
65.74941865270621
 30
0.0
 40
2.50124216013918
100
AcDbArc
 50
256.0205666649491
 51
25.92415845249528
  0
ARC
  5
37D
330
2
100
AcDbEntity
  8
KIJUN
100
AcDbCircle
 10
186.3066766936414
 20
66.57969430708383
 30
0.0
 40
0.5200000000000001
100
AcDbArc
 50
21.92554198537869
 51
135.810351252138
  0
ARC
  5
37E
330
2
100
AcDbEntity
  8
KIJUN
 62
     7
100
AcDbCircle
 10
169.0137480161582
 20
64.17148188324883
 30
0.0
 40
12.0950325682984
100
AcDbArc
 50
45.27978507689129
 51
62.57593223962368
  0
ARC
  5
37F
330
2
100
AcDbEntity
  8
KIJUN
 62
     7
100
AcDbCircle
 10
169.6400390982273
 20
64.28886045646554
 30
0.0
 40
12.0950325682984
100
AcDbArc
 50
46.93520684397824
 51
65.3623851760433
  0
ARC
  5
380
330
2
100
AcDbEntity
  8
KIJUN
 62
     7
100
AcDbCircle
 10
172.5954340879947
 20
72.02896711400669
 30
0.0
 40
3.338569333970478
100
AcDbArc
 50
54.41105021660329
 51
145.9882149605281
  0
ARC
  5
381
330
2
100
AcDbEntity
  8
KIJUN
 62
     7
100
AcDbCircle
 10
167.5482550213113
 20
70.84495757720906
 30
0.0
 40
3.809051265910227
100
AcDbArc
 50
53.23658299865847
 51
124.3267178191937
  0
ARC
  5
382
330
2
100
AcDbEntity
  8
KIJUN
 62
     7
100
AcDbCircle
 10
186.0878333814632
 20
64.22414840152095
 30
0.0
 40
12.0950325682984
100
AcDbArc
 50
117.144693358908
 51
132.6139474757917
  0
ARC
  5
383
330
2
100
AcDbEntity
  8
KIJUN
 62
     7
100
AcDbCircle
 10
186.7131814624469
 20
64.10184539035864
 30
0.0
 40
12.0950325682984
100
AcDbArc
 50
119.9568178577932
 51
134.2693692428791
  0
ARC
  5
384
330
2
100
AcDbEntity
  8
KIJUN
 62
     7
100
AcDbCircle
 10
180.7562372228052
 20
77.16929935022005
 30
0.0
 40
4.874593658389467
100
AcDbArc
 50
3.772630680645579
 51
31.75488344831376
  0
ARC
  5
385
330
2
100
AcDbEntity
  8
KIJUN
 62
     7
100
AcDbCircle
 10
187.6648591156579
 20
70.35365752989358
 30
0.0
 40
6.588489308614686
100
AcDbArc
 50
316.549152037017
 51
27.4819608429126
  0
ARC
  5
386
330
2
100
AcDbEntity
  8
KIJUN
100
AcDbCircle
 10
201.1214562611853
 20
61.83011973189564
 30
0.0
 40
4.0
100
AcDbArc
 50
9.09477127600364
 51
110.2114300576497
  0
ARC
  5
387
330
2
100
AcDbEntity
  8
KIJUN
 62
     7
100
AcDbCircle
 10
206.8783533884174
 20
51.10012431916043
 30
0.0
 40
10.0
100
AcDbArc
 50
73.40089598039203
 51
128.3482319940459
  0
ARC
  5
388
330
2
100
AcDbEntity
  8
KIJUN
100
AcDbCircle
 10
204.3115086718161
 20
58.48756443787078
 30
0.0
 40
8.332630021683362
100
AcDbArc
 50
77.39682522125777
 51
119.8706527981942
  0
ARC
  5
389
330
2
100
AcDbEntity
  8
KIJUN
 62
     7
100
AcDbCircle
 10
200.0850000188626
 20
64.64539209132206
 30
0.0
 40
1.0
100
AcDbArc
 50
110.2114300576497
 51
146.586567038227
  0
ARC
  5
38A
330
2
100
AcDbEntity
  8
KIJUN
 62
     7
100
AcDbCircle
 10
189.4996774590657
 20
76.4388302223853
 30
0.0
 40
5.035120314473187
100
AcDbArc
 50
322.7920320435779
 51
42.84152647181573
  0
ARC
  5
38B
330
2
100
AcDbEntity
  8
KIJUN
 62
     7
100
AcDbCircle
 10
209.9888092481892
 20
105.0949700515833
 30
0.0
 40
46.72319414548971
100
AcDbArc
 50
185.936075977208
 51
196.1861336630976
  0
ARC
  5
38C
330
2
100
AcDbEntity
  8
KIJUN
 62
     7
100
AcDbCircle
 10
160.2856462890249
 20
82.25588109921938
 30
0.0
 40
7.532850241068977
100
AcDbArc
 50
26.92715185421623
 51
74.39290428602863
  0
ARC
  5
38D
330
2
100
AcDbEntity
  8
KIJUN
 62
     7
100
AcDbCircle
 10
165.7111540269799
 20
76.87759191405532
 30
0.0
 40
13.08262576994006
100
AcDbArc
 50
68.58698482327354
 51
105.0582419608256
  0
ARC
  5
38E
330
2
100
AcDbEntity
  8
KIJUN
100
AcDbCircle
 10
190.6916090525492
 20
86.42128732061667
 30
0.0
 40
32.19338413982312
100
AcDbArc
 50
129.6417677319519
 51
148.2861723125039
  0
ARC
  5
38F
330
2
100
AcDbEntity
  8
KIJUN
100
AcDbCircle
 10
186.782292931781
 20
86.48429903990498
 30
0.0
 40
32.53917399051344
100
AcDbArc
 50
125.5264839377459
 51
158.6697307009395
  0
ARC
  5
390
330
2
100
AcDbEntity
  8
KIJUN
100
AcDbCircle
 10
187.7033772478686
 20
85.97579983882168
 30
0.0
 40
31.49529387005474
100
AcDbArc
 50
126.081041168594
 51
164.9551442685137
  0
ARC
  5
391
330
2
100
AcDbEntity
  8
KIJUN
 62
     7
100
AcDbCircle
 10
158.5893191184167
 20
94.41351055951088
 30
0.0
 40
10.09970628131857
100
AcDbArc
 50
339.3169612961803
 51
66.17967591867828
  0
ARC
  5
392
330
2
100
AcDbEntity
  8
KIJUN
100
AcDbCircle
 10
130.3608754163841
 20
111.9360646737425
 30
0.0
 40
9.140835925656704
100
AcDbArc
 50
196.2868746280685
 51
255.3978660532505
  0
ARC
  5
393
330
2
100
AcDbEntity
  8
KIJUN
100
AcDbCircle
 10
142.4751114614052
 20
105.5942028504252
 30
0.0
 40
14.63277968485911
100
AcDbArc
 50
145.041909678049
 51
191.5639347408531
  0
ARC
  5
394
330
2
100
AcDbEntity
  8
KIJUN
100
AcDbCircle
 10
115.708342544323
 20
110.3451958263065
 30
0.0
 40
15.21434815961266
100
AcDbArc
 50
328.2039508688123
 51
13.8159915511175
  0
ARC
  5
395
330
2
100
AcDbEntity
  8
KIJUN
 62
     7
100
AcDbCircle
 10
121.954877681171
 20
107.4698104969571
 30
0.0
 40
10.72766555192126
100
AcDbArc
 50
336.8875430410966
 51
37.35238333673196
  0
LINE
  5
396
330
2
100
AcDbEntity
  8
KIJUN
100
AcDbLine
 10
138.8778609629125
 20
100.8814136650128
 30
0.0
 11
139.8870707000243
 21
99.03518632350747
 31
0.0
  0
ARC
  5
397
330
2
100
AcDbEntity
  8
KIJUN
100
AcDbCircle
 10
138.2956127084424
 20
88.81506901091031
 30
0.0
 40
6.55642799956824
100
AcDbArc
 50
248.4013986449954
 51
302.0762555874185
  0
ARC
  5
398
330
2
100
AcDbEntity
  8
KIJUN
100
AcDbCircle
 10
135.8962166166637
 20
80.40033785949118
 30
0.0
 40
7.425474641878534
100
AcDbArc
 50
31.14177066143058
 51
91.78120864335721
  0
ARC
  5
399
330
2
100
AcDbEntity
  8
KIJUN
100
AcDbCircle
 10
146.1308295213796
 20
79.00391087031469
 30
0.0
 40
14.8184172077001
100
AcDbArc
 50
99.29268940244774
 51
128.7255277599029
  0
ARC
  5
39A
330
2
100
AcDbEntity
  8
KIJUN
100
AcDbCircle
 10
128.1145055299079
 20
98.38248771533148
 30
0.0
 40
7.238192604286783
100
AcDbArc
 50
300.1449754803194
 51
18.00468279539254
  0
ARC
  5
39B
330
2
100
AcDbEntity
  8
KIJUN
100
AcDbCircle
 10
136.6012869981172
 20
95.13742825872849
 30
0.0
 40
5.711903570675795
100
AcDbArc
 50
106.2988804877623
 51
211.8507777879621
  0
ARC
  5
39C
330
2
100
AcDbEntity
  8
KIJUN
100
AcDbCircle
 10
137.811606475352
 20
88.02675623241336
 30
0.0
 40
6.237149557299089
100
AcDbArc
 50
110.2949565198314
 51
172.7082665679448
  0
ARC
  5
39D
330
2
100
AcDbEntity
  8
KIJUN
100
AcDbCircle
 10
130.992767834251
 20
91.49026454676516
 30
0.0
 40
5.940379713502826
100
AcDbArc
 50
313.68406443124
 51
21.925541985378
  0
ARC
  5
39E
330
2
100
AcDbEntity
  8
KIJUN
100
AcDbCircle
 10
126.0897652340687
 20
88.15352917550617
 30
0.0
 40
5.574919714008214
100
AcDbArc
 50
356.0740448055375
 51
80.39524235437111
  0
ARC
  5
39F
330
2
100
AcDbEntity
  8
KIJUN
100
AcDbCircle
 10
133.2422723075428
 20
91.44453742056489
 30
0.0
 40
7.574678625694242
100
AcDbArc
 50
167.5621826300482
 51
239.4536127961107
  0
ARC
  5
3A0
330
2
100
AcDbEntity
  8
KIJUN
 62
     7
100
AcDbCircle
 10
102.0014236315915
 20
75.28381487662987
 30
0.0
 40
24.47276896792706
100
AcDbArc
 50
18.45703303601804
 51
30.46782960036506
  0
CIRCLE
  5
3A1
330
2
100
AcDbEntity
  8
KIJUN
100
AcDbCircle
 10
128.7231669135855
 20
95.48011139046078
 30
0.0
 40
1.642041573286453
  0
CIRCLE
  5
3A2
330
2
100
AcDbEntity
  8
KIJUN
100
AcDbCircle
 10
128.2796008597021
 20
99.51879057935869
 30
0.0
 40
2.052551966608065
  0
ARC
  5
3A3
330
2
100
AcDbEntity
  8
KIJUN
100
AcDbCircle
 10
126.6195541331839
 20
92.98090700536128
 30
0.0
 40
0.7800000000000003
100
AcDbArc
 50
59.11474596313277
 51
172.9995552298957
  0
ARC
  5
3A4
330
2
100
AcDbEntity
  8
KIJUN
100
AcDbCircle
 10
119.8161960582552
 20
103.2653035988742
 30
0.0
 40
17.40829032314371
100
AcDbArc
 50
326.7027085363614
 51
351.0508958326263
  0
ARC
  5
3A5
330
2
100
AcDbEntity
  8
KIJUN
100
AcDbCircle
 10
136.0210908696864
 20
93.51424174274908
 30
0.0
 40
0.5200000000000001
100
AcDbArc
 50
21.92554198537869
 51
135.810351252138
  0
ARC
  5
3A6
330
2
100
AcDbEntity
  8
KIJUN
100
AcDbCircle
 10
126.5935728964977
 20
97.94024576887188
 30
0.0
 40
10.74987677909674
100
AcDbArc
 50
337.0042946743571
 51
353.2409614196966
  0
CIRCLE
  5
3A7
330
2
100
AcDbEntity
  8
KIJUN
100
AcDbCircle
 10
131.6255334698559
 20
100.7842675554156
 30
0.0
 40
1.642041573286453
  0
ARC
  5
3A8
330
2
100
AcDbEntity
  8
KIJUN
100
AcDbCircle
 10
138.0004006361574
 20
100.4017644442577
 30
0.0
 40
1.0
100
AcDbArc
 50
28.66249457700883
 51
171.0508958326288
  0
CIRCLE
  5
3A9
330
2
100
AcDbEntity
  8
KIJUN
100
AcDbCircle
 10
152.3750692948761
 20
90.74894857852898
 30
0.0
 40
2.311273173894323
  0
ARC
  5
3AA
330
2
100
AcDbEntity
  8
KIJUN
 62
     7
100
AcDbCircle
 10
152.0344599172043
 20
96.14203515140481
 30
0.0
 40
4.926879261771878
100
AcDbArc
 50
160.6246660695255
 51
248.2959839862134
  0
ARC
  5
3AB
330
2
100
AcDbEntity
  8
KIJUN
 62
     7
100
AcDbCircle
 10
159.8939435815933
 20
87.24345844716149
 30
0.0
 40
7.383061893553231
100
AcDbArc
 50
95.37984989123717
 51
139.4104971782378
  0
ARC
  5
3AC
330
2
100
AcDbEntity
  8
KIJUN
 62
     7
100
AcDbCircle
 10
155.7841579308349
 20
90.74759770567338
 30
0.0
 40
5.145340899247573
100
AcDbArc
 50
320.678851147616
 51
48.37860566955622
  0
ARC
  5
3AD
330
2
100
AcDbEntity
  8
KIJUN
 62
     7
100
AcDbCircle
 10
172.4784328059967
 20
97.60565491041859
 30
0.0
 40
11.52423598506685
100
AcDbArc
 50
148.3492252031041
 51
216.0277792399558
  0
ARC
  5
3AE
330
2
100
AcDbEntity
  8
KIJUN
 62
     7
100
AcDbCircle
 10
150.5705980507875
 20
89.87924398755147
 30
0.0
 40
7.793377082310787
100
AcDbArc
 50
143.828156424361
 51
182.2672803083813
  0
ARC
  5
3AF
330
2
100
AcDbEntity
  8
KIJUN
 62
     7
100
AcDbCircle
 10
144.4976788539908
 20
91.55139500609488
 30
0.0
 40
6.287448437110077
100
AcDbArc
 50
273.6063187948935
 51
340.8530411349454
  0
ARC
  5
3B0
330
2
100
AcDbEntity
  8
KIJUN
 62
     7
100
AcDbCircle
 10
146.303911158042
 20
88.63501003695487
 30
0.0
 40
3.642868629594856
100
AcDbArc
 50
165.1127307127907
 51
247.2156998806943
  0
ARC
  5
3B1
330
2
100
AcDbEntity
  8
KIJUN
 62
     7
100
AcDbCircle
 10
149.7729064000757
 20
84.67459507029579
 30
0.0
 40
3.503385593756436
100
AcDbArc
 50
165.4834812180907
 51
247.3252185383799
  0
ARC
  5
3B2
330
2
100
AcDbEntity
  8
KIJUN
100
AcDbCircle
 10
141.6952795450943
 20
83.90432498487291
 30
0.0
 40
0.65
100
AcDbArc
 50
277.2569613946603
 51
31.14177066142937
  0
ARC
  5
3B3
330
2
100
AcDbEntity
  8
KIJUN
100
AcDbCircle
 10
165.3426858881879
 20
86.19604570715758
 30
0.0
 40
4.491350286977509
100
AcDbArc
 50
132.4324878708591
 51
186.6268727515626
  0
ARC
  5
3B4
330
2
100
AcDbEntity
  8
KIJUN
100
AcDbCircle
 10
165.3426858881888
 20
86.19604570715758
 30
0.0
 40
4.491350286977509
100
AcDbArc
 50
132.4324878708591
 51
186.6268727515626
  0
ARC
  5
3B5
330
2
100
AcDbEntity
  8
KIJUN
 62
     7
100
AcDbCircle
 10
153.4292858918672
 20
84.48278220102777
 30
0.0
 40
7.011624041737278
100
AcDbArc
 50
356.6990473698658
 51
40.41695467788285
  0
ARC
  5
3B6
330
2
100
AcDbEntity
  8
KIJUN
 62
     7
100
AcDbCircle
 10
161.038870063173
 20
89.5916844154547
 30
0.0
 40
6.935812512827626
100
AcDbArc
 50
195.8955582390186
 51
251.6305398638178
  0
ARC
  5
3B7
330
2
100
AcDbEntity
  8
KIJUN
100
AcDbCircle
 10
158.8947059434253
 20
85.44692410141911
 30
0.0
 40
2.0
100
AcDbArc
 50
339.6766303201502
 51
6.626872751562651
  0
ARC
  5
3B8
330
2
100
AcDbEntity
  8
KIJUN
100
AcDbCircle
 10
158.8947059434262
 20
85.44692410141911
 30
0.0
 40
2.0
100
AcDbArc
 50
339.6766303201502
 51
6.626872751562651
  0
ARC
  5
3B9
330
2
100
AcDbEntity
  8
KIJUN
 62
     7
100
AcDbCircle
 10
159.2312676321228
 20
84.1481452511268
 30
0.0
 40
1.199999999999999
100
AcDbArc
 50
251.6305398638178
 51
356.6990473698658
  0
ARC
  5
3BA
330
2
100
AcDbEntity
  8
KIJUN
 62
     7
100
AcDbCircle
 10
152.0017792999576
 20
76.62407514962288
 30
0.0
 40
14.12980519338203
100
AcDbArc
 50
61.39095098497115
 51
79.10355037460587
  0
ARC
  5
3BB
330
2
100
AcDbEntity
  8
KIJUN
 62
     7
100
AcDbCircle
 10
144.1676080633386
 20
93.88551698743489
 30
0.0
 40
8.647140916948393
100
AcDbArc
 50
354.2947562734628
 51
37.882822181117
  0
ARC
  5
3BC
330
2
100
AcDbEntity
  8
KIJUN
 62
     7
100
AcDbCircle
 10
150.0638918696903
 20
96.26369070349689
 30
0.0
 40
3.075155137534324
100
AcDbArc
 50
72.42354509348231
 51
150.5303372407084
  0
ARC
  5
3BD
330
2
100
AcDbEntity
  8
KIJUN
 62
     7
100
AcDbCircle
 10
118.9340695122211
 20
94.16868103285898
 30
0.0
 40
21.51072133890428
100
AcDbArc
 50
355.9943495768485
 51
13.07558574061585
  0
ARC
  5
3BE
330
2
100
AcDbEntity
  8
KIJUN
 62
     7
100
AcDbCircle
 10
145.4040854024717
 20
91.30350409443598
 30
0.0
 40
3.368752498848853
100
AcDbArc
 50
46.2062530435983
 51
109.5032807582723
  0
ARC
  5
3BF
330
2
100
AcDbEntity
  8
KIJUN
100
AcDbCircle
 10
154.915556685451
 20
96.11479851756651
 30
0.0
 40
2.699369174805541
100
AcDbArc
 50
36.27315379726939
 51
127.5854936087776
  0
ARC
  5
3C0
330
2
100
AcDbEntity
  8
KIJUN
100
AcDbCircle
 10
149.7999746547315
 20
96.30937533734453
 30
0.0
 40
7.425474641878534
100
AcDbArc
 50
341.6230239276767
 51
10.88697486743443
  0
ARC
  5
3C1
330
2
100
AcDbEntity
  8
KIJUN
100
AcDbCircle
 10
159.4859325225571
 20
94.19328723058738
 30
0.0
 40
7.425474641878534
100
AcDbArc
 50
146.8489183700834
 51
162.1273690154183
  0
ARC
  5
3C2
330
2
100
AcDbEntity
  8
KIJUN
100
AcDbCircle
 10
119.9166186953262
 20
100.4789518288567
 30
0.0
 40
9.049074254857703
100
AcDbArc
 50
28.57397602333593
 51
79.36355699435965
  0
ARC
  5
3C3
330
2
100
AcDbEntity
  8
KIJUN
100
AcDbCircle
 10
120.2417843258835
 20
111.8402983119991
 30
0.0
 40
2.052551966608065
100
AcDbArc
 50
271.5963548200861
 51
88.40364517991385
  0
CIRCLE
  5
3C4
330
2
100
AcDbEntity
  8
KIJUN
100
AcDbCircle
 10
124.3839049481929
 20
111.8402983119991
 30
0.0
 40
1.642041573286453
  0
ARC
  5
3C5
330
2
100
AcDbEntity
  8
KIJUN
 62
     7
100
AcDbCircle
 10
183.8237273253063
 20
100.516975091264
 30
0.0
 40
6.464866895955521
100
AcDbArc
 50
112.7732471754502
 51
194.0766784763443
  0
ARC
  5
3C6
330
2
100
AcDbEntity
  8
KIJUN
 62
     7
100
AcDbCircle
 10
180.465405884655
 20
104.5522472301056
 30
0.0
 40
2.107254197421843
100
AcDbArc
 50
315.9798256534241
 51
66.03659511183534
  0
ARC
  5
3C7
330
2
100
AcDbEntity
  8
KIJUN
 62
     7
100
AcDbCircle
 10
167.9081674052482
 20
99.28294513910978
 30
0.0
 40
8.011443473586092
100
AcDbArc
 50
352.8474445929134
 51
62.41521451826717
  0
ARC
  5
3C8
330
2
100
AcDbEntity
  8
KIJUN
 62
     7
100
AcDbCircle
 10
173.0124416786382
 20
103.5587217549173
 30
0.0
 40
3.15041358644382
100
AcDbArc
 50
116.2722552823729
 51
210.5393909124962
  0
ARC
  5
3C9
330
2
100
AcDbEntity
  8
KIJUN
 62
     7
100
AcDbCircle
 10
189.0327993171619
 20
101.3025639317049
 30
0.0
 40
3.164214581028633
100
AcDbArc
 50
87.69100532143623
 51
158.7495115217718
  0
ARC
  5
3CA
330
2
100
AcDbEntity
  8
KIJUN
 62
     7
100
AcDbCircle
 10
185.5761992120788
 20
99.1943737677948
 30
0.0
 40
6.373132043324566
100
AcDbArc
 50
338.2157062990907
 51
55.77988345576015
  0
ARC
  5
3CB
330
2
100
AcDbEntity
  8
KIJUN
100
AcDbCircle
 10
163.0691166332856
 20
86.42128732061667
 30
0.0
 40
32.19338413982312
100
AcDbArc
 50
31.71382768749603
 51
50.35823226804803
  0
ARC
  5
3CC
330
2
100
AcDbEntity
  8
KIJUN
100
AcDbCircle
 10
166.0573484379662
 20
85.97579983882168
 30
0.0
 40
31.49529387005474
100
AcDbArc
 50
23.19293799119189
 51
53.91895883140595
  0
ARC
  5
3CD
330
2
100
AcDbEntity
  8
KIJUN
100
AcDbCircle
 10
166.978432754067
 20
86.48429903990498
 30
0.0
 40
32.53917399051344
100
AcDbArc
 50
24.7639384989909
 51
54.47351606225413
  0
ARC
  5
3CE
330
2
100
AcDbEntity
  8
KIJUN
 62
     7
100
AcDbCircle
 10
176.6976854409542
 20
97.5715103921528
 30
0.0
 40
10.57789954994838
100
AcDbArc
 50
347.8471027114687
 51
27.4608028258838
  0
ARC
  5
3CF
330
2
100
AcDbEntity
  8
KIJUN
 62
     7
100
AcDbCircle
 10
185.0117279336097
 20
94.74089678366558
 30
0.0
 40
6.758782251179535
100
AcDbArc
 50
117.5416227894892
 51
217.1633912084963
  0
ARC
  5
3D0
330
2
100
AcDbEntity
  8
KIJUN
 62
     7
100
AcDbCircle
 10
171.7122618516965
 20
100.0486289874443
 30
0.0
 40
2.375389354257883
100
AcDbArc
 50
126.5081844671497
 51
258.5599878393312
  0
ARC
  5
3D1
330
2
100
AcDbEntity
  8
KIJUN
 62
     7
100
AcDbCircle
 10
173.0150297695909
 20
96.46171246366501
 30
0.0
 40
4.249843017014423
100
AcDbArc
 50
142.2216656949767
 51
219.90604657892
  0
ARC
  5
3D2
330
2
100
AcDbEntity
  8
KIJUN
 62
     7
100
AcDbCircle
 10
187.8605665726296
 20
107.6625866576665
 30
0.0
 40
20.13258317879999
100
AcDbArc
 50
205.2797536835077
 51
219.7046368193189
  0
ARC
  5
3D3
330
2
100
AcDbEntity
  8
KIJUN
 62
     7
100
AcDbCircle
 10
170.4377089601527
 20
95.8039052301124
 30
0.0
 40
2.178349012635354
100
AcDbArc
 50
251.7349640584884
 51
332.5957760650892
  0
ARC
  5
3D4
330
2
100
AcDbEntity
  8
KIJUN
 62
     7
100
AcDbCircle
 10
193.1180113983351
 20
96.77833104784667
 30
0.0
 40
11.90763513828726
100
AcDbArc
 50
160.5992016300101
 51
193.1361113012046
  0
ARC
  5
3D5
330
2
100
AcDbEntity
  8
KIJUN
 62
     7
100
AcDbCircle
 10
185.8738779688401
 20
96.97095709096659
 30
0.0
 40
5.482481653967433
100
AcDbArc
 50
87.80629828058726
 51
136.6598152508439
  0
ARC
  5
3D6
330
2
100
AcDbEntity
  8
KIJUN
 62
     7
100
AcDbCircle
 10
192.9315117052731
 20
91.69431186812278
 30
0.0
 40
3.740797864487841
100
AcDbArc
 50
326.0217281221877
 51
56.52001074604349
  0
ARC
  5
3D7
330
2
100
AcDbEntity
  8
KIJUN
 62
     7
100
AcDbCircle
 10
208.8597751262302
 20
91.50577137955556
 30
0.0
 40
7.793377082310787
100
AcDbArc
 50
143.828156424361
 51
182.2672803083813
  0
ARC
  5
3D8
330
2
100
AcDbEntity
  8
KIJUN
 62
     7
100
AcDbCircle
 10
200.1273155319331
 20
84.88822237740079
 30
0.0
 40
11.17448815346009
100
AcDbArc
 50
117.3405980843197
 51
164.2483907304206
  0
ARC
  5
3D9
330
2
100
AcDbEntity
  8
KIJUN
 62
     7
100
AcDbCircle
 10
201.763003675666
 20
91.39538770763079
 30
0.0
 40
8.645753356678902
100
AcDbArc
 50
244.9322781001764
 51
297.1711004632273
  0
ARC
  5
3DA
330
2
100
AcDbEntity
  8
KIJUN
 62
     7
100
AcDbCircle
 10
182.2628506321006
 20
85.47318736098759
 30
0.0
 40
15.95170407481974
100
AcDbArc
 50
346.1893081661582
 51
7.675033714872409
  0
LINE
  5
3DB
330
2
100
AcDbEntity
  8
KIJUN
 62
     7
100
AcDbLine
 10
191.8124749976169
 20
85.58881795078818
 30
0.0
 11
194.676843788408
 21
85.80090109541018
 31
0.0
  0
LINE
  5
3DC
330
2
100
AcDbEntity
  8
KIJUN
 62
     7
100
AcDbLine
 10
191.9185635145394
 20
85.05861008923337
 30
0.0
 11
194.7829323053305
 21
85.27069323385537
 31
0.0
  0
LINE
  5
3DD
330
2
100
AcDbEntity
  8
KIJUN
 62
     7
100
AcDbLine
 10
191.9185635145394
 20
84.31631995244229
 30
0.0
 11
194.7829323053305
 21
84.52840309706429
 31
0.0
  0
LINE
  5
3DE
330
2
100
AcDbEntity
  8
KIJUN
 62
     7
100
AcDbLine
 10
192.3429136135824
 20
83.57402894626549
 30
0.0
 11
195.2072824043735
 21
83.78611209088736
 31
0.0
  0
LINE
  5
3DF
330
2
100
AcDbEntity
  8
KIJUN
 62
     7
100
AcDbLine
 10
191.7063864806947
 20
86.22506738465387
 30
0.0
 11
194.5707552714857
 21
86.43715052927587
 31
0.0
  0
ARC
  5
3E0
330
2
100
AcDbEntity
  8
KIJUN
 62
     7
100
AcDbCircle
 10
194.8677040385499
 20
86.37718292155829
 30
0.0
 40
3.430654936444006
100
AcDbArc
 50
20.94611382076197
 51
157.1450346753242
  0
ARC
  5
3E1
330
2
100
AcDbEntity
  8
KIJUN
 62
     7
100
AcDbCircle
 10
202.7868559294335
 20
93.17792239809909
 30
0.0
 40
6.287448437110077
100
AcDbArc
 50
273.6063187948935
 51
340.8530411349454
  0
ARC
  5
3E2
330
2
100
AcDbEntity
  8
KIJUN
 62
     7
100
AcDbCircle
 10
208.0620834755184
 20
86.30112246229996
 30
0.0
 40
3.503385593756436
100
AcDbArc
 50
165.4834812180907
 51
247.3252185383799
  0
ARC
  5
3E3
330
2
100
AcDbEntity
  8
KIJUN
 62
     7
100
AcDbCircle
 10
204.5930882334847
 20
90.26153742895898
 30
0.0
 40
3.642868629594856
100
AcDbArc
 50
165.1127307127907
 51
247.2156998806943
  0
ARC
  5
3E4
330
2
100
AcDbEntity
  8
KIJUN
 62
     7
100
AcDbCircle
 10
200.2110792497387
 20
99.53243071409701
 30
0.0
 40
1.985651951826823
100
AcDbArc
 50
50.7853951257511
 51
166.0694919870106
  0
ARC
  5
3E5
330
2
100
AcDbEntity
  8
KIJUN
 62
     7
100
AcDbCircle
 10
193.3769972678508
 20
106.1458820364499
 30
0.0
 40
11.44639940418509
100
AcDbArc
 50
278.1267864836455
 51
319.6704520312419
  0
ARC
  5
3E6
330
2
100
AcDbEntity
  8
KIJUN
 62
     7
100
AcDbCircle
 10
193.8291121620263
 20
96.19326952621207
 30
0.0
 40
2.419958289475618
100
AcDbArc
 50
61.19535119838348
 51
164.7640951705878
  0
ARC
  5
3E7
330
2
100
AcDbEntity
  8
KIJUN
 62
     7
100
AcDbCircle
 10
197.2782789428898
 20
97.92389900380308
 30
0.0
 40
2.316223799605482
100
AcDbArc
 50
64.26985339983173
 51
170.3089733357529
  0
ARC
  5
3E8
330
2
100
AcDbEntity
  8
KIJUN
 62
     7
100
AcDbCircle
 10
210.323636992647
 20
97.76856254340888
 30
0.0
 40
4.926879261771878
100
AcDbArc
 50
160.6246660695255
 51
248.2959839862134
  0
ARC
  5
3E9
330
2
100
AcDbEntity
  8
KIJUN
 62
     7
100
AcDbCircle
 10
201.3984334754607
 20
100.4191442865394
 30
0.0
 40
4.014129128280118
100
AcDbArc
 50
283.2014187121603
 51
30.38331753584122
  0
ARC
  5
3EA
330
2
100
AcDbEntity
  8
KIJUN
 62
     7
100
AcDbCircle
 10
203.6932624779144
 20
92.93003148644009
 30
0.0
 40
3.368752498848853
100
AcDbArc
 50
46.2062530435983
 51
109.5032807582723
  0
ARC
  5
3EB
330
2
100
AcDbEntity
  8
KIJUN
 62
     7
100
AcDbCircle
 10
203.8592151312298
 20
100.0477731170436
 30
0.0
 40
2.602310220128863
100
AcDbArc
 50
67.35240827508308
 51
156.8491302949332
  0
ARC
  5
3EC
330
2
100
AcDbEntity
  8
KIJUN
 62
     7
100
AcDbCircle
 10
208.353068945133
 20
97.89021809550099
 30
0.0
 40
3.075155137534324
100
AcDbArc
 50
72.42354509348231
 51
150.5303372407084
  0
ARC
  5
3ED
330
2
100
AcDbEntity
  8
KIJUN
100
AcDbCircle
 10
175.7974752730707
 20
102.1260513846321
 30
0.0
 40
13.42695975091153
100
AcDbArc
 50
84.08582615168944
 51
126.1628928906881
  0
ARC
  5
3EE
330
2
100
AcDbEntity
  8
KIJUN
100
AcDbCircle
 10
178.4747239939287
 20
103.637373440055
 30
0.0
 40
11.91462043033478
100
AcDbArc
 50
51.53366201182079
 51
96.2337751136455
  0
ARC
  5
3EF
330
2
100
AcDbEntity
  8
KIJUN
100
AcDbCircle
 10
177.4668950608903
 20
102.1573002341793
 30
0.0
 40
12.45267310292941
100
AcDbArc
 50
91.31567839383654
 51
131.8734748469742
  0
ARC
  5
3F0
330
2
100
AcDbEntity
  8
KIJUN
100
AcDbCircle
 10
177.0354094858117
 20
103.4512894849642
 30
0.0
 40
10.37287278657123
100
AcDbArc
 50
90.8564502117869
 51
131.5696557399155
  0
ARC
  5
3F1
330
2
100
AcDbEntity
  8
KIJUN
100
AcDbCircle
 10
177.0354094858123
 20
103.4512894849644
 30
0.0
 40
10.37287278657096
100
AcDbArc
 50
90.8564502117869
 51
131.569655739915
  0
ARC
  5
3F2
330
2
100
AcDbEntity
  8
KIJUN
 62
     7
100
AcDbCircle
 10
185.5855133507533
 20
103.180933624549
 30
0.0
 40
11.49419771041825
100
AcDbArc
 50
138.4182032167606
 51
174.3671760864143
  0
ARC
  5
3F3
330
2
100
AcDbEntity
  8
KIJUN
 62
     7
100
AcDbCircle
 10
173.8061027211408
 20
106.4624357629226
 30
0.0
 40
5.387008624852465
100
AcDbArc
 50
340.9502535997798
 51
53.799345883978
  0
ARC
  5
3F4
330
2
100
AcDbEntity
  8
KIJUN
100
AcDbCircle
 10
176.7253162000224
 20
103.4512894849644
 30
0.0
 40
10.37287278657096
100
AcDbArc
 50
48.43034426008476
 51
89.14354978821313
  0
ARC
  5
3F5
330
2
100
AcDbEntity
  8
KIJUN
100
AcDbCircle
 10
176.725316200023
 20
103.4512894849642
 30
0.0
 40
10.37287278657123
100
AcDbArc
 50
48.43034426008443
 51
89.14354978821313
  0
ARC
  5
3F6
330
2
100
AcDbEntity
  8
KIJUN
100
AcDbCircle
 10
176.2938306249445
 20
102.1573002341793
 30
0.0
 40
12.45267310292941
100
AcDbArc
 50
48.1265251530258
 51
88.68432160616345
  0
ELLIPSE
  5
3F7
330
2
100
AcDbEntity
  8
KIJUN
 62
     7
100
AcDbEllipse
 10
223.7129814513105
 20
85.73420400430268
 30
0.0
 11
0.3795666553083379
 21
1.011738516150022
 31
0.0
210
0.0
220
0.0
230
-0.9999999999999998
 40
0.5694389254659484
 41
0.0
 42
6.283185307179584
  0
ELLIPSE
  5
3F8
330
2
100
AcDbEntity
  8
KIJUN
 62
     7
100
AcDbEllipse
 10
338.6526594917112
 20
85.73420400430268
 30
0.0
 11
0.3795666553083379
 21
1.011738516150022
 31
0.0
210
0.0
220
0.0
230
-0.9999999999999998
 40
0.5694389254659484
 41
0.0
 42
6.283185307179584
  0
ELLIPSE
  5
3F9
330
2
100
AcDbEntity
  8
KIJUN
 62
     7
100
AcDbEllipse
 10
304.7321266923411
 20
79.68857419040887
 30
0.0
 11
-0.0776489392262278
 21
1.402625903806856
 31
0.0
210
0.0
220
0.0
230
1.0
 40
0.5694389254659484
 41
0.0
 42
6.283185307179584
  0
ELLIPSE
  5
3FA
330
2
100
AcDbEntity
  8
KIJUN
 62
     7
100
AcDbEllipse
 10
305.5808282133099
 20
82.76377804865559
 30
0.0
 11
-0.0776489392262278
 21
1.402625903806856
 31
0.0
210
0.0
220
0.0
230
1.0
 40
0.5694389254659484
 41
0.0
 42
6.283185307179584
  0
ELLIPSE
  5
3FB
330
2
100
AcDbEntity
  8
KIJUN
 62
     7
100
AcDbEllipse
 10
303.3008071628445
 20
82.75140782368948
 30
0.0
 11
-0.1009436209940962
 21
1.823413674948914
 31
0.0
210
0.0
220
0.0
230
1.0
 40
0.5694389254659483
 41
0.0
 42
6.283185307179584
  0
ELLIPSE
  5
3FC
330
2
100
AcDbEntity
  8
KIJUN
 62
     7
100
AcDbEllipse
 10
302.4763490384904
 20
85.47668747204168
 30
0.0
 11
-0.0776489392262278
 21
1.402625903806856
 31
0.0
210
0.0
220
0.0
230
1.0
 40
0.5694389254659484
 41
0.0
 42
6.283185307179584
  0
ELLIPSE
  5
3FD
330
2
100
AcDbEntity
  8
KIJUN
 62
     7
100
AcDbEllipse
 10
301.4746885027529
 20
83.22484436024687
 30
0.0
 11
-0.0776489392262278
 21
1.402625903806856
 31
0.0
210
0.0
220
0.0
230
1.0
 40
0.5694389254659484
 41
0.0
 42
6.283185307179584
  0
ELLIPSE
  5
3FE
330
2
100
AcDbEntity
  8
KIJUN
 62
     7
100
AcDbEllipse
 10
304.2016880763751
 20
85.62689963166597
 30
0.0
 11
-0.0776489392262278
 21
1.402625903806856
 31
0.0
210
0.0
220
0.0
230
1.0
 40
0.5694389254659484
 41
0.0
 42
6.283185307179584
  0
ELLIPSE
  5
3FF
330
2
100
AcDbEntity
  8
KIJUN
 62
     7
100
AcDbEllipse
 10
283.1739418588791
 20
77.63593067115586
 30
0.0
 11
-0.4934366519008393
 21
1.315260070995029
 31
0.0
210
0.0
220
0.0
230
1.0
 40
0.5694389254659484
 41
0.0
 42
6.283185307179584
  0
ELLIPSE
  5
400
330
2
100
AcDbEntity
  8
KIJUN
 62
     7
100
AcDbEllipse
 10
283.1739418588791
 20
80.64924106972148
 30
0.0
 11
-0.4934366519008393
 21
1.315260070995029
 31
0.0
210
0.0
220
0.0
230
1.0
 40
0.5694389254659484
 41
0.0
 42
6.283185307179584
  0
ELLIPSE
  5
401
330
2
100
AcDbEntity
  8
KIJUN
 62
     7
100
AcDbEllipse
 10
281.2898016821014
 20
77.54176428046936
 30
0.0
 11
-0.4934366519008393
 21
1.315260070995029
 31
0.0
210
0.0
220
0.0
230
1.0
 40
0.5694389254659484
 41
0.0
 42
6.283185307179584
  0
ELLIPSE
  5
402
330
2
100
AcDbEntity
  8
KIJUN
 62
     7
100
AcDbEllipse
 10
281.5724224786881
 20
79.99007935707367
 30
0.0
 11
-0.4934366519008393
 21
1.315260070995029
 31
0.0
210
0.0
220
0.0
230
1.0
 40
0.5694389254659484
 41
0.0
 42
6.283185307179584
  0
ELLIPSE
  5
403
330
2
100
AcDbEntity
  8
KIJUN
 62
     7
100
AcDbEllipse
 10
246.7643034434786
 20
85.73420400430268
 30
0.0
 11
-0.3795666553083379
 21
1.011738516150022
 31
0.0
210
0.0
220
0.0
230
0.9999999999999998
 40
0.5694389254659484
 41
0.0
 42
6.283185307179584
  0
ARC
  5
404
330
2
100
AcDbEntity
  8
KIJUN
100
AcDbCircle
 10
279.1234978280912
 20
86.7379930730757
 30
0.0
 40
35.16123680898249
100
AcDbArc
 50
297.7495076170812
 51
318.0674349606802
  0
ARC
  5
405
330
2
100
AcDbEntity
  8
KIJUN
 62
     7
100
AcDbCircle
 10
295.8957724355506
 20
77.26501701780337
 30
0.0
 40
26.91658708547095
100
AcDbArc
 50
270.2628617763672
 51
317.1009688906606
  0
ARC
  5
406
330
2
100
AcDbEntity
  8
KIJUN
 62
     7
100
AcDbCircle
 10
295.8957724355506
 20
77.26501701780337
 30
0.0
 40
21.91658708547095
100
AcDbArc
 50
269.2668704037213
 51
326.5865670382263
  0
ARC
  5
407
330
2
100
AcDbEntity
  8
KIJUN
100
AcDbCircle
 10
279.6378334678794
 20
86.75249599411749
 30
0.0
 40
36.75027126811985
100
AcDbArc
 50
301.9972220230836
 51
353.7725436553663
  0
ARC
  5
408
330
2
100
AcDbEntity
  8
KIJUN
100
AcDbCircle
 10
281.9181107944677
 20
86.48429903990498
 30
0.0
 40
32.53917399051344
100
AcDbArc
 50
24.7639384989909
 51
54.47351606225413
  0
ARC
  5
409
330
2
100
AcDbEntity
  8
KIJUN
100
AcDbCircle
 10
280.9970264783667
 20
85.97579983882168
 30
0.0
 40
31.49529387005474
100
AcDbArc
 50
23.19293799119189
 51
53.91895883140595
  0
ARC
  5
40A
330
2
100
AcDbEntity
  8
KIJUN
100
AcDbCircle
 10
278.0087946736861
 20
86.42128732061667
 30
0.0
 40
32.19338413982312
100
AcDbArc
 50
31.71382768749603
 51
50.35823226804803
  0
ARC
  5
40B
330
2
100
AcDbEntity
  8
KIJUN
 62
     7
100
AcDbCircle
 10
249.9468612775032
 20
40.04074944108063
 30
0.0
 40
62.96136316172123
100
AcDbArc
 50
24.1725463051961
 51
43.5183344863011
  0
ARC
  5
40C
330
2
100
AcDbEntity
  8
KIJUN
 62
     7
100
AcDbCircle
 10
306.4289556786134
 20
77.23098057984072
 30
0.0
 40
11.44864019901663
100
AcDbArc
 50
220.8606139976372
 51
274.8029836430084
  0
ARC
  5
40D
330
2
100
AcDbEntity
  8
KIJUN
 62
     7
100
AcDbCircle
 10
315.0669935723338
 20
84.88822237740079
 30
0.0
 40
11.17448815346009
100
AcDbArc
 50
117.3405980843197
 51
164.2483907304206
  0
ARC
  5
40E
330
2
100
AcDbEntity
  8
KIJUN
 62
     7
100
AcDbCircle
 10
300.5158772524795
 20
99.1943737677948
 30
0.0
 40
6.373132043324566
100
AcDbArc
 50
338.2157062990907
 51
55.77988345576015
  0
ARC
  5
40F
330
2
100
AcDbEntity
  8
KIJUN
100
AcDbCircle
 10
224.1385674594059
 20
81.67309066172256
 30
0.0
 40
4.60352749379198
100
AcDbArc
 50
130.0377007288064
 51
205.4798421206288
  0
ARC
  5
410
330
2
100
AcDbEntity
  8
KIJUN
100
AcDbCircle
 10
219.8721334133696
 20
78.03380978304621
 30
0.0
 40
9.2640702269321
100
AcDbArc
 50
350.6680067603991
 51
55.47406146829472
  0
ARC
  5
411
330
2
100
AcDbEntity
  8
KIJUN
100
AcDbCircle
 10
232.1293095408445
 20
83.7337678086922
 30
0.0
 40
8.910569570254242
100
AcDbArc
 50
175.2765710073148
 51
241.3917617405551
  0
ARC
  5
412
330
2
100
AcDbEntity
  8
KIJUN
 62
     7
100
AcDbCircle
 10
243.7050463010514
 20
77.92082174414971
 30
0.0
 40
14.32551414772814
100
AcDbArc
 50
159.0980514343937
 51
212.109059797887
  0
ARC
  5
413
330
2
100
AcDbEntity
  8
KIJUN
 62
     7
100
AcDbCircle
 10
200.023646637831
 20
80.71714183957839
 30
0.0
 40
33.16111248613231
100
AcDbArc
 50
351.7568889814945
 51
12.14332441922123
  0
ARC
  5
414
330
2
100
AcDbEntity
  8
KIJUN
100
AcDbCircle
 10
220.6343749684652
 20
82.98949535517207
 30
0.0
 40
3.331699572601231
100
AcDbArc
 50
277.553571923113
 51
330.7274593799665
  0
ARC
  5
415
330
2
100
AcDbEntity
  8
KIJUN
 62
     7
100
AcDbCircle
 10
-1443.090832094447
 20
-988.0369271977478
 30
0.0
 40
2045.319384626116
100
AcDbArc
 50
31.4563481043806
 51
31.81575135814596
  0
ARC
  5
416
330
2
100
AcDbEntity
  8
KIJUN
 62
     7
100
AcDbCircle
 10
312.0506085322397
 20
79.00613067378619
 30
0.0
 40
17.02259783240156
100
AcDbArc
 50
165.058530136875
 51
212.9756043867213
  0
ARC
  5
417
330
2
100
AcDbEntity
  8
KIJUN
 62
     7
100
AcDbCircle
 10
290.8780596667174
 20
85.11188949919748
 30
0.0
 40
3.082753420725512
100
AcDbArc
 50
246.8571409121167
 51
27.06782056721814
  0
ARC
  5
418
330
2
100
AcDbEntity
  8
KIJUN
 62
     7
100
AcDbCircle
 10
-1349.253917876323
 20
-709.9916442429822
 30
0.0
 40
1828.436817982179
100
AcDbArc
 50
25.58905118947629
 51
25.96917284669214
  0
ARC
  5
419
330
2
100
AcDbEntity
  8
KIJUN
 62
     7
100
AcDbCircle
 10
262.6115106393802
 20
80.6750461658405
 30
0.0
 40
24.30664624423594
100
AcDbArc
 50
346.7903062687605
 51
20.17256147828959
  0
ARC
  5
41A
330
2
100
AcDbEntity
  8
KIJUN
 62
     7
100
AcDbCircle
 10
275.9464226505062
 20
78.64409423576096
 30
0.0
 40
14.08247433575274
100
AcDbArc
 50
343.9216693547463
 51
47.68326866642811
  0
ARC
  5
41B
330
2
100
AcDbEntity
  8
KIJUN
 62
     7
100
AcDbCircle
 10
256.634947874511
 20
95.20821592019148
 30
0.0
 40
15.32196142403054
100
AcDbArc
 50
255.176817339985
 51
296.0431766405073
  0
ARC
  5
41C
330
2
100
AcDbEntity
  8
KIJUN
 62
     7
100
AcDbCircle
 10
264.9859886195877
 20
83.04057398703418
 30
0.0
 40
5.843020034781067
100
AcDbArc
 50
335.0631995609213
 51
30.92367737407544
  0
ARC
  5
41D
330
2
100
AcDbEntity
  8
KIJUN
 62
     7
100
AcDbCircle
 10
272.4502739104045
 20
84.65995616450598
 30
0.0
 40
5.779843760689687
100
AcDbArc
 50
191.306414945303
 51
229.9946920548705
  0
ARC
  5
41E
330
2
100
AcDbEntity
  8
KIJUN
 62
     7
100
AcDbCircle
 10
262.5649515816233
 20
86.59828897353071
 30
0.0
 40
5.217539120448133
100
AcDbArc
 50
278.7874244539327
 51
20.68653725412534
  0
ARC
  5
41F
330
2
100
AcDbEntity
  8
KIJUN
100
AcDbCircle
 10
249.8429099263239
 20
82.98949535517207
 30
0.0
 40
3.331699572601231
100
AcDbArc
 50
209.2725406200333
 51
262.446428076887
  0
ARC
  5
420
330
2
100
AcDbEntity
  8
KIJUN
 62
     7
100
AcDbCircle
 10
270.4536382569582
 20
80.71714183957839
 30
0.0
 40
33.16111248613231
100
AcDbArc
 50
167.8566755807787
 51
188.2431110185055
  0
ARC
  5
421
330
2
100
AcDbEntity
  8
KIJUN
 62
     7
100
AcDbCircle
 10
226.7722385937377
 20
77.92082174414971
 30
0.0
 40
14.32551414772814
100
AcDbArc
 50
327.8909402021128
 51
20.90194856560628
  0
ARC
  5
422
330
2
100
AcDbEntity
  8
KIJUN
100
AcDbCircle
 10
304.8479339661092
 20
85.8661395156035
 30
0.0
 40
33.68824455369994
100
AcDbArc
 50
182.1885188269813
 51
201.1639492850445
  0
ARC
  5
423
330
2
100
AcDbEntity
  8
KIJUN
100
AcDbCircle
 10
281.7394885274509
 20
84.67968714761779
 30
0.0
 40
6.030046909847436
100
AcDbArc
 50
179.3101530238581
 51
226.7939664892264
  0
ARC
  5
424
330
2
100
AcDbEntity
  8
KIJUN
100
AcDbCircle
 10
281.7394885274509
 20
84.67968714761779
 30
0.0
 40
6.030046909847436
100
AcDbArc
 50
179.3101530238581
 51
226.7939664892264
  0
ARC
  5
425
330
2
100
AcDbEntity
  8
KIJUN
100
AcDbCircle
 10
246.3387174353834
 20
81.67309066172256
 30
0.0
 40
4.60352749379198
100
AcDbArc
 50
334.5201578793711
 51
49.9622992711934
  0
ARC
  5
426
330
2
100
AcDbEntity
  8
KIJUN
100
AcDbCircle
 10
238.3479753539446
 20
83.7337678086922
 30
0.0
 40
8.910569570254242
100
AcDbArc
 50
298.6082382594446
 51
4.723428992685041
  0
ARC
  5
427
330
2
100
AcDbEntity
  8
KIJUN
100
AcDbCircle
 10
250.6051514814194
 20
78.03380978304621
 30
0.0
 40
9.2640702269321
100
AcDbArc
 50
124.5259385317052
 51
189.3319932396006
  0
ARC
  5
428
330
2
100
AcDbEntity
  8
KIJUN
100
AcDbCircle
 10
230.9729552878677
 20
37.92036292780941
 30
0.0
 40
29.88167008865158
100
AcDbArc
 50
23.07312194637775
 51
72.07163029939284
  0
LINE
  5
429
330
2
100
AcDbEntity
  8
KIJUN
100
AcDbLine
 10
256.2116352395916
 20
59.33285255483665
 30
0.0
 11
260.7421976933148
 21
60.68339473803785
 31
0.0
  0
LINE
  5
42A
330
2
100
AcDbEntity
  8
KIJUN
100
AcDbLine
 10
264.347618709161
 20
66.61941701481925
 30
0.0
 11
253.6828932732907
 21
63.49528137670772
 31
0.0
  0
ARC
  5
42B
330
2
100
AcDbEntity
  8
KIJUN
100
AcDbCircle
 10
260.9237853879085
 20
58.00513003747258
 30
0.0
 40
4.0
100
AcDbArc
 50
204.285224828265
 51
328.1328302030173
  0
ARC
  5
42C
330
2
100
AcDbEntity
  8
KIJUN
100
AcDbCircle
 10
223.9061687133613
 20
65.04362553706193
 30
0.0
 40
9.441344828702114
100
AcDbArc
 50
227.1523676963008
 51
280.5061199650041
  0
LINE
  5
42D
330
2
100
AcDbEntity
  8
KIJUN
100
AcDbLine
 10
227.7282919101773
 20
60.3099641572489
 30
0.0
 11
230.2143368149494
 21
56.75934634611236
 31
0.0
  0
LINE
  5
42E
330
2
100
AcDbEntity
  8
KIJUN
100
AcDbLine
 10
227.7282919101773
 20
60.3099641572489
 30
0.0
 11
224.2870176266381
 21
52.63656197045285
 31
0.0
  0
LINE
  5
42F
330
2
100
AcDbEntity
  8
KIJUN
 62
     7
100
AcDbLine
 10
231.5707931059393
 20
70.30634507180559
 30
0.0
 11
233.9658651479327
 21
54.68886028316621
 31
0.0
  0
LINE
  5
430
330
2
100
AcDbEntity
  8
KIJUN
100
AcDbLine
 10
214.2656496551976
 20
59.33285255483665
 30
0.0
 11
213.1995369699102
 21
56.36001277168983
 31
0.0
  0
LINE
  5
431
330
2
100
AcDbEntity
  8
KIJUN
 62
     7
100
AcDbLine
 10
238.9064917888498
 20
70.30634507180559
 30
0.0
 11
236.5114197468565
 21
54.68886028316621
 31
0.0
  0
LINE
  5
432
330
2
100
AcDbEntity
  8
KIJUN
100
AcDbLine
 10
242.7489929846119
 20
60.3099641572489
 30
0.0
 11
246.1902672681511
 21
52.63656197045285
 31
0.0
  0
LINE
  5
433
330
2
100
AcDbEntity
  8
KIJUN
100
AcDbLine
 10
242.7489929846119
 20
60.3099641572489
 30
0.0
 11
240.2629480798397
 21
56.75934634611236
 31
0.0
  0
LINE
  5
434
330
2
100
AcDbEntity
  8
KIJUN
100
AcDbLine
 10
256.2116352395916
 20
59.33285255483665
 30
0.0
 11
257.2777479248789
 21
56.36001277168983
 31
0.0
  0
ARC
  5
435
330
2
100
AcDbEntity
  8
KIJUN
100
AcDbCircle
 10
246.5711161814279
 20
65.04362553706193
 30
0.0
 40
9.441344828702114
100
AcDbArc
 50
259.4938800349959
 51
312.8476323036992
  0
ARC
  5
436
330
2
100
AcDbEntity
  8
KIJUN
100
AcDbCircle
 10
234.3174893793634
 20
58.97221948388374
 30
0.0
 40
6.590194063383847
100
AcDbArc
 50
218.3728622804912
 51
277.7701662165152
  0
ARC
  5
437
330
2
100
AcDbEntity
  8
KIJUN
100
AcDbCircle
 10
235.4277437071509
 20
61.9825471618904
 30
0.0
 40
14.84721071513336
100
AcDbArc
 50
221.5765472140479
 51
269.1538304494907
  0
ARC
  5
438
330
2
100
AcDbEntity
  8
KIJUN
100
AcDbCircle
 10
213.1425034560447
 20
51.31977696379367
 30
0.0
 40
8.0
100
AcDbArc
 50
51.89277865726193
 51
53.20456505479267
  0
ARC
  5
439
330
2
100
AcDbEntity
  8
KIJUN
100
AcDbCircle
 10
225.0822302817643
 20
52.53614880580534
 30
0.0
 40
0.8
100
AcDbArc
 50
146.6655699485419
 51
229.9308912372337
  0
LINE
  5
43A
330
2
100
AcDbEntity
  8
KIJUN
100
AcDbLine
 10
230.4766624334928
 20
55.98340227849643
 30
0.0
 11
225.3605123586778
 21
51.73003702822956
 31
0.0
  0
ARC
  5
43B
330
2
100
AcDbEntity
  8
KIJUN
100
AcDbCircle
 10
225.7634014242114
 20
51.43392826295205
 30
0.0
 40
0.5
100
AcDbArc
 50
143.6854706875147
 51
227.327356468154
  0
ARC
  5
43C
330
2
100
AcDbEntity
  8
KIJUN
100
AcDbCircle
 10
230.0737733679601
 20
56.27951104377348
 30
0.0
 40
0.5
100
AcDbArc
 50
323.6854706875428
 51
73.67252722876331
  0
ARC
  5
43D
330
2
100
AcDbEntity
  8
KIJUN
100
AcDbCircle
 10
235.0495411876383
 20
61.9825471618904
 30
0.0
 40
14.84721071513336
100
AcDbArc
 50
270.8461695505093
 51
318.423452785952
  0
ARC
  5
43E
330
2
100
AcDbEntity
  8
KIJUN
100
AcDbCircle
 10
245.3950546130248
 20
52.53614880580534
 30
0.0
 40
0.8
100
AcDbArc
 50
310.0691087627664
 51
33.33443005145799
  0
LINE
  5
43F
330
2
100
AcDbEntity
  8
KIJUN
100
AcDbLine
 10
240.0006224612963
 20
55.98340227849643
 30
0.0
 11
245.1167725361113
 21
51.73003702822956
 31
0.0
  0
ARC
  5
440
330
2
100
AcDbEntity
  8
KIJUN
100
AcDbCircle
 10
236.1597955154258
 20
58.97221948388374
 30
0.0
 40
6.590194063383847
100
AcDbArc
 50
262.2298337834848
 51
321.6271377195085
  0
ARC
  5
441
330
2
100
AcDbEntity
  8
KIJUN
100
AcDbCircle
 10
244.7138834705779
 20
51.43392826295205
 30
0.0
 40
0.5
100
AcDbArc
 50
312.672643531846
 51
36.31452931248529
  0
ARC
  5
442
330
2
100
AcDbEntity
  8
KIJUN
100
AcDbCircle
 10
240.403511526829
 20
56.27951104377348
 30
0.0
 40
0.5
100
AcDbArc
 50
106.3274727712365
 51
216.3145293124574
  0
ARC
  5
443
330
2
100
AcDbEntity
  8
KIJUN
100
AcDbCircle
 10
257.3347814387445
 20
51.31977696379367
 30
0.0
 40
8.0
100
AcDbArc
 50
126.7954349452073
 51
128.1072213427381
  0
ARC
  5
444
330
2
100
AcDbEntity
  8
KIJUN
100
AcDbCircle
 10
289.7387323920344
 20
72.97788674530176
 30
0.0
 40
56.97481193346463
100
AcDbArc
 50
176.9969842276883
 51
193.3197549353
  0
ARC
  5
445
330
2
100
AcDbEntity
  8
KIJUN
100
AcDbCircle
 10
216.6293089678069
 20
70.15937655449903
 30
0.0
 40
8.343326127471575
100
AcDbArc
 50
332.272623015356
 51
2.817102370785645
  0
ARC
  5
446
330
2
100
AcDbEntity
  8
KIJUN
 62
     7
100
AcDbCircle
 10
212.0996905409929
 20
46.92467716318668
 30
0.0
 40
28.13317122920379
100
AcDbArc
 50
49.03504867761288
 51
72.61437531900026
  0
ARC
  5
447
330
2
100
AcDbEntity
  8
KIJUN
100
AcDbCircle
 10
237.0858004160442
 20
48.3185865929218
 30
0.0
 40
25.33916603654402
100
AcDbArc
 50
118.5835075883563
 51
154.2354750461908
  0
ARC
  5
448
330
2
100
AcDbEntity
  8
KIJUN
100
AcDbCircle
 10
225.5788877764284
 20
69.51728341119639
 30
0.0
 40
9.441344828702114
100
AcDbArc
 50
240.358303227741
 51
282.7836110401888
  0
ARC
  5
449
330
2
100
AcDbEntity
  8
KIJUN
100
AcDbCircle
 10
227.2118691835247
 20
59.15318757686529
 30
0.0
 40
7.834683819911337
100
AcDbArc
 50
66.73917754605037
 51
116.0101504913676
  0
ARC
  5
44A
330
2
100
AcDbEntity
  8
KIJUN
 62
     7
100
AcDbCircle
 10
219.7791075840449
 20
71.09467174036416
 30
0.0
 40
7.891685674932648
100
AcDbArc
 50
61.21901903612558
 51
110.7812726055711
  0
ARC
  5
44B
330
2
100
AcDbEntity
  8
KIJUN
 62
     7
100
AcDbCircle
 10
223.3373990456895
 20
79.5704238420908
 30
0.0
 40
6.452294569324282
100
AcDbArc
 50
189.7931901038693
 51
243.9705672507075
  0
ARC
  5
44C
330
2
100
AcDbEntity
  8
KIJUN
100
AcDbCircle
 10
220.5295105069253
 20
80.04425282020909
 30
0.0
 40
0.65
100
AcDbArc
 50
212.7433402905576
 51
326.6281495573217
  0
ARC
  5
44D
330
2
100
AcDbEntity
  8
KIJUN
100
AcDbCircle
 10
208.6855094549713
 20
56.51444315891892
 30
0.0
 40
26.15201937286087
100
AcDbArc
 50
30.91773371494773
 51
55.2857638227362
  0
ARC
  5
44E
330
2
100
AcDbEntity
  8
KIJUN
100
AcDbCircle
 10
228.2362457196885
 20
76.59582583490517
 30
0.0
 40
0.7800000000000003
100
AcDbArc
 50
241.3917617405491
 51
355.276571007314
  0
ARC
  5
44F
330
2
100
AcDbEntity
  8
KIJUN
 62
     7
100
AcDbCircle
 10
258.3775943537962
 20
46.92467716318668
 30
0.0
 40
28.13317122920379
100
AcDbArc
 50
107.3856246809997
 51
130.9649513223871
  0
ARC
  5
450
330
2
100
AcDbEntity
  8
KIJUN
100
AcDbCircle
 10
233.3914844787451
 20
48.3185865929218
 30
0.0
 40
25.33916603654402
100
AcDbArc
 50
25.76452495380895
 51
61.41649241164373
  0
ARC
  5
451
330
2
100
AcDbEntity
  8
KIJUN
100
AcDbCircle
 10
253.8479759269822
 20
70.15937655449903
 30
0.0
 40
8.343326127471575
100
AcDbArc
 50
177.1828976292144
 51
207.7273769846439
  0
ARC
  5
452
330
2
100
AcDbEntity
  8
KIJUN
100
AcDbCircle
 10
180.7385525027547
 20
72.97788674530176
 30
0.0
 40
56.97481193346463
100
AcDbArc
 50
346.6802450646997
 51
3.003015772311544
  0
ARC
  5
453
330
2
100
AcDbEntity
  8
KIJUN
100
AcDbCircle
 10
243.2654157112644
 20
59.15318757686529
 30
0.0
 40
7.834683819911337
100
AcDbArc
 50
63.98984950863236
 51
113.2608224539496
  0
ARC
  5
454
330
2
100
AcDbEntity
  8
KIJUN
100
AcDbCircle
 10
244.8983971183607
 20
69.51728341119639
 30
0.0
 40
9.441344828702114
100
AcDbArc
 50
257.2163889598112
 51
299.641696772259
  0
ARC
  5
455
330
2
100
AcDbEntity
  8
KIJUN
100
AcDbCircle
 10
261.7917754398178
 20
56.51444315891892
 30
0.0
 40
26.15201937286087
100
AcDbArc
 50
124.7142361772638
 51
149.0822662850522
  0
ARC
  5
456
330
2
100
AcDbEntity
  8
KIJUN
100
AcDbCircle
 10
242.2410391751006
 20
76.59582583490517
 30
0.0
 40
0.7800000000000003
100
AcDbArc
 50
184.7234289926858
 51
298.608238259451
  0
ARC
  5
457
330
2
100
AcDbEntity
  8
KIJUN
 62
     7
100
AcDbCircle
 10
247.1398858490996
 20
79.5704238420908
 30
0.0
 40
6.452294569324282
100
AcDbArc
 50
296.0294327492923
 51
350.2068098961306
  0
ARC
  5
458
330
2
100
AcDbEntity
  8
KIJUN
 62
     7
100
AcDbCircle
 10
250.6981773107442
 20
71.09467174036416
 30
0.0
 40
7.891685674932648
100
AcDbArc
 50
69.21872739442886
 51
118.7809809638744
  0
ARC
  5
459
330
2
100
AcDbEntity
  8
KIJUN
100
AcDbCircle
 10
249.9477743878639
 20
80.04425282020909
 30
0.0
 40
0.65
100
AcDbArc
 50
213.3718504426782
 51
327.2566597094423
  0
ARC
  5
45A
330
2
100
AcDbEntity
  8
KIJUN
 62
     7
100
AcDbCircle
 10
289.5272539642584
 20
77.13710210781151
 30
0.0
 40
21.75094208836032
100
AcDbArc
 50
213.5010018973435
 51
274.7497427649558
  0
ARC
  5
45B
330
2
100
AcDbEntity
  8
KIJUN
 62
     7
100
AcDbCircle
 10
284.579717138628
 20
64.28886045646554
 30
0.0
 40
12.0950325682984
100
AcDbArc
 50
316.6409422889578
 51
44.47547277356717
  0
ARC
  5
45C
330
2
100
AcDbEntity
  8
KIJUN
 62
     7
100
AcDbCircle
 10
301.0275114218639
 20
64.22414840152095
 30
0.0
 40
12.0950325682984
100
AcDbArc
 50
135.0736815462051
 51
222.8186863841241
  0
ARC
  5
45D
330
2
100
AcDbEntity
  8
KIJUN
100
AcDbCircle
 10
306.017168719322
 20
58.20622781366695
 30
0.0
 40
10.13773925867792
100
AcDbArc
 50
120.4893836263286
 51
184.733396445927
  0
ARC
  5
45E
330
2
100
AcDbEntity
  8
KIJUN
100
AcDbCircle
 10
292.5244803231093
 20
64.80401311220564
 30
0.0
 40
9.412691509925164
100
AcDbArc
 50
300.0341104503078
 51
12.07992412629424
  0
ARC
  5
45F
330
2
100
AcDbEntity
  8
KIJUN
 62
     7
100
AcDbCircle
 10
301.6528595028475
 20
64.10184539035864
 30
0.0
 40
12.0950325682984
100
AcDbArc
 50
136.8026349331025
 51
221.9934295529301
  0
ARC
  5
460
330
2
100
AcDbEntity
  8
KIJUN
 62
     7
100
AcDbCircle
 10
283.9534260565589
 20
64.17148188324883
 30
0.0
 40
12.0950325682984
100
AcDbArc
 50
317.5557247668437
 51
42.74651938666962
  0
ARC
  5
461
330
2
100
AcDbEntity
  8
KIJUN
100
AcDbCircle
 10
304.8479339661092
 20
85.8661395156035
 30
0.0
 40
33.68824455369994
100
AcDbArc
 50
221.6127125383965
 51
244.7020639977782
  0
ARC
  5
462
330
2
100
AcDbEntity
  8
KIJUN
100
AcDbCircle
 10
303.9582271503682
 20
85.79962175910265
 30
0.0
 40
34.93204195274282
100
AcDbArc
 50
189.5444435480339
 51
239.8756820894986
  0
ARC
  5
463
330
2
100
AcDbEntity
  8
KIJUN
 62
     7
100
AcDbCircle
 10
289.6418344188379
 20
77.26501701780337
 30
0.0
 40
26.91658708547095
100
AcDbArc
 50
225.1338782281341
 51
273.353049228349
  0
LINE
  5
464
330
2
100
AcDbEntity
  8
KIJUN
100
AcDbLine
 10
265.406115690007
 20
62.46239155886797
 30
0.0
 11
264.9025619177419
 21
57.593623870258
 31
0.0
  0
ARC
  5
465
330
2
100
AcDbEntity
  8
KIJUN
 62
     7
100
AcDbCircle
 10
263.1330892884613
 20
51.75512755613567
 30
0.0
 40
5.129256608040996
100
AcDbArc
 50
204.461993633138
 51
349.4127776804488
  0
ARC
  5
466
330
2
100
AcDbEntity
  8
KIJUN
 62
     7
100
AcDbCircle
 10
218.930122669083
 20
18.3199502648398
 30
0.0
 40
59.28350860377108
100
AcDbArc
 50
34.10058466067297
 51
40.78914563082173
  0
ARC
  5
467
330
2
100
AcDbEntity
  8
KIJUN
100
AcDbCircle
 10
259.5455348648783
 20
54.48965911598413
 30
0.0
 40
4.977370729229061
100
AcDbArc
 50
257.4530665361035
 51
30.93716100142513
  0
ARC
  5
468
330
2
100
AcDbEntity
  8
KIJUN
 62
     7
100
AcDbCircle
 10
267.1920508697077
 20
50.99645040673988
 30
0.0
 40
1.0
100
AcDbArc
 50
349.4127776804485
 51
34.10058466067381
  0
ARC
  5
469
330
2
100
AcDbEntity
  8
KIJUN
100
AcDbCircle
 10
260.9237853879085
 20
58.00513003747258
 30
0.0
 40
4.0
100
AcDbArc
 50
333.6532256982136
 51
354.0951612141622
  0
ARC
  5
46A
330
2
100
AcDbEntity
  8
KIJUN
 62
     7
100
AcDbCircle
 10
287.3148241802604
 20
51.97408438879103
 30
0.0
 40
7.453819999935451
100
AcDbArc
 50
335.4315111802239
 51
32.37528209429644
  0
ARC
  5
46B
330
2
100
AcDbEntity
  8
KIJUN
 62
     7
100
AcDbCircle
 10
292.5957430248002
 20
45.09502884186828
 30
0.0
 40
10.91751325975307
100
AcDbArc
 50
77.32712524080814
 51
92.17963009110428
  0
ARC
  5
46C
330
2
100
AcDbEntity
  8
KIJUN
 62
     7
100
AcDbCircle
 10
293.3015138443288
 20
52.28879082562396
 30
0.0
 40
4.244052343146267
100
AcDbArc
 50
246.3757993537781
 51
298.9151188749284
  0
ARC
  5
46D
330
2
100
AcDbEntity
  8
KIJUN
 62
     7
100
AcDbCircle
 10
281.7319766633033
 20
52.55695465455922
 30
0.0
 40
9.768613731947532
100
AcDbArc
 50
342.4879546034968
 51
13.1420220360781
  0
ARC
  5
46E
330
2
100
AcDbEntity
  8
KIJUN
 62
     7
100
AcDbCircle
 10
281.5696593957508
 20
52.58764694988174
 30
0.0
 40
11.6097135160504
100
AcDbArc
 50
342.0609761722336
 51
17.14311348180263
  0
ARC
  5
46F
330
2
100
AcDbEntity
  8
KIJUN
 62
     7
100
AcDbCircle
 10
292.0015051190979
 20
49.31661099940277
 30
0.0
 40
1.0
100
AcDbArc
 50
162.4879546034971
 51
246.3757993537781
  0
ARC
  5
470
330
2
100
AcDbEntity
  8
KIJUN
 62
     7
100
AcDbCircle
 10
292.2185547382056
 20
55.00536679038617
 30
0.0
 40
1.0
100
AcDbArc
 50
92.17963009110428
 51
193.1420220360778
  0
ARC
  5
471
330
2
100
AcDbEntity
  8
KIJUN
 62
     7
100
AcDbCircle
 10
288.2763417727451
 20
52.24047243734101
 30
0.0
 40
7.970667218012342
100
AcDbArc
 50
332.6116731692064
 51
21.28554001815806
  0
ARC
  5
472
330
2
100
AcDbEntity
  8
KIJUN
 62
     7
100
AcDbCircle
 10
294.7714901011683
 20
54.77093675363827
 30
0.0
 40
1.0
100
AcDbArc
 50
21.28554001815811
 51
77.32712524080795
  0
ARC
  5
473
330
2
100
AcDbEntity
  8
KIJUN
100
AcDbCircle
 10
296.8887307082388
 20
57.59307100807713
 30
0.0
 40
1.0
100
AcDbArc
 50
192.9090149888766
 51
290.3007253013235
  0
ARC
  5
474
330
2
100
AcDbEntity
  8
KIJUN
 62
     7
100
AcDbCircle
 10
283.9474593328363
 20
90.22482066302359
 30
0.0
 40
20.43820747074422
100
AcDbArc
 50
240.9157506821607
 51
274.416570606317
  0
ARC
  5
475
330
2
100
AcDbEntity
  8
KIJUN
 62
     7
100
AcDbCircle
 10
285.8694129485177
 20
80.15958561722186
 30
0.0
 40
10.31815383835556
100
AcDbArc
 50
205.6964901784458
 51
268.066883409535
  0
ARC
  5
476
330
2
100
AcDbEntity
  8
KIJUN
 62
     7
100
AcDbCircle
 10
282.4879330617119
 20
70.84495757720906
 30
0.0
 40
3.809051265910227
100
AcDbArc
 50
53.23658299865847
 51
124.3267178191937
  0
ARC
  5
477
330
2
100
AcDbEntity
  8
KIJUN
100
AcDbCircle
 10
282.7273513335995
 20
69.8927743643863
 30
0.0
 40
7.095558323661609
100
AcDbArc
 50
226.8476285375028
 51
292.1797184513568
  0
ARC
  5
478
330
2
100
AcDbEntity
  8
KIJUN
100
AcDbCircle
 10
282.7273513335995
 20
69.8927743643863
 30
0.0
 40
7.095558323661609
100
AcDbArc
 50
226.8476285375028
 51
292.1797184513568
  0
ARC
  5
479
330
2
100
AcDbEntity
  8
KIJUN
100
AcDbCircle
 10
304.8479339661092
 20
85.8661395156035
 30
0.0
 40
33.68824455369994
100
AcDbArc
 50
203.6040382016794
 51
217.2561330035331
  0
ARC
  5
47A
330
2
100
AcDbEntity
  8
KIJUN
100
AcDbCircle
 10
266.165776222973
 20
58.48756443787078
 30
0.0
 40
8.332630021683362
100
AcDbArc
 50
60.12934720180581
 51
102.6031747787422
  0
ARC
  5
47B
330
2
100
AcDbEntity
  8
KIJUN
100
AcDbCircle
 10
269.3558286336038
 20
61.83011973189564
 30
0.0
 40
4.0
100
AcDbArc
 50
66.42272036245365
 51
170.9052287239963
  0
ARC
  5
47C
330
2
100
AcDbEntity
  8
KIJUN
 62
     7
100
AcDbCircle
 10
263.5989315063716
 20
51.10012431916043
 30
0.0
 40
10.0
100
AcDbArc
 50
45.1338782281346
 51
106.5991040196079
  0
ARC
  5
47D
330
2
100
AcDbEntity
  8
KIJUN
 62
     7
100
AcDbCircle
 10
270.5557854993331
 20
64.5796839738055
 30
0.0
 40
1.0
100
AcDbArc
 50
33.50100189734342
 51
66.42272036245365
  0
ARC
  5
47E
330
2
100
AcDbEntity
  8
KIJUN
100
AcDbCircle
 10
282.3530413299915
 20
64.2391371819013
 30
0.0
 40
4.491350286977509
100
AcDbArc
 50
102.7571087160521
 51
175.6872209736699
  0
ARC
  5
47F
330
2
100
AcDbEntity
  8
KIJUN
100
AcDbCircle
 10
282.3530413299905
 20
64.2391371819013
 30
0.0
 40
4.491350286977509
100
AcDbArc
 50
102.7571087160521
 51
175.6872209736699
  0
ARC
  5
480
330
2
100
AcDbEntity
  8
KIJUN
 62
     7
100
AcDbCircle
 10
269.3775103657835
 20
80.99866806119429
 30
0.0
 40
1.0
100
AcDbArc
 50
229.9946920548709
 51
335.0631995609213
  0
ARC
  5
481
330
2
100
AcDbEntity
  8
KIJUN
 62
     7
100
AcDbCircle
 10
275.684107986584
 20
73.61373942849137
 30
0.0
 40
2.253969588975464
100
AcDbArc
 50
66.80977708833646
 51
178.0261066248901
  0
ARC
  5
482
330
2
100
AcDbEntity
  8
KIJUN
 62
     7
100
AcDbCircle
 10
280.260307694433
 20
78.84980486373958
 30
0.0
 40
4.8598507102359
100
AcDbArc
 50
220.6239990439574
 51
270.9391872088974
  0
ARC
  5
483
330
2
100
AcDbEntity
  8
KIJUN
 62
     7
100
AcDbCircle
 10
274.3533496666958
 20
73.30388523072331
 30
0.0
 40
1.0
100
AcDbArc
 50
157.2015774397947
 51
250.0741292162746
  0
ARC
  5
484
330
2
100
AcDbEntity
  8
KIJUN
 62
     7
100
AcDbCircle
 10
278.2796702119679
 20
77.71641825196137
 30
0.0
 40
2.653573416584817
100
AcDbArc
 50
104.5913242845021
 51
229.93518136601
  0
ARC
  5
485
330
2
100
AcDbEntity
  8
KIJUN
 62
     7
100
AcDbCircle
 10
285.4265247382894
 20
73.97083619867657
 30
0.0
 40
4.124622422910555
100
AcDbArc
 50
271.317379653311
 51
10.80313634742923
  0
ARC
  5
486
330
2
100
AcDbEntity
  8
KIJUN
 62
     7
100
AcDbCircle
 10
286.0102510503801
 20
65.74941865270621
 30
0.0
 40
2.50124216013918
100
AcDbArc
 50
256.0205666649491
 51
25.92415845249528
  0
ARC
  5
487
330
2
100
AcDbEntity
  8
KIJUN
100
AcDbCircle
 10
301.2463547340419
 20
66.57969430708383
 30
0.0
 40
0.5200000000000001
100
AcDbArc
 50
21.92554198537869
 51
135.810351252138
  0
ARC
  5
488
330
2
100
AcDbEntity
  8
KIJUN
 62
     7
100
AcDbCircle
 10
301.6528595028475
 20
64.10184539035864
 30
0.0
 40
12.0950325682984
100
AcDbArc
 50
119.9568178577932
 51
134.2693692428791
  0
ARC
  5
489
330
2
100
AcDbEntity
  8
KIJUN
 62
     7
100
AcDbCircle
 10
301.0275114218639
 20
64.22414840152095
 30
0.0
 40
12.0950325682984
100
AcDbArc
 50
117.144693358908
 51
132.6139474757917
  0
ARC
  5
48A
330
2
100
AcDbEntity
  8
KIJUN
 62
     7
100
AcDbCircle
 10
284.579717138628
 20
64.28886045646554
 30
0.0
 40
12.0950325682984
100
AcDbArc
 50
46.93520684397824
 51
65.3623851760433
  0
ARC
  5
48B
330
2
100
AcDbEntity
  8
KIJUN
 62
     7
100
AcDbCircle
 10
287.5351121283952
 20
72.02896711400669
 30
0.0
 40
3.338569333970478
100
AcDbArc
 50
54.41105021660329
 51
145.9882149605281
  0
ARC
  5
48C
330
2
100
AcDbEntity
  8
KIJUN
 62
     7
100
AcDbCircle
 10
283.9534260565589
 20
64.17148188324883
 30
0.0
 40
12.0950325682984
100
AcDbArc
 50
45.27978507689129
 51
62.57593223962368
  0
ARC
  5
48D
330
2
100
AcDbEntity
  8
KIJUN
 62
     7
100
AcDbCircle
 10
297.4994068220656
 20
76.7451330609762
 30
0.0
 40
4.874593658389467
100
AcDbArc
 50
342.1879662117865
 51
31.75488344831376
  0
ARC
  5
48E
330
2
100
AcDbEntity
  8
KIJUN
 62
     7
100
AcDbCircle
 10
295.6959152632058
 20
77.16929935022005
 30
0.0
 40
4.874593658389467
100
AcDbArc
 50
3.772630680645579
 51
31.75488344831376
  0
ARC
  5
48F
330
2
100
AcDbEntity
  8
KIJUN
100
AcDbCircle
 10
261.0705075617802
 20
79.00391087031469
 30
0.0
 40
14.8184172077001
100
AcDbArc
 50
99.29268940244774
 51
128.7255277599029
  0
ARC
  5
490
330
2
100
AcDbEntity
  8
KIJUN
 62
     7
100
AcDbCircle
 10
261.2435891984426
 20
88.63501003695487
 30
0.0
 40
3.642868629594856
100
AcDbArc
 50
165.1127307127907
 51
247.2156998806943
  0
ARC
  5
491
330
2
100
AcDbEntity
  8
KIJUN
 62
     7
100
AcDbCircle
 10
265.510276091188
 20
89.87924398755147
 30
0.0
 40
7.793377082310787
100
AcDbArc
 50
143.828156424361
 51
182.2672803083813
  0
ARC
  5
492
330
2
100
AcDbEntity
  8
KIJUN
100
AcDbCircle
 10
225.1767314380046
 20
111.9360646737425
 30
0.0
 40
9.140835925656704
100
AcDbArc
 50
284.6021339467494
 51
343.7131253719314
  0
ARC
  5
493
330
2
100
AcDbEntity
  8
KIJUN
100
AcDbCircle
 10
213.0624953929833
 20
105.5942028504252
 30
0.0
 40
14.63277968485911
100
AcDbArc
 50
348.4360652591468
 51
34.95809032195094
  0
ARC
  5
494
330
2
100
AcDbEntity
  8
KIJUN
100
AcDbCircle
 10
239.8292643100657
 20
110.3451958263065
 30
0.0
 40
15.21434815961266
100
AcDbArc
 50
166.1840084488825
 51
211.7960491311875
  0
ARC
  5
495
330
2
100
AcDbEntity
  8
KIJUN
 62
     7
100
AcDbCircle
 10
233.5827291732176
 20
107.4698104969571
 30
0.0
 40
10.72766555192126
100
AcDbArc
 50
142.647616663268
 51
203.1124569589033
  0
ARC
  5
496
330
2
100
AcDbEntity
  8
KIJUN
 62
     7
100
AcDbCircle
 10
236.8945557215715
 20
107.4698104969571
 30
0.0
 40
10.72766555192126
100
AcDbArc
 50
336.8875430410966
 51
37.35238333673196
  0
ARC
  5
497
330
2
100
AcDbEntity
  8
KIJUN
100
AcDbCircle
 10
230.6480205847236
 20
110.3451958263065
 30
0.0
 40
15.21434815961266
100
AcDbArc
 50
328.2039508688123
 51
13.8159915511175
  0
ARC
  5
498
330
2
100
AcDbEntity
  8
KIJUN
100
AcDbCircle
 10
257.4147895018057
 20
105.5942028504252
 30
0.0
 40
14.63277968485911
100
AcDbArc
 50
145.041909678049
 51
191.5639347408531
  0
ARC
  5
499
330
2
100
AcDbEntity
  8
KIJUN
100
AcDbCircle
 10
245.3005534567847
 20
111.9360646737425
 30
0.0
 40
9.140835925656704
100
AcDbArc
 50
196.2868746280685
 51
255.3978660532505
  0
ARC
  5
49A
330
2
100
AcDbEntity
  8
KIJUN
100
AcDbCircle
 10
227.4231013244807
 20
98.38248771533148
 30
0.0
 40
7.238192604286783
100
AcDbArc
 50
161.9953172046074
 51
239.8550245196806
  0
ARC
  5
49B
330
2
100
AcDbEntity
  8
KIJUN
100
AcDbCircle
 10
217.7260003790366
 20
88.02675623241336
 30
0.0
 40
6.237149557299089
100
AcDbArc
 50
7.291733432055125
 51
69.7050434801684
  0
ARC
  5
49C
330
2
100
AcDbEntity
  8
KIJUN
100
AcDbCircle
 10
224.5448390201376
 20
91.49026454676516
 30
0.0
 40
5.940379713502826
100
AcDbArc
 50
158.074458014622
 51
226.31593556876
  0
ARC
  5
49D
330
2
100
AcDbEntity
  8
KIJUN
100
AcDbCircle
 10
218.9363198562714
 20
95.13742825872849
 30
0.0
 40
5.711903570675795
100
AcDbArc
 50
328.1492222120379
 51
73.70111951223748
  0
ARC
  5
49E
330
2
100
AcDbEntity
  8
KIJUN
100
AcDbCircle
 10
229.4478416203201
 20
88.15352917550617
 30
0.0
 40
5.574919714008214
100
AcDbArc
 50
99.60475764562888
 51
183.9259551944624
  0
ARC
  5
49F
330
2
100
AcDbEntity
  8
KIJUN
100
AcDbCircle
 10
222.295334546846
 20
91.44453742056489
 30
0.0
 40
7.574678625694242
100
AcDbArc
 50
300.5463872038893
 51
12.43781736995179
  0
ARC
  5
4A0
330
2
100
AcDbEntity
  8
KIJUN
 62
     7
100
AcDbCircle
 10
214.0733350062776
 20
92.37412509767748
 30
0.0
 40
5.145340899247573
100
AcDbArc
 50
320.678851147616
 51
48.37860566955622
  0
ARC
  5
4A1
330
2
100
AcDbEntity
  8
KIJUN
 62
     7
100
AcDbCircle
 10
211.7184629673099
 20
86.10930959303187
 30
0.0
 40
7.011624041737278
100
AcDbArc
 50
356.6990473698658
 51
40.41695467788285
  0
ARC
  5
4A2
330
2
100
AcDbEntity
  8
KIJUN
 62
     7
100
AcDbCircle
 10
219.3280471386157
 20
91.21821180745881
 30
0.0
 40
6.935812512827626
100
AcDbArc
 50
195.8955582390186
 51
251.6305398638178
  0
ARC
  5
4A3
330
2
100
AcDbEntity
  8
KIJUN
 62
     7
100
AcDbCircle
 10
208.3354876546299
 20
84.66710137903829
 30
0.0
 40
5.843020034781067
100
AcDbArc
 50
335.0631995609213
 51
30.92367737407544
  0
ARC
  5
4A4
330
2
100
AcDbEntity
  8
KIJUN
100
AcDbCircle
 10
217.2419941459462
 20
88.81506901091031
 30
0.0
 40
6.55642799956824
100
AcDbArc
 50
237.9237444125815
 51
291.5986013550046
  0
ARC
  5
4A5
330
2
100
AcDbEntity
  8
KIJUN
 62
     7
100
AcDbCircle
 10
212.7270094008257
 20
82.62519545319838
 30
0.0
 40
1.0
100
AcDbArc
 50
229.9946920548709
 51
335.0631995609213
  0
ARC
  5
4A6
330
2
100
AcDbEntity
  8
KIJUN
100
AcDbCircle
 10
219.6413902377249
 20
80.40033785949118
 30
0.0
 40
7.425474641878534
100
AcDbArc
 50
131.0812264409128
 51
137.8679696393632
  0
ARC
  5
4A7
330
2
100
AcDbEntity
  8
KIJUN
 62
     7
100
AcDbCircle
 10
217.5204447075655
 20
85.7746726431309
 30
0.0
 40
1.199999999999999
100
AcDbArc
 50
251.6305398638178
 51
356.6990473698658
  0
ARC
  5
4A8
330
2
100
AcDbEntity
  8
KIJUN
 62
     7
100
AcDbCircle
 10
210.2909563754003
 20
78.25060254162699
 30
0.0
 40
14.12980519338203
100
AcDbArc
 50
61.39095098497115
 51
79.10355037460587
  0
ARC
  5
4A9
330
2
100
AcDbEntity
  8
KIJUN
100
AcDbCircle
 10
219.6413902377249
 20
80.40033785949118
 30
0.0
 40
7.425474641878534
100
AcDbArc
 50
88.2187913566428
 51
98.5529197998281
  0
ARC
  5
4AA
330
2
100
AcDbEntity
  8
KIJUN
 62
     7
100
AcDbCircle
 10
253.536183222797
 20
75.28381487662987
 30
0.0
 40
24.47276896792706
100
AcDbArc
 50
149.5321703996349
 51
161.5429669639818
  0
CIRCLE
  5
4AB
330
2
100
AcDbEntity
  8
KIJUN
100
AcDbCircle
 10
223.9120733845327
 20
100.7842675554156
 30
0.0
 40
1.642041573286453
  0
ARC
  5
4AC
330
2
100
AcDbEntity
  8
KIJUN
100
AcDbCircle
 10
208.0891517301742
 20
97.93590272934869
 30
0.0
 40
7.425474641878534
100
AcDbArc
 50
341.6230239276767
 51
10.88697486743443
  0
ARC
  5
4AD
330
2
100
AcDbEntity
  8
KIJUN
 62
     7
100
AcDbCircle
 10
218.1831206570361
 20
88.86998583916556
 30
0.0
 40
7.383061893553231
100
AcDbArc
 50
95.37984989123717
 51
139.4104971782378
  0
ARC
  5
4AE
330
2
100
AcDbEntity
  8
KIJUN
100
AcDbCircle
 10
219.5165159847022
 20
93.51424174274908
 30
0.0
 40
0.5200000000000001
100
AcDbArc
 50
44.18964874786179
 51
158.0744580146211
  0
ARC
  5
4AF
330
2
100
AcDbEntity
  8
KIJUN
100
AcDbCircle
 10
213.2047337608937
 20
97.74132590957069
 30
0.0
 40
2.699369174805541
100
AcDbArc
 50
36.27315379726939
 51
127.5854936087776
  0
CIRCLE
  5
4B0
330
2
100
AcDbEntity
  8
KIJUN
100
AcDbCircle
 10
227.2580059946865
 20
99.51879057935869
 30
0.0
 40
2.052551966608065
  0
ARC
  5
4B1
330
2
100
AcDbEntity
  8
KIJUN
100
AcDbCircle
 10
228.9180527212047
 20
92.98090700536128
 30
0.0
 40
0.7800000000000003
100
AcDbArc
 50
7.00044477010425
 51
120.8852540368672
  0
CIRCLE
  5
4B2
330
2
100
AcDbEntity
  8
KIJUN
100
AcDbCircle
 10
226.8144399408031
 20
95.48011139046078
 30
0.0
 40
1.642041573286453
  0
ARC
  5
4B3
330
2
100
AcDbEntity
  8
KIJUN
100
AcDbCircle
 10
248.1819503479433
 20
91.44453742056489
 30
0.0
 40
7.574678625694242
100
AcDbArc
 50
167.5621826300482
 51
239.4536127961107
  0
ARC
  5
4B4
330
2
100
AcDbEntity
  8
KIJUN
100
AcDbCircle
 10
241.0294432744692
 20
88.15352917550617
 30
0.0
 40
5.574919714008214
100
AcDbArc
 50
356.0740448055375
 51
80.39524235437111
  0
ARC
  5
4B5
330
2
100
AcDbEntity
  8
KIJUN
100
AcDbCircle
 10
245.9324458746515
 20
91.49026454676516
 30
0.0
 40
5.940379713502826
100
AcDbArc
 50
313.68406443124
 51
21.925541985378
  0
ARC
  5
4B6
330
2
100
AcDbEntity
  8
KIJUN
100
AcDbCircle
 10
252.7512845157526
 20
88.02675623241336
 30
0.0
 40
6.237149557299089
100
AcDbArc
 50
110.2949565198314
 51
172.7082665679448
  0
ARC
  5
4B7
330
2
100
AcDbEntity
  8
KIJUN
100
AcDbCircle
 10
251.5409650385178
 20
95.13742825872849
 30
0.0
 40
5.711903570675795
100
AcDbArc
 50
106.2988804877623
 51
211.8507777879621
  0
ARC
  5
4B8
330
2
100
AcDbEntity
  8
KIJUN
100
AcDbCircle
 10
243.0541835703084
 20
98.38248771533148
 30
0.0
 40
7.238192604286783
100
AcDbArc
 50
300.1449754803194
 51
18.00468279539254
  0
ARC
  5
4B9
330
2
100
AcDbEntity
  8
KIJUN
 62
     7
100
AcDbCircle
 10
216.9411016719921
 20
75.28381487662987
 30
0.0
 40
24.47276896792706
100
AcDbArc
 50
18.45703303601804
 51
30.46782960036506
  0
ARC
  5
4BA
330
2
100
AcDbEntity
  8
KIJUN
100
AcDbCircle
 10
250.8358946570643
 20
80.40033785949118
 30
0.0
 40
7.425474641878534
100
AcDbArc
 50
31.14177066143058
 51
91.78120864335721
  0
ARC
  5
4BB
330
2
100
AcDbEntity
  8
KIJUN
100
AcDbCircle
 10
253.2352907488429
 20
88.81506901091031
 30
0.0
 40
6.55642799956824
100
AcDbArc
 50
248.4013986449954
 51
302.0762555874185
  0
ARC
  5
4BC
330
2
100
AcDbEntity
  8
KIJUN
100
AcDbCircle
 10
256.6349575854947
 20
83.90432498487291
 30
0.0
 40
0.65
100
AcDbArc
 50
277.2569613946603
 51
31.14177066142937
  0
CIRCLE
  5
4BD
330
2
100
AcDbEntity
  8
KIJUN
100
AcDbCircle
 10
246.5652115102564
 20
100.7842675554156
 30
0.0
 40
1.642041573286453
  0
CIRCLE
  5
4BE
330
2
100
AcDbEntity
  8
KIJUN
100
AcDbCircle
 10
243.2192789001026
 20
99.51879057935869
 30
0.0
 40
2.052551966608065
  0
ARC
  5
4BF
330
2
100
AcDbEntity
  8
KIJUN
100
AcDbCircle
 10
241.5592321735844
 20
92.98090700536128
 30
0.0
 40
0.7800000000000003
100
AcDbArc
 50
59.11474596313277
 51
172.9995552298957
  0
CIRCLE
  5
4C0
330
2
100
AcDbEntity
  8
KIJUN
100
AcDbCircle
 10
243.6628449539861
 20
95.48011139046078
 30
0.0
 40
1.642041573286453
  0
ARC
  5
4C1
330
2
100
AcDbEntity
  8
KIJUN
 62
     7
100
AcDbCircle
 10
233.8737475526217
 20
94.16868103285898
 30
0.0
 40
21.51072133890428
100
AcDbArc
 50
355.9943495768485
 51
13.07558574061585
  0
ARC
  5
4C2
330
2
100
AcDbEntity
  8
KIJUN
100
AcDbCircle
 10
234.7558740986558
 20
103.2653035988742
 30
0.0
 40
17.40829032314371
100
AcDbArc
 50
326.7027085363614
 51
351.0508958326263
  0
ARC
  5
4C3
330
2
100
AcDbEntity
  8
KIJUN
100
AcDbCircle
 10
241.5332509368982
 20
97.94024576887188
 30
0.0
 40
10.74987677909674
100
AcDbArc
 50
337.0042946743571
 51
353.2409614196966
  0
ARC
  5
4C4
330
2
100
AcDbEntity
  8
KIJUN
100
AcDbCircle
 10
250.9607689100869
 20
93.51424174274908
 30
0.0
 40
0.5200000000000001
100
AcDbArc
 50
21.92554198537869
 51
135.810351252138
  0
ARC
  5
4C5
330
2
100
AcDbEntity
  8
KIJUN
100
AcDbCircle
 10
252.9400786765579
 20
100.4017644442577
 30
0.0
 40
1.0
100
AcDbArc
 50
28.66249457700883
 51
171.0508958326288
  0
LINE
  5
4C6
330
2
100
AcDbEntity
  8
KIJUN
100
AcDbLine
 10
253.8175390033131
 20
100.8814136650128
 30
0.0
 11
254.8267487404248
 21
99.03518632350747
 31
0.0
  0
ARC
  5
4C7
330
2
100
AcDbEntity
  8
KIJUN
100
AcDbCircle
 10
235.2958225285051
 20
111.8402983119991
 30
0.0
 40
2.052551966608065
100
AcDbArc
 50
91.59635482008615
 51
268.4036451799138
  0
ARC
  5
4C8
330
2
100
AcDbEntity
  8
KIJUN
100
AcDbCircle
 10
235.6209881590624
 20
100.4789518288567
 30
0.0
 40
9.049074254857703
100
AcDbArc
 50
100.6364430056403
 51
151.426023976664
  0
CIRCLE
  5
4C9
330
2
100
AcDbEntity
  8
KIJUN
100
AcDbCircle
 10
231.1537019061957
 20
111.8402983119991
 30
0.0
 40
1.642041573286453
  0
ARC
  5
4CA
330
2
100
AcDbEntity
  8
KIJUN
100
AcDbCircle
 10
235.181462366284
 20
111.8402983119991
 30
0.0
 40
2.052551966608065
100
AcDbArc
 50
271.5963548200861
 51
88.40364517991385
  0
ARC
  5
4CB
330
2
100
AcDbEntity
  8
KIJUN
100
AcDbCircle
 10
234.8562967357267
 20
100.4789518288567
 30
0.0
 40
9.049074254857703
100
AcDbArc
 50
28.57397602333593
 51
79.36355699435965
  0
CIRCLE
  5
4CC
330
2
100
AcDbEntity
  8
KIJUN
100
AcDbCircle
 10
239.3235829885936
 20
111.8402983119991
 30
0.0
 40
1.642041573286453
  0
ARC
  5
4CD
330
2
100
AcDbEntity
  8
KIJUN
 62
     7
100
AcDbCircle
 10
303.9724773575625
 20
101.3025639317049
 30
0.0
 40
3.164214581028633
100
AcDbArc
 50
87.69100532143623
 51
158.7495115217718
  0
ARC
  5
4CE
330
2
100
AcDbEntity
  8
KIJUN
 62
     7
100
AcDbCircle
 10
273.5289971588172
 20
94.41351055951088
 30
0.0
 40
10.09970628131857
100
AcDbArc
 50
339.3169612961803
 51
66.17967591867828
  0
ARC
  5
4CF
330
2
100
AcDbEntity
  8
KIJUN
 62
     7
100
AcDbCircle
 10
287.9521197190388
 20
103.5587217549173
 30
0.0
 40
3.15041358644382
100
AcDbArc
 50
116.2722552823729
 51
210.5393909124962
  0
ARC
  5
4D0
330
2
100
AcDbEntity
  8
KIJUN
 62
     7
100
AcDbCircle
 10
282.8478454456489
 20
99.28294513910978
 30
0.0
 40
8.011443473586092
100
AcDbArc
 50
352.8474445929134
 51
62.41521451826717
  0
ARC
  5
4D1
330
2
100
AcDbEntity
  8
KIJUN
 62
     7
100
AcDbCircle
 10
295.4050839250555
 20
104.5522472301056
 30
0.0
 40
2.107254197421843
100
AcDbArc
 50
315.9798256534241
 51
66.03659511183534
  0
ARC
  5
4D2
330
2
100
AcDbEntity
  8
KIJUN
 62
     7
100
AcDbCircle
 10
298.7634053657068
 20
100.516975091264
 30
0.0
 40
6.464866895955521
100
AcDbArc
 50
112.7732471754502
 51
194.0766784763443
  0
ARC
  5
4D3
330
2
100
AcDbEntity
  8
KIJUN
100
AcDbCircle
 10
302.6430552882692
 20
85.97579983882168
 30
0.0
 40
31.49529387005474
100
AcDbArc
 50
126.081041168594
 51
164.9551442685137
  0
ARC
  5
4D4
330
2
100
AcDbEntity
  8
KIJUN
100
AcDbCircle
 10
301.7219709721818
 20
86.48429903990498
 30
0.0
 40
32.53917399051344
100
AcDbArc
 50
125.5264839377459
 51
158.6697307009395
  0
ARC
  5
4D5
330
2
100
AcDbEntity
  8
KIJUN
100
AcDbCircle
 10
305.6312870929498
 20
86.42128732061667
 30
0.0
 40
32.19338413982312
100
AcDbArc
 50
129.6417677319519
 51
148.2861723125039
  0
ARC
  5
4D6
330
2
100
AcDbEntity
  8
KIJUN
 62
     7
100
AcDbCircle
 10
280.6508320673805
 20
76.87759191405532
 30
0.0
 40
13.08262576994006
100
AcDbArc
 50
68.58698482327354
 51
105.0582419608256
  0
ARC
  5
4D7
330
2
100
AcDbEntity
  8
KIJUN
 62
     7
100
AcDbCircle
 10
275.2253243294255
 20
82.25588109921938
 30
0.0
 40
7.532850241068977
100
AcDbArc
 50
26.92715185421623
 51
74.39290428602863
  0
ARC
  5
4D8
330
2
100
AcDbEntity
  8
KIJUN
 62
     7
100
AcDbCircle
 10
324.9284872885898
 20
105.0949700515833
 30
0.0
 40
46.72319414548971
100
AcDbArc
 50
185.936075977208
 51
196.1861336630976
  0
ARC
  5
4D9
330
2
100
AcDbEntity
  8
KIJUN
 62
     7
100
AcDbCircle
 10
287.4181108463973
 20
97.60565491041859
 30
0.0
 40
11.52423598506685
100
AcDbArc
 50
148.3492252031041
 51
216.0277792399558
  0
ARC
  5
4DA
330
2
100
AcDbEntity
  8
KIJUN
 62
     7
100
AcDbCircle
 10
270.7238359712354
 20
90.74759770567338
 30
0.0
 40
5.145340899247573
100
AcDbArc
 50
320.678851147616
 51
48.37860566955622
  0
ARC
  5
4DB
330
2
100
AcDbEntity
  8
KIJUN
 62
     7
100
AcDbCircle
 10
274.8336216219939
 20
87.24345844716149
 30
0.0
 40
7.383061893553231
100
AcDbArc
 50
95.37984989123717
 51
139.4104971782378
  0
ARC
  5
4DC
330
2
100
AcDbEntity
  8
KIJUN
 62
     7
100
AcDbCircle
 10
266.9741379576049
 20
96.14203515140481
 30
0.0
 40
4.926879261771878
100
AcDbArc
 50
160.6246660695255
 51
248.2959839862134
  0
CIRCLE
  5
4DD
330
2
100
AcDbEntity
  8
KIJUN
100
AcDbCircle
 10
267.3147473352766
 20
90.74894857852898
 30
0.0
 40
2.311273173894323
  0
ARC
  5
4DE
330
2
100
AcDbEntity
  8
KIJUN
 62
     7
100
AcDbCircle
 10
266.9414573403582
 20
76.62407514962288
 30
0.0
 40
14.12980519338203
100
AcDbArc
 50
61.39095098497115
 51
79.10355037460587
  0
ARC
  5
4DF
330
2
100
AcDbEntity
  8
KIJUN
 62
     7
100
AcDbCircle
 10
275.9785481035735
 20
89.5916844154547
 30
0.0
 40
6.935812512827626
100
AcDbArc
 50
195.8955582390186
 51
251.6305398638178
  0
ARC
  5
4E0
330
2
100
AcDbEntity
  8
KIJUN
 62
     7
100
AcDbCircle
 10
259.4373568943913
 20
91.55139500609488
 30
0.0
 40
6.287448437110077
100
AcDbArc
 50
273.6063187948935
 51
340.8530411349454
  0
ARC
  5
4E1
330
2
100
AcDbEntity
  8
KIJUN
 62
     7
100
AcDbCircle
 10
264.7125844404762
 20
84.67459507029579
 30
0.0
 40
3.503385593756436
100
AcDbArc
 50
165.4834812180907
 51
247.3252185383799
  0
ARC
  5
4E2
330
2
100
AcDbEntity
  8
KIJUN
 62
     7
100
AcDbCircle
 10
268.3689639322679
 20
84.48278220102777
 30
0.0
 40
7.011624041737278
100
AcDbArc
 50
356.6990473698658
 51
40.41695467788285
  0
ARC
  5
4E3
330
2
100
AcDbEntity
  8
KIJUN
100
AcDbCircle
 10
280.2823639285895
 20
86.19604570715758
 30
0.0
 40
4.491350286977509
100
AcDbArc
 50
132.4324878708591
 51
186.6268727515626
  0
ARC
  5
4E4
330
2
100
AcDbEntity
  8
KIJUN
100
AcDbCircle
 10
280.2823639285885
 20
86.19604570715758
 30
0.0
 40
4.491350286977509
100
AcDbArc
 50
132.4324878708591
 51
186.6268727515626
  0
ARC
  5
4E5
330
2
100
AcDbEntity
  8
KIJUN
 62
     7
100
AcDbCircle
 10
274.1709456725232
 20
84.1481452511268
 30
0.0
 40
1.199999999999999
100
AcDbArc
 50
251.6305398638178
 51
356.6990473698658
  0
ARC
  5
4E6
330
2
100
AcDbEntity
  8
KIJUN
100
AcDbCircle
 10
273.8343839838268
 20
85.44692410141911
 30
0.0
 40
2.0
100
AcDbArc
 50
339.6766303201502
 51
6.626872751562651
  0
ARC
  5
4E7
330
2
100
AcDbEntity
  8
KIJUN
100
AcDbCircle
 10
273.8343839838258
 20
85.44692410141911
 30
0.0
 40
2.0
100
AcDbArc
 50
339.6766303201502
 51
6.626872751562651
  0
ARC
  5
4E8
330
2
100
AcDbEntity
  8
KIJUN
100
AcDbCircle
 10
269.8552347258516
 20
96.11479851756651
 30
0.0
 40
2.699369174805541
100
AcDbArc
 50
36.27315379726939
 51
127.5854936087776
  0
ARC
  5
4E9
330
2
100
AcDbEntity
  8
KIJUN
 62
     7
100
AcDbCircle
 10
259.1072861037392
 20
93.88551698743489
 30
0.0
 40
8.647140916948393
100
AcDbArc
 50
354.2947562734628
 51
37.882822181117
  0
ARC
  5
4EA
330
2
100
AcDbEntity
  8
KIJUN
 62
     7
100
AcDbCircle
 10
265.0035699100908
 20
96.26369070349689
 30
0.0
 40
3.075155137534324
100
AcDbArc
 50
72.42354509348231
 51
150.5303372407084
  0
ARC
  5
4EB
330
2
100
AcDbEntity
  8
KIJUN
 62
     7
100
AcDbCircle
 10
260.3437634428722
 20
91.30350409443598
 30
0.0
 40
3.368752498848853
100
AcDbArc
 50
46.2062530435983
 51
109.5032807582723
  0
ARC
  5
4EC
330
2
100
AcDbEntity
  8
KIJUN
100
AcDbCircle
 10
274.4256105629578
 20
94.19328723058738
 30
0.0
 40
7.425474641878534
100
AcDbArc
 50
146.8489183700834
 51
162.1273690154183
  0
ARC
  5
4ED
330
2
100
AcDbEntity
  8
KIJUN
100
AcDbCircle
 10
264.739652695132
 20
96.30937533734453
 30
0.0
 40
7.425474641878534
100
AcDbArc
 50
341.6230239276767
 51
10.88697486743443
  0
ARC
  5
4EE
330
2
100
AcDbEntity
  8
KIJUN
 62
     7
100
AcDbCircle
 10
299.9514059740104
 20
94.74089678366558
 30
0.0
 40
6.758782251179535
100
AcDbArc
 50
117.5416227894892
 51
217.1633912084963
  0
ARC
  5
4EF
330
2
100
AcDbEntity
  8
KIJUN
 62
     7
100
AcDbCircle
 10
302.8002446130301
 20
107.6625866576665
 30
0.0
 40
20.13258317879999
100
AcDbArc
 50
205.2797536835077
 51
219.7046368193189
  0
ARC
  5
4F0
330
2
100
AcDbEntity
  8
KIJUN
 62
     7
100
AcDbCircle
 10
287.9547078099914
 20
96.46171246366501
 30
0.0
 40
4.249843017014423
100
AcDbArc
 50
142.2216656949767
 51
219.90604657892
  0
ARC
  5
4F1
330
2
100
AcDbEntity
  8
KIJUN
 62
     7
100
AcDbCircle
 10
286.6519398920971
 20
100.0486289874443
 30
0.0
 40
2.375389354257883
100
AcDbArc
 50
126.5081844671497
 51
258.5599878393312
  0
ARC
  5
4F2
330
2
100
AcDbEntity
  8
KIJUN
 62
     7
100
AcDbCircle
 10
285.3773870005533
 20
95.8039052301124
 30
0.0
 40
2.178349012635354
100
AcDbArc
 50
251.7349640584884
 51
332.5957760650892
  0
ARC
  5
4F3
330
2
100
AcDbEntity
  8
KIJUN
 62
     7
100
AcDbCircle
 10
291.6373634813549
 20
97.5715103921528
 30
0.0
 40
10.57789954994838
100
AcDbArc
 50
347.8471027114687
 51
27.4608028258838
  0
ARC
  5
4F4
330
2
100
AcDbEntity
  8
KIJUN
 62
     7
100
AcDbCircle
 10
308.0576894387359
 20
96.77833104784667
 30
0.0
 40
11.90763513828726
100
AcDbArc
 50
160.5992016300101
 51
193.1361113012046
  0
ARC
  5
4F5
330
2
100
AcDbEntity
  8
KIJUN
 62
     7
100
AcDbCircle
 10
300.8135560092409
 20
96.97095709096659
 30
0.0
 40
5.482481653967433
100
AcDbArc
 50
87.80629828058726
 51
136.6598152508439
  0
ARC
  5
4F6
330
2
100
AcDbEntity
  8
KIJUN
100
AcDbCircle
 10
293.4144020343293
 20
103.637373440055
 30
0.0
 40
11.91462043033478
100
AcDbArc
 50
51.53366201182079
 51
96.2337751136455
  0
ARC
  5
4F7
330
2
100
AcDbEntity
  8
KIJUN
100
AcDbCircle
 10
290.7371533134714
 20
102.1260513846321
 30
0.0
 40
13.42695975091153
100
AcDbArc
 50
84.08582615168944
 51
126.1628928906881
  0
ARC
  5
4F8
330
2
100
AcDbEntity
  8
KIJUN
100
AcDbCircle
 10
291.2335086653452
 20
102.1573002341793
 30
0.0
 40
12.45267310292941
100
AcDbArc
 50
48.1265251530258
 51
88.68432160616345
  0
ARC
  5
4F9
330
2
100
AcDbEntity
  8
KIJUN
100
AcDbCircle
 10
291.6649942404236
 20
103.4512894849642
 30
0.0
 40
10.37287278657123
100
AcDbArc
 50
48.43034426008443
 51
89.14354978821313
  0
ARC
  5
4FA
330
2
100
AcDbEntity
  8
KIJUN
100
AcDbCircle
 10
291.664994240423
 20
103.4512894849644
 30
0.0
 40
10.37287278657096
100
AcDbArc
 50
48.43034426008476
 51
89.14354978821313
  0
ARC
  5
4FB
330
2
100
AcDbEntity
  8
KIJUN
 62
     7
100
AcDbCircle
 10
288.7457807615414
 20
106.4624357629226
 30
0.0
 40
5.387008624852465
100
AcDbArc
 50
340.9502535997798
 51
53.799345883978
  0
ARC
  5
4FC
330
2
100
AcDbEntity
  8
KIJUN
 62
     7
100
AcDbCircle
 10
300.5251913911539
 20
103.180933624549
 30
0.0
 40
11.49419771041825
100
AcDbArc
 50
138.4182032167606
 51
174.3671760864143
  0
ARC
  5
4FD
330
2
100
AcDbEntity
  8
KIJUN
100
AcDbCircle
 10
291.975087526213
 20
103.4512894849644
 30
0.0
 40
10.37287278657096
100
AcDbArc
 50
90.8564502117869
 51
131.569655739915
  0
ARC
  5
4FE
330
2
100
AcDbEntity
  8
KIJUN
100
AcDbCircle
 10
291.9750875262123
 20
103.4512894849642
 30
0.0
 40
10.37287278657123
100
AcDbArc
 50
90.8564502117869
 51
131.5696557399155
  0
ARC
  5
4FF
330
2
100
AcDbEntity
  8
KIJUN
100
AcDbCircle
 10
292.4065731012909
 20
102.1573002341793
 30
0.0
 40
12.45267310292941
100
AcDbArc
 50
91.31567839383654
 51
131.8734748469742
  0
ARC
  5
500
330
2
100
AcDbEntity
  8
KIJUN
100
AcDbCircle
 10
335.5740530088659
 20
82.98949535517207
 30
0.0
 40
3.331699572601231
100
AcDbArc
 50
277.553571923113
 51
330.7274593799665
  0
ARC
  5
501
330
2
100
AcDbEntity
  8
KIJUN
 62
     7
100
AcDbCircle
 10
314.9633246782317
 20
80.71714183957839
 30
0.0
 40
33.16111248613231
100
AcDbArc
 50
351.7568889814945
 51
12.14332441922123
  0
ARC
  5
502
330
2
100
AcDbEntity
  8
KIJUN
 62
     7
100
AcDbCircle
 10
358.644724341452
 20
77.92082174414971
 30
0.0
 40
14.32551414772814
100
AcDbArc
 50
159.0980514343937
 51
212.109059797887
  0
ARC
  5
503
330
2
100
AcDbEntity
  8
KIJUN
100
AcDbCircle
 10
347.0689875812451
 20
83.7337678086922
 30
0.0
 40
8.910569570254242
100
AcDbArc
 50
175.2765710073148
 51
241.3917617405551
  0
ARC
  5
504
330
2
100
AcDbEntity
  8
KIJUN
100
AcDbCircle
 10
334.8118114537702
 20
78.03380978304621
 30
0.0
 40
9.2640702269321
100
AcDbArc
 50
350.6680067603991
 51
55.47406146829472
  0
ARC
  5
505
330
2
100
AcDbEntity
  8
KIJUN
100
AcDbCircle
 10
339.0782454998064
 20
81.67309066172256
 30
0.0
 40
4.60352749379198
100
AcDbArc
 50
130.0377007288064
 51
205.4798421206288
  0
ARC
  5
506
330
2
100
AcDbEntity
  8
KIJUN
100
AcDbCircle
 10
279.1234978280912
 20
86.7379930730757
 30
0.0
 40
35.16123680898249
100
AcDbArc
 50
323.4984878890281
 51
354.1436087823401
  0
ARC
  5
507
330
2
100
AcDbEntity
  8
KIJUN
 62
     7
100
AcDbCircle
 10
309.889310115039
 20
87.08572166153469
 30
0.0
 40
6.102639829650275
100
AcDbArc
 50
234.2093670558082
 51
297.3505341955272
  0
LINE
  5
508
330
2
100
AcDbEntity
  8
KIJUN
100
AcDbLine
 10
320.0108472451827
 20
62.46239155886797
 30
0.0
 11
320.5144010174477
 21
57.593623870258
 31
0.0
  0
LINE
  5
509
330
2
100
AcDbEntity
  8
KIJUN
100
AcDbLine
 10
329.2053276955983
 20
59.33285255483665
 30
0.0
 11
328.1392150103109
 21
56.36001277168983
 31
0.0
  0
LINE
  5
50A
330
2
100
AcDbEntity
  8
KIJUN
100
AcDbLine
 10
320.0108472451827
 20
62.46239155886797
 30
0.0
 11
320.5144010174479
 21
57.593623870258
 31
0.0
  0
ARC
  5
50B
330
2
100
AcDbEntity
  8
KIJUN
100
AcDbCircle
 10
354.444007647322
 20
37.92036292780941
 30
0.0
 40
29.88167008865158
100
AcDbArc
 50
107.9283697006071
 51
156.9268780536221
  0
LINE
  5
50C
330
2
100
AcDbEntity
  8
KIJUN
 62
     7
100
AcDbLine
 10
346.51047114634
 20
70.30634507180559
 30
0.0
 11
348.9055431883333
 21
54.68886028316621
 31
0.0
  0
LINE
  5
50D
330
2
100
AcDbEntity
  8
KIJUN
100
AcDbLine
 10
342.6679699505779
 20
60.3099641572489
 30
0.0
 11
339.2266956670386
 21
52.63656197045285
 31
0.0
  0
LINE
  5
50E
330
2
100
AcDbEntity
  8
KIJUN
100
AcDbLine
 10
342.6679699505779
 20
60.3099641572489
 30
0.0
 11
345.1540148553501
 21
56.75934634611236
 31
0.0
  0
ARC
  5
50F
330
2
100
AcDbEntity
  8
KIJUN
100
AcDbCircle
 10
338.8458467537617
 20
65.04362553706193
 30
0.0
 40
9.441344828702114
100
AcDbArc
 50
227.1523676963008
 51
280.5061199650041
  0
ARC
  5
510
330
2
100
AcDbEntity
  8
KIJUN
 62
     7
100
AcDbCircle
 10
322.2838736467284
 20
51.75512755613567
 30
0.0
 40
5.129256608040996
100
AcDbArc
 50
190.5872223195512
 51
335.5380063668617
  0
ARC
  5
511
330
2
100
AcDbEntity
  8
KIJUN
 62
     7
100
AcDbCircle
 10
318.224912065482
 20
50.99645040673988
 30
0.0
 40
1.0
100
AcDbArc
 50
145.8994153393261
 51
190.5872223195514
  0
ARC
  5
512
330
2
100
AcDbEntity
  8
KIJUN
 62
     7
100
AcDbCircle
 10
318.224912065482
 20
50.99645040673988
 30
0.0
 40
1.0
100
AcDbArc
 50
145.8994153393261
 51
190.5872223195514
  0
ARC
  5
513
330
2
100
AcDbEntity
  8
KIJUN
 62
     7
100
AcDbCircle
 10
366.4868402661067
 20
18.3199502648398
 30
0.0
 40
59.28350860377108
100
AcDbArc
 50
139.2108543691782
 51
145.899415339327
  0
ARC
  5
514
330
2
100
AcDbEntity
  8
KIJUN
100
AcDbCircle
 10
325.8714280703114
 20
54.48965911598413
 30
0.0
 40
4.977370729229061
100
AcDbArc
 50
149.0628389985749
 51
282.5469334638965
  0
ARC
  5
515
330
2
100
AcDbEntity
  8
KIJUN
100
AcDbCircle
 10
324.4931775472812
 20
58.00513003747258
 30
0.0
 40
4.0
100
AcDbArc
 50
211.8671697969827
 51
335.7147751717346
  0
ARC
  5
516
330
2
100
AcDbEntity
  8
KIJUN
100
AcDbCircle
 10
324.4931775472812
 20
58.00513003747258
 30
0.0
 40
4.0
100
AcDbArc
 50
185.9048387858378
 51
206.3467743017862
  0
ARC
  5
517
330
2
100
AcDbEntity
  8
KIJUN
100
AcDbCircle
 10
324.4931775472812
 20
58.00513003747258
 30
0.0
 40
4.0
100
AcDbArc
 50
185.9048387858378
 51
206.3467743017862
  0
ARC
  5
518
330
2
100
AcDbEntity
  8
KIJUN
100
AcDbCircle
 10
350.3674217475515
 20
61.9825471618904
 30
0.0
 40
14.84721071513336
100
AcDbArc
 50
221.5765472140479
 51
269.1538304494907
  0
LINE
  5
519
330
2
100
AcDbEntity
  8
KIJUN
100
AcDbLine
 10
345.4163404738934
 20
55.98340227849643
 30
0.0
 11
340.3001903990784
 21
51.73003702822956
 31
0.0
  0
ARC
  5
51A
330
2
100
AcDbEntity
  8
KIJUN
100
AcDbCircle
 10
340.0219083221649
 20
52.53614880580534
 30
0.0
 40
0.8
100
AcDbArc
 50
146.6655699485419
 51
229.9308912372337
  0
ARC
  5
51B
330
2
100
AcDbEntity
  8
KIJUN
100
AcDbCircle
 10
340.7030794646119
 20
51.43392826295205
 30
0.0
 40
0.5
100
AcDbArc
 50
143.6854706875147
 51
227.327356468154
  0
ARC
  5
51C
330
2
100
AcDbEntity
  8
KIJUN
100
AcDbCircle
 10
328.0821814964454
 20
51.31977696379367
 30
0.0
 40
8.0
100
AcDbArc
 50
51.89277865726193
 51
53.20456505479267
  0
ARC
  5
51D
330
2
100
AcDbEntity
  8
KIJUN
100
AcDbCircle
 10
349.257167419764
 20
58.97221948388374
 30
0.0
 40
6.590194063383847
100
AcDbArc
 50
218.3728622804912
 51
277.7701662165152
  0
ARC
  5
51E
330
2
100
AcDbEntity
  8
KIJUN
100
AcDbCircle
 10
345.0134514083606
 20
56.27951104377348
 30
0.0
 40
0.5
100
AcDbArc
 50
323.6854706875428
 51
73.67252722876331
  0
LINE
  5
51F
330
2
100
AcDbEntity
  8
KIJUN
100
AcDbLine
 10
321.0693442260286
 20
66.61941701481925
 30
0.0
 11
331.7340696618992
 21
63.49528137670772
 31
0.0
  0
ARC
  5
520
330
2
100
AcDbEntity
  8
KIJUN
100
AcDbCircle
 10
352.0254784564446
 20
48.3185865929218
 30
0.0
 40
25.33916603654402
100
AcDbArc
 50
118.5835075883563
 51
154.2354750461908
  0
LINE
  5
521
330
2
100
AcDbEntity
  8
KIJUN
100
AcDbLine
 10
329.2053276955983
 20
59.33285255483665
 30
0.0
 11
324.6747652418751
 21
60.68339473803785
 31
0.0
  0
ARC
  5
522
330
2
100
AcDbEntity
  8
KIJUN
 62
     7
100
AcDbCircle
 10
302.6045371560584
 20
70.35365752989358
 30
0.0
 40
6.588489308614686
100
AcDbArc
 50
316.549152037017
 51
27.4819608429126
  0
ARC
  5
523
330
2
100
AcDbEntity
  8
KIJUN
 62
     7
100
AcDbCircle
 10
321.8180314288181
 20
51.10012431916043
 30
0.0
 40
10.0
100
AcDbArc
 50
73.40089598039203
 51
128.3482319940459
  0
ARC
  5
524
330
2
100
AcDbEntity
  8
KIJUN
100
AcDbCircle
 10
316.0611343015858
 20
61.83011973189564
 30
0.0
 40
4.0
100
AcDbArc
 50
9.09477127600364
 51
110.2114300576497
  0
ARC
  5
525
330
2
100
AcDbEntity
  8
KIJUN
100
AcDbCircle
 10
319.2511867122167
 20
58.48756443787078
 30
0.0
 40
8.332630021683362
100
AcDbArc
 50
77.39682522125777
 51
119.8706527981942
  0
ARC
  5
526
330
2
100
AcDbEntity
  8
KIJUN
 62
     7
100
AcDbCircle
 10
315.0246780592632
 20
64.64539209132206
 30
0.0
 40
1.0
100
AcDbArc
 50
110.2114300576497
 51
146.586567038227
  0
ARC
  5
527
330
2
100
AcDbEntity
  8
KIJUN
 62
     7
100
AcDbCircle
 10
304.4393554994663
 20
76.4388302223853
 30
0.0
 40
5.035120314473187
100
AcDbArc
 50
322.7920320435779
 51
42.84152647181573
  0
ARC
  5
528
330
2
100
AcDbEntity
  8
KIJUN
 62
     7
100
AcDbCircle
 10
327.0393685813936
 20
46.92467716318668
 30
0.0
 40
28.13317122920379
100
AcDbArc
 50
49.03504867761288
 51
72.61437531900026
  0
ARC
  5
529
330
2
100
AcDbEntity
  8
KIJUN
100
AcDbCircle
 10
331.5689870082076
 20
70.15937655449903
 30
0.0
 40
8.343326127471575
100
AcDbArc
 50
332.272623015356
 51
2.817102370785645
  0
ARC
  5
52A
330
2
100
AcDbEntity
  8
KIJUN
100
AcDbCircle
 10
404.678410432435
 20
72.97788674530176
 30
0.0
 40
56.97481193346463
100
AcDbArc
 50
176.9969842276883
 51
193.3197549353
  0
ARC
  5
52B
330
2
100
AcDbEntity
  8
KIJUN
100
AcDbCircle
 10
342.1515472239254
 20
59.15318757686529
 30
0.0
 40
7.834683819911337
100
AcDbArc
 50
66.73917754605037
 51
116.0101504913676
  0
ARC
  5
52C
330
2
100
AcDbEntity
  8
KIJUN
100
AcDbCircle
 10
340.518565816829
 20
69.51728341119639
 30
0.0
 40
9.441344828702114
100
AcDbArc
 50
240.358303227741
 51
282.7836110401888
  0
ARC
  5
52D
330
2
100
AcDbEntity
  8
KIJUN
100
AcDbCircle
 10
323.6251874953719
 20
56.51444315891892
 30
0.0
 40
26.15201937286087
100
AcDbArc
 50
30.91773371494773
 51
55.2857638227362
  0
ARC
  5
52E
330
2
100
AcDbEntity
  8
KIJUN
 62
     7
100
AcDbCircle
 10
338.2770770860902
 20
79.5704238420908
 30
0.0
 40
6.452294569324282
100
AcDbArc
 50
189.7931901038693
 51
243.9705672507075
  0
ARC
  5
52F
330
2
100
AcDbEntity
  8
KIJUN
100
AcDbCircle
 10
335.4691885473259
 20
80.04425282020909
 30
0.0
 40
0.65
100
AcDbArc
 50
212.7433402905576
 51
326.6281495573217
  0
ARC
  5
530
330
2
100
AcDbEntity
  8
KIJUN
 62
     7
100
AcDbCircle
 10
334.7187856244455
 20
71.09467174036416
 30
0.0
 40
7.891685674932648
100
AcDbArc
 50
61.21901903612558
 51
110.7812726055711
  0
ARC
  5
531
330
2
100
AcDbEntity
  8
KIJUN
100
AcDbCircle
 10
343.1759237600891
 20
76.59582583490517
 30
0.0
 40
0.7800000000000003
100
AcDbArc
 50
241.3917617405491
 51
355.276571007314
  0
ARC
  5
532
330
2
100
AcDbEntity
  8
KIJUN
 62
     7
100
AcDbCircle
 10
348.5224072136182
 20
107.4698104969571
 30
0.0
 40
10.72766555192126
100
AcDbArc
 50
142.647616663268
 51
203.1124569589033
  0
ARC
  5
533
330
2
100
AcDbEntity
  8
KIJUN
100
AcDbCircle
 10
354.7689423504662
 20
110.3451958263065
 30
0.0
 40
15.21434815961266
100
AcDbArc
 50
166.1840084488825
 51
211.7960491311875
  0
ARC
  5
534
330
2
100
AcDbEntity
  8
KIJUN
100
AcDbCircle
 10
328.002173433384
 20
105.5942028504252
 30
0.0
 40
14.63277968485911
100
AcDbArc
 50
348.4360652591468
 51
34.95809032195094
  0
ARC
  5
535
330
2
100
AcDbEntity
  8
KIJUN
100
AcDbCircle
 10
340.116409478405
 20
111.9360646737425
 30
0.0
 40
9.140835925656704
100
AcDbArc
 50
284.6021339467494
 51
343.7131253719314
  0
ARC
  5
536
330
2
100
AcDbEntity
  8
KIJUN
100
AcDbCircle
 10
334.5810682781256
 20
80.40033785949118
 30
0.0
 40
7.425474641878534
100
AcDbArc
 50
131.0812264409128
 51
137.8679696393632
  0
ARC
  5
537
330
2
100
AcDbEntity
  8
KIJUN
 62
     7
100
AcDbCircle
 10
333.1227986974365
 20
88.86998583916556
 30
0.0
 40
7.383061893553231
100
AcDbArc
 50
95.37984989123717
 51
139.4104971782378
  0
ARC
  5
538
330
2
100
AcDbEntity
  8
KIJUN
100
AcDbCircle
 10
328.1444118012944
 20
97.74132590957069
 30
0.0
 40
2.699369174805541
100
AcDbArc
 50
36.27315379726939
 51
127.5854936087776
  0
ARC
  5
539
330
2
100
AcDbEntity
  8
KIJUN
 62
     7
100
AcDbCircle
 10
325.230634415801
 20
78.25060254162699
 30
0.0
 40
14.12980519338203
100
AcDbArc
 50
61.39095098497115
 51
79.10355037460587
  0
ARC
  5
53A
330
2
100
AcDbEntity
  8
KIJUN
 62
     7
100
AcDbCircle
 10
323.2751656950304
 20
84.66710137903829
 30
0.0
 40
5.843020034781067
100
AcDbArc
 50
335.0631995609213
 51
30.92367737407544
  0
ARC
  5
53B
330
2
100
AcDbEntity
  8
KIJUN
 62
     7
100
AcDbCircle
 10
334.2677251790163
 20
91.21821180745881
 30
0.0
 40
6.935812512827626
100
AcDbArc
 50
195.8955582390186
 51
251.6305398638178
  0
ARC
  5
53C
330
2
100
AcDbEntity
  8
KIJUN
100
AcDbCircle
 10
332.1816721863469
 20
88.81506901091031
 30
0.0
 40
6.55642799956824
100
AcDbArc
 50
237.9237444125815
 51
291.5986013550046
  0
CIRCLE
  5
53D
330
2
100
AcDbEntity
  8
KIJUN
100
AcDbCircle
 10
325.6039244107194
 20
92.37547597053309
 30
0.0
 40
2.311273173894323
  0
ARC
  5
53E
330
2
100
AcDbEntity
  8
KIJUN
 62
     7
100
AcDbCircle
 10
323.7994531666308
 20
91.50577137955556
 30
0.0
 40
7.793377082310787
100
AcDbArc
 50
143.828156424361
 51
182.2672803083813
  0
ARC
  5
53F
330
2
100
AcDbEntity
  8
KIJUN
 62
     7
100
AcDbCircle
 10
307.8711897456737
 20
91.69431186812278
 30
0.0
 40
3.740797864487841
100
AcDbArc
 50
326.0217281221877
 51
56.52001074604349
  0
ARC
  5
540
330
2
100
AcDbEntity
  8
KIJUN
 62
     7
100
AcDbCircle
 10
316.7026817160666
 20
91.39538770763079
 30
0.0
 40
8.645753356678902
100
AcDbArc
 50
244.9322781001764
 51
297.1711004632273
  0
ARC
  5
541
330
2
100
AcDbEntity
  8
KIJUN
 62
     7
100
AcDbCircle
 10
319.5327662738853
 20
90.26153742895898
 30
0.0
 40
3.642868629594856
100
AcDbArc
 50
165.1127307127907
 51
247.2156998806943
  0
ARC
  5
542
330
2
100
AcDbEntity
  8
KIJUN
 62
     7
100
AcDbCircle
 10
297.2025286725013
 20
85.47318736098759
 30
0.0
 40
15.95170407481974
100
AcDbArc
 50
346.1893081661582
 51
7.675033714872409
  0
LINE
  5
543
330
2
100
AcDbEntity
  8
KIJUN
 62
     7
100
AcDbLine
 10
306.6460645210952
 20
86.22506738465387
 30
0.0
 11
309.5104333118866
 21
86.43715052927587
 31
0.0
  0
LINE
  5
544
330
2
100
AcDbEntity
  8
KIJUN
 62
     7
100
AcDbLine
 10
307.2825916539831
 20
83.57402894626549
 30
0.0
 11
310.1469604447741
 21
83.78611209088736
 31
0.0
  0
LINE
  5
545
330
2
100
AcDbEntity
  8
KIJUN
 62
     7
100
AcDbLine
 10
306.8582415549399
 20
84.31631995244229
 30
0.0
 11
309.722610345731
 21
84.52840309706429
 31
0.0
  0
LINE
  5
546
330
2
100
AcDbEntity
  8
KIJUN
 62
     7
100
AcDbLine
 10
306.8582415549399
 20
85.05861008923337
 30
0.0
 11
309.722610345731
 21
85.27069323385537
 31
0.0
  0
LINE
  5
547
330
2
100
AcDbEntity
  8
KIJUN
 62
     7
100
AcDbLine
 10
306.7521530380176
 20
85.58881795078818
 30
0.0
 11
309.6165218288088
 21
85.80090109541018
 31
0.0
  0
ARC
  5
548
330
2
100
AcDbEntity
  8
KIJUN
 62
     7
100
AcDbCircle
 10
309.8073820789506
 20
86.37718292155829
 30
0.0
 40
3.430654936444006
100
AcDbArc
 50
20.94611382076197
 51
157.1450346753242
  0
ARC
  5
549
330
2
100
AcDbEntity
  8
KIJUN
 62
     7
100
AcDbCircle
 10
320.8541286570661
 20
88.22481636553481
 30
0.0
 40
5.217539120448133
100
AcDbArc
 50
278.7874244539327
 51
20.68653725412534
  0
ARC
  5
54A
330
2
100
AcDbEntity
  8
KIJUN
 62
     7
100
AcDbCircle
 10
323.001761515919
 20
86.30112246229996
 30
0.0
 40
3.503385593756436
100
AcDbArc
 50
165.4834812180907
 51
247.3252185383799
  0
ARC
  5
54B
330
2
100
AcDbEntity
  8
KIJUN
 62
     7
100
AcDbCircle
 10
317.7265339698341
 20
93.17792239809909
 30
0.0
 40
6.287448437110077
100
AcDbArc
 50
273.6063187948935
 51
340.8530411349454
  0
ARC
  5
54C
330
2
100
AcDbEntity
  8
KIJUN
 62
     7
100
AcDbCircle
 10
330.7394509858473
 20
86.28648355651018
 30
0.0
 40
5.779843760689687
100
AcDbArc
 50
191.306414945303
 51
229.9946920548705
  0
ARC
  5
54D
330
2
100
AcDbEntity
  8
KIJUN
 62
     7
100
AcDbCircle
 10
327.6666874412264
 20
82.62519545319838
 30
0.0
 40
1.0
100
AcDbArc
 50
229.9946920548709
 51
335.0631995609213
  0
ARC
  5
54E
330
2
100
AcDbEntity
  8
KIJUN
 62
     7
100
AcDbCircle
 10
308.3166753082513
 20
106.1458820364499
 30
0.0
 40
11.44639940418509
100
AcDbArc
 50
278.1267864836455
 51
319.6704520312419
  0
ARC
  5
54F
330
2
100
AcDbEntity
  8
KIJUN
 62
     7
100
AcDbCircle
 10
316.3381115158613
 20
100.4191442865394
 30
0.0
 40
4.014129128280118
100
AcDbArc
 50
283.2014187121603
 51
30.38331753584122
  0
ARC
  5
550
330
2
100
AcDbEntity
  8
KIJUN
 62
     7
100
AcDbCircle
 10
318.7988931716304
 20
100.0477731170436
 30
0.0
 40
2.602310220128863
100
AcDbArc
 50
67.35240827508308
 51
156.8491302949332
  0
ARC
  5
551
330
2
100
AcDbEntity
  8
KIJUN
 62
     7
100
AcDbCircle
 10
312.2179569832905
 20
97.92389900380308
 30
0.0
 40
2.316223799605482
100
AcDbArc
 50
64.26985339983173
 51
170.3089733357529
  0
ARC
  5
552
330
2
100
AcDbEntity
  8
KIJUN
 62
     7
100
AcDbCircle
 10
308.768790202427
 20
96.19326952621207
 30
0.0
 40
2.419958289475618
100
AcDbArc
 50
61.19535119838348
 51
164.7640951705878
  0
ARC
  5
553
330
2
100
AcDbEntity
  8
KIJUN
 62
     7
100
AcDbCircle
 10
315.1507572901394
 20
99.53243071409701
 30
0.0
 40
1.985651951826823
100
AcDbArc
 50
50.7853951257511
 51
166.0694919870106
  0
ARC
  5
554
330
2
100
AcDbEntity
  8
KIJUN
 62
     7
100
AcDbCircle
 10
317.396463179182
 20
95.512044379439
 30
0.0
 40
8.647140916948393
100
AcDbArc
 50
354.2947562734628
 51
37.882822181117
  0
ARC
  5
555
330
2
100
AcDbEntity
  8
KIJUN
100
AcDbCircle
 10
332.7147876384004
 20
95.81981462259149
 30
0.0
 40
7.425474641878534
100
AcDbArc
 50
146.8489183700834
 51
162.1273690154183
  0
ARC
  5
556
330
2
100
AcDbEntity
  8
KIJUN
 62
     7
100
AcDbCircle
 10
325.2633150330475
 20
97.76856254340888
 30
0.0
 40
4.926879261771878
100
AcDbArc
 50
160.6246660695255
 51
248.2959839862134
  0
ARC
  5
557
330
2
100
AcDbEntity
  8
KIJUN
 62
     7
100
AcDbCircle
 10
318.6329405183149
 20
92.93003148644009
 30
0.0
 40
3.368752498848853
100
AcDbArc
 50
46.2062530435983
 51
109.5032807582723
  0
ARC
  5
558
330
2
100
AcDbEntity
  8
KIJUN
 62
     7
100
AcDbCircle
 10
323.2927469855337
 20
97.89021809550099
 30
0.0
 40
3.075155137534324
100
AcDbArc
 50
72.42354509348231
 51
150.5303372407084
  0
ARC
  5
559
330
2
100
AcDbEntity
  8
KIJUN
 62
     7
100
AcDbCircle
 10
329.0130130466784
 20
92.37412509767748
 30
0.0
 40
5.145340899247573
100
AcDbArc
 50
320.678851147616
 51
48.37860566955622
  0
ARC
  5
55A
330
2
100
AcDbEntity
  8
KIJUN
100
AcDbCircle
 10
337.2350125872463
 20
91.44453742056489
 30
0.0
 40
7.574678625694242
100
AcDbArc
 50
300.5463872038893
 51
12.43781736995179
  0
ARC
  5
55B
330
2
100
AcDbEntity
  8
KIJUN
100
AcDbCircle
 10
344.3875196607205
 20
88.15352917550617
 30
0.0
 40
5.574919714008214
100
AcDbArc
 50
99.60475764562888
 51
183.9259551944624
  0
ARC
  5
55C
330
2
100
AcDbEntity
  8
KIJUN
100
AcDbCircle
 10
333.8759978966721
 20
95.13742825872849
 30
0.0
 40
5.711903570675795
100
AcDbArc
 50
328.1492222120379
 51
73.70111951223748
  0
ARC
  5
55D
330
2
100
AcDbEntity
  8
KIJUN
100
AcDbCircle
 10
339.4845170605382
 20
91.49026454676516
 30
0.0
 40
5.940379713502826
100
AcDbArc
 50
158.074458014622
 51
226.31593556876
  0
ARC
  5
55E
330
2
100
AcDbEntity
  8
KIJUN
100
AcDbCircle
 10
332.6656784194371
 20
88.02675623241336
 30
0.0
 40
6.237149557299089
100
AcDbArc
 50
7.291733432055125
 51
69.7050434801684
  0
ARC
  5
55F
330
2
100
AcDbEntity
  8
KIJUN
100
AcDbCircle
 10
342.3627793648814
 20
98.38248771533148
 30
0.0
 40
7.238192604286783
100
AcDbArc
 50
161.9953172046074
 51
239.8550245196806
  0
ARC
  5
560
330
2
100
AcDbEntity
  8
KIJUN
 62
     7
100
AcDbCircle
 10
326.6581410077104
 20
86.10930959303187
 30
0.0
 40
7.011624041737278
100
AcDbArc
 50
356.6990473698658
 51
40.41695467788285
  0
ARC
  5
561
330
2
100
AcDbEntity
  8
KIJUN
 62
     7
100
AcDbCircle
 10
332.460122747966
 20
85.7746726431309
 30
0.0
 40
1.199999999999999
100
AcDbArc
 50
251.6305398638178
 51
356.6990473698658
  0
ARC
  5
562
330
2
100
AcDbEntity
  8
KIJUN
100
AcDbCircle
 10
334.5810682781256
 20
80.40033785949118
 30
0.0
 40
7.425474641878534
100
AcDbArc
 50
88.2187913566428
 51
98.5529197998281
  0
ARC
  5
563
330
2
100
AcDbEntity
  8
KIJUN
 62
     7
100
AcDbCircle
 10
368.4758612631976
 20
75.28381487662987
 30
0.0
 40
24.47276896792706
100
AcDbArc
 50
149.5321703996349
 51
161.5429669639818
  0
CIRCLE
  5
564
330
2
100
AcDbEntity
  8
KIJUN
100
AcDbCircle
 10
341.7541179812037
 20
95.48011139046078
 30
0.0
 40
1.642041573286453
  0
CIRCLE
  5
565
330
2
100
AcDbEntity
  8
KIJUN
100
AcDbCircle
 10
342.1976840350872
 20
99.51879057935869
 30
0.0
 40
2.052551966608065
  0
ARC
  5
566
330
2
100
AcDbEntity
  8
KIJUN
100
AcDbCircle
 10
323.0288297705747
 20
97.93590272934869
 30
0.0
 40
7.425474641878534
100
AcDbArc
 50
341.6230239276767
 51
10.88697486743443
  0
ARC
  5
567
330
2
100
AcDbEntity
  8
KIJUN
100
AcDbCircle
 10
334.4561940251027
 20
93.51424174274908
 30
0.0
 40
0.5200000000000001
100
AcDbArc
 50
44.18964874786179
 51
158.0744580146211
  0
CIRCLE
  5
568
330
2
100
AcDbEntity
  8
KIJUN
100
AcDbCircle
 10
338.8517514249334
 20
100.7842675554156
 30
0.0
 40
1.642041573286453
  0
ARC
  5
569
330
2
100
AcDbEntity
  8
KIJUN
100
AcDbCircle
 10
343.8577307616054
 20
92.98090700536128
 30
0.0
 40
0.7800000000000003
100
AcDbArc
 50
7.00044477010425
 51
120.8852540368672
  0
ARC
  5
56A
330
2
100
AcDbEntity
  8
KIJUN
100
AcDbCircle
 10
350.560666199463
 20
100.4789518288567
 30
0.0
 40
9.049074254857703
100
AcDbArc
 50
100.6364430056403
 51
151.426023976664
  0
ARC
  5
56B
330
2
100
AcDbEntity
  8
KIJUN
100
AcDbCircle
 10
350.2355005689057
 20
111.8402983119991
 30
0.0
 40
2.052551966608065
100
AcDbArc
 50
91.59635482008615
 51
268.4036451799138
  0
CIRCLE
  5
56C
330
2
100
AcDbEntity
  8
KIJUN
100
AcDbCircle
 10
346.0933799465963
 20
111.8402983119991
 30
0.0
 40
1.642041573286453
  0
TEXT
  5
56D
330
2
100
AcDbEntity
  8
HOJO
100
AcDbText
 10
0.126751247233301
 20
1.183313000000011
 30
0.0
 40
4.5
  1
PM809
  7
SUNPOU
100
AcDbText
  0
LINE
  5
56F
330
2
100
AcDbEntity
  8
WAKU
100
AcDbLine
 10
0.0
 20
0.0
 30
0.0
 11
44.67747103027135
 21
0.0
 31
0.0
  0
LINE
  5
571
330
2
100
AcDbEntity
  8
WAKU
100
AcDbLine
 10
0.0
 20
7.0
 30
0.0
 11
44.67747103027135
 21
7.0
 31
0.0
  0
TEXT
  5
572
330
2
100
AcDbEntity
  8
HOJO
100
AcDbText
 10
29.30772247899245
 20
2.522193000000015
 30
0.0
 40
3.0
  1
120\U+00D750
  7
SUNPOU
100
AcDbText
  0
LWPOLYLINE
  5
573
330
2
100
AcDbEntity
  8
KIJUN
100
AcDbPolyline
 90
       11
 70
     1
 43
0.0
 10
52.49446166574767
 20
84.16806175347556
 42
-0.39790590207337
 10
36.68475554963503
 20
50.60540175347528
 10
36.68475554963503
 20
44.60540175347528
 42
-0.9999999999999998
 10
36.68475554963503
 20
32.60540175347529
 10
36.68475554963503
 20
26.60540175347529
 10
28.68475554963503
 20
26.60540175347529
 10
28.68475554963503
 20
146.6054017534752
 10
68.18475554963514
 20
146.6054017534752
 10
68.18475554963514
 20
141.6054017534752
 42
-0.9999999999999998
 10
68.18475554963514
 20
120.6054017534752
 10
68.18475554963514
 20
115.6054017534753
 42
0.3698214863852151
  0
ENDSEC
  0
SECTION
  2
OBJECTS
  0
DICTIONARY
  5
9
330
0
100
AcDbDictionary
281
     1
  3
ACAD_COLOR
350
47
  3
ACAD_GROUP
350
3C
  3
ACAD_LAYOUT
350
1F
  3
ACAD_MATERIAL
350
C
  3
ACAD_MLEADERSTYLE
350
4A
  3
ACAD_MLINESTYLE
350
3D
  3
ACAD_PLOTSETTINGS
350
3E
  3
ACAD_PLOTSTYLENAME
350
8
  3
ACAD_SCALELIST
350
48
  3
ACAD_TABLESTYLE
350
49
  3
ACAD_VISUALSTYLE
350
32
  3
ACDB_RECOMPOSE_DATA
350
585
  3
AcDbVariableDictionary
350
578
  0
DICTIONARY
  5
3
330
2
100
AcDbDictionary
280
     1
281
     1
  3
ACAD_LAYOUTSELFREF
360
4
  0
DICTIONARY
  5
21
330
20
100
AcDbDictionary
280
     1
281
     1
  3
ACAD_LAYOUTSELFREF
360
22
  0
DICTIONARY
  5
47
102
{ACAD_REACTORS
330
9
102
}
330
9
100
AcDbDictionary
281
     1
  0
DICTIONARY
  5
3C
102
{ACAD_REACTORS
330
9
102
}
330
9
100
AcDbDictionary
281
     1
  0
DICTIONARY
  5
1F
102
{ACAD_REACTORS
330
9
102
}
330
9
100
AcDbDictionary
281
     1
  3
Model
350
1E
  3
ﾚｲｱｳﾄ1
350
25
  0
DICTIONARY
  5
C
102
{ACAD_REACTORS
330
9
102
}
330
9
100
AcDbDictionary
281
     1
  3
ByBlock
350
3F
  3
ByLayer
350
15
  3
Global
350
B
  0
DICTIONARY
  5
4A
102
{ACAD_REACTORS
330
9
102
}
330
9
100
AcDbDictionary
281
     1
  0
DICTIONARY
  5
3D
102
{ACAD_REACTORS
330
9
102
}
330
9
100
AcDbDictionary
281
     1
  3
STANDARD
350
4C
  0
DICTIONARY
  5
3E
102
{ACAD_REACTORS
330
9
102
}
330
9
100
AcDbDictionary
281
     1
  0
ACDBDICTIONARYWDFLT
  5
8
102
{ACAD_REACTORS
330
9
102
}
330
9
100
AcDbDictionary
281
     1
  3
Normal
350
7
100
AcDbDictionaryWithDefault
340
7
  0
DICTIONARY
  5
48
102
{ACAD_REACTORS
330
9
102
}
330
9
100
AcDbDictionary
281
     1
  3
A0
350
51
  3
A1
350
52
  3
A2
350
53
  3
A3
350
54
  3
A4
350
55
  3
A5
350
56
  3
A6
350
57
  3
A7
350
58
  3
A8
350
59
  3
A9
350
5A
  3
B0
350
5B
  3
B1
350
5C
  3
B2
350
5D
  3
B3
350
5E
  3
B4
350
5F
  3
B5
350
60
  3
B6
350
61
  0
DICTIONARY
  5
49
102
{ACAD_REACTORS
330
9
102
}
330
9
100
AcDbDictionary
281
     1
  3
Standard
350
4D
  0
DICTIONARY
  5
32
102
{ACAD_REACTORS
330
9
102
}
330
9
100
AcDbDictionary
281
     1
  3
2dWireframe
350
31
  3
Realistic
350
4E
  3
Wireframe
350
4F
  0
XRECORD
  5
585
102
{ACAD_REACTORS
330
9
102
}
330
9
100
AcDbXrecord
280
     1
 90
        1
330
4D
  0
DICTIONARY
  5
578
102
{ACAD_REACTORS
330
9
102
}
330
9
100
AcDbDictionary
281
     1
  3
CANNOSCALE
350
57D
  3
CMLEADERSTYLE
350
57A
  3
CTABLESTYLE
350
579
  3
CVIEWDETAILSTYLE
350
57B
  3
CVIEWSECTIONSTYLE
350
57C
  3
DIMASSOC
350
581
  3
HIDETEXT
350
580
  3
INDEXCTL
350
57F
  3
SORTENTS
350
57E
  3
XCLIPFRAME
350
582
  0
XRECORD
  5
4
102
{ACAD_REACTORS
330
3
102
}
330
3
100
AcDbXrecord
280
     1
340
2
  0
XRECORD
  5
22
102
{ACAD_REACTORS
330
21
102
}
330
21
100
AcDbXrecord
280
     1
340
20
  0
LAYOUT
  5
1E
102
{ACAD_XDICTIONARY
360
588
102
}
102
{ACAD_REACTORS
330
1F
102
}
330
1F
100
AcDbPlotSettings
  1

  2
なし
  4

  6

 40
0.0
 41
0.0
 42
0.0
 43
0.0
 44
0.0
 45
0.0
 46
0.0
 47
0.0
 48
0.0
 49
0.0
140
0.0
141
0.0
142
1.0
143
1.0
 70
  1712
 72
     0
 73
     0
 74
     0
  7
monochrome.ctb
 75
     0
147
1.0
148
0.0
149
0.0
100
AcDbLayout
  1
Model
 70
     1
 71
     0
 10
0.0
 20
0.0
 11
12.0
 21
9.0
 12
0.0
 22
0.0
 32
0.0
 14
0.0
 24
0.0
 34
0.0
 15
0.0
 25
0.0
 35
0.0
146
0.0
 13
0.0
 23
0.0
 33
0.0
 16
1.0
 26
0.0
 36
0.0
 17
0.0
 27
1.0
 37
0.0
 76
     0
330
2
  0
LAYOUT
  5
25
102
{ACAD_XDICTIONARY
360
58A
102
}
102
{ACAD_REACTORS
330
1F
102
}
330
1F
100
AcDbPlotSettings
  1

  2
なし
  4

  6

 40
0.0
 41
0.0
 42
0.0
 43
0.0
 44
0.0
 45
0.0
 46
0.0
 47
0.0
 48
0.0
 49
0.0
140
0.0
141
0.0
142
1.0
143
1.0
 70
   688
 72
     0
 73
     0
 74
     5
  7
monochrome.ctb
 75
    16
147
1.0
148
0.0
149
0.0
100
AcDbLayout
  1
ﾚｲｱｳﾄ1
 70
     1
 71
     1
 10
0.0
 20
0.0
 11
12.0
 21
9.0
 12
0.0
 22
0.0
 32
0.0
 14
1.000000000000000E+20
 24
1.000000000000000E+20
 34
1.000000000000000E+20
 15
-1.000000000000000E+20
 25
-1.000000000000000E+20
 35
-1.000000000000000E+20
146
0.0
 13
0.0
 23
0.0
 33
0.0
 16
1.0
 26
0.0
 36
0.0
 17
0.0
 27
1.0
 37
0.0
 76
     0
330
20
  0
MATERIAL
  5
3F
102
{ACAD_XDICTIONARY
360
40
102
}
102
{ACAD_REACTORS
330
C
102
}
330
C
100
AcDbMaterial
  1
ByBlock
 72
     0
 43
0.0208333333333333
 43
0.0
 43
0.0
 43
0.0
 43
0.0
 43
0.0208333333333333
 43
0.0
 43
0.0
 43
0.0
 43
0.0
 43
1.0
 43
0.0
 43
0.0
 43
0.0
 43
0.0
 43
1.0
 77
     0
 47
0.0208333333333333
 47
0.0
 47
0.0
 47
0.0
 47
0.0
 47
0.0208333333333333
 47
0.0
 47
0.0
 47
0.0
 47
0.0
 47
1.0
 47
0.0
 47
0.0
 47
0.0
 47
0.0
 47
1.0
171
     0
 49
0.0208333333333333
 49
0.0
 49
0.0
 49
0.0
 49
0.0
 49
0.0208333333333333
 49
0.0
 49
0.0
 49
0.0
 49
0.0
 49
1.0
 49
0.0
 49
0.0
 49
0.0
 49
0.0
 49
1.0
175
     0
142
0.0208333333333333
142
0.0
142
0.0
142
0.0
142
0.0
142
0.0208333333333333
142
0.0
142
0.0
142
0.0
142
0.0
142
1.0
142
0.0
142
0.0
142
0.0
142
0.0
142
1.0
179
     0
144
0.0208333333333333
144
0.0
144
0.0
144
0.0
144
0.0
144
0.0208333333333333
144
0.0
144
0.0
144
0.0
144
0.0
144
1.0
144
0.0
144
0.0
144
0.0
144
0.0
144
1.0
147
0.0208333333333333
147
0.0
147
0.0
147
0.0
147
0.0
147
0.0208333333333333
147
0.0
147
0.0
147
0.0
147
0.0
147
1.0
147
0.0
147
0.0
147
0.0
147
0.0
147
1.0
  0
MATERIAL
  5
15
102
{ACAD_XDICTIONARY
360
16
102
}
102
{ACAD_REACTORS
330
C
102
}
330
C
100
AcDbMaterial
  1
ByLayer
 72
     0
 43
0.0208333333333333
 43
0.0
 43
0.0
 43
0.0
 43
0.0
 43
0.0208333333333333
 43
0.0
 43
0.0
 43
0.0
 43
0.0
 43
1.0
 43
0.0
 43
0.0
 43
0.0
 43
0.0
 43
1.0
 77
     0
 47
0.0208333333333333
 47
0.0
 47
0.0
 47
0.0
 47
0.0
 47
0.0208333333333333
 47
0.0
 47
0.0
 47
0.0
 47
0.0
 47
1.0
 47
0.0
 47
0.0
 47
0.0
 47
0.0
 47
1.0
171
     0
 49
0.0208333333333333
 49
0.0
 49
0.0
 49
0.0
 49
0.0
 49
0.0208333333333333
 49
0.0
 49
0.0
 49
0.0
 49
0.0
 49
1.0
 49
0.0
 49
0.0
 49
0.0
 49
0.0
 49
1.0
175
     0
142
0.0208333333333333
142
0.0
142
0.0
142
0.0
142
0.0
142
0.0208333333333333
142
0.0
142
0.0
142
0.0
142
0.0
142
1.0
142
0.0
142
0.0
142
0.0
142
0.0
142
1.0
179
     0
144
0.0208333333333333
144
0.0
144
0.0
144
0.0
144
0.0
144
0.0208333333333333
144
0.0
144
0.0
144
0.0
144
0.0
144
1.0
144
0.0
144
0.0
144
0.0
144
0.0
144
1.0
147
0.0208333333333333
147
0.0
147
0.0
147
0.0
147
0.0
147
0.0208333333333333
147
0.0
147
0.0
147
0.0
147
0.0
147
1.0
147
0.0
147
0.0
147
0.0
147
0.0
147
1.0
  0
MATERIAL
  5
B
102
{ACAD_XDICTIONARY
360
D
102
}
102
{ACAD_REACTORS
330
C
102
}
330
C
100
AcDbMaterial
  1
Global
 72
     0
 43
0.0208333333333333
 43
0.0
 43
0.0
 43
0.0
 43
0.0
 43
0.0208333333333333
 43
0.0
 43
0.0
 43
0.0
 43
0.0
 43
1.0
 43
0.0
 43
0.0
 43
0.0
 43
0.0
 43
1.0
 77
     0
 47
0.0208333333333333
 47
0.0
 47
0.0
 47
0.0
 47
0.0
 47
0.0208333333333333
 47
0.0
 47
0.0
 47
0.0
 47
0.0
 47
1.0
 47
0.0
 47
0.0
 47
0.0
 47
0.0
 47
1.0
171
     0
 49
0.0208333333333333
 49
0.0
 49
0.0
 49
0.0
 49
0.0
 49
0.0208333333333333
 49
0.0
 49
0.0
 49
0.0
 49
0.0
 49
1.0
 49
0.0
 49
0.0
 49
0.0
 49
0.0
 49
1.0
175
     0
142
0.0208333333333333
142
0.0
142
0.0
142
0.0
142
0.0
142
0.0208333333333333
142
0.0
142
0.0
142
0.0
142
0.0
142
1.0
142
0.0
142
0.0
142
0.0
142
0.0
142
1.0
179
     0
144
0.0208333333333333
144
0.0
144
0.0
144
0.0
144
0.0
144
0.0208333333333333
144
0.0
144
0.0
144
0.0
144
0.0
144
1.0
144
0.0
144
0.0
144
0.0
144
0.0
144
1.0
147
0.0208333333333333
147
0.0
147
0.0
147
0.0
147
0.0
147
0.0208333333333333
147
0.0
147
0.0
147
0.0
147
0.0
147
1.0
147
0.0
147
0.0
147
0.0
147
0.0
147
1.0
  0
MLINESTYLE
  5
4C
102
{ACAD_REACTORS
330
3D
102
}
330
3D
100
AcDbMlineStyle
  2
STANDARD
 70
     0
  3

 62
   256
 51
90.0
 52
90.0
 71
     2
 49
0.5
 62
   256
  6
BYLAYER
 49
-0.5
 62
   256
  6
BYLAYER
  0
ACDBPLACEHOLDER
  5
7
102
{ACAD_REACTORS
330
8
102
}
330
8
  0
SCALE
  5
51
102
{ACAD_REACTORS
330
48
102
}
330
48
100
AcDbScale
 70
     0
300
1:1
140
1.0
141
1.0
290
     1
  0
SCALE
  5
52
102
{ACAD_REACTORS
330
48
102
}
330
48
100
AcDbScale
 70
     0
300
1/128" = 1'-0"
140
0.0078125
141
12.0
290
     0
  0
SCALE
  5
53
102
{ACAD_REACTORS
330
48
102
}
330
48
100
AcDbScale
 70
     0
300
1/64" = 1'-0"
140
0.015625
141
12.0
290
     0
  0
SCALE
  5
54
102
{ACAD_REACTORS
330
48
102
}
330
48
100
AcDbScale
 70
     0
300
1/32" = 1'-0"
140
0.03125
141
12.0
290
     0
  0
SCALE
  5
55
102
{ACAD_REACTORS
330
48
102
}
330
48
100
AcDbScale
 70
     0
300
1/16" = 1'-0"
140
0.0625
141
12.0
290
     0
  0
SCALE
  5
56
102
{ACAD_REACTORS
330
48
102
}
330
48
100
AcDbScale
 70
     0
300
3/32" = 1'-0"
140
0.09375
141
12.0
290
     0
  0
SCALE
  5
57
102
{ACAD_REACTORS
330
48
102
}
330
48
100
AcDbScale
 70
     0
300
1/8" = 1'-0"
140
0.125
141
12.0
290
     0
  0
SCALE
  5
58
102
{ACAD_REACTORS
330
48
102
}
330
48
100
AcDbScale
 70
     0
300
3/16" = 1'-0"
140
0.1875
141
12.0
290
     0
  0
SCALE
  5
59
102
{ACAD_REACTORS
330
48
102
}
330
48
100
AcDbScale
 70
     0
300
1/4" = 1'-0"
140
0.25
141
12.0
290
     0
  0
SCALE
  5
5A
102
{ACAD_REACTORS
330
48
102
}
330
48
100
AcDbScale
 70
     0
300
3/8" = 1'-0"
140
0.375
141
12.0
290
     0
  0
SCALE
  5
5B
102
{ACAD_REACTORS
330
48
102
}
330
48
100
AcDbScale
 70
     0
300
1/2" = 1'-0"
140
0.5
141
12.0
290
     0
  0
SCALE
  5
5C
102
{ACAD_REACTORS
330
48
102
}
330
48
100
AcDbScale
 70
     0
300
3/4" = 1'-0"
140
0.75
141
12.0
290
     0
  0
SCALE
  5
5D
102
{ACAD_REACTORS
330
48
102
}
330
48
100
AcDbScale
 70
     0
300
1" = 1'-0"
140
1.0
141
12.0
290
     0
  0
SCALE
  5
5E
102
{ACAD_REACTORS
330
48
102
}
330
48
100
AcDbScale
 70
     0
300
1-1/2" = 1'-0"
140
1.5
141
12.0
290
     0
  0
SCALE
  5
5F
102
{ACAD_REACTORS
330
48
102
}
330
48
100
AcDbScale
 70
     0
300
3" = 1'-0"
140
3.0
141
12.0
290
     0
  0
SCALE
  5
60
102
{ACAD_REACTORS
330
48
102
}
330
48
100
AcDbScale
 70
     0
300
6" = 1'-0"
140
6.0
141
12.0
290
     0
  0
SCALE
  5
61
102
{ACAD_REACTORS
330
48
102
}
330
48
100
AcDbScale
 70
     0
300
1'-0" = 1'-0"
140
12.0
141
12.0
290
     0
  0
TABLESTYLE
  5
4D
102
{ACAD_XDICTIONARY
360
583
102
}
102
{ACAD_REACTORS
330
49
102
}
330
49
100
AcDbTableStyle
  3
Standard
 70
     0
 71
     0
 40
0.06
 41
0.06
280
     0
281
     0
  7
STANDARD
140
0.18
170
     2
 62
     0
 63
     7
283
     0
274
    -2
284
     1
 64
     0
275
    -2
285
     1
 65
     0
276
    -2
286
     1
 66
     0
277
    -2
287
     1
 67
     0
278
    -2
288
     1
 68
     0
279
    -2
289
     1
 69
     0
  7
STANDARD
140
0.25
170
     5
 62
     0
 63
     7
283
     0
274
    -2
284
     1
 64
     0
275
    -2
285
     1
 65
     0
276
    -2
286
     1
 66
     0
277
    -2
287
     1
 67
     0
278
    -2
288
     1
 68
     0
279
    -2
289
     1
 69
     0
  7
STANDARD
140
0.18
170
     5
 62
     0
 63
     7
283
     0
274
    -2
284
     1
 64
     0
275
    -2
285
     1
 65
     0
276
    -2
286
     1
 66
     0
277
    -2
287
     1
 67
     0
278
    -2
288
     1
 68
     0
279
    -2
289
     1
 69
     0
  0
VISUALSTYLE
  5
31
102
{ACAD_XDICTIONARY
360
58C
102
}
102
{ACAD_REACTORS
330
32
102
}
330
32
100
AcDbVisualStyle
  2
2dWireframe
 70
     4
 71
     0
 72
     2
 73
     0
 90
        0
 40
-0.6
 41
-30.0
 62
     5
 63
     7
 74
     1
 91
        4
 64
     7
 65
   257
 75
     1
175
     1
 42
1.0
 92
        0
 66
   257
 43
1.0
 76
     1
 77
     6
 78
     2
 67
     7
 79
     5
170
     0
171
     0
290
     0
174
     0
 93
        1
 44
0.0
173
     0
291
     0
 45
0.0
1001
ACAD
1000
AcDbSavedByObjectVersion
1070
     0
  0
VISUALSTYLE
  5
4E
102
{ACAD_XDICTIONARY
360
590
102
}
102
{ACAD_REACTORS
330
32
102
}
330
32
100
AcDbVisualStyle
  2
Realistic
 70
     8
 71
     2
 72
     3
 73
     0
 90
        2
 40
-0.6
 41
30.0
 62
     5
 63
     7
 74
     0
 91
        0
 64
     7
 65
   257
 75
     1
175
     1
 42
1.0
 92
        8
 66
   257
 43
1.0
 76
     1
 77
     6
 78
     2
 67
     7
 79
     3
170
     0
171
     0
290
     0
174
     0
 93
       13
 44
0.0
173
     0
291
     0
 45
0.0
1001
ACAD
1000
AcDbSavedByObjectVersion
1070
     0
  0
VISUALSTYLE
  5
4F
102
{ACAD_XDICTIONARY
360
592
102
}
102
{ACAD_REACTORS
330
32
102
}
330
32
100
AcDbVisualStyle
  2
Wireframe
 70
     5
 71
     0
 72
     2
 73
     0
 90
        0
 40
-0.6
 41
-30.0
 62
     5
 63
     7
 74
     1
 91
        4
 64
     7
 65
   257
 75
     1
175
     1
 42
1.0
 92
        0
 66
   257
 43
1.0
 76
     1
 77
     6
 78
     2
 67
     7
 79
     3
170
     0
171
     0
290
     0
174
     0
 93
        1
 44
0.0
173
     0
291
     0
 45
0.0
1001
ACAD
1000
AcDbSavedByObjectVersion
1070
     0
  0
DICTIONARYVAR
  5
57D
102
{ACAD_REACTORS
330
578
102
}
330
578
100
DictionaryVariables
280
     0
  1
1:1
  0
DICTIONARYVAR
  5
57A
102
{ACAD_REACTORS
330
578
102
}
330
578
100
DictionaryVariables
280
     0
  1
STANDARD
  0
DICTIONARYVAR
  5
579
102
{ACAD_REACTORS
330
578
102
}
330
578
100
DictionaryVariables
280
     0
  1
STANDARD
  0
DICTIONARYVAR
  5
57B
102
{ACAD_REACTORS
330
578
102
}
330
578
100
DictionaryVariables
280
     0
  1

  0
DICTIONARYVAR
  5
57C
102
{ACAD_REACTORS
330
578
102
}
330
578
100
DictionaryVariables
280
     0
  1

  0
DICTIONARYVAR
  5
581
102
{ACAD_REACTORS
330
578
102
}
330
578
100
DictionaryVariables
280
     0
  1
1
  0
DICTIONARYVAR
  5
580
102
{ACAD_REACTORS
330
578
102
}
330
578
100
DictionaryVariables
280
     0
  1
1
  0
DICTIONARYVAR
  5
57F
102
{ACAD_REACTORS
330
578
102
}
330
578
100
DictionaryVariables
280
     0
  1
0
  0
DICTIONARYVAR
  5
57E
102
{ACAD_REACTORS
330
578
102
}
330
578
100
DictionaryVariables
280
     0
  1
127
  0
DICTIONARYVAR
  5
582
102
{ACAD_REACTORS
330
578
102
}
330
578
100
DictionaryVariables
280
     0
  1
2
  0
DICTIONARY
  5
588
330
1E
100
AcDbDictionary
280
     1
281
     1
  3
ACAD_XREC_ROUNDTRIP
360
589
  0
DICTIONARY
  5
58A
330
25
100
AcDbDictionary
280
     1
281
     1
  3
ACAD_XREC_ROUNDTRIP
360
58B
  0
DICTIONARY
  5
40
330
3F
100
AcDbDictionary
280
     1
281
     1
  3
ACAD_XREC_ROUNDTRIP
360
58E
  3
BUMPTILE
360
41
  3
DIFFUSETILE
360
42
  3
OPACITYTILE
360
43
  3
REFLECTIONTILE
360
44
  3
REFRACTIONTILE
360
45
  3
SPECULARTILE
360
46
  0
DICTIONARY
  5
16
330
15
100
AcDbDictionary
280
     1
281
     1
  3
ACAD_XREC_ROUNDTRIP
360
587
  3
BUMPTILE
360
17
  3
DIFFUSETILE
360
18
  3
OPACITYTILE
360
19
  3
REFLECTIONTILE
360
1A
  3
REFRACTIONTILE
360
1B
  3
SPECULARTILE
360
1C
  0
DICTIONARY
  5
D
330
B
100
AcDbDictionary
280
     1
281
     1
  3
ACAD_XREC_ROUNDTRIP
360
586
  3
BUMPTILE
360
E
  3
DIFFUSETILE
360
F
  3
OPACITYTILE
360
10
  3
REFLECTIONTILE
360
11
  3
REFRACTIONTILE
360
12
  3
SPECULARTILE
360
13
  0
DICTIONARY
  5
583
330
4D
100
AcDbDictionary
280
     1
281
     1
  3
ACAD_ROUNDTRIP_2008_TABLESTYLE_CELLSTYLEMAP
360
584
  3
ACAD_XREC_ROUNDTRIP
360
58F
  0
DICTIONARY
  5
58C
330
31
100
AcDbDictionary
280
     1
281
     1
  3
ACAD_XREC_ROUNDTRIP
360
58D
  0
DICTIONARY
  5
590
330
4E
100
AcDbDictionary
280
     1
281
     1
  3
ACAD_XREC_ROUNDTRIP
360
591
  0
DICTIONARY
  5
592
330
4F
100
AcDbDictionary
280
     1
281
     1
  3
ACAD_XREC_ROUNDTRIP
360
593
  0
XRECORD
  5
589
102
{ACAD_REACTORS
330
588
102
}
330
588
100
AcDbXrecord
280
     1
102
SHADEPLOT
 70
     0
102
SHADEPLOTRESLEVEL
 70
     2
102
SHADEPLOTCUSTOMDPI
 70
   300
  0
XRECORD
  5
58B
102
{ACAD_REACTORS
330
58A
102
}
330
58A
100
AcDbXrecord
280
     1
102
SHADEPLOT
 70
     0
102
SHADEPLOTRESLEVEL
 70
     2
102
SHADEPLOTCUSTOMDPI
 70
   300
  0
XRECORD
  5
58E
102
{ACAD_REACTORS
330
40
102
}
330
40
100
AcDbXrecord
280
     1
102
MATERIAL
148
0.0
149
0.0
149
0.0
 93
        0
 94
      127
282
     0
 72
     0
 77
     0
171
     0
175
     0
179
     0
273
     0
  0
XRECORD
  5
41
102
{ACAD_REACTORS
330
40
102
}
330
40
100
AcDbXrecord
280
     1
270
     1
271
     1
  0
XRECORD
  5
42
102
{ACAD_REACTORS
330
40
102
}
330
40
100
AcDbXrecord
280
     1
270
     1
271
     1
  0
XRECORD
  5
43
102
{ACAD_REACTORS
330
40
102
}
330
40
100
AcDbXrecord
280
     1
270
     1
271
     1
  0
XRECORD
  5
44
102
{ACAD_REACTORS
330
40
102
}
330
40
100
AcDbXrecord
280
     1
270
     1
271
     1
  0
XRECORD
  5
45
102
{ACAD_REACTORS
330
40
102
}
330
40
100
AcDbXrecord
280
     1
270
     1
271
     1
  0
XRECORD
  5
46
102
{ACAD_REACTORS
330
40
102
}
330
40
100
AcDbXrecord
280
     1
270
     1
271
     1
  0
XRECORD
  5
587
102
{ACAD_REACTORS
330
16
102
}
330
16
100
AcDbXrecord
280
     1
102
MATERIAL
148
0.0
149
0.0
149
0.0
 93
        0
 94
      127
282
     0
 72
     0
 77
     0
171
     0
175
     0
179
     0
273
     0
  0
XRECORD
  5
17
102
{ACAD_REACTORS
330
16
102
}
330
16
100
AcDbXrecord
280
     1
270
     1
271
     1
  0
XRECORD
  5
18
102
{ACAD_REACTORS
330
16
102
}
330
16
100
AcDbXrecord
280
     1
270
     1
271
     1
  0
XRECORD
  5
19
102
{ACAD_REACTORS
330
16
102
}
330
16
100
AcDbXrecord
280
     1
270
     1
271
     1
  0
XRECORD
  5
1A
102
{ACAD_REACTORS
330
16
102
}
330
16
100
AcDbXrecord
280
     1
270
     1
271
     1
  0
XRECORD
  5
1B
102
{ACAD_REACTORS
330
16
102
}
330
16
100
AcDbXrecord
280
     1
270
     1
271
     1
  0
XRECORD
  5
1C
102
{ACAD_REACTORS
330
16
102
}
330
16
100
AcDbXrecord
280
     1
270
     1
271
     1
  0
XRECORD
  5
586
102
{ACAD_REACTORS
330
D
102
}
330
D
100
AcDbXrecord
280
     1
102
MATERIAL
148
0.0
149
0.0
149
0.0
 93
        0
 94
      127
282
     0
 72
     0
 77
     0
171
     0
175
     0
179
     0
273
     0
  0
XRECORD
  5
E
102
{ACAD_REACTORS
330
D
102
}
330
D
100
AcDbXrecord
280
     1
270
     1
271
     1
  0
XRECORD
  5
F
102
{ACAD_REACTORS
330
D
102
}
330
D
100
AcDbXrecord
280
     1
270
     1
271
     1
  0
XRECORD
  5
10
102
{ACAD_REACTORS
330
D
102
}
330
D
100
AcDbXrecord
280
     1
270
     1
271
     1
  0
XRECORD
  5
11
102
{ACAD_REACTORS
330
D
102
}
330
D
100
AcDbXrecord
280
     1
270
     1
271
     1
  0
XRECORD
  5
12
102
{ACAD_REACTORS
330
D
102
}
330
D
100
AcDbXrecord
280
     1
270
     1
271
     1
  0
XRECORD
  5
13
102
{ACAD_REACTORS
330
D
102
}
330
D
100
AcDbXrecord
280
     1
270
     1
271
     1
  0
CELLSTYLEMAP
  5
584
102
{ACAD_REACTORS
330
583
102
}
330
583
100
AcDbCellStyleMap
 90
        3
300
CELLSTYLE
  1
TABLEFORMAT_BEGIN
 90
        5
170
     1
 91
        0
 92
    32768
 62
   257
 93
        1
300
CONTENTFORMAT
  1
CONTENTFORMAT_BEGIN
 90
        0
 91
        0
 92
        4
 93
        0
300

 40
0.0
140
1.0
 94
        5
 62
     0
340
28
144
0.25
309
CONTENTFORMAT_END
171
     0
 94
        6
 95
        1
302
GRIDFORMAT
  1
GRIDFORMAT_BEGIN
 90
        0
 91
        1
 62
     0
 92
       -2
340
0
 93
        0
 40
0.045
309
GRIDFORMAT_END
 95
        2
302
GRIDFORMAT
  1
GRIDFORMAT_BEGIN
 90
        0
 91
        1
 62
     0
 92
       -2
340
0
 93
        0
 40
0.045
309
GRIDFORMAT_END
 95
        4
302
GRIDFORMAT
  1
GRIDFORMAT_BEGIN
 90
        0
 91
        1
 62
     0
 92
       -2
340
0
 93
        0
 40
0.045
309
GRIDFORMAT_END
 95
        8
302
GRIDFORMAT
  1
GRIDFORMAT_BEGIN
 90
        0
 91
        1
 62
     0
 92
       -2
340
0
 93
        0
 40
0.045
309
GRIDFORMAT_END
 95
       16
302
GRIDFORMAT
  1
GRIDFORMAT_BEGIN
 90
        0
 91
        1
 62
     0
 92
       -2
340
0
 93
        0
 40
0.045
309
GRIDFORMAT_END
 95
       32
302
GRIDFORMAT
  1
GRIDFORMAT_BEGIN
 90
        0
 91
        1
 62
     0
 92
       -2
340
0
 93
        0
 40
0.045
309
GRIDFORMAT_END
309
TABLEFORMAT_END
  1
CELLSTYLE_BEGIN
 90
        1
 91
        1
300
_TITLE
309
CELLSTYLE_END
300
CELLSTYLE
  1
TABLEFORMAT_BEGIN
 90
        5
170
     1
 91
        0
 92
        0
 62
   257
 93
        1
300
CONTENTFORMAT
  1
CONTENTFORMAT_BEGIN
 90
        0
 91
        0
 92
        4
 93
        0
300

 40
0.0
140
1.0
 94
        5
 62
     0
340
28
144
0.18
309
CONTENTFORMAT_END
171
     0
 94
        6
 95
        1
302
GRIDFORMAT
  1
GRIDFORMAT_BEGIN
 90
        0
 91
        1
 62
     0
 92
       -2
340
0
 93
        0
 40
0.045
309
GRIDFORMAT_END
 95
        2
302
GRIDFORMAT
  1
GRIDFORMAT_BEGIN
 90
        0
 91
        1
 62
     0
 92
       -2
340
0
 93
        0
 40
0.045
309
GRIDFORMAT_END
 95
        4
302
GRIDFORMAT
  1
GRIDFORMAT_BEGIN
 90
        0
 91
        1
 62
     0
 92
       -2
340
0
 93
        0
 40
0.045
309
GRIDFORMAT_END
 95
        8
302
GRIDFORMAT
  1
GRIDFORMAT_BEGIN
 90
        0
 91
        1
 62
     0
 92
       -2
340
0
 93
        0
 40
0.045
309
GRIDFORMAT_END
 95
       16
302
GRIDFORMAT
  1
GRIDFORMAT_BEGIN
 90
        0
 91
        1
 62
     0
 92
       -2
340
0
 93
        0
 40
0.045
309
GRIDFORMAT_END
 95
       32
302
GRIDFORMAT
  1
GRIDFORMAT_BEGIN
 90
        0
 91
        1
 62
     0
 92
       -2
340
0
 93
        0
 40
0.045
309
GRIDFORMAT_END
309
TABLEFORMAT_END
  1
CELLSTYLE_BEGIN
 90
        2
 91
        1
300
_HEADER
309
CELLSTYLE_END
300
CELLSTYLE
  1
TABLEFORMAT_BEGIN
 90
        5
170
     1
 91
        0
 92
        0
 62
   257
 93
        1
300
CONTENTFORMAT
  1
CONTENTFORMAT_BEGIN
 90
        0
 91
        0
 92
        4
 93
        0
300

 40
0.0
140
1.0
 94
        2
 62
     0
340
28
144
0.18
309
CONTENTFORMAT_END
171
     0
 94
        6
 95
        1
302
GRIDFORMAT
  1
GRIDFORMAT_BEGIN
 90
        0
 91
        1
 62
     0
 92
       -2
340
0
 93
        0
 40
0.045
309
GRIDFORMAT_END
 95
        2
302
GRIDFORMAT
  1
GRIDFORMAT_BEGIN
 90
        0
 91
        1
 62
     0
 92
       -2
340
0
 93
        0
 40
0.045
309
GRIDFORMAT_END
 95
        4
302
GRIDFORMAT
  1
GRIDFORMAT_BEGIN
 90
        0
 91
        1
 62
     0
 92
       -2
340
0
 93
        0
 40
0.045
309
GRIDFORMAT_END
 95
        8
302
GRIDFORMAT
  1
GRIDFORMAT_BEGIN
 90
        0
 91
        1
 62
     0
 92
       -2
340
0
 93
        0
 40
0.045
309
GRIDFORMAT_END
 95
       16
302
GRIDFORMAT
  1
GRIDFORMAT_BEGIN
 90
        0
 91
        1
 62
     0
 92
       -2
340
0
 93
        0
 40
0.045
309
GRIDFORMAT_END
 95
       32
302
GRIDFORMAT
  1
GRIDFORMAT_BEGIN
 90
        0
 91
        1
 62
     0
 92
       -2
340
0
 93
        0
 40
0.045
309
GRIDFORMAT_END
309
TABLEFORMAT_END
  1
CELLSTYLE_BEGIN
 90
        3
 91
        2
300
_DATA
309
CELLSTYLE_END
  0
XRECORD
  5
58F
102
{ACAD_REACTORS
330
583
102
}
330
583
100
AcDbXrecord
280
     1
102
ACAD_ROUNDTRIP_PRE2007_TABLESTYLE
 90
        4
 91
        0
  1

 92
        4
 93
        0
  2

 94
        4
 95
        0
  3

  0
XRECORD
  5
58D
102
{ACAD_REACTORS
330
58C
102
}
330
58C
100
AcDbXrecord
280
     1
102
RTVSPost2010Prop28
280
     1
102
RTVSPost2010PropOp28
 70
     1
102
RTVSPost2010Prop29
280
     1
102
RTVSPost2010PropOp29
 70
     1
102
RTVSPost2010Prop30
280
     0
102
RTVSPost2010PropOp30
 70
     1
102
RTVSPost2010Prop31
280
     0
102
RTVSPost2010PropOp31
 70
     1
102
RTVSPost2010Prop32
280
     0
102
RTVSPost2010PropOp32
 70
     1
102
RTVSPost2010Prop33
280
     0
102
RTVSPost2010PropOp33
 70
     1
102
RTVSPost2010Prop34
280
     0
102
RTVSPost2010PropOp34
 70
     1
102
RTVSPost2010Prop35
280
     0
102
RTVSPost2010PropOp35
 70
     1
102
RTVSPost2010Prop36
280
     0
102
RTVSPost2010PropOp36
 70
     1
102
RTVSPost2010Prop37
 90
       50
102
RTVSPost2010PropOp37
 70
     1
102
RTVSPost2010Prop38
140
0.0
102
RTVSPost2010PropOp38
 70
     1
102
RTVSPost2010Prop39
140
1.0
102
RTVSPost2010PropOp39
 70
     1
102
RTVSPost2010Prop40
 90
        0
102
RTVSPost2010PropOp40
 70
     1
102
RTVSPost2010Prop41ColorIndex
 90
       18
102
RTVSPost2010Prop41ColorRGB
 90
        0
102
RTVSPost2010PropOp41
 70
     1
102
RTVSPost2010Prop42
 90
       50
102
RTVSPost2010PropOp42
 70
     1
102
RTVSPost2010Prop43
 90
        3
102
RTVSPost2010PropOp43
 70
     1
102
RTVSPost2010Prop44ColorIndex
 90
        5
102
RTVSPost2010Prop44ColorRGB
 90
      255
102
RTVSPost2010PropOp44
 70
     1
102
RTVSPost2010Prop45
280
     0
102
RTVSPost2010PropOp45
 70
     1
102
RTVSPost2010Prop46
 90
       50
102
RTVSPost2010PropOp46
 70
     1
102
RTVSPost2010Prop47
 90
       50
102
RTVSPost2010PropOp47
 70
     1
102
RTVSPost2010Prop48
 90
       50
102
RTVSPost2010PropOp48
 70
     1
102
RTVSPost2010Prop49
280
     0
102
RTVSPost2010PropOp49
 70
     1
102
RTVSPost2010Prop50
 90
       50
102
RTVSPost2010PropOp50
 70
     1
102
RTVSPost2010Prop51ColorIndex
 90
      256
102
RTVSPost2010Prop51ColorRGB
 90
-16777216
102
RTVSPost2010PropOp51
 70
     0
102
RTVSPost2010Prop52
140
1.0
102
RTVSPost2010PropOp52
 70
     0
102
RTVSPost2010Prop53
 90
        2
102
RTVSPost2010PropOp53
 70
     1
102
RTVSPost2010Prop54
  1
strokes_ogs.tif
102
RTVSPost2010PropOp54
 70
     1
102
RTVSPost2010Prop55
280
     0
102
RTVSPost2010PropOp55
 70
     1
102
RTVSPost2010Prop56
140
1.0
102
RTVSPost2010PropOp56
 70
     1
102
RTVSPost2010Prop57
140
1.0
102
RTVSPost2010PropOp57
 70
     1
102
RTVSPropertyOp0
 70
     1
102
RTVSPropertyOp1
 70
     1
102
RTVSPropertyOp2
 70
     1
102
RTVSPropertyOp3
 70
     1
102
RTVSPropertyOp4
 70
     1
102
RTVSPropertyOp5
 70
     1
102
RTVSPropertyOp6
 70
     1
102
RTVSPropertyOp7
 70
     1
102
RTVSPropertyOp8
 70
     1
102
RTVSPropertyOp9
 70
     1
102
RTVSPropertyOp10
 70
     1
102
RTVSPropertyOp11
 70
     1
102
RTVSPropertyOp12
 70
     1
102
RTVSPropertyOp13
 70
     1
102
RTVSPropertyOp14
 70
     1
102
RTVSPropertyOp15
 70
     1
102
RTVSPropertyOp16
 70
     1
102
RTVSPropertyOp17
 70
     1
102
RTVSPropertyOp18
 70
     1
102
RTVSPropertyOp19
 70
     1
102
RTVSPropertyOp20
 70
     1
102
RTVSPropertyOp21
 70
     1
102
RTVSPropertyOp22
 70
     1
102
RTVSPropertyOp23
 70
     1
102
RTVSPropertyOp24
 70
     1
102
RTVSPropertyOp25
 70
     1
102
RTVSPropertyOp26
 70
     1
102
RTVSPropertyOp27
 70
     1
102
RTVSPropertyOp28
 70
     1
102
RTVSPropertyOp29
 70
     1
102
RTVSPropertyOp30
 70
     1
102
RTVSPropertyOp31
 70
     1
102
RTVSPropertyOp32
 70
     1
102
RTVSPropertyOp33
 70
     1
102
RTVSPropertyOp34
 70
     1
102
RTVSPropertyOp35
 70
     1
102
RTVSPropertyOp36
 70
     1
102
RTVSPropertyOp37
 70
     1
102
RTVSPropertyOp38
 70
     1
102
RTVSPropertyOp39
 70
     1
102
RTVSPropertyOp40
 70
     1
102
RTVSPropertyOp41
 70
     1
102
RTVSPropertyOp42
 70
     1
102
RTVSPropertyOp43
 70
     1
102
RTVSPropertyOp44
 70
     1
102
RTVSPropertyOp45
 70
     1
102
RTVSPropertyOp46
 70
     1
102
RTVSPropertyOp47
 70
     1
102
RTVSPropertyOp48
 70
     1
102
RTVSPropertyOp49
 70
     1
102
RTVSPropertyOp50
 70
     1
102
RTVSPropertyOp51
 70
     0
102
RTVSPropertyOp52
 70
     0
102
RTVSPropertyOp53
 70
     1
102
RTVSPropertyOp54
 70
     1
102
RTVSPropertyOp55
 70
     1
102
RTVSPropertyOp56
 70
     1
102
RTVSPropertyOp57
 70
     1
102
RTVSPropertyOp58
 70
     1
102
RTVSPropertyOp59
 70
     1
102
RTVSPropertyOp60
 70
     1
102
RTVSPropertyOp61
 70
     1
102
RTVSPropertyOp62
 70
     1
  0
XRECORD
  5
591
102
{ACAD_REACTORS
330
590
102
}
330
590
100
AcDbXrecord
280
     1
102
RTVSPost2010Prop28
280
     0
102
RTVSPost2010PropOp28
 70
     1
102
RTVSPost2010Prop29
280
     1
102
RTVSPost2010PropOp29
 70
     1
102
RTVSPost2010Prop30
280
     1
102
RTVSPost2010PropOp30
 70
     1
102
RTVSPost2010Prop31
280
     0
102
RTVSPost2010PropOp31
 70
     1
102
RTVSPost2010Prop32
280
     0
102
RTVSPost2010PropOp32
 70
     1
102
RTVSPost2010Prop33
280
     0
102
RTVSPost2010PropOp33
 70
     1
102
RTVSPost2010Prop34
280
     0
102
RTVSPost2010PropOp34
 70
     1
102
RTVSPost2010Prop35
280
     0
102
RTVSPost2010PropOp35
 70
     1
102
RTVSPost2010Prop36
280
     0
102
RTVSPost2010PropOp36
 70
     1
102
RTVSPost2010Prop37
 90
       50
102
RTVSPost2010PropOp37
 70
     1
102
RTVSPost2010Prop38
140
0.0
102
RTVSPost2010PropOp38
 70
     1
102
RTVSPost2010Prop39
140
1.0
102
RTVSPost2010PropOp39
 70
     1
102
RTVSPost2010Prop40
 90
        0
102
RTVSPost2010PropOp40
 70
     1
102
RTVSPost2010Prop41ColorIndex
 90
       18
102
RTVSPost2010Prop41ColorRGB
 90
        0
102
RTVSPost2010PropOp41
 70
     1
102
RTVSPost2010Prop42
 90
       50
102
RTVSPost2010PropOp42
 70
     1
102
RTVSPost2010Prop43
 90
        3
102
RTVSPost2010PropOp43
 70
     1
102
RTVSPost2010Prop44ColorIndex
 90
        5
102
RTVSPost2010Prop44ColorRGB
 90
      255
102
RTVSPost2010PropOp44
 70
     1
102
RTVSPost2010Prop45
280
     0
102
RTVSPost2010PropOp45
 70
     1
102
RTVSPost2010Prop46
 90
       50
102
RTVSPost2010PropOp46
 70
     1
102
RTVSPost2010Prop47
 90
       50
102
RTVSPost2010PropOp47
 70
     1
102
RTVSPost2010Prop48
 90
       50
102
RTVSPost2010PropOp48
 70
     1
102
RTVSPost2010Prop49
280
     0
102
RTVSPost2010PropOp49
 70
     1
102
RTVSPost2010Prop50
 90
       50
102
RTVSPost2010PropOp50
 70
     1
102
RTVSPost2010Prop51ColorIndex
 90
      256
102
RTVSPost2010Prop51ColorRGB
 90
-16777216
102
RTVSPost2010PropOp51
 70
     0
102
RTVSPost2010Prop52
140
1.0
102
RTVSPost2010PropOp52
 70
     0
102
RTVSPost2010Prop53
 90
        2
102
RTVSPost2010PropOp53
 70
     1
102
RTVSPost2010Prop54
  1
strokes_ogs.tif
102
RTVSPost2010PropOp54
 70
     1
102
RTVSPost2010Prop55
280
     0
102
RTVSPost2010PropOp55
 70
     1
102
RTVSPost2010Prop56
140
1.0
102
RTVSPost2010PropOp56
 70
     1
102
RTVSPost2010Prop57
140
1.0
102
RTVSPost2010PropOp57
 70
     1
102
RTVSPropertyOp0
 70
     1
102
RTVSPropertyOp1
 70
     1
102
RTVSPropertyOp2
 70
     1
102
RTVSPropertyOp3
 70
     1
102
RTVSPropertyOp4
 70
     1
102
RTVSPropertyOp5
 70
     1
102
RTVSPropertyOp6
 70
     1
102
RTVSPropertyOp7
 70
     1
102
RTVSPropertyOp8
 70
     1
102
RTVSPropertyOp9
 70
     1
102
RTVSPropertyOp10
 70
     1
102
RTVSPropertyOp11
 70
     1
102
RTVSPropertyOp12
 70
     1
102
RTVSPropertyOp13
 70
     1
102
RTVSPropertyOp14
 70
     1
102
RTVSPropertyOp15
 70
     1
102
RTVSPropertyOp16
 70
     1
102
RTVSPropertyOp17
 70
     1
102
RTVSPropertyOp18
 70
     1
102
RTVSPropertyOp19
 70
     1
102
RTVSPropertyOp20
 70
     1
102
RTVSPropertyOp21
 70
     1
102
RTVSPropertyOp22
 70
     1
102
RTVSPropertyOp23
 70
     1
102
RTVSPropertyOp24
 70
     1
102
RTVSPropertyOp25
 70
     1
102
RTVSPropertyOp26
 70
     1
102
RTVSPropertyOp27
 70
     1
102
RTVSPropertyOp28
 70
     1
102
RTVSPropertyOp29
 70
     1
102
RTVSPropertyOp30
 70
     1
102
RTVSPropertyOp31
 70
     1
102
RTVSPropertyOp32
 70
     1
102
RTVSPropertyOp33
 70
     1
102
RTVSPropertyOp34
 70
     1
102
RTVSPropertyOp35
 70
     1
102
RTVSPropertyOp36
 70
     1
102
RTVSPropertyOp37
 70
     1
102
RTVSPropertyOp38
 70
     1
102
RTVSPropertyOp39
 70
     1
102
RTVSPropertyOp40
 70
     1
102
RTVSPropertyOp41
 70
     1
102
RTVSPropertyOp42
 70
     1
102
RTVSPropertyOp43
 70
     1
102
RTVSPropertyOp44
 70
     1
102
RTVSPropertyOp45
 70
     1
102
RTVSPropertyOp46
 70
     1
102
RTVSPropertyOp47
 70
     1
102
RTVSPropertyOp48
 70
     1
102
RTVSPropertyOp49
 70
     1
102
RTVSPropertyOp50
 70
     1
102
RTVSPropertyOp51
 70
     0
102
RTVSPropertyOp52
 70
     0
102
RTVSPropertyOp53
 70
     1
102
RTVSPropertyOp54
 70
     1
102
RTVSPropertyOp55
 70
     1
102
RTVSPropertyOp56
 70
     1
102
RTVSPropertyOp57
 70
     1
102
RTVSPropertyOp58
 70
     1
102
RTVSPropertyOp59
 70
     1
102
RTVSPropertyOp60
 70
     1
102
RTVSPropertyOp61
 70
     1
102
RTVSPropertyOp62
 70
     1
  0
XRECORD
  5
593
102
{ACAD_REACTORS
330
592
102
}
330
592
100
AcDbXrecord
280
     1
102
RTVSPost2010Prop28
280
     0
102
RTVSPost2010PropOp28
 70
     1
102
RTVSPost2010Prop29
280
     1
102
RTVSPost2010PropOp29
 70
     1
102
RTVSPost2010Prop30
280
     1
102
RTVSPost2010PropOp30
 70
     1
102
RTVSPost2010Prop31
280
     0
102
RTVSPost2010PropOp31
 70
     1
102
RTVSPost2010Prop32
280
     0
102
RTVSPost2010PropOp32
 70
     1
102
RTVSPost2010Prop33
280
     0
102
RTVSPost2010PropOp33
 70
     1
102
RTVSPost2010Prop34
280
     0
102
RTVSPost2010PropOp34
 70
     1
102
RTVSPost2010Prop35
280
     0
102
RTVSPost2010PropOp35
 70
     1
102
RTVSPost2010Prop36
280
     0
102
RTVSPost2010PropOp36
 70
     1
102
RTVSPost2010Prop37
 90
       50
102
RTVSPost2010PropOp37
 70
     1
102
RTVSPost2010Prop38
140
0.0
102
RTVSPost2010PropOp38
 70
     1
102
RTVSPost2010Prop39
140
1.0
102
RTVSPost2010PropOp39
 70
     1
102
RTVSPost2010Prop40
 90
        0
102
RTVSPost2010PropOp40
 70
     1
102
RTVSPost2010Prop41ColorIndex
 90
       18
102
RTVSPost2010Prop41ColorRGB
 90
        0
102
RTVSPost2010PropOp41
 70
     1
102
RTVSPost2010Prop42
 90
       50
102
RTVSPost2010PropOp42
 70
     1
102
RTVSPost2010Prop43
 90
        3
102
RTVSPost2010PropOp43
 70
     1
102
RTVSPost2010Prop44ColorIndex
 90
        5
102
RTVSPost2010Prop44ColorRGB
 90
      255
102
RTVSPost2010PropOp44
 70
     1
102
RTVSPost2010Prop45
280
     0
102
RTVSPost2010PropOp45
 70
     1
102
RTVSPost2010Prop46
 90
       50
102
RTVSPost2010PropOp46
 70
     1
102
RTVSPost2010Prop47
 90
       50
102
RTVSPost2010PropOp47
 70
     1
102
RTVSPost2010Prop48
 90
       50
102
RTVSPost2010PropOp48
 70
     1
102
RTVSPost2010Prop49
280
     0
102
RTVSPost2010PropOp49
 70
     1
102
RTVSPost2010Prop50
 90
       50
102
RTVSPost2010PropOp50
 70
     1
102
RTVSPost2010Prop51ColorIndex
 90
      256
102
RTVSPost2010Prop51ColorRGB
 90
-16777216
102
RTVSPost2010PropOp51
 70
     0
102
RTVSPost2010Prop52
140
1.0
102
RTVSPost2010PropOp52
 70
     0
102
RTVSPost2010Prop53
 90
        2
102
RTVSPost2010PropOp53
 70
     1
102
RTVSPost2010Prop54
  1
strokes_ogs.tif
102
RTVSPost2010PropOp54
 70
     1
102
RTVSPost2010Prop55
280
     0
102
RTVSPost2010PropOp55
 70
     1
102
RTVSPost2010Prop56
140
1.0
102
RTVSPost2010PropOp56
 70
     1
102
RTVSPost2010Prop57
140
1.0
102
RTVSPost2010PropOp57
 70
     1
102
RTVSPropertyOp0
 70
     1
102
RTVSPropertyOp1
 70
     1
102
RTVSPropertyOp2
 70
     1
102
RTVSPropertyOp3
 70
     1
102
RTVSPropertyOp4
 70
     1
102
RTVSPropertyOp5
 70
     1
102
RTVSPropertyOp6
 70
     1
102
RTVSPropertyOp7
 70
     1
102
RTVSPropertyOp8
 70
     1
102
RTVSPropertyOp9
 70
     1
102
RTVSPropertyOp10
 70
     1
102
RTVSPropertyOp11
 70
     1
102
RTVSPropertyOp12
 70
     1
102
RTVSPropertyOp13
 70
     1
102
RTVSPropertyOp14
 70
     1
102
RTVSPropertyOp15
 70
     1
102
RTVSPropertyOp16
 70
     1
102
RTVSPropertyOp17
 70
     1
102
RTVSPropertyOp18
 70
     1
102
RTVSPropertyOp19
 70
     1
102
RTVSPropertyOp20
 70
     1
102
RTVSPropertyOp21
 70
     1
102
RTVSPropertyOp22
 70
     1
102
RTVSPropertyOp23
 70
     1
102
RTVSPropertyOp24
 70
     1
102
RTVSPropertyOp25
 70
     1
102
RTVSPropertyOp26
 70
     1
102
RTVSPropertyOp27
 70
     1
102
RTVSPropertyOp28
 70
     1
102
RTVSPropertyOp29
 70
     1
102
RTVSPropertyOp30
 70
     1
102
RTVSPropertyOp31
 70
     1
102
RTVSPropertyOp32
 70
     1
102
RTVSPropertyOp33
 70
     1
102
RTVSPropertyOp34
 70
     1
102
RTVSPropertyOp35
 70
     1
102
RTVSPropertyOp36
 70
     1
102
RTVSPropertyOp37
 70
     1
102
RTVSPropertyOp38
 70
     1
102
RTVSPropertyOp39
 70
     1
102
RTVSPropertyOp40
 70
     1
102
RTVSPropertyOp41
 70
     1
102
RTVSPropertyOp42
 70
     1
102
RTVSPropertyOp43
 70
     1
102
RTVSPropertyOp44
 70
     1
102
RTVSPropertyOp45
 70
     1
102
RTVSPropertyOp46
 70
     1
102
RTVSPropertyOp47
 70
     1
102
RTVSPropertyOp48
 70
     1
102
RTVSPropertyOp49
 70
     1
102
RTVSPropertyOp50
 70
     1
102
RTVSPropertyOp51
 70
     0
102
RTVSPropertyOp52
 70
     0
102
RTVSPropertyOp53
 70
     1
102
RTVSPropertyOp54
 70
     1
102
RTVSPropertyOp55
 70
     1
102
RTVSPropertyOp56
 70
     1
102
RTVSPropertyOp57
 70
     1
102
RTVSPropertyOp58
 70
     1
102
RTVSPropertyOp59
 70
     1
102
RTVSPropertyOp60
 70
     1
102
RTVSPropertyOp61
 70
     1
102
RTVSPropertyOp62
 70
     1
  0
ENDSEC
  0
EOF
